  0
SECTION
  2
HEADER
  9
$ACADVER
  1
AC1014
  9
$ACADMAINTVER
 70
     9
  9
$DWGCODEPAGE
  3
ANSI_932
  9
$INSBASE
 10
0.0
 20
0.0
 30
0.0
  9
$EXTMIN
 10
-174.3057034970648
 20
-54.24988050329949
 30
-0.00000001
  9
$EXTMAX
 10
91.08291025419374
 20
90.62862025131776
 30
0.00000001
  9
$LIMMIN
 10
-213.3024795535802
 20
-90.95588373145028
  9
$LIMMAX
 10
143.3961809310303
 20
133.343975728676
  9
$ORTHOMODE
 70
     0
  9
$REGENMODE
 70
     1
  9
$FILLMODE
 70
     1
  9
$QTEXTMODE
 70
     0
  9
$MIRRTEXT
 70
     1
  9
$DRAGMODE
 70
     2
  9
$LTSCALE
 40
1.0
  9
$OSMODE
 70
    55
  9
$ATTMODE
 70
     1
  9
$TEXTSIZE
 40
2.5
  9
$TRACEWID
 40
1.0
  9
$TEXTSTYLE
  7
STANDARD
  9
$CLAYER
  8
AM_5
  9
$CELTYPE
  6
BYLAYER
  9
$CECOLOR
 62
   256
  9
$CELTSCALE
 40
1.0
  9
$DELOBJ
 70
     1
  9
$DISPSILH
 70
     0
  9
$DIMSCALE
 40
1.0
  9
$DIMASZ
 40
2.5
  9
$DIMEXO
 40
0.0
  9
$DIMDLI
 40
10.0
  9
$DIMRND
 40
0.0
  9
$DIMDLE
 40
0.0
  9
$DIMEXE
 40
1.0
  9
$DIMTP
 40
0.1
  9
$DIMTM
 40
0.1000000001
  9
$DIMTXT
 40
3.799999999999999
  9
$DIMCEN
 40
0.0
  9
$DIMTSZ
 40
0.0
  9
$DIMTOL
 70
     0
  9
$DIMLIM
 70
     0
  9
$DIMTIH
 70
     0
  9
$DIMTOH
 70
     0
  9
$DIMSE1
 70
     0
  9
$DIMSE2
 70
     0
  9
$DIMTAD
 70
     3
  9
$DIMZIN
 70
     9
  9
$DIMBLK
  1
OPEN30
  9
$DIMASO
 70
     1
  9
$DIMSHO
 70
     1
  9
$DIMPOST
  1

  9
$DIMAPOST
  1
"
  9
$DIMALT
 70
     0
  9
$DIMALTD
 70
     2
  9
$DIMALTF
 40
0.0393701
  9
$DIMLFAC
 40
1.0
  9
$DIMTOFL
 70
     1
  9
$DIMTVP
 40
0.0
  9
$DIMTIX
 70
     0
  9
$DIMSOXD
 70
     0
  9
$DIMSAH
 70
     0
  9
$DIMBLK1
  1

  9
$DIMBLK2
  1

  9
$DIMSTYLE
  2
AM_JIS
  9
$DIMCLRD
 70
   256
  9
$DIMCLRE
 70
   256
  9
$DIMCLRT
 70
     2
  9
$DIMTFAC
 40
0.71
  9
$DIMGAP
 40
1.5
  9
$DIMJUST
 70
     0
  9
$DIMSD1
 70
     0
  9
$DIMSD2
 70
     0
  9
$DIMTOLJ
 70
     0
  9
$DIMTZIN
 70
     8
  9
$DIMALTZ
 70
     0
  9
$DIMALTTZ
 70
     0
  9
$DIMFIT
 70
     3
  9
$DIMUPT
 70
     0
  9
$DIMUNIT
 70
     2
  9
$DIMDEC
 70
     2
  9
$DIMTDEC
 70
     2
  9
$DIMALTU
 70
     2
  9
$DIMALTTD
 70
     2
  9
$DIMTXSTY
  7
STANDARD
  9
$DIMAUNIT
 70
     1
  9
$LUNITS
 70
     2
  9
$LUPREC
 70
     2
  9
$SKETCHINC
 40
1.0
  9
$FILLETRAD
 40
0.0
  9
$AUNITS
 70
     1
  9
$AUPREC
 70
     5
  9
$MENU
  1
.
  9
$ELEVATION
 40
0.0
  9
$PELEVATION
 40
0.0
  9
$THICKNESS
 40
0.0
  9
$LIMCHECK
 70
     0
  9
$BLIPMODE
 70
     0
  9
$CHAMFERA
 40
0.5
  9
$CHAMFERB
 40
0.5
  9
$CHAMFERC
 40
20.0
  9
$CHAMFERD
 40
0.0
  9
$SKPOLY
 70
     0
  9
$TDCREATE
 40
2451943.610431666
  9
$TDUPDATE
 40
2453151.555409051
  9
$TDINDWG
 40
0.4136171181
  9
$TDUSRTIMER
 40
0.4136169444
  9
$USRTIMER
 70
     1
  9
$ANGBASE
 50
0.0
  9
$ANGDIR
 70
     0
  9
$PDMODE
 70
     0
  9
$PDSIZE
 40
0.0
  9
$PLINEWID
 40
0.0
  9
$COORDS
 70
     1
  9
$SPLFRAME
 70
     0
  9
$SPLINETYPE
 70
     6
  9
$SPLINESEGS
 70
     8
  9
$ATTDIA
 70
     1
  9
$ATTREQ
 70
     1
  9
$HANDLING
 70
 12289
  9
$HANDSEED
  5
863D
  9
$SURFTAB1
 70
     6
  9
$SURFTAB2
 70
     6
  9
$SURFTYPE
 70
     6
  9
$SURFU
 70
     6
  9
$SURFV
 70
     6
  9
$UCSNAME
  2

  9
$UCSORG
 10
0.0
 20
0.0
 30
0.0
  9
$UCSXDIR
 10
1.0
 20
0.0
 30
0.0
  9
$UCSYDIR
 10
0.0
 20
1.0
 30
0.0
  9
$PUCSNAME
  2

  9
$PUCSORG
 10
0.0
 20
0.0
 30
0.0
  9
$PUCSXDIR
 10
1.0
 20
0.0
 30
0.0
  9
$PUCSYDIR
 10
0.0
 20
1.0
 30
0.0
  9
$USERI1
 70
     0
  9
$USERI2
 70
     0
  9
$USERI3
 70
     0
  9
$USERI4
 70
     0
  9
$USERI5
 70
     0
  9
$USERR1
 40
0.0
  9
$USERR2
 40
0.0
  9
$USERR3
 40
0.0
  9
$USERR4
 40
0.0
  9
$USERR5
 40
0.0
  9
$WORLDVIEW
 70
     1
  9
$SHADEDGE
 70
     3
  9
$SHADEDIF
 70
    70
  9
$TILEMODE
 70
     1
  9
$MAXACTVP
 70
    64
  9
$PINSBASE
 10
0.0
 20
0.0
 30
0.0
  9
$PLIMCHECK
 70
     0
  9
$PEXTMIN
 10
1.000000000000000E+20
 20
1.000000000000000E+20
 30
1.000000000000000E+20
  9
$PEXTMAX
 10
-1.000000000000000E+20
 20
-1.000000000000000E+20
 30
-1.000000000000000E+20
  9
$PLIMMIN
 10
0.0
 20
0.0
  9
$PLIMMAX
 10
420.0
 20
297.0
  9
$UNITMODE
 70
     0
  9
$VISRETAIN
 70
     1
  9
$PLINEGEN
 70
     0
  9
$PSLTSCALE
 70
     1
  9
$TREEDEPTH
 70
  3020
  9
$PICKSTYLE
 70
     0
  9
$CMLSTYLE
  2
STANDARD
  9
$CMLJUST
 70
     0
  9
$CMLSCALE
 40
20.0
  9
$PROXYGRAPHICS
 70
     1
  9
$MEASUREMENT
 70
     1
  0
ENDSEC
  0
SECTION
  2
CLASSES
  0
CLASS
  1
ACDBDICTIONARYWDFLT
  2
AcDbDictionaryWithDefault
  3
AutoCAD 2000
 90
        0
280
     0
281
     0
  0
CLASS
  1
ACDBPLACEHOLDER
  2
AcDbPlaceHolder
  3
AutoCAD 2000
 90
        0
280
     0
281
     0
  0
CLASS
  1
LAYOUT
  2
AcDbLayout
  3
AutoCAD 2000
 90
        0
280
     0
281
     0
  0
CLASS
  1
ACME_DOCUMENT
  2
AcMeDbDoc
  3
AcMeServices
 90
        0
280
     0
281
     0
  0
CLASS
  1
ACMESCOPE
  2
AcMeScope
  3
AcMeServices
 90
        0
280
     0
281
     0
  0
CLASS
  1
ACMECOMMANDHISTORY
  2
AcMeCommandHistory
  3
AcMeServices
 90
        0
280
     0
281
     0
  0
CLASS
  1
DICTIONARYVAR
  2
AcDbDictionaryVar
  3
AutoCAD 2000
 90
        0
280
     0
281
     0
  0
CLASS
  1
ACIMSYSVARMAN
  2
AcImSysVarManager
  3
AcMeServices
 90
        0
280
     0
281
     0
  0
CLASS
  1
ACIMREALSYSVAR
  2
AcImRealSysVar
  3
AcMeServices
 90
        0
280
     0
281
     0
  0
CLASS
  1
ACIMINTSYSVAR
  2
AcImIntSysVar
  3
AcMeServices
 90
        0
280
     0
281
     0
  0
CLASS
  1
ACMEDRAWINGMAN
  2
AcMeDrawingMan
  3
AcMeServices
 90
        0
280
     0
281
     0
  0
CLASS
  1
ACMEVIEW
  2
AcMeView
  3
AcMeServices
 90
        0
280
     0
281
     0
  0
CLASS
  1
ACDBENTITYCACHE
  2
AcMeEntityCache
  3
AcMeServices
 90
        0
280
     0
281
     0
  0
CLASS
  1
GSMANAGER
  2
AcMeGSManager
  3
AcMeServices
 90
        0
280
     0
281
     0
  0
CLASS
  1
AmdtInternalReactor
  2
AmdtInternalReactor
  3
AcMeServices
 90
        0
280
     0
281
     0
  0
CLASS
  1
ACMESTATEMGR
  2
AcMeStateMgr
  3
AcMeServices
 90
        0
280
     0
281
     0
  0
CLASS
  1
ACME_DATABASE
  2
AcMeDbDatabase
  3
AcMeServices
 90
        0
280
     0
281
     0
  0
CLASS
  1
ACRFINSADJUSTERMGR
  2
AcRfInsAdjusterMgr
  3
AcMeServices
 90
        0
280
     0
281
     0
  0
CLASS
  1
AMGSETTINGSOBJ
  2
AmgSettingsObj
  3
"AcadM|Product Description: AutoCAD Mechanical 2000|Company: Autodesk"
 90
        0
280
     0
281
     0
  0
CLASS
  1
AMGOBJPROPCFG
  2
AmgObjPropCfg
  3
"AmgLay|Product Description: AutoCAD Mechanical 2000|Company: Autodesk"
 90
        1
280
     0
281
     0
  0
CLASS
  1
ACMDATADICTIONARY
  2
AcmDataDictionary
  3
"AcmSymBB|Product Description: AutoCAD Mechanical 2000|Company: Autodesk"
 90
        0
280
     0
281
     0
  0
CLASS
  1
ACMDATAENTRYBLOCK
  2
AcmDataEntryBlock
  3
"AcmSymBB|Product Description: AutoCAD Mechanical 2000|Company: Autodesk"
 90
        0
280
     0
281
     0
  0
CLASS
  1
ACIMSTRSYSVAR
  2
AcImStrSysVar
  3
AcMeServices
 90
        0
280
     0
281
     0
  0
CLASS
  1
ACAMGFILTERDAT
  2
AcAmgFilterDat
  3
"AcadM|Product Description: AutoCAD Mechanical 2000|Company: Autodesk"
 90
        0
280
     0
281
     0
  0
CLASS
  1
LAYER_INDEX
  2
AcDbLayerIndex
  3
AutoCAD 2000
 90
        0
280
     0
281
     0
  0
CLASS
  1
IDBUFFER
  2
AcDbIdBuffer
  3
AutoCAD 2000
 90
        0
280
     0
281
     0
  0
CLASS
  1
ACMSTANDARDJIS
  2
AcmStandardJIS
  3
"AcmSymBB|Product Description: AutoCAD Mechanical 2000|Company: Autodesk"
 90
        0
280
     0
281
     0
  0
CLASS
  1
ACMSURFSTANDARDJIS
  2
AcmSurfTextStdJIS
  3
"AcmSymBB|Product Description: AutoCAD Mechanical 2000|Company: Autodesk"
 90
        0
280
     0
281
     0
  0
CLASS
  1
ACMFCFSTANDARDJIS
  2
AcmFCFStdJIS
  3
"AcmSymBB|Product Description: AutoCAD Mechanical 2000|Company: Autodesk"
 90
        0
280
     0
281
     0
  0
CLASS
  1
ACMWELDSTANDARDJIS
  2
AcmWeldingStdJIS
  3
"AcmSymBB|Product Description: AutoCAD Mechanical 2000|Company: Autodesk"
 90
        0
280
     0
281
     0
  0
CLASS
  1
ACMIDSTANDARDJIS
  2
AcmIdStdJIS
  3
"AcmSymBB|Product Description: AutoCAD Mechanical 2000|Company: Autodesk"
 90
        0
280
     0
281
     0
  0
CLASS
  1
ACMDATUMSTANDARDJIS
  2
AcmDatumStdJIS
  3
"AcmSymBB|Product Description: AutoCAD Mechanical 2000|Company: Autodesk"
 90
        0
280
     0
281
     0
  0
CLASS
  1
ACMBOMSTANDARDJIS
  2
AcmBOMStdJIS
  3
"AcmSymBB|Product Description: AutoCAD Mechanical 2000|Company: Autodesk"
 90
        0
280
     0
281
     0
  0
CLASS
  1
AMDTNOTE
  2
AmdtNote
  3
"AcmSymBB|Product Description: AutoCAD Mechanical 2000|Company: Autodesk"
 90
     1023
280
     0
281
     1
  0
CLASS
  1
ACMDATAENTRYPART
  2
AcmDataEntryPart
  3
"AcmSymBB|Product Description: AutoCAD Mechanical 2000|Company: Autodesk"
 90
        0
280
     0
281
     0
  0
CLASS
  1
ACMPARTREF
  2
AcmPartRef
  3
"AcmSymBB|Product Description: AutoCAD Mechanical 2000|Company: Autodesk"
 90
     1023
280
     0
281
     1
  0
CLASS
  1
ACDB_PROXY_ENTITY_DATA
  2
AcDbProxyEntityData
  3
AutoCAD 2000
 90
        0
280
     0
281
     0
  0
CLASS
  1
LONG_TRANSACTION
  2
AcDbLongTransaction
  3
AutoCAD 2000
 90
        0
280
     0
281
     0
  0
CLASS
  1
LWPOLYLINE
  2
AcDbPolyline
  3
AutoCAD 2000
 90
        0
280
     0
281
     1
  0
CLASS
  1
HATCH
  2
AcDbHatch
  3
AutoCAD 2000
 90
        0
280
     0
281
     1
  0
CLASS
  1
XRECORD
  2
AcDbXrecord
  3
AutoCAD 2000
 90
        0
280
     0
281
     0
  0
ENDSEC
  0
SECTION
  2
TABLES
  0
TABLE
  2
VPORT
  5
8
330
0
100
AcDbSymbolTable
 70
     3
  0
VPORT
  5
860C
330
8
100
AcDbSymbolTableRecord
100
AcDbViewportTableRecord
  2
*ACTIVE
 70
     0
 10
0.0
 20
0.0
 11
1.0
 21
1.0
 12
-26.37454589788615
 22
83.42745247067435
 13
0.0
 23
0.0
 14
2.5
 24
2.5
 15
10.0
 25
10.0
 16
0.0
 26
0.0
 36
1.0
 17
0.0
 27
0.0
 37
0.0
 40
491.4000531012107
 41
1.56570841889117
 42
50.0
 43
0.0
 44
0.0
 50
0.0
 51
0.0
 71
     0
 72
  2000
 73
     1
 74
     3
 75
     0
 76
     0
 77
     0
 78
     0
  0
ENDTAB
  0
TABLE
  2
LTYPE
  5
5
330
0
100
AcDbSymbolTable
 70
    10
  0
LTYPE
  5
14
330
5
100
AcDbSymbolTableRecord
100
AcDbLinetypeTableRecord
  2
BYBLOCK
 70
     0
  3

 72
    65
 73
     0
 40
0.0
  0
LTYPE
  5
15
330
5
100
AcDbSymbolTableRecord
100
AcDbLinetypeTableRecord
  2
BYLAYER
 70
     0
  3

 72
    65
 73
     0
 40
0.0
  0
LTYPE
  5
16
330
5
100
AcDbSymbolTableRecord
100
AcDbLinetypeTableRecord
  2
CONTINUOUS
 70
     0
  3
Solid line
 72
    65
 73
     0
 40
0.0
  0
LTYPE
  5
43
330
5
100
AcDbSymbolTableRecord
100
AcDbLinetypeTableRecord
  2
AM_ISO02W050
 70
     0
  3
__ __ __ __ __ __ __ __ __ __ __ __ __ __ __
 72
    65
 73
     2
 40
7.5
 49
6.0
 74
     0
 49
-1.5
 74
     0
  0
LTYPE
  5
44
330
5
100
AcDbSymbolTableRecord
100
AcDbLinetypeTableRecord
  2
AM_ISO08W050
 70
     0
  3
____ . ____ . ____ . ____ . ____ . ____ . ____
 72
    65
 73
     4
 40
18.0
 49
12.0
 74
     0
 49
-1.5
 74
     0
 49
3.0
 74
     0
 49
-1.5
 74
     0
  0
LTYPE
  5
45
330
5
100
AcDbSymbolTableRecord
100
AcDbLinetypeTableRecord
  2
AM_ISO09W050
 70
     0
  3
_____ . . _____ . . _____ . . ____ .. ____
 72
    65
 73
     6
 40
22.5
 49
12.0
 74
     0
 49
-1.5
 74
     0
 49
3.0
 74
     0
 49
-1.5
 74
     0
 49
3.0
 74
     0
 49
-1.5
 74
     0
  0
LTYPE
  5
46
330
5
100
AcDbSymbolTableRecord
100
AcDbLinetypeTableRecord
  2
AMCONSTR
 70
     0
  3
_______________________
 72
    65
 73
     2
 40
9999.0
 49
9999.0
 74
     0
 49
0.0
 74
     0
  0
LTYPE
  5
47
330
5
100
AcDbSymbolTableRecord
100
AcDbLinetypeTableRecord
  2
AM_ISO02W050X2
 70
     0
  3
 _ _ _ _ _ _ _ _ _ _ _ _
 72
    65
 73
     2
 40
3.75
 49
3.0
 74
     0
 49
-0.75
 74
     0
  0
LTYPE
  5
48
330
5
100
AcDbSymbolTableRecord
100
AcDbLinetypeTableRecord
  2
AM_ISO08W050X2
 70
     0
  3
__ . __ . __ . __ . __ . __
 72
    65
 73
     4
 40
9.0
 49
6.0
 74
     0
 49
-0.75
 74
     0
 49
1.5
 74
     0
 49
-0.75
 74
     0
  0
LTYPE
  5
4B
330
5
100
AcDbSymbolTableRecord
100
AcDbLinetypeTableRecord
  2
AMZIGZAG
 70
     0
  3
/\/-/\/-/\/-/\/-/\/-/\/
 72
    65
 73
     2
 40
11.00009999999999
 49
0.0001
 74
     4
 75
   135
340
4A
 46
0.04
 50
0.0
 44
0.0
 45
0.0
 49
-11.0
 74
     0
  0
LTYPE
  5
188
330
5
100
AcDbSymbolTableRecord
100
AcDbLinetypeTableRecord
  2
ACJISTGB
 70
     0
  3
__ . . __ . .
 72
    65
 73
     6
 40
9.0
 49
4.0
 74
     0
 49
-1.0
 74
     0
 49
1.0
 74
     0
 49
-1.0
 74
     0
 49
1.0
 74
     0
 49
-1.0
 74
     0
  0
LTYPE
  5
189
330
5
100
AcDbSymbolTableRecord
100
AcDbLinetypeTableRecord
  2
ACJISTGL
 70
     0
  3
_ _ _ _ _
 72
    65
 73
     2
 40
3.0
 49
2.0
 74
     0
 49
-1.0
 74
     0
  0
ENDTAB
  0
TABLE
  2
LAYER
  5
2
330
0
100
AcDbSymbolTable
 70
     7
  0
LAYER
  5
10
330
2
100
AcDbSymbolTableRecord
100
AcDbLayerTableRecord
  2
0
 70
     0
 62
     7
  6
CONTINUOUS
  0
LAYER
  5
7D
330
2
100
AcDbSymbolTableRecord
100
AcDbLayerTableRecord
  2
AM_5
 70
     0
 62
     3
  6
CONTINUOUS
  0
LAYER
  5
7F
330
2
100
AcDbSymbolTableRecord
100
AcDbLayerTableRecord
  2
DEFPOINTS
 70
     0
 62
     7
  6
CONTINUOUS
  0
LAYER
  5
12B1
330
2
100
AcDbSymbolTableRecord
100
AcDbLayerTableRecord
  2
AM_0
 70
     0
 62
     7
  6
CONTINUOUS
  0
LAYER
  5
2222
330
2
100
AcDbSymbolTableRecord
100
AcDbLayerTableRecord
  2
AM_6
 70
     0
 62
     2
  6
CONTINUOUS
  0
LAYER
  5
4379
330
2
100
AcDbSymbolTableRecord
100
AcDbLayerTableRecord
  2
AM_1
 70
     0
 62
     3
  6
CONTINUOUS
  0
LAYER
  5
74E5
330
2
100
AcDbSymbolTableRecord
100
AcDbLayerTableRecord
  2
AM_VIS
 70
     2
 62
     7
  6
CONTINUOUS
  0
ENDTAB
  0
TABLE
  2
STYLE
  5
3
330
0
100
AcDbSymbolTable
 70
     4
  0
STYLE
  5
11
330
3
100
AcDbSymbolTableRecord
100
AcDbTextStyleTableRecord
  2
STANDARD
 70
     0
 40
0.0
 41
1.0
 50
0.0
 71
     0
 42
2.5
  3
ISOCP.SHX
  4
EXTFONT.SHX
  0
STYLE
  5
4A
330
3
100
AcDbSymbolTableRecord
100
AcDbTextStyleTableRecord
  2

 70
     1
 40
0.0
 41
1.0
 50
0.0
 71
     0
 42
2.5
  3
ltypeshp.shx
  4

  0
STYLE
  5
180
330
3
100
AcDbSymbolTableRecord
100
AcDbTextStyleTableRecord
  2
ACJISTS
 70
     0
 40
1.0
 41
1.0
 50
0.0
 71
     0
 42
2.5
  3
isocp.shx
  4
bigfont.shx
  0
STYLE
  5
187
330
3
100
AcDbSymbolTableRecord
100
AcDbTextStyleTableRecord
  2
ACJISGDT
 70
     0
 40
0.0
 41
1.0
 50
0.0
 71
     0
 42
2.5
  3
amgdt.shx
  4

  0
ENDTAB
  0
TABLE
  2
VIEW
  5
6
330
0
100
AcDbSymbolTable
 70
     6
  0
VIEW
  5
A30
330
6
100
AcDbSymbolTableRecord
100
AcDbViewTableRecord
  2
AM_VIEW1
 70
     0
 40
148.5
 10
112.0719649561952
 20
222.75
 41
224.1439299123904
 11
0.0
 21
0.0
 31
1.0
 12
0.0
 22
0.0
 32
0.0
 42
50.0
 43
0.0
 44
0.0
 50
0.0
 71
     0
  0
VIEW
  5
A31
330
6
100
AcDbSymbolTableRecord
100
AcDbViewTableRecord
  2
AM_VIEW2
 70
     0
 40
148.5
 10
307.9280350438047
 20
222.75
 41
224.1439299123904
 11
0.0
 21
0.0
 31
1.0
 12
0.0
 22
0.0
 32
0.0
 42
50.0
 43
0.0
 44
0.0
 50
0.0
 71
     0
  0
VIEW
  5
A32
330
6
100
AcDbSymbolTableRecord
100
AcDbViewTableRecord
  2
AM_VIEW3
 70
     0
 40
148.5
 10
112.0719649561952
 20
74.25
 41
224.1439299123904
 11
0.0
 21
0.0
 31
1.0
 12
0.0
 22
0.0
 32
0.0
 42
50.0
 43
0.0
 44
0.0
 50
0.0
 71
     0
  0
VIEW
  5
A33
330
6
100
AcDbSymbolTableRecord
100
AcDbViewTableRecord
  2
AM_VIEW4
 70
     0
 40
148.5
 10
307.9280350438047
 20
74.25
 41
224.1439299123904
 11
0.0
 21
0.0
 31
1.0
 12
0.0
 22
0.0
 32
0.0
 42
50.0
 43
0.0
 44
0.0
 50
0.0
 71
     0
  0
VIEW
  5
A34
330
6
100
AcDbSymbolTableRecord
100
AcDbViewTableRecord
  2
AM_VIEW5
 70
     0
 40
148.5
 10
210.0
 20
148.5
 41
224.1439299123904
 11
0.0
 21
0.0
 31
1.0
 12
0.0
 22
0.0
 32
0.0
 42
50.0
 43
0.0
 44
0.0
 50
0.0
 71
     0
  0
VIEW
  5
A35
330
6
100
AcDbSymbolTableRecord
100
AcDbViewTableRecord
  2
AM_VIEW6
 70
     0
 40
296.9970299999999
 10
210.0
 20
148.5
 41
448.2833769461827
 11
0.0
 21
0.0
 31
1.0
 12
0.0
 22
0.0
 32
0.0
 42
50.0
 43
0.0
 44
0.0
 50
0.0
 71
     0
  0
ENDTAB
  0
TABLE
  2
UCS
  5
7
330
0
100
AcDbSymbolTable
 70
     0
  0
ENDTAB
  0
TABLE
  2
APPID
  5
9
330
0
100
AcDbSymbolTable
 70
    37
  0
APPID
  5
12
330
9
100
AcDbSymbolTableRecord
100
AcDbRegAppTableRecord
  2
ACAD
 70
     0
  0
APPID
  5
2C
330
9
100
AcDbSymbolTableRecord
100
AcDbRegAppTableRecord
  2
MCAD_NO_VIS
 70
     0
  0
APPID
  5
2D
330
9
100
AcDbSymbolTableRecord
100
AcDbRegAppTableRecord
  2
ACAD_TEMP_GRAPHIC
 70
     0
  0
APPID
  5
B9
330
9
100
AcDbSymbolTableRecord
100
AcDbRegAppTableRecord
  2
GENIUS_GENDTOL_13
 70
     0
  0
APPID
  5
359
330
9
100
AcDbSymbolTableRecord
100
AcDbRegAppTableRecord
  2
GENIUS_GENREC_14
 70
     0
  0
APPID
  5
35A
330
9
100
AcDbSymbolTableRecord
100
AcDbRegAppTableRecord
  2
GENIUS_GENODEF_13
 70
     0
  0
APPID
  5
35B
330
9
100
AcDbSymbolTableRecord
100
AcDbRegAppTableRecord
  2
GENIUS_GENOBJ-N-REC_13
 70
     0
  0
APPID
  5
667
330
9
100
AcDbSymbolTableRecord
100
AcDbRegAppTableRecord
  2
GENIUS_GENCFG_13
 70
     0
  0
APPID
  5
668
330
9
100
AcDbSymbolTableRecord
100
AcDbRegAppTableRecord
  2
GENIUS_GENCFG0_13
 70
     0
  0
APPID
  5
669
330
9
100
AcDbSymbolTableRecord
100
AcDbRegAppTableRecord
  2
GENIUS_GENCFG1_13
 70
     0
  0
APPID
  5
66A
330
9
100
AcDbSymbolTableRecord
100
AcDbRegAppTableRecord
  2
GENIUS_GENCFG2_13
 70
     0
  0
APPID
  5
66B
330
9
100
AcDbSymbolTableRecord
100
AcDbRegAppTableRecord
  2
GENIUS_GENCFG3_13
 70
     0
  0
APPID
  5
66C
330
9
100
AcDbSymbolTableRecord
100
AcDbRegAppTableRecord
  2
GENIUS_GENCFG4_13
 70
     0
  0
APPID
  5
A76
330
9
100
AcDbSymbolTableRecord
100
AcDbRegAppTableRecord
  2
GENIUS_GENBLLY_14
 70
     0
  0
APPID
  5
A77
330
9
100
AcDbSymbolTableRecord
100
AcDbRegAppTableRecord
  2
GENIUS_GENOBJ-N-CEN_13
 70
     0
  0
APPID
  5
A83
330
9
100
AcDbSymbolTableRecord
100
AcDbRegAppTableRecord
  2
GENIUS_GENTRA_14
 70
     0
  0
APPID
  5
A8D
330
9
100
AcDbSymbolTableRecord
100
AcDbRegAppTableRecord
  2
GENIUS_GENOBJ-N-TIT_13
 70
     0
  0
APPID
  5
A8E
330
9
100
AcDbSymbolTableRecord
100
AcDbRegAppTableRecord
  2
GENIUS_GENTITLE_13
 70
     0
  0
APPID
  5
A8F
330
9
100
AcDbSymbolTableRecord
100
AcDbRegAppTableRecord
  2
GENIUS_GENOENT_13
 70
     0
  0
APPID
  5
A90
330
9
100
AcDbSymbolTableRecord
100
AcDbRegAppTableRecord
  2
GENIUS_GENOREF_13
 70
     0
  0
APPID
  5
A91
330
9
100
AcDbSymbolTableRecord
100
AcDbRegAppTableRecord
  2
GENIUS_GENOLIS_13
 70
     0
  0
APPID
  5
A92
330
9
100
AcDbSymbolTableRecord
100
AcDbRegAppTableRecord
  2
GENIUS_GENZVEED_13
 70
     0
  0
APPID
  5
A93
330
9
100
AcDbSymbolTableRecord
100
AcDbRegAppTableRecord
  2
GENIUS_GENSCREG_15
 70
     0
  0
APPID
  5
A94
330
9
100
AcDbSymbolTableRecord
100
AcDbRegAppTableRecord
  2
GENIUS_GENOBJ-N-SDF_13
 70
     0
  0
APPID
  5
12B5
330
9
100
AcDbSymbolTableRecord
100
AcDbRegAppTableRecord
  2
GENIUS_GENOBJ-N-RSBK_13
 70
     0
  0
APPID
  5
12B6
330
9
100
AcDbSymbolTableRecord
100
AcDbRegAppTableRecord
  2
GENIUS_GENOBJ-N-LIB_13
 70
     0
  0
APPID
  5
12B7
330
9
100
AcDbSymbolTableRecord
100
AcDbRegAppTableRecord
  2
GENIUS_GENSCALE_13
 70
     0
  0
APPID
  5
12B8
330
9
100
AcDbSymbolTableRecord
100
AcDbRegAppTableRecord
  2
GENIUS_GENOBJ-N-HTC_13
 70
     0
  0
APPID
  5
12B9
330
9
100
AcDbSymbolTableRecord
100
AcDbRegAppTableRecord
  2
GENIUS_GENHATCH_13
 70
     0
  0
APPID
  5
1C0A
330
9
100
AcDbSymbolTableRecord
100
AcDbRegAppTableRecord
  2
BASE_TYPE
 70
     0
  0
APPID
  5
276B
330
9
100
AcDbSymbolTableRecord
100
AcDbRegAppTableRecord
  2
GENIUS_GENOBJ-N-FIL_13
 70
     0
  0
APPID
  5
3640
330
9
100
AcDbSymbolTableRecord
100
AcDbRegAppTableRecord
  2
GENIUS_GENBH_13
 70
     0
  0
APPID
  5
36D1
330
9
100
AcDbSymbolTableRecord
100
AcDbRegAppTableRecord
  2
GENIUS_GENOBJ-F-SPR_13
 70
     0
  0
APPID
  5
36DA
330
9
100
AcDbSymbolTableRecord
100
AcDbRegAppTableRecord
  2
GENIUS_GEFSPRING_13
 70
     0
  0
APPID
  5
36DB
330
9
100
AcDbSymbolTableRecord
100
AcDbRegAppTableRecord
  2
GENIUS_GEFSPRINGP_13
 70
     0
  0
APPID
  5
4D67
330
9
100
AcDbSymbolTableRecord
100
AcDbRegAppTableRecord
  2
GENIUS_GENFIL_13
 70
     0
  0
APPID
  5
4D68
330
9
100
AcDbSymbolTableRecord
100
AcDbRegAppTableRecord
  2
GENIUS_GENOBJ-N-CHA_13
 70
     0
  0
ENDTAB
  0
TABLE
  2
DIMSTYLE
  5
A
330
0
100
AcDbSymbolTable
 70
    11
  0
DIMSTYLE
105
58
330
A
100
AcDbSymbolTableRecord
100
AcDbDimStyleTableRecord
  2
AM_JIS
 70
     0
  3

  4
"
  5
OPEN30
  6

  7

 40
1.0
 41
2.5
 42
0.0
 43
10.0
 44
1.0
 45
0.0
 46
0.0
 47
0.1
 48
0.1000000001
140
3.799999999999999
141
0.0
142
0.0
143
0.0393701
144
1.0
145
0.0
146
0.71
147
1.5
 71
     0
 72
     0
 73
     0
 74
     0
 75
     0
 76
     0
 77
     3
 78
     9
170
     0
171
     2
172
     1
173
     0
174
     0
175
     0
176
   256
177
   256
178
     2
270
     2
271
     2
272
     2
273
     2
274
     2
340
11
275
     1
280
     0
281
     0
282
     0
283
     0
284
     8
285
     0
286
     0
287
     3
288
     0
  0
DIMSTYLE
105
5F
330
A
100
AcDbSymbolTableRecord
100
AcDbDimStyleTableRecord
  2
AM_JIS$3
 70
     0
  3

  4
"
  5
OPEN30
  6

  7

 40
1.0
 41
2.5
 42
0.0
 43
10.0
 44
1.0
 45
0.0
 46
0.0
 47
0.1
 48
0.1000000001
140
3.799999999999999
141
0.0
142
0.0
143
0.0393701
144
1.0
145
0.0
146
0.71
147
1.5
 71
     0
 72
     0
 73
     0
 74
     1
 75
     0
 76
     0
 77
     3
 78
     9
170
     0
171
     2
172
     1
173
     0
174
     0
175
     0
176
   256
177
   256
178
     2
270
     2
271
     2
272
     2
273
     2
274
     2
340
11
275
     1
280
     0
281
     0
282
     0
283
     0
284
     8
285
     0
286
     0
287
     0
288
     1
  0
DIMSTYLE
105
60
330
A
100
AcDbSymbolTableRecord
100
AcDbDimStyleTableRecord
  2
AM_JIS$4
 70
     0
  3

  4
"
  5
OPEN30
  6

  7

 40
1.0
 41
2.5
 42
0.0
 43
10.0
 44
1.0
 45
0.0
 46
0.0
 47
0.1
 48
0.1000000001
140
3.799999999999999
141
0.0
142
0.0
143
0.0393701
144
1.0
145
0.0
146
0.71
147
1.5
 71
     0
 72
     0
 73
     0
 74
     1
 75
     0
 76
     0
 77
     3
 78
     9
170
     0
171
     2
172
     1
173
     0
174
     0
175
     0
176
   256
177
   256
178
     2
270
     2
271
     2
272
     2
273
     2
274
     2
340
11
275
     1
280
     0
281
     0
282
     0
283
     0
284
     8
285
     0
286
     0
287
     0
288
     1
  0
DIMSTYLE
105
61
330
A
100
AcDbSymbolTableRecord
100
AcDbDimStyleTableRecord
  2
AM_JIS$6
 70
     0
  3

  4
"
  5
OPEN30
  6

  7

 40
1.0
 41
2.5
 42
0.0
 43
10.0
 44
1.0
 45
0.0
 46
0.0
 47
0.1
 48
0.1000000001
140
3.799999999999999
141
0.0
142
0.0
143
0.0393701
144
1.0
145
0.0
146
0.71
147
1.5
 71
     0
 72
     0
 73
     0
 74
     0
 75
     0
 76
     0
 77
     0
 78
     9
170
     0
171
     2
172
     1
173
     0
174
     0
175
     0
176
   256
177
   256
178
     2
270
     2
271
     2
272
     2
273
     2
274
     2
340
11
275
     1
280
     0
281
     0
282
     0
283
     0
284
     8
285
     0
286
     0
287
     3
288
     0
  0
DIMSTYLE
105
62
330
A
100
AcDbSymbolTableRecord
100
AcDbDimStyleTableRecord
  2
AM_JIS$7
 70
     0
  3

  4
"
  5
OPEN30
  6

  7

 40
1.0
 41
2.5
 42
0.0
 43
10.0
 44
1.0
 45
0.0
 46
0.0
 47
0.1
 48
0.1000000001
140
5.0
141
0.0
142
0.0
143
0.0393701
144
1.0
145
0.0
146
0.71
147
1.5
 71
     0
 72
     0
 73
     0
 74
     0
 75
     0
 76
     0
 77
     3
 78
     9
170
     0
171
     2
172
     1
173
     0
174
     0
175
     0
176
   256
177
   256
178
     2
270
     2
271
     2
272
     2
273
     2
274
     2
340
11
275
     1
280
     0
281
     0
282
     0
283
     0
284
     8
285
     0
286
     0
287
     3
288
     0
  0
DIMSTYLE
105
63
330
A
100
AcDbSymbolTableRecord
100
AcDbDimStyleTableRecord
  2
AM_JIS$SF
 70
     0
  3

  4
"
  5
OPEN30
  6
OPEN30
  7
OPEN30
 40
1.0
 41
2.5
 42
1.0
 43
10.0
 44
1.0
 45
0.0
 46
0.0
 47
0.1
 48
0.1
140
3.5
141
0.0
142
0.0
143
0.0393701
144
1.0
145
0.0
146
0.71
147
1.5
 71
     0
 72
     0
 73
     0
 74
     0
 75
     1
 76
     1
 77
     3
 78
     8
170
     0
171
     2
172
     0
173
     0
174
     0
175
     0
176
   256
177
   256
178
     2
270
     2
271
     2
272
     3
273
     2
274
     4
340
11
275
     0
280
     0
281
     0
282
     0
283
     1
284
     0
285
     0
286
     0
287
     3
288
     0
  0
DIMSTYLE
105
68
330
A
100
AcDbSymbolTableRecord
100
AcDbDimStyleTableRecord
  2
AM_JIS$SH
 70
     0
  3

  4
"
  5
OPEN30
  6
GENAXEH
  7
OPEN30
 40
1.0
 41
2.5
 42
1.0
 43
10.0
 44
1.0
 45
0.0
 46
0.0
 47
0.1
 48
0.1
140
3.5
141
0.0
142
0.0
143
0.0393701
144
2.0
145
0.0
146
0.71
147
1.5
 71
     0
 72
     0
 73
     0
 74
     0
 75
     1
 76
     1
 77
     3
 78
     8
170
     0
171
     2
172
     0
173
     1
174
     0
175
     0
176
   256
177
   256
178
     2
270
     2
271
     2
272
     3
273
     2
274
     4
340
11
275
     0
280
     0
281
     0
282
     0
283
     1
284
     0
285
     0
286
     0
287
     3
288
     0
  0
DIMSTYLE
105
65F
330
A
100
AcDbSymbolTableRecord
100
AcDbDimStyleTableRecord
  2
STANDARD
 70
     0
  3

  4

  5

  6

  7

 40
1.0
 41
0.18
 42
0.0625
 43
0.38
 44
0.18
 45
0.0
 46
0.0
 47
0.0
 48
0.0
140
0.18
141
0.09
142
0.0
143
25.4
144
1.0
145
0.0
146
1.0
147
0.09
 71
     0
 72
     0
 73
     1
 74
     1
 75
     0
 76
     0
 77
     0
 78
     0
170
     0
171
     2
172
     0
173
     0
174
     0
175
     0
176
     0
177
     0
178
     0
270
     2
271
     4
272
     4
273
     2
274
     2
340
11
275
     0
280
     0
281
     0
282
     0
283
     1
284
     0
285
     0
286
     0
287
     3
288
     0
  0
DIMSTYLE
105
1761
102
{ACAD_REACTORS
330
847C
330
84AA
330
84D3
330
850D
330
851A
330
8527
102
}
330
A
100
AcDbSymbolTableRecord
100
AcDbDimStyleTableRecord
  2
AM_JIS$0
 70
     0
  3

  4
"
  5
OPEN30
  6

  7

 40
1.0
 41
2.5
 42
0.0
 43
10.0
 44
1.0
 45
0.0
 46
0.0
 47
0.1
 48
0.1000000001
140
3.799999999999999
141
0.0
142
0.0
143
0.0393701
144
1.0
145
0.0
146
0.71
147
1.5
 71
     0
 72
     0
 73
     0
 74
     0
 75
     0
 76
     0
 77
     3
 78
     9
170
     0
171
     2
172
     1
173
     0
174
     0
175
     0
176
     3
177
     3
178
     2
270
     2
271
     2
272
     2
273
     2
274
     2
340
11
275
     1
280
     0
281
     0
282
     0
283
     0
284
     8
285
     0
286
     0
287
     0
288
     0
  0
DIMSTYLE
105
1762
102
{ACAD_REACTORS
330
8492
102
}
330
A
100
AcDbSymbolTableRecord
100
AcDbDimStyleTableRecord
  2
AM_JIS$2
 70
     0
  3

  4
"
  5
OPEN30
  6

  7

 40
1.0
 41
2.5
 42
0.0
 43
10.0
 44
1.0
 45
0.0
 46
0.0
 47
0.1
 48
0.1000000001
140
3.799999999999999
141
0.0
142
0.0
143
0.0393701
144
1.0
145
0.0
146
0.71
147
1.5
 71
     0
 72
     0
 73
     0
 74
     0
 75
     0
 76
     0
 77
     3
 78
     9
170
     0
171
     2
172
     1
173
     0
174
     0
175
     0
176
     3
177
     3
178
     2
270
     2
271
     2
272
     2
273
     2
274
     2
340
11
275
     1
280
     0
281
     0
282
     0
283
     0
284
     8
285
     0
286
     0
287
     0
288
     0
  0
DIMSTYLE
105
74E6
330
A
100
AcDbSymbolTableRecord
100
AcDbDimStyleTableRecord
  2
ISO-25
 70
     0
  3

  4

  5

  6

  7

 40
1.0
 41
2.5
 42
0.625
 43
3.75
 44
1.25
 45
0.0
 46
0.0
 47
0.0
 48
0.0
140
2.5
141
2.5
142
0.0
143
0.03937007874016
144
1.0
145
0.0
146
1.0
147
0.625
 71
     0
 72
     0
 73
     0
 74
     0
 75
     0
 76
     0
 77
     1
 78
     8
170
     0
171
     3
172
     1
173
     0
174
     0
175
     0
176
     0
177
     0
178
     0
270
     2
271
     2
272
     2
273
     2
274
     3
340
11
275
     0
280
     0
281
     0
282
     0
283
     0
284
     8
285
     0
286
     0
287
     3
288
     0
  0
ENDTAB
  0
TABLE
  2
BLOCK_RECORD
  5
1
330
0
100
AcDbSymbolTable
 70
    18
  0
BLOCK_RECORD
  5
1F
102
{ACAD_XDICTIONARY
360
165
102
}
330
1
100
AcDbSymbolTableRecord
100
AcDbBlockTableRecord
  2
*MODEL_SPACE
  0
BLOCK_RECORD
  5
1B
102
{ACAD_XDICTIONARY
360
862E
102
}
330
1
100
AcDbSymbolTableRecord
100
AcDbBlockTableRecord
  2
*PAPER_SPACE
  0
BLOCK_RECORD
  5
59
330
1
100
AcDbSymbolTableRecord
100
AcDbBlockTableRecord
  2
_OPEN30
  0
BLOCK_RECORD
  5
64
330
1
100
AcDbSymbolTableRecord
100
AcDbBlockTableRecord
  2
GENAXEH
  0
BLOCK_RECORD
  5
847D
330
1
100
AcDbSymbolTableRecord
100
AcDbBlockTableRecord
  2
*D10
  0
BLOCK_RECORD
  5
8493
330
1
100
AcDbSymbolTableRecord
100
AcDbBlockTableRecord
  2
*D11
  0
BLOCK_RECORD
  5
84AB
330
1
100
AcDbSymbolTableRecord
100
AcDbBlockTableRecord
  2
*D12
  0
BLOCK_RECORD
  5
84D4
330
1
100
AcDbSymbolTableRecord
100
AcDbBlockTableRecord
  2
*D13
  0
BLOCK_RECORD
  5
850E
330
1
100
AcDbSymbolTableRecord
100
AcDbBlockTableRecord
  2
*D14
  0
BLOCK_RECORD
  5
851B
330
1
100
AcDbSymbolTableRecord
100
AcDbBlockTableRecord
  2
*D15
  0
BLOCK_RECORD
  5
8528
330
1
100
AcDbSymbolTableRecord
100
AcDbBlockTableRecord
  2
*D16
  0
ENDTAB
  0
ENDSEC
  0
SECTION
  2
BLOCKS
  0
BLOCK
  5
20
330
1F
100
AcDbEntity
  8
0
100
AcDbBlockBegin
  2
*MODEL_SPACE
 70
     0
 10
0.0
 20
0.0
 30
0.0
  3
*MODEL_SPACE
  1

  0
ENDBLK
  5
21
330
1F
100
AcDbEntity
  8
0
100
AcDbBlockEnd
  0
BLOCK
  5
1C
330
1B
100
AcDbEntity
 67
     1
  8
0
100
AcDbBlockBegin
  2
*PAPER_SPACE
 70
     0
 10
0.0
 20
0.0
 30
0.0
  3
*PAPER_SPACE
  1

  0
ENDBLK
  5
1D
330
1B
100
AcDbEntity
 67
     1
  8
0
100
AcDbBlockEnd
  0
BLOCK
  5
5D
330
59
100
AcDbEntity
  8
0
100
AcDbBlockBegin
  2
_OPEN30
 70
     0
 10
0.0
 20
0.0
 30
0.0
  3
_OPEN30
  1

  0
LINE
  5
5A
330
59
100
AcDbEntity
  8
0
 62
     0
100
AcDbLine
 10
-1.0
 20
0.26794919
 30
0.0
 11
0.0
 21
0.0
 31
0.0
  0
LINE
  5
5B
330
59
100
AcDbEntity
  8
0
 62
     0
100
AcDbLine
 10
0.0
 20
0.0
 30
0.0
 11
-1.0
 21
-0.26794919
 31
0.0
  0
LINE
  5
5C
330
59
100
AcDbEntity
  8
0
 62
     0
100
AcDbLine
 10
0.0
 20
0.0
 30
0.0
 11
-1.0
 21
0.0
 31
0.0
  0
ENDBLK
  5
5E
330
59
100
AcDbEntity
  8
0
100
AcDbBlockEnd
  0
BLOCK
  5
66
330
64
100
AcDbEntity
  8
0
100
AcDbBlockBegin
  2
GENAXEH
 70
     0
 10
0.0
 20
0.0
 30
0.0
  3
GENAXEH
  1

  0
LINE
  5
65
330
64
100
AcDbEntity
  8
0
100
AcDbLine
 10
-1.0
 20
0.0
 30
0.0
 11
1.0
 21
0.0
 31
0.0
  0
ENDBLK
  5
67
330
64
100
AcDbEntity
  8
0
100
AcDbBlockEnd
  0
BLOCK
  5
8487
330
847D
100
AcDbEntity
  8
0
100
AcDbBlockBegin
  2
*D10
 70
     1
 10
0.0
 20
0.0
 30
0.0
  3
*D10
  1

  0
LINE
  5
85E9
330
847D
100
AcDbEntity
  8
AM_5
 62
     3
100
AcDbLine
 10
-2.94695837316658
 20
-31.99988050329949
 30
0.0
 11
16.61153513643863
 21
-31.99988050329949
 31
0.0
  0
LINE
  5
85EA
330
847D
100
AcDbEntity
  8
AM_5
 62
     3
100
AcDbLine
 10
-0.8172665954937201
 20
0.0
 30
0.0
 11
16.61153513643864
 21
-0.0000000000000049
 31
0.0
  0
LINE
  5
85EB
330
847D
100
AcDbEntity
  8
AM_5
 62
     3
100
AcDbLine
 10
15.61153513643864
 20
-29.49988050329949
 30
0.0
 11
15.61153513643864
 21
-2.500000000000004
 31
0.0
  0
INSERT
  5
85EC
330
847D
100
AcDbEntity
  8
AM_5
 62
     3
100
AcDbBlockReference
  2
_OPEN30
 10
15.61153513643864
 20
-31.99988050329949
 30
0.0
 41
2.5
 42
2.5
 43
2.5
 50
270.0
  0
INSERT
  5
85ED
330
847D
100
AcDbEntity
  8
AM_5
 62
     3
100
AcDbBlockReference
  2
_OPEN30
 10
15.61153513643864
 20
-0.0000000000000047
 30
0.0
 41
2.5
 42
2.5
 43
2.5
 50
90.0
  0
MTEXT
  5
85EE
330
847D
100
AcDbEntity
  8
AM_5
 62
     2
100
AcDbMText
 10
12.21116112069061
 20
-15.99994025164974
 30
0.0
 40
3.799999999999999
 41
0.0
 71
     5
 72
     1
  1
32
 11
0.0000000000000001
 21
1.0
 31
0.0
1001
ACAD
1000
MTEXTBEGIN
1070
    73
1070
     1
1070
    44
1040
1.0
1070
    74
1070
     0
1000
MTEXTEND
  0
POINT
  5
85EF
330
847D
100
AcDbEntity
  8
DEFPOINTS
 62
     0
100
AcDbPoint
 10
-2.94695837316658
 20
-31.99988050329949
 30
0.0
  0
POINT
  5
85F0
330
847D
100
AcDbEntity
  8
DEFPOINTS
 62
     0
100
AcDbPoint
 10
-0.8172665954937201
 20
0.0
 30
0.0
  0
POINT
  5
85F1
330
847D
100
AcDbEntity
  8
DEFPOINTS
 62
     0
100
AcDbPoint
 10
15.61153513643864
 20
-0.0000000000000047
 30
0.0
  0
ENDBLK
  5
8488
330
847D
100
AcDbEntity
  8
0
100
AcDbBlockEnd
  0
BLOCK
  5
849E
330
8493
100
AcDbEntity
  8
0
100
AcDbBlockBegin
  2
*D11
 70
     1
 10
0.0
 20
0.0
 30
0.0
  3
*D11
  1

  0
LINE
  5
8633
330
8493
100
AcDbEntity
  8
AM_5
 62
     3
100
AcDbLine
 10
-18.27117066068626
 20
-0.304659028094818
 30
0.0
 11
-19.32924603138462
 21
-0.3231278023525732
 31
0.0
  0
ARC
  5
8634
330
8493
100
AcDbEntity
  8
AM_5
 62
     3
100
AcDbCircle
 10
0.0000000000000012
 20
0.0142654414592543
 30
0.0
 40
18.33219041761093
100
AcDbArc
 50
97.81961528884549
 51
173.1803847091396
  0
INSERT
  5
8635
330
8493
100
AcDbEntity
  8
AM_5
 62
     3
100
AcDbBlockReference
  2
_OPEN30
 10
0.0000000000000036
 20
18.34645585907018
 30
0.0
 41
2.5
 42
2.5
 43
2.5
 50
3.909807644422729
  0
INSERT
  5
8636
330
8493
100
AcDbEntity
  8
AM_5
 62
     3
100
AcDbBlockReference
  2
_OPEN30
 10
-18.32939833622762
 20
-0.3056753959499918
 30
0.0
 41
2.5
 42
2.5
 43
2.5
 50
267.0901923535624
  0
MTEXT
  5
8637
330
8493
100
AcDbEntity
  8
AM_5
 62
     2
100
AcDbMText
 10
-15.50049457619736
 20
15.24655903896376
 30
0.0
 40
3.799999999999999
 41
0.0
 71
     5
 72
     1
  1
91°
 11
0.7009092643123931
 21
0.7132504491418565
 31
0.0
  0
POINT
  5
8638
330
8493
100
AcDbEntity
  8
DEFPOINTS
 62
     0
100
AcDbPoint
 10
-9.258303222137627
 20
15.83681349651355
 30
0.0
  0
POINT
  5
8639
330
8493
100
AcDbEntity
  8
DEFPOINTS
 62
     0
100
AcDbPoint
 10
-14.48763392446778
 20
-0.2386171488389266
 30
0.0
  0
POINT
  5
863A
330
8493
100
AcDbEntity
  8
DEFPOINTS
 62
     0
100
AcDbPoint
 10
0.0000000000000001
 20
-0.8648411930501538
 30
0.0
  0
POINT
  5
863B
330
8493
100
AcDbEntity
  8
DEFPOINTS
 62
     0
100
AcDbPoint
 10
0.0000000000000036
 20
37.527626849084
 30
0.0
  0
POINT
  5
863C
330
8493
100
AcDbEntity
  8
DEFPOINTS
 62
     0
100
AcDbPoint
 10
-18.27117066068626
 20
-0.304659028094818
 30
0.0
  0
ENDBLK
  5
849F
330
8493
100
AcDbEntity
  8
0
100
AcDbBlockEnd
  0
BLOCK
  5
84B5
330
84AB
100
AcDbEntity
  8
0
100
AcDbBlockBegin
  2
*D12
 70
     1
 10
0.0
 20
0.0
 30
0.0
  3
*D12
  1

  0
LINE
  5
85E0
330
84AB
100
AcDbEntity
  8
AM_5
 62
     3
100
AcDbLine
 10
0.0
 20
3.713093900476565
 30
0.0
 11
0.0000000000000015
 21
28.27799226568582
 31
0.0
  0
LINE
  5
85E1
330
84AB
100
AcDbEntity
  8
AM_5
 62
     3
100
AcDbLine
 10
-30.99999996647227
 20
-6.999880503299465
 30
0.0
 11
-30.99999996647227
 21
28.27799226568582
 31
0.0
  0
LINE
  5
85E2
330
84AB
100
AcDbEntity
  8
AM_5
 62
     3
100
AcDbLine
 10
-2.499999999999998
 20
27.27799226568582
 30
0.0
 11
-28.49999996647227
 21
27.27799226568582
 31
0.0
  0
INSERT
  5
85E3
330
84AB
100
AcDbEntity
  8
AM_5
 62
     3
100
AcDbBlockReference
  2
_OPEN30
 10
0.0000000000000014
 20
27.27799226568582
 30
0.0
 41
2.5
 42
2.5
 43
2.5
  0
INSERT
  5
85E4
330
84AB
100
AcDbEntity
  8
AM_5
 62
     3
100
AcDbBlockReference
  2
_OPEN30
 10
-30.99999996647227
 20
27.27799226568582
 30
0.0
 41
2.5
 42
2.5
 43
2.5
 50
180.0
  0
MTEXT
  5
85E5
330
84AB
100
AcDbEntity
  8
AM_5
 62
     2
100
AcDbMText
 10
-15.49999998323613
 20
30.67799226568582
 30
0.0
 40
3.799999999999999
 41
0.0
 71
     5
 72
     1
  1
31
1001
ACAD
1000
MTEXTBEGIN
1070
    73
1070
     1
1070
    44
1040
1.0
1070
    74
1070
     0
1000
MTEXTEND
  0
POINT
  5
85E6
330
84AB
100
AcDbEntity
  8
DEFPOINTS
 62
     0
100
AcDbPoint
 10
0.0
 20
3.713093900476565
 30
0.0
  0
POINT
  5
85E7
330
84AB
100
AcDbEntity
  8
DEFPOINTS
 62
     0
100
AcDbPoint
 10
-30.99999996647227
 20
-6.999880503299465
 30
0.0
  0
POINT
  5
85E8
330
84AB
100
AcDbEntity
  8
DEFPOINTS
 62
     0
100
AcDbPoint
 10
-30.99999996647227
 20
27.27799226568582
 30
0.0
  0
ENDBLK
  5
84B6
330
84AB
100
AcDbEntity
  8
0
100
AcDbBlockEnd
  0
BLOCK
  5
84DE
330
84D4
100
AcDbEntity
  8
0
100
AcDbBlockBegin
  2
*D13
 70
     1
 10
0.0
 20
0.0
 30
0.0
  3
*D13
  1

  0
LINE
  5
85B2
330
84D4
100
AcDbEntity
  8
AM_5
 62
     3
100
AcDbLine
 10
0.0
 20
8.291028994003283
 30
0.0
 11
0.000000000000002
 21
40.86877457295282
 31
0.0
  0
LINE
  5
85B3
330
84D4
100
AcDbEntity
  8
AM_5
 62
     3
100
AcDbLine
 10
-149.9999999664724
 20
-6.999880503299422
 30
0.0
 11
-149.9999999664724
 21
40.86877457295282
 31
0.0
  0
LINE
  5
85B4
330
84D4
100
AcDbEntity
  8
AM_5
 62
     3
100
AcDbLine
 10
-2.499999999999998
 20
39.86877457295283
 30
0.0
 11
-147.4999999664723
 21
39.86877457295283
 31
0.0
  0
INSERT
  5
85B5
330
84D4
100
AcDbEntity
  8
AM_5
 62
     3
100
AcDbBlockReference
  2
_OPEN30
 10
0.0000000000000019
 20
39.86877457295283
 30
0.0
 41
2.5
 42
2.5
 43
2.5
  0
INSERT
  5
85B6
330
84D4
100
AcDbEntity
  8
AM_5
 62
     3
100
AcDbBlockReference
  2
_OPEN30
 10
-149.9999999664724
 20
39.86877457295283
 30
0.0
 41
2.5
 42
2.5
 43
2.5
 50
180.0
  0
MTEXT
  5
85B7
330
84D4
100
AcDbEntity
  8
AM_5
 62
     2
100
AcDbMText
 10
-74.9999999832362
 20
43.26877457295283
 30
0.0
 40
3.799999999999999
 41
0.0
 71
     5
 72
     1
  1
150
1001
ACAD
1000
MTEXTBEGIN
1070
    73
1070
     1
1070
    44
1040
1.0
1070
    74
1070
     0
1000
MTEXTEND
  0
POINT
  5
85B8
330
84D4
100
AcDbEntity
  8
DEFPOINTS
 62
     0
100
AcDbPoint
 10
0.0
 20
8.291028994003283
 30
0.0
  0
POINT
  5
85B9
330
84D4
100
AcDbEntity
  8
DEFPOINTS
 62
     0
100
AcDbPoint
 10
-149.9999999664724
 20
-6.999880503299422
 30
0.0
  0
POINT
  5
85BA
330
84D4
100
AcDbEntity
  8
DEFPOINTS
 62
     0
100
AcDbPoint
 10
-149.9999999664724
 20
39.86877457295283
 30
0.0
  0
ENDBLK
  5
84DF
330
84D4
100
AcDbEntity
  8
0
100
AcDbBlockEnd
  0
BLOCK
  5
8518
330
850E
100
AcDbEntity
  8
0
100
AcDbBlockBegin
  2
*D14
 70
     1
 10
0.0
 20
0.0
 30
0.0
  3
*D14
  1

  0
LINE
  5
85C4
330
850E
100
AcDbEntity
  8
AM_5
 62
     3
100
AcDbLine
 10
-149.9999999664724
 20
-31.99988050329948
 30
0.0
 11
-167.5377677075163
 21
-31.99988050329947
 31
0.0
  0
LINE
  5
85C5
330
850E
100
AcDbEntity
  8
AM_5
 62
     3
100
AcDbLine
 10
-149.9999999664724
 20
-6.999880503299479
 30
0.0
 11
-167.5377677075163
 21
-6.999880503299474
 31
0.0
  0
LINE
  5
85C6
330
850E
100
AcDbEntity
  8
AM_5
 62
     3
100
AcDbLine
 10
-166.5377677075163
 20
-29.49988050329947
 30
0.0
 11
-166.5377677075163
 21
-9.499880503299474
 31
0.0
  0
INSERT
  5
85C7
330
850E
100
AcDbEntity
  8
AM_5
 62
     3
100
AcDbBlockReference
  2
_OPEN30
 10
-166.5377677075163
 20
-31.99988050329947
 30
0.0
 41
2.5
 42
2.5
 43
2.5
 50
270.0
  0
INSERT
  5
85C8
330
850E
100
AcDbEntity
  8
AM_5
 62
     3
100
AcDbBlockReference
  2
_OPEN30
 10
-166.5377677075163
 20
-6.999880503299474
 30
0.0
 41
2.5
 42
2.5
 43
2.5
 50
90.0
  0
MTEXT
  5
85C9
330
850E
100
AcDbEntity
  8
AM_5
 62
     2
100
AcDbMText
 10
-169.9381417232643
 20
-19.4998805032995
 30
0.0
 40
3.799999999999999
 41
0.0
 71
     5
 72
     1
  1
25
 11
0.0000000000000001
 21
1.0
 31
0.0
1001
ACAD
1000
MTEXTBEGIN
1070
    73
1070
     1
1070
    44
1040
1.0
1070
    74
1070
     0
1000
MTEXTEND
  0
POINT
  5
85CA
330
850E
100
AcDbEntity
  8
DEFPOINTS
 62
     0
100
AcDbPoint
 10
-149.9999999664724
 20
-31.99988050329948
 30
0.0
  0
POINT
  5
85CB
330
850E
100
AcDbEntity
  8
DEFPOINTS
 62
     0
100
AcDbPoint
 10
-149.9999999664724
 20
-6.999880503299479
 30
0.0
  0
POINT
  5
85CC
330
850E
100
AcDbEntity
  8
DEFPOINTS
 62
     0
100
AcDbPoint
 10
-166.5377677075163
 20
-6.999880503299474
 30
0.0
  0
ENDBLK
  5
8519
330
850E
100
AcDbEntity
  8
0
100
AcDbBlockEnd
  0
BLOCK
  5
8525
330
851B
100
AcDbEntity
  8
0
100
AcDbBlockBegin
  2
*D15
 70
     1
 10
0.0
 20
0.0
 30
0.0
  3
*D15
  1

  0
LINE
  5
85BB
330
851B
100
AcDbEntity
  8
AM_5
 62
     3
100
AcDbLine
 10
-149.9999999664724
 20
65.62862025131774
 30
0.0
 11
-170.1957034970647
 21
65.62862025131775
 31
0.0
  0
LINE
  5
85BC
330
851B
100
AcDbEntity
  8
AM_5
 62
     3
100
AcDbLine
 10
-149.9999999664724
 20
90.62862025131774
 30
0.0
 11
-170.1957034970647
 21
90.62862025131776
 31
0.0
  0
LINE
  5
85BD
330
851B
100
AcDbEntity
  8
AM_5
 62
     3
100
AcDbLine
 10
-169.1957034970647
 20
68.12862025131775
 30
0.0
 11
-169.1957034970647
 21
88.12862025131776
 31
0.0
  0
INSERT
  5
85BE
330
851B
100
AcDbEntity
  8
AM_5
 62
     3
100
AcDbBlockReference
  2
_OPEN30
 10
-169.1957034970647
 20
65.62862025131775
 30
0.0
 41
2.5
 42
2.5
 43
2.5
 50
270.0
  0
INSERT
  5
85BF
330
851B
100
AcDbEntity
  8
AM_5
 62
     3
100
AcDbBlockReference
  2
_OPEN30
 10
-169.1957034970647
 20
90.62862025131776
 30
0.0
 41
2.5
 42
2.5
 43
2.5
 50
90.0
  0
MTEXT
  5
85C0
330
851B
100
AcDbEntity
  8
AM_5
 62
     2
100
AcDbMText
 10
-172.5960775128128
 20
78.12862025131773
 30
0.0
 40
3.799999999999999
 41
0.0
 71
     5
 72
     1
  1
25
 11
0.0000000000000001
 21
1.0
 31
0.0
1001
ACAD
1000
MTEXTBEGIN
1070
    73
1070
     1
1070
    44
1040
1.0
1070
    74
1070
     0
1000
MTEXTEND
  0
POINT
  5
85C1
330
851B
100
AcDbEntity
  8
DEFPOINTS
 62
     0
100
AcDbPoint
 10
-149.9999999664724
 20
65.62862025131774
 30
0.0
  0
POINT
  5
85C2
330
851B
100
AcDbEntity
  8
DEFPOINTS
 62
     0
100
AcDbPoint
 10
-149.9999999664724
 20
90.62862025131774
 30
0.0
  0
POINT
  5
85C3
330
851B
100
AcDbEntity
  8
DEFPOINTS
 62
     0
100
AcDbPoint
 10
-169.1957034970647
 20
90.62862025131776
 30
0.0
  0
ENDBLK
  5
8526
330
851B
100
AcDbEntity
  8
0
100
AcDbBlockEnd
  0
BLOCK
  5
8532
330
8528
100
AcDbEntity
  8
0
100
AcDbBlockBegin
  2
*D16
 70
     1
 10
0.0
 20
0.0
 30
0.0
  3
*D16
  1

  0
LINE
  5
85CD
330
8528
100
AcDbEntity
  8
AM_5
 62
     3
100
AcDbLine
 10
-0.0019000359642405
 20
65.62862031872622
 30
0.0
 11
17.48966831238919
 21
65.62862031872622
 31
0.0
  0
LINE
  5
85CE
330
8528
100
AcDbEntity
  8
AM_5
 62
     3
100
AcDbLine
 10
-1.372162429700097
 20
90.62862025131774
 30
0.0
 11
17.48966831238919
 21
90.62862025131774
 31
0.0
  0
LINE
  5
85CF
330
8528
100
AcDbEntity
  8
AM_5
 62
     3
100
AcDbLine
 10
16.48966831238919
 20
68.12862031872622
 30
0.0
 11
16.4896683123892
 21
88.12862025131774
 31
0.0
  0
INSERT
  5
85D0
330
8528
100
AcDbEntity
  8
AM_5
 62
     3
100
AcDbBlockReference
  2
_OPEN30
 10
16.48966831238919
 20
65.62862031872622
 30
0.0
 41
2.5
 42
2.5
 43
2.5
 50
270.0
  0
INSERT
  5
85D1
330
8528
100
AcDbEntity
  8
AM_5
 62
     3
100
AcDbBlockReference
  2
_OPEN30
 10
16.4896683123892
 20
90.62862025131774
 30
0.0
 41
2.5
 42
2.5
 43
2.5
 50
90.0
  0
MTEXT
  5
85D2
330
8528
100
AcDbEntity
  8
AM_5
 62
     2
100
AcDbMText
 10
13.08929429664115
 20
78.12862028502198
 30
0.0
 40
3.799999999999999
 41
0.0
 71
     5
 72
     1
  1
25
 11
0.0000000000000001
 21
1.0
 31
0.0
1001
ACAD
1000
MTEXTBEGIN
1070
    73
1070
     1
1070
    44
1040
1.0
1070
    74
1070
     0
1000
MTEXTEND
  0
POINT
  5
85D3
330
8528
100
AcDbEntity
  8
DEFPOINTS
 62
     0
100
AcDbPoint
 10
-0.0019000359642405
 20
65.62862031872622
 30
0.0
  0
POINT
  5
85D4
330
8528
100
AcDbEntity
  8
DEFPOINTS
 62
     0
100
AcDbPoint
 10
-1.372162429700097
 20
90.62862025131774
 30
0.0
  0
POINT
  5
85D5
330
8528
100
AcDbEntity
  8
DEFPOINTS
 62
     0
100
AcDbPoint
 10
16.4896683123892
 20
90.62862025131774
 30
0.0
  0
ENDBLK
  5
8533
330
8528
100
AcDbEntity
  8
0
100
AcDbBlockEnd
  0
ENDSEC
  0
SECTION
  2
ENTITIES
  0
POINT
  5
1649
330
1F
100
AcDbEntity
  8
0
 60
     1
100
AcDbPoint
 10
0.0
 20
0.0
 30
0.0
1001
GENIUS_GENOBJ-N-TIT_13
1002
{
1000
OWNER
1000
GEN
1002
}
1001
GENIUS_GENOENT_13
1002
{
1000
MYREF
1005
1649
1002
}
1002
{
1000
GRP
1005
0
1002
}
1001
GENIUS_GENOLIS_13
1002
{
1000
ENT
1005
1641
1005
1630
1002
}
1001
GENIUS_GENTITLE_13
1002
{
1000
SCALE
1000
1:1
1002
}
1002
{
1000
BORDER
1000
IOS-A3
1002
}
1002
{
1000
TITLE
1000
XA3
1002
}
1002
{
1000
UNCHG
1002
{
1000
GEN-TITLE-SCA
1000
GEN-TITLE-SIZ
1002
}
1002
}
1002
{
1000
HRA
1005
1630
1002
}
1002
{
1000
HTIT
1005
1641
1002
}
1002
{
1000
GENIUSID
1005
1649
1002
}
1001
GENIUS_GENODEF_13
1002
{
1000
HIER
1070
     1
1002
}
1002
{
1000
MANEDIT
1070
     0
1002
}
1002
{
1000
NOSEL
1070
     0
1002
}
1002
{
1000
BEHIND
1070
     0
1002
}
1002
{
1000
REACTOR
1002
}
  0
TEXT
  5
7495
330
1F
100
AcDbEntity
  8
AM_6
100
AcDbText
 10
-109.8772172145038
 20
-54.49988050329946
 30
0.0
 40
5.0
  1
DTGNR2525M16
 72
     4
 11
-87.50320146647231
 21
-51.99988050329945
 31
0.0
100
AcDbText
  0
LINE
  5
80F1
330
1F
100
AcDbEntity
  8
AM_0
100
AcDbLine
 10
-30.99999996669487
 20
-6.999880503299465
 30
0.0
 11
-149.9999999664724
 21
-6.999880503299422
 31
0.0
  0
LINE
  5
80F2
330
1F
100
AcDbEntity
  8
AM_0
100
AcDbLine
 10
-25.00640296647225
 20
-31.99988050329944
 30
0.0
 11
-149.9999999664724
 21
-31.99988050329948
 31
0.0
  0
LINE
  5
80F3
330
1F
100
AcDbEntity
  8
AM_0
100
AcDbLine
 10
-31.00640296647236
 20
65.62862025131774
 30
0.0
 11
-149.9999999664724
 21
65.62862025131774
 31
0.0
  0
LINE
  5
80F4
330
1F
100
AcDbEntity
  8
AM_0
100
AcDbLine
 10
-149.9999999664724
 20
90.62862025131774
 30
0.0
 11
-25.00640296647236
 21
90.62862025131774
 31
0.0
  0
LINE
  5
80F5
330
1F
100
AcDbEntity
  8
AM_0
100
AcDbLine
 10
-31.00640296647236
 20
65.68011025131774
 30
0.0
 11
-30.16873827460983
 21
62.55390306158069
 31
0.0
  0
LINE
  5
80F6
330
1F
100
AcDbEntity
  8
AM_0
100
AcDbLine
 10
-10.86674469595379
 20
64.10557362848742
 30
0.0
 11
-11.00756591212496
 21
63.22573371873203
 31
0.0
  0
ELLIPSE
  5
80F7
330
1F
100
AcDbEntity
  8
AM_0
100
AcDbEllipse
 10
-10.50891004686388
 20
63.0590777958477
 30
0.0
 11
-4.233827391899858
 21
-0.3704127638168779
 31
0.0
210
0.0
220
0.0
230
1.0
 40
0.0871555410673329
 41
4.816656865008248
 42
6.762639652037421
  0
LINE
  5
80F8
330
1F
100
AcDbEntity
  8
AM_0
100
AcDbLine
 10
-8.742817347222171
 20
64.52889680795526
 30
0.0
 11
-9.956596038358611
 21
59.99891911864738
 31
0.0
  0
LINE
  5
80F9
330
1F
100
AcDbEntity
  8
AM_0
100
AcDbLine
 10
-2.946958373166694
 20
62.61251949981924
 30
0.0
 11
-1.372162429700097
 21
64.33110436359907
 31
0.0
  0
LINE
  5
80FA
330
1F
100
AcDbEntity
  8
AM_0
100
AcDbLine
 10
-3.494527504219263
 20
63.07677799071204
 30
0.0
 11
-5.40021671310194
 21
63.6118085690254
 31
0.0
  0
LINE
  5
80FB
330
1F
100
AcDbEntity
  8
AM_0
100
AcDbLine
 10
-6.935395096699721
 20
64.68419858196141
 30
0.0
 11
-6.938625004289747
 21
59.80530971856506
 31
0.0
  0
LINE
  5
80FC
330
1F
100
AcDbEntity
  8
AM_0
100
AcDbLine
 10
-6.193281602314755
 20
60.25802926248427
 30
0.0
 11
-6.190337870839925
 21
64.70463905206099
 31
0.0
  0
LINE
  5
80FD
330
1F
100
AcDbEntity
  8
AM_0
100
AcDbLine
 10
-9.039509879912316
 20
59.66066047610643
 30
0.0
 11
-7.707733173825886
 21
64.63102188528733
 31
0.0
  0
LINE
  5
80FE
330
1F
100
AcDbEntity
  8
AM_0
100
AcDbLine
 10
-15.23379533049444
 20
64.23332247338596
 30
0.0
 11
-27.84517047379893
 21
63.11063493532545
 31
0.0
  0
LINE
  5
80FF
330
1F
100
AcDbEntity
  8
AM_0
100
AcDbLine
 10
-27.84517047379893
 20
90.62862025131774
 30
0.0
 11
-27.84517047379893
 21
63.11063493532545
 31
0.0
  0
ELLIPSE
  5
8100
330
1F
100
AcDbEntity
  8
AM_0
100
AcDbEllipse
 10
-14.46765100633808
 20
64.32396543876895
 30
0.0
 11
-0.7969557443576202
 21
-0.0697247555420005
 31
0.0
210
0.0
220
0.0
230
1.0
 40
0.0871555410673329
 41
4.729839950046042
 42
6.824235051776666
  0
ELLIPSE
  5
8101
330
1F
100
AcDbEntity
  8
AM_0
100
AcDbEllipse
 10
-7.256543306096659
 20
60.46284004022162
 30
0.0
 11
-1.588699692152206
 21
4.054830056961051
 31
0.0
210
0.0
220
0.0
230
1.0
 40
0.2057549684136461
 41
6.171955425545737
 42
6.247667587245608
  0
ELLIPSE
  5
8102
330
1F
100
AcDbEntity
  8
AM_0
100
AcDbEllipse
 10
-7.417152541225163
 20
63.99031495909399
 30
0.0
 11
-2.739535371229319
 21
-0.2396788471756263
 31
0.0
210
0.0
220
0.0
230
0.9999999999999998
 40
0.087155541067333
 41
2.400362035459757
 42
3.712694004564413
  0
SPLINE
  5
8103
330
1F
100
AcDbEntity
  8
AM_0
100
AcDbSpline
210
0.0
220
0.0
230
1.0
 70
     8
 71
     3
 72
    14
 73
    10
 74
     0
 42
0.0000000001
 43
0.0000000001
 40
-2.939477701641874
 40
-2.939477701641874
 40
-2.939477701641874
 40
-2.939477701641874
 40
-2.718451941802024
 40
-2.718451941802024
 40
-2.212019067573048
 40
-2.212019067573048
 40
-1.95880263045856
 40
-1.95880263045856
 40
-1.795693929180012
 40
-1.795693929180012
 40
-1.795693929180012
 40
-1.795693929180012
 10
-6.190337870839925
 20
64.70463905206099
 30
0.0
 10
-6.21285657588919
 20
64.69288421066305
 30
0.0
 10
-6.24172630335579
 20
64.68268065968242
 30
0.0
 10
-6.345378081810054
 20
64.65593647771093
 30
0.0
 10
-6.450911144924589
 20
64.64310282453816
 30
0.0
 10
-6.645484883635504
 20
64.64629610582766
 30
0.0
 10
-6.71620066748062
 20
64.65109958108716
 30
0.0
 10
-6.837504210342217
 20
64.66645916623462
 30
0.0
 10
-6.886287441829722
 20
64.674354429187
 30
0.0
 10
-6.935395096699721
 20
64.68419858196141
 30
0.0
  0
ELLIPSE
  5
8104
330
1F
100
AcDbEntity
  8
AM_0
100
AcDbEllipse
 10
-7.256543306096659
 20
60.46284004022156
 30
0.0
 11
1.09499777423537
 21
4.246755233144202
 31
0.0
210
0.0
220
0.0
230
1.0
 40
0.0822193168805311
 41
6.281428742792139
 42
6.357140904491959
  0
ELLIPSE
  5
8105
330
1F
100
AcDbEntity
  8
AM_0
100
AcDbEllipse
 10
-7.505083629549858
 20
63.30366231260858
 30
0.0
 11
1.243280516504267
 21
0.9801176173461884
 31
0.0
210
0.0
220
0.0
230
0.9999999999999998
 40
0.8122438045403665
 41
0.6050910172445056
 42
1.138959512155534
  0
ELLIPSE
  5
8106
330
1F
100
AcDbEntity
  8
AM_0
100
AcDbEllipse
 10
-7.533489449434455
 20
64.59448512890837
 30
0.0
 11
-1.897750866251582
 21
-0.1660320741343887
 31
0.0
210
0.0
220
0.0
230
1.0
 40
0.0871555410673329
 41
2.569664380616687
 42
3.141590330731217
  0
ELLIPSE
  5
8107
330
1F
100
AcDbEntity
  8
AM_0
100
AcDbEllipse
 10
-0.7972836773641348
 20
65.54092638605282
 30
0.0
 11
-0.7969557443576202
 21
-0.0697247555420006
 31
0.0
210
0.0
220
0.0
230
1.0
 40
0.0871555410673329
 41
2.63544484699025
 42
4.729839950046007
  0
SPLINE
  5
8108
330
1F
100
AcDbEntity
  8
AM_0
100
AcDbSpline
210
0.0
220
0.0
230
1.0
 70
     8
 71
     3
 72
    14
 73
    10
 74
     0
 42
0.0000000001
 43
0.0000000001
 40
1.795693929180001
 40
1.795693929180001
 40
1.795693929180001
 40
1.795693929180001
 40
1.95880263045855
 40
1.95880263045855
 40
2.212019067573022
 40
2.212019067573022
 40
2.718451941801968
 40
2.718451941801968
 40
2.93947770164182
 40
2.93947770164182
 40
2.93947770164182
 40
2.93947770164182
 10
-7.707733173825886
 20
64.63102188528733
 30
0.0
 10
-7.760459820254595
 20
64.61416628000062
 30
0.0
 10
-7.814531927369785
 20
64.59918926450466
 30
0.0
 10
-7.95365631900961
 20
64.56589880466821
 30
0.0
 10
-8.03932531887699
 20
64.55032799000882
 30
0.0
 10
-8.289598223168695
 20
64.51650631462347
 30
0.0
 10
-8.447323334646966
 20
64.51121422660604
 30
0.0
 10
-8.63262220401441
 20
64.51806370001911
 30
0.0
 10
-8.690052438171051
 20
64.52232536231377
 30
0.0
 10
-8.742817347222171
 20
64.52889680795521
 30
0.0
  0
ELLIPSE
  5
8109
330
1F
100
AcDbEntity
  8
AM_0
100
AcDbEllipse
 10
-7.533489449434455
 20
64.59448512890837
 30
0.0
 11
-1.897750866251582
 21
-0.1660320741343887
 31
0.0
210
0.0
220
0.0
230
1.0
 40
0.0871555410673329
 41
3.141590330731201
 42
6.436229913957429
  0
ELLIPSE
  5
810A
330
1F
100
AcDbEntity
  8
AM_0
100
AcDbEllipse
 10
-14.8809346328486
 20
69.04780789093798
 30
0.0
 11
-0.7969557443576197
 21
-0.0697247555420077
 31
0.0
210
0.0
220
0.0
230
0.9999999999999998
 40
0.0871555410673329
 41
4.729839950045997
 42
6.283185307179592
  0
ELLIPSE
  5
810B
330
1F
100
AcDbEntity
  8
AM_0
100
AcDbEllipse
 10
-14.52861682469222
 20
73.80151844778023
 30
0.0
 11
-1.195433616536429
 21
-0.1045871333130115
 31
0.0
210
0.0
220
0.0
230
1.0
 40
0.0871555410673329
 41
4.729839950045964
 42
6.283185307179595
  0
ELLIPSE
  5
810C
330
1F
100
AcDbEntity
  8
AM_0
100
AcDbEllipse
 10
-1.210567303874654
 20
70.26476883822185
 30
0.0
 11
-0.7969557443576197
 21
-0.0697247555420077
 31
0.0
210
0.0
220
0.0
230
1.0
 40
0.0871555410673329
 41
3.141592653589776
 42
4.729839950045957
  0
ELLIPSE
  5
810D
330
1F
100
AcDbEntity
  8
AM_0
100
AcDbEllipse
 10
-2.367596046236599
 20
74.8841146217046
 30
0.0
 11
-1.195433616536429
 21
-0.1045871333130115
 31
0.0
210
0.0
220
0.0
230
1.0
 40
0.0871555410673329
 41
3.141592653589791
 42
4.729839950045953
  0
LINE
  5
8124
330
1F
100
AcDbEntity
  8
AM_0
100
AcDbLine
 10
-1.372162429700097
 20
75.06017884418081
 30
0.0
 11
-1.372162429700097
 21
90.62862025131774
 31
0.0
  0
LINE
  5
8125
330
1F
100
AcDbEntity
  8
AM_0
100
AcDbLine
 10
-31.00640296647236
 20
90.62862025131774
 30
0.0
 11
-31.00640296647236
 21
65.68011025131774
 31
0.0
  0
LINE
  5
8126
330
1F
100
AcDbEntity
  8
AM_0
100
AcDbLine
 10
-27.84517047379893
 20
90.62862025131774
 30
0.0
 11
-1.372162429700097
 21
90.62862025131774
 31
0.0
  0
LINE
  5
8127
330
1F
100
AcDbEntity
  8
AM_0
100
AcDbLine
 10
-31.00640296647236
 20
90.62862025131774
 30
0.0
 11
-27.84517047379893
 21
90.62862025131774
 31
0.0
  0
LINE
  5
8128
330
1F
100
AcDbEntity
  8
AM_0
100
AcDbLine
 10
-10.88585435277571
 20
63.98617799201382
 30
0.0
 11
-15.23379533049444
 21
64.23332247338596
 31
0.0
  0
LINE
  5
8129
330
1F
100
AcDbEntity
  8
AM_0
100
AcDbLine
 10
-10.88585435277571
 20
63.98617799201382
 30
0.0
 11
-15.14764654207112
 21
64.22842562732832
 31
0.0
  0
LINE
  5
812A
330
1F
100
AcDbEntity
  8
AM_0
100
AcDbLine
 10
-2.397570423431034
 20
74.98646236689471
 30
0.0
 11
-1.984571694931446
 21
70.26587630629721
 31
0.0
  0
LINE
  5
812B
330
1F
100
AcDbEntity
  8
AM_0
100
AcDbLine
 10
-0.7673265255292563
 20
70.36141698588373
 30
0.0
 11
-1.172162429700051
 21
74.98870175501763
 31
0.0
  0
LINE
  5
812C
330
1F
100
AcDbEntity
  8
AM_0
100
AcDbLine
 10
-2.397570423431034
 20
74.98646236689471
 30
0.0
 11
-14.55859120188677
 21
73.90386619297029
 31
0.0
  0
LINE
  5
812D
330
1F
100
AcDbEntity
  8
AM_0
100
AcDbLine
 10
-1.730838451246427
 20
75.02824885280277
 30
0.0
 11
-1.372162429700097
 21
75.06017884418081
 31
0.0
  0
LINE
  5
812E
330
1F
100
AcDbEntity
  8
AM_0
100
AcDbLine
 10
-1.372162429700097
 20
75.06017884418081
 30
0.0
 11
-1.372162429700097
 21
75.02867346773057
 31
0.0
  0
LINE
  5
812F
330
1F
100
AcDbEntity
  8
AM_0
100
AcDbLine
 10
-14.48763392446778
 20
64.39219726889565
 30
0.0
 11
-0.8172665954938338
 21
65.60915821617952
 31
0.0
  0
LINE
  5
8130
330
1F
100
AcDbEntity
  8
AM_0
100
AcDbLine
 10
-1.230550222004239
 20
70.33300066834861
 30
0.0
 11
-14.9009175509783
 21
69.11603972106469
 31
0.0
  0
LINE
  5
8131
330
1F
100
AcDbEntity
  8
AM_0
100
AcDbLine
 10
-1.230550222004239
 20
70.33300066834861
 30
0.0
 11
-0.8172665954938338
 21
65.60915821617958
 31
0.0
  0
LINE
  5
8132
330
1F
100
AcDbEntity
  8
AM_0
100
AcDbLine
 10
-0.000327933006588
 20
65.6106511415948
 30
0.0
 11
-0.4136115595168804
 21
70.3344935937639
 31
0.0
  0
LINE
  5
8133
330
1F
100
AcDbEntity
  8
AM_0
100
AcDbLine
 10
-1.372162429700097
 20
65.25189881302718
 30
0.0
 11
-5.123656531052233
 21
64.32102517424043
 31
0.0
  0
LINE
  5
8134
330
1F
100
AcDbEntity
  8
AM_0
100
AcDbLine
 10
-0.0973052240293555
 20
65.56823436731967
 30
0.0
 11
-5.370697860664108
 21
64.25972579452302
 31
0.0
  0
LINE
  5
8135
330
1F
100
AcDbEntity
  8
AM_0
100
AcDbLine
 10
-1.372162429700097
 20
64.33110436359912
 30
0.0
 11
-1.372162429700097
 21
65.25189881302718
 31
0.0
  0
LINE
  5
8136
330
1F
100
AcDbEntity
  8
AM_0
100
AcDbLine
 10
-5.40021671310194
 20
63.6118085690254
 30
0.0
 11
-5.360448543254165
 21
64.48469081690778
 31
0.0
  0
LINE
  5
8137
330
1F
100
AcDbEntity
  8
AM_0
100
AcDbLine
 10
-5.360448543254165
 20
64.48469081690778
 30
0.0
 11
-6.160933890137926
 21
64.70943057829082
 31
0.0
  0
LINE
  5
8138
330
1F
100
AcDbEntity
  8
AM_0
100
AcDbLine
 10
-6.121371145090506
 20
64.69832316462457
 30
0.0
 11
-6.132764010730511
 21
64.82854391112907
 31
0.0
  0
LINE
  5
8139
330
1F
100
AcDbEntity
  8
AM_0
100
AcDbLine
 10
-14.48763392446778
 20
64.39219726889565
 30
0.0
 11
-14.9009175509783
 21
69.11603972106475
 31
0.0
  0
LINE
  5
813A
330
1F
100
AcDbEntity
  8
AM_0
100
AcDbLine
 10
-14.14559247338718
 20
69.18328013237278
 30
0.0
 11
-14.55859120188677
 21
73.90386619297029
 31
0.0
  0
LINE
  5
813B
330
1F
100
AcDbEntity
  8
AM_0
100
AcDbLine
 10
-8.814614769899094
 20
64.52672045769434
 30
0.0
 11
-10.86674469595379
 21
64.10557362848742
 31
0.0
  0
LINE
  5
813C
330
1F
100
AcDbEntity
  8
AM_0
100
AcDbLine
 10
-9.112469452176696
 20
64.46559345330097
 30
0.0
 11
-9.119702734770953
 21
64.54827005889494
 31
0.0
  0
LINE
  5
813D
330
1F
100
AcDbEntity
  8
AM_0
100
AcDbLine
 10
-15.31196570912641
 20
64.79555479289515
 30
0.0
 11
-16.55124048189782
 21
73.70890972603895
 31
0.0
  0
LINE
  5
813E
330
1F
100
AcDbEntity
  8
AM_0
100
AcDbLine
 10
-15.31909062108366
 20
69.06823018256928
 30
0.0
 11
-15.72405044122865
 21
73.6969313144672
 31
0.0
  0
LINE
  5
813F
330
1F
100
AcDbEntity
  8
AM_0
100
AcDbLine
 10
-16.55124048189793
 20
73.7089097260389
 30
0.0
 11
-15.21529488376506
 21
73.82783803143839
 31
0.0
  0
LINE
  5
8140
330
1F
100
AcDbEntity
  8
AM_0
100
AcDbLine
 10
-16.55124048189793
 20
73.70890972603895
 30
0.0
 11
-15.72096946579324
 21
73.66171568621066
 31
0.0
  0
LINE
  5
8141
330
1F
100
AcDbEntity
  8
AM_0
100
AcDbLine
 10
-15.23379533049444
 20
64.23332247338596
 30
0.0
 11
-15.23449069800778
 21
64.2383238319152
 31
0.0
  0
LINE
  5
8142
330
1F
100
AcDbEntity
  8
AM_0
100
AcDbLine
 10
-15.26460675069586
 20
64.25424068322691
 30
0.0
 11
-15.67789037720615
 21
68.978083135396
 31
0.0
  0
SPLINE
  5
8143
330
1F
100
AcDbEntity
  8
AM_0
100
AcDbSpline
210
0.0
220
0.0
230
1.0
 70
    24
 71
     1
 72
     4
 73
     2
 74
     0
 42
0.0000000001
 43
0.0000000001
 40
6.94011193290281
 40
6.94011193290281
 40
7.149682156156779
 40
7.149682156156779
 10
59.92810108104549
 20
-8.464973850594631
 30
0.0
 10
60.07803929793306
 20
-8.323449878100191
 30
0.0
  0
SPLINE
  5
8144
330
1F
100
AcDbEntity
  8
AM_0
100
AcDbSpline
210
0.0
220
0.0
230
1.0
 70
    24
 71
     1
 72
     4
 73
     2
 74
     0
 42
0.0000000001
 43
0.0000000001
 40
6.730541709648841
 40
6.730541709648841
 40
6.94011193290281
 40
6.94011193290281
 10
59.7810742042534
 20
-8.609147395700759
 30
0.0
 10
59.92810108104549
 20
-8.464973850594631
 30
0.0
  0
SPLINE
  5
8145
330
1F
100
AcDbEntity
  8
AM_0
100
AcDbSpline
210
0.0
220
0.0
230
1.0
 70
    24
 71
     1
 72
     4
 73
     2
 74
     0
 42
0.0000000001
 43
0.0000000001
 40
6.520971486394872
 40
6.520971486394872
 40
6.730541709648841
 40
6.730541709648841
 10
59.63703626222195
 20
-8.755840816419677
 30
0.0
 10
59.7810742042534
 20
-8.609147395700759
 30
0.0
  0
SPLINE
  5
8146
330
1F
100
AcDbEntity
  8
AM_0
100
AcDbSpline
210
0.0
220
0.0
230
1.0
 70
    24
 71
     1
 72
     4
 73
     2
 74
     0
 42
0.0000000001
 43
0.0000000001
 40
6.311401263140903
 40
6.311401263140903
 40
6.520971486394872
 40
6.520971486394872
 10
59.49606484961623
 20
-8.904924415752489
 30
0.0
 10
59.63703626222195
 20
-8.755840816419677
 30
0.0
  0
SPLINE
  5
8147
330
1F
100
AcDbEntity
  8
AM_0
100
AcDbSpline
210
0.0
220
0.0
230
1.0
 70
    24
 71
     1
 72
     4
 73
     2
 74
     0
 42
0.0000000001
 43
0.0000000001
 40
6.101831039886935
 40
6.101831039886935
 40
6.311401263140903
 40
6.311401263140903
 10
59.35823756110176
 20
-9.056268496700354
 30
0.0
 10
59.49606484961623
 20
-8.904924415752489
 30
0.0
  0
SPLINE
  5
8148
330
1F
100
AcDbEntity
  8
AM_0
100
AcDbSpline
210
0.0
220
0.0
230
1.0
 70
    24
 71
     1
 72
     4
 73
     2
 74
     0
 42
0.0000000001
 43
0.0000000001
 40
5.892260816632965
 40
5.892260816632965
 40
6.101831039886935
 40
6.101831039886935
 10
59.22363199134349
 20
-9.209743362264489
 30
0.0
 10
59.35823756110176
 20
-9.056268496700354
 30
0.0
  0
SPLINE
  5
8149
330
1F
100
AcDbEntity
  8
AM_0
100
AcDbSpline
210
0.0
220
0.0
230
1.0
 70
    24
 71
     1
 72
     4
 73
     2
 74
     0
 42
0.0000000001
 43
0.0000000001
 40
5.682690593378996
 40
5.682690593378996
 40
5.892260816632965
 40
5.892260816632965
 10
59.09232573500663
 20
-9.365219315446054
 30
0.0
 10
59.22363199134349
 20
-9.209743362264489
 30
0.0
  0
SPLINE
  5
814A
330
1F
100
AcDbEntity
  8
AM_0
100
AcDbSpline
210
0.0
220
0.0
230
1.0
 70
    24
 71
     1
 72
     4
 73
     2
 74
     0
 42
0.0000000001
 43
0.0000000001
 40
5.473120370125028
 40
5.473120370125028
 40
5.682690593378996
 40
5.682690593378996
 10
58.96439638675656
 20
-9.522566659246095
 30
0.0
 10
59.09232573500663
 20
-9.365219315446054
 30
0.0
  0
SPLINE
  5
814B
330
1F
100
AcDbEntity
  8
AM_0
100
AcDbSpline
210
0.0
220
0.0
230
1.0
 70
    24
 71
     1
 72
     4
 73
     2
 74
     0
 42
0.0000000001
 43
0.0000000001
 40
5.263550146871059
 40
5.263550146871059
 40
5.473120370125028
 40
5.473120370125028
 10
58.83992154125838
 20
-9.681655696665885
 30
0.0
 10
58.96439638675656
 20
-9.522566659246095
 30
0.0
  0
SPLINE
  5
814C
330
1F
100
AcDbEntity
  8
AM_0
100
AcDbSpline
210
0.0
220
0.0
230
1.0
 70
    24
 71
     1
 72
     4
 73
     2
 74
     0
 42
0.0000000001
 43
0.0000000001
 40
5.05397992361709
 40
5.05397992361709
 40
5.263550146871059
 40
5.263550146871059
 10
58.71897879317725
 20
-9.84235673070647
 30
0.0
 10
58.83992154125838
 20
-9.681655696665885
 30
0.0
  0
SPLINE
  5
814D
330
1F
100
AcDbEntity
  8
AM_0
100
AcDbSpline
210
0.0
220
0.0
230
1.0
 70
    24
 71
     1
 72
     4
 73
     2
 74
     0
 42
0.0000000001
 43
0.0000000001
 40
4.844409700363121
 40
4.844409700363121
 40
5.05397992361709
 40
5.05397992361709
 10
58.60164573717838
 20
-10.00454006436912
 30
0.0
 10
58.71897879317725
 20
-9.84235673070647
 30
0.0
  0
SPLINE
  5
814E
330
1F
100
AcDbEntity
  8
AM_0
100
AcDbSpline
210
0.0
220
0.0
230
1.0
 70
    24
 71
     1
 72
     4
 73
     2
 74
     0
 42
0.0000000001
 43
0.0000000001
 40
4.634839477109152
 40
4.634839477109152
 40
4.844409700363121
 40
4.844409700363121
 10
58.48799996792718
 20
-10.16807600065489
 30
0.0
 10
58.60164573717838
 20
-10.00454006436912
 30
0.0
  0
SPLINE
  5
814F
330
1F
100
AcDbEntity
  8
AM_0
100
AcDbSpline
210
0.0
220
0.0
230
1.0
 70
    24
 71
     1
 72
     4
 73
     2
 74
     0
 42
0.0000000001
 43
0.0000000001
 40
4.425269253855184
 40
4.425269253855184
 40
4.634839477109152
 40
4.634839477109152
 10
58.37811908008859
 20
-10.33283484256493
 30
0.0
 10
58.48799996792718
 20
-10.16807600065489
 30
0.0
  0
SPLINE
  5
8150
330
1F
100
AcDbEntity
  8
AM_0
100
AcDbSpline
210
0.0
220
0.0
230
1.0
 70
    24
 71
     1
 72
     4
 73
     2
 74
     0
 42
0.0000000001
 43
0.0000000001
 40
4.215699030601214
 40
4.215699030601214
 40
4.425269253855184
 40
4.425269253855184
 10
58.27208066832804
 20
-10.49868689310052
 30
0.0
 10
58.37811908008859
 20
-10.33283484256493
 30
0.0
  0
SPLINE
  5
8151
330
1F
100
AcDbEntity
  8
AM_0
100
AcDbSpline
210
0.0
220
0.0
230
1.0
 70
    24
 71
     1
 72
     4
 73
     2
 74
     0
 42
0.0000000001
 43
0.0000000001
 40
4.006128807347245
 40
4.006128807347245
 40
4.215699030601214
 40
4.215699030601214
 10
58.1699623273106
 20
-10.66550245526265
 30
0.0
 10
58.27208066832804
 20
-10.49868689310052
 30
0.0
  0
SPLINE
  5
8152
330
1F
100
AcDbEntity
  8
AM_0
100
AcDbSpline
210
0.0
220
0.0
230
1.0
 70
    24
 71
     1
 72
     4
 73
     2
 74
     0
 42
0.0000000001
 43
0.0000000001
 40
3.796558584093276
 40
3.796558584093276
 40
4.006128807347245
 40
4.006128807347245
 10
58.07184165170156
 20
-10.83315183205253
 30
0.0
 10
58.1699623273106
 20
-10.66550245526265
 30
0.0
  0
SPLINE
  5
8153
330
1F
100
AcDbEntity
  8
AM_0
100
AcDbSpline
210
0.0
220
0.0
230
1.0
 70
    24
 71
     1
 72
     4
 73
     2
 74
     0
 42
0.0000000001
 43
0.0000000001
 40
3.586988360839308
 40
3.586988360839308
 40
3.796558584093276
 40
3.796558584093276
 10
57.977796236166
 20
-11.00150532647144
 30
0.0
 10
58.07184165170156
 20
-10.83315183205253
 30
0.0
  0
SPLINE
  5
8154
330
1F
100
AcDbEntity
  8
AM_0
100
AcDbSpline
210
0.0
220
0.0
230
1.0
 70
    24
 71
     1
 72
     4
 73
     2
 74
     0
 42
0.0000000001
 43
0.0000000001
 40
3.362801588286851
 40
3.362801588286851
 40
3.586988360839308
 40
3.586988360839308
 10
57.88153675947558
 20
-11.18259923829727
 30
0.0
 10
57.977796236166
 20
-11.00150532647144
 30
0.0
  0
SPLINE
  5
8155
330
1F
100
AcDbEntity
  8
AM_0
100
AcDbSpline
210
0.0
220
0.0
230
1.0
 70
    24
 71
     1
 72
     4
 73
     2
 74
     0
 42
0.0000000001
 43
0.0000000001
 40
3.138614815734394
 40
3.138614815734394
 40
3.362801588286851
 40
3.362801588286851
 10
57.78956118750136
 20
-11.36494256922573
 30
0.0
 10
57.88153675947558
 20
-11.18259923829727
 30
0.0
  0
SPLINE
  5
8156
330
1F
100
AcDbEntity
  8
AM_0
100
AcDbSpline
210
0.0
220
0.0
230
1.0
 70
    24
 71
     1
 72
     4
 73
     2
 74
     0
 42
0.0000000001
 43
0.0000000001
 40
2.914428043181937
 40
2.914428043181937
 40
3.138614815734394
 40
3.138614815734394
 10
57.70188211085883
 20
-11.54840491470089
 30
0.0
 10
57.78956118750136
 20
-11.36494256922573
 30
0.0
  0
SPLINE
  5
8157
330
1F
100
AcDbEntity
  8
AM_0
100
AcDbSpline
210
0.0
220
0.0
230
1.0
 70
    24
 71
     1
 72
     4
 73
     2
 74
     0
 42
0.0000000001
 43
0.0000000001
 40
2.69024127062948
 40
2.69024127062948
 40
2.914428043181937
 40
2.914428043181937
 10
57.61851212016359
 20
-11.73285587016705
 30
0.0
 10
57.70188211085883
 20
-11.54840491470089
 30
0.0
  0
SPLINE
  5
8158
330
1F
100
AcDbEntity
  8
AM_0
100
AcDbSpline
210
0.0
220
0.0
230
1.0
 70
    24
 71
     1
 72
     4
 73
     2
 74
     0
 42
0.0000000001
 43
0.0000000001
 40
2.466054498077024
 40
2.466054498077024
 40
2.69024127062948
 40
2.69024127062948
 10
57.53946380603122
 20
-11.91816503106828
 30
0.0
 10
57.61851212016359
 20
-11.73285587016705
 30
0.0
  0
SPLINE
  5
8159
330
1F
100
AcDbEntity
  8
AM_0
100
AcDbSpline
210
0.0
220
0.0
230
1.0
 70
    24
 71
     1
 72
     4
 73
     2
 74
     0
 42
0.0000000001
 43
0.0000000001
 40
2.241867725524567
 40
2.241867725524567
 40
2.466054498077024
 40
2.466054498077024
 10
57.46474975907744
 20
-12.10420199284887
 30
0.0
 10
57.53946380603122
 20
-11.91816503106828
 30
0.0
  0
SPLINE
  5
815A
330
1F
100
AcDbEntity
  8
AM_0
100
AcDbSpline
210
0.0
220
0.0
230
1.0
 70
    24
 71
     1
 72
     4
 73
     2
 74
     0
 42
0.0000000001
 43
0.0000000001
 40
2.01768095297211
 40
2.01768095297211
 40
2.241867725524567
 40
2.241867725524567
 10
57.39438256991786
 20
-12.29083635095294
 30
0.0
 10
57.46474975907744
 20
-12.10420199284887
 30
0.0
  0
SPLINE
  5
815B
330
1F
100
AcDbEntity
  8
AM_0
100
AcDbSpline
210
0.0
220
0.0
230
1.0
 70
    24
 71
     1
 72
     4
 73
     2
 74
     0
 42
0.0000000001
 43
0.0000000001
 40
1.793494180419654
 40
1.793494180419654
 40
2.01768095297211
 40
2.01768095297211
 10
57.32837482916806
 20
-12.47793770082468
 30
0.0
 10
57.39438256991786
 20
-12.29083635095294
 30
0.0
  0
SPLINE
  5
815C
330
1F
100
AcDbEntity
  8
AM_0
100
AcDbSpline
210
0.0
220
0.0
230
1.0
 70
    24
 71
     1
 72
     4
 73
     2
 74
     0
 42
0.0000000001
 43
0.0000000001
 40
1.569307407867197
 40
1.569307407867197
 40
1.793494180419654
 40
1.793494180419654
 10
57.26673912744366
 20
-12.66537563790826
 30
0.0
 10
57.32837482916806
 20
-12.47793770082468
 30
0.0
  0
SPLINE
  5
815D
330
1F
100
AcDbEntity
  8
AM_0
100
AcDbSpline
210
0.0
220
0.0
230
1.0
 70
    24
 71
     1
 72
     4
 73
     2
 74
     0
 42
0.0000000001
 43
0.0000000001
 40
1.34512063531474
 40
1.34512063531474
 40
1.569307407867197
 40
1.569307407867197
 10
57.20948805536022
 20
-12.853019757648
 30
0.0
 10
57.26673912744366
 20
-12.66537563790826
 30
0.0
  0
SPLINE
  5
815E
330
1F
100
AcDbEntity
  8
AM_0
100
AcDbSpline
210
0.0
220
0.0
230
1.0
 70
    24
 71
     1
 72
     4
 73
     2
 74
     0
 42
0.0000000001
 43
0.0000000001
 40
1.120933862762283
 40
1.120933862762283
 40
1.34512063531474
 40
1.34512063531474
 10
57.15663420353348
 20
-13.04073965548788
 30
0.0
 10
57.20948805536022
 20
-12.853019757648
 30
0.0
  0
SPLINE
  5
815F
330
1F
100
AcDbEntity
  8
AM_0
100
AcDbSpline
210
0.0
220
0.0
230
1.0
 70
    24
 71
     1
 72
     4
 73
     2
 74
     0
 42
0.0000000001
 43
0.0000000001
 40
0.896747090209827
 40
0.896747090209827
 40
1.120933862762283
 40
1.120933862762283
 10
57.10819016257892
 20
-13.22840492687215
 30
0.0
 10
57.15663420353348
 20
-13.04073965548788
 30
0.0
  0
SPLINE
  5
8160
330
1F
100
AcDbEntity
  8
AM_0
100
AcDbSpline
210
0.0
220
0.0
230
1.0
 70
    24
 71
     1
 72
     4
 73
     2
 74
     0
 42
0.0000000001
 43
0.0000000001
 40
0.6725603176573703
 40
0.6725603176573703
 40
0.896747090209827
 40
0.896747090209827
 10
57.06416852311225
 20
-13.41588516724518
 30
0.0
 10
57.10819016257892
 20
-13.22840492687215
 30
0.0
  0
SPLINE
  5
8161
330
1F
100
AcDbEntity
  8
AM_0
100
AcDbSpline
210
0.0
220
0.0
230
1.0
 70
    24
 71
     1
 72
     4
 73
     2
 74
     0
 42
0.0000000001
 43
0.0000000001
 40
0.4483735451049136
 40
0.4483735451049136
 40
0.6725603176573703
 40
0.6725603176573703
 10
57.02458187574904
 20
-13.60304997205084
 30
0.0
 10
57.06416852311225
 20
-13.41588516724518
 30
0.0
  0
SPLINE
  5
8162
330
1F
100
AcDbEntity
  8
AM_0
100
AcDbSpline
210
0.0
220
0.0
230
1.0
 70
    24
 71
     1
 72
     4
 73
     2
 74
     0
 42
0.0000000001
 43
0.0000000001
 40
0.2241867725524568
 40
0.2241867725524568
 40
0.4483735451049136
 40
0.4483735451049136
 10
56.98944281110482
 20
-13.78976893673355
 30
0.0
 10
57.02458187574904
 20
-13.60304997205084
 30
0.0
  0
SPLINE
  5
8163
330
1F
100
AcDbEntity
  8
AM_0
100
AcDbSpline
210
0.0
220
0.0
230
1.0
 70
    24
 71
     1
 72
     4
 73
     2
 74
     0
 42
0.0000000001
 43
0.0000000001
 40
0.0
 40
0.0
 40
0.2241867725524568
 40
0.2241867725524568
 10
56.9587639197955
 20
-13.97591165673738
 30
0.0
 10
56.98944281110482
 20
-13.78976893673355
 30
0.0
  0
SPLINE
  5
8164
330
1F
100
AcDbEntity
  8
AM_0
100
AcDbSpline
210
0.0
220
0.0
230
1.0
 70
    24
 71
     1
 72
     4
 73
     2
 74
     0
 42
0.0000000001
 43
0.0000000001
 40
6.173666621914375
 40
6.173666621914375
 40
6.187959860182415
 40
6.187959860182415
 10
-12.99922298523677
 20
54.55381771777921
 30
0.0
 10
-13.06292817781513
 20
54.60289012230889
 30
0.0
  0
SPLINE
  5
8165
330
1F
100
AcDbEntity
  8
AM_0
100
AcDbSpline
210
0.0
220
0.0
230
1.0
 70
    24
 71
     1
 72
     4
 73
     2
 74
     0
 42
0.0000000001
 43
0.0000000001
 40
6.159373383646336
 40
6.159373383646336
 40
6.173666621914375
 40
6.173666621914375
 10
-12.94125234813555
 20
54.51531382083065
 30
0.0
 10
-12.99922298523677
 20
54.55381771777921
 30
0.0
  0
SPLINE
  5
8166
330
1F
100
AcDbEntity
  8
AM_0
100
AcDbSpline
210
0.0
220
0.0
230
1.0
 70
    24
 71
     1
 72
     4
 73
     2
 74
     0
 42
0.0000000001
 43
0.0000000001
 40
6.145080145378296
 40
6.145080145378296
 40
6.159373383646336
 40
6.159373383646336
 10
-12.88877016785147
 20
54.48481118585998
 30
0.0
 10
-12.94125234813555
 20
54.51531382083065
 30
0.0
  0
SPLINE
  5
8167
330
1F
100
AcDbEntity
  8
AM_0
100
AcDbSpline
210
0.0
220
0.0
230
1.0
 70
    24
 71
     1
 72
     4
 73
     2
 74
     0
 42
0.0000000001
 43
0.0000000001
 40
6.130786907110257
 40
6.130786907110257
 40
6.145080145378296
 40
6.145080145378296
 10
-12.84123840766335
 20
54.46035665457275
 30
0.0
 10
-12.88877016785147
 20
54.48481118585998
 30
0.0
  0
SPLINE
  5
8168
330
1F
100
AcDbEntity
  8
AM_0
100
AcDbSpline
210
0.0
220
0.0
230
1.0
 70
    24
 71
     1
 72
     4
 73
     2
 74
     0
 42
0.0000000001
 43
0.0000000001
 40
6.116493668842217
 40
6.116493668842217
 40
6.130786907110257
 40
6.130786907110257
 10
-12.79802708062345
 20
54.44049325006954
 30
0.0
 10
-12.84123840766335
 20
54.46035665457275
 30
0.0
  0
SPLINE
  5
8169
330
1F
100
AcDbEntity
  8
AM_0
100
AcDbSpline
210
0.0
220
0.0
230
1.0
 70
    24
 71
     1
 72
     4
 73
     2
 74
     0
 42
0.0000000001
 43
0.0000000001
 40
6.09267160506215
 40
6.09267160506215
 40
6.116493668842217
 40
6.116493668842217
 10
-12.73394525205287
 20
54.41478755460671
 30
0.0
 10
-12.79802708062345
 20
54.44049325006954
 30
0.0
  0
SPLINE
  5
816A
330
1F
100
AcDbEntity
  8
AM_0
100
AcDbSpline
210
0.0
220
0.0
230
1.0
 70
    24
 71
     1
 72
     4
 73
     2
 74
     0
 42
0.0000000001
 43
0.0000000001
 40
6.068849541282085
 40
6.068849541282085
 40
6.09267160506215
 40
6.09267160506215
 10
-12.67764296460313
 20
54.39552751581742
 30
0.0
 10
-12.73394525205287
 20
54.41478755460671
 30
0.0
  0
SPLINE
  5
816B
330
1F
100
AcDbEntity
  8
AM_0
100
AcDbSpline
210
0.0
220
0.0
230
1.0
 70
    24
 71
     1
 72
     4
 73
     2
 74
     0
 42
0.0000000001
 43
0.0000000001
 40
6.045027477502018
 40
6.045027477502018
 40
6.068849541282085
 40
6.068849541282085
 10
-12.62712203342573
 20
54.38060447281156
 30
0.0
 10
-12.67764296460313
 20
54.39552751581742
 30
0.0
  0
SPLINE
  5
816C
330
1F
100
AcDbEntity
  8
AM_0
100
AcDbSpline
210
0.0
220
0.0
230
1.0
 70
    24
 71
     1
 72
     4
 73
     2
 74
     0
 42
0.0000000001
 43
0.0000000001
 40
5.999231303951361
 40
5.999231303951361
 40
6.045027477502018
 40
6.045027477502018
 10
-12.54093825148379
 20
54.35962337418861
 30
0.0
 10
-12.62712203342573
 20
54.38060447281156
 30
0.0
  0
SPLINE
  5
816D
330
1F
100
AcDbEntity
  8
AM_0
100
AcDbSpline
210
0.0
220
0.0
230
1.0
 70
    24
 71
     1
 72
     4
 73
     2
 74
     0
 42
0.0000000001
 43
0.0000000001
 40
5.953435130400703
 40
5.953435130400703
 40
5.999231303951361
 40
5.999231303951361
 10
-12.46333809505927
 20
54.34479032740755
 30
0.0
 10
-12.54093825148379
 20
54.35962337418861
 30
0.0
  0
SPLINE
  5
816E
330
1F
100
AcDbEntity
  8
AM_0
100
AcDbSpline
210
0.0
220
0.0
230
1.0
 70
    24
 71
     1
 72
     4
 73
     2
 74
     0
 42
0.0000000001
 43
0.0000000001
 40
5.907638956850046
 40
5.907638956850046
 40
5.953435130400703
 40
5.953435130400703
 10
-12.38990198899784
 20
54.33361010898868
 30
0.0
 10
-12.46333809505927
 20
54.34479032740755
 30
0.0
  0
SPLINE
  5
816F
330
1F
100
AcDbEntity
  8
AM_0
100
AcDbSpline
210
0.0
220
0.0
230
1.0
 70
    24
 71
     1
 72
     4
 73
     2
 74
     0
 42
0.0000000001
 43
0.0000000001
 40
5.861842783299389
 40
5.861842783299389
 40
5.907638956850046
 40
5.907638956850046
 10
-12.31792858696917
 20
54.32482571998547
 30
0.0
 10
-12.38990198899784
 20
54.33361010898868
 30
0.0
  0
SPLINE
  5
8170
330
1F
100
AcDbEntity
  8
AM_0
100
AcDbSpline
210
0.0
220
0.0
230
1.0
 70
    24
 71
     1
 72
     4
 73
     2
 74
     0
 42
0.0000000001
 43
0.0000000001
 40
5.816046609748732
 40
5.816046609748732
 40
5.861842783299389
 40
5.861842783299389
 10
-12.24571706770541
 20
54.31776086965742
 30
0.0
 10
-12.31792858696917
 20
54.32482571998547
 30
0.0
  0
SPLINE
  5
8171
330
1F
100
AcDbEntity
  8
AM_0
100
AcDbSpline
210
0.0
220
0.0
230
1.0
 70
    24
 71
     1
 72
     4
 73
     2
 74
     0
 42
0.0000000001
 43
0.0000000001
 40
5.770250436198075
 40
5.770250436198075
 40
5.816046609748732
 40
5.816046609748732
 10
-12.17217193907083
 20
54.3120316090597
 30
0.0
 10
-12.24571706770541
 20
54.31776086965742
 30
0.0
  0
SPLINE
  5
8172
330
1F
100
AcDbEntity
  8
AM_0
100
AcDbSpline
210
0.0
220
0.0
230
1.0
 70
    24
 71
     1
 72
     4
 73
     2
 74
     0
 42
0.0000000001
 43
0.0000000001
 40
5.724454262647418
 40
5.724454262647418
 40
5.770250436198075
 40
5.770250436198075
 10
-12.09657901333025
 20
54.30741012057892
 30
0.0
 10
-12.17217193907083
 20
54.3120316090597
 30
0.0
  0
SPLINE
  5
8173
330
1F
100
AcDbEntity
  8
AM_0
100
AcDbSpline
210
0.0
220
0.0
230
1.0
 70
    24
 71
     1
 72
     4
 73
     2
 74
     0
 42
0.0000000001
 43
0.0000000001
 40
5.678658089096759
 40
5.678658089096759
 40
5.724454262647418
 40
5.724454262647418
 10
-12.01847373980331
 20
54.30375612874404
 30
0.0
 10
-12.09657901333025
 20
54.30741012057892
 30
0.0
  0
SPLINE
  5
8174
330
1F
100
AcDbEntity
  8
AM_0
100
AcDbSpline
210
0.0
220
0.0
230
1.0
 70
    24
 71
     1
 72
     4
 73
     2
 74
     0
 42
0.0000000001
 43
0.0000000001
 40
5.632861915546103
 40
5.632861915546103
 40
5.678658089096759
 40
5.678658089096759
 10
-11.93756097219477
 20
54.30098041766625
 30
0.0
 10
-12.01847373980331
 20
54.30375612874404
 30
0.0
  0
SPLINE
  5
8175
330
1F
100
AcDbEntity
  8
AM_0
100
AcDbSpline
210
0.0
220
0.0
230
1.0
 70
    24
 71
     1
 72
     4
 73
     2
 74
     0
 42
0.0000000001
 43
0.0000000001
 40
5.58982618116562
 40
5.58982618116562
 40
5.632861915546103
 40
5.632861915546103
 10
-11.85880790142539
 20
54.29911996419814
 30
0.0
 10
-11.93756097219477
 20
54.30098041766625
 30
0.0
  0
SPLINE
  5
8176
330
1F
100
AcDbEntity
  8
AM_0
100
AcDbSpline
210
0.0
220
0.0
230
1.0
 70
    24
 71
     1
 72
     4
 73
     2
 74
     0
 42
0.0000000001
 43
0.0000000001
 40
5.546790446785138
 40
5.546790446785138
 40
5.58982618116562
 40
5.58982618116562
 10
-11.77734255805569
 20
54.2979501532743
 30
0.0
 10
-11.85880790142539
 20
54.29911996419814
 30
0.0
  0
SPLINE
  5
8177
330
1F
100
AcDbEntity
  8
AM_0
100
AcDbSpline
210
0.0
220
0.0
230
1.0
 70
    24
 71
     1
 72
     4
 73
     2
 74
     0
 42
0.0000000001
 43
0.0000000001
 40
5.503754712404655
 40
5.503754712404655
 40
5.546790446785138
 40
5.546790446785138
 10
-11.69313893229821
 20
54.29744728345376
 30
0.0
 10
-11.77734255805569
 20
54.2979501532743
 30
0.0
  0
SPLINE
  5
8178
330
1F
100
AcDbEntity
  8
AM_0
100
AcDbSpline
210
0.0
220
0.0
230
1.0
 70
    24
 71
     1
 72
     4
 73
     2
 74
     0
 42
0.0000000001
 43
0.0000000001
 40
5.460718978024173
 40
5.460718978024173
 40
5.503754712404655
 40
5.503754712404655
 10
-11.60621017308449
 20
54.29759374191461
 30
0.0
 10
-11.69313893229821
 20
54.29744728345376
 30
0.0
  0
SPLINE
  5
8179
330
1F
100
AcDbEntity
  8
AM_0
100
AcDbSpline
210
0.0
220
0.0
230
1.0
 70
    24
 71
     1
 72
     4
 73
     2
 74
     0
 42
0.0000000001
 43
0.0000000001
 40
5.41768324364369
 40
5.41768324364369
 40
5.460718978024173
 40
5.460718978024173
 10
-11.51660037696569
 20
54.29837582074235
 30
0.0
 10
-11.60621017308449
 20
54.29759374191461
 30
0.0
  0
SPLINE
  5
817A
330
1F
100
AcDbEntity
  8
AM_0
100
AcDbSpline
210
0.0
220
0.0
230
1.0
 70
    24
 71
     1
 72
     4
 73
     2
 74
     0
 42
0.0000000001
 43
0.0000000001
 40
5.374647509263208
 40
5.374647509263208
 40
5.41768324364369
 40
5.41768324364369
 10
-11.4243785603063
 20
54.29978226148334
 30
0.0
 10
-11.51660037696569
 20
54.29837582074235
 30
0.0
  0
SPLINE
  5
817B
330
1F
100
AcDbEntity
  8
AM_0
100
AcDbSpline
210
0.0
220
0.0
230
1.0
 70
    24
 71
     1
 72
     4
 73
     2
 74
     0
 42
0.0000000001
 43
0.0000000001
 40
5.331611774882725
 40
5.331611774882725
 40
5.374647509263208
 40
5.374647509263208
 10
-11.32963414140772
 20
54.30180326757583
 30
0.0
 10
-11.4243785603063
 20
54.29978226148334
 30
0.0
  0
SPLINE
  5
817C
330
1F
100
AcDbEntity
  8
AM_0
100
AcDbSpline
210
0.0
220
0.0
230
1.0
 70
    24
 71
     1
 72
     4
 73
     2
 74
     0
 42
0.0000000001
 43
0.0000000001
 40
5.288576040502243
 40
5.288576040502243
 40
5.331611774882725
 40
5.331611774882725
 10
-11.23247348442839
 20
54.30442982407054
 30
0.0
 10
-11.32963414140772
 20
54.30180326757583
 30
0.0
  0
SPLINE
  5
817D
330
1F
100
AcDbEntity
  8
AM_0
100
AcDbSpline
210
0.0
220
0.0
230
1.0
 70
    24
 71
     1
 72
     4
 73
     2
 74
     0
 42
0.0000000001
 43
0.0000000001
 40
5.247012910926985
 40
5.247012910926985
 40
5.288576040502243
 40
5.288576040502243
 10
-11.13645694097374
 20
54.30753315648063
 30
0.0
 10
-11.23247348442839
 20
54.30442982407054
 30
0.0
  0
SPLINE
  5
817E
330
1F
100
AcDbEntity
  8
AM_0
100
AcDbSpline
210
0.0
220
0.0
230
1.0
 70
    24
 71
     1
 72
     4
 73
     2
 74
     0
 42
0.0000000001
 43
0.0000000001
 40
5.205449781351726
 40
5.205449781351726
 40
5.247012910926985
 40
5.247012910926985
 10
-11.03841851311097
 20
54.31118532142839
 30
0.0
 10
-11.13645694097374
 20
54.30753315648063
 30
0.0
  0
SPLINE
  5
817F
330
1F
100
AcDbEntity
  8
AM_0
100
AcDbSpline
210
0.0
220
0.0
230
1.0
 70
    24
 71
     1
 72
     4
 73
     2
 74
     0
 42
0.0000000001
 43
0.0000000001
 40
5.163886651776467
 40
5.163886651776467
 40
5.205449781351726
 40
5.205449781351726
 10
-10.93848663813071
 20
54.31537823277982
 30
0.0
 10
-11.03841851311097
 20
54.31118532142839
 30
0.0
  0
SPLINE
  5
8180
330
1F
100
AcDbEntity
  8
AM_0
100
AcDbSpline
210
0.0
220
0.0
230
1.0
 70
    24
 71
     1
 72
     4
 73
     2
 74
     0
 42
0.0000000001
 43
0.0000000001
 40
5.122323522201208
 40
5.122323522201208
 40
5.163886651776467
 40
5.163886651776467
 10
-10.83679757308334
 20
54.32010343971448
 30
0.0
 10
-10.93848663813071
 20
54.31537823277982
 30
0.0
  0
SPLINE
  5
8181
330
1F
100
AcDbEntity
  8
AM_0
100
AcDbSpline
210
0.0
220
0.0
230
1.0
 70
    24
 71
     1
 72
     4
 73
     2
 74
     0
 42
0.0000000001
 43
0.0000000001
 40
5.08076039262595
 40
5.08076039262595
 40
5.122323522201208
 40
5.122323522201208
 10
-10.73349434923523
 20
54.32535202606924
 30
0.0
 10
-10.83679757308334
 20
54.32010343971448
 30
0.0
  0
SPLINE
  5
8182
330
1F
100
AcDbEntity
  8
AM_0
100
AcDbSpline
210
0.0
220
0.0
230
1.0
 70
    24
 71
     1
 72
     4
 73
     2
 74
     0
 42
0.0000000001
 43
0.0000000001
 40
5.039197263050691
 40
5.039197263050691
 40
5.08076039262595
 40
5.08076039262595
 10
-10.6287258660883
 20
54.33111454034722
 30
0.0
 10
-10.73349434923523
 20
54.32535202606924
 30
0.0
  0
SPLINE
  5
8183
330
1F
100
AcDbEntity
  8
AM_0
100
AcDbSpline
210
0.0
220
0.0
230
1.0
 70
    24
 71
     1
 72
     4
 73
     2
 74
     0
 42
0.0000000001
 43
0.0000000001
 40
4.997634133475432
 40
4.997634133475432
 40
5.039197263050691
 40
5.039197263050691
 10
-10.52264609215399
 20
54.33738094885921
 30
0.0
 10
-10.6287258660883
 20
54.33111454034722
 30
0.0
  0
SPLINE
  5
8184
330
1F
100
AcDbEntity
  8
AM_0
100
AcDbSpline
210
0.0
220
0.0
230
1.0
 70
    24
 71
     1
 72
     4
 73
     2
 74
     0
 42
0.0000000001
 43
0.0000000001
 40
4.956071003900174
 40
4.956071003900174
 40
4.997634133475432
 40
4.997634133475432
 10
-10.41541334775672
 20
54.34414060665112
 30
0.0
 10
-10.52264609215399
 20
54.33738094885921
 30
0.0
  0
SPLINE
  5
8185
330
1F
100
AcDbEntity
  8
AM_0
100
AcDbSpline
210
0.0
220
0.0
230
1.0
 70
    24
 71
     1
 72
     4
 73
     2
 74
     0
 42
0.0000000001
 43
0.0000000001
 40
4.91471226194659
 40
4.91471226194659
 40
4.956071003900174
 40
4.956071003900174
 10
-10.30772400048965
 20
54.35134547136754
 30
0.0
 10
-10.41541334775672
 20
54.34414060665112
 30
0.0
  0
SPLINE
  5
8186
330
1F
100
AcDbEntity
  8
AM_0
100
AcDbSpline
210
0.0
220
0.0
230
1.0
 70
    24
 71
     1
 72
     4
 73
     2
 74
     0
 42
0.0000000001
 43
0.0000000001
 40
4.873353519993006
 40
4.873353519993006
 40
4.91471226194659
 40
4.91471226194659
 10
-10.19921610114647
 20
54.35901586064186
 30
0.0
 10
-10.30772400048965
 20
54.35134547136754
 30
0.0
  0
SPLINE
  5
8187
330
1F
100
AcDbEntity
  8
AM_0
100
AcDbSpline
210
0.0
220
0.0
230
1.0
 70
    24
 71
     1
 72
     4
 73
     2
 74
     0
 42
0.0000000001
 43
0.0000000001
 40
4.831994778039423
 40
4.831994778039423
 40
4.873353519993006
 40
4.873353519993006
 10
-10.09005480817938
 20
54.36713943655631
 30
0.0
 10
-10.19921610114647
 20
54.35901586064186
 30
0.0
  0
SPLINE
  5
8188
330
1F
100
AcDbEntity
  8
AM_0
100
AcDbSpline
210
0.0
220
0.0
230
1.0
 70
    24
 71
     1
 72
     4
 73
     2
 74
     0
 42
0.0000000001
 43
0.0000000001
 40
4.79063603608584
 40
4.79063603608584
 40
4.831994778039423
 40
4.831994778039423
 10
-9.980407231127287
 20
54.37570326159129
 30
0.0
 10
-10.09005480817938
 20
54.36713943655631
 30
0.0
  0
SPLINE
  5
8189
330
1F
100
AcDbEntity
  8
AM_0
100
AcDbSpline
210
0.0
220
0.0
230
1.0
 70
    24
 71
     1
 72
     4
 73
     2
 74
     0
 42
0.0000000001
 43
0.0000000001
 40
4.749277294132257
 40
4.749277294132257
 40
4.79063603608584
 40
4.79063603608584
 10
-9.870441924385545
 20
54.38469381847089
 30
0.0
 10
-9.980407231127287
 20
54.37570326159129
 30
0.0
  0
SPLINE
  5
818A
330
1F
100
AcDbEntity
  8
AM_0
100
AcDbSpline
210
0.0
220
0.0
230
1.0
 70
    24
 71
     1
 72
     4
 73
     2
 74
     0
 42
0.0000000001
 43
0.0000000001
 40
4.707918552178673
 40
4.707918552178673
 40
4.749277294132257
 40
4.749277294132257
 10
-9.760328395590363
 20
54.39409703628102
 30
0.0
 10
-9.870441924385545
 20
54.38469381847089
 30
0.0
  0
SPLINE
  5
818B
330
1F
100
AcDbEntity
  8
AM_0
100
AcDbSpline
210
0.0
220
0.0
230
1.0
 70
    24
 71
     1
 72
     4
 73
     2
 74
     0
 42
0.0000000001
 43
0.0000000001
 40
4.66655981022509
 40
4.66655981022509
 40
4.707918552178673
 40
4.707918552178673
 10
-9.650236623592604
 20
54.40389832259135
 30
0.0
 10
-9.760328395590363
 20
54.39409703628102
 30
0.0
  0
SPLINE
  5
818C
330
1F
100
AcDbEntity
  8
AM_0
100
AcDbSpline
210
0.0
220
0.0
230
1.0
 70
    24
 71
     1
 72
     4
 73
     2
 74
     0
 42
0.0000000001
 43
0.0000000001
 40
4.625201068271506
 40
4.625201068271506
 40
4.66655981022509
 40
4.66655981022509
 10
-9.540336581515362
 20
54.41408260156042
 30
0.0
 10
-9.650236623592604
 20
54.40389832259135
 30
0.0
  0
SPLINE
  5
818D
330
1F
100
AcDbEntity
  8
AM_0
100
AcDbSpline
210
0.0
220
0.0
230
1.0
 70
    24
 71
     1
 72
     4
 73
     2
 74
     0
 42
0.0000000001
 43
0.0000000001
 40
4.583163879483764
 40
4.583163879483764
 40
4.625201068271506
 40
4.625201068271506
 10
-9.429004848448698
 20
54.42481042362697
 30
0.0
 10
-9.540336581515362
 20
54.41408260156042
 30
0.0
  0
SPLINE
  5
818E
330
1F
100
AcDbEntity
  8
AM_0
100
AcDbSpline
210
0.0
220
0.0
230
1.0
 70
    24
 71
     1
 72
     4
 73
     2
 74
     0
 42
0.0000000001
 43
0.0000000001
 40
4.541126690696023
 40
4.541126690696023
 40
4.583163879483764
 40
4.583163879483764
 10
-9.318223230094645
 20
54.43590117594133
 30
0.0
 10
-9.429004848448698
 20
54.42481042362697
 30
0.0
  0
SPLINE
  5
818F
330
1F
100
AcDbEntity
  8
AM_0
100
AcDbSpline
210
0.0
220
0.0
230
1.0
 70
    24
 71
     1
 72
     4
 73
     2
 74
     0
 42
0.0000000001
 43
0.0000000001
 40
4.499089501908281
 40
4.499089501908281
 40
4.541126690696023
 40
4.541126690696023
 10
-9.208167120154371
 20
54.4473378063755
 30
0.0
 10
-9.318223230094645
 20
54.43590117594133
 30
0.0
  0
SPLINE
  5
8190
330
1F
100
AcDbEntity
  8
AM_0
100
AcDbSpline
210
0.0
220
0.0
230
1.0
 70
    24
 71
     1
 72
     4
 73
     2
 74
     0
 42
0.0000000001
 43
0.0000000001
 40
4.457052313120539
 40
4.457052313120539
 40
4.499089501908281
 40
4.499089501908281
 10
-9.099009815529484
 20
54.4591029849693
 30
0.0
 10
-9.208167120154371
 20
54.4473378063755
 30
0.0
  0
SPLINE
  5
8191
330
1F
100
AcDbEntity
  8
AM_0
100
AcDbSpline
210
0.0
220
0.0
230
1.0
 70
    24
 71
     1
 72
     4
 73
     2
 74
     0
 42
0.0000000001
 43
0.0000000001
 40
4.415015124332797
 40
4.415015124332797
 40
4.457052313120539
 40
4.457052313120539
 10
-8.990921953785914
 20
54.47117918790723
 30
0.0
 10
-9.099009815529484
 20
54.4591029849693
 30
0.0
  0
SPLINE
  5
8192
330
1F
100
AcDbEntity
  8
AM_0
100
AcDbSpline
210
0.0
220
0.0
230
1.0
 70
    24
 71
     1
 72
     4
 73
     2
 74
     0
 42
0.0000000001
 43
0.0000000001
 40
4.372977935545055
 40
4.372977935545055
 40
4.415015124332797
 40
4.415015124332797
 10
-8.884070923033164
 20
54.4835487948789
 30
0.0
 10
-8.990921953785914
 20
54.47117918790723
 30
0.0
  0
SPLINE
  5
8193
330
1F
100
AcDbEntity
  8
AM_0
100
AcDbSpline
210
0.0
220
0.0
230
1.0
 70
    24
 71
     1
 72
     4
 73
     2
 74
     0
 42
0.0000000001
 43
0.0000000001
 40
4.330940746757313
 40
4.330940746757313
 40
4.372977935545055
 40
4.372977935545055
 10
-8.778620235055882
 20
54.49619420288597
 30
0.0
 10
-8.884070923033164
 20
54.4835487948789
 30
0.0
  0
SPLINE
  5
8194
330
1F
100
AcDbEntity
  8
AM_0
100
AcDbSpline
210
0.0
220
0.0
230
1.0
 70
    24
 71
     1
 72
     4
 73
     2
 74
     0
 42
0.0000000001
 43
0.0000000001
 40
4.288903557969572
 40
4.288903557969572
 40
4.330940746757313
 40
4.330940746757313
 10
-8.674728850182304
 20
54.50909796060277
 30
0.0
 10
-8.778620235055882
 20
54.49619420288597
 30
0.0
  0
SPLINE
  5
8195
330
1F
100
AcDbEntity
  8
AM_0
100
AcDbSpline
210
0.0
220
0.0
230
1.0
 70
    24
 71
     1
 72
     4
 73
     2
 74
     0
 42
0.0000000001
 43
0.0000000001
 40
4.243013694842656
 40
4.243013694842656
 40
4.288903557969572
 40
4.288903557969572
 10
-8.563276760278426
 20
54.52345913570631
 30
0.0
 10
-8.674728850182304
 20
54.50909796060277
 30
0.0
  0
SPLINE
  5
8196
330
1F
100
AcDbEntity
  8
AM_0
100
AcDbSpline
210
0.0
220
0.0
230
1.0
 70
    24
 71
     1
 72
     4
 73
     2
 74
     0
 42
0.0000000001
 43
0.0000000001
 40
4.197123831715741
 40
4.197123831715741
 40
4.243013694842656
 40
4.243013694842656
 10
-8.454057445273065
 20
54.5380861766992
 30
0.0
 10
-8.563276760278426
 20
54.52345913570631
 30
0.0
  0
SPLINE
  5
8197
330
1F
100
AcDbEntity
  8
AM_0
100
AcDbSpline
210
0.0
220
0.0
230
1.0
 70
    24
 71
     1
 72
     4
 73
     2
 74
     0
 42
0.0000000001
 43
0.0000000001
 40
4.151233968588826
 40
4.151233968588826
 40
4.197123831715741
 40
4.197123831715741
 10
-8.347252318793607
 20
54.55295858364632
 30
0.0
 10
-8.454057445273065
 20
54.5380861766992
 30
0.0
  0
SPLINE
  5
8198
330
1F
100
AcDbEntity
  8
AM_0
100
AcDbSpline
210
0.0
220
0.0
230
1.0
 70
    24
 71
     1
 72
     4
 73
     2
 74
     0
 42
0.0000000001
 43
0.0000000001
 40
4.10534410546191
 40
4.10534410546191
 40
4.151233968588826
 40
4.151233968588826
 10
-8.243030971614302
 20
54.56805742436613
 30
0.0
 10
-8.347252318793607
 20
54.55295858364632
 30
0.0
  0
SPLINE
  5
8199
330
1F
100
AcDbEntity
  8
AM_0
100
AcDbSpline
210
0.0
220
0.0
230
1.0
 70
    24
 71
     1
 72
     4
 73
     2
 74
     0
 42
0.0000000001
 43
0.0000000001
 40
4.059454242334995
 40
4.059454242334995
 40
4.10534410546191
 40
4.10534410546191
 10
-8.141549147788282
 20
54.58336594742961
 30
0.0
 10
-8.243030971614302
 20
54.56805742436613
 30
0.0
  0
SPLINE
  5
819A
330
1F
100
AcDbEntity
  8
AM_0
100
AcDbSpline
210
0.0
220
0.0
230
1.0
 70
    24
 71
     1
 72
     4
 73
     2
 74
     0
 42
0.0000000001
 43
0.0000000001
 40
4.01356437920808
 40
4.01356437920808
 40
4.059454242334995
 40
4.059454242334995
 10
-8.042946268771515
 20
54.59887038984383
 30
0.0
 10
-8.141549147788282
 20
54.58336594742961
 30
0.0
  0
SPLINE
  5
819B
330
1F
100
AcDbEntity
  8
AM_0
100
AcDbSpline
210
0.0
220
0.0
230
1.0
 70
    24
 71
     1
 72
     4
 73
     2
 74
     0
 42
0.0000000001
 43
0.0000000001
 40
3.967674516081164
 40
3.967674516081164
 40
4.01356437920808
 40
4.01356437920808
 10
-7.947342333597589
 20
54.61456106196514
 30
0.0
 10
-8.042946268771515
 20
54.59887038984383
 30
0.0
  0
SPLINE
  5
819C
330
1F
100
AcDbEntity
  8
AM_0
100
AcDbSpline
210
0.0
220
0.0
230
1.0
 70
    24
 71
     1
 72
     4
 73
     2
 74
     0
 42
0.0000000001
 43
0.0000000001
 40
3.921784652954249
 40
3.921784652954249
 40
3.967674516081164
 40
3.967674516081164
 10
-7.854833947078873
 20
54.6304338343363
 30
0.0
 10
-7.947342333597589
 20
54.61456106196514
 30
0.0
  0
SPLINE
  5
819D
330
1F
100
AcDbEntity
  8
AM_0
100
AcDbSpline
210
0.0
220
0.0
230
1.0
 70
    24
 71
     1
 72
     4
 73
     2
 74
     0
 42
0.0000000001
 43
0.0000000001
 40
3.874837023406572
 40
3.874837023406572
 40
3.921784652954249
 40
3.921784652954249
 10
-7.763467341355067
 20
54.64686464194606
 30
0.0
 10
-7.854833947078873
 20
54.6304338343363
 30
0.0
  0
SPLINE
  5
819E
330
1F
100
AcDbEntity
  8
AM_0
100
AcDbSpline
210
0.0
220
0.0
230
1.0
 70
    24
 71
     1
 72
     4
 73
     2
 74
     0
 42
0.0000000001
 43
0.0000000001
 40
3.827889393858896
 40
3.827889393858896
 40
3.874837023406572
 40
3.874837023406572
 10
-7.675445821522885
 20
54.66350507166969
 30
0.0
 10
-7.763467341355067
 20
54.64686464194606
 30
0.0
  0
SPLINE
  5
819F
330
1F
100
AcDbEntity
  8
AM_0
100
AcDbSpline
210
0.0
220
0.0
230
1.0
 70
    24
 71
     1
 72
     4
 73
     2
 74
     0
 42
0.0000000001
 43
0.0000000001
 40
3.780941764311219
 40
3.780941764311219
 40
3.827889393858896
 40
3.827889393858896
 10
-7.590753733138967
 20
54.6803870013246
 30
0.0
 10
-7.675445821522885
 20
54.66350507166969
 30
0.0
  0
SPLINE
  5
81A0
330
1F
100
AcDbEntity
  8
AM_0
100
AcDbSpline
210
0.0
220
0.0
230
1.0
 70
    24
 71
     1
 72
     4
 73
     2
 74
     0
 42
0.0000000001
 43
0.0000000001
 40
3.733994134763543
 40
3.733994134763543
 40
3.780941764311219
 40
3.780941764311219
 10
-7.509310289921245
 20
54.69756635141497
 30
0.0
 10
-7.590753733138967
 20
54.6803870013246
 30
0.0
  0
SPLINE
  5
81A1
330
1F
100
AcDbEntity
  8
AM_0
100
AcDbSpline
210
0.0
220
0.0
230
1.0
 70
    24
 71
     1
 72
     4
 73
     2
 74
     0
 42
0.0000000001
 43
0.0000000001
 40
3.687046505215866
 40
3.687046505215866
 40
3.733994134763543
 40
3.733994134763543
 10
-7.43094728403355
 20
54.71513478689626
 30
0.0
 10
-7.509310289921245
 20
54.69756635141497
 30
0.0
  0
SPLINE
  5
81A2
330
1F
100
AcDbEntity
  8
AM_0
100
AcDbSpline
210
0.0
220
0.0
230
1.0
 70
    24
 71
     1
 72
     4
 73
     2
 74
     0
 42
0.0000000001
 43
0.0000000001
 40
3.64009887566819
 40
3.64009887566819
 40
3.687046505215866
 40
3.687046505215866
 10
-7.355375768056205
 20
54.73323864681503
 30
0.0
 10
-7.43094728403355
 20
54.71513478689626
 30
0.0
  0
SPLINE
  5
81A3
330
1F
100
AcDbEntity
  8
AM_0
100
AcDbSpline
210
0.0
220
0.0
230
1.0
 70
    24
 71
     1
 72
     4
 73
     2
 74
     0
 42
0.0000000001
 43
0.0000000001
 40
3.593151246120513
 40
3.593151246120513
 40
3.64009887566819
 40
3.64009887566819
 10
-7.282134794996522
 20
54.75211073052985
 30
0.0
 10
-7.355375768056205
 20
54.73323864681503
 30
0.0
  0
SPLINE
  5
81A4
330
1F
100
AcDbEntity
  8
AM_0
100
AcDbSpline
210
0.0
220
0.0
230
1.0
 70
    24
 71
     1
 72
     4
 73
     2
 74
     0
 42
0.0000000001
 43
0.0000000001
 40
3.546203616572837
 40
3.546203616572837
 40
3.593151246120513
 40
3.593151246120513
 10
-7.210510081184452
 20
54.77212599325672
 30
0.0
 10
-7.282134794996522
 20
54.75211073052985
 30
0.0
  0
SPLINE
  5
81A5
330
1F
100
AcDbEntity
  8
AM_0
100
AcDbSpline
210
0.0
220
0.0
230
1.0
 70
    24
 71
     1
 72
     4
 73
     2
 74
     0
 42
0.0000000001
 43
0.0000000001
 40
3.49925598702516
 40
3.49925598702516
 40
3.546203616572837
 40
3.546203616572837
 10
-7.139400644576198
 20
54.79390404032464
 30
0.0
 10
-7.210510081184452
 20
54.77212599325672
 30
0.0
  0
SPLINE
  5
81A6
330
1F
100
AcDbEntity
  8
AM_0
100
AcDbSpline
210
0.0
220
0.0
230
1.0
 70
    24
 71
     1
 72
     4
 73
     2
 74
     0
 42
0.0000000001
 43
0.0000000001
 40
3.452308357477483
 40
3.452308357477483
 40
3.49925598702516
 40
3.49925598702516
 10
-7.067092706208541
 20
54.81850879357266
 30
0.0
 10
-7.139400644576198
 20
54.79390404032464
 30
0.0
  0
SPLINE
  5
81A7
330
1F
100
AcDbEntity
  8
AM_0
100
AcDbSpline
210
0.0
220
0.0
230
1.0
 70
    24
 71
     1
 72
     4
 73
     2
 74
     0
 42
0.0000000001
 43
0.0000000001
 40
3.429405932589974
 40
3.429405932589974
 40
3.452308357477483
 40
3.452308357477483
 10
-7.030619559691444
 20
54.8320641442625
 30
0.0
 10
-7.067092706208541
 20
54.81850879357266
 30
0.0
  0
SPLINE
  5
81A8
330
1F
100
AcDbEntity
  8
AM_0
100
AcDbSpline
210
0.0
220
0.0
230
1.0
 70
    24
 71
     1
 72
     4
 73
     2
 74
     0
 42
0.0000000001
 43
0.0000000001
 40
3.406503507702464
 40
3.406503507702464
 40
3.429405932589974
 40
3.429405932589974
 10
-6.99279678742539
 20
54.84706951027549
 30
0.0
 10
-7.030619559691444
 20
54.8320641442625
 30
0.0
  0
SPLINE
  5
81A9
330
1F
100
AcDbEntity
  8
AM_0
100
AcDbSpline
210
0.0
220
0.0
230
1.0
 70
    24
 71
     1
 72
     4
 73
     2
 74
     0
 42
0.0000000001
 43
0.0000000001
 40
3.383601082814955
 40
3.383601082814955
 40
3.406503507702464
 40
3.406503507702464
 10
-6.953061601596004
 20
54.86400583427751
 30
0.0
 10
-6.99279678742539
 20
54.84706951027549
 30
0.0
  0
SPLINE
  5
81AA
330
1F
100
AcDbEntity
  8
AM_0
100
AcDbSpline
210
0.0
220
0.0
230
1.0
 70
    24
 71
     1
 72
     4
 73
     2
 74
     0
 42
0.0000000001
 43
0.0000000001
 40
3.360698657927446
 40
3.360698657927446
 40
3.383601082814955
 40
3.383601082814955
 10
-6.910693718397965
 20
54.88355794574913
 30
0.0
 10
-6.953061601596004
 20
54.86400583427751
 30
0.0
  0
SPLINE
  5
81AB
330
1F
100
AcDbEntity
  8
AM_0
100
AcDbSpline
210
0.0
220
0.0
230
1.0
 70
    24
 71
     1
 72
     4
 73
     2
 74
     0
 42
0.0000000001
 43
0.0000000001
 40
3.337796233039937
 40
3.337796233039937
 40
3.360698657927446
 40
3.360698657927446
 10
-6.864770849242745
 20
54.90672173706797
 30
0.0
 10
-6.910693718397965
 20
54.88355794574913
 30
0.0
  0
SPLINE
  5
81AC
330
1F
100
AcDbEntity
  8
AM_0
100
AcDbSpline
210
0.0
220
0.0
230
1.0
 70
    24
 71
     1
 72
     4
 73
     2
 74
     0
 42
0.0000000001
 43
0.0000000001
 40
3.324442648810307
 40
3.324442648810307
 40
3.337796233039937
 40
3.337796233039937
 10
-6.835900009714464
 20
54.922455391002
 30
0.0
 10
-6.864770849242745
 20
54.90672173706797
 30
0.0
  0
SPLINE
  5
81AD
330
1F
100
AcDbEntity
  8
AM_0
100
AcDbSpline
210
0.0
220
0.0
230
1.0
 70
    24
 71
     1
 72
     4
 73
     2
 74
     0
 42
0.0000000001
 43
0.0000000001
 40
3.311089064580678
 40
3.311089064580678
 40
3.324442648810307
 40
3.324442648810307
 10
-6.80515106731957
 20
54.9403074010559
 30
0.0
 10
-6.835900009714464
 20
54.922455391002
 30
0.0
  0
SPLINE
  5
81AE
330
1F
100
AcDbEntity
  8
AM_0
100
AcDbSpline
210
0.0
220
0.0
230
1.0
 70
    24
 71
     1
 72
     4
 73
     2
 74
     0
 42
0.0000000001
 43
0.0000000001
 40
3.297735480351048
 40
3.297735480351048
 40
3.311089064580678
 40
3.311089064580678
 10
-6.772214592959358
 20
54.960792835839
 30
0.0
 10
-6.80515106731957
 20
54.9403074010559
 30
0.0
  0
SPLINE
  5
81AF
330
1F
100
AcDbEntity
  8
AM_0
100
AcDbSpline
210
0.0
220
0.0
230
1.0
 70
    24
 71
     1
 72
     4
 73
     2
 74
     0
 42
0.0000000001
 43
0.0000000001
 40
3.284381896121419
 40
3.284381896121419
 40
3.297735480351048
 40
3.297735480351048
 10
-6.736753579730134
 20
54.98457676998434
 30
0.0
 10
-6.772214592959358
 20
54.960792835839
 30
0.0
  0
SPLINE
  5
81B0
330
1F
100
AcDbEntity
  8
AM_0
100
AcDbSpline
210
0.0
220
0.0
230
1.0
 70
    24
 71
     1
 72
     4
 73
     2
 74
     0
 42
0.0000000001
 43
0.0000000001
 40
3.271028311891789
 40
3.271028311891789
 40
3.284381896121419
 40
3.284381896121419
 10
-6.698418529017885
 20
55.01252128056676
 30
0.0
 10
-6.736753579730134
 20
54.98457676998434
 30
0.0
  0
SPLINE
  5
81B1
330
1F
100
AcDbEntity
  8
AM_0
100
AcDbSpline
210
0.0
220
0.0
230
1.0
 70
    24
 71
     1
 72
     4
 73
     2
 74
     0
 42
0.0000000001
 43
0.0000000001
 40
3.261136272907013
 40
3.261136272907013
 40
3.271028311891789
 40
3.271028311891789
 10
-6.667971458119268
 20
55.03655145988289
 30
0.0
 10
-6.698418529017885
 20
55.01252128056676
 30
0.0
  0
SPLINE
  5
81B2
330
1F
100
AcDbEntity
  8
AM_0
100
AcDbSpline
210
0.0
220
0.0
230
1.0
 70
    24
 71
     1
 72
     4
 73
     2
 74
     0
 42
0.0000000001
 43
0.0000000001
 40
3.251244233922236
 40
3.251244233922236
 40
3.261136272907013
 40
3.261136272907013
 10
-6.635656503042014
 20
55.06403784940953
 30
0.0
 10
-6.667971458119268
 20
55.03655145988289
 30
0.0
  0
SPLINE
  5
81B3
330
1F
100
AcDbEntity
  8
AM_0
100
AcDbSpline
210
0.0
220
0.0
230
1.0
 70
    24
 71
     1
 72
     4
 73
     2
 74
     0
 42
0.0000000001
 43
0.0000000001
 40
3.24135219493746
 40
3.24135219493746
 40
3.251244233922236
 40
3.251244233922236
 10
-6.60141274198861
 20
55.09566064610651
 30
0.0
 10
-6.635656503042014
 20
55.06403784940953
 30
0.0
  0
SPLINE
  5
81B4
330
1F
100
AcDbEntity
  8
AM_0
100
AcDbSpline
210
0.0
220
0.0
230
1.0
 70
    24
 71
     1
 72
     4
 73
     2
 74
     0
 42
0.0000000001
 43
0.0000000001
 40
3.231460155952683
 40
3.231460155952683
 40
3.24135219493746
 40
3.24135219493746
 10
-6.565261990501198
 20
55.13222760239243
 30
0.0
 10
-6.60141274198861
 20
55.09566064610651
 30
0.0
  0
SPLINE
  5
81B5
330
1F
100
AcDbEntity
  8
AM_0
100
AcDbSpline
210
0.0
220
0.0
230
1.0
 70
    24
 71
     1
 72
     4
 73
     2
 74
     0
 42
0.0000000001
 43
0.0000000001
 40
3.221568116967907
 40
3.221568116967907
 40
3.231460155952683
 40
3.231460155952683
 10
-6.5273596461642
 20
55.17467961178015
 30
0.0
 10
-6.565261990501198
 20
55.13222760239243
 30
0.0
  0
SPLINE
  5
81B6
330
1F
100
AcDbEntity
  8
AM_0
100
AcDbSpline
210
0.0
220
0.0
230
1.0
 70
    24
 71
     1
 72
     4
 73
     2
 74
     0
 42
0.0000000001
 43
0.0000000001
 40
1.544618242210074
 40
1.544618242210074
 40
1.612581335081775
 40
1.612581335081775
 10
-4.541400889431542
 20
56.77291775684192
 30
0.0
 10
-4.595398268647159
 20
56.74324427123882
 30
0.0
  0
SPLINE
  5
81B7
330
1F
100
AcDbEntity
  8
AM_0
100
AcDbSpline
210
0.0
220
0.0
230
1.0
 70
    24
 71
     1
 72
     4
 73
     2
 74
     0
 42
0.0000000001
 43
0.0000000001
 40
1.476655149338373
 40
1.476655149338373
 40
1.544618242210074
 40
1.544618242210074
 10
-4.488961578474913
 20
56.80536226101297
 30
0.0
 10
-4.541400889431542
 20
56.77291775684192
 30
0.0
  0
SPLINE
  5
81B8
330
1F
100
AcDbEntity
  8
AM_0
100
AcDbSpline
210
0.0
220
0.0
230
1.0
 70
    24
 71
     1
 72
     4
 73
     2
 74
     0
 42
0.0000000001
 43
0.0000000001
 40
1.408692056466672
 40
1.408692056466672
 40
1.476655149338373
 40
1.476655149338373
 10
-4.438235367358402
 20
56.84043272908711
 30
0.0
 10
-4.488961578474913
 20
56.80536226101297
 30
0.0
  0
SPLINE
  5
81B9
330
1F
100
AcDbEntity
  8
AM_0
100
AcDbSpline
210
0.0
220
0.0
230
1.0
 70
    24
 71
     1
 72
     4
 73
     2
 74
     0
 42
0.0000000001
 43
0.0000000001
 40
1.34072896359497
 40
1.34072896359497
 40
1.408692056466672
 40
1.408692056466672
 10
-4.389377287662682
 20
56.87798410639935
 30
0.0
 10
-4.438235367358402
 20
56.84043272908711
 30
0.0
  0
SPLINE
  5
81BA
330
1F
100
AcDbEntity
  8
AM_0
100
AcDbSpline
210
0.0
220
0.0
230
1.0
 70
    24
 71
     1
 72
     4
 73
     2
 74
     0
 42
0.0000000001
 43
0.0000000001
 40
1.257985540633538
 40
1.257985540633538
 40
1.34072896359497
 40
1.34072896359497
 10
-4.332451771453747
 20
56.9269797500268
 30
0.0
 10
-4.389377287662682
 20
56.87798410639935
 30
0.0
  0
SPLINE
  5
81BB
330
1F
100
AcDbEntity
  8
AM_0
100
AcDbSpline
210
0.0
220
0.0
230
1.0
 70
    24
 71
     1
 72
     4
 73
     2
 74
     0
 42
0.0000000001
 43
0.0000000001
 40
1.175242117672106
 40
1.175242117672106
 40
1.257985540633538
 40
1.257985540633538
 10
-4.278319771206838
 20
56.97949308829025
 30
0.0
 10
-4.332451771453747
 20
56.9269797500268
 30
0.0
  0
SPLINE
  5
81BC
330
1F
100
AcDbEntity
  8
AM_0
100
AcDbSpline
210
0.0
220
0.0
230
1.0
 70
    24
 71
     1
 72
     4
 73
     2
 74
     0
 42
0.0000000001
 43
0.0000000001
 40
1.092498694710674
 40
1.092498694710674
 40
1.175242117672106
 40
1.175242117672106
 10
-4.227097870461307
 20
57.03532148514539
 30
0.0
 10
-4.278319771206838
 20
56.97949308829025
 30
0.0
  0
SPLINE
  5
81BD
330
1F
100
AcDbEntity
  8
AM_0
100
AcDbSpline
210
0.0
220
0.0
230
1.0
 70
    24
 71
     1
 72
     4
 73
     2
 74
     0
 42
0.0000000001
 43
0.0000000001
 40
1.009755271749241
 40
1.009755271749241
 40
1.092498694710674
 40
1.092498694710674
 10
-4.178902652756164
 20
57.09426230454806
 30
0.0
 10
-4.227097870461307
 20
57.03532148514539
 30
0.0
  0
SPLINE
  5
81BE
330
1F
100
AcDbEntity
  8
AM_0
100
AcDbSpline
210
0.0
220
0.0
230
1.0
 70
    24
 71
     1
 72
     4
 73
     2
 74
     0
 42
0.0000000001
 43
0.0000000001
 40
0.9270118487878095
 40
0.9270118487878095
 40
1.009755271749241
 40
1.009755271749241
 10
-4.133850701630876
 20
57.15611291045393
 30
0.0
 10
-4.178902652756164
 20
57.09426230454806
 30
0.0
  0
SPLINE
  5
81BF
330
1F
100
AcDbEntity
  8
AM_0
100
AcDbSpline
210
0.0
220
0.0
230
1.0
 70
    24
 71
     1
 72
     4
 73
     2
 74
     0
 42
0.0000000001
 43
0.0000000001
 40
0.8659510719344146
 40
0.8659510719344146
 40
0.9270118487878095
 40
0.9270118487878095
 10
-4.102582806740201
 20
57.20365032358124
 30
0.0
 10
-4.133850701630876
 20
57.15611291045393
 30
0.0
  0
SPLINE
  5
81C0
330
1F
100
AcDbEntity
  8
AM_0
100
AcDbSpline
210
0.0
220
0.0
230
1.0
 70
    24
 71
     1
 72
     4
 73
     2
 74
     0
 42
0.0000000001
 43
0.0000000001
 40
0.8048902950810196
 40
0.8048902950810196
 40
0.8659510719344146
 40
0.8659510719344146
 10
-4.07292731290147
 20
57.25286925709387
 30
0.0
 10
-4.102582806740201
 20
57.20365032358124
 30
0.0
  0
SPLINE
  5
81C1
330
1F
100
AcDbEntity
  8
AM_0
100
AcDbSpline
210
0.0
220
0.0
230
1.0
 70
    24
 71
     1
 72
     4
 73
     2
 74
     0
 42
0.0000000001
 43
0.0000000001
 40
0.743829518227625
 40
0.743829518227625
 40
0.8048902950810196
 40
0.8048902950810196
 10
-4.044933215626429
 20
57.30367971042089
 30
0.0
 10
-4.07292731290147
 20
57.25286925709387
 30
0.0
  0
SPLINE
  5
81C2
330
1F
100
AcDbEntity
  8
AM_0
100
AcDbSpline
210
0.0
220
0.0
230
1.0
 70
    24
 71
     1
 72
     4
 73
     2
 74
     0
 42
0.0000000001
 43
0.0000000001
 40
0.68276874137423
 40
0.68276874137423
 40
0.743829518227625
 40
0.743829518227625
 10
-4.018649510426484
 20
57.35599168299142
 30
0.0
 10
-4.044933215626429
 20
57.30367971042089
 30
0.0
  0
SPLINE
  5
81C3
330
1F
100
AcDbEntity
  8
AM_0
100
AcDbSpline
210
0.0
220
0.0
230
1.0
 70
    24
 71
     1
 72
     4
 73
     2
 74
     0
 42
0.0000000001
 43
0.0000000001
 40
0.621707964520835
 40
0.621707964520835
 40
0.68276874137423
 40
0.68276874137423
 10
-3.994125192813498
 20
57.40971517423457
 30
0.0
 10
-4.018649510426484
 20
57.35599168299142
 30
0.0
  0
SPLINE
  5
81C4
330
1F
100
AcDbEntity
  8
AM_0
100
AcDbSpline
210
0.0
220
0.0
230
1.0
 70
    24
 71
     1
 72
     4
 73
     2
 74
     0
 42
0.0000000001
 43
0.0000000001
 40
0.5641110450994517
 40
0.5641110450994517
 40
0.621707964520835
 40
0.621707964520835
 10
-3.972589012204593
 20
57.46177846617432
 30
0.0
 10
-3.994125192813498
 20
57.40971517423457
 30
0.0
  0
SPLINE
  5
81C5
330
1F
100
AcDbEntity
  8
AM_0
100
AcDbSpline
210
0.0
220
0.0
230
1.0
 70
    24
 71
     1
 72
     4
 73
     2
 74
     0
 42
0.0000000001
 43
0.0000000001
 40
0.5065141256780683
 40
0.5065141256780683
 40
0.5641110450994517
 40
0.5641110450994517
 10
-3.952604065638524
 20
57.51516048785468
 30
0.0
 10
-3.972589012204593
 20
57.46177846617432
 30
0.0
  0
SPLINE
  5
81C6
330
1F
100
AcDbEntity
  8
AM_0
100
AcDbSpline
210
0.0
220
0.0
230
1.0
 70
    24
 71
     1
 72
     4
 73
     2
 74
     0
 42
0.0000000001
 43
0.0000000001
 40
0.448917206256685
 40
0.448917206256685
 40
0.5065141256780683
 40
0.5065141256780683
 10
-3.93424202925496
 20
57.56958932270889
 30
0.0
 10
-3.952604065638524
 20
57.51516048785468
 30
0.0
  0
SPLINE
  5
81C7
330
1F
100
AcDbEntity
  8
AM_0
100
AcDbSpline
210
0.0
220
0.0
230
1.0
 70
    24
 71
     1
 72
     4
 73
     2
 74
     0
 42
0.0000000001
 43
0.0000000001
 40
0.3913202868353016
 40
0.3913202868353016
 40
0.448917206256685
 40
0.448917206256685
 10
-3.91757457919391
 20
57.6247930541703
 30
0.0
 10
-3.93424202925496
 20
57.56958932270889
 30
0.0
  0
SPLINE
  5
81C8
330
1F
100
AcDbEntity
  8
AM_0
100
AcDbSpline
210
0.0
220
0.0
230
1.0
 70
    24
 71
     1
 72
     4
 73
     2
 74
     0
 42
0.0000000001
 43
0.0000000001
 40
0.3337233674139182
 40
0.3337233674139182
 40
0.3913202868353016
 40
0.3913202868353016
 10
-3.902673391594817
 20
57.68049976567219
 30
0.0
 10
-3.91757457919391
 20
57.6247930541703
 30
0.0
  0
SPLINE
  5
81C9
330
1F
100
AcDbEntity
  8
AM_0
100
AcDbSpline
210
0.0
220
0.0
230
1.0
 70
    24
 71
     1
 72
     4
 73
     2
 74
     0
 42
0.0000000001
 43
0.0000000001
 40
0.2669786939311345
 40
0.2669786939311345
 40
0.3337233674139182
 40
0.3337233674139182
 10
-3.88762316689997
 20
57.74560673494516
 30
0.0
 10
-3.902673391594817
 20
57.68049976567219
 30
0.0
  0
SPLINE
  5
81CA
330
1F
100
AcDbEntity
  8
AM_0
100
AcDbSpline
210
0.0
220
0.0
230
1.0
 70
    24
 71
     1
 72
     4
 73
     2
 74
     0
 42
0.0000000001
 43
0.0000000001
 40
0.2002340204483509
 40
0.2002340204483509
 40
0.2669786939311345
 40
0.2669786939311345
 10
-3.874882254117324
 20
57.81109467112042
 30
0.0
 10
-3.88762316689997
 20
57.74560673494516
 30
0.0
  0
SPLINE
  5
81CB
330
1F
100
AcDbEntity
  8
AM_0
100
AcDbSpline
210
0.0
220
0.0
230
1.0
 70
    24
 71
     1
 72
     4
 73
     2
 74
     0
 42
0.0000000001
 43
0.0000000001
 40
0.1334893469655673
 40
0.1334893469655673
 40
0.2002340204483509
 40
0.2002340204483509
 10
-3.86441498867282
 20
57.87643607856243
 30
0.0
 10
-3.874882254117324
 20
57.81109467112042
 30
0.0
  0
SPLINE
  5
81CC
330
1F
100
AcDbEntity
  8
AM_0
100
AcDbSpline
210
0.0
220
0.0
230
1.0
 70
    24
 71
     1
 72
     4
 73
     2
 74
     0
 42
0.0000000001
 43
0.0000000001
 40
0.0667446734827836
 40
0.0667446734827836
 40
0.1334893469655673
 40
0.1334893469655673
 10
-3.856185705992515
 20
57.94110346163562
 30
0.0
 10
-3.86441498867282
 20
57.87643607856243
 30
0.0
  0
SPLINE
  5
81CD
330
1F
100
AcDbEntity
  8
AM_0
100
AcDbSpline
210
0.0
220
0.0
230
1.0
 70
    24
 71
     1
 72
     4
 73
     2
 74
     0
 42
0.0000000001
 43
0.0000000001
 40
0.0
 40
0.0
 40
0.0667446734827836
 40
0.0667446734827836
 10
-3.850158741502013
 20
58.00456932470449
 30
0.0
 10
-3.856185705992515
 20
57.94110346163562
 30
0.0
  0
SPLINE
  5
81CE
330
1F
100
AcDbEntity
  8
AM_0
100
AcDbSpline
210
0.0
220
0.0
230
1.0
 70
    24
 71
     1
 72
     4
 73
     2
 74
     0
 42
0.0000000001
 43
0.0000000001
 40
3.143377615053478
 40
3.143377615053478
 40
3.14921764539932
 40
3.14921764539932
 10
-5.678881758599573
 20
56.57666319938532
 30
0.0
 10
-5.682568805437654
 20
56.6451143626358
 30
0.0
  0
SPLINE
  5
81CF
330
1F
100
AcDbEntity
  8
AM_0
100
AcDbSpline
210
0.0
220
0.0
230
1.0
 70
    24
 71
     1
 72
     4
 73
     2
 74
     0
 42
0.0000000001
 43
0.0000000001
 40
3.137537584707636
 40
3.137537584707636
 40
3.143377615053478
 40
3.143377615053478
 10
-5.679751938891172
 20
56.50869994879672
 30
0.0
 10
-5.678881758599573
 20
56.57666319938532
 30
0.0
  0
SPLINE
  5
81D0
330
1F
100
AcDbEntity
  8
AM_0
100
AcDbSpline
210
0.0
220
0.0
230
1.0
 70
    24
 71
     1
 72
     4
 73
     2
 74
     0
 42
0.0000000001
 43
0.0000000001
 40
3.131697554361792
 40
3.131697554361792
 40
3.137537584707636
 40
3.137537584707636
 10
-5.684996476343712
 20
56.44206985010605
 30
0.0
 10
-5.679751938891172
 20
56.50869994879672
 30
0.0
  0
SPLINE
  5
81D1
330
1F
100
AcDbEntity
  8
AM_0
100
AcDbSpline
210
0.0
220
0.0
230
1.0
 70
    24
 71
     1
 72
     4
 73
     2
 74
     0
 42
0.0000000001
 43
0.0000000001
 40
3.12585752401595
 40
3.12585752401595
 40
3.131697554361792
 40
3.131697554361792
 10
-5.694283057338793
 20
56.37752488207375
 30
0.0
 10
-5.684996476343712
 20
56.44206985010605
 30
0.0
  0
SPLINE
  5
81D2
330
1F
100
AcDbEntity
  8
AM_0
100
AcDbSpline
210
0.0
220
0.0
230
1.0
 70
    24
 71
     1
 72
     4
 73
     2
 74
     0
 42
0.0000000001
 43
0.0000000001
 40
3.120017493670107
 40
3.120017493670107
 40
3.12585752401595
 40
3.12585752401595
 10
-5.707165316120153
 20
56.31568640922562
 30
0.0
 10
-5.694283057338793
 20
56.37752488207375
 30
0.0
  0
SPLINE
  5
81D3
330
1F
100
AcDbEntity
  8
AM_0
100
AcDbSpline
210
0.0
220
0.0
230
1.0
 70
    24
 71
     1
 72
     4
 73
     2
 74
     0
 42
0.0000000001
 43
0.0000000001
 40
3.114177463324264
 40
3.114177463324264
 40
3.120017493670107
 40
3.120017493670107
 10
-5.723124721097747
 20
56.25702476335781
 30
0.0
 10
-5.707165316120153
 20
56.31568640922562
 30
0.0
  0
SPLINE
  5
81D4
330
1F
100
AcDbEntity
  8
AM_0
100
AcDbSpline
210
0.0
220
0.0
230
1.0
 70
    24
 71
     1
 72
     4
 73
     2
 74
     0
 42
0.0000000001
 43
0.0000000001
 40
3.108337432978421
 40
3.108337432978421
 40
3.114177463324264
 40
3.114177463324264
 10
-5.741612271834355
 20
56.20185557043878
 30
0.0
 10
-5.723124721097747
 20
56.25702476335781
 30
0.0
  0
SPLINE
  5
81D5
330
1F
100
AcDbEntity
  8
AM_0
100
AcDbSpline
210
0.0
220
0.0
230
1.0
 70
    24
 71
     1
 72
     4
 73
     2
 74
     0
 42
0.0000000001
 43
0.0000000001
 40
3.102497402632579
 40
3.102497402632579
 40
3.108337432978421
 40
3.108337432978421
 10
-5.762084768108593
 20
56.15034984614173
 30
0.0
 10
-5.741612271834355
 20
56.20185557043878
 30
0.0
  0
SPLINE
  5
81D6
330
1F
100
AcDbEntity
  8
AM_0
100
AcDbSpline
210
0.0
220
0.0
230
1.0
 70
    24
 71
     1
 72
     4
 73
     2
 74
     0
 42
0.0000000001
 43
0.0000000001
 40
3.096657372286736
 40
3.096657372286736
 40
3.102497402632579
 40
3.102497402632579
 10
-5.784032603944524
 20
56.10255342561838
 30
0.0
 10
-5.762084768108593
 20
56.15034984614173
 30
0.0
  0
SPLINE
  5
81D7
330
1F
100
AcDbEntity
  8
AM_0
100
AcDbSpline
210
0.0
220
0.0
230
1.0
 70
    24
 71
     1
 72
     4
 73
     2
 74
     0
 42
0.0000000001
 43
0.0000000001
 40
3.087897326767971
 40
3.087897326767971
 40
3.096657372286736
 40
3.096657372286736
 10
-5.818736454846089
 20
56.03767162650687
 30
0.0
 10
-5.784032603944524
 20
56.10255342561838
 30
0.0
  0
SPLINE
  5
81D8
330
1F
100
AcDbEntity
  8
AM_0
100
AcDbSpline
210
0.0
220
0.0
230
1.0
 70
    24
 71
     1
 72
     4
 73
     2
 74
     0
 42
0.0000000001
 43
0.0000000001
 40
3.079137281249207
 40
3.079137281249207
 40
3.087897326767971
 40
3.087897326767971
 10
-5.854464366004322
 20
55.98051182288706
 30
0.0
 10
-5.818736454846089
 20
56.03767162650687
 30
0.0
  0
SPLINE
  5
81D9
330
1F
100
AcDbEntity
  8
AM_0
100
AcDbSpline
210
0.0
220
0.0
230
1.0
 70
    24
 71
     1
 72
     4
 73
     2
 74
     0
 42
0.0000000001
 43
0.0000000001
 40
3.070377235730443
 40
3.070377235730443
 40
3.079137281249207
 40
3.079137281249207
 10
-5.8902561037645
 20
55.93037426271944
 30
0.0
 10
-5.854464366004322
 20
55.98051182288706
 30
0.0
  0
SPLINE
  5
81DA
330
1F
100
AcDbEntity
  8
AM_0
100
AcDbSpline
210
0.0
220
0.0
230
1.0
 70
    24
 71
     1
 72
     4
 73
     2
 74
     0
 42
0.0000000001
 43
0.0000000001
 40
3.061617190211679
 40
3.061617190211679
 40
3.070377235730443
 40
3.070377235730443
 10
-5.925439295061437
 20
55.88647048362012
 30
0.0
 10
-5.8902561037645
 20
55.93037426271944
 30
0.0
  0
SPLINE
  5
81DB
330
1F
100
AcDbEntity
  8
AM_0
100
AcDbSpline
210
0.0
220
0.0
230
1.0
 70
    24
 71
     1
 72
     4
 73
     2
 74
     0
 42
0.0000000001
 43
0.0000000001
 40
0.0864654014784058
 40
0.0864654014784058
 40
0.09522544699717
 40
0.09522544699717
 10
-13.82157794138765
 20
55.23647189716341
 30
0.0
 10
-13.77930543555669
 20
55.1993446292892
 30
0.0
  0
SPLINE
  5
81DC
330
1F
100
AcDbEntity
  8
AM_0
100
AcDbSpline
210
0.0
220
0.0
230
1.0
 70
    24
 71
     1
 72
     4
 73
     2
 74
     0
 42
0.0000000001
 43
0.0000000001
 40
0.0777053559596416
 40
0.0777053559596416
 40
0.0864654014784058
 40
0.0864654014784058
 10
-13.8655322356592
 20
55.27963256729883
 30
0.0
 10
-13.82157794138765
 20
55.23647189716341
 30
0.0
  0
SPLINE
  5
81DD
330
1F
100
AcDbEntity
  8
AM_0
100
AcDbSpline
210
0.0
220
0.0
230
1.0
 70
    24
 71
     1
 72
     4
 73
     2
 74
     0
 42
0.0000000001
 43
0.0000000001
 40
0.0718653256137988
 40
0.0718653256137988
 40
0.0777053559596416
 40
0.0777053559596416
 10
-13.89552164731083
 20
55.31219975992825
 30
0.0
 10
-13.8655322356592
 20
55.27963256729883
 30
0.0
  0
SPLINE
  5
81DE
330
1F
100
AcDbEntity
  8
AM_0
100
AcDbSpline
210
0.0
220
0.0
230
1.0
 70
    24
 71
     1
 72
     4
 73
     2
 74
     0
 42
0.0000000001
 43
0.0000000001
 40
0.066025295267956
 40
0.066025295267956
 40
0.0718653256137988
 40
0.0718653256137988
 10
-13.92580438572292
 20
55.3481059768627
 30
0.0
 10
-13.89552164731083
 20
55.31219975992825
 30
0.0
  0
SPLINE
  5
81DF
330
1F
100
AcDbEntity
  8
AM_0
100
AcDbSpline
210
0.0
220
0.0
230
1.0
 70
    24
 71
     1
 72
     4
 73
     2
 74
     0
 42
0.0000000001
 43
0.0000000001
 40
0.0601852649221132
 40
0.0601852649221132
 40
0.066025295267956
 40
0.066025295267956
 10
-13.95608632661981
 20
55.3875897000617
 30
0.0
 10
-13.92580438572292
 20
55.3481059768627
 30
0.0
  0
SPLINE
  5
81E0
330
1F
100
AcDbEntity
  8
AM_0
100
AcDbSpline
210
0.0
220
0.0
230
1.0
 70
    24
 71
     1
 72
     4
 73
     2
 74
     0
 42
0.0000000001
 43
0.0000000001
 40
0.0543452345762704
 40
0.0543452345762704
 40
0.0601852649221132
 40
0.0601852649221132
 10
-13.98600050435129
 20
55.43084877175044
 30
0.0
 10
-13.95608632661981
 20
55.3875897000617
 30
0.0
  0
SPLINE
  5
81E1
330
1F
100
AcDbEntity
  8
AM_0
100
AcDbSpline
210
0.0
220
0.0
230
1.0
 70
    24
 71
     1
 72
     4
 73
     2
 74
     0
 42
0.0000000001
 43
0.0000000001
 40
0.0485052042304276
 40
0.0485052042304276
 40
0.0543452345762704
 40
0.0543452345762704
 10
-14.01510587166774
 20
55.47801698490757
 30
0.0
 10
-13.98600050435129
 20
55.43084877175044
 30
0.0
  0
SPLINE
  5
81E2
330
1F
100
AcDbEntity
  8
AM_0
100
AcDbSpline
210
0.0
220
0.0
230
1.0
 70
    24
 71
     1
 72
     4
 73
     2
 74
     0
 42
0.0000000001
 43
0.0000000001
 40
0.0426651738845847
 40
0.0426651738845847
 40
0.0485052042304276
 40
0.0485052042304276
 10
-14.04289260548
 20
55.52913769307592
 30
0.0
 10
-14.01510587166774
 20
55.47801698490757
 30
0.0
  0
SPLINE
  5
81E3
330
1F
100
AcDbEntity
  8
AM_0
100
AcDbSpline
210
0.0
220
0.0
230
1.0
 70
    24
 71
     1
 72
     4
 73
     2
 74
     0
 42
0.0000000001
 43
0.0000000001
 40
0.0368251435387419
 40
0.0368251435387419
 40
0.0426651738845847
 40
0.0426651738845847
 10
-14.06879606140842
 20
55.58413680465166
 30
0.0
 10
-14.04289260548
 20
55.52913769307592
 30
0.0
  0
SPLINE
  5
81E4
330
1F
100
AcDbEntity
  8
AM_0
100
AcDbSpline
210
0.0
220
0.0
230
1.0
 70
    24
 71
     1
 72
     4
 73
     2
 74
     0
 42
0.0000000001
 43
0.0000000001
 40
0.0309851131928991
 40
0.0309851131928991
 40
0.0368251435387419
 40
0.0368251435387419
 10
-14.09222077160461
 20
55.64279882190065
 30
0.0
 10
-14.06879606140842
 20
55.58413680465166
 30
0.0
  0
SPLINE
  5
81E5
330
1F
100
AcDbEntity
  8
AM_0
100
AcDbSpline
210
0.0
220
0.0
230
1.0
 70
    24
 71
     1
 72
     4
 73
     2
 74
     0
 42
0.0000000001
 43
0.0000000001
 40
0.0251450828470563
 40
0.0251450828470563
 40
0.0309851131928991
 40
0.0309851131928991
 10
-14.11257440972826
 20
55.70475060072901
 30
0.0
 10
-14.09222077160461
 20
55.64279882190065
 30
0.0
  0
SPLINE
  5
81E6
330
1F
100
AcDbEntity
  8
AM_0
100
AcDbSpline
210
0.0
220
0.0
230
1.0
 70
    24
 71
     1
 72
     4
 73
     2
 74
     0
 42
0.0000000001
 43
0.0000000001
 40
0.0193050525012135
 40
0.0193050525012135
 40
0.0251450828470563
 40
0.0251450828470563
 10
-14.1293094922878
 20
55.76945772735619
 30
0.0
 10
-14.11257440972826
 20
55.70475060072901
 30
0.0
  0
SPLINE
  5
81E7
330
1F
100
AcDbEntity
  8
AM_0
100
AcDbSpline
210
0.0
220
0.0
230
1.0
 70
    24
 71
     1
 72
     4
 73
     2
 74
     0
 42
0.0000000001
 43
0.0000000001
 40
0.0134650221553707
 40
0.0134650221553707
 40
0.0193050525012135
 40
0.0193050525012135
 10
-14.1419681742376
 20
55.83623735310839
 30
0.0
 10
-14.1293094922878
 20
55.76945772735619
 30
0.0
  0
SPLINE
  5
81E8
330
1F
100
AcDbEntity
  8
AM_0
100
AcDbSpline
210
0.0
220
0.0
230
1.0
 70
    24
 71
     1
 72
     4
 73
     2
 74
     0
 42
0.0000000001
 43
0.0000000001
 40
0.0076249918095279
 40
0.0076249918095279
 40
0.0134650221553707
 40
0.0134650221553707
 10
-14.15022358923738
 20
55.90428883500196
 30
0.0
 10
-14.1419681742376
 20
55.83623735310839
 30
0.0
  0
SPLINE
  5
81E9
330
1F
100
AcDbEntity
  8
AM_0
100
AcDbSpline
210
0.0
220
0.0
230
1.0
 70
    24
 71
     1
 72
     4
 73
     2
 74
     0
 42
0.0000000001
 43
0.0000000001
 40
7.75099434526642
 40
7.75099434526642
 40
7.766717509136046
 40
7.766717509136046
 10
55.5138951924124
 20
-15.46111290965178
 30
0.0
 10
55.57876169437668
 20
-15.40150750342327
 30
0.0
  0
SPLINE
  5
81EA
330
1F
100
AcDbEntity
  8
AM_0
100
AcDbSpline
210
0.0
220
0.0
230
1.0
 70
    24
 71
     1
 72
     4
 73
     2
 74
     0
 42
0.0000000001
 43
0.0000000001
 40
7.735271181396793
 40
7.735271181396793
 40
7.75099434526642
 40
7.75099434526642
 10
55.46258948393608
 20
-15.51602517362103
 30
0.0
 10
55.5138951924124
 20
-15.46111290965178
 30
0.0
  0
SPLINE
  5
81EB
330
1F
100
AcDbEntity
  8
AM_0
100
AcDbSpline
210
0.0
220
0.0
230
1.0
 70
    24
 71
     1
 72
     4
 73
     2
 74
     0
 42
0.0000000001
 43
0.0000000001
 40
7.719548017527167
 40
7.719548017527167
 40
7.735271181396793
 40
7.735271181396793
 10
55.42150250349573
 20
-15.56606643383095
 30
0.0
 10
55.46258948393608
 20
-15.51602517362103
 30
0.0
  0
SPLINE
  5
81EC
330
1F
100
AcDbEntity
  8
AM_0
100
AcDbSpline
210
0.0
220
0.0
230
1.0
 70
    24
 71
     1
 72
     4
 73
     2
 74
     0
 42
0.0000000001
 43
0.0000000001
 40
7.703824853657541
 40
7.703824853657541
 40
7.719548017527167
 40
7.719548017527167
 10
55.38809326647651
 20
-15.61156967955044
 30
0.0
 10
55.42150250349573
 20
-15.56606643383095
 30
0.0
  0
SPLINE
  5
81ED
330
1F
100
AcDbEntity
  8
AM_0
100
AcDbSpline
210
0.0
220
0.0
230
1.0
 70
    24
 71
     1
 72
     4
 73
     2
 74
     0
 42
0.0000000001
 43
0.0000000001
 40
7.688101689787914
 40
7.688101689787914
 40
7.703824853657541
 40
7.703824853657541
 10
55.3604772337834
 20
-15.65306724035805
 30
0.0
 10
55.38809326647651
 20
-15.61156967955044
 30
0.0
  0
SPLINE
  5
81EE
330
1F
100
AcDbEntity
  8
AM_0
100
AcDbSpline
210
0.0
220
0.0
230
1.0
 70
    24
 71
     1
 72
     4
 73
     2
 74
     0
 42
0.0000000001
 43
0.0000000001
 40
7.661896416671869
 40
7.661896416671869
 40
7.688101689787914
 40
7.688101689787914
 10
55.32372713341806
 20
-15.71487441772321
 30
0.0
 10
55.3604772337834
 20
-15.65306724035805
 30
0.0
  0
SPLINE
  5
81EF
330
1F
100
AcDbEntity
  8
AM_0
100
AcDbSpline
210
0.0
220
0.0
230
1.0
 70
    24
 71
     1
 72
     4
 73
     2
 74
     0
 42
0.0000000001
 43
0.0000000001
 40
7.635691143555826
 40
7.635691143555826
 40
7.661896416671869
 40
7.661896416671869
 10
55.29499938955985
 20
-15.76954986440769
 30
0.0
 10
55.32372713341806
 20
-15.71487441772321
 30
0.0
  0
SPLINE
  5
81F0
330
1F
100
AcDbEntity
  8
AM_0
100
AcDbSpline
210
0.0
220
0.0
230
1.0
 70
    24
 71
     1
 72
     4
 73
     2
 74
     0
 42
0.0000000001
 43
0.0000000001
 40
7.609485870439781
 40
7.609485870439781
 40
7.635691143555826
 40
7.635691143555826
 10
55.27162091192645
 20
-15.81904082212646
 30
0.0
 10
55.29499938955985
 20
-15.76954986440769
 30
0.0
  0
SPLINE
  5
81F1
330
1F
100
AcDbEntity
  8
AM_0
100
AcDbSpline
210
0.0
220
0.0
230
1.0
 70
    24
 71
     1
 72
     4
 73
     2
 74
     0
 42
0.0000000001
 43
0.0000000001
 40
7.564220577954825
 40
7.564220577954825
 40
7.609485870439781
 40
7.609485870439781
 10
55.23924471833447
 20
-15.8964814603196
 30
0.0
 10
55.27162091192645
 20
-15.81904082212646
 30
0.0
  0
SPLINE
  5
81F2
330
1F
100
AcDbEntity
  8
AM_0
100
AcDbSpline
210
0.0
220
0.0
230
1.0
 70
    24
 71
     1
 72
     4
 73
     2
 74
     0
 42
0.0000000001
 43
0.0000000001
 40
7.51895528546987
 40
7.51895528546987
 40
7.564220577954825
 40
7.564220577954825
 10
55.21304924550816
 20
-15.9680516462168
 30
0.0
 10
55.23924471833447
 20
-15.8964814603196
 30
0.0
  0
SPLINE
  5
81F3
330
1F
100
AcDbEntity
  8
AM_0
100
AcDbSpline
210
0.0
220
0.0
230
1.0
 70
    24
 71
     1
 72
     4
 73
     2
 74
     0
 42
0.0000000001
 43
0.0000000001
 40
7.473689992984914
 40
7.473689992984914
 40
7.51895528546987
 40
7.51895528546987
 10
55.19047471854491
 20
-16.03704212064918
 30
0.0
 10
55.21304924550816
 20
-15.9680516462168
 30
0.0
  0
SPLINE
  5
81F4
330
1F
100
AcDbEntity
  8
AM_0
100
AcDbSpline
210
0.0
220
0.0
230
1.0
 70
    24
 71
     1
 72
     4
 73
     2
 74
     0
 42
0.0000000001
 43
0.0000000001
 40
7.428424700499957
 40
7.428424700499957
 40
7.473689992984914
 40
7.473689992984914
 10
55.17013060161935
 20
-16.1055265313039
 30
0.0
 10
55.19047471854491
 20
-16.03704212064918
 30
0.0
  0
SPLINE
  5
81F5
330
1F
100
AcDbEntity
  8
AM_0
100
AcDbSpline
210
0.0
220
0.0
230
1.0
 70
    24
 71
     1
 72
     4
 73
     2
 74
     0
 42
0.0000000001
 43
0.0000000001
 40
7.383159408015001
 40
7.383159408015001
 40
7.428424700499957
 40
7.428424700499957
 10
55.15121730489863
 20
-16.17484127708742
 30
0.0
 10
55.17013060161935
 20
-16.1055265313039
 30
0.0
  0
SPLINE
  5
81F6
330
1F
100
AcDbEntity
  8
AM_0
100
AcDbSpline
210
0.0
220
0.0
230
1.0
 70
    24
 71
     1
 72
     4
 73
     2
 74
     0
 42
0.0000000001
 43
0.0000000001
 40
7.337894115530046
 40
7.337894115530046
 40
7.383159408015001
 40
7.383159408015001
 10
55.13325430944781
 20
-16.24586175992119
 30
0.0
 10
55.15121730489863
 20
-16.17484127708742
 30
0.0
  0
SPLINE
  5
81F7
330
1F
100
AcDbEntity
  8
AM_0
100
AcDbSpline
210
0.0
220
0.0
230
1.0
 70
    24
 71
     1
 72
     4
 73
     2
 74
     0
 42
0.0000000001
 43
0.0000000001
 40
7.292628823045088
 40
7.292628823045088
 40
7.337894115530046
 40
7.337894115530046
 10
55.11594334577194
 20
-16.31916478400661
 30
0.0
 10
55.13325430944781
 20
-16.24586175992119
 30
0.0
  0
SPLINE
  5
81F8
330
1F
100
AcDbEntity
  8
AM_0
100
AcDbSpline
210
0.0
220
0.0
230
1.0
 70
    24
 71
     1
 72
     4
 73
     2
 74
     0
 42
0.0000000001
 43
0.0000000001
 40
7.247363530560132
 40
7.247363530560132
 40
7.292628823045088
 40
7.292628823045088
 10
55.09909535142606
 20
-16.39512692561636
 30
0.0
 10
55.11594334577194
 20
-16.31916478400661
 30
0.0
  0
SPLINE
  5
81F9
330
1F
100
AcDbEntity
  8
AM_0
100
AcDbSpline
210
0.0
220
0.0
230
1.0
 70
    24
 71
     1
 72
     4
 73
     2
 74
     0
 42
0.0000000001
 43
0.0000000001
 40
7.202098238075176
 40
7.202098238075176
 40
7.247363530560132
 40
7.247363530560132
 10
55.08258943815133
 20
-16.47398601686701
 30
0.0
 10
55.09909535142606
 20
-16.39512692561636
 30
0.0
  0
SPLINE
  5
81FA
330
1F
100
AcDbEntity
  8
AM_0
100
AcDbSpline
210
0.0
220
0.0
230
1.0
 70
    24
 71
     1
 72
     4
 73
     2
 74
     0
 42
0.0000000001
 43
0.0000000001
 40
7.159144028363652
 40
7.159144028363652
 40
7.202098238075176
 40
7.202098238075176
 10
55.06717240355715
 20
-16.5516246789157
 30
0.0
 10
55.08258943815133
 20
-16.47398601686701
 30
0.0
  0
SPLINE
  5
81FB
330
1F
100
AcDbEntity
  8
AM_0
100
AcDbSpline
210
0.0
220
0.0
230
1.0
 70
    24
 71
     1
 72
     4
 73
     2
 74
     0
 42
0.0000000001
 43
0.0000000001
 40
7.116189818652128
 40
7.116189818652128
 40
7.159144028363652
 40
7.159144028363652
 10
55.05195307351562
 20
-16.63205489080066
 30
0.0
 10
55.06717240355715
 20
-16.5516246789157
 30
0.0
  0
SPLINE
  5
81FC
330
1F
100
AcDbEntity
  8
AM_0
100
AcDbSpline
210
0.0
220
0.0
230
1.0
 70
    24
 71
     1
 72
     4
 73
     2
 74
     0
 42
0.0000000001
 43
0.0000000001
 40
7.073235608940604
 40
7.073235608940604
 40
7.116189818652128
 40
7.116189818652128
 10
55.03690705055271
 20
-16.7152889305744
 30
0.0
 10
55.05195307351562
 20
-16.63205489080066
 30
0.0
  0
SPLINE
  5
81FD
330
1F
100
AcDbEntity
  8
AM_0
100
AcDbSpline
210
0.0
220
0.0
230
1.0
 70
    24
 71
     1
 72
     4
 73
     2
 74
     0
 42
0.0000000001
 43
0.0000000001
 40
7.03028139922908
 40
7.03028139922908
 40
7.073235608940604
 40
7.073235608940604
 10
55.02202171689441
 20
-16.80130375249753
 30
0.0
 10
55.03690705055271
 20
-16.7152889305744
 30
0.0
  0
SPLINE
  5
81FE
330
1F
100
AcDbEntity
  8
AM_0
100
AcDbSpline
210
0.0
220
0.0
230
1.0
 70
    24
 71
     1
 72
     4
 73
     2
 74
     0
 42
0.0000000001
 43
0.0000000001
 40
6.987327189517555
 40
6.987327189517555
 40
7.03028139922908
 40
7.03028139922908
 10
55.00729297637099
 20
-16.890048119496
 30
0.0
 10
55.02202171689441
 20
-16.80130375249753
 30
0.0
  0
SPLINE
  5
81FF
330
1F
100
AcDbEntity
  8
AM_0
100
AcDbSpline
210
0.0
220
0.0
230
1.0
 70
    24
 71
     1
 72
     4
 73
     2
 74
     0
 42
0.0000000001
 43
0.0000000001
 40
6.944372979806031
 40
6.944372979806031
 40
6.987327189517555
 40
6.987327189517555
 10
54.99272298303435
 20
-16.98144788805883
 30
0.0
 10
55.00729297637099
 20
-16.890048119496
 30
0.0
  0
SPLINE
  5
8200
330
1F
100
AcDbEntity
  8
AM_0
100
AcDbSpline
210
0.0
220
0.0
230
1.0
 70
    24
 71
     1
 72
     4
 73
     2
 74
     0
 42
0.0000000001
 43
0.0000000001
 40
6.901418770094506
 40
6.901418770094506
 40
6.944372979806031
 40
6.944372979806031
 10
54.97831852393699
 20
-17.07541000459976
 30
0.0
 10
54.99272298303435
 20
-16.98144788805883
 30
0.0
  0
SPLINE
  5
8201
330
1F
100
AcDbEntity
  8
AM_0
100
AcDbSpline
210
0.0
220
0.0
230
1.0
 70
    24
 71
     1
 72
     4
 73
     2
 74
     0
 42
0.0000000001
 43
0.0000000001
 40
6.858464560382983
 40
6.858464560382983
 40
6.901418770094506
 40
6.901418770094506
 10
54.96408984470519
 20
-17.17182558895412
 30
0.0
 10
54.97831852393699
 20
-17.07541000459976
 30
0.0
  0
SPLINE
  5
8202
330
1F
100
AcDbEntity
  8
AM_0
100
AcDbSpline
210
0.0
220
0.0
230
1.0
 70
    24
 71
     1
 72
     4
 73
     2
 74
     0
 42
0.0000000001
 43
0.0000000001
 40
6.816922918762097
 40
6.816922918762097
 40
6.858464560382983
 40
6.858464560382983
 10
54.95050834523102
 20
-17.26728932657898
 30
0.0
 10
54.96408984470519
 20
-17.17182558895412
 30
0.0
  0
SPLINE
  5
8203
330
1F
100
AcDbEntity
  8
AM_0
100
AcDbSpline
210
0.0
220
0.0
230
1.0
 70
    24
 71
     1
 72
     4
 73
     2
 74
     0
 42
0.0000000001
 43
0.0000000001
 40
6.775381277141212
 40
6.775381277141212
 40
6.816922918762097
 40
6.816922918762097
 10
54.9371165891248
 20
-17.36481268933256
 30
0.0
 10
54.95050834523102
 20
-17.26728932657898
 30
0.0
  0
SPLINE
  5
8204
330
1F
100
AcDbEntity
  8
AM_0
100
AcDbSpline
210
0.0
220
0.0
230
1.0
 70
    24
 71
     1
 72
     4
 73
     2
 74
     0
 42
0.0000000001
 43
0.0000000001
 40
6.733839635520326
 40
6.733839635520326
 40
6.775381277141212
 40
6.775381277141212
 10
54.92392918142423
 20
-17.46426620311184
 30
0.0
 10
54.9371165891248
 20
-17.36481268933256
 30
0.0
  0
SPLINE
  5
8205
330
1F
100
AcDbEntity
  8
AM_0
100
AcDbSpline
210
0.0
220
0.0
230
1.0
 70
    24
 71
     1
 72
     4
 73
     2
 74
     0
 42
0.0000000001
 43
0.0000000001
 40
6.692297993899441
 40
6.692297993899441
 40
6.733839635520326
 40
6.733839635520326
 10
54.91096165858698
 20
-17.56551287793355
 30
0.0
 10
54.92392918142423
 20
-17.46426620311184
 30
0.0
  0
SPLINE
  5
8206
330
1F
100
AcDbEntity
  8
AM_0
100
AcDbSpline
210
0.0
220
0.0
230
1.0
 70
    24
 71
     1
 72
     4
 73
     2
 74
     0
 42
0.0000000001
 43
0.0000000001
 40
6.650756352278555
 40
6.650756352278555
 40
6.692297993899441
 40
6.692297993899441
 10
54.89823022204951
 20
-17.66840918529864
 30
0.0
 10
54.91096165858698
 20
-17.56551287793355
 30
0.0
  0
SPLINE
  5
8207
330
1F
100
AcDbEntity
  8
AM_0
100
AcDbSpline
210
0.0
220
0.0
230
1.0
 70
    24
 71
     1
 72
     4
 73
     2
 74
     0
 42
0.0000000001
 43
0.0000000001
 40
6.609214710657671
 40
6.609214710657671
 40
6.650756352278555
 40
6.650756352278555
 10
54.8857515227537
 20
-17.77280591130018
 30
0.0
 10
54.89823022204951
 20
-17.66840918529864
 30
0.0
  0
SPLINE
  5
8208
330
1F
100
AcDbEntity
  8
AM_0
100
AcDbSpline
210
0.0
220
0.0
230
1.0
 70
    24
 71
     1
 72
     4
 73
     2
 74
     0
 42
0.0000000001
 43
0.0000000001
 40
6.567673069036786
 40
6.567673069036786
 40
6.609214710657671
 40
6.609214710657671
 10
54.87354248446172
 20
-17.87854891453692
 30
0.0
 10
54.8857515227537
 20
-17.77280591130018
 30
0.0
  0
SPLINE
  5
8209
330
1F
100
AcDbEntity
  8
AM_0
100
AcDbSpline
210
0.0
220
0.0
230
1.0
 70
    24
 71
     1
 72
     4
 73
     2
 74
     0
 42
0.0000000001
 43
0.0000000001
 40
6.5261314274159
 40
6.5261314274159
 40
6.567673069036786
 40
6.567673069036786
 10
54.86162015697186
 20
-17.98547981083483
 30
0.0
 10
54.87354248446172
 20
-17.87854891453692
 30
0.0
  0
SPLINE
  5
820A
330
1F
100
AcDbEntity
  8
AM_0
100
AcDbSpline
210
0.0
220
0.0
230
1.0
 70
    24
 71
     1
 72
     4
 73
     2
 74
     0
 42
0.0000000001
 43
0.0000000001
 40
6.484773037281994
 40
6.484773037281994
 40
6.5261314274159
 40
6.5261314274159
 10
54.85005215348087
 20
-18.09295836213989
 30
0.0
 10
54.86162015697186
 20
-17.98547981083483
 30
0.0
  0
SPLINE
  5
820B
330
1F
100
AcDbEntity
  8
AM_0
100
AcDbSpline
210
0.0
220
0.0
230
1.0
 70
    24
 71
     1
 72
     4
 73
     2
 74
     0
 42
0.0000000001
 43
0.0000000001
 40
6.443414647148089
 40
6.443414647148089
 40
6.484773037281994
 40
6.484773037281994
 10
54.83880196636971
 20
-18.20129093093596
 30
0.0
 10
54.85005215348087
 20
-18.09295836213989
 30
0.0
  0
SPLINE
  5
820C
330
1F
100
AcDbEntity
  8
AM_0
100
AcDbSpline
210
0.0
220
0.0
230
1.0
 70
    24
 71
     1
 72
     4
 73
     2
 74
     0
 42
0.0000000001
 43
0.0000000001
 40
6.402056257014184
 40
6.402056257014184
 40
6.443414647148089
 40
6.443414647148089
 10
54.82788613408422
 20
-18.3103122329406
 30
0.0
 10
54.83880196636971
 20
-18.20129093093596
 30
0.0
  0
SPLINE
  5
820D
330
1F
100
AcDbEntity
  8
AM_0
100
AcDbSpline
210
0.0
220
0.0
230
1.0
 70
    24
 71
     1
 72
     4
 73
     2
 74
     0
 42
0.0000000001
 43
0.0000000001
 40
6.360697866880278
 40
6.360697866880278
 40
6.402056257014184
 40
6.402056257014184
 10
54.81732093005814
 20
-18.41985506359692
 30
0.0
 10
54.82788613408422
 20
-18.3103122329406
 30
0.0
  0
SPLINE
  5
820E
330
1F
100
AcDbEntity
  8
AM_0
100
AcDbSpline
210
0.0
220
0.0
230
1.0
 70
    24
 71
     1
 72
     4
 73
     2
 74
     0
 42
0.0000000001
 43
0.0000000001
 40
6.319339476746373
 40
6.319339476746373
 40
6.360697866880278
 40
6.360697866880278
 10
54.80712229627522
 20
-18.52975079622963
 30
0.0
 10
54.81732093005814
 20
-18.41985506359692
 30
0.0
  0
SPLINE
  5
820F
330
1F
100
AcDbEntity
  8
AM_0
100
AcDbSpline
210
0.0
220
0.0
230
1.0
 70
    24
 71
     1
 72
     4
 73
     2
 74
     0
 42
0.0000000001
 43
0.0000000001
 40
6.277981086612467
 40
6.277981086612467
 40
6.319339476746373
 40
6.319339476746373
 10
54.79730578523583
 20
-18.63982986798716
 30
0.0
 10
54.80712229627522
 20
-18.52975079622963
 30
0.0
  0
SPLINE
  5
8210
330
1F
100
AcDbEntity
  8
AM_0
100
AcDbSpline
210
0.0
220
0.0
230
1.0
 70
    24
 71
     1
 72
     4
 73
     2
 74
     0
 42
0.0000000001
 43
0.0000000001
 40
6.236622696478562
 40
6.236622696478562
 40
6.277981086612467
 40
6.277981086612467
 10
54.78788650926583
 20
-18.74992225833956
 30
0.0
 10
54.79730578523583
 20
-18.63982986798716
 30
0.0
  0
SPLINE
  5
8211
330
1F
100
AcDbEntity
  8
AM_0
100
AcDbSpline
210
0.0
220
0.0
230
1.0
 70
    24
 71
     1
 72
     4
 73
     2
 74
     0
 42
0.0000000001
 43
0.0000000001
 40
6.195264306344657
 40
6.195264306344657
 40
6.236622696478562
 40
6.236622696478562
 10
54.77887909643413
 20
-18.85985796447916
 30
0.0
 10
54.78788650926583
 20
-18.74992225833956
 30
0.0
  0
SPLINE
  5
8212
330
1F
100
AcDbEntity
  8
AM_0
100
AcDbSpline
210
0.0
220
0.0
230
1.0
 70
    24
 71
     1
 72
     4
 73
     2
 74
     0
 42
0.0000000001
 43
0.0000000001
 40
6.153199459381892
 40
6.153199459381892
 40
6.195264306344657
 40
6.195264306344657
 10
54.7701548502065
 20
-18.97133593579771
 30
0.0
 10
54.77887909643413
 20
-18.85985796447916
 30
0.0
  0
SPLINE
  5
8213
330
1F
100
AcDbEntity
  8
AM_0
100
AcDbSpline
210
0.0
220
0.0
230
1.0
 70
    24
 71
     1
 72
     4
 73
     2
 74
     0
 42
0.0000000001
 43
0.0000000001
 40
6.111134612419126
 40
6.111134612419126
 40
6.153199459381892
 40
6.153199459381892
 10
54.76188550070197
 20
-19.08229917424661
 30
0.0
 10
54.7701548502065
 20
-18.97133593579771
 30
0.0
  0
SPLINE
  5
8214
330
1F
100
AcDbEntity
  8
AM_0
100
AcDbSpline
210
0.0
220
0.0
230
1.0
 70
    24
 71
     1
 72
     4
 73
     2
 74
     0
 42
0.0000000001
 43
0.0000000001
 40
6.069069765456362
 40
6.069069765456362
 40
6.111134612419126
 40
6.111134612419126
 10
54.7540846794609
 20
-19.19257195521494
 30
0.0
 10
54.76188550070197
 20
-19.08229917424661
 30
0.0
  0
SPLINE
  5
8215
330
1F
100
AcDbEntity
  8
AM_0
100
AcDbSpline
210
0.0
220
0.0
230
1.0
 70
    24
 71
     1
 72
     4
 73
     2
 74
     0
 42
0.0000000001
 43
0.0000000001
 40
6.027004918493596
 40
6.027004918493596
 40
6.069069765456362
 40
6.069069765456362
 10
54.74676537537596
 20
-19.30198068526273
 30
0.0
 10
54.7540846794609
 20
-19.19257195521494
 30
0.0
  0
SPLINE
  5
8216
330
1F
100
AcDbEntity
  8
AM_0
100
AcDbSpline
210
0.0
220
0.0
230
1.0
 70
    24
 71
     1
 72
     4
 73
     2
 74
     0
 42
0.0000000001
 43
0.0000000001
 40
5.98494007153083
 40
5.98494007153083
 40
6.027004918493596
 40
6.027004918493596
 10
54.7399399208906
 20
-19.41035447695493
 30
0.0
 10
54.74676537537596
 20
-19.30198068526273
 30
0.0
  0
SPLINE
  5
8217
330
1F
100
AcDbEntity
  8
AM_0
100
AcDbSpline
210
0.0
220
0.0
230
1.0
 70
    24
 71
     1
 72
     4
 73
     2
 74
     0
 42
0.0000000001
 43
0.0000000001
 40
5.942875224568066
 40
5.942875224568066
 40
5.98494007153083
 40
5.98494007153083
 10
54.73361998678626
 20
-19.51752575494784
 30
0.0
 10
54.7399399208906
 20
-19.41035447695493
 30
0.0
  0
SPLINE
  5
8218
330
1F
100
AcDbEntity
  8
AM_0
100
AcDbSpline
210
0.0
220
0.0
230
1.0
 70
    24
 71
     1
 72
     4
 73
     2
 74
     0
 42
0.0000000001
 43
0.0000000001
 40
5.9008103776053
 40
5.9008103776053
 40
5.942875224568066
 40
5.942875224568066
 10
54.72781658708402
 20
-19.62333090333506
 30
0.0
 10
54.73361998678626
 20
-19.51752575494784
 30
0.0
  0
SPLINE
  5
8219
330
1F
100
AcDbEntity
  8
AM_0
100
AcDbSpline
210
0.0
220
0.0
230
1.0
 70
    24
 71
     1
 72
     4
 73
     2
 74
     0
 42
0.0000000001
 43
0.0000000001
 40
5.858745530642536
 40
5.858745530642536
 40
5.9008103776053
 40
5.9008103776053
 10
54.72254009624191
 20
-19.72761096692967
 30
0.0
 10
54.72781658708402
 20
-19.62333090333506
 30
0.0
  0
SPLINE
  5
821A
330
1F
100
AcDbEntity
  8
AM_0
100
AcDbSpline
210
0.0
220
0.0
230
1.0
 70
    24
 71
     1
 72
     4
 73
     2
 74
     0
 42
0.0000000001
 43
0.0000000001
 40
5.812628563115091
 40
5.812628563115091
 40
5.858745530642536
 40
5.858745530642536
 10
54.71737237719105
 20
-19.84000192620432
 30
0.0
 10
54.72254009624191
 20
-19.72761096692967
 30
0.0
  0
SPLINE
  5
821B
330
1F
100
AcDbEntity
  8
AM_0
100
AcDbSpline
210
0.0
220
0.0
230
1.0
 70
    24
 71
     1
 72
     4
 73
     2
 74
     0
 42
0.0000000001
 43
0.0000000001
 40
5.766511595587646
 40
5.766511595587646
 40
5.812628563115091
 40
5.812628563115091
 10
54.71286180920777
 20
-19.95018188467612
 30
0.0
 10
54.71737237719105
 20
-19.84000192620432
 30
0.0
  0
SPLINE
  5
821C
330
1F
100
AcDbEntity
  8
AM_0
100
AcDbSpline
210
0.0
220
0.0
230
1.0
 70
    24
 71
     1
 72
     4
 73
     2
 74
     0
 42
0.0000000001
 43
0.0000000001
 40
5.720394628060201
 40
5.720394628060201
 40
5.766511595587646
 40
5.766511595587646
 10
54.70901982801763
 20
-20.05796796998613
 30
0.0
 10
54.71286180920777
 20
-19.95018188467612
 30
0.0
  0
SPLINE
  5
821D
330
1F
100
AcDbEntity
  8
AM_0
100
AcDbSpline
210
0.0
220
0.0
230
1.0
 70
    24
 71
     1
 72
     4
 73
     2
 74
     0
 42
0.0000000001
 43
0.0000000001
 40
5.674277660532757
 40
5.674277660532757
 40
5.720394628060201
 40
5.720394628060201
 10
54.70585738376337
 20
-20.16318982941858
 30
0.0
 10
54.70901982801763
 20
-20.05796796998613
 30
0.0
  0
SPLINE
  5
821E
330
1F
100
AcDbEntity
  8
AM_0
100
AcDbSpline
210
0.0
220
0.0
230
1.0
 70
    24
 71
     1
 72
     4
 73
     2
 74
     0
 42
0.0000000001
 43
0.0000000001
 40
5.628160693005312
 40
5.628160693005312
 40
5.674277660532757
 40
5.674277660532757
 10
54.70338521595966
 20
-20.26569186221645
 30
0.0
 10
54.70585738376337
 20
-20.16318982941858
 30
0.0
  0
SPLINE
  5
821F
330
1F
100
AcDbEntity
  8
AM_0
100
AcDbSpline
210
0.0
220
0.0
230
1.0
 70
    24
 71
     1
 72
     4
 73
     2
 74
     0
 42
0.0000000001
 43
0.0000000001
 40
5.582043725477868
 40
5.582043725477868
 40
5.628160693005312
 40
5.628160693005312
 10
54.7016142528447
 20
-20.36533597665392
 30
0.0
 10
54.70338521595966
 20
-20.26569186221645
 30
0.0
  0
SPLINE
  5
8220
330
1F
100
AcDbEntity
  8
AM_0
100
AcDbSpline
210
0.0
220
0.0
230
1.0
 70
    24
 71
     1
 72
     4
 73
     2
 74
     0
 42
0.0000000001
 43
0.0000000001
 40
5.535926757950424
 40
5.535926757950424
 40
5.582043725477868
 40
5.582043725477868
 10
54.7005561927574
 20
-20.46200507617352
 30
0.0
 10
54.7016142528447
 20
-20.36533597665392
 30
0.0
  0
SPLINE
  5
8221
330
1F
100
AcDbEntity
  8
AM_0
100
AcDbSpline
210
0.0
220
0.0
230
1.0
 70
    24
 71
     1
 72
     4
 73
     2
 74
     0
 42
0.0000000001
 43
0.0000000001
 40
5.489809790422979
 40
5.489809790422979
 40
5.535926757950424
 40
5.535926757950424
 10
54.7002243574517
 20
-20.55560757198578
 30
0.0
 10
54.7005561927574
 20
-20.46200507617352
 30
0.0
  0
SPLINE
  5
8222
330
1F
100
AcDbEntity
  8
AM_0
100
AcDbSpline
210
0.0
220
0.0
230
1.0
 70
    24
 71
     1
 72
     4
 73
     2
 74
     0
 42
0.0000000001
 43
0.0000000001
 40
5.44373706422477
 40
5.44373706422477
 40
5.489809790422979
 40
5.489809790422979
 10
54.70063420467216
 20
-20.64599807519751
 30
0.0
 10
54.7002243574517
 20
-20.55560757198578
 30
0.0
  0
SPLINE
  5
8223
330
1F
100
AcDbEntity
  8
AM_0
100
AcDbSpline
210
0.0
220
0.0
230
1.0
 70
    24
 71
     1
 72
     4
 73
     2
 74
     0
 42
0.0000000001
 43
0.0000000001
 40
5.397664338026562
 40
5.397664338026562
 40
5.44373706422477
 40
5.44373706422477
 10
54.70180602430059
 20
-20.73324739616397
 30
0.0
 10
54.70063420467216
 20
-20.64599807519751
 30
0.0
  0
SPLINE
  5
8224
330
1F
100
AcDbEntity
  8
AM_0
100
AcDbSpline
210
0.0
220
0.0
230
1.0
 70
    24
 71
     1
 72
     4
 73
     2
 74
     0
 42
0.0000000001
 43
0.0000000001
 40
5.351591611828353
 40
5.351591611828353
 40
5.397664338026562
 40
5.397664338026562
 10
54.70376850609773
 20
-20.81738572828938
 30
0.0
 10
54.70180602430059
 20
-20.73324739616397
 30
0.0
  0
SPLINE
  5
8225
330
1F
100
AcDbEntity
  8
AM_0
100
AcDbSpline
210
0.0
220
0.0
230
1.0
 70
    24
 71
     1
 72
     4
 73
     2
 74
     0
 42
0.0000000001
 43
0.0000000001
 40
5.305518885630144
 40
5.305518885630144
 40
5.351591611828353
 40
5.351591611828353
 10
54.70656271197197
 20
-20.89850988701029
 30
0.0
 10
54.70376850609773
 20
-20.81738572828938
 30
0.0
  0
SPLINE
  5
8226
330
1F
100
AcDbEntity
  8
AM_0
100
AcDbSpline
210
0.0
220
0.0
230
1.0
 70
    24
 71
     1
 72
     4
 73
     2
 74
     0
 42
0.0000000001
 43
0.0000000001
 40
5.259446159431934
 40
5.259446159431934
 40
5.305518885630144
 40
5.305518885630144
 10
54.710249601334
 20
-20.97680662032549
 30
0.0
 10
54.70656271197197
 20
-20.89850988701029
 30
0.0
  0
SPLINE
  5
8227
330
1F
100
AcDbEntity
  8
AM_0
100
AcDbSpline
210
0.0
220
0.0
230
1.0
 70
    24
 71
     1
 72
     4
 73
     2
 74
     0
 42
0.0000000001
 43
0.0000000001
 40
5.213373433233726
 40
5.213373433233726
 40
5.259446159431934
 40
5.259446159431934
 10
54.71492262156596
 20
-21.05258759550959
 30
0.0
 10
54.710249601334
 20
-20.97680662032549
 30
0.0
  0
SPLINE
  5
8228
330
1F
100
AcDbEntity
  8
AM_0
100
AcDbSpline
210
0.0
220
0.0
230
1.0
 70
    24
 71
     1
 72
     4
 73
     2
 74
     0
 42
0.0000000001
 43
0.0000000001
 40
5.167300707035517
 40
5.167300707035517
 40
5.213373433233726
 40
5.213373433233726
 10
54.72072954550629
 20
-21.12634348172038
 30
0.0
 10
54.71492262156596
 20
-21.05258759550959
 30
0.0
  0
SPLINE
  5
8229
330
1F
100
AcDbEntity
  8
AM_0
100
AcDbSpline
210
0.0
220
0.0
230
1.0
 70
    24
 71
     1
 72
     4
 73
     2
 74
     0
 42
0.0000000001
 43
0.0000000001
 40
5.121227980837309
 40
5.121227980837309
 40
5.167300707035517
 40
5.167300707035517
 10
54.727911957002
 20
-21.19883027266759
 30
0.0
 10
54.72072954550629
 20
-21.12634348172038
 30
0.0
  0
SPLINE
  5
822A
330
1F
100
AcDbEntity
  8
AM_0
100
AcDbSpline
210
0.0
220
0.0
230
1.0
 70
    24
 71
     1
 72
     4
 73
     2
 74
     0
 42
0.0000000001
 43
0.0000000001
 40
5.075155254639099
 40
5.075155254639099
 40
5.121227980837309
 40
5.121227980837309
 10
54.73688018280632
 20
-21.27121194090922
 30
0.0
 10
54.727911957002
 20
-21.19883027266759
 30
0.0
  0
SPLINE
  5
822B
330
1F
100
AcDbEntity
  8
AM_0
100
AcDbSpline
210
0.0
220
0.0
230
1.0
 70
    24
 71
     1
 72
     4
 73
     2
 74
     0
 42
0.0000000001
 43
0.0000000001
 40
5.02908252844089
 40
5.02908252844089
 40
5.075155254639099
 40
5.075155254639099
 10
54.74836374646838
 20
-21.34530505410164
 30
0.0
 10
54.73688018280632
 20
-21.27121194090922
 30
0.0
  0
SPLINE
  5
822C
330
1F
100
AcDbEntity
  8
AM_0
100
AcDbSpline
210
0.0
220
0.0
230
1.0
 70
    24
 71
     1
 72
     4
 73
     2
 74
     0
 42
0.0000000001
 43
0.0000000001
 40
5.006348059855814
 40
5.006348059855814
 40
5.02908252844089
 40
5.02908252844089
 10
54.75533686305289
 20
-21.38332597091688
 30
0.0
 10
54.74836374646838
 20
-21.34530505410164
 30
0.0
  0
SPLINE
  5
822D
330
1F
100
AcDbEntity
  8
AM_0
100
AcDbSpline
210
0.0
220
0.0
230
1.0
 70
    24
 71
     1
 72
     4
 73
     2
 74
     0
 42
0.0000000001
 43
0.0000000001
 40
4.983613591270738
 40
4.983613591270738
 40
5.006348059855814
 40
5.006348059855814
 10
54.76349801459992
 20
-21.42293484420783
 30
0.0
 10
54.75533686305289
 20
-21.38332597091688
 30
0.0
  0
SPLINE
  5
822E
330
1F
100
AcDbEntity
  8
AM_0
100
AcDbSpline
210
0.0
220
0.0
230
1.0
 70
    24
 71
     1
 72
     4
 73
     2
 74
     0
 42
0.0000000001
 43
0.0000000001
 40
4.960879122685662
 40
4.960879122685662
 40
4.983613591270738
 40
4.983613591270738
 10
54.77322077659994
 20
-21.4647651287761
 30
0.0
 10
54.76349801459992
 20
-21.42293484420783
 30
0.0
  0
SPLINE
  5
822F
330
1F
100
AcDbEntity
  8
AM_0
100
AcDbSpline
210
0.0
220
0.0
230
1.0
 70
    24
 71
     1
 72
     4
 73
     2
 74
     0
 42
0.0000000001
 43
0.0000000001
 40
4.938144654100586
 40
4.938144654100586
 40
4.960879122685662
 40
4.960879122685662
 10
54.78505050881119
 20
-21.50963878039108
 30
0.0
 10
54.77322077659994
 20
-21.4647651287761
 30
0.0
  0
SPLINE
  5
8230
330
1F
100
AcDbEntity
  8
AM_0
100
AcDbSpline
210
0.0
220
0.0
230
1.0
 70
    24
 71
     1
 72
     4
 73
     2
 74
     0
 42
0.0000000001
 43
0.0000000001
 40
4.91541018551551
 40
4.91541018551551
 40
4.938144654100586
 40
4.938144654100586
 10
54.79980088509569
 20
-21.55862779353295
 30
0.0
 10
54.78505050881119
 20
-21.50963878039108
 30
0.0
  0
SPLINE
  5
8231
330
1F
100
AcDbEntity
  8
AM_0
100
AcDbSpline
210
0.0
220
0.0
230
1.0
 70
    24
 71
     1
 72
     4
 73
     2
 74
     0
 42
0.0000000001
 43
0.0000000001
 40
4.902115080513782
 40
4.902115080513782
 40
4.91541018551551
 40
4.91541018551551
 10
54.81025153593953
 20
-21.58972578989552
 30
0.0
 10
54.79980088509569
 20
-21.55862779353295
 30
0.0
  0
SPLINE
  5
8232
330
1F
100
AcDbEntity
  8
AM_0
100
AcDbSpline
210
0.0
220
0.0
230
1.0
 70
    24
 71
     1
 72
     4
 73
     2
 74
     0
 42
0.0000000001
 43
0.0000000001
 40
4.888819975512055
 40
4.888819975512055
 40
4.902115080513782
 40
4.902115080513782
 10
54.82245969341102
 20
-21.62304323097284
 30
0.0
 10
54.81025153593953
 20
-21.58972578989552
 30
0.0
  0
SPLINE
  5
8233
330
1F
100
AcDbEntity
  8
AM_0
100
AcDbSpline
210
0.0
220
0.0
230
1.0
 70
    24
 71
     1
 72
     4
 73
     2
 74
     0
 42
0.0000000001
 43
0.0000000001
 40
4.875524870510329
 40
4.875524870510329
 40
4.888819975512055
 40
4.888819975512055
 10
54.83687812909238
 20
-21.65897385853504
 30
0.0
 10
54.82245969341102
 20
-21.62304323097284
 30
0.0
  0
SPLINE
  5
8234
330
1F
100
AcDbEntity
  8
AM_0
100
AcDbSpline
210
0.0
220
0.0
230
1.0
 70
    24
 71
     1
 72
     4
 73
     2
 74
     0
 42
0.0000000001
 43
0.0000000001
 40
4.862229765508602
 40
4.862229765508602
 40
4.875524870510329
 40
4.875524870510329
 10
54.85410225312193
 20
-21.6979645481352
 30
0.0
 10
54.83687812909238
 20
-21.65897385853504
 30
0.0
  0
SPLINE
  5
8235
330
1F
100
AcDbEntity
  8
AM_0
100
AcDbSpline
210
0.0
220
0.0
230
1.0
 70
    24
 71
     1
 72
     4
 73
     2
 74
     0
 42
0.0000000001
 43
0.0000000001
 40
4.848934660506874
 40
4.848934660506874
 40
4.862229765508602
 40
4.862229765508602
 10
54.87491889018532
 20
-21.74050864222228
 30
0.0
 10
54.85410225312193
 20
-21.6979645481352
 30
0.0
  0
SPLINE
  5
8236
330
1F
100
AcDbEntity
  8
AM_0
100
AcDbSpline
210
0.0
220
0.0
230
1.0
 70
    24
 71
     1
 72
     4
 73
     2
 74
     0
 42
0.0000000001
 43
0.0000000001
 40
4.839078349450124
 40
4.839078349450124
 40
4.848934660506874
 40
4.848934660506874
 10
54.89327278784833
 20
-21.77464797321376
 30
0.0
 10
54.87491889018532
 20
-21.74050864222228
 30
0.0
  0
SPLINE
  5
8237
330
1F
100
AcDbEntity
  8
AM_0
100
AcDbSpline
210
0.0
220
0.0
230
1.0
 70
    24
 71
     1
 72
     4
 73
     2
 74
     0
 42
0.0000000001
 43
0.0000000001
 40
4.829222038393375
 40
4.829222038393375
 40
4.839078349450124
 40
4.839078349450124
 10
54.91470584753836
 20
-21.81123076902692
 30
0.0
 10
54.89327278784833
 20
-21.77464797321376
 30
0.0
  0
SPLINE
  5
8238
330
1F
100
AcDbEntity
  8
AM_0
100
AcDbSpline
210
0.0
220
0.0
230
1.0
 70
    24
 71
     1
 72
     4
 73
     2
 74
     0
 42
0.0000000001
 43
0.0000000001
 40
4.819365727336625
 40
4.819365727336625
 40
4.829222038393375
 40
4.829222038393375
 10
54.93987762520522
 20
-21.85043550157628
 30
0.0
 10
54.91470584753836
 20
-21.81123076902692
 30
0.0
  0
SPLINE
  5
8239
330
1F
100
AcDbEntity
  8
AM_0
100
AcDbSpline
210
0.0
220
0.0
230
1.0
 70
    24
 71
     1
 72
     4
 73
     2
 74
     0
 42
0.0000000001
 43
0.0000000001
 40
4.809509416279876
 40
4.809509416279876
 40
4.819365727336625
 40
4.819365727336625
 10
54.96958778699331
 20
-21.89238132835545
 30
0.0
 10
54.93987762520522
 20
-21.85043550157628
 30
0.0
  0
SPLINE
  5
823A
330
1F
100
AcDbEntity
  8
AM_0
100
AcDbSpline
210
0.0
220
0.0
230
1.0
 70
    24
 71
     1
 72
     4
 73
     2
 74
     0
 42
0.0000000001
 43
0.0000000001
 40
4.799653105223126
 40
4.799653105223126
 40
4.809509416279876
 40
4.809509416279876
 10
55.00479047238127
 20
-21.93707895115438
 30
0.0
 10
54.96958778699331
 20
-21.89238132835545
 30
0.0
  0
SPLINE
  5
823B
330
1F
100
AcDbEntity
  8
AM_0
100
AcDbSpline
210
0.0
220
0.0
230
1.0
 70
    24
 71
     1
 72
     4
 73
     2
 74
     0
 42
0.0000000001
 43
0.0000000001
 40
4.790926692739279
 40
4.790926692739279
 40
4.799653105223123
 40
4.799653105223123
 10
56.33470567208473
 20
-14.76465875669818
 30
0.0
 10
56.29081117610224
 20
-14.79980858203909
 30
0.0
  0
SPLINE
  5
823C
330
1F
100
AcDbEntity
  8
AM_0
100
AcDbSpline
210
0.0
220
0.0
230
1.0
 70
    24
 71
     1
 72
     4
 73
     2
 74
     0
 42
0.0000000001
 43
0.0000000001
 40
4.782200280255436
 40
4.782200280255436
 40
4.790926692739279
 40
4.790926692739279
 10
56.38483407263823
 20
-14.72890061950364
 30
0.0
 10
56.33470567208473
 20
-14.76465875669818
 30
0.0
  0
SPLINE
  5
823D
330
1F
100
AcDbEntity
  8
AM_0
100
AcDbSpline
210
0.0
220
0.0
230
1.0
 70
    24
 71
     1
 72
     4
 73
     2
 74
     0
 42
0.0000000001
 43
0.0000000001
 40
4.776382671932873
 40
4.776382671932873
 40
4.782200280255436
 40
4.782200280255436
 10
56.42210793790764
 20
-14.70504471267908
 30
0.0
 10
56.38483407263823
 20
-14.72890061950364
 30
0.0
  0
SPLINE
  5
823E
330
1F
100
AcDbEntity
  8
AM_0
100
AcDbSpline
210
0.0
220
0.0
230
1.0
 70
    24
 71
     1
 72
     4
 73
     2
 74
     0
 42
0.0000000001
 43
0.0000000001
 40
4.770565063610312
 40
4.770565063610312
 40
4.776382671932873
 40
4.776382671932873
 10
56.46272085580915
 20
-14.68148002255721
 30
0.0
 10
56.42210793790764
 20
-14.70504471267908
 30
0.0
  0
SPLINE
  5
823F
330
1F
100
AcDbEntity
  8
AM_0
100
AcDbSpline
210
0.0
220
0.0
230
1.0
 70
    24
 71
     1
 72
     4
 73
     2
 74
     0
 42
0.0000000001
 43
0.0000000001
 40
4.764747455287749
 40
4.764747455287749
 40
4.770565063610312
 40
4.770565063610312
 10
56.5068564797466
 20
-14.65853766031274
 30
0.0
 10
56.46272085580915
 20
-14.68148002255721
 30
0.0
  0
SPLINE
  5
8240
330
1F
100
AcDbEntity
  8
AM_0
100
AcDbSpline
210
0.0
220
0.0
230
1.0
 70
    24
 71
     1
 72
     4
 73
     2
 74
     0
 42
0.0000000001
 43
0.0000000001
 40
4.758929846965187
 40
4.758929846965187
 40
4.764747455287749
 40
4.764747455287749
 10
56.55464577150519
 20
-14.63661339092534
 30
0.0
 10
56.5068564797466
 20
-14.65853766031274
 30
0.0
  0
SPLINE
  5
8241
330
1F
100
AcDbEntity
  8
AM_0
100
AcDbSpline
210
0.0
220
0.0
230
1.0
 70
    24
 71
     1
 72
     4
 73
     2
 74
     0
 42
0.0000000001
 43
0.0000000001
 40
4.753112238642625
 40
4.753112238642625
 40
4.758929846965187
 40
4.758929846965187
 10
56.6061437351575
 20
-14.61616478114144
 30
0.0
 10
56.55464577150519
 20
-14.63661339092534
 30
0.0
  0
SPLINE
  5
8242
330
1F
100
AcDbEntity
  8
AM_0
100
AcDbSpline
210
0.0
220
0.0
230
1.0
 70
    24
 71
     1
 72
     4
 73
     2
 74
     0
 42
0.0000000001
 43
0.0000000001
 40
4.747294630320062
 40
4.747294630320062
 40
4.753112238642625
 40
4.753112238642625
 10
56.66130435517948
 20
-14.59770138335842
 30
0.0
 10
56.6061437351575
 20
-14.61616478114144
 30
0.0
  0
SPLINE
  5
8243
330
1F
100
AcDbEntity
  8
AM_0
100
AcDbSpline
210
0.0
220
0.0
230
1.0
 70
    24
 71
     1
 72
     4
 73
     2
 74
     0
 42
0.0000000001
 43
0.0000000001
 40
4.7414770219975
 40
4.7414770219975
 40
4.747294630320062
 40
4.747294630320062
 10
56.71995643348248
 20
-14.58176629652406
 30
0.0
 10
56.66130435517948
 20
-14.59770138335842
 30
0.0
  0
SPLINE
  5
8244
330
1F
100
AcDbEntity
  8
AM_0
100
AcDbSpline
210
0.0
220
0.0
230
1.0
 70
    24
 71
     1
 72
     4
 73
     2
 74
     0
 42
0.0000000001
 43
0.0000000001
 40
4.735659413674938
 40
4.735659413674938
 40
4.7414770219975
 40
4.7414770219975
 10
56.78178417194828
 20
-14.56890836791446
 30
0.0
 10
56.71995643348248
 20
-14.58176629652406
 30
0.0
  0
SPLINE
  5
8245
330
1F
100
AcDbEntity
  8
AM_0
100
AcDbSpline
210
0.0
220
0.0
230
1.0
 70
    24
 71
     1
 72
     4
 73
     2
 74
     0
 42
0.0000000001
 43
0.0000000001
 40
4.729841805352376
 40
4.729841805352376
 40
4.735659413674938
 40
4.735659413674938
 10
56.84631709128769
 20
-14.55964592435135
 30
0.0
 10
56.78178417194828
 20
-14.56890836791446
 30
0.0
  0
SPLINE
  5
8246
330
1F
100
AcDbEntity
  8
AM_0
100
AcDbSpline
210
0.0
220
0.0
230
1.0
 70
    24
 71
     1
 72
     4
 73
     2
 74
     0
 42
0.0000000001
 43
0.0000000001
 40
4.724024197029813
 40
4.724024197029813
 40
4.729841805352376
 40
4.729841805352376
 10
56.91293371884729
 20
-14.55442508119246
 30
0.0
 10
56.84631709128769
 20
-14.55964592435135
 30
0.0
  0
SPLINE
  5
8247
330
1F
100
AcDbEntity
  8
AM_0
100
AcDbSpline
210
0.0
220
0.0
230
1.0
 70
    24
 71
     1
 72
     4
 73
     2
 74
     0
 42
0.0000000001
 43
0.0000000001
 40
4.718206588707252
 40
4.718206588707252
 40
4.724024197029813
 40
4.724024197029813
 10
56.9808820197569
 20
-14.55357786803126
 30
0.0
 10
56.91293371884729
 20
-14.55442508119246
 30
0.0
  0
SPLINE
  5
8248
330
1F
100
AcDbEntity
  8
AM_0
100
AcDbSpline
210
0.0
220
0.0
230
1.0
 70
    24
 71
     1
 72
     4
 73
     2
 74
     0
 42
0.0000000001
 43
0.0000000001
 40
4.712388980384689
 40
4.712388980384689
 40
4.718206588707252
 40
4.718206588707252
 10
57.04931675882892
 20
-14.55728685428609
 30
0.0
 10
56.9808820197569
 20
-14.55357786803126
 30
0.0
  0
SPLINE
  5
8249
330
1F
100
AcDbEntity
  8
AM_0
100
AcDbSpline
210
0.0
220
0.0
230
1.0
 70
    24
 71
     1
 72
     4
 73
     2
 74
     0
 42
0.0000000001
 43
0.0000000001
 40
1.564978718472334
 40
1.564978718472334
 40
1.570796326794896
 40
1.570796326794896
 10
56.23765279535291
 20
-23.01641975276301
 30
0.0
 10
56.30568644456082
 20
-23.02469578238806
 30
0.0
  0
SPLINE
  5
824A
330
1F
100
AcDbEntity
  8
AM_0
100
AcDbSpline
210
0.0
220
0.0
230
1.0
 70
    24
 71
     1
 72
     4
 73
     2
 74
     0
 42
0.0000000001
 43
0.0000000001
 40
1.559161110149772
 40
1.559161110149772
 40
1.564978718472334
 40
1.564978718472334
 10
56.1708922880249
 20
-23.00374205470906
 30
0.0
 10
56.23765279535291
 20
-23.01641975276301
 30
0.0
  0
SPLINE
  5
824B
330
1F
100
AcDbEntity
  8
AM_0
100
AcDbSpline
210
0.0
220
0.0
230
1.0
 70
    24
 71
     1
 72
     4
 73
     2
 74
     0
 42
0.0000000001
 43
0.0000000001
 40
1.553343501827209
 40
1.553343501827209
 40
1.559161110149772
 40
1.559161110149772
 10
56.10620539724187
 20
-22.98698978824957
 30
0.0
 10
56.1708922880249
 20
-23.00374205470906
 30
0.0
  0
SPLINE
  5
824C
330
1F
100
AcDbEntity
  8
AM_0
100
AcDbSpline
210
0.0
220
0.0
230
1.0
 70
    24
 71
     1
 72
     4
 73
     2
 74
     0
 42
0.0000000001
 43
0.0000000001
 40
1.547525893504647
 40
1.547525893504647
 40
1.553343501827209
 40
1.553343501827209
 10
56.04427477297111
 20
-22.96662098080624
 30
0.0
 10
56.10620539724187
 20
-22.98698978824957
 30
0.0
  0
SPLINE
  5
824D
330
1F
100
AcDbEntity
  8
AM_0
100
AcDbSpline
210
0.0
220
0.0
230
1.0
 70
    24
 71
     1
 72
     4
 73
     2
 74
     0
 42
0.0000000001
 43
0.0000000001
 40
1.541708285182085
 40
1.541708285182085
 40
1.547525893504647
 40
1.547525893504647
 10
55.98563461629623
 20
-22.94318324207019
 30
0.0
 10
56.04427477297111
 20
-22.96662098080624
 30
0.0
  0
SPLINE
  5
824E
330
1F
100
AcDbEntity
  8
AM_0
100
AcDbSpline
210
0.0
220
0.0
230
1.0
 70
    24
 71
     1
 72
     4
 73
     2
 74
     0
 42
0.0000000001
 43
0.0000000001
 40
1.535890676859523
 40
1.535890676859523
 40
1.541708285182085
 40
1.541708285182085
 10
55.93065785975113
 20
-22.91726896952668
 30
0.0
 10
55.98563461629623
 20
-22.94318324207019
 30
0.0
  0
SPLINE
  5
824F
330
1F
100
AcDbEntity
  8
AM_0
100
AcDbSpline
210
0.0
220
0.0
230
1.0
 70
    24
 71
     1
 72
     4
 73
     2
 74
     0
 42
0.0000000001
 43
0.0000000001
 40
1.53007306853696
 40
1.53007306853696
 40
1.535890676859523
 40
1.535890676859523
 10
55.87955980274762
 20
-22.88947365284606
 30
0.0
 10
55.93065785975113
 20
-22.91726896952668
 30
0.0
  0
SPLINE
  5
8250
330
1F
100
AcDbEntity
  8
AM_0
100
AcDbSpline
210
0.0
220
0.0
230
1.0
 70
    24
 71
     1
 72
     4
 73
     2
 74
     0
 42
0.0000000001
 43
0.0000000001
 40
1.524255460214398
 40
1.524255460214398
 40
1.53007306853696
 40
1.53007306853696
 10
55.8324143600829
 20
-22.86036191743984
 30
0.0
 10
55.87955980274762
 20
-22.88947365284606
 30
0.0
  0
SPLINE
  5
8251
330
1F
100
AcDbEntity
  8
AM_0
100
AcDbSpline
210
0.0
220
0.0
230
1.0
 70
    24
 71
     1
 72
     4
 73
     2
 74
     0
 42
0.0000000001
 43
0.0000000001
 40
1.518437851891836
 40
1.518437851891836
 40
1.524255460214398
 40
1.524255460214398
 10
55.78917802742569
 20
-22.83044353624497
 30
0.0
 10
55.8324143600829
 20
-22.86036191743984
 30
0.0
  0
SPLINE
  5
8252
330
1F
100
AcDbEntity
  8
AM_0
100
AcDbSpline
210
0.0
220
0.0
230
1.0
 70
    24
 71
     1
 72
     4
 73
     2
 74
     0
 42
0.0000000001
 43
0.0000000001
 40
1.509711439407993
 40
1.509711439407993
 40
1.518437851891836
 40
1.518437851891836
 10
55.73134199431251
 20
-22.78499787726077
 30
0.0
 10
55.78917802742569
 20
-22.83044353624497
 30
0.0
  0
SPLINE
  5
8253
330
1F
100
AcDbEntity
  8
AM_0
100
AcDbSpline
210
0.0
220
0.0
230
1.0
 70
    24
 71
     1
 72
     4
 73
     2
 74
     0
 42
0.0000000001
 43
0.0000000001
 40
1.50098502692415
 40
1.50098502692415
 40
1.509711439407993
 40
1.509711439407993
 10
55.68128781803057
 20
-22.73988904116432
 30
0.0
 10
55.73134199431251
 20
-22.78499787726077
 30
0.0
  0
SPLINE
  5
8254
330
1F
100
AcDbEntity
  8
AM_0
100
AcDbSpline
210
0.0
220
0.0
230
1.0
 70
    24
 71
     1
 72
     4
 73
     2
 74
     0
 42
0.0000000001
 43
0.0000000001
 40
1.492258614440306
 40
1.492258614440306
 40
1.50098502692415
 40
1.50098502692415
 10
55.63815943901113
 20
-22.69594084619764
 30
0.0
 10
55.68128781803057
 20
-22.73988904116432
 30
0.0
  0
SPLINE
  5
8255
330
1F
100
AcDbEntity
  8
AM_0
100
AcDbSpline
210
0.0
220
0.0
230
1.0
 70
    24
 71
     1
 72
     4
 73
     2
 74
     0
 42
0.0000000001
 43
0.0000000001
 40
1.483532201956463
 40
1.483532201956463
 40
1.492258614440306
 40
1.492258614440306
 10
55.6010635092822
 20
-22.65367822682073
 30
0.0
 10
55.63815943901113
 20
-22.69594084619764
 30
0.0
  0
SPLINE
  5
8256
330
1F
100
AcDbEntity
  8
AM_0
100
AcDbSpline
210
0.0
220
0.0
230
1.0
 70
    24
 71
     1
 72
     4
 73
     2
 74
     0
 42
0.0000000001
 43
0.0000000001
 40
5.470891584645316
 40
5.470891584645316
 40
5.503503537106412
 40
5.503503537106412
 10
-12.8283002819079
 20
-15.69533443335524
 30
0.0
 10
-12.92731633307005
 20
-15.79151470795312
 30
0.0
  0
SPLINE
  5
8257
330
1F
100
AcDbEntity
  8
AM_0
100
AcDbSpline
210
0.0
220
0.0
230
1.0
 70
    24
 71
     1
 72
     4
 73
     2
 74
     0
 42
0.0000000001
 43
0.0000000001
 40
5.438279632184221
 40
5.438279632184221
 40
5.470891584645316
 40
5.470891584645316
 10
-12.72617720256755
 20
-15.60245882703464
 30
0.0
 10
-12.8283002819079
 20
-15.69533443335524
 30
0.0
  0
SPLINE
  5
8258
330
1F
100
AcDbEntity
  8
AM_0
100
AcDbSpline
210
0.0
220
0.0
230
1.0
 70
    24
 71
     1
 72
     4
 73
     2
 74
     0
 42
0.0000000001
 43
0.0000000001
 40
5.405667679723125
 40
5.405667679723125
 40
5.438279632184221
 40
5.438279632184221
 10
-12.62105698841139
 20
-15.51298761721142
 30
0.0
 10
-12.72617720256755
 20
-15.60245882703464
 30
0.0
  0
SPLINE
  5
8259
330
1F
100
AcDbEntity
  8
AM_0
100
AcDbSpline
210
0.0
220
0.0
230
1.0
 70
    24
 71
     1
 72
     4
 73
     2
 74
     0
 42
0.0000000001
 43
0.0000000001
 40
5.373055727262029
 40
5.373055727262029
 40
5.405667679723125
 40
5.405667679723125
 10
-12.51305280805672
 20
-15.42701677981546
 30
0.0
 10
-12.62105698841139
 20
-15.51298761721142
 30
0.0
  0
SPLINE
  5
825A
330
1F
100
AcDbEntity
  8
AM_0
100
AcDbSpline
210
0.0
220
0.0
230
1.0
 70
    24
 71
     1
 72
     4
 73
     2
 74
     0
 42
0.0000000001
 43
0.0000000001
 40
5.340443774800933
 40
5.340443774800933
 40
5.373055727262029
 40
5.373055727262029
 10
-12.40228097147292
 20
-15.34463842835566
 30
0.0
 10
-12.51305280805672
 20
-15.42701677981546
 30
0.0
  0
SPLINE
  5
825B
330
1F
100
AcDbEntity
  8
AM_0
100
AcDbSpline
210
0.0
220
0.0
230
1.0
 70
    24
 71
     1
 72
     4
 73
     2
 74
     0
 42
0.0000000001
 43
0.0000000001
 40
5.307831822339837
 40
5.307831822339837
 40
5.340443774800933
 40
5.340443774800933
 10
-12.28886079200799
 20
-15.26594070929746
 30
0.0
 10
-12.40228097147292
 20
-15.34463842835566
 30
0.0
  0
SPLINE
  5
825C
330
1F
100
AcDbEntity
  8
AM_0
100
AcDbSpline
210
0.0
220
0.0
230
1.0
 70
    24
 71
     1
 72
     4
 73
     2
 74
     0
 42
0.0000000001
 43
0.0000000001
 40
5.275219869878741
 40
5.275219869878741
 40
5.307831822339837
 40
5.307831822339837
 10
-12.17291444463774
 20
-15.19100770312496
 30
0.0
 10
-12.28886079200799
 20
-15.26594070929746
 30
0.0
  0
SPLINE
  5
825D
330
1F
100
AcDbEntity
  8
AM_0
100
AcDbSpline
210
0.0
220
0.0
230
1.0
 70
    24
 71
     1
 72
     4
 73
     2
 74
     0
 42
0.0000000001
 43
0.0000000001
 40
5.242607917417645
 40
5.242607917417645
 40
5.275219869878741
 40
5.275219869878741
 10
-12.05456682074134
 20
-15.11991933124397
 30
0.0
 10
-12.17291444463774
 20
-15.19100770312496
 30
0.0
  0
SPLINE
  5
825E
330
1F
100
AcDbEntity
  8
AM_0
100
AcDbSpline
210
0.0
220
0.0
230
1.0
 70
    24
 71
     1
 72
     4
 73
     2
 74
     0
 42
0.0000000001
 43
0.0000000001
 40
5.210647521107267
 40
5.210647521107267
 40
5.242607917417645
 40
5.242607917417645
 10
-11.93637670790519
 20
-15.05405437575388
 30
0.0
 10
-12.05456682074134
 20
-15.11991933124397
 30
0.0
  0
SPLINE
  5
825F
330
1F
100
AcDbEntity
  8
AM_0
100
AcDbSpline
210
0.0
220
0.0
230
1.0
 70
    24
 71
     1
 72
     4
 73
     2
 74
     0
 42
0.0000000001
 43
0.0000000001
 40
5.17868712479689
 40
5.17868712479689
 40
5.210647521107267
 40
5.210647521107267
 10
-11.81612494508238
 20
-14.99202185793547
 30
0.0
 10
-11.93637670790519
 20
-15.05405437575388
 30
0.0
  0
SPLINE
  5
8260
330
1F
100
AcDbEntity
  8
AM_0
100
AcDbSpline
210
0.0
220
0.0
230
1.0
 70
    24
 71
     1
 72
     4
 73
     2
 74
     0
 42
0.0000000001
 43
0.0000000001
 40
5.146726728486513
 40
5.146726728486513
 40
5.17868712479689
 40
5.17868712479689
 10
-11.69393584762599
 20
-14.93388491618674
 30
0.0
 10
-11.81612494508238
 20
-14.99202185793547
 30
0.0
  0
SPLINE
  5
8261
330
1F
100
AcDbEntity
  8
AM_0
100
AcDbSpline
210
0.0
220
0.0
230
1.0
 70
    24
 71
     1
 72
     4
 73
     2
 74
     0
 42
0.0000000001
 43
0.0000000001
 40
5.114766332176134
 40
5.114766332176134
 40
5.146726728486513
 40
5.146726728486513
 10
-11.56993568034226
 20
-14.87970256725662
 30
0.0
 10
-11.69393584762599
 20
-14.93388491618674
 30
0.0
  0
SPLINE
  5
8262
330
1F
100
AcDbEntity
  8
AM_0
100
AcDbSpline
210
0.0
220
0.0
230
1.0
 70
    24
 71
     1
 72
     4
 73
     2
 74
     0
 42
0.0000000001
 43
0.0000000001
 40
5.082805935865757
 40
5.082805935865757
 40
5.114766332176134
 40
5.114766332176134
 10
-11.44425251487348
 20
-14.82952964958553
 30
0.0
 10
-11.56993568034226
 20
-14.87970256725662
 30
0.0
  0
SPLINE
  5
8263
330
1F
100
AcDbEntity
  8
AM_0
100
AcDbSpline
210
0.0
220
0.0
230
1.0
 70
    24
 71
     1
 72
     4
 73
     2
 74
     0
 42
0.0000000001
 43
0.0000000001
 40
5.05084553955538
 40
5.05084553955538
 40
5.082805935865757
 40
5.082805935865757
 10
-11.317016085678
 20
-14.78341677222158
 30
0.0
 10
-11.44425251487348
 20
-14.82952964958553
 30
0.0
  0
SPLINE
  5
8264
330
1F
100
AcDbEntity
  8
AM_0
100
AcDbSpline
210
0.0
220
0.0
230
1.0
 70
    24
 71
     1
 72
     4
 73
     2
 74
     0
 42
0.0000000001
 43
0.0000000001
 40
5.018885143245002
 40
5.018885143245002
 40
5.05084553955538
 40
5.05084553955538
 10
-11.18835764488051
 20
-14.74141026931147
 30
0.0
 10
-11.317016085678
 20
-14.78341677222158
 30
0.0
  0
SPLINE
  5
8265
330
1F
100
AcDbEntity
  8
AM_0
100
AcDbSpline
210
0.0
220
0.0
230
1.0
 70
    24
 71
     1
 72
     4
 73
     2
 74
     0
 42
0.0000000001
 43
0.0000000001
 40
4.986924746934625
 40
4.986924746934625
 40
5.018885143245002
 40
5.018885143245002
 10
-11.05840981625885
 20
-14.70355216014718
 30
0.0
 10
-11.18835764488051
 20
-14.74141026931147
 30
0.0
  0
SPLINE
  5
8266
330
1F
100
AcDbEntity
  8
AM_0
100
AcDbSpline
210
0.0
220
0.0
230
1.0
 70
    24
 71
     1
 72
     4
 73
     2
 74
     0
 42
0.0000000001
 43
0.0000000001
 40
4.954964350624248
 40
4.954964350624248
 40
4.986924746934625
 40
4.986924746934625
 10
-10.92730644862911
 20
-14.66988011473233
 30
0.0
 10
-11.05840981625885
 20
-14.70355216014718
 30
0.0
  0
SPLINE
  5
8267
330
1F
100
AcDbEntity
  8
AM_0
100
AcDbSpline
210
0.0
220
0.0
230
1.0
 70
    24
 71
     1
 72
     4
 73
     2
 74
     0
 42
0.0000000001
 43
0.0000000001
 40
4.92300395431387
 40
4.92300395431387
 40
4.954964350624248
 40
4.954964350624248
 10
-10.79518246887823
 20
-14.64042742481621
 30
0.0
 10
-10.92730644862911
 20
-14.66988011473233
 30
0.0
  0
SPLINE
  5
8268
330
1F
100
AcDbEntity
  8
AM_0
100
AcDbSpline
210
0.0
220
0.0
230
1.0
 70
    24
 71
     1
 72
     4
 73
     2
 74
     0
 42
0.0000000001
 43
0.0000000001
 40
4.890979990445159
 40
4.890979990445159
 40
4.92300395431387
 40
4.92300395431387
 10
-10.66190839659862
 20
-14.61517710018478
 30
0.0
 10
-10.79518246887823
 20
-14.64042742481621
 30
0.0
  0
SPLINE
  5
8269
330
1F
100
AcDbEntity
  8
AM_0
100
AcDbSpline
210
0.0
220
0.0
230
1.0
 70
    24
 71
     1
 72
     4
 73
     2
 74
     0
 42
0.0000000001
 43
0.0000000001
 40
4.858956026576447
 40
4.858956026576447
 40
4.890979990445159
 40
4.890979990445159
 10
-10.52788350689377
 20
-14.59421654712355
 30
0.0
 10
-10.66190839659862
 20
-14.61517710018478
 30
0.0
  0
SPLINE
  5
826A
330
1F
100
AcDbEntity
  8
AM_0
100
AcDbSpline
210
0.0
220
0.0
230
1.0
 70
    24
 71
     1
 72
     4
 73
     2
 74
     0
 42
0.0000000001
 43
0.0000000001
 40
4.826932062707737
 40
4.826932062707737
 40
4.858956026576447
 40
4.858956026576447
 10
-10.39324590150943
 20
-14.57756590889459
 30
0.0
 10
-10.52788350689377
 20
-14.59421654712355
 30
0.0
  0
SPLINE
  5
826B
330
1F
100
AcDbEntity
  8
AM_0
100
AcDbSpline
210
0.0
220
0.0
230
1.0
 70
    24
 71
     1
 72
     4
 73
     2
 74
     0
 42
0.0000000001
 43
0.0000000001
 40
4.794908098839026
 40
4.794908098839026
 40
4.826932062707737
 40
4.826932062707737
 10
-10.25813417691881
 20
-14.56524085233667
 30
0.0
 10
-10.39324590150943
 20
-14.57756590889459
 30
0.0
  0
SPLINE
  5
826C
330
1F
100
AcDbEntity
  8
AM_0
100
AcDbSpline
210
0.0
220
0.0
230
1.0
 70
    24
 71
     1
 72
     4
 73
     2
 74
     0
 42
0.0000000001
 43
0.0000000001
 40
4.762884134970315
 40
4.762884134970315
 40
4.794908098839026
 40
4.794908098839026
 10
-10.12268727757486
 20
-14.5572525649805
 30
0.0
 10
-10.25813417691881
 20
-14.56524085233667
 30
0.0
  0
SPLINE
  5
826D
330
1F
100
AcDbEntity
  8
AM_0
100
AcDbSpline
210
0.0
220
0.0
230
1.0
 70
    24
 71
     1
 72
     4
 73
     2
 74
     0
 42
0.0000000001
 43
0.0000000001
 40
4.730860171101603
 40
4.730860171101603
 40
4.762884134970315
 40
4.762884134970315
 10
-9.987044350109613
 20
-14.55360775711199
 30
0.0
 10
-10.12268727757486
 20
-14.5572525649805
 30
0.0
  0
SPLINE
  5
826E
330
1F
100
AcDbEntity
  8
AM_0
100
AcDbSpline
210
0.0
220
0.0
230
1.0
 70
    24
 71
     1
 72
     4
 73
     2
 74
     0
 42
0.0000000001
 43
0.0000000001
 40
4.698836207232893
 40
4.698836207232893
 40
4.730860171101603
 40
4.730860171101603
 10
-9.851344598649347
 20
-14.554308668651
 30
0.0
 10
-9.987044350109613
 20
-14.55360775711199
 30
0.0
  0
SPLINE
  5
826F
330
1F
100
AcDbEntity
  8
AM_0
100
AcDbSpline
210
0.0
220
0.0
230
1.0
 70
    24
 71
     1
 72
     4
 73
     2
 74
     0
 42
0.0000000001
 43
0.0000000001
 40
4.666812243364182
 40
4.666812243364182
 40
4.698836207232893
 40
4.698836207232893
 10
-9.715727141405977
 20
-14.55935308070996
 30
0.0
 10
-9.851344598649347
 20
-14.554308668651
 30
0.0
  0
SPLINE
  5
8270
330
1F
100
AcDbEntity
  8
AM_0
100
AcDbSpline
210
0.0
220
0.0
230
1.0
 70
    24
 71
     1
 72
     4
 73
     2
 74
     0
 42
0.0000000001
 43
0.0000000001
 40
4.634788279495471
 40
4.634788279495471
 40
4.666812243364182
 40
4.666812243364182
 10
-9.580330868688292
 20
-14.56873433169244
 30
0.0
 10
-9.715727141405977
 20
-14.55935308070996
 30
0.0
  0
SPLINE
  5
8271
330
1F
100
AcDbEntity
  8
AM_0
100
AcDbSpline
210
0.0
220
0.0
230
1.0
 70
    24
 71
     1
 72
     4
 73
     2
 74
     0
 42
0.0000000001
 43
0.0000000001
 40
4.602764315626759
 40
4.602764315626759
 40
4.634788279495471
 40
4.634788279495471
 10
-9.445294302463707
 20
-14.58244133778674
 30
0.0
 10
-9.580330868688292
 20
-14.56873433169244
 30
0.0
  0
SPLINE
  5
8272
330
1F
100
AcDbEntity
  8
AM_0
100
AcDbSpline
210
0.0
220
0.0
230
1.0
 70
    24
 71
     1
 72
     4
 73
     2
 74
     0
 42
0.0000000001
 43
0.0000000001
 40
4.570686857762415
 40
4.570686857762415
 40
4.602764315626759
 40
4.602764315626759
 10
-9.310531212182581
 20
-14.60049230998999
 30
0.0
 10
-9.445294302463707
 20
-14.58244133778674
 30
0.0
  0
SPLINE
  5
8273
330
1F
100
AcDbEntity
  8
AM_0
100
AcDbSpline
210
0.0
220
0.0
230
1.0
 70
    24
 71
     1
 72
     4
 73
     2
 74
     0
 42
0.0000000001
 43
0.0000000001
 40
4.538609399898069
 40
4.538609399898069
 40
4.570686857762415
 40
4.570686857762415
 10
-9.176405566925609
 20
-14.62284801372305
 30
0.0
 10
-9.310531212182581
 20
-14.60049230998999
 30
0.0
  0
SPLINE
  5
8274
330
1F
100
AcDbEntity
  8
AM_0
100
AcDbSpline
210
0.0
220
0.0
230
1.0
 70
    24
 71
     1
 72
     4
 73
     2
 74
     0
 42
0.0000000001
 43
0.0000000001
 40
4.506531942033724
 40
4.506531942033724
 40
4.538609399898069
 40
4.538609399898069
 10
-9.04305464164156
 20
-14.64948413101058
 30
0.0
 10
-9.176405566925609
 20
-14.62284801372305
 30
0.0
  0
SPLINE
  5
8275
330
1F
100
AcDbEntity
  8
AM_0
100
AcDbSpline
210
0.0
220
0.0
230
1.0
 70
    24
 71
     1
 72
     4
 73
     2
 74
     0
 42
0.0000000001
 43
0.0000000001
 40
4.474454484169379
 40
4.474454484169379
 40
4.506531942033724
 40
4.506531942033724
 10
-8.910614792274941
 20
-14.68037201602908
 30
0.0
 10
-9.04305464164156
 20
-14.64948413101058
 30
0.0
  0
SPLINE
  5
8276
330
1F
100
AcDbEntity
  8
AM_0
100
AcDbSpline
210
0.0
220
0.0
230
1.0
 70
    24
 71
     1
 72
     4
 73
     2
 74
     0
 42
0.0000000001
 43
0.0000000001
 40
4.442377026305035
 40
4.442377026305035
 40
4.474454484169379
 40
4.474454484169379
 10
-8.779221323487831
 20
-14.71547873576594
 30
0.0
 10
-8.910614792274941
 20
-14.68037201602908
 30
0.0
  0
SPLINE
  5
8277
330
1F
100
AcDbEntity
  8
AM_0
100
AcDbSpline
210
0.0
220
0.0
230
1.0
 70
    24
 71
     1
 72
     4
 73
     2
 74
     0
 42
0.0000000001
 43
0.0000000001
 40
4.410299568440689
 40
4.410299568440689
 40
4.442377026305035
 40
4.442377026305035
 10
-8.64900835846538
 20
-14.7547671142546
 30
0.0
 10
-8.779221323487831
 20
-14.71547873576594
 30
0.0
  0
SPLINE
  5
8278
330
1F
100
AcDbEntity
  8
AM_0
100
AcDbSpline
210
0.0
220
0.0
230
1.0
 70
    24
 71
     1
 72
     4
 73
     2
 74
     0
 42
0.0000000001
 43
0.0000000001
 40
4.378222110576344
 40
4.378222110576344
 40
4.410299568440689
 40
4.410299568440689
 10
-8.520108710857357
 20
-14.79819578025365
 30
0.0
 10
-8.64900835846538
 20
-14.7547671142546
 30
0.0
  0
SPLINE
  5
8279
330
1F
100
AcDbEntity
  8
AM_0
100
AcDbSpline
210
0.0
220
0.0
230
1.0
 70
    24
 71
     1
 72
     4
 73
     2
 74
     0
 42
0.0000000001
 43
0.0000000001
 40
4.346144652711999
 40
4.346144652711999
 40
4.378222110576344
 40
4.378222110576344
 10
-8.392653758888968
 20
-14.84571921824129
 30
0.0
 10
-8.520108710857357
 20
-14.79819578025365
 30
0.0
  0
SPLINE
  5
827A
330
1F
100
AcDbEntity
  8
AM_0
100
AcDbSpline
210
0.0
220
0.0
230
1.0
 70
    24
 71
     1
 72
     4
 73
     2
 74
     0
 42
0.0000000001
 43
0.0000000001
 40
4.314067194847654
 40
4.314067194847654
 40
4.346144652711999
 40
4.346144652711999
 10
-8.266773321672076
 20
-14.89728782260431
 30
0.0
 10
-8.392653758888968
 20
-14.84571921824129
 30
0.0
  0
SPLINE
  5
827B
330
1F
100
AcDbEntity
  8
AM_0
100
AcDbSpline
210
0.0
220
0.0
230
1.0
 70
    24
 71
     1
 72
     4
 73
     2
 74
     0
 42
0.0000000001
 43
0.0000000001
 40
4.281989736983309
 40
4.281989736983309
 40
4.314067194847654
 40
4.314067194847654
 10
-8.142595537739566
 20
-14.95284795490545
 30
0.0
 10
-8.266773321672076
 20
-14.89728782260431
 30
0.0
  0
SPLINE
  5
827C
330
1F
100
AcDbEntity
  8
AM_0
100
AcDbSpline
210
0.0
220
0.0
230
1.0
 70
    24
 71
     1
 72
     4
 73
     2
 74
     0
 42
0.0000000001
 43
0.0000000001
 40
4.249889381910942
 40
4.249889381910942
 40
4.281989736983309
 40
4.281989736983309
 10
-8.020160095029382
 20
-15.01238586217937
 30
0.0
 10
-8.142595537739566
 20
-14.95284795490545
 30
0.0
  0
SPLINE
  5
827D
330
1F
100
AcDbEntity
  8
AM_0
100
AcDbSpline
210
0.0
220
0.0
230
1.0
 70
    24
 71
     1
 72
     4
 73
     2
 74
     0
 42
0.0000000001
 43
0.0000000001
 40
4.217789026838575
 40
4.217789026838575
 40
4.249889381910942
 40
4.249889381910942
 10
-7.899680943973066
 20
-15.07580165033755
 30
0.0
 10
-8.020160095029382
 20
-15.01238586217937
 30
0.0
  0
SPLINE
  5
827E
330
1F
100
AcDbEntity
  8
AM_0
100
AcDbSpline
210
0.0
220
0.0
230
1.0
 70
    24
 71
     1
 72
     4
 73
     2
 74
     0
 42
0.0000000001
 43
0.0000000001
 40
4.185688671766209
 40
4.185688671766209
 40
4.217789026838575
 40
4.217789026838575
 10
-7.781280734996926
 20
-15.14302981114576
 30
0.0
 10
-7.899680943973066
 20
-15.07580165033755
 30
0.0
  0
SPLINE
  5
827F
330
1F
100
AcDbEntity
  8
AM_0
100
AcDbSpline
210
0.0
220
0.0
230
1.0
 70
    24
 71
     1
 72
     4
 73
     2
 74
     0
 42
0.0000000001
 43
0.0000000001
 40
4.153588316693842
 40
4.153588316693842
 40
4.185688671766209
 40
4.185688671766209
 10
-7.665079968237478
 20
-15.21400105067067
 30
0.0
 10
-7.781280734996926
 20
-15.14302981114576
 30
0.0
  0
SPLINE
  5
8280
330
1F
100
AcDbEntity
  8
AM_0
100
AcDbSpline
210
0.0
220
0.0
230
1.0
 70
    24
 71
     1
 72
     4
 73
     2
 74
     0
 42
0.0000000001
 43
0.0000000001
 40
4.121487961621475
 40
4.121487961621475
 40
4.153588316693842
 40
4.153588316693842
 10
-7.551196882922113
 20
-15.28864236073366
 30
0.0
 10
-7.665079968237478
 20
-15.21400105067067
 30
0.0
  0
SPLINE
  5
8281
330
1F
100
AcDbEntity
  8
AM_0
100
AcDbSpline
210
0.0
220
0.0
230
1.0
 70
    24
 71
     1
 72
     4
 73
     2
 74
     0
 42
0.0000000001
 43
0.0000000001
 40
4.089387606549109
 40
4.089387606549109
 40
4.121487961621475
 40
4.121487961621475
 10
-7.439747349005529
 20
-15.3668770929205
 30
0.0
 10
-7.551196882922113
 20
-15.28864236073366
 30
0.0
  0
SPLINE
  5
8282
330
1F
100
AcDbEntity
  8
AM_0
100
AcDbSpline
210
0.0
220
0.0
230
1.0
 70
    24
 71
     1
 72
     4
 73
     2
 74
     0
 42
0.0000000001
 43
0.0000000001
 40
4.057287251476742
 40
4.057287251476742
 40
4.089387606549109
 40
4.089387606549109
 10
-7.33084476105671
 20
-15.44862503508659
 30
0.0
 10
-7.439747349005529
 20
-15.3668770929205
 30
0.0
  0
SPLINE
  5
8283
330
1F
100
AcDbEntity
  8
AM_0
100
AcDbSpline
210
0.0
220
0.0
230
1.0
 70
    24
 71
     1
 72
     4
 73
     2
 74
     0
 42
0.0000000001
 43
0.0000000001
 40
4.025186896404376
 40
4.025186896404376
 40
4.057287251476742
 40
4.057287251476742
 10
-7.224599934392358
 20
-15.53380249030249
 30
0.0
 10
-7.33084476105671
 20
-15.44862503508659
 30
0.0
  0
SPLINE
  5
8284
330
1F
100
AcDbEntity
  8
AM_0
100
AcDbSpline
210
0.0
220
0.0
230
1.0
 70
    24
 71
     1
 72
     4
 73
     2
 74
     0
 42
0.0000000001
 43
0.0000000001
 40
3.993086541332009
 40
3.993086541332009
 40
4.025186896404376
 40
4.025186896404376
 10
-7.121121003450411
 20
-15.62232235819431
 30
0.0
 10
-7.224599934392358
 20
-15.53380249030249
 30
0.0
  0
SPLINE
  5
8285
330
1F
100
AcDbEntity
  8
AM_0
100
AcDbSpline
210
0.0
220
0.0
230
1.0
 70
    24
 71
     1
 72
     4
 73
     2
 74
     0
 42
0.0000000001
 43
0.0000000001
 40
3.960986186259642
 40
3.960986186259642
 40
3.993086541332009
 40
3.993086541332009
 10
-7.020513322403189
 20
-15.71409421863916
 30
0.0
 10
-7.121121003450411
 20
-15.62232235819431
 30
0.0
  0
SPLINE
  5
8286
330
1F
100
AcDbEntity
  8
AM_0
100
AcDbSpline
210
0.0
220
0.0
230
1.0
 70
    24
 71
     1
 72
     4
 73
     2
 74
     0
 42
0.0000000001
 43
0.0000000001
 40
3.92890203064873
 40
3.92890203064873
 40
3.960986186259642
 40
3.960986186259642
 10
-6.922927872214472
 20
-15.80897573082165
 30
0.0
 10
-7.020513322403189
 20
-15.71409421863916
 30
0.0
  0
SPLINE
  5
8287
330
1F
100
AcDbEntity
  8
AM_0
100
AcDbSpline
210
0.0
220
0.0
230
1.0
 70
    24
 71
     1
 72
     4
 73
     2
 74
     0
 42
0.0000000001
 43
0.0000000001
 40
3.896817875037817
 40
3.896817875037817
 40
3.92890203064873
 40
3.92890203064873
 10
-6.828412502933929
 20
-15.90691574303298
 30
0.0
 10
-6.922927872214472
 20
-15.80897573082165
 30
0.0
  0
SPLINE
  5
8288
330
1F
100
AcDbEntity
  8
AM_0
100
AcDbSpline
210
0.0
220
0.0
230
1.0
 70
    24
 71
     1
 72
     4
 73
     2
 74
     0
 42
0.0000000001
 43
0.0000000001
 40
3.864733719426904
 40
3.864733719426904
 40
3.896817875037817
 40
3.896817875037817
 10
-6.737063510437451
 20
-16.00781455454091
 30
0.0
 10
-6.828412502933929
 20
-15.90691574303298
 30
0.0
  0
SPLINE
  5
8289
330
1F
100
AcDbEntity
  8
AM_0
100
AcDbSpline
210
0.0
220
0.0
230
1.0
 70
    24
 71
     1
 72
     4
 73
     2
 74
     0
 42
0.0000000001
 43
0.0000000001
 40
3.832649563815992
 40
3.832649563815992
 40
3.864733719426904
 40
3.864733719426904
 10
-6.648974041660608
 20
-16.11156950852427
 30
0.0
 10
-6.737063510437451
 20
-16.00781455454091
 30
0.0
  0
SPLINE
  5
828A
330
1F
100
AcDbEntity
  8
AM_0
100
AcDbSpline
210
0.0
220
0.0
230
1.0
 70
    24
 71
     1
 72
     4
 73
     2
 74
     0
 42
0.0000000001
 43
0.0000000001
 40
3.80056540820508
 40
3.80056540820508
 40
3.832649563815992
 40
3.832649563815992
 10
-6.564234006686092
 20
-16.21807508693882
 30
0.0
 10
-6.648974041660608
 20
-16.11156950852427
 30
0.0
  0
SPLINE
  5
828B
330
1F
100
AcDbEntity
  8
AM_0
100
AcDbSpline
210
0.0
220
0.0
230
1.0
 70
    24
 71
     1
 72
     4
 73
     2
 74
     0
 42
0.0000000001
 43
0.0000000001
 40
3.768481252594167
 40
3.768481252594167
 40
3.80056540820508
 40
3.80056540820508
 10
-6.482929993116158
 20
-16.32722300762418
 30
0.0
 10
-6.564234006686092
 20
-16.21807508693882
 30
0.0
  0
SPLINE
  5
828C
330
1F
100
AcDbEntity
  8
AM_0
100
AcDbSpline
210
0.0
220
0.0
230
1.0
 70
    24
 71
     1
 72
     4
 73
     2
 74
     0
 42
0.0000000001
 43
0.0000000001
 40
3.736397096983254
 40
3.736397096983254
 40
3.768481252594167
 40
3.768481252594167
 10
-6.405145182760406
 20
-16.43890232365066
 30
0.0
 10
-6.482929993116158
 20
-16.32722300762418
 30
0.0
  0
SPLINE
  5
828D
330
1F
100
AcDbEntity
  8
AM_0
100
AcDbSpline
210
0.0
220
0.0
230
1.0
 70
    24
 71
     1
 72
     4
 73
     2
 74
     0
 42
0.0000000001
 43
0.0000000001
 40
3.704312941372342
 40
3.704312941372342
 40
3.736397096983254
 40
3.736397096983254
 10
-6.330959270671201
 20
-16.55299952490702
 30
0.0
 10
-6.405145182760406
 20
-16.43890232365066
 30
0.0
  0
SPLINE
  5
828E
330
1F
100
AcDbEntity
  8
AM_0
100
AcDbSpline
210
0.0
220
0.0
230
1.0
 70
    24
 71
     1
 72
     4
 73
     2
 74
     0
 42
0.0000000001
 43
0.0000000001
 40
3.672228785761429
 40
3.672228785761429
 40
3.704312941372342
 40
3.704312941372342
 10
-6.260448386568327
 20
-16.66939864193273
 30
0.0
 10
-6.330959270671201
 20
-16.55299952490702
 30
0.0
  0
SPLINE
  5
828F
330
1F
100
AcDbEntity
  8
AM_0
100
AcDbSpline
210
0.0
220
0.0
230
1.0
 70
    24
 71
     1
 72
     4
 73
     2
 74
     0
 42
0.0000000001
 43
0.0000000001
 40
3.640144630150517
 40
3.640144630150517
 40
3.672228785761429
 40
3.672228785761429
 10
-6.193685018700421
 20
-16.78798135199991
 30
0.0
 10
-6.260448386568327
 20
-16.66939864193273
 30
0.0
  0
SPLINE
  5
8290
330
1F
100
AcDbEntity
  8
AM_0
100
AcDbSpline
210
0.0
220
0.0
230
1.0
 70
    24
 71
     1
 72
     4
 73
     2
 74
     0
 42
0.0000000001
 43
0.0000000001
 40
3.60810968660672
 40
3.60810968660672
 40
3.640144630150517
 40
3.640144630150517
 10
-6.130831535208471
 20
-16.90844051837149
 30
0.0
 10
-6.193685018700421
 20
-16.78798135199991
 30
0.0
  0
SPLINE
  5
8291
330
1F
100
AcDbEntity
  8
AM_0
100
AcDbSpline
210
0.0
220
0.0
230
1.0
 70
    24
 71
     1
 72
     4
 73
     2
 74
     0
 42
0.0000000001
 43
0.0000000001
 40
3.576074743062923
 40
3.576074743062923
 40
3.60810968660672
 40
3.60810968660672
 10
-6.07184733513111
 20
-17.03083425010862
 30
0.0
 10
-6.130831535208471
 20
-16.90844051837149
 30
0.0
  0
SPLINE
  5
8292
330
1F
100
AcDbEntity
  8
AM_0
100
AcDbSpline
210
0.0
220
0.0
230
1.0
 70
    24
 71
     1
 72
     4
 73
     2
 74
     0
 42
0.0000000001
 43
0.0000000001
 40
3.544039799519126
 40
3.544039799519126
 40
3.576074743062923
 40
3.576074743062923
 10
-6.016793278779573
 20
-17.15503840123648
 30
0.0
 10
-6.07184733513111
 20
-17.03083425010862
 30
0.0
  0
SPLINE
  5
8293
330
1F
100
AcDbEntity
  8
AM_0
100
AcDbSpline
210
0.0
220
0.0
230
1.0
 70
    24
 71
     1
 72
     4
 73
     2
 74
     0
 42
0.0000000001
 43
0.0000000001
 40
3.512004855975328
 40
3.512004855975328
 40
3.544039799519126
 40
3.544039799519126
 10
-5.965726330229585
 20
-17.28092693074415
 30
0.0
 10
-6.016793278779573
 20
-17.15503840123648
 30
0.0
  0
SPLINE
  5
8294
330
1F
100
AcDbEntity
  8
AM_0
100
AcDbSpline
210
0.0
220
0.0
230
1.0
 70
    24
 71
     1
 72
     4
 73
     2
 74
     0
 42
0.0000000001
 43
0.0000000001
 40
3.479969912431531
 40
3.479969912431531
 40
3.512004855975328
 40
3.512004855975328
 10
-5.918699494828729
 20
-17.40837201906742
 30
0.0
 10
-5.965726330229585
 20
-17.28092693074415
 30
0.0
  0
SPLINE
  5
8295
330
1F
100
AcDbEntity
  8
AM_0
100
AcDbSpline
210
0.0
220
0.0
230
1.0
 70
    24
 71
     1
 72
     4
 73
     2
 74
     0
 42
0.0000000001
 43
0.0000000001
 40
3.447934968887734
 40
3.447934968887734
 40
3.479969912431531
 40
3.479969912431531
 10
-5.875761759564056
 20
-17.53724418680974
 30
0.0
 10
-5.918699494828729
 20
-17.40837201906742
 30
0.0
  0
SPLINE
  5
8296
330
1F
100
AcDbEntity
  8
AM_0
100
AcDbSpline
210
0.0
220
0.0
230
1.0
 70
    24
 71
     1
 72
     4
 73
     2
 74
     0
 42
0.0000000001
 43
0.0000000001
 40
3.415900025343937
 40
3.415900025343937
 40
3.447934968887734
 40
3.447934968887734
 10
-5.836958036392957
 20
-17.66741241569087
 30
0.0
 10
-5.875761759564056
 20
-17.53724418680974
 30
0.0
  0
SPLINE
  5
8297
330
1F
100
AcDbEntity
  8
AM_0
100
AcDbSpline
210
0.0
220
0.0
230
1.0
 70
    24
 71
     1
 72
     4
 73
     2
 74
     0
 42
0.0000000001
 43
0.0000000001
 40
3.383865081800141
 40
3.383865081800141
 40
3.415900025343937
 40
3.415900025343937
 10
-5.802329108645494
 20
-17.7987442717075
 30
0.0
 10
-5.836958036392957
 20
-17.66741241569087
 30
0.0
  0
SPLINE
  5
8298
330
1F
100
AcDbEntity
  8
AM_0
100
AcDbSpline
210
0.0
220
0.0
230
1.0
 70
    24
 71
     1
 72
     4
 73
     2
 74
     0
 42
0.0000000001
 43
0.0000000001
 40
3.351830138256343
 40
3.351830138256343
 40
3.383865081800141
 40
3.383865081800141
 10
-5.771911580612936
 20
-17.93110603048285
 30
0.0
 10
-5.802329108645494
 20
-17.7987442717075
 30
0.0
  0
SPLINE
  5
8299
330
1F
100
AcDbEntity
  8
AM_0
100
AcDbSpline
210
0.0
220
0.0
230
1.0
 70
    24
 71
     1
 72
     4
 73
     2
 74
     0
 42
0.0000000001
 43
0.0000000001
 40
3.319795194712546
 40
3.319795194712546
 40
3.351830138256343
 40
3.351830138256343
 10
-5.745737830446046
 20
-18.06436280477532
 30
0.0
 10
-5.771911580612936
 20
-17.93110603048285
 30
0.0
  0
SPLINE
  5
829A
330
1F
100
AcDbEntity
  8
AM_0
100
AcDbSpline
210
0.0
220
0.0
230
1.0
 70
    24
 71
     1
 72
     4
 73
     2
 74
     0
 42
0.0000000001
 43
0.0000000001
 40
3.287823743176231
 40
3.287823743176231
 40
3.319795194712546
 40
3.319795194712546
 10
-5.723875133773731
 20
-18.19811239911638
 30
0.0
 10
-5.745737830446046
 20
-18.06436280477532
 30
0.0
  0
SPLINE
  5
829B
330
1F
100
AcDbEntity
  8
AM_0
100
AcDbSpline
210
0.0
220
0.0
230
1.0
 70
    24
 71
     1
 72
     4
 73
     2
 74
     0
 42
0.0000000001
 43
0.0000000001
 40
3.255852291639915
 40
3.255852291639915
 40
3.287823743176231
 40
3.287823743176231
 10
-5.70629106959052
 20
-18.33248207344104
 30
0.0
 10
-5.723875133773731
 20
-18.19811239911638
 30
0.0
  0
SPLINE
  5
829C
330
1F
100
AcDbEntity
  8
AM_0
100
AcDbSpline
210
0.0
220
0.0
230
1.0
 70
    24
 71
     1
 72
     4
 73
     2
 74
     0
 42
0.0000000001
 43
0.0000000001
 40
3.223880840103599
 40
3.223880840103599
 40
3.255852291639915
 40
3.255852291639915
 10
-5.69300498753239
 20
-18.4673350563894
 30
0.0
 10
-5.70629106959052
 20
-18.33248207344104
 30
0.0
  0
SPLINE
  5
829D
330
1F
100
AcDbEntity
  8
AM_0
100
AcDbSpline
210
0.0
220
0.0
230
1.0
 70
    24
 71
     1
 72
     4
 73
     2
 74
     0
 42
0.0000000001
 43
0.0000000001
 40
3.191909388567283
 40
3.191909388567283
 40
3.223880840103599
 40
3.223880840103599
 10
-5.684031893137102
 20
-18.60253394889446
 30
0.0
 10
-5.69300498753239
 20
-18.4673350563894
 30
0.0
  0
SPLINE
  5
829E
330
1F
100
AcDbEntity
  8
AM_0
100
AcDbSpline
210
0.0
220
0.0
230
1.0
 70
    24
 71
     1
 72
     4
 73
     2
 74
     0
 42
0.0000000001
 43
0.0000000001
 40
3.159937937030967
 40
3.159937937030967
 40
3.191909388567283
 40
3.191909388567283
 10
-5.679382419561306
 20
-18.73794086033592
 30
0.0
 10
-5.684031893137102
 20
-18.60253394889446
 30
0.0
  0
SPLINE
  5
829F
330
1F
100
AcDbEntity
  8
AM_0
100
AcDbSpline
210
0.0
220
0.0
230
1.0
 70
    24
 71
     1
 72
     4
 73
     2
 74
     0
 42
0.0000000001
 43
0.0000000001
 40
3.127966485494652
 40
3.127966485494652
 40
3.159937937030967
 40
3.159937937030967
 10
-5.679062803383999
 20
-18.87341754644216
 30
0.0
 10
-5.679382419561306
 20
-18.73794086033592
 30
0.0
  0
SPLINE
  5
82A0
330
1F
100
AcDbEntity
  8
AM_0
100
AcDbSpline
210
0.0
220
0.0
230
1.0
 70
    24
 71
     1
 72
     4
 73
     2
 74
     0
 42
0.0000000001
 43
0.0000000001
 40
3.095995033958336
 40
3.095995033958336
 40
3.127966485494652
 40
3.127966485494652
 10
-5.683074864645618
 20
-19.00882554883622
 30
0.0
 10
-5.679062803383999
 20
-18.87341754644216
 30
0.0
  0
SPLINE
  5
82A1
330
1F
100
AcDbEntity
  8
AM_0
100
AcDbSpline
210
0.0
220
0.0
230
1.0
 70
    24
 71
     1
 72
     4
 73
     2
 74
     0
 42
0.0000000001
 43
0.0000000001
 40
3.06402358242202
 40
3.06402358242202
 40
3.095995033958336
 40
3.095995033958336
 10
-5.691415991260896
 20
-19.14402633610802
 30
0.0
 10
-5.683074864645618
 20
-19.00882554883622
 30
0.0
  0
SPLINE
  5
82A2
330
1F
100
AcDbEntity
  8
AM_0
100
AcDbSpline
210
0.0
220
0.0
230
1.0
 70
    24
 71
     1
 72
     4
 73
     2
 74
     0
 42
0.0000000001
 43
0.0000000001
 40
3.032052130885705
 40
3.032052130885705
 40
3.06402358242202
 40
3.06402358242202
 10
-5.704079127952809
 20
-19.27888144628144
 30
0.0
 10
-5.691415991260896
 20
-19.14402633610802
 30
0.0
  0
SPLINE
  5
82A3
330
1F
100
AcDbEntity
  8
AM_0
100
AcDbSpline
210
0.0
220
0.0
230
1.0
 70
    24
 71
     1
 72
     4
 73
     2
 74
     0
 42
0.0000000001
 43
0.0000000001
 40
3.000080679349389
 40
3.000080679349389
 40
3.032052130885705
 40
3.032052130885705
 10
-5.721052769841776
 20
-19.41325263053113
 30
0.0
 10
-5.704079127952809
 20
-19.27888144628144
 30
0.0
  0
SPLINE
  5
82A4
330
1F
100
AcDbEntity
  8
AM_0
100
AcDbSpline
210
0.0
220
0.0
230
1.0
 70
    24
 71
     1
 72
     4
 73
     2
 74
     0
 42
0.0000000001
 43
0.0000000001
 40
2.968161971720585
 40
2.968161971720585
 40
3.000080679349389
 40
3.000080679349389
 10
-5.742282348318099
 20
-19.54678193664267
 30
0.0
 10
-5.721052769841776
 20
-19.41325263053113
 30
0.0
  0
SPLINE
  5
82A5
330
1F
100
AcDbEntity
  8
AM_0
100
AcDbSpline
210
0.0
220
0.0
230
1.0
 70
    24
 71
     1
 72
     4
 73
     2
 74
     0
 42
0.0000000001
 43
0.0000000001
 40
2.936243264091782
 40
2.936243264091782
 40
2.968161971720585
 40
2.968161971720585
 10
-5.767772019641824
 20
-19.67955476689678
 30
0.0
 10
-5.742282348318099
 20
-19.54678193664267
 30
0.0
  0
SPLINE
  5
82A6
330
1F
100
AcDbEntity
  8
AM_0
100
AcDbSpline
210
0.0
220
0.0
230
1.0
 70
    24
 71
     1
 72
     4
 73
     2
 74
     0
 42
0.0000000001
 43
0.0000000001
 40
2.904324556462978
 40
2.904324556462978
 40
2.936243264091782
 40
2.936243264091782
 10
-5.797497073881686
 20
-19.8114350580376
 30
0.0
 10
-5.767772019641824
 20
-19.67955476689678
 30
0.0
  0
SPLINE
  5
82A7
330
1F
100
AcDbEntity
  8
AM_0
100
AcDbSpline
210
0.0
220
0.0
230
1.0
 70
    24
 71
     1
 72
     4
 73
     2
 74
     0
 42
0.0000000001
 43
0.0000000001
 40
2.872405848834175
 40
2.872405848834175
 40
2.904324556462978
 40
2.904324556462978
 10
-5.831428404107896
 20
-19.94228753822392
 30
0.0
 10
-5.797497073881686
 20
-19.8114350580376
 30
0.0
  0
SPLINE
  5
82A8
330
1F
100
AcDbEntity
  8
AM_0
100
AcDbSpline
210
0.0
220
0.0
230
1.0
 70
    24
 71
     1
 72
     4
 73
     2
 74
     0
 42
0.0000000001
 43
0.0000000001
 40
2.840487141205371
 40
2.840487141205371
 40
2.872405848834175
 40
2.872405848834175
 10
-5.869532524969258
 20
-20.07197787313578
 30
0.0
 10
-5.831428404107896
 20
-19.94228753822392
 30
0.0
  0
SPLINE
  5
82A9
330
1F
100
AcDbEntity
  8
AM_0
100
AcDbSpline
210
0.0
220
0.0
230
1.0
 70
    24
 71
     1
 72
     4
 73
     2
 74
     0
 42
0.0000000001
 43
0.0000000001
 40
2.808568433576567
 40
2.808568433576567
 40
2.840487141205371
 40
2.840487141205371
 10
-5.911771596568428
 20
-20.2003728121827
 30
0.0
 10
-5.869532524969258
 20
-20.07197787313578
 30
0.0
  0
SPLINE
  5
82AA
330
1F
100
AcDbEntity
  8
AM_0
100
AcDbSpline
210
0.0
220
0.0
230
1.0
 70
    24
 71
     1
 72
     4
 73
     2
 74
     0
 42
0.0000000001
 43
0.0000000001
 40
2.776649725947764
 40
2.776649725947764
 40
2.808568433576567
 40
2.808568433576567
 10
-5.958103453707622
 20
-20.32734033457916
 30
0.0
 10
-5.911771596568428
 20
-20.2003728121827
 30
0.0
  0
SPLINE
  5
82AB
330
1F
100
AcDbEntity
  8
AM_0
100
AcDbSpline
210
0.0
220
0.0
230
1.0
 70
    24
 71
     1
 72
     4
 73
     2
 74
     0
 42
0.0000000001
 43
0.0000000001
 40
2.74473101831896
 40
2.74473101831896
 40
2.776649725947764
 40
2.776649725947764
 10
-6.008481640574245
 20
-20.45274979504643
 30
0.0
 10
-5.958103453707622
 20
-20.32734033457916
 30
0.0
  0
SPLINE
  5
82AC
330
1F
100
AcDbEntity
  8
AM_0
100
AcDbSpline
210
0.0
220
0.0
230
1.0
 70
    24
 71
     1
 72
     4
 73
     2
 74
     0
 42
0.0000000001
 43
0.0000000001
 40
2.712812310690156
 40
2.712812310690156
 40
2.74473101831896
 40
2.74473101831896
 10
-6.062855450912252
 20
-20.5764720688893
 30
0.0
 10
-6.008481640574245
 20
-20.45274979504643
 30
0.0
  0
SPLINE
  5
82AD
330
1F
100
AcDbEntity
  8
AM_0
100
AcDbSpline
210
0.0
220
0.0
230
1.0
 70
    24
 71
     1
 72
     4
 73
     2
 74
     0
 42
0.0000000001
 43
0.0000000001
 40
2.680893603061353
 40
2.680893603061353
 40
2.712812310690156
 40
2.712812310690156
 10
-6.121169973715154
 20
-20.69837969618891
 30
0.0
 10
-6.062855450912252
 20
-20.5764720688893
 30
0.0
  0
SPLINE
  5
82AE
330
1F
100
AcDbEntity
  8
AM_0
100
AcDbSpline
210
0.0
220
0.0
230
1.0
 70
    24
 71
     1
 72
     4
 73
     2
 74
     0
 42
0.0000000001
 43
0.0000000001
 40
2.648995331106879
 40
2.648995331106879
 40
2.680893603061353
 40
2.680893603061353
 10
-6.183325095348095
 20
-20.81827086402324
 30
0.0
 10
-6.121169973715154
 20
-20.69837969618891
 30
0.0
  0
SPLINE
  5
82AF
330
1F
100
AcDbEntity
  8
AM_0
100
AcDbSpline
210
0.0
220
0.0
230
1.0
 70
    24
 71
     1
 72
     4
 73
     2
 74
     0
 42
0.0000000001
 43
0.0000000001
 40
2.617097059152405
 40
2.617097059152405
 40
2.648995331106879
 40
2.648995331106879
 10
-6.24929385780581
 20
-20.93610075084859
 30
0.0
 10
-6.183325095348095
 20
-20.81827086402324
 30
0.0
  0
SPLINE
  5
82B0
330
1F
100
AcDbEntity
  8
AM_0
100
AcDbSpline
210
0.0
220
0.0
230
1.0
 70
    24
 71
     1
 72
     4
 73
     2
 74
     0
 42
0.0000000001
 43
0.0000000001
 40
2.585198787197932
 40
2.585198787197932
 40
2.617097059152405
 40
2.617097059152405
 10
-6.31900919813745
 20
-21.05174797471704
 30
0.0
 10
-6.24929385780581
 20
-20.93610075084859
 30
0.0
  0
SPLINE
  5
82B1
330
1F
100
AcDbEntity
  8
AM_0
100
AcDbSpline
210
0.0
220
0.0
230
1.0
 70
    24
 71
     1
 72
     4
 73
     2
 74
     0
 42
0.0000000001
 43
0.0000000001
 40
2.553300515243458
 40
2.553300515243458
 40
2.585198787197932
 40
2.585198787197932
 10
-6.392400096737333
 20
-21.165093375129
 30
0.0
 10
-6.31900919813745
 20
-21.05174797471704
 30
0.0
  0
SPLINE
  5
82B2
330
1F
100
AcDbEntity
  8
AM_0
100
AcDbSpline
210
0.0
220
0.0
230
1.0
 70
    24
 71
     1
 72
     4
 73
     2
 74
     0
 42
0.0000000001
 43
0.0000000001
 40
2.521402243288985
 40
2.521402243288985
 40
2.553300515243458
 40
2.553300515243458
 10
-6.469391650282773
 20
-21.27602014830927
 30
0.0
 10
-6.392400096737333
 20
-21.165093375129
 30
0.0
  0
SPLINE
  5
82B3
330
1F
100
AcDbEntity
  8
AM_0
100
AcDbSpline
210
0.0
220
0.0
230
1.0
 70
    24
 71
     1
 72
     4
 73
     2
 74
     0
 42
0.0000000001
 43
0.0000000001
 40
2.489503971334511
 40
2.489503971334511
 40
2.521402243288985
 40
2.521402243288985
 10
-6.549905149998153
 20
-21.38441397996797
 30
0.0
 10
-6.469391650282773
 20
-21.27602014830927
 30
0.0
  0
SPLINE
  5
82B4
330
1F
100
AcDbEntity
  8
AM_0
100
AcDbSpline
210
0.0
220
0.0
230
1.0
 70
    24
 71
     1
 72
     4
 73
     2
 74
     0
 42
0.0000000001
 43
0.0000000001
 40
2.457605699380037
 40
2.457605699380037
 40
2.489503971334511
 40
2.489503971334511
 10
-6.633858165142214
 20
-21.49016317527696
 30
0.0
 10
-6.549905149998153
 20
-21.38441397996797
 30
0.0
  0
SPLINE
  5
82B5
330
1F
100
AcDbEntity
  8
AM_0
100
AcDbSpline
210
0.0
220
0.0
230
1.0
 70
    24
 71
     1
 72
     4
 73
     2
 74
     0
 42
0.0000000001
 43
0.0000000001
 40
2.425707427425564
 40
2.425707427425564
 40
2.457605699380037
 40
2.457605699380037
 10
-6.721164631611713
 20
-21.59315878579354
 30
0.0
 10
-6.633858165142214
 20
-21.49016317527696
 30
0.0
  0
SPLINE
  5
82B6
330
1F
100
AcDbEntity
  8
AM_0
100
AcDbSpline
210
0.0
220
0.0
230
1.0
 70
    24
 71
     1
 72
     4
 73
     2
 74
     0
 42
0.0000000001
 43
0.0000000001
 40
2.39380915547109
 40
2.39380915547109
 40
2.425707427425564
 40
2.425707427425564
 10
-6.811734945520242
 20
-21.69329473307368
 30
0.0
 10
-6.721164631611713
 20
-21.59315878579354
 30
0.0
  0
SPLINE
  5
82B7
330
1F
100
AcDbEntity
  8
AM_0
100
AcDbSpline
210
0.0
220
0.0
230
1.0
 70
    24
 71
     1
 72
     4
 73
     2
 74
     0
 42
0.0000000001
 43
0.0000000001
 40
2.361910883516617
 40
2.361910883516617
 40
2.39380915547109
 40
2.39380915547109
 10
-6.905476061604986
 20
-21.790467928721
 30
0.0
 10
-6.811734945520242
 20
-21.69329473307368
 30
0.0
  0
SPLINE
  5
82B8
330
1F
100
AcDbEntity
  8
AM_0
100
AcDbSpline
210
0.0
220
0.0
230
1.0
 70
    24
 71
     1
 72
     4
 73
     2
 74
     0
 42
0.0000000001
 43
0.0000000001
 40
0.0945041016970654
 40
0.0945041016970654
 40
0.1181301271213317
 40
0.1181301271213317
 10
-3.866582406837665
 20
-21.07211367269502
 30
0.0
 10
-3.870933295013742
 20
-21.09443068471688
 30
0.0
  0
SPLINE
  5
82B9
330
1F
100
AcDbEntity
  8
AM_0
100
AcDbSpline
210
0.0
220
0.0
230
1.0
 70
    24
 71
     1
 72
     4
 73
     2
 74
     0
 42
0.0000000001
 43
0.0000000001
 40
0.070878076272799
 40
0.070878076272799
 40
0.0945041016970654
 40
0.0945041016970654
 10
-3.862669704959785
 20
-21.04982556302366
 30
0.0
 10
-3.866582406837665
 20
-21.07211367269502
 30
0.0
  0
SPLINE
  5
82BA
330
1F
100
AcDbEntity
  8
AM_0
100
AcDbSpline
210
0.0
220
0.0
230
1.0
 70
    24
 71
     1
 72
     4
 73
     2
 74
     0
 42
0.0000000001
 43
0.0000000001
 40
0.0472520508485327
 40
0.0472520508485327
 40
0.070878076272799
 40
0.070878076272799
 10
-3.859181221231551
 20
-21.02759322080936
 30
0.0
 10
-3.862669704959785
 20
-21.04982556302366
 30
0.0
  0
SPLINE
  5
82BB
330
1F
100
AcDbEntity
  8
AM_0
100
AcDbSpline
210
0.0
220
0.0
230
1.0
 70
    24
 71
     1
 72
     4
 73
     2
 74
     0
 42
0.0000000001
 43
0.0000000001
 40
0.0236260254242664
 40
0.0236260254242664
 40
0.0472520508485327
 40
0.0472520508485327
 10
-3.856102987504073
 20
-21.00544351115854
 30
0.0
 10
-3.859181221231551
 20
-21.02759322080936
 30
0.0
  0
SPLINE
  5
82BC
330
1F
100
AcDbEntity
  8
AM_0
100
AcDbSpline
210
0.0
220
0.0
230
1.0
 70
    24
 71
     1
 72
     4
 73
     2
 74
     0
 42
0.0000000001
 43
0.0000000001
 40
0.0
 40
0.0
 40
0.0236260254242664
 40
0.0236260254242664
 10
-3.853421035628684
 20
-20.9834032991776
 30
0.0
 10
-3.856102987504073
 20
-21.00544351115854
 30
0.0
  0
SPLINE
  5
82BD
330
1F
100
AcDbEntity
  8
AM_0
100
AcDbSpline
210
0.0
220
0.0
230
1.0
 70
     8
 71
     3
 72
     8
 73
     4
 74
     0
 42
0.0000000001
 43
0.0000000001
 40
1.861678819120834
 40
1.861678819120834
 40
1.861678819120834
 40
1.861678819120834
 40
1.898437716639572
 40
1.898437716639572
 40
1.898437716639572
 40
1.898437716639572
 10
-18.91464071141933
 20
61.86633101856767
 30
0.0
 10
-18.90188242016358
 20
61.86699486202893
 30
0.0
 10
-18.88905356784107
 20
61.8677624447361
 30
0.0
 10
-18.87617227164116
 20
61.86864934232805
 30
0.0
  0
ELLIPSE
  5
82BE
330
1F
100
AcDbEntity
  8
AM_0
100
AcDbEllipse
 10
-18.55232248376353
 20
61.74534746493161
 30
0.0
 11
-1.773226531195667
 21
-0.1551375810809475
 31
0.0
210
0.0
220
0.0
230
1.0
 40
0.087155541067333
 41
4.502947147286867
 42
5.798385076600315
  0
ELLIPSE
  5
82BF
330
1F
100
AcDbEntity
  8
AM_0
100
AcDbEllipse
 10
-9.234381111793595
 20
60.35464831281131
 30
0.0
 11
0.965927168156212
 21
-0.2588140371342416
 31
0.0
210
0.0
220
0.0
230
1.0
 40
0.6666468841995516
 41
4.061945605316068
 42
5.089079676966744
  0
ELLIPSE
  5
82C0
330
1F
100
AcDbEntity
  8
AM_0
100
AcDbEllipse
 10
-7.13349623617114
 20
60.49929755526988
 30
0.0
 11
0.9999997808667879
 21
-0.0006620169003126
 31
0.0
210
0.0
220
0.0
230
1.0
 40
0.7074866730109218
 41
4.9089835337785
 42
5.936117605429168
  0
ELLIPSE
  5
82C1
330
1F
100
AcDbEntity
  8
AM_0
100
AcDbEllipse
 10
-4.463867344268123
 20
62.94827081701497
 30
0.0
 11
-1.010896008281515
 21
-0.1015958349035873
 31
0.0
210
0.0
220
0.0
230
1.0
 40
0.1114309024012698
 41
3.121460287019897
 42
3.41833169393791
  0
ELLIPSE
  5
82C2
330
1F
100
AcDbEntity
  8
AM_0
100
AcDbEllipse
 10
-15.19991459550635
 20
62.20907700401209
 30
0.0
 11
-1.010896008281515
 21
-0.1015958349035873
 31
0.0
210
0.0
220
0.0
230
1.0
 40
0.1114309024012696
 41
5.456585468089324
 42
6.008254907808501
  0
SPLINE
  5
82C3
330
1F
100
AcDbEntity
  8
AM_0
100
AcDbSpline
210
0.0
220
0.0
230
1.0
 70
     8
 71
     3
 72
    29
 73
    25
 74
     0
 42
0.0000000001
 43
0.0000000001
 40
-1.292418103154264
 40
-1.292418103154264
 40
-1.292418103154264
 40
-1.292418103154264
 40
-1.194466438221358
 40
-1.194466438221358
 40
-0.9810998941564053
 40
-0.9810998941564053
 40
-0.7677333500914525
 40
-0.7677333500914525
 40
-0.3838666750457262
 40
-0.3838666750457262
 40
0.0
 40
0.0
 40
0.0
 40
0.2715467947416099
 40
0.2715467947416099
 40
0.5430935894832199
 40
0.5430935894832199
 40
1.086187178966439
 40
1.086187178966439
 40
1.362238381885468
 40
1.362238381885468
 40
1.638289584804498
 40
1.638289584804498
 40
1.898437716639572
 40
1.898437716639572
 40
1.898437716639572
 40
1.898437716639572
 10
-18.56361124783359
 20
-25.95230097832137
 30
0.0
 10
-18.59757198187151
 20
-25.94509399976959
 30
0.0
 10
-18.63109422470768
 20
-25.93966469271896
 30
0.0
 10
-18.73254325611424
 20
-25.92767329552725
 30
0.0
 10
-18.80692673048747
 20
-25.92613604476054
 30
0.0
 10
-18.94970387934893
 20
-25.93896224494562
 30
0.0
 10
-19.01822809628572
 20
-25.95328295843882
 30
0.0
 10
-19.18524842700696
 20
-26.00537061138061
 30
0.0
 10
-19.28954180003268
 20
-26.0603977768356
 30
0.0
 10
-19.46681756195232
 20
-26.20593765133742
 30
0.0
 10
-19.53964466129275
 20
-26.29652869544071
 30
0.0
 10
-19.59083355286793
 20
-26.39098995801868
 30
0.0
 10
-19.62704450926833
 20
-26.45781173429617
 30
0.0
 10
-19.65578485622415
 20
-26.53189536671857
 30
0.0
 10
-19.69292992408611
 20
-26.68890040090866
 30
0.0
 10
-19.70134093673243
 20
-26.77181043548597
 30
0.0
 10
-19.692665296379
 20
-27.02321908886722
 30
0.0
 10
-19.64016116914638
 20
-27.19483013915743
 30
0.0
 10
-19.50245623768785
 20
-27.41690536738929
 30
0.0
 10
-19.44112694599607
 20
-27.49289324698992
 30
0.0
 10
-19.29740519479116
 20
-27.62520069219374
 30
0.0
 10
-19.21498069585084
 20
-27.6814770462604
 30
0.0
 10
-19.05587122777785
 20
-27.7623508445518
 30
0.0
 10
-18.96733510209105
 20
-27.79464929338542
 30
0.0
 10
-18.87617227164105
 20
-27.81399541714819
 30
0.0
  0
ELLIPSE
  5
82C4
330
1F
100
AcDbEntity
  8
AM_0
100
AcDbEllipse
 10
-18.87791196987359
 20
-27.04177128247738
 30
0.0
 11
-0.7084517966429549
 21
0.7057592024432762
 31
0.0
210
0.0
220
0.0
230
1.0
 40
0.9924038765061041
 41
5.290253909169387
 42
6.176869386713152
  0
ELLIPSE
  5
82C5
330
1F
100
AcDbEntity
  8
AM_0
100
AcDbEllipse
 10
-16.52730250454806
 20
-25.68462957992534
 30
0.0
 11
-0.3113880598659048
 21
-1.46732323506886
 31
0.0
210
0.0
220
0.0
230
0.9999999999999998
 40
0.067199437545718
 41
0.1034654345106585
 42
1.674261761305561
  0
ELLIPSE
  5
82C6
330
1F
100
AcDbEntity
  8
AM_0
100
AcDbEllipse
 10
-17.16111983091912
 20
-26.32086502971685
 30
0.0
 11
-1.062677694964432
 21
1.058638803664914
 31
0.0
210
0.0
220
0.0
230
1.0
 40
0.9924038765061041
 41
0.997428038120833
 42
2.148661255579626
  0
ELLIPSE
  5
82C7
330
1F
100
AcDbEntity
  8
AM_0
100
AcDbEllipse
 10
-17.10422712181014
 20
-26.26375526502005
 30
0.0
 11
-0.7946636757769558
 21
-1.471461871940656
 31
0.0
210
0.0
220
0.0
230
1.0
 40
0.8873147754201422
 41
4.971010734589278
 42
5.387240504419006
  0
ELLIPSE
  5
82C8
330
1F
100
AcDbEntity
  8
AM_0
100
AcDbEllipse
 10
-18.38135800772874
 20
-26.15633764546129
 30
0.0
 11
1.333102299443327
 21
1.338188316751506
 31
0.0
210
0.0
220
0.0
230
1.0
 40
0.9847491600446748
 41
1.989802403209446
 42
3.654871427184023
  0
ELLIPSE
  5
82C9
330
1F
100
AcDbEntity
  8
AM_0
100
AcDbEllipse
 10
-18.55232248376353
 20
-26.32795438072969
 30
0.0
 11
1.261044198024435
 21
-1.256251380349002
 31
0.0
210
0.0
220
0.0
230
1.0
 40
0.9924038765061039
 41
2.148661255579719
 42
3.444099184893166
  0
ELLIPSE
  5
82CA
330
1F
100
AcDbEntity
  8
AM_0
100
AcDbEllipse
 10
-16.52730250454806
 20
-25.68462957992534
 30
0.0
 11
1.469460246022808
 21
-0.3011421348111046
 31
0.0
210
0.0
220
0.0
230
1.0
 40
0.1030474720174958
 41
1.503185735912865
 42
3.073982062707731
  0
ELLIPSE
  5
82CB
330
1F
100
AcDbEntity
  8
AM_0
100
AcDbEllipse
 10
-16.52730250454806
 20
-25.68462957992534
 30
0.0
 11
-1.062677694964432
 21
1.058638803664914
 31
0.0
210
0.0
220
0.0
230
1.0
 40
0.9924038765061041
 41
0.5778649287847284
 42
2.148661255579626
  0
ELLIPSE
  5
82CC
330
1F
100
AcDbEntity
  8
AM_0
100
AcDbEllipse
 10
-15.58311842260343
 20
-18.59253856257527
 30
0.0
 11
0.9936501357365951
 21
-0.1125140335720219
 31
0.0
210
0.0
220
0.0
230
1.0
 40
0.8192156789232406
 41
2.472476180846545
 42
3.024145620565703
  0
ELLIPSE
  5
82CD
330
1F
100
AcDbEntity
  8
AM_0
100
AcDbEllipse
 10
-15.58311842260354
 20
57.34389689212723
 30
0.0
 11
0.9969124298633552
 21
-0.0785213804255943
 31
0.0
210
0.0
220
0.0
230
1.0
 40
0.5698439905699243
 41
3.396390686390992
 42
3.948060126110149
  0
ELLIPSE
  5
82CE
330
1F
100
AcDbEntity
  8
AM_0
100
AcDbEllipse
 10
-16.52730250454817
 20
56.63844504913673
 30
0.0
 11
-1.494292020670536
 21
-0.1307339166412645
 31
0.0
210
0.0
220
0.0
230
0.9999999999999998
 40
0.0871555410673329
 41
6.073743474081608
 42
6.283185307179587
  0
ELLIPSE
  5
82CF
330
1F
100
AcDbEntity
  8
AM_0
100
AcDbEllipse
 10
-16.52730250454817
 20
56.63844504913673
 30
0.0
 11
0.1030334412230382
 21
-1.496457186153261
 31
0.0
210
0.0
220
0.0
230
1.0
 40
0.2071227911845676
 41
0.0000000000000033
 42
0.0892056697548702
  0
ELLIPSE
  5
82D0
330
1F
100
AcDbEntity
  8
AM_0
100
AcDbEllipse
 10
-16.52730250454817
 20
56.63844504913673
 30
0.0
 11
0.6878605061926431
 21
-1.332984592566771
 31
0.0
210
0.0
220
0.0
230
1.0
 40
0.9744249899469814
 41
4.314088236181694
 42
5.88488456297656
  0
ELLIPSE
  5
82D1
330
1F
100
AcDbEntity
  8
AM_0
100
AcDbEllipse
 10
-12.4340377199145
 20
-27.90085693020358
 30
0.0
 11
-1.062677694964432
 21
1.058638803664914
 31
0.0
210
0.0
220
0.0
230
1.0
 40
0.9924038765061043
 41
1.248902397832574
 42
1.574043230237663
  0
ELLIPSE
  5
82D2
330
1F
100
AcDbEntity
  8
AM_0
100
AcDbEllipse
 10
-12.47341399765662
 20
-27.58822687137842
 30
0.0
 11
-1.027255105132284
 21
1.02335084354275
 31
0.0
210
0.0
220
0.0
230
1.0
 40
0.9924038765061039
 41
1.593122649245485
 42
2.704199861913797
  0
ELLIPSE
  5
82D3
330
1F
100
AcDbEntity
  8
AM_0
100
AcDbEllipse
 10
-12.4340377199145
 20
-27.90085693020358
 30
0.0
 11
-1.062677694964432
 21
1.058638803664914
 31
0.0
210
0.0
220
0.0
230
1.0
 40
0.9924038765061043
 41
2.723279280921609
 42
3.048420113326685
  0
SPLINE
  5
82D4
330
1F
100
AcDbEntity
  8
AM_0
100
AcDbSpline
210
0.0
220
0.0
230
1.0
 70
     8
 71
     3
 72
    28
 73
    24
 74
     0
 42
0.0000000001
 43
0.0000000001
 40
1.898437716641899
 40
1.898437716641899
 40
1.898437716641899
 40
1.898437716641899
 40
1.912022255837092
 40
1.912022255837092
 40
2.18575492686772
 40
2.18575492686772
 40
2.455339201718186
 40
2.455339201718186
 40
2.724923476568652
 40
2.724923476568652
 40
2.994953896074775
 40
2.994953896074775
 40
3.264984315580899
 40
3.264984315580899
 40
3.736349411309231
 40
3.736349411309231
 40
4.207714507037563
 40
4.207714507037563
 40
4.503668614916712
 40
4.503668614916712
 40
4.79962272279586
 40
4.79962272279586
 40
4.81774995146705
 40
4.81774995146705
 40
4.81774995146705
 40
4.81774995146705
 10
-6.188116429268234
 20
-30.50659170254749
 30
0.0
 10
-6.18335604511833
 20
-30.50760192766301
 30
0.0
 10
-6.178588813742294
 20
-30.50857857350428
 30
0.0
 10
-6.077644094264769
 20
-30.52851857115888
 30
0.0
 10
-5.979096771964009
 20
-30.53298643326485
 30
0.0
 10
-5.802046486072185
 20
-30.51793089624226
 30
0.0
 10
-5.709079282815196
 20
-30.4975695251972
 30
0.0
 10
-5.535994667132968
 20
-30.43141807532089
 30
0.0
 10
-5.455868816588804
 20
-30.38567865636724
 30
0.0
 10
-5.323294463755814
 20
-30.285204270088
 30
0.0
 10
-5.259693159053199
 20
-30.22197394601278
 30
0.0
 10
-5.155681560234256
 20
-30.08146295436387
 30
0.0
 10
-5.115235845831762
 20
-30.00424178861521
 30
0.0
 10
-5.040217377950057
 20
-29.80132655258819
 30
0.0
 10
-5.02202603684725
 20
-29.65506535363692
 30
0.0
 10
-5.056147309612924
 20
-29.36999354345323
 30
0.0
 10
-5.108295597237088
 20
-29.23134361071822
 30
0.0
 10
-5.230156508179447
 20
-29.04081366712233
 30
0.0
 10
-5.292217266810325
 20
-28.96642741473312
 30
0.0
 10
-5.438831008018837
 20
-28.83590369517878
 30
0.0
 10
-5.523428234873222
 20
-28.77968818584941
 30
0.0
 10
-5.615176080570222
 20
-28.73443282261149
 30
0.0
 10
-5.620549654225783
 20
-28.73183757931491
 30
0.0
 10
-5.625990838915981
 20
-28.72925655262111
 30
0.0
  0
ELLIPSE
  5
82D5
330
1F
100
AcDbEntity
  8
AM_0
100
AcDbEllipse
 10
-6.189856127501116
 20
-29.73436756787674
 30
0.0
 11
-0.7084517966429549
 21
0.7057592024432762
 31
0.0
210
0.0
220
0.0
230
1.0
 40
0.9924038765061041
 41
3.278401432945941
 42
5.022762346859257
  0
ELLIPSE
  5
82D6
330
1F
100
AcDbEntity
  8
AM_0
100
AcDbEllipse
 10
-6.76725954887695
 20
-27.75585749177099
 30
0.0
 11
0.311388059865905
 21
1.467323235068861
 31
0.0
210
0.0
220
0.0
230
1.0
 40
0.067199437545718
 41
3.245058088100448
 42
4.815854414895354
  0
ELLIPSE
  5
82D7
330
1F
100
AcDbEntity
  8
AM_0
100
AcDbEllipse
 10
-6.76725954887695
 20
-27.75585749177099
 30
0.0
 11
-1.062677694964432
 21
1.058638803664914
 31
0.0
210
0.0
220
0.0
230
1.0
 40
0.9924038765061039
 41
2.148661255579621
 42
3.141592653589817
  0
ELLIPSE
  5
82D8
330
1F
100
AcDbEntity
  8
AM_0
100
AcDbEllipse
 10
-6.76725954887695
 20
-27.75585749177099
 30
0.0
 11
1.469460246022808
 21
-0.3011421348111046
 31
0.0
210
0.0
220
0.0
230
1.0
 40
0.1030474720174958
 41
0.000000000000018
 42
1.503185735912866
  0
ELLIPSE
  5
82D9
330
1F
100
AcDbEntity
  8
AM_0
100
AcDbEllipse
 10
-7.401076875248008
 20
-28.39209294156251
 30
0.0
 11
-1.062677694964432
 21
1.058638803664914
 31
0.0
210
0.0
220
0.0
230
1.0
 40
0.9924038765061039
 41
2.148661255579603
 42
3.14159265358979
  0
ELLIPSE
  5
82DA
330
1F
100
AcDbEntity
  8
AM_0
100
AcDbEllipse
 10
-5.864266641390599
 20
-29.02055066612774
 30
0.0
 11
1.261044198024453
 21
-1.256251380349021
 31
0.0
210
0.0
220
0.0
230
1.0
 40
0.9924038765061039
 41
5.290253909169597
 42
8.226864619979316
  0
ELLIPSE
  5
82DB
330
1F
100
AcDbEntity
  8
AM_0
100
AcDbEllipse
 10
-5.163530379118924
 20
-20.09852006063852
 30
0.0
 11
-0.9727194326698171
 21
-0.2319847092084073
 31
0.0
210
0.0
220
0.0
230
1.0
 40
0.0649930168383742
 41
3.38579197877852
 42
4.607522455174549
  0
ELLIPSE
  5
82DC
330
1F
100
AcDbEntity
  8
AM_0
100
AcDbEllipse
 10
-4.8470711713652
 20
-20.87088926560557
 30
0.0
 11
0.9936501357365948
 21
-0.1125140335720242
 31
0.0
210
0.0
220
0.0
230
1.0
 40
0.819215678923239
 41
-0.0000000000000041
 42
0.4342224066950882
  0
ELLIPSE
  5
82DD
330
1F
100
AcDbEntity
  8
AM_0
100
AcDbEllipse
 10
-4.180737542251677
 20
-19.48211000449498
 30
0.0
 11
0.2495721553268963
 21
-1.208129480184969
 31
0.0
210
0.0
220
0.0
230
1.0
 40
0.0998000126923561
 41
5.008207416919878
 42
6.579003743714824
  0
ELLIPSE
  5
82DE
330
1F
100
AcDbEntity
  8
AM_0
100
AcDbEllipse
 10
-5.120952176108062
 20
-19.72249730278389
 30
0.0
 11
1.244871795863498
 21
-1.381710021297358
 31
0.0
210
0.0
220
0.0
230
0.9999999999999998
 40
0.0870452737867296
 41
4.844088818202271
 42
6.3472745541151
  0
ELLIPSE
  5
82DF
330
1F
100
AcDbEntity
  8
AM_0
100
AcDbEllipse
 10
-10.30586981943111
 20
-19.56893608516702
 30
0.0
 11
-3.188033084893296
 21
3.175916410994743
 31
0.0
210
0.0
220
0.0
230
0.9999999999999998
 40
0.9924038765061039
 41
3.187061855664585
 42
3.719457582374515
  0
ELLIPSE
  5
82E0
330
1F
100
AcDbEntity
  8
AM_0
100
AcDbEllipse
 10
-10.20602349065825
 20
-19.08172359019351
 30
0.0
 11
-3.010920135732557
 21
2.999476610383924
 31
0.0
210
0.0
220
0.0
230
1.0
 40
0.9924038765061039
 41
2.148661255579617
 42
3.141592653589798
  0
ELLIPSE
  5
82E1
330
1F
100
AcDbEntity
  8
AM_0
100
AcDbEllipse
 10
-9.819657000649272
 20
-18.30689780969782
 30
0.0
 11
3.188033084893296
 21
-3.175916410994743
 31
0.0
210
0.0
220
0.0
230
0.9999999999999998
 40
0.9924038765061039
 41
3.623754726579927
 42
3.719457582374524
  0
SPLINE
  5
82E2
330
1F
100
AcDbEntity
  8
AM_0
100
AcDbSpline
210
0.0
220
0.0
230
1.0
 70
     8
 71
     3
 72
    18
 73
    14
 74
     0
 42
0.0000000001
 43
0.0000000001
 40
1.668738724846723
 40
1.668738724846723
 40
1.668738724846723
 40
1.668738724846723
 40
1.747919255624235
 40
1.747919255624235
 40
2.447747847492926
 40
2.447747847492926
 40
3.147576439361617
 40
3.147576439361617
 40
3.847405031230308
 40
3.847405031230308
 40
4.547233623098999
 40
4.547233623098999
 40
4.626414153876513
 40
4.626414153876513
 40
4.626414153876513
 40
4.626414153876513
 10
-14.10570935516591
 20
-16.96010200287696
 30
0.0
 10
-14.09768990368149
 20
-16.93401036175373
 30
0.0
 10
-14.08943060054605
 20
-16.90796797577286
 30
0.0
 10
-14.00581125297537
 20
-16.65233031533546
 30
0.0
 10
-13.91164222897157
 20
-16.42738864995624
 30
0.0
 10
-13.68965419405197
 20
-16.00002534366859
 30
0.0
 10
-13.56179873122812
 20
-15.79758409323614
 30
0.0
 10
-13.28491843078688
 20
-15.42639730247617
 30
0.0
 10
-13.12655048491115
 20
-15.24512635544897
 30
0.0
 10
-12.77806046591638
 20
-14.90770459868207
 30
0.0
 10
-12.58796330699351
 20
-14.75155793096559
 30
0.0
 10
-12.36664270405253
 20
-14.598391926337
 30
0.0
 10
-12.34403874044721
 20
-14.58305889877061
 30
0.0
 10
-12.3213381519314
 20
-14.56796713666307
 30
0.0
  0
ELLIPSE
  5
82E3
330
1F
100
AcDbEntity
  8
AM_0
100
AcDbEllipse
 10
-14.92357333478992
 20
-18.02729214879275
 30
0.0
 11
-0.8015622388932023
 21
0.5979113455860467
 31
0.0
210
0.0
220
0.0
230
1.0
 40
0.1217924358094211
 41
4.694904303036574
 42
5.916634779432643
  0
ELLIPSE
  5
82E4
330
1F
100
AcDbEntity
  8
AM_0
100
AcDbEllipse
 10
-9.819657000649272
 20
-18.30689780969782
 30
0.0
 11
3.188033084893296
 21
-3.175916410994743
 31
0.0
210
0.0
220
0.0
230
0.9999999999999998
 40
0.9924038765061039
 41
2.731779694866146
 42
2.942495812171944
  0
ELLIPSE
  5
82E5
330
1F
100
AcDbEntity
  8
AM_0
100
AcDbEllipse
 10
-9.234381111793481
 20
-9.057209638917242
 30
0.0
 11
0.9605887212081697
 21
-0.2779735755205103
 31
0.0
210
0.0
220
0.0
230
1.0
 40
0.7199766937398962
 41
1.576272436764144
 42
2.60340650841482
  0
ELLIPSE
  5
82E6
330
1F
100
AcDbEntity
  8
AM_0
100
AcDbEllipse
 10
-17.04566650279696
 20
-13.56983381744663
 30
0.0
 11
-6.877995034706136
 21
-7.58219152351927
 31
0.0
210
0.0
220
0.0
230
1.0
 40
0.322846775598414
 41
1.860220958955333
 42
2.55835265975307
  0
ELLIPSE
  5
82E7
330
1F
100
AcDbEntity
  8
AM_0
100
AcDbEllipse
 10
-12.01439184351136
 20
-14.1272323042848
 30
0.0
 11
-0.8015622388932028
 21
0.5979113455860461
 31
0.0
210
0.0
220
0.0
230
1.0
 40
0.121792435809423
 41
4.694904303036608
 42
5.916634779432644
  0
ELLIPSE
  5
82E8
330
1F
100
AcDbEntity
  8
AM_0
100
AcDbEllipse
 10
-16.32345157623205
 20
-14.16301367235251
 30
0.0
 11
7.02318194235915
 21
8.604359543899978
 31
0.0
210
0.0
220
0.0
230
1.0
 40
0.3101848652351991
 41
4.974213096617743
 42
5.672344797415478
  0
SPLINE
  5
82E9
330
1F
100
AcDbEntity
  8
AM_0
100
AcDbSpline
210
0.0
220
0.0
230
1.0
 70
     8
 71
     3
 72
    18
 73
    14
 74
     0
 42
0.0000000001
 43
0.0000000001
 40
9.276068108291021
 40
9.276068108291021
 40
9.276068108291021
 40
9.276068108291021
 40
9.355248639068548
 40
9.355248639068548
 40
10.05507723093724
 40
10.05507723093724
 40
10.75490582280593
 40
10.75490582280593
 40
11.45473441467462
 40
11.45473441467462
 40
12.15456300654332
 40
12.15456300654332
 40
12.23374353732084
 40
12.23374353732084
 40
12.23374353732084
 40
12.23374353732084
 10
-6.057905930268361
 20
-15.89716165971833
 30
0.0
 10
-6.04302537302658
 20
-15.92022870619763
 30
0.0
 10
-6.028344831710114
 20
-15.94347406648887
 30
0.0
 10
-5.885938306174921
 20
-16.17382843844495
 30
0.0
 10
-5.774355900149998
 20
-16.39399604727737
 30
0.0
 10
-5.589550297696064
 20
-16.84459115598815
 30
0.0
 10
-5.51631803499572
 20
-17.07501115067532
 30
0.0
 10
-5.408313848452849
 20
-17.52787621845709
 30
0.0
 10
-5.369897408168867
 20
-17.76560286755398
 30
0.0
 10
-5.332173570805593
 20
-18.24808093935575
 30
0.0
 10
-5.332870739420172
 20
-18.492858738319
 30
0.0
 10
-5.356327699937651
 20
-18.76126376216598
 30
0.0
 10
-5.358969240960163
 20
-18.78849832176155
 30
0.0
 10
-5.361866667132403
 20
-18.81567693369424
 30
0.0
  0
ELLIPSE
  5
82EA
330
1F
100
AcDbEntity
  8
AM_0
100
AcDbEllipse
 10
-6.298330435210232
 20
-15.34026650797318
 30
0.0
 11
-0.9727194326698167
 21
-0.2319847092084079
 31
0.0
210
0.0
220
0.0
230
1.0
 40
0.0649930168383718
 41
3.385791978778516
 42
4.607522455174565
  0
ELLIPSE
  5
82EB
330
1F
100
AcDbEntity
  8
AM_0
100
AcDbEllipse
 10
-9.819657000649272
 20
-18.30689780969782
 30
0.0
 11
3.188033084893296
 21
-3.175916410994743
 31
0.0
210
0.0
220
0.0
230
0.9999999999999998
 40
0.9924038765061039
 41
0.5778649287847255
 42
0.6735677845793155
  0
ELLIPSE
  5
82EC
330
1F
100
AcDbEntity
  8
AM_0
100
AcDbEllipse
 10
-9.819657000649272
 20
-18.30689780969782
 30
0.0
 11
3.188033084893296
 21
-3.175916410994743
 31
0.0
210
0.0
220
0.0
230
0.9999999999999998
 40
0.9924038765061039
 41
1.354826698987309
 42
1.56554281629311
  0
ELLIPSE
  5
82ED
330
1F
100
AcDbEntity
  8
AM_0
100
AcDbEllipse
 10
-4.463867344268123
 20
-17.48668444491426
 30
0.0
 11
0.2512677507818118
 21
1.2884860329116
 31
0.0
210
0.0
220
0.0
230
1.0
 40
0.7599897213651689
 41
4.817280689672281
 42
5.251503096367408
  0
ELLIPSE
  5
82EE
330
1F
100
AcDbEntity
  8
AM_0
100
AcDbEllipse
 10
-7.417152541225163
 20
-11.85829255764218
 30
0.0
 11
1.948242440768129
 21
-1.940837806719006
 31
0.0
210
0.0
220
0.0
230
1.0
 40
0.9924038765061041
 41
0.7302093138728364
 42
1.298185169693765
  0
ELLIPSE
  5
82EF
330
1F
100
AcDbEntity
  8
AM_0
100
AcDbEllipse
 10
-7.133496236171026
 20
-9.503049008039567
 30
0.0
 11
0.9999997813374202
 21
-0.0006613056118494
 31
0.0
210
0.0
220
0.0
230
1.0
 40
0.7067265302889587
 41
0.348003432241782
 42
1.375137503892449
  0
ELLIPSE
  5
82F0
330
1F
100
AcDbEntity
  8
AM_0
100
AcDbEllipse
 10
-2.611893311740118
 20
-16.63289758082856
 30
0.0
 11
-2.848840575743114
 21
9.739549609663139
 31
0.0
210
0.0
220
0.0
230
1.0
 40
0.2228399876087216
 41
0.6498543392874078
 42
1.347986040085143
  0
ELLIPSE
  5
82F1
330
1F
100
AcDbEntity
  8
AM_0
100
AcDbEllipse
 10
-3.552107945596503
 20
-16.87328487911747
 30
0.0
 11
2.587080801636615
 21
-10.72346581152146
 31
0.0
210
0.0
220
0.0
230
1.0
 40
0.2040054291138853
 41
3.813596999544179
 42
4.511728700341915
  0
SPLINE
  5
82F2
330
1F
100
AcDbEntity
  8
AM_0
100
AcDbSpline
210
0.0
220
0.0
230
1.0
 70
     8
 71
     3
 72
    22
 73
    18
 74
     0
 42
0.0000000001
 43
0.0000000001
 40
9.15431167361735
 40
9.15431167361735
 40
9.15431167361735
 40
9.15431167361735
 40
9.593966598349517
 40
9.593966598349517
 40
10.27711070050388
 40
10.27711070050388
 40
10.96025480265826
 40
10.96025480265826
 40
11.64339890481262
 40
11.64339890481262
 40
12.32654300696703
 40
12.32654300696703
 40
13.00968710912143
 40
13.00968710912143
 40
13.69283121127583
 40
13.69283121127583
 40
14.13248613601277
 40
14.13248613601277
 40
14.13248613601277
 40
14.13248613601277
 10
-11.48791324784906
 20
-14.1333780192599
 30
0.0
 10
-11.3489683551154
 20
-14.07873450016609
 30
0.0
 10
-11.20455531025038
 20
-14.03012465815362
 30
0.0
 10
-10.82607305535725
 20
-13.92468279106714
 30
0.0
 10
-10.58658191447545
 20
-13.87835089064748
 30
0.0
 10
-10.10311866816437
 20
-13.82575273383264
 30
0.0
 10
-9.858877618642054
 20
-13.81945472833837
 30
0.0
 10
-9.380165743534803
 20
-13.84519238556083
 30
0.0
 10
-9.145694503892514
 20
-13.87723355809851
 30
0.0
 10
-8.701193451763174
 20
-13.97156336691153
 30
0.0
 10
-8.473500771081376
 20
-14.03760032947741
 30
0.0
 10
-8.023897135483935
 20
-14.20886518602503
 30
0.0
 10
-7.801984572738888
 20
-14.31408799926049
 30
0.0
 10
-7.378430875500839
 20
-14.55916879355231
 30
0.0
 10
-7.176560353592662
 20
-14.69916427714895
 30
0.0
 10
-6.870479550285267
 20
-14.94988072140802
 30
0.0
 10
-6.757060414723241
 20
-15.05320643004949
 30
0.0
 10
-6.65116044830529
 20
-15.15980971086344
 30
0.0
  0
ELLIPSE
  5
82F3
330
1F
100
AcDbEntity
  8
AM_0
100
AcDbEllipse
 10
-10.10617716188551
 20
-18.59451109522001
 30
0.0
 11
-3.188033084893296
 21
3.175916410994743
 31
0.0
210
0.0
220
0.0
230
0.9999999999999998
 40
0.9924038765061039
 41
3.719457582374515
 42
6.238111054046342
  0
ELLIPSE
  5
82F4
330
1F
100
AcDbEntity
  8
AM_0
100
AcDbEllipse
 10
-10.01934965819486
 20
-19.28132279964478
 30
0.0
 11
3.188033084893296
 21
-3.175916410994743
 31
0.0
210
0.0
220
0.0
230
0.9999999999999998
 40
0.9924038765061039
 41
3.719457582374512
 42
6.861050235964311
  0
ELLIPSE
  5
82F5
330
1F
100
AcDbEntity
  8
AM_0
100
AcDbEllipse
 10
-9.916396197337576
 20
-18.79099131833703
 30
0.0
 11
-3.010920135732557
 21
2.999476610383924
 31
0.0
210
0.0
220
0.0
230
1.0
 40
0.9924038765061039
 41
-0.0000000000000008
 42
3.141592653589796
  0
ELLIPSE
  5
82F6
330
1F
100
AcDbEntity
  8
AM_0
100
AcDbEllipse
 10
-10.20602349065825
 20
-19.08172359019351
 30
0.0
 11
-3.010920135732557
 21
2.999476610383924
 31
0.0
210
0.0
220
0.0
230
1.0
 40
0.9924038765061039
 41
-0.0000000000000055
 42
2.148661255579631
  0
ELLIPSE
  5
82F7
330
1F
100
AcDbEntity
  8
AM_0
100
AcDbEllipse
 10
-9.771902034239815
 20
-18.64594588485681
 30
0.0
 11
1.831905047471766
 21
-1.824942573908204
 31
0.0
210
0.0
220
0.0
230
0.9999999999999998
 40
0.9924038765061041
 41
0.0000000000000002
 42
6.283185307179586
  0
ELLIPSE
  5
82F8
330
1F
100
AcDbEntity
  8
AM_0
100
AcDbEllipse
 10
57.04124505201275
 20
-25.68462957992535
 30
0.0
 11
-1.4916820757588
 21
0.1577484860780499
 31
0.0
210
0.0
220
0.0
230
0.9999999999999998
 40
0.1996926575456117
 41
-0.0000000000000002
 42
0.0887253668429733
  0
ELLIPSE
  5
82F9
330
1F
100
AcDbEntity
  8
AM_0
100
AcDbEllipse
 10
57.04124505201275
 20
-25.68462957992535
 30
0.0
 11
-1.42678473740024
 21
-0.4629096165794405
 31
0.0
210
0.0
220
0.0
230
1.0
 40
0.9760042955671114
 41
5.873052084373776
 42
6.283185307179594
  0
ELLIPSE
  5
82FA
330
1F
100
AcDbEntity
  8
AM_0
100
AcDbEllipse
 10
57.71323942746994
 20
-27.75585749177101
 30
0.0
 11
-1.426784737400241
 21
-0.4629096165794391
 31
0.0
210
0.0
220
0.0
230
0.9999999999999998
 40
0.9760042955671114
 41
5.873052084373777
 42
6.283185307179575
  0
ELLIPSE
  5
82FB
330
1F
100
AcDbEntity
  8
AM_0
100
AcDbEllipse
 10
57.71323942746994
 20
-27.75585749177101
 30
0.0
 11
-0.1312288789884715
 21
-1.494248634370943
 31
0.0
210
0.0
220
0.0
230
0.9999999999999998
 40
0.0868242912837065
 41
-0.0000000000000715
 42
1.368979485506411
  0
ELLIPSE
  5
82FC
330
1F
100
AcDbEntity
  8
AM_0
100
AcDbEllipse
 10
57.71323942746994
 20
-27.75585749177101
 30
0.0
 11
-1.4916820757588
 21
0.1577484860780499
 31
0.0
210
0.0
220
0.0
230
0.9999999999999998
 40
0.1996926575456117
 41
0.0887253668429733
 42
1.659521693637901
  0
ELLIPSE
  5
82FD
330
1F
100
AcDbEntity
  8
AM_0
100
AcDbEllipse
 10
58.02220842968722
 20
-20.09852006063853
 30
0.0
 11
-0.9977658656276508
 21
0.066807764431274
 31
0.0
210
0.0
220
0.0
230
1.0
 40
0.2314942282963966
 41
4.972087305896172
 42
6.193817782292199
  0
ELLIPSE
  5
82FE
330
1F
100
AcDbEntity
  8
AM_0
100
AcDbEllipse
 10
58.48589070800608
 20
-20.87088926560558
 30
0.0
 11
-0.5710339798557988
 21
0.8209264241392448
 31
0.0
210
0.0
220
0.0
230
1.0
 40
0.0645251719693794
 41
1.229071505456463
 42
1.780740945175629
  0
ELLIPSE
  5
82FF
330
1F
100
AcDbEntity
  8
AM_0
100
AcDbEllipse
 10
58.32151570488884
 20
-19.48211000449499
 30
0.0
 11
-0.284993992024201
 21
-1.203341320947372
 31
0.0
210
0.0
220
0.0
230
1.0
 40
0.3870382680505455
 41
5.120229887634179
 42
6.691026214429125
  0
ELLIPSE
  5
8300
330
1F
100
AcDbEntity
  8
AM_0
100
AcDbEllipse
 10
58.5627839976745
 20
-19.7224973027839
 30
0.0
 11
1.371778385653487
 21
0.8704436867593589
 31
0.0
210
0.0
220
0.0
230
1.0
 40
0.7862158677374081
 41
2.67251575334231
 42
4.243312080137211
  0
ELLIPSE
  5
8301
330
1F
100
AcDbEntity
  8
AM_0
100
AcDbEllipse
 10
56.66149246511338
 20
-19.28132279964479
 30
0.0
 11
-0.393686636965455
 21
-4.482745903112825
 31
0.0
210
0.0
220
0.0
230
1.0
 40
0.0868242912837065
 41
5.694441796986411
 42
7.652164792686029
  0
SPLINE
  5
8302
330
1F
100
AcDbEntity
  8
AM_0
100
AcDbSpline
210
0.0
220
0.0
230
1.0
 70
     8
 71
     3
 72
    18
 73
    14
 74
     0
 42
0.0000000001
 43
0.0000000001
 40
9.276068108291021
 40
9.276068108291021
 40
9.276068108291021
 40
9.276068108291021
 40
9.355248639068548
 40
9.355248639068548
 40
10.05507723093724
 40
10.05507723093724
 40
10.75490582280593
 40
10.75490582280593
 40
11.45473441467462
 40
11.45473441467462
 40
12.15456300654332
 40
12.15456300654332
 40
12.23374353732084
 40
12.23374353732084
 40
12.23374353732084
 40
12.23374353732084
 10
57.30528069939168
 20
-15.89716165971835
 30
0.0
 10
57.30455677327928
 20
-15.92022870619764
 30
0.0
 10
57.3039268446123
 20
-15.94347406648888
 30
0.0
 10
57.29847706507325
 20
-16.17382843844497
 30
0.0
 10
57.2990967130537
 20
-16.39399604727738
 30
0.0
 10
57.29171485410131
 20
-16.84459115598817
 30
0.0
 10
57.28348398510457
 20
-17.07501115067533
 30
0.0
 10
57.25316133746776
 20
-17.52787621845711
 30
0.0
 10
57.23004634490042
 20
-17.76560286755399
 30
0.0
 10
57.17495209057995
 20
-18.24808093935577
 30
0.0
 10
57.14320092733373
 20
-18.49285873831901
 30
0.0
 10
57.11525509636885
 20
-18.76126376216599
 30
0.0
 10
57.11250502306086
 20
-18.78849832176156
 30
0.0
 10
57.10986463272741
 20
-18.81567693369426
 30
0.0
  0
ELLIPSE
  5
8303
330
1F
100
AcDbEntity
  8
AM_0
100
AcDbEllipse
 10
58.34080850752298
 20
-15.34026650797319
 30
0.0
 11
-0.997765865627651
 21
0.0668077644312714
 31
0.0
210
0.0
220
0.0
230
1.0
 40
0.2314942282963974
 41
4.972087305896177
 42
6.193817782292226
  0
ELLIPSE
  5
8304
330
1F
100
AcDbEntity
  8
AM_0
100
AcDbEllipse
 10
56.76453993713085
 20
-18.30689780969784
 30
0.0
 11
-0.393686636965455
 21
-4.482745903112825
 31
0.0
210
0.0
220
0.0
230
1.0
 40
0.0868242912837065
 41
1.368979485506443
 42
1.464682341301033
  0
ELLIPSE
  5
8305
330
1F
100
AcDbEntity
  8
AM_0
100
AcDbEllipse
 10
57.94724864988791
 20
-14.12723230428481
 30
0.0
 11
-0.9884847300923945
 21
0.1513206475474047
 31
0.0
210
0.0
220
0.0
230
1.0
 40
0.5934602493916601
 41
-0.0000000000000102
 42
0.1080849056507065
  0
ELLIPSE
  5
8306
330
1F
100
AcDbEntity
  8
AM_0
100
AcDbEllipse
 10
56.76453993713085
 20
-18.30689780969784
 30
0.0
 11
-0.393686636965455
 21
-4.482745903112825
 31
0.0
210
0.0
220
0.0
230
1.0
 40
0.0868242912837065
 41
2.145941255709027
 42
2.356657373014826
  0
ELLIPSE
  5
8307
330
1F
100
AcDbEntity
  8
AM_0
100
AcDbEllipse
 10
56.76453993713085
 20
-18.30689780969784
 30
0.0
 11
-0.393686636965455
 21
-4.482745903112825
 31
0.0
210
0.0
220
0.0
230
1.0
 40
0.0868242912837065
 41
3.522894251587865
 42
3.729054570931622
  0
ELLIPSE
  5
8308
330
1F
100
AcDbEntity
  8
AM_0
100
AcDbEllipse
 10
56.67750160169487
 20
-18.79099131833704
 30
0.0
 11
-0.3718151571340027
 21
-4.233704464051006
 31
0.0
210
0.0
220
0.0
230
0.9999999999999998
 40
0.0868242912837064
 41
2.939775812301252
 42
3.141592653589735
  0
SPLINE
  5
8309
330
1F
100
AcDbEntity
  8
AM_0
100
AcDbSpline
210
0.0
220
0.0
230
1.0
 70
     8
 71
     3
 72
    22
 73
    18
 74
     0
 42
0.0000000001
 43
0.0000000001
 40
9.15431167361735
 40
9.15431167361735
 40
9.15431167361735
 40
9.15431167361735
 40
9.593966598349517
 40
9.593966598349517
 40
10.27711070050388
 40
10.27711070050388
 40
10.96025480265826
 40
10.96025480265826
 40
11.64339890481262
 40
11.64339890481262
 40
12.32654300696703
 40
12.32654300696703
 40
13.00968710912143
 40
13.00968710912143
 40
13.69283121127583
 40
13.69283121127583
 40
14.13248613601277
 40
14.13248613601277
 40
14.13248613601277
 40
14.13248613601277
 10
56.98511566676097
 20
-14.13337801925992
 30
0.0
 10
57.00207073687898
 20
-14.0787345001661
 30
0.0
 10
57.02001777258442
 20
-14.03012465815363
 30
0.0
 10
57.06668262408221
 20
-13.92468279106715
 30
0.0
 10
57.09582608768915
 20
-13.87835089064749
 30
0.0
 10
57.15074241476111
 20
-13.82575273383265
 30
0.0
 10
57.17650600774982
 20
-13.81945472833838
 30
0.0
 10
57.22135274810739
 20
-13.84519238556085
 30
0.0
 10
57.24042831307383
 20
-13.87723355809852
 30
0.0
 10
57.27103291269213
 20
-13.97156336691155
 30
0.0
 10
57.28377806372122
 20
-14.03760032947742
 30
0.0
 10
57.30284731273752
 20
-14.20886518602505
 30
0.0
 10
57.30917913233724
 20
-14.3140879992605
 30
0.0
 10
57.31671235464512
 20
-14.55916879355233
 30
0.0
 10
57.31795733874117
 20
-14.69916427714896
 30
0.0
 10
57.31842573520601
 20
-14.94988072140803
 30
0.0
 10
57.31823085242115
 20
-15.05320643004951
 30
0.0
 10
57.3181337376376
 20
-15.15980971086345
 30
0.0
  0
ELLIPSE
  5
830A
330
1F
100
AcDbEntity
  8
AM_0
100
AcDbEllipse
 10
56.67750160169487
 20
-18.79099131833704
 30
0.0
 11
-0.3718151571340027
 21
-4.233704464051006
 31
0.0
210
0.0
220
0.0
230
0.9999999999999998
 40
0.0868242912837064
 41
-0.0000000000000515
 42
2.939775812301267
  0
ELLIPSE
  5
830B
330
1F
100
AcDbEntity
  8
AM_0
100
AcDbEllipse
 10
55.02592961106177
 20
-18.64594588485682
 30
0.0
 11
-0.2262199036756045
 21
-2.575871902132603
 31
0.0
210
0.0
220
0.0
230
0.9999999999999998
 40
0.0868242912837065
 41
0.7911145567217201
 42
7.074299863901302
  0
ELLIPSE
  5
830C
330
1F
100
AcDbEntity
  8
AM_0
100
AcDbEllipse
 10
-8.360056702455267
 20
-5.692684259730867
 30
0.0
 11
-1.204368054293023
 21
1.199790644153569
 31
0.0
210
0.0
220
0.0
230
0.9999999999999998
 40
0.9924038765061041
 41
5.536353767764424
 42
6.108752210069733
  0
ELLIPSE
  5
830D
330
1F
100
AcDbEntity
  8
AM_0
100
AcDbEllipse
 10
-8.881002450157666
 20
-6.21561750613506
 30
0.0
 11
-1.062677694964444
 21
1.058638803664902
 31
0.0
210
0.0
220
0.0
230
0.9999999999999998
 40
0.9924038765061041
 41
5.650567961104641
 42
5.86906763246964
  0
ELLIPSE
  5
830E
330
1F
100
AcDbEntity
  8
AM_0
100
AcDbEllipse
 10
-8.360056702455381
 20
-5.692684259731038
 30
0.0
 11
1.062677694964432
 21
-1.058638803664914
 31
0.0
210
0.0
220
0.0
230
1.0
 40
0.9924038765061041
 41
2.59157648136483
 42
3.137722123276179
  0
ELLIPSE
  5
830F
330
1F
100
AcDbEntity
  8
AM_0
100
AcDbEllipse
 10
-7.788013558307284
 20
-5.431916711832627
 30
0.0
 11
-1.062677694964432
 21
1.058638803664914
 31
0.0
210
0.0
220
0.0
230
1.0
 40
0.9924038765061039
 41
0.0000000000000114
 42
0.3578954917339194
  0
ELLIPSE
  5
8310
330
1F
100
AcDbEntity
  8
AM_0
100
AcDbEllipse
 10
-7.256543306096659
 20
-4.898418808103656
 30
0.0
 11
-1.784913269234993
 21
-0.2566329734245158
 31
0.0
210
0.0
220
0.0
230
1.0
 40
0.7196639349134795
 41
5.585287312618279
 42
5.66099947431815
  0
ELLIPSE
  5
8311
330
1F
100
AcDbEntity
  8
AM_0
100
AcDbEllipse
 10
-14.46765100633808
 20
-1.03545157350976
 30
0.0
 11
0.566761437314364
 21
-0.564607361954621
 31
0.0
210
0.0
220
0.0
230
1.0
 40
0.9924038765061039
 41
2.37555405833891
 42
4.469949160069534
  0
ELLIPSE
  5
8312
330
1F
100
AcDbEntity
  8
AM_0
100
AcDbEllipse
 10
-14.8809346328486
 20
-1.450311948990247
 30
0.0
 11
-0.566761437314364
 21
0.564607361954621
 31
0.0
210
0.0
220
0.0
230
1.0
 40
0.9924038765061039
 41
-0.0000000000000425
 42
0.612734985565636
  0
SPLINE
  5
8313
330
1F
100
AcDbEntity
  8
AM_0
100
AcDbSpline
210
0.0
220
0.0
230
1.0
 70
     8
 71
     3
 72
    14
 73
    10
 74
     0
 42
0.0000000001
 43
0.0000000001
 40
-2.939477701641874
 40
-2.939477701641874
 40
-2.939477701641874
 40
-2.939477701641874
 40
-2.718451941802024
 40
-2.718451941802024
 40
-2.212019067573048
 40
-2.212019067573048
 40
-1.95880263045856
 40
-1.95880263045856
 40
-1.795693929180012
 40
-1.795693929180012
 40
-1.795693929180012
 40
-1.795693929180012
 10
-6.190337870839925
 20
-4.811269224287912
 30
0.0
 10
-6.212856575889077
 20
-4.734990878313283
 30
0.0
 10
-6.241726303355676
 20
-4.660888939366657
 30
0.0
 10
-6.34537808180994
 20
-4.443309941639654
 30
0.0
 10
-6.450911144924475
 20
-4.293629951394393
 30
0.0
 10
-6.645484883635504
 20
-4.109190923002813
 30
0.0
 10
-6.71620066748062
 20
-4.054060896207261
 30
0.0
 10
-6.837504210342217
 20
-3.976547748786742
 30
0.0
 10
-6.886287441829608
 20
-3.949462530755852
 30
0.0
 10
-6.935395096699608
 20
-3.925799168901107
 30
0.0
  0
ELLIPSE
  5
8314
330
1F
100
AcDbEntity
  8
AM_0
100
AcDbEllipse
 10
-7.256543306096659
 20
-4.898418808103656
 30
0.0
 11
-0.6893252456585796
 21
1.382044036972249
 31
0.0
210
0.0
220
0.0
230
1.0
 40
0.6654317982006855
 41
4.376101789371176
 42
4.451813951070997
  0
ELLIPSE
  5
8315
330
1F
100
AcDbEntity
  8
AM_0
100
AcDbEllipse
 10
-7.505083629549858
 20
-5.147907356150994
 30
0.0
 11
1.328139350088333
 21
-0.7233175043919938
 31
0.0
210
0.0
220
0.0
230
1.0
 40
0.8912247026332559
 41
1.6265044370262
 42
2.160372931937228
  0
ELLIPSE
  5
8316
330
1F
100
AcDbEntity
  8
AM_0
100
AcDbEllipse
 10
-7.533489449434341
 20
-4.86296350876978
 30
0.0
 11
1.349600672604829
 21
-1.34447128065444
 31
0.0
210
0.0
220
0.0
230
1.0
 40
0.9924038765061039
 41
0.2153784889095412
 42
0.7873044390240679
  0
ELLIPSE
  5
8317
330
1F
100
AcDbEntity
  8
AM_0
100
AcDbEllipse
 10
-7.946773075944861
 20
-5.277823884250324
 30
0.0
 11
-1.349600672604829
 21
1.34447128065444
 31
0.0
210
0.0
220
0.0
230
1.0
 40
0.9924038765061039
 41
3.873956102251663
 42
3.928897092613838
  0
ELLIPSE
  5
8318
330
1F
100
AcDbEntity
  8
AM_0
100
AcDbEllipse
 10
-0.7972836773641348
 20
-0.7968344246709194
 30
0.0
 11
0.5667614373143641
 21
-0.5646073619546212
 31
0.0
210
0.0
220
0.0
230
0.9999999999999998
 40
0.9924038765061041
 41
0.2811589552831191
 42
2.375554058338873
  0
ELLIPSE
  5
8319
330
1F
100
AcDbEntity
  8
AM_0
100
AcDbEllipse
 10
-7.946773075944861
 20
-5.277823884250324
 30
0.0
 11
1.204368054293023
 21
-1.199790644153569
 31
0.0
210
0.0
220
0.0
230
0.9999999999999998
 40
0.9924038765061041
 41
1.714276649016686
 42
3.337660461275908
  0
SPLINE
  5
831A
330
1F
100
AcDbEntity
  8
AM_0
100
AcDbSpline
210
0.0
220
0.0
230
1.0
 70
     8
 71
     3
 72
    14
 73
    10
 74
     0
 42
0.0000000001
 43
0.0000000001
 40
1.795693929180001
 40
1.795693929180001
 40
1.795693929180001
 40
1.795693929180001
 40
1.95880263045855
 40
1.95880263045855
 40
2.212019067573022
 40
2.212019067573022
 40
2.718451941801968
 40
2.718451941801968
 40
2.93947770164182
 40
2.93947770164182
 40
2.93947770164182
 40
2.93947770164182
 10
-7.707733173825886
 20
-3.761897412526593
 30
0.0
 10
-7.760459820254595
 20
-3.763950003999354
 30
0.0
 10
-7.814531927369671
 20
-3.769207772175434
 30
0.0
 10
-7.95365631900961
 20
-3.791454194908965
 30
0.0
 10
-8.039325318876876
 20
-3.813397018483783
 30
0.0
 10
-8.289598223168582
 20
-3.903432898481128
 30
0.0
 10
-8.447323334646966
 20
-3.99724554452365
 30
0.0
 10
-8.63262220401441
 20
-4.153504868799132
 30
0.0
 10
-8.690052438170937
 20
-4.20929265788834
 30
0.0
 10
-8.742817347222057
 20
-4.269594688642087
 30
0.0
  0
ELLIPSE
  5
831B
330
1F
100
AcDbEntity
  8
AM_0
100
AcDbEllipse
 10
-7.533489449434341
 20
-4.86296350876978
 30
0.0
 11
1.349600672604829
 21
-1.34447128065444
 31
0.0
210
0.0
220
0.0
230
1.0
 40
0.9924038765061039
 41
0.7873044390240527
 42
4.081944022250279
  0
ELLIPSE
  5
831C
330
1F
100
AcDbEntity
  8
AM_0
100
AcDbEllipse
 10
-7.946773075944861
 20
-5.277823884250324
 30
0.0
 11
-1.349600672604829
 21
1.34447128065444
 31
0.0
210
0.0
220
0.0
230
1.0
 40
0.9924038765061039
 41
3.928897092613823
 42
6.127685499674785
  0
ELLIPSE
  5
831D
330
1F
100
AcDbEntity
  8
AM_0
100
AcDbEllipse
 10
-10.01934965819498
 20
56.25869246223742
 30
0.0
 11
-4.482876062011611
 21
-0.3922017499237531
 31
0.0
210
0.0
220
0.0
230
1.0
 40
0.0871555410673329
 41
6.073743474081654
 42
6.689770325315382
  0
ELLIPSE
  5
831E
330
1F
100
AcDbEntity
  8
AM_0
100
AcDbEllipse
 10
-9.819657000649272
 20
56.36173993425488
 30
0.0
 11
-4.482876062011611
 21
-0.3922017499237531
 31
0.0
210
0.0
220
0.0
230
1.0
 40
0.0871555410673329
 41
5.978040618287069
 42
6.073743474081666
  0
ELLIPSE
  5
831F
330
1F
100
AcDbEntity
  8
AM_0
100
AcDbEllipse
 10
-12.01439184351147
 20
57.54444864701189
 30
0.0
 11
0.2010344298651136
 21
-0.9795841760710555
 31
0.0
210
0.0
220
0.0
230
1.0
 40
0.7955950822947541
 41
4.917092239544529
 42
6.138822715940565
  0
SPLINE
  5
8320
330
1F
100
AcDbEntity
  8
AM_0
100
AcDbSpline
210
0.0
220
0.0
230
1.0
 70
     8
 71
     3
 72
    18
 73
    14
 74
     0
 42
0.0000000001
 43
0.0000000001
 40
1.668738724846723
 40
1.668738724846723
 40
1.668738724846723
 40
1.668738724846723
 40
1.747919255624235
 40
1.747919255624235
 40
2.447747847492926
 40
2.447747847492926
 40
3.147576439361617
 40
3.147576439361617
 40
3.847405031230308
 40
3.847405031230308
 40
4.547233623098999
 40
4.547233623098999
 40
4.626414153876513
 40
4.626414153876513
 40
4.626414153876513
 40
4.626414153876513
 10
-14.10570935516591
 20
56.10503724811467
 30
0.0
 10
-14.09768990368149
 20
56.10803029798216
 30
0.0
 10
-14.08943060054616
 20
56.11116716308593
 30
0.0
 10
-14.00581125297549
 20
56.14325526943814
 30
0.0
 10
-13.91164222897157
 20
56.1814421175856
 30
0.0
 10
-13.68965419405197
 20
56.25441794458014
 30
0.0
 10
-13.56179873122812
 20
56.28898102033644
 30
0.0
 10
-13.28491843078688
 20
56.34580357290495
 30
0.0
 10
-13.12655048491126
 20
56.36998048212142
 30
0.0
 10
-12.77806046591649
 20
56.4140805870587
 30
0.0
 10
-12.58796330699363
 20
56.43423205368872
 30
0.0
 10
-12.36664270405265
 20
56.46472502060383
 30
0.0
 10
-12.34403874044721
 20
56.46792204633304
 30
0.0
 10
-12.3213381519314
 20
56.47123349369791
 30
0.0
  0
ELLIPSE
  5
8321
330
1F
100
AcDbEntity
  8
AM_0
100
AcDbEllipse
 10
-14.92357333479003
 20
56.94741405135413
 30
0.0
 11
0.2010344298651101
 21
-0.9795841760710562
 31
0.0
210
0.0
220
0.0
230
1.0
 40
0.7955950822947538
 41
4.917092239544539
 42
6.138822715940608
  0
ELLIPSE
  5
8322
330
1F
100
AcDbEntity
  8
AM_0
100
AcDbEllipse
 10
-17.04566650279707
 20
65.87747067827741
 30
0.0
 11
5.575015889647232
 21
-8.160041890675492
 31
0.0
210
0.0
220
0.0
230
1.0
 40
0.5776458464246081
 41
6.045605172161495
 42
6.743736872959233
  0
ELLIPSE
  5
8323
330
1F
100
AcDbEntity
  8
AM_0
100
AcDbEllipse
 10
-16.32345157623205
 20
66.23319987244129
 30
0.0
 11
-5.42261111372858
 21
9.285736249832217
 31
0.0
210
0.0
220
0.0
230
0.9999999999999998
 40
0.560036213803973
 41
2.960262367015181
 42
3.658394067812916
  0
ELLIPSE
  5
8324
330
1F
100
AcDbEntity
  8
AM_0
100
AcDbEllipse
 10
-9.819657000649272
 20
56.36173993425488
 30
0.0
 11
-4.482876062011611
 21
-0.3922017499237531
 31
0.0
210
0.0
220
0.0
230
1.0
 40
0.0871555410673329
 41
5.086065586573288
 42
5.296781703879085
  0
ELLIPSE
  5
8325
330
1F
100
AcDbEntity
  8
AM_0
100
AcDbEllipse
 10
-9.916396197337576
 20
56.27470159881885
 30
0.0
 11
-4.233827391899852
 21
-0.3704127638169159
 31
0.0
210
0.0
220
0.0
230
0.9999999999999998
 40
0.0871555410673329
 41
4.502947147286682
 42
6.283185307179597
  0
SPLINE
  5
8326
330
1F
100
AcDbEntity
  8
AM_0
100
AcDbSpline
210
0.0
220
0.0
230
1.0
 70
     8
 71
     3
 72
    18
 73
    14
 74
     0
 42
0.0000000001
 43
0.0000000001
 40
9.276068108291021
 40
9.276068108291021
 40
9.276068108291021
 40
9.276068108291021
 40
9.355248639068548
 40
9.355248639068548
 40
10.05507723093724
 40
10.05507723093724
 40
10.75490582280593
 40
10.75490582280593
 40
11.45473441467462
 40
11.45473441467462
 40
12.15456300654332
 40
12.15456300654332
 40
12.23374353732084
 40
12.23374353732084
 40
12.23374353732084
 40
12.23374353732084
 10
-6.057905930268475
 20
56.90248069651572
 30
0.0
 10
-6.04302537302658
 20
56.90175677040331
 30
0.0
 10
-6.028344831710114
 20
56.90112684173634
 30
0.0
 10
-5.885938306175034
 20
56.8956770621973
 30
0.0
 10
-5.774355900150112
 20
56.89629671017773
 30
0.0
 10
-5.589550297696064
 20
56.88891485122529
 30
0.0
 10
-5.516318034995833
 20
56.8806839822286
 30
0.0
 10
-5.408313848452849
 20
56.85036133459179
 30
0.0
 10
-5.369897408168867
 20
56.82724634202445
 30
0.0
 10
-5.332173570805707
 20
56.77215208770398
 30
0.0
 10
-5.332870739420172
 20
56.74040092445777
 30
0.0
 10
-5.356327699937651
 20
56.71245509349283
 30
0.0
 10
-5.358969240960163
 20
56.7097050201849
 30
0.0
 10
-5.361866667132403
 20
56.70706462985144
 30
0.0
  0
ELLIPSE
  5
8327
330
1F
100
AcDbEntity
  8
AM_0
100
AcDbEllipse
 10
-5.163530379118924
 20
57.61940842681132
 30
0.0
 11
-0.2703033492712617
 21
-0.9627752070824936
 31
0.0
210
0.0
220
0.0
230
1.0
 40
0.9706628302493626
 41
0.37092362484354
 42
1.592654101239566
  0
ELLIPSE
  5
8328
330
1F
100
AcDbEntity
  8
AM_0
100
AcDbEllipse
 10
-6.298330435210345
 20
57.93800850464696
 30
0.0
 11
-0.2703033492712512
 21
-0.9627752070824964
 31
0.0
210
0.0
220
0.0
230
1.0
 40
0.9706628302493626
 41
0.3709236248435015
 42
1.59265410123955
  0
ELLIPSE
  5
8329
330
1F
100
AcDbEntity
  8
AM_0
100
AcDbEllipse
 10
-2.611893311740118
 20
66.87125876354183
 30
0.0
 11
2.756665324237286
 21
9.171483501594455
 31
0.0
210
0.0
220
0.0
230
1.0
 40
0.2492832816964878
 41
2.44801603451581
 42
3.146147735313545
  0
ELLIPSE
  5
832A
330
1F
100
AcDbEntity
  8
AM_0
100
AcDbEllipse
 10
-3.552107945596503
 20
67.11252705632744
 30
0.0
 11
-2.618587296369494
 21
-10.17942304136144
 31
0.0
210
0.0
220
0.0
230
0.9999999999999998
 40
0.211193934498782
 41
5.56584441265906
 42
6.263976113456795
  0
ELLIPSE
  5
832B
330
1F
100
AcDbEntity
  8
AM_0
100
AcDbEllipse
 10
-4.847071171365314
 20
58.08309070513011
 30
0.0
 11
0.996912429863355
 21
-0.0785213804255965
 31
0.0
210
0.0
220
0.0
230
1.0
 40
0.5698439905699267
 41
5.986313900261614
 42
6.283185307179588
  0
ELLIPSE
  5
832C
330
1F
100
AcDbEntity
  8
AM_0
100
AcDbEllipse
 10
-4.180737542251677
 20
57.91871570201293
 30
0.0
 11
-0.0048281826796593
 21
-0.5460114627942607
 31
0.0
210
0.0
220
0.0
230
0.9999999999999998
 40
0.5075513317517994
 41
6.146377866616313
 42
7.717174193411258
  0
ELLIPSE
  5
832D
330
1F
100
AcDbEntity
  8
AM_0
100
AcDbEllipse
 10
-5.120952176108062
 20
58.15998399479854
 30
0.0
 11
-0.1538390153085675
 21
1.527907983426168
 31
0.0
210
0.0
220
0.0
230
1.0
 40
0.8123333639317996
 41
3.053660222116182
 42
3.451960966319159
  0
ELLIPSE
  5
832E
330
1F
100
AcDbEntity
  8
AM_0
100
AcDbEllipse
 10
-9.819657000649272
 20
56.36173993425488
 30
0.0
 11
-4.482876062011611
 21
-0.3922017499237531
 31
0.0
210
0.0
220
0.0
230
1.0
 40
0.0871555410673329
 41
2.932150820491866
 42
3.027853676286456
  0
ELLIPSE
  5
832F
330
1F
100
AcDbEntity
  8
AM_0
100
AcDbEllipse
 10
-10.01934965819498
 20
56.25869246223742
 30
0.0
 11
-4.482876062011611
 21
-0.3922017499237531
 31
0.0
210
0.0
220
0.0
230
1.0
 40
0.0871555410673329
 41
2.881159633534286
 42
2.932150820491866
  0
ELLIPSE
  5
8330
330
1F
100
AcDbEntity
  8
AM_0
100
AcDbEllipse
 10
-9.819657000649272
 20
56.36173993425488
 30
0.0
 11
-4.482876062011611
 21
-0.3922017499237531
 31
0.0
210
0.0
220
0.0
230
1.0
 40
0.0871555410673329
 41
3.709112590694451
 42
3.919828708000252
  0
SPLINE
  5
8331
330
1F
100
AcDbEntity
  8
AM_0
100
AcDbSpline
210
0.0
220
0.0
230
1.0
 70
     8
 71
     3
 72
    22
 73
    18
 74
     0
 42
0.0000000001
 43
0.0000000001
 40
9.15431167361735
 40
9.15431167361735
 40
9.15431167361735
 40
9.15431167361735
 40
9.593966598349517
 40
9.593966598349517
 40
10.27711070050388
 40
10.27711070050388
 40
10.96025480265826
 40
10.96025480265826
 40
11.64339890481262
 40
11.64339890481262
 40
12.32654300696703
 40
12.32654300696703
 40
13.00968710912143
 40
13.00968710912143
 40
13.69283121127583
 40
13.69283121127583
 40
14.13248613601277
 40
14.13248613601277
 40
14.13248613601277
 40
14.13248613601277
 10
-11.48791324784917
 20
56.58231566388501
 30
0.0
 10
-11.34896835511551
 20
56.59927073400301
 30
0.0
 10
-11.20455531025049
 20
56.61721776970846
 30
0.0
 10
-10.82607305535737
 20
56.66388262120624
 30
0.0
 10
-10.58658191447557
 20
56.69302608481318
 30
0.0
 10
-10.10311866816448
 20
56.74794241188509
 30
0.0
 10
-9.858877618642168
 20
56.7737060048738
 30
0.0
 10
-9.380165743534803
 20
56.81855274523143
 30
0.0
 10
-9.145694503892514
 20
56.83762831019787
 30
0.0
 10
-8.701193451763288
 20
56.86823290981617
 30
0.0
 10
-8.473500771081376
 20
56.88097806084527
 30
0.0
 10
-8.023897135483935
 20
56.90004730986156
 30
0.0
 10
-7.801984572738888
 20
56.90637912946122
 30
0.0
 10
-7.378430875500839
 20
56.91391235176915
 30
0.0
 10
-7.176560353592662
 20
56.91515733586514
 30
0.0
 10
-6.870479550285381
 20
56.91562573233004
 30
0.0
 10
-6.757060414723241
 20
56.91543084954519
 30
0.0
 10
-6.651160448305404
 20
56.91533373476163
 30
0.0
  0
ELLIPSE
  5
8332
330
1F
100
AcDbEntity
  8
AM_0
100
AcDbEllipse
 10
-9.916396197337576
 20
56.27470159881885
 30
0.0
 11
-4.233827391899852
 21
-0.3704127638169159
 31
0.0
210
0.0
220
0.0
230
0.9999999999999998
 40
0.0871555410673329
 41
3.141592653589799
 42
4.502947147286695
  0
ELLIPSE
  5
8333
330
1F
100
AcDbEntity
  8
AM_0
100
AcDbEllipse
 10
-9.771902034239815
 20
54.6231296081858
 30
0.0
 11
-2.575946693935985
 21
-0.2253666590591955
 31
0.0
210
0.0
220
0.0
230
1.0
 40
0.0871555410673329
 41
2.354285891707143
 42
8.637471198886725
  0
ELLIPSE
  5
8334
330
1F
100
AcDbEntity
  8
AM_0
100
AcDbEllipse
 10
63.02174015590208
 20
-29.02055066612776
 30
0.0
 11
-0.1557249363996679
 21
-1.773175046120172
 31
0.0
210
0.0
220
0.0
230
1.0
 40
0.0868242912837062
 41
6.081368465891326
 42
9.222961119480942
  0
ELLIPSE
  5
8335
330
1F
100
AcDbEntity
  8
AM_0
100
AcDbEllipse
 10
63.46187779872366
 20
-19.38189585897971
 30
0.0
 11
-0.3718151571340409
 21
-4.233704464051004
 31
0.0
210
0.0
220
0.0
230
1.0
 40
0.0868242912837064
 41
5.454553547405529
 42
5.720655745527627
  0
ELLIPSE
  5
8336
330
1F
100
AcDbEntity
  8
AM_0
100
AcDbEllipse
 10
63.35107081989099
 20
-17.48668444491427
 30
0.0
 11
0.124138569824709
 21
1.30253341276897
 31
0.0
210
0.0
220
0.0
230
1.0
 40
0.0669305983410291
 41
4.559077802593064
 42
5.110747242312238
  0
ELLIPSE
  5
8337
330
1F
100
AcDbEntity
  8
AM_0
100
AcDbEllipse
 10
60.9020975581459
 20
-9.503049008039582
 30
0.0
 11
-0.7074867504445254
 21
0.706726607639366
 31
0.0
210
0.0
220
0.0
230
1.0
 40
0.0004678650094753
 41
0.1961261851911458
 42
1.223260256841813
  0
ELLIPSE
  5
8338
330
1F
100
AcDbEntity
  8
AM_0
100
AcDbEllipse
 10
60.75744831568727
 20
-9.057209638917257
 30
0.0
 11
-0.6794090177541604
 21
0.7337597608170745
 31
0.0
210
0.0
220
0.0
230
1.0
 40
0.1929131728482977
 41
-0.0000000000000007
 42
0.1999310978324316
  0
ELLIPSE
  5
8339
330
1F
100
AcDbEntity
  8
AM_0
100
AcDbEllipse
 10
64.32136356356636
 20
-12.75660452836673
 30
0.0
 11
-0.0699887354605254
 21
-0.796932604997836
 31
0.0
210
0.0
220
0.0
230
1.0
 40
0.0868242912837064
 41
5.261063716791272
 42
7.355458819184397
  0
ELLIPSE
  5
833A
330
1F
100
AcDbEntity
  8
AM_0
100
AcDbEllipse
 10
64.39311496197001
 20
-11.8582925576422
 30
0.0
 11
-0.240586278145556
 21
-2.739455829680063
 31
0.0
210
0.0
220
0.0
230
1.0
 40
0.0868242912837062
 41
4.141859378446151
 42
8.432707976758582
  0
ELLIPSE
  5
833B
330
1F
100
AcDbEntity
  8
AM_0
100
AcDbEllipse
 10
63.46187779872366
 20
-19.38189585897971
 30
0.0
 11
-0.3718151571340409
 21
-4.233704464051004
 31
0.0
210
0.0
220
0.0
230
1.0
 40
0.0868242912837064
 41
0.1588958790750708
 42
3.760385127565828
  0
SPLINE
  5
833C
330
1F
100
AcDbEntity
  8
AM_0
100
AcDbSpline
210
0.0
220
0.0
230
1.0
 70
     8
 71
     3
 72
    14
 73
    10
 74
     0
 42
0.0000000001
 43
0.0000000001
 40
-2.939477701641874
 40
-2.939477701641874
 40
-2.939477701641874
 40
-2.939477701641874
 40
-2.718451941802024
 40
-2.718451941802024
 40
-2.212019067573048
 40
-2.212019067573048
 40
-1.95880263045856
 40
-1.95880263045856
 40
-1.795693929180012
 40
-1.795693929180012
 40
-1.795693929180012
 40
-1.795693929180012
 10
65.10743905493701
 20
-4.811269224287926
 30
0.0
 10
65.09568421353901
 20
-4.734990878313297
 30
0.0
 10
65.08548066255844
 20
-4.660888939366671
 30
0.0
 10
65.05873648058695
 20
-4.443309941639668
 30
0.0
 10
65.04590282741412
 20
-4.293629951394407
 30
0.0
 10
65.04909610870368
 20
-4.109190923002827
 30
0.0
 10
65.05389958396313
 20
-4.054060896207275
 30
0.0
 10
65.06925916911064
 20
-3.976547748786757
 30
0.0
 10
65.07715443206302
 20
-3.949462530755866
 30
0.0
 10
65.08699858483737
 20
-3.925799168901122
 30
0.0
  0
ELLIPSE
  5
833D
330
1F
100
AcDbEntity
  8
AM_0
100
AcDbEllipse
 10
60.86564004309753
 20
-4.89841880810367
 30
0.0
 11
4.247707518511443
 21
0.0117566683090718
 31
0.0
210
0.0
220
0.0
230
1.0
 40
0.3428035435844905
 41
6.259283409953859
 42
6.33499557165368
  0
SPLINE
  5
833E
330
1F
100
AcDbEntity
  8
AM_0
100
AcDbSpline
210
0.0
220
0.0
230
1.0
 70
     8
 71
     3
 72
    10
 73
     6
 74
     0
 42
0.0000000001
 43
0.0000000001
 40
1.795693929180001
 40
1.795693929180001
 40
1.795693929180001
 40
1.795693929180001
 40
1.95880263045855
 40
1.95880263045855
 40
2.011272714860397
 40
2.011272714860397
 40
2.011272714860397
 40
2.011272714860397
 10
65.03382188816329
 20
-3.761897412526607
 30
0.0
 10
65.01696628287652
 20
-3.763950003999369
 30
0.0
 10
65.00198926738062
 20
-3.769207772175448
 30
0.0
 10
64.98475101716599
 20
-3.780727270654793
 30
0.0
 10
64.98075619222004
 20
-3.783892219962538
 30
0.0
 10
64.97695485856093
 20
-3.787404721575867
 30
0.0
  0
ELLIPSE
  5
833F
330
1F
100
AcDbEntity
  8
AM_0
100
AcDbEllipse
 10
63.7064623154846
 20
-5.147907356151009
 30
0.0
 11
1.392183085641874
 21
1.371395739105356
 31
0.0
210
0.0
220
0.0
230
1.0
 40
0.1498780361432326
 41
5.941358452478238
 42
6.475226947389266
  0
ELLIPSE
  5
8340
330
1F
100
AcDbEntity
  8
AM_0
100
AcDbEllipse
 10
64.99728513178434
 20
-4.862963508769794
 30
0.0
 11
-0.1666606763153759
 21
-1.897695765651096
 31
0.0
210
0.0
220
0.0
230
1.0
 40
0.0868242912837064
 41
1.006493045631261
 42
1.578418995745788
  0
ELLIPSE
  5
8341
330
1F
100
AcDbEntity
  8
AM_0
100
AcDbEllipse
 10
64.99728513178434
 20
-4.862963508769794
 30
0.0
 11
-0.1666606763153759
 21
-1.897695765651096
 31
0.0
210
0.0
220
0.0
230
1.0
 40
0.0868242912837064
 41
1.578418995745773
 42
4.132935139933985
  0
ELLIPSE
  5
8342
330
1F
100
AcDbEntity
  8
AM_0
100
AcDbEllipse
 10
65.94372638892878
 20
-0.7968344246709336
 30
0.0
 11
-0.0699887354605254
 21
-0.7969326049978362
 31
0.0
210
0.0
220
0.0
230
1.0
 40
0.0868242912837064
 41
1.072273512004831
 42
3.166668615060581
  0
ELLIPSE
  5
8343
330
1F
100
AcDbEntity
  8
AM_0
100
AcDbEllipse
 10
64.72676544164494
 20
-1.035451573509774
 30
0.0
 11
-0.0699887354605254
 21
-0.796932604997836
 31
0.0
210
0.0
220
0.0
230
1.0
 40
0.0868242912837064
 41
3.16666861506062
 42
5.261063716791242
  0
ELLIPSE
  5
8344
330
1F
100
AcDbEntity
  8
AM_0
100
AcDbEllipse
 10
70.66756884109782
 20
-1.21169480015142
 30
0.0
 11
-0.0699887354605183
 21
-0.7969326049978367
 31
0.0
210
0.0
220
0.0
230
1.0
 40
0.0868242912837064
 41
1.072273512004811
 42
3.141592653589704
  0
ELLIPSE
  5
8345
330
1F
100
AcDbEntity
  8
AM_0
100
AcDbEllipse
 10
75.28691462458062
 20
-2.075496872598037
 30
0.0
 11
-0.1049831031907773
 21
-1.195398907496755
 31
0.0
210
0.0
220
0.0
230
1.0
 40
0.0868242912837064
 41
1.072273512667356
 42
3.14159265358972
  0
ELLIPSE
  5
8346
330
1F
100
AcDbEntity
  8
AM_0
100
AcDbEllipse
 10
67.27405876641785
 20
-16.63289758082858
 30
0.0
 11
-4.663118791949157
 21
8.81291048317975
 31
0.0
210
0.0
220
0.0
230
0.9999999999999998
 40
0.8995211702505077
 41
0.2707138919455557
 42
0.968845592743291
  0
ELLIPSE
  5
8347
330
1F
100
AcDbEntity
  8
AM_0
100
AcDbEllipse
 10
67.5153270592034
 20
-16.87328487911749
 30
0.0
 11
-5.170725848692478
 21
9.649096825899251
 31
0.0
210
0.0
220
0.0
230
1.0
 40
0.9105296824482373
 41
0.2672354533799099
 42
0.9653671541776455
  0
ELLIPSE
  5
8348
330
1F
100
AcDbEntity
  8
AM_0
100
AcDbEllipse
 10
66.63599987531722
 20
-14.16301367235253
 30
0.0
 11
9.030702287116719
 21
4.351186411937539
 31
0.0
210
0.0
220
0.0
230
1.0
 40
0.8566495826669127
 41
1.917259269417568
 42
2.615390970215302
  0
ELLIPSE
  5
8349
330
1F
100
AcDbEntity
  8
AM_0
100
AcDbEllipse
 10
-15.19991459550635
 20
-15.20833374188401
 30
0.0
 11
0.2512677507818111
 21
1.288486032911597
 31
0.0
210
0.0
220
0.0
230
0.9999999999999998
 40
0.7599897213651708
 41
1.006571563339232
 42
1.558241003058409
  0
ELLIPSE
  5
834A
330
1F
100
AcDbEntity
  8
AM_0
100
AcDbEllipse
 10
-14.88099513177917
 20
-17.65126939093818
 30
0.0
 11
-1.674783993423361
 21
-0.7456411012750309
 31
0.0
210
0.0
220
0.0
230
1.0
 40
0.1538998212583473
 41
6.241133763720196
 42
7.811930090515107
  0
ELLIPSE
  5
834B
330
1F
100
AcDbEntity
  8
AM_0
100
AcDbEllipse
 10
-15.60321005834419
 20
-17.05808953603235
 30
0.0
 11
-0.6868608261341364
 21
-1.008316649370571
 31
0.0
210
0.0
220
0.0
230
0.9999999999999998
 40
0.1504465946432163
 41
6.005250124336223
 42
7.576046451131129
  0
ELLIPSE
  5
834C
330
1F
100
AcDbEntity
  8
AM_0
100
AcDbEllipse
 10
-14.88099513177928
 20
57.48798961934134
 30
0.0
 11
-1.536643827691288
 21
-0.7755793831474006
 31
0.0
210
0.0
220
0.0
230
1.0
 40
0.8714344572215823
 41
5.895178626162322
 42
7.465974952957233
  0
ELLIPSE
  5
834D
330
1F
100
AcDbEntity
  8
AM_0
100
AcDbEllipse
 10
-15.6032100583443
 20
57.13226042517742
 30
0.0
 11
-0.6660515137185551
 21
-0.3378828487945149
 31
0.0
210
0.0
220
0.0
230
1.0
 40
0.6694560018732894
 41
5.895228613898331
 42
7.466024940693237
  0
LINE
  5
834E
330
1F
100
AcDbEntity
  8
AM_0
100
AcDbLine
 10
91.08291025419374
 20
-31.99988050329951
 30
0.0
 11
63.0153195026952
 21
-31.99988050329951
 31
0.0
  0
LINE
  5
834F
330
1F
100
AcDbEntity
  8
AM_0
100
AcDbLine
 10
64.73390436647503
 20
-13.99988050330047
 30
0.0
 11
91.08291025419374
 21
-13.99988050330047
 31
0.0
  0
LINE
  5
8350
330
1F
100
AcDbEntity
  8
AM_0
100
AcDbLine
 10
65.6546988159032
 20
-3.515177294679759
 30
0.0
 11
75.30748324745218
 21
-2.832940821602292
 31
0.0
  0
LINE
  5
8351
330
1F
100
AcDbEntity
  8
AM_0
100
AcDbLine
 10
65.97103437019564
 20
-1.183207869703451
 30
0.0
 11
70.69487682236467
 21
-1.598068245183995
 31
0.0
  0
LINE
  5
8352
330
1F
100
AcDbEntity
  8
AM_0
100
AcDbLine
 10
66.01371512438936
 20
0.0000981803269582
 30
0.0
 11
70.7375575765584
 21
-0.4147621951535854
 31
0.0
  0
LINE
  5
8353
330
1F
100
AcDbEntity
  8
AM_0
100
AcDbLine
 10
91.08291025419374
 20
-13.99988050330047
 30
0.0
 11
91.08291025419374
 21
-31.99988050329951
 31
0.0
  0
LINE
  5
8354
330
1F
100
AcDbEntity
  8
AM_0
100
AcDbLine
 10
91.08291025419374
 20
-1.062377138128411
 30
0.0
 11
91.08291025419374
 21
-13.99988050330047
 31
0.0
  0
LINE
  5
8355
330
1F
100
AcDbEntity
  8
AM_0
100
AcDbLine
 10
75.46297884705677
 20
-1.062377138128411
 30
0.0
 11
91.08291025419374
 21
-1.062377138128411
 31
0.0
  0
LINE
  5
8356
330
1F
100
AcDbEntity
  8
AM_0
100
AcDbLine
 10
70.75813840240073
 20
-0.4731489287872961
 30
0.0
 11
75.39189772777138
 21
-0.8800979651013136
 31
0.0
  0
LINE
  5
8357
330
1F
100
AcDbEntity
  8
AM_0
100
AcDbLine
 10
70.60772703350426
 20
-2.240520983290664
 30
0.0
 11
75.32787659657481
 21
-2.655057039454121
 31
0.0
  0
LINE
  5
8358
330
1F
100
AcDbEntity
  8
AM_0
100
AcDbLine
 10
75.30371018954122
 20
-2.833207492606575
 30
0.0
 11
75.32787659657481
 21
-2.655057039454121
 31
0.0
  0
LINE
  5
8359
330
1F
100
AcDbEntity
  8
AM_0
100
AcDbLine
 10
75.31434483532734
 20
-2.754810775904516
 30
0.0
 11
75.30748324745218
 21
-2.832940821601894
 31
0.0
  0
LINE
  5
835A
330
1F
100
AcDbEntity
  8
AM_0
100
AcDbLine
 10
75.43104885567879
 20
-1.068637851360065
 30
0.0
 11
75.46297884705677
 21
-1.062377138128411
 31
0.0
  0
LINE
  5
835B
330
1F
100
AcDbEntity
  8
AM_0
100
AcDbLine
 10
75.46297884705677
 20
-1.062377138128411
 30
0.0
 11
75.43147347060653
 21
-1.421115748859691
 31
0.0
  0
LINE
  5
835C
330
1F
100
AcDbEntity
  8
AM_0
100
AcDbLine
 10
70.48109103167769
 20
-3.174059058140997
 30
0.0
 11
70.69487682236467
 21
-1.598068245183995
 31
0.0
  0
LINE
  5
835E
330
1F
100
AcDbEntity
  8
AM_0
100
AcDbLine
 10
-29.93460619674772
 20
-15.73176001858757
 30
0.0
 11
-29.93460619674772
 21
-31.99988050329949
 31
0.0
  0
LINE
  5
835F
330
1F
100
AcDbEntity
  8
AM_0
100
AcDbLine
 10
-30.99999996647227
 20
-31.99988050329949
 30
0.0
 11
-30.99999996647227
 21
-6.999880503299493
 31
0.0
  0
LINE
  5
8360
330
1F
100
AcDbEntity
  8
AM_0
100
AcDbLine
 10
-7.066798535195289
 20
-29.21749497669145
 30
0.0
 11
-7.700615861566461
 21
-29.85373042648296
 31
0.0
  0
LINE
  5
8361
330
1F
100
AcDbEntity
  8
AM_0
100
AcDbLine
 10
-12.58063733940196
 20
-28.81811647056014
 30
0.0
 11
-7.700615861566461
 21
-29.85373042648296
 31
0.0
  0
LINE
  5
8362
330
1F
100
AcDbEntity
  8
AM_0
100
AcDbLine
 10
57.58201054848143
 20
-29.25010612614194
 30
0.0
 11
63.10148008486851
 21
-29.73484058278485
 31
0.0
  0
LINE
  5
8363
330
1F
100
AcDbEntity
  8
AM_0
100
AcDbLine
 10
-2.94695837316658
 20
-31.99988050329949
 30
0.0
 11
-1.372162429700097
 21
-13.99988050330046
 31
0.0
  0
LINE
  5
8364
330
1F
100
AcDbEntity
  8
AM_0
100
AcDbLine
 10
63.0153195026952
 20
-31.99988050329951
 30
0.0
 11
64.73390436647503
 21
-13.99988050330047
 31
0.0
  0
LINE
  5
8365
330
1F
100
AcDbEntity
  8
AM_0
100
AcDbLine
 10
-6.219719571821428
 20
-30.75502714823341
 30
0.0
 11
-17.19122385373884
 21
-28.42670892188533
 31
0.0
  0
LINE
  5
8366
330
1F
100
AcDbEntity
  8
AM_0
100
AcDbLine
 10
-18.87617227164105
 20
-27.81399541714819
 30
0.0
 11
-6.188116429268234
 21
-30.50659170254749
 31
0.0
  0
LINE
  5
8367
330
1F
100
AcDbEntity
  8
AM_0
100
AcDbLine
 10
-13.60442000080559
 20
-31.99988050329949
 30
0.0
 11
-17.19122385373873
 21
-28.42670892188516
 31
0.0
  0
POLYLINE
  5
8369
102
{ACAD_REACTORS
330
847B
102
}
330
1F
100
AcDbEntity
  8
AM_0
 62
     7
100
AcDb3dPolyline
 66
     1
 10
0.0
 20
0.0
 30
0.0
 70
     8
  0
VERTEX
  5
836A
330
8369
100
AcDbEntity
  8
AM_0
 62
     7
100
AcDbVertex
100
AcDb3dPolylineVertex
 10
29.11684619662059
 20
16.03606688094184
 30
0.0
 70
    32
  0
VERTEX
  5
836B
330
8369
100
AcDbEntity
  8
AM_0
 62
     7
100
AcDbVertex
100
AcDb3dPolylineVertex
 10
29.53155156217064
 20
19.18606688094185
 30
0.0
 70
    32
  0
SEQEND
  5
836C
330
8369
100
AcDbEntity
  8
AM_0
 62
     7
  0
POLYLINE
  5
836D
102
{ACAD_REACTORS
330
847B
102
}
330
1F
100
AcDbEntity
  8
AM_0
 62
     7
100
AcDb3dPolyline
 66
     1
 10
0.0
 20
0.0
 30
0.0
 70
     8
  0
VERTEX
  5
836E
330
836D
100
AcDbEntity
  8
AM_0
 62
     7
100
AcDbVertex
100
AcDb3dPolylineVertex
 10
28.70214083107066
 20
19.18606688094185
 30
0.0
 70
    32
  0
VERTEX
  5
836F
330
836D
100
AcDbEntity
  8
AM_0
 62
     7
100
AcDbVertex
100
AcDb3dPolylineVertex
 10
29.11684619662059
 20
16.03606688094184
 30
0.0
 70
    32
  0
SEQEND
  5
8370
330
836D
100
AcDbEntity
  8
AM_0
 62
     7
  0
POLYLINE
  5
8371
102
{ACAD_REACTORS
330
847B
102
}
330
1F
100
AcDbEntity
  8
AM_0
 62
     7
100
AcDb3dPolyline
 66
     1
 10
0.0
 20
0.0
 30
0.0
 70
     8
  0
VERTEX
  5
8372
330
8371
100
AcDbEntity
  8
AM_0
 62
     7
100
AcDbVertex
100
AcDb3dPolylineVertex
 10
29.11684619662059
 20
19.18606688094185
 30
0.0
 70
    32
  0
VERTEX
  5
8373
330
8371
100
AcDbEntity
  8
AM_0
 62
     7
100
AcDbVertex
100
AcDb3dPolylineVertex
 10
29.11684619662059
 20
16.03606688094184
 30
0.0
 70
    32
  0
SEQEND
  5
8374
330
8371
100
AcDbEntity
  8
AM_0
 62
     7
  0
POLYLINE
  5
8375
102
{ACAD_REACTORS
330
847B
102
}
330
1F
100
AcDbEntity
  8
AM_0
 62
     7
100
AcDb3dPolyline
 66
     1
 10
0.0
 20
0.0
 30
0.0
 70
     8
  0
VERTEX
  5
8376
330
8375
100
AcDbEntity
  8
AM_0
 62
     7
100
AcDbVertex
100
AcDb3dPolylineVertex
 10
29.11684619662059
 20
27.10381597274788
 30
0.0
 70
    32
  0
VERTEX
  5
8377
330
8375
100
AcDbEntity
  8
AM_0
 62
     7
100
AcDbVertex
100
AcDb3dPolylineVertex
 10
21.19909710481454
 20
27.10381597274788
 30
0.0
 70
    32
  0
SEQEND
  5
8378
330
8375
100
AcDbEntity
  8
AM_0
 62
     7
  0
POLYLINE
  5
8379
102
{ACAD_REACTORS
330
847B
102
}
330
1F
100
AcDbEntity
  8
AM_0
 62
     7
100
AcDb3dPolyline
 66
     1
 10
0.0
 20
0.0
 30
0.0
 70
     8
  0
VERTEX
  5
837A
330
8379
100
AcDbEntity
  8
AM_0
 62
     7
100
AcDbVertex
100
AcDb3dPolylineVertex
 10
29.11684619662059
 20
27.10381597274788
 30
0.0
 70
    32
  0
VERTEX
  5
837B
330
8379
100
AcDbEntity
  8
AM_0
 62
     7
100
AcDbVertex
100
AcDb3dPolylineVertex
 10
29.11684619662059
 20
19.18606688094185
 30
0.0
 70
    32
  0
SEQEND
  5
837C
330
8379
100
AcDbEntity
  8
AM_0
 62
     7
  0
POLYLINE
  5
837D
102
{ACAD_REACTORS
330
847B
102
}
330
1F
100
AcDbEntity
  8
AM_0
 62
     7
100
AcDb3dPolyline
 66
     1
 10
0.0
 20
0.0
 30
0.0
 70
     8
  0
VERTEX
  5
837E
330
837D
100
AcDbEntity
  8
AM_0
 62
     7
100
AcDbVertex
100
AcDb3dPolylineVertex
 10
18.04909710481456
 20
27.10381597274788
 30
0.0
 70
    32
  0
VERTEX
  5
837F
330
837D
100
AcDbEntity
  8
AM_0
 62
     7
100
AcDbVertex
100
AcDb3dPolylineVertex
 10
21.19909710481454
 20
26.68911060719789
 30
0.0
 70
    32
  0
SEQEND
  5
8380
330
837D
100
AcDbEntity
  8
AM_0
 62
     7
  0
POLYLINE
  5
8381
102
{ACAD_REACTORS
330
847B
102
}
330
1F
100
AcDbEntity
  8
AM_0
 62
     7
100
AcDb3dPolyline
 66
     1
 10
0.0
 20
0.0
 30
0.0
 70
     8
  0
VERTEX
  5
8382
330
8381
100
AcDbEntity
  8
AM_0
 62
     7
100
AcDbVertex
100
AcDb3dPolylineVertex
 10
21.19909710481454
 20
27.51852133829787
 30
0.0
 70
    32
  0
VERTEX
  5
8383
330
8381
100
AcDbEntity
  8
AM_0
 62
     7
100
AcDbVertex
100
AcDb3dPolylineVertex
 10
18.04909710481456
 20
27.10381597274788
 30
0.0
 70
    32
  0
SEQEND
  5
8384
330
8381
100
AcDbEntity
  8
AM_0
 62
     7
  0
POLYLINE
  5
8385
102
{ACAD_REACTORS
330
847B
102
}
330
1F
100
AcDbEntity
  8
AM_0
 62
     7
100
AcDb3dPolyline
 66
     1
 10
0.0
 20
0.0
 30
0.0
 70
     8
  0
VERTEX
  5
8386
330
8385
100
AcDbEntity
  8
AM_0
 62
     7
100
AcDbVertex
100
AcDb3dPolylineVertex
 10
21.19909710481454
 20
27.10381597274788
 30
0.0
 70
    32
  0
VERTEX
  5
8387
330
8385
100
AcDbEntity
  8
AM_0
 62
     7
100
AcDbVertex
100
AcDb3dPolylineVertex
 10
18.04909710481456
 20
27.10381597274788
 30
0.0
 70
    32
  0
SEQEND
  5
8388
330
8385
100
AcDbEntity
  8
AM_0
 62
     7
  0
TEXT
  5
8389
330
1F
100
AcDbEntity
  8
AM_6
100
AcDbText
 10
9.621076469337367
 20
25.15945370168286
 30
0.0
 40
3.149999999999999
  1
-5%%D
100
AcDbText
  0
LINE
  5
838A
330
1F
100
AcDbEntity
  8
AM_0
100
AcDbLine
 10
64.73390436647503
 20
-13.99988050330047
 30
0.0
 11
65.6546988159032
 21
-3.515177294679816
 31
0.0
  0
LINE
  5
838B
330
1F
100
AcDbEntity
  8
AM_0
100
AcDbLine
 10
65.6546988159032
 20
-3.515177294679816
 30
0.0
 11
64.7238251771164
 21
-10.37741214217352
 31
0.0
  0
LINE
  5
838C
330
1F
100
AcDbEntity
  8
AM_0
100
AcDbLine
 10
65.08699858483737
 20
-3.925799168901122
 30
0.0
 11
60.20810972144102
 21
-8.809935680011122
 31
0.0
  0
LINE
  5
838D
330
1F
100
AcDbEntity
  8
AM_0
100
AcDbLine
 10
60.66082926536023
 20
-9.262661709750673
 30
0.0
 11
65.10743905493701
 21
-4.811269224287983
 31
0.0
  0
LINE
  5
838E
330
1F
100
AcDbEntity
  8
AM_0
100
AcDbLine
 10
64.88749081978369
 20
-8.277927535295319
 30
0.0
 11
65.11223058116684
 21
-4.921466434310801
 31
0.0
  0
LINE
  5
838F
330
1F
100
AcDbEntity
  8
AM_0
100
AcDbLine
 10
60.06346047898239
 20
-8.36409631088874
 30
0.0
 11
65.03382188816329
 21
-3.761897412526607
 31
0.0
  0
LINE
  5
8390
330
1F
100
AcDbEntity
  8
AM_0
100
AcDbLine
 10
65.97103437019564
 20
-1.183207869703451
 30
0.0
 11
64.34867154483322
 21
-13.14297797339931
 31
0.0
  0
LINE
  5
8391
330
1F
100
AcDbEntity
  8
AM_0
100
AcDbLine
 10
60.07803929793306
 20
-8.323449878100134
 30
0.0
 11
64.97695485856093
 21
-3.787404721575867
 31
0.0
  0
LINE
  5
8392
330
1F
100
AcDbEntity
  8
AM_0
100
AcDbLine
 10
64.79499727177165
 20
-0.2386171488389124
 30
0.0
 11
66.0119582190556
 21
-0.0000000000000142
 31
0.0
  0
LINE
  5
8393
330
1F
100
AcDbEntity
  8
AM_0
100
AcDbLine
 10
62.95670306445663
 20
-5.549002697287122
 30
0.0
 11
62.94654135813482
 21
-5.667422290845607
 31
0.0
  0
LINE
  5
8394
330
1F
100
AcDbEntity
  8
AM_0
100
AcDbLine
 10
65.06142829487203
 20
-3.76113056024657
 30
0.0
 11
65.22812585357894
 21
-3.77577038206472
 31
0.0
  0
LINE
  5
8395
330
1F
100
AcDbEntity
  8
AM_0
100
AcDbLine
 10
64.63612247626191
 20
-1.304332839934957
 30
0.0
 11
64.63769418147876
 21
-1.30433665427121
 31
0.0
  0
LINE
  5
8396
330
1F
100
AcDbEntity
  8
AM_0
100
AcDbLine
 10
64.63612247626191
 20
-1.304332839934957
 30
0.0
 11
63.51343493820138
 21
-1.524465211451527
 31
0.0
  0
LINE
  5
8397
330
1F
100
AcDbEntity
  8
AM_0
100
AcDbLine
 10
64.53612218222338
 20
-4.195584226119549
 30
0.0
 11
64.63612247626191
 21
-1.304332839934957
 31
0.0
  0
LINE
  5
8398
330
1F
100
AcDbEntity
  8
AM_0
100
AcDbLine
 10
63.51343493820138
 20
-1.524465211451527
 30
0.0
 11
62.95670306445663
 21
-5.549002697287122
 31
0.0
  0
LINE
  5
8399
330
1F
100
AcDbEntity
  8
AM_0
100
AcDbLine
 10
64.53612218222338
 20
-4.195584226119549
 30
0.0
 11
64.63122563020431
 21
-1.445912553157327
 31
0.0
  0
LINE
  5
839A
330
1F
100
AcDbEntity
  8
AM_0
100
AcDbLine
 10
54.87073915763608
 20
-18.16761628787396
 30
0.0
 11
55.15442932838391
 21
-16.4579311064714
 31
0.0
  0
LINE
  5
839B
330
1F
100
AcDbEntity
  8
AM_0
100
AcDbLine
 10
55.3096197818096
 20
-16.93626070345432
 30
0.0
 11
55.18112006448735
 21
-19.12427548183974
 31
0.0
  0
LINE
  5
839C
330
1F
100
AcDbEntity
  8
AM_0
100
AcDbLine
 10
57.78094013690168
 20
-19.85813276234956
 30
0.0
 11
58.09954021473732
 21
-15.09987920968429
 31
0.0
  0
LINE
  5
839D
330
1F
100
AcDbEntity
  8
AM_0
100
AcDbLine
 10
62.48595097210091
 20
-26.50989163345691
 30
0.0
 11
63.41827025743668
 21
-17.6938072360988
 31
0.0
  0
LINE
  5
839E
330
1F
100
AcDbEntity
  8
AM_0
100
AcDbLine
 10
63.47957799358801
 20
-16.98908243155507
 30
0.0
 11
58.24462241522053
 21
-20.63050196731662
 31
0.0
  0
LINE
  5
839F
330
1F
100
AcDbEntity
  8
AM_0
100
AcDbLine
 10
58.55309014555178
 20
-21.07801205679017
 30
0.0
 11
63.41827025743668
 21
-17.69380723609886
 31
0.0
  0
LINE
  5
83A0
330
1F
100
AcDbEntity
  8
AM_0
100
AcDbLine
 10
64.22582375212574
 20
-13.16706550801429
 30
0.0
 11
64.38044895444159
 21
-8.696475347926892
 31
0.0
  0
LINE
  5
83A1
330
1F
100
AcDbEntity
  8
AM_0
100
AcDbLine
 10
63.47957799358801
 20
-16.98908243155502
 30
0.0
 11
64.01460857190136
 21
-8.998465582561848
 31
0.0
  0
LINE
  5
83A2
330
1F
100
AcDbEntity
  8
AM_0
100
AcDbLine
 10
64.32287103375461
 20
-10.36119288301416
 30
0.0
 11
64.38044895444159
 21
-8.696475347926892
 31
0.0
  0
LINE
  5
83A3
330
1F
100
AcDbEntity
  8
AM_0
100
AcDbLine
 10
64.01460857190136
 20
-8.998465582561905
 30
0.0
 11
64.88749081978369
 21
-8.277927535295319
 31
0.0
  0
LINE
  5
83A4
330
1F
100
AcDbEntity
  8
AM_0
100
AcDbLine
 10
60.20810972144102
 20
-8.809935680011065
 30
0.0
 11
60.06346047898239
 21
-8.36409631088874
 31
0.0
  0
LINE
  5
83A5
330
1F
100
AcDbEntity
  8
AM_0
100
AcDbLine
 10
63.9777367577559
 20
-16.92249483127609
 30
0.0
 11
63.48692269285527
 21
-16.87939023807309
 31
0.0
  0
LINE
  5
83A6
330
1F
100
AcDbEntity
  8
AM_0
100
AcDbLine
 10
64.49116311614386
 20
-13.15549196119106
 30
0.0
 11
64.34867154483322
 21
-13.14297797339925
 31
0.0
  0
LINE
  5
83A7
330
1F
100
AcDbEntity
  8
AM_0
100
AcDbLine
 10
64.2513748281059
 20
-13.55353713336457
 30
0.0
 11
64.43117031038287
 21
-13.5693272495766
 31
0.0
  0
LINE
  5
83A8
330
1F
100
AcDbEntity
  8
AM_0
100
AcDbLine
 10
55.15442932838391
 20
-16.45793110647146
 30
0.0
 11
55.3096197818096
 21
-16.93626070345432
 31
0.0
  0
LINE
  5
83A9
330
1F
100
AcDbEntity
  8
AM_0
100
AcDbLine
 10
57.34840463101682
 20
-15.25311096690588
 30
0.0
 11
57.30528069939168
 21
-15.89716165971829
 31
0.0
  0
LINE
  5
83AA
330
1F
100
AcDbEntity
  8
AM_0
100
AcDbLine
 10
56.87574284640766
 20
-14.55680100542856
 30
0.0
 11
56.95484477338175
 21
-14.04007676321749
 31
0.0
  0
LINE
  5
83AB
330
1F
100
AcDbEntity
  8
AM_0
100
AcDbLine
 10
56.95484477338175
 20
-14.04007676321749
 30
0.0
 11
56.98511566676097
 21
-14.13337801925992
 31
0.0
  0
LINE
  5
83AC
330
1F
100
AcDbEntity
  8
AM_0
100
AcDbLine
 10
57.3181337376376
 20
-15.15980971086345
 30
0.0
 11
57.34840463101682
 21
-15.25311096690588
 31
0.0
  0
LINE
  5
83AD
330
1F
100
AcDbEntity
  8
AM_0
100
AcDbLine
 10
56.86976145407391
 20
-14.55731002987558
 30
0.0
 11
56.9587639197955
 21
-13.97591165673738
 31
0.0
  0
LINE
  5
83AE
330
1F
100
AcDbEntity
  8
AM_0
100
AcDbLine
 10
57.04931675882892
 20
-14.55728685428603
 30
0.0
 11
57.31619752396579
 21
-14.58072503105724
 31
0.0
  0
LINE
  5
83AF
330
1F
100
AcDbEntity
  8
AM_0
100
AcDbLine
 10
55.57876169437668
 20
-15.40150750342333
 30
0.0
 11
56.29081117610224
 21
-14.79980858203914
 31
0.0
  0
LINE
  5
83B0
330
1F
100
AcDbEntity
  8
AM_0
100
AcDbLine
 10
63.21291203898306
 20
-28.54068506742511
 30
0.0
 11
57.81403858378848
 21
-28.06654167854789
 31
0.0
  0
LINE
  5
83B1
330
1F
100
AcDbEntity
  8
AM_0
100
AcDbLine
 10
62.78327363936296
 20
-24.53498116850922
 30
0.0
 11
62.95131104693428
 21
-22.94600624289781
 31
0.0
  0
LINE
  5
83B2
330
1F
100
AcDbEntity
  8
AM_0
100
AcDbLine
 10
63.15290935957148
 20
-23.56737461645151
 30
0.0
 11
62.86916746836448
 21
-26.25046022809978
 31
0.0
  0
LINE
  5
83B3
330
1F
100
AcDbEntity
  8
AM_0
100
AcDbLine
 10
62.95131104693428
 20
-22.94600624289781
 30
0.0
 11
63.34340117313866
 21
-22.98044063791128
 31
0.0
  0
LINE
  5
83B4
330
1F
100
AcDbEntity
  8
AM_0
100
AcDbLine
 10
63.53969079677483
 20
-21.90326948176006
 30
0.0
 11
62.97832450759585
 21
-21.85396880506114
 31
0.0
  0
LINE
  5
83B5
330
1F
100
AcDbEntity
  8
AM_0
100
AcDbLine
 10
62.59242387324661
 20
-25.50307551660064
 30
0.0
 11
62.94493107271728
 21
-25.53403363398338
 31
0.0
  0
LINE
  5
83B6
330
1F
100
AcDbEntity
  8
AM_0
100
AcDbLine
 10
63.21354619759438
 20
-27.31826658539587
 30
0.0
 11
62.48595097210091
 21
-26.50989163345691
 31
0.0
  0
LINE
  5
83B7
330
1F
100
AcDbEntity
  8
AM_0
100
AcDbLine
 10
62.54925466289956
 20
-25.91128696065563
 30
0.0
 11
62.87741487490143
 21
-26.27588046857131
 31
0.0
  0
LINE
  5
83B8
330
1F
100
AcDbEntity
  8
AM_0
100
AcDbLine
 10
62.69454859197811
 20
-24.53737615421029
 30
0.0
 11
63.04705579144877
 21
-24.56833427159308
 31
0.0
  0
LINE
  5
83B9
330
1F
100
AcDbEntity
  8
AM_0
100
AcDbLine
 10
63.00699668012658
 20
-24.94713637496472
 30
0.0
 11
62.65448948065591
 21
-24.91617825758199
 31
0.0
  0
LINE
  5
83BA
330
1F
100
AcDbEntity
  8
AM_0
100
AcDbLine
 10
63.04812318040342
 20
-24.55824095779185
 30
0.0
 11
62.69561598093275
 21
-24.52728284040905
 31
0.0
  0
LINE
  5
83BB
330
1F
100
AcDbEntity
  8
AM_0
100
AcDbLine
 10
62.86916746836448
 20
-26.25046022809978
 30
0.0
 11
63.20516465609319
 21
-27.28607418402204
 31
0.0
  0
LINE
  5
83BC
330
1F
100
AcDbEntity
  8
AM_0
100
AcDbLine
 10
55.55263923725352
 20
-25.55389626832432
 30
0.0
 11
55.83715933462793
 21
-22.86345187802716
 31
0.0
  0
LINE
  5
83BD
330
1F
100
AcDbEntity
  8
AM_0
100
AcDbLine
 10
57.02980455318118
 20
-20.01136451957115
 30
0.0
 11
56.2246336127107
 21
-27.62512418017003
 31
0.0
  0
LINE
  5
83BE
330
1F
100
AcDbEntity
  8
AM_0
100
AcDbLine
 10
57.81403858378848
 20
-28.06654167854783
 30
0.0
 11
58.55309014555178
 21
-21.07801205679011
 31
0.0
  0
LINE
  5
83BF
330
1F
100
AcDbEntity
  8
AM_0
100
AcDbLine
 10
55.54956297625392
 20
-25.52688109384725
 30
0.0
 11
55.83160879759782
 21
-22.85983365205346
 31
0.0
  0
LINE
  5
83C0
330
1F
100
AcDbEntity
  8
AM_0
100
AcDbLine
 10
54.74223944031393
 20
-20.35563106625939
 30
0.0
 11
54.97343067456586
 21
-20.37593489375167
 31
0.0
  0
LINE
  5
83C1
330
1F
100
AcDbEntity
  8
AM_0
100
AcDbLine
 10
54.89742989373962
 20
-20.83396066324225
 30
0.0
 11
54.74223944031393
 21
-20.35563106625939
 31
0.0
  0
LINE
  5
83C2
330
1F
100
AcDbEntity
  8
AM_0
100
AcDbLine
 10
55.00479047238127
 20
-21.93707895115438
 30
0.0
 11
55.6010635092822
 21
-22.65367822682067
 31
0.0
  0
LINE
  5
83C3
330
1F
100
AcDbEntity
  8
AM_0
100
AcDbLine
 10
56.30568644456082
 20
-23.02469578238806
 30
0.0
 11
56.546347967001
 21
-23.04583131571168
 31
0.0
  0
LINE
  5
83C4
330
1F
100
AcDbEntity
  8
AM_0
100
AcDbLine
 10
54.87073915763608
 20
-18.16761628787396
 30
0.0
 11
55.23542267515745
 21
-18.19964376180907
 31
0.0
  0
LINE
  5
83C5
330
1F
100
AcDbEntity
  8
AM_0
100
AcDbLine
 10
57.10986463272741
 20
-18.8156769336942
 30
0.0
 11
57.02980455318118
 21
-20.0113645195711
 31
0.0
  0
LINE
  5
83C6
330
1F
100
AcDbEntity
  8
AM_0
100
AcDbLine
 10
57.0669374060866
 20
-19.23895037002837
 30
0.0
 11
56.96388993406912
 21
-20.21337535997538
 31
0.0
  0
LINE
  5
83C7
330
1F
100
AcDbEntity
  8
AM_0
100
AcDbLine
 10
54.74223944031393
 20
-20.35563106625939
 30
0.0
 11
54.87073915763608
 21
-18.16761628787396
 31
0.0
  0
LINE
  5
83C8
330
1F
100
AcDbEntity
  8
AM_0
100
AcDbLine
 10
55.18112006448735
 20
-19.12427548183968
 30
0.0
 11
54.89742989373962
 21
-20.83396066324225
 31
0.0
  0
ARC
  5
83C9
330
1F
100
AcDbEntity
  8
AM_0
100
AcDbCircle
 10
57.04124505201275
 20
-25.68462957992534
 30
0.0
 40
1.5
100
AcDbArc
 50
173.9632891284921
 51
197.9752664093874
  0
ARC
  5
83CA
330
1F
100
AcDbEntity
  8
AM_0
100
AcDbCircle
 10
57.71323942746994
 20
-27.75585749177099
 30
0.0
 40
1.5
100
AcDbArc
 50
197.9752664093874
 51
264.9810097372693
  0
LINE
  5
83CB
330
1F
100
AcDbEntity
  8
AM_0
100
AcDbLine
 10
56.2246336127107
 20
-27.62512418017003
 30
0.0
 11
55.55263923725352
 21
-25.55389626832432
 31
0.0
  0
LINE
  5
83CC
330
1F
100
AcDbEntity
  8
AM_0
100
AcDbLine
 10
56.28645469006972
 20
-28.21876710835046
 30
0.0
 11
55.61446031461253
 21
-26.14753919650475
 31
0.0
  0
TEXT
  5
83CE
330
1F
100
AcDbEntity
  8
AM_6
100
AcDbText
 10
25.49026533469441
 20
11.69516858424863
 30
0.0
 40
3.149999999999999
  1
-5%%d
100
AcDbText
  0
LINE
  5
83D1
330
1F
100
AcDbEntity
  8
AM_5
 62
     3
100
AcDbLine
 10
0.0
 20
3.713093900476565
 30
0.0
 11
0.0
 21
27.34060314704497
 31
0.0
  0
LINE
  5
83D2
330
1F
100
AcDbEntity
  8
AM_5
 62
     3
100
AcDbLine
 10
-30.99999996647227
 20
-6.999880503299465
 30
0.0
 11
-31.00640296647225
 21
27.340603147045
 31
0.0
  0
LINE
  5
83D5
330
1F
100
AcDbEntity
  8
AM_5
 62
     3
100
AcDbLine
 10
0.0
 20
8.291028994003283
 30
0.0
 11
0.0
 21
18.28821931382096
 31
0.0
  0
LINE
  5
83D6
330
1F
100
AcDbEntity
  8
AM_5
 62
     3
100
AcDbLine
 10
0.0
 20
-0.8648411930501538
 30
0.0
 11
0.0
 21
65.56823436731967
 31
0.0
  0
LINE
  5
83D7
330
1F
100
AcDbEntity
  8
AM_0
100
AcDbLine
 10
-11.00756591212496
 20
63.22573371873203
 30
0.0
 11
-15.89300431587878
 21
62.22312327633083
 31
0.0
  0
LINE
  5
83D8
330
1F
100
AcDbEntity
  8
AM_0
100
AcDbLine
 10
-12.73660677007649
 20
57.18871945284802
 30
0.0
 11
-15.64578826135505
 21
56.59168485719026
 31
0.0
  0
LINE
  5
83D9
330
1F
100
AcDbEntity
  8
AM_0
100
AcDbLine
 10
-16.39706606762251
 20
55.1498392343776
 30
0.0
 11
-14.8367490435063
 21
55.95501017484803
 31
0.0
  0
LINE
  5
83DA
330
1F
100
AcDbEntity
  8
AM_0
100
AcDbLine
 10
-13.90364582933341
 20
55.32151515664468
 30
0.0
 11
-16.39706606762263
 21
55.1498392343776
 31
0.0
  0
LINE
  5
83DB
330
1F
100
AcDbEntity
  8
AM_0
100
AcDbLine
 10
-13.89874911276933
 20
55.31587390114809
 30
0.0
 11
-16.42426906332514
 21
55.1419878629835
 31
0.0
  0
LINE
  5
83DC
330
1F
100
AcDbEntity
  8
AM_0
100
AcDbLine
 10
-4.223315745262539
 20
57.37814013402571
 30
0.0
 11
-5.35811580135396
 21
57.69674021186135
 31
0.0
  0
LINE
  5
83DD
330
1F
100
AcDbEntity
  8
AM_0
100
AcDbLine
 10
-2.94695837316658
 20
62.61251949981924
 30
0.0
 11
-3.490964277457692
 21
62.56492503932547
 31
0.0
  0
LINE
  5
83DE
330
1F
100
AcDbEntity
  8
AM_0
100
AcDbLine
 10
-3.494527504219263
 20
63.07677799071204
 30
0.0
 11
-3.906856537508929
 21
57.84182241234451
 31
0.0
  0
LINE
  5
83DF
330
1F
100
AcDbEntity
  8
AM_0
100
AcDbLine
 10
-3.850158741502013
 20
58.00456932470449
 30
0.0
 11
-3.452948291875486
 21
63.04757840526308
 31
0.0
  0
LINE
  5
83E0
330
1F
100
AcDbEntity
  8
AM_0
100
AcDbLine
 10
-5.361866667132403
 20
56.70706462985144
 30
0.0
 11
-5.076706087835191
 21
56.62700455030521
 31
0.0
  0
LINE
  5
83E1
330
1F
100
AcDbEntity
  8
AM_0
100
AcDbLine
 10
-6.211506143926612
 20
56.94560462814085
 30
0.0
 11
-6.057905930268475
 21
56.90248069651572
 31
0.0
  0
LINE
  5
83E2
330
1F
100
AcDbEntity
  8
AM_0
100
AcDbLine
 10
-5.427637670597277
 20
56.66413740321063
 30
0.0
 11
-5.627330328142875
 21
56.56108993119317
 31
0.0
  0
LINE
  5
83E3
330
1F
100
AcDbEntity
  8
AM_0
100
AcDbLine
 10
-5.076706087835191
 20
56.62700455030521
 30
0.0
 11
-5.711172711750123
 21
56.29960051613846
 31
0.0
  0
LINE
  5
83E4
330
1F
100
AcDbEntity
  8
AM_0
100
AcDbLine
 10
-6.651160448305404
 20
56.91533373476163
 30
0.0
 11
-6.211506143926612
 21
56.94560462814085
 31
0.0
  0
LINE
  5
83E5
330
1F
100
AcDbEntity
  8
AM_0
100
AcDbLine
 10
-5.427637670597277
 20
56.66413740321063
 30
0.0
 11
-5.444788033762051
 21
56.86016649410849
 31
0.0
  0
LINE
  5
83E6
330
1F
100
AcDbEntity
  8
AM_0
100
AcDbLine
 10
-5.627330328142875
 20
56.56108993119317
 30
0.0
 11
-5.656233165675075
 21
56.89145010557336
 31
0.0
  0
LINE
  5
83E7
330
1F
100
AcDbEntity
  8
AM_0
100
AcDbLine
 10
-4.595398268647272
 20
56.74324427123882
 30
0.0
 11
-5.767236212791317
 21
56.1385403264748
 31
0.0
  0
LINE
  5
83E8
330
1F
100
AcDbEntity
  8
AM_0
100
AcDbLine
 10
-6.527359646164086
 20
55.17467961178015
 30
0.0
 11
-5.925439295061437
 21
55.88647048362019
 31
0.0
  0
LINE
  5
83E9
330
1F
100
AcDbEntity
  8
AM_0
100
AcDbLine
 10
-5.682568805437654
 20
56.6451143626358
 30
0.0
 11
-5.704292369318977
 21
56.89341525503134
 31
0.0
  0
LINE
  5
83EA
330
1F
100
AcDbEntity
  8
AM_0
100
AcDbLine
 10
-6.938625004289747
 20
59.80530971856506
 30
0.0
 11
-9.039509879912316
 21
59.66066047610643
 31
0.0
  0
LINE
  5
83EB
330
1F
100
AcDbEntity
  8
AM_0
100
AcDbLine
 10
-13.0265339742433
 20
63.13943942870266
 30
0.0
 11
-12.99833974350588
 21
62.81717864816396
 31
0.0
  0
LINE
  5
83EC
330
1F
100
AcDbEntity
  8
AM_0
100
AcDbLine
 10
-9.044294663779169
 20
54.4946298908636
 30
0.0
 11
-11.29828003488285
 21
54.33943943743797
 31
0.0
  0
LINE
  5
83ED
330
1F
100
AcDbEntity
  8
AM_0
100
AcDbLine
 10
-12.02588740534338
 20
54.46793915476011
 30
0.0
 11
-10.49950940470034
 21
54.75162932550794
 31
0.0
  0
LINE
  5
83EE
330
1F
100
AcDbEntity
  8
AM_0
100
AcDbLine
 10
-9.044294663779169
 20
54.4946298908636
 30
0.0
 11
-9.07535798076185
 21
54.84968440078096
 31
0.0
  0
LINE
  5
83EF
330
1F
100
AcDbEntity
  8
AM_0
100
AcDbLine
 10
-10.49950940470034
 20
54.75162932550794
 30
0.0
 11
-8.24552403359678
 21
54.90681977893358
 31
0.0
  0
LINE
  5
83F0
330
1F
100
AcDbEntity
  8
AM_0
100
AcDbLine
 10
-7.517916663136134
 20
54.77832006161143
 30
0.0
 11
-9.044294663779169
 21
54.4946298908636
 31
0.0
  0
LINE
  5
83F1
330
1F
100
AcDbEntity
  8
AM_0
100
AcDbLine
 10
-8.24552403359678
 20
54.90681977893358
 30
0.0
 11
-7.517916663136134
 21
54.77832006161138
 31
0.0
  0
LINE
  5
83F2
330
1F
100
AcDbEntity
  8
AM_0
100
AcDbLine
 10
-11.29828003488285
 20
54.33943943743797
 30
0.0
 11
-11.32098443317284
 21
54.59895129228532
 31
0.0
  0
LINE
  5
83F3
330
1F
100
AcDbEntity
  8
AM_0
100
AcDbLine
 10
-11.29828003488285
 20
54.33943943743797
 30
0.0
 11
-12.02588740534338
 21
54.46793915476011
 31
0.0
  0
LINE
  5
83F4
330
1F
100
AcDbEntity
  8
AM_0
100
AcDbLine
 10
-14.41136898824686
 20
55.95629499328167
 30
0.0
 11
-14.21167633070138
 21
56.05934246529914
 31
0.0
  0
LINE
  5
83F5
330
1F
100
AcDbEntity
  8
AM_0
100
AcDbLine
 10
-14.8367490435063
 20
55.95501017484803
 30
0.0
 11
-14.10570935516591
 21
56.10503724811467
 31
0.0
  0
LINE
  5
83F6
330
1F
100
AcDbEntity
  8
AM_0
100
AcDbLine
 10
-12.3213381519314
 20
56.47123349369791
 30
0.0
 11
-11.92756755222774
 21
56.55204477050578
 31
0.0
  0
LINE
  5
83F7
330
1F
100
AcDbEntity
  8
AM_0
100
AcDbLine
 10
-14.15022358923738
 20
55.90428883500196
 30
0.0
 11
-14.16568354422986
 21
56.08099651713001
 31
0.0
  0
LINE
  5
83F8
330
1F
100
AcDbEntity
  8
AM_0
100
AcDbLine
 10
-11.92756755222774
 20
56.55204477050578
 30
0.0
 11
-11.48791324784917
 21
56.58231566388501
 31
0.0
  0
LINE
  5
83F9
330
1F
100
AcDbEntity
  8
AM_0
100
AcDbLine
 10
-13.06292817781502
 20
54.60289012230889
 30
0.0
 11
-13.77930543555669
 21
55.1993446292892
 31
0.0
  0
LINE
  5
83FA
330
1F
100
AcDbEntity
  8
AM_0
100
AcDbLine
 10
-29.93460619674772
 20
61.68011025131774
 30
0.0
 11
-20.12751795173278
 21
61.68011025131774
 31
0.0
  0
LINE
  5
83FB
330
1F
100
AcDbEntity
  8
AM_0
100
AcDbLine
 10
-16.17591889107347
 20
62.14187756646634
 30
0.0
 11
-16.55912271817067
 21
57.27669745458148
 31
0.0
  0
LINE
  5
83FC
330
1F
100
AcDbEntity
  8
AM_0
100
AcDbLine
 10
-17.9913089478988
 20
56.53764589281819
 30
0.0
 11
-18.46122303427523
 21
61.90877595388609
 31
0.0
  0
LINE
  5
83FD
330
1F
100
AcDbEntity
  8
AM_0
100
AcDbLine
 10
-18.02159452521868
 20
56.50771113249549
 30
0.0
 11
-18.4938900325161
 21
61.90606089577521
 31
0.0
  0
LINE
  5
83FE
330
1F
100
AcDbEntity
  8
AM_0
100
AcDbLine
 10
-16.30533334916856
 20
56.9881676979633
 30
0.0
 11
-15.89300431587878
 21
62.2231232763309
 31
0.0
  0
LINE
  5
83FF
330
1F
100
AcDbEntity
  8
AM_0
100
AcDbLine
 10
-18.89559814501069
 20
61.68011025131772
 30
0.0
 11
-20.12751795173301
 21
61.68011025131774
 31
0.0
  0
LINE
  5
8400
330
1F
100
AcDbEntity
  8
AM_0
100
AcDbLine
 10
-18.19686955333247
 20
61.92877196512267
 30
0.0
 11
-16.34131125899648
 21
62.05653008491684
 31
0.0
  0
LINE
  5
8401
330
1F
100
AcDbEntity
  8
AM_0
100
AcDbLine
 10
-18.87617227164116
 20
61.86864934232805
 30
0.0
 11
-18.89559814501058
 21
61.68011025131772
 31
0.0
  0
LINE
  5
8402
330
1F
100
AcDbEntity
  8
AM_0
100
AcDbLine
 10
-18.4741218665157
 20
61.68011025131772
 30
0.0
 11
-18.89559814501058
 21
61.68011025131772
 31
0.0
  0
LINE
  5
8403
330
1F
100
AcDbEntity
  8
AM_0
100
AcDbLine
 10
-18.87617227164116
 20
61.86864934232805
 30
0.0
 11
-18.49292551944506
 21
61.89503648663235
 31
0.0
  0
LINE
  5
8404
330
1F
100
AcDbEntity
  8
AM_0
100
AcDbLine
 10
-18.87617227164116
 20
61.86864934232805
 30
0.0
 11
-18.8763186064599
 21
61.87032195306072
 31
0.0
  0
LINE
  5
8405
330
1F
100
AcDbEntity
  8
AM_0
100
AcDbLine
 10
-16.17591889107359
 20
62.14187756646634
 30
0.0
 11
-17.98263294358423
 21
61.20955828113061
 31
0.0
  0
LINE
  5
8406
330
1F
100
AcDbEntity
  8
AM_0
100
AcDbLine
 10
-17.98263294358423
 20
61.20955828113061
 30
0.0
 11
-18.20162517464166
 21
61.9284439378844
 31
0.0
  0
LINE
  5
8407
330
1F
100
AcDbEntity
  8
AM_0
100
AcDbLine
 10
-16.55912271817067
 20
57.27669745458148
 30
0.0
 11
-17.9913089478988
 21
56.53764589281819
 31
0.0
  0
ARC
  5
8408
330
1F
100
AcDbEntity
  8
AM_0
100
AcDbCircle
 10
-16.52730250454817
 20
56.63844504913676
 30
0.0
 40
1.499999999999999
100
AcDbArc
 50
185.0000115995456
 51
273.9386889405579
  0
LINE
  5
8409
330
1F
100
AcDbEntity
  8
AM_0
100
AcDbLine
 10
-30.16873827460983
 20
62.55390306158069
 30
0.0
 11
-29.93460619674772
 21
61.68011025131774
 31
0.0
  0
LINE
  5
840A
330
1F
100
AcDbEntity
  8
AM_0
100
AcDbLine
 10
-27.84517047379893
 20
63.11063493532545
 30
0.0
 11
-30.16873827460983
 21
62.55390306158069
 31
0.0
  0
LINE
  5
8410
330
1F
100
AcDbEntity
  8
AM_0
100
AcDbLine
 10
-30.99999996647227
 20
-6.999880503299493
 30
0.0
 11
-30.16233527460986
 21
-5.549002697287164
 31
0.0
  0
LINE
  5
8411
330
1F
100
AcDbEntity
  8
AM_0
100
AcDbLine
 10
-30.16873827460983
 20
-5.549002697287107
 30
0.0
 11
-29.93460619674772
 21
-15.73176001858757
 31
0.0
  0
LINE
  5
8412
330
1F
100
AcDbEntity
  8
AM_0
100
AcDbLine
 10
-8.81461476989898
 20
-4.35831543874076
 30
0.0
 11
-10.86674469595368
 21
-7.109408673835503
 31
0.0
  0
LINE
  5
8413
330
1F
100
AcDbEntity
  8
AM_0
100
AcDbLine
 10
-11.15547081825309
 20
-8.006783628160178
 30
0.0
 11
-15.23379533049444
 21
-1.304332839934943
 31
0.0
  0
LINE
  5
8414
330
1F
100
AcDbEntity
  8
AM_0
100
AcDbLine
 10
-11.15547081825309
 20
-8.006783628160292
 30
0.0
 11
-15.14764654207101
 21
-1.445912553157313
 31
0.0
  0
LINE
  5
8415
330
1F
100
AcDbEntity
  8
AM_0
100
AcDbLine
 10
-1.372162429700097
 20
-13.99988050330046
 30
0.0
 11
-1.372162429700097
 21
-3.515177294679801
 31
0.0
  0
LINE
  5
8416
330
1F
100
AcDbEntity
  8
AM_0
100
AcDbLine
 10
-1.372162429700097
 20
-3.515177294679801
 30
0.0
 11
-5.087238026755699
 21
-10.31079539627819
 31
0.0
  0
LINE
  5
8417
330
1F
100
AcDbEntity
  8
AM_0
100
AcDbLine
 10
-6.935395096699608
 20
-3.925799168901107
 30
0.0
 11
-6.938625004289747
 21
-8.809935680011108
 31
0.0
  0
LINE
  5
8418
330
1F
100
AcDbEntity
  8
AM_0
100
AcDbLine
 10
-6.193281602314641
 20
-9.262661709750659
 30
0.0
 11
-6.190337870839925
 21
-4.811269224287968
 31
0.0
  0
LINE
  5
8419
330
1F
100
AcDbEntity
  8
AM_0
100
AcDbLine
 10
-5.360448543254165
 20
-8.277927535295305
 30
0.0
 11
-6.160933890137812
 21
-4.921466434310787
 31
0.0
  0
LINE
  5
841A
330
1F
100
AcDbEntity
  8
AM_0
100
AcDbLine
 10
-8.742817347222057
 20
-4.269594688642087
 30
0.0
 11
-9.956596038358497
 21
-8.464029784011358
 31
0.0
  0
LINE
  5
841B
330
1F
100
AcDbEntity
  8
AM_0
100
AcDbLine
 10
-9.039509879912202
 20
-8.364096310888726
 30
0.0
 11
-7.707733173825886
 21
-3.761897412526593
 31
0.0
  0
LINE
  5
841C
330
1F
100
AcDbEntity
  8
AM_0
100
AcDbLine
 10
-0.0973052240293555
 20
-1.183207869703437
 30
0.0
 11
-5.087238026755699
 21
-10.31079539627819
 31
0.0
  0
LINE
  5
841D
330
1F
100
AcDbEntity
  8
AM_5
 62
     3
100
AcDbLine
 10
-14.48763392446778
 20
-0.2386171488389266
 30
0.0
 11
-18.27117066068626
 21
-0.304659028094818
 31
0.0
  0
LINE
  5
841E
330
1F
100
AcDbEntity
  8
AM_0
100
AcDbLine
 10
-15.03441244365251
 20
-0.4708442115551748
 30
0.0
 11
-15.44769607016291
 21
-0.8857045870356614
 31
0.0
  0
LINE
  5
8420
330
1F
100
AcDbEntity
  8
AM_0
100
AcDbLine
 10
-14.48763392446778
 20
-0.2386171488388982
 30
0.0
 11
-0.8172665954937201
 21
0.0
 31
0.0
  0
LINE
  5
8421
330
1F
100
AcDbEntity
  8
AM_0
100
AcDbLine
 10
-8.674336645497191
 20
-4.196250476868669
 30
0.0
 11
-8.850691253271747
 21
-4.373277908167665
 31
0.0
  0
LINE
  5
8422
330
1F
100
AcDbEntity
  8
AM_0
100
AcDbLine
 10
-15.23379533049444
 20
-1.304332839934943
 30
0.0
 11
-27.8404180673283
 21
-1.524382257888177
 31
0.0
  0
LINE
  5
8424
330
1F
100
AcDbEntity
  8
AM_0
100
AcDbLine
 10
-27.83876747379895
 20
-1.524465211451513
 30
0.0
 11
-30.16233527460986
 21
-5.549002697287107
 31
0.0
  0
LINE
  5
8425
330
1F
100
AcDbEntity
  8
AM_0
100
AcDbLine
 10
-12.73660677007649
 20
-13.53405244937891
 30
0.0
 11
-15.64578826135505
 21
-17.43411229388692
 31
0.0
  0
LINE
  5
8426
330
1F
100
AcDbEntity
  8
AM_0
100
AcDbLine
 10
-11.00756591212496
 20
-7.808501744776378
 30
0.0
 11
-15.89300431587878
 21
-14.3579391719079
 31
0.0
  0
LINE
  5
8427
330
1F
100
AcDbEntity
  8
AM_0
100
AcDbLine
 10
-17.46065881723746
 20
-27.78250251463731
 30
0.0
 11
-12.58063733940196
 21
-28.81811647056014
 31
0.0
  0
LINE
  5
8428
330
1F
100
AcDbEntity
  8
AM_0
100
AcDbLine
 10
-16.82684149086651
 20
-27.1462670648458
 30
0.0
 11
-7.066798535195289
 21
-29.21749497669145
 31
0.0
  0
LINE
  5
8429
330
1F
100
AcDbEntity
  8
AM_0
100
AcDbLine
 10
-16.3970660676224
 20
-25.55389626832431
 30
0.0
 11
-14.8367490435063
 21
-17.94013660772543
 31
0.0
  0
LINE
  5
842A
330
1F
100
AcDbEntity
  8
AM_0
100
AcDbLine
 10
-6.637023111951407
 20
-27.62512418017001
 30
0.0
 11
-16.39706606762251
 21
-25.55389626832431
 31
0.0
  0
LINE
  5
842B
330
1F
100
AcDbEntity
  8
AM_0
100
AcDbLine
 10
-14.41136898824686
 20
-18.34927023931425
 30
0.0
 11
-14.21167633070126
 21
-17.37484524936724
 31
0.0
  0
LINE
  5
842C
330
1F
100
AcDbEntity
  8
AM_0
100
AcDbLine
 10
-12.02588740534326
 20
-18.16761628787395
 30
0.0
 11
-10.49950940470023
 21
-16.45793110647139
 31
0.0
  0
LINE
  5
842D
330
1F
100
AcDbEntity
  8
AM_0
100
AcDbLine
 10
-7.778389536987219
 20
-19.38574210504168
 30
0.0
 11
-8.505996907447865
 21
-17.19772732665632
 31
0.0
  0
LINE
  5
842E
330
1F
100
AcDbEntity
  8
AM_0
100
AcDbLine
 10
-8.24552403359678
 20
-16.9362607034543
 30
0.0
 11
-7.517916663136134
 21
-19.12427548183973
 31
0.0
  0
LINE
  5
842F
330
1F
100
AcDbEntity
  8
AM_0
100
AcDbLine
 10
-4.223315745262539
 20
-19.85813276234955
 30
0.0
 11
-5.358115801353847
 21
-15.09987920968427
 31
0.0
  0
LINE
  5
8430
330
1F
100
AcDbEntity
  8
AM_0
100
AcDbLine
 10
-3.494527504219149
 20
-16.98908243155506
 30
0.0
 11
-3.906856537508815
 21
-20.6305019673166
 31
0.0
  0
LINE
  5
8431
330
1F
100
AcDbEntity
  8
AM_0
100
AcDbLine
 10
-3.853421035628684
 20
-20.9834032991776
 30
0.0
 11
-3.4637055751474
 21
-17.54169200404413
 31
0.0
  0
LINE
  5
8432
330
1F
100
AcDbEntity
  8
AM_0
100
AcDbLine
 10
-3.494527504219149
 20
-16.989082431555
 30
0.0
 11
-5.40021671310194
 21
-8.998465582561834
 31
0.0
  0
LINE
  5
8433
330
1F
100
AcDbEntity
  8
AM_0
100
AcDbLine
 10
-5.40021671310194
 20
-8.998465582561891
 30
0.0
 11
-5.360448543254165
 21
-8.277927535295305
 31
0.0
  0
LINE
  5
8434
330
1F
100
AcDbEntity
  8
AM_0
100
AcDbLine
 10
-6.211506143926612
 20
-15.25311096690586
 30
0.0
 11
-6.057905930268361
 21
-15.89716165971827
 31
0.0
  0
LINE
  5
8435
330
1F
100
AcDbEntity
  8
AM_0
100
AcDbLine
 10
-6.65116044830529
 20
-15.15980971086344
 30
0.0
 11
-6.211506143926612
 21
-15.25311096690586
 31
0.0
  0
LINE
  5
8436
330
1F
100
AcDbEntity
  8
AM_0
100
AcDbLine
 10
-6.938625004289747
 20
-8.809935680011051
 30
0.0
 11
-9.039509879912202
 21
-8.364096310888726
 31
0.0
  0
LINE
  5
8437
330
1F
100
AcDbEntity
  8
AM_0
100
AcDbLine
 10
-10.86674469595368
 20
-7.109408673835503
 30
0.0
 11
-11.00756591212496
 21
-7.808501744776378
 31
0.0
  0
LINE
  5
8438
330
1F
100
AcDbEntity
  8
AM_0
100
AcDbLine
 10
-8.24552403359678
 20
-16.9362607034543
 30
0.0
 11
-8.505996907447865
 21
-17.19772732665626
 31
0.0
  0
LINE
  5
8439
330
1F
100
AcDbEntity
  8
AM_0
100
AcDbLine
 10
-8.505996907447865
 20
-17.19772732665632
 30
0.0
 11
-10.73724939851683
 21
-16.72422198873232
 31
0.0
  0
LINE
  5
843A
330
1F
100
AcDbEntity
  8
AM_0
100
AcDbLine
 10
-10.49950940470023
 20
-16.45793110647145
 30
0.0
 11
-8.245524033596666
 21
-16.9362607034543
 31
0.0
  0
LINE
  5
843B
330
1F
100
AcDbEntity
  8
AM_0
100
AcDbLine
 10
-14.8367490435063
 20
-17.94013660772543
 30
0.0
 11
-14.10570935516591
 21
-16.96010200287696
 31
0.0
  0
LINE
  5
843C
330
1F
100
AcDbEntity
  8
AM_0
100
AcDbLine
 10
-12.3213381519314
 20
-14.56796713666307
 30
0.0
 11
-11.92756755222774
 21
-14.04007676321748
 31
0.0
  0
LINE
  5
843D
330
1F
100
AcDbEntity
  8
AM_0
100
AcDbLine
 10
-12.92731633307005
 20
-15.79151470795312
 30
0.0
 11
-13.21694362639084
 21
-16.08224697980961
 31
0.0
  0
LINE
  5
843E
330
1F
100
AcDbEntity
  8
AM_0
100
AcDbLine
 10
-11.92756755222774
 20
-14.04007676321748
 30
0.0
 11
-11.48791324784906
 21
-14.1333780192599
 31
0.0
  0
LINE
  5
843F
330
1F
100
AcDbEntity
  8
AM_0
100
AcDbLine
 10
-6.905476061604872
 20
-21.790467928721
 30
0.0
 11
-7.195103354925663
 21
-22.08120020057748
 31
0.0
  0
LINE
  5
8440
330
1F
100
AcDbEntity
  8
AM_0
100
AcDbLine
 10
-5.076706087835077
 20
-20.01136451957114
 30
0.0
 11
-6.637023111951407
 21
-27.62512418017001
 31
0.0
  0
LINE
  5
8441
330
1F
100
AcDbEntity
  8
AM_0
100
AcDbLine
 10
-3.870933295013742
 20
-21.09443068471688
 30
0.0
 11
-5.297799302854059
 21
-28.05699962658207
 31
0.0
  0
LINE
  5
8442
330
1F
100
AcDbEntity
  8
AM_0
100
AcDbLine
 10
-5.627330328142875
 20
-20.21337535997537
 30
0.0
 11
-5.913850489379115
 21
-20.50098864549755
 31
0.0
  0
LINE
  5
8443
330
1F
100
AcDbEntity
  8
AM_0
100
AcDbLine
 10
-5.427637670597164
 20
-19.23895037002836
 30
0.0
 11
-5.714157831833404
 21
-19.5265636555506
 31
0.0
  0
LINE
  5
8444
330
1F
100
AcDbEntity
  8
AM_0
100
AcDbLine
 10
-5.361866667132403
 20
-18.81567693369419
 30
0.0
 11
-5.076706087835077
 21
-20.01136451957108
 31
0.0
  0
LINE
  5
8445
330
1F
100
AcDbEntity
  8
AM_0
100
AcDbLine
 10
-5.427637670597164
 20
-19.23895037002836
 30
0.0
 11
-5.627330328142875
 21
-20.21337535997537
 31
0.0
  0
LINE
  5
8446
330
1F
100
AcDbEntity
  8
AM_0
100
AcDbLine
 10
-5.913850489379115
 20
-20.50098864549755
 30
0.0
 11
-5.714157831833404
 21
-19.5265636555506
 31
0.0
  0
ARC
  5
8447
330
1F
100
AcDbEntity
  8
AM_0
100
AcDbCircle
 10
-6.76725954887695
 20
-27.75585749177098
 30
0.0
 40
1.5
100
AcDbArc
 50
315.1090884579929
 51
348.4185114876311
  0
LINE
  5
8448
330
1F
100
AcDbEntity
  8
AM_0
100
AcDbLine
 10
-5.7045818539126
 20
-28.8144962954359
 30
0.0
 11
-6.338399180283545
 21
-29.45073174522741
 31
0.0
  0
LINE
  5
8449
330
1F
100
AcDbEntity
  8
AM_0
100
AcDbLine
 10
-9.044294663779169
 20
-20.83396066324223
 30
0.0
 11
-11.29828003488273
 21
-20.35563106625937
 31
0.0
  0
LINE
  5
844A
330
1F
100
AcDbEntity
  8
AM_0
100
AcDbLine
 10
-7.517916663136134
 20
-19.12427548183967
 30
0.0
 11
-7.778389536987219
 21
-19.38574210504168
 31
0.0
  0
LINE
  5
844B
330
1F
100
AcDbEntity
  8
AM_0
100
AcDbLine
 10
-9.067027543813765
 20
-20.82913640418331
 30
0.0
 11
-7.778389536987219
 21
-19.38574210504168
 31
0.0
  0
LINE
  5
844C
330
1F
100
AcDbEntity
  8
AM_0
100
AcDbLine
 10
-7.517916663136134
 20
-19.12427548183967
 30
0.0
 11
-9.044294663779169
 21
-20.83396066324223
 31
0.0
  0
LINE
  5
844D
330
1F
100
AcDbEntity
  8
AM_0
100
AcDbLine
 10
-11.29828003488273
 20
-20.35563106625937
 30
0.0
 11
-12.02588740534326
 21
-18.16761628787395
 31
0.0
  0
LINE
  5
844E
330
1F
100
AcDbEntity
  8
AM_0
100
AcDbLine
 10
-16.17591889107336
 20
-15.00121095069943
 30
0.0
 11
-16.55912271817067
 21
-18.38541577139073
 31
0.0
  0
LINE
  5
844F
330
1F
100
AcDbEntity
  8
AM_0
100
AcDbLine
 10
-29.93460619674772
 20
-15.73176001858757
 30
0.0
 11
-20.12751795173278
 21
-25.50157472001149
 31
0.0
  0
LINE
  5
8450
330
1F
100
AcDbEntity
  8
AM_0
100
AcDbLine
 10
-16.17591889107347
 20
-15.00121095069943
 30
0.0
 11
-17.98263294358423
 21
-23.81729534805748
 31
0.0
  0
LINE
  5
8451
330
1F
100
AcDbEntity
  8
AM_0
100
AcDbLine
 10
-16.30533334916856
 20
-17.99935870766944
 30
0.0
 11
-15.89300431587878
 21
-14.3579391719079
 31
0.0
  0
LINE
  5
8452
330
1F
100
AcDbEntity
  8
AM_0
100
AcDbLine
 10
-16.55912271817067
 20
-18.38541577139073
 30
0.0
 11
-17.99130894789868
 21
-25.37394539314846
 31
0.0
  0
LINE
  5
8453
330
1F
100
AcDbEntity
  8
AM_0
100
AcDbLine
 10
-18.56360311444143
 20
-25.9523027043495
 30
0.0
 11
-18.56361124783359
 21
-25.95230097832137
 31
0.0
  0
LINE
  5
8454
330
1F
100
AcDbEntity
  8
AM_0
100
AcDbLine
 10
-18.87617227164105
 20
-27.81399541714819
 30
0.0
 11
-18.89559814501046
 21
-27.9667041390814
 31
0.0
  0
LINE
  5
8455
330
1F
100
AcDbEntity
  8
AM_0
100
AcDbLine
 10
-17.19122385373884
 20
-28.42670892188533
 30
0.0
 11
-18.89559814501046
 21
-27.9667041390814
 31
0.0
  0
LINE
  5
8456
330
1F
100
AcDbEntity
  8
AM_0
100
AcDbLine
 10
-18.56361124783336
 20
-25.95230097832143
 30
0.0
 11
-18.67821931232799
 21
-26.06734629253037
 31
0.0
  0
LINE
  5
8457
330
1F
100
AcDbEntity
  8
AM_0
100
AcDbLine
 10
-18.59905825161479
 20
-26.08414546024153
 30
0.0
 11
-18.67821931232799
 21
-26.06734629253037
 31
0.0
  0
LINE
  5
8458
330
1F
100
AcDbEntity
  8
AM_0
100
AcDbLine
 10
-17.46065881723746
 20
-27.78250251463731
 30
0.0
 11
-16.82684149086651
 21
-27.1462670648458
 31
0.0
  0
LINE
  5
8459
330
1F
100
AcDbEntity
  8
AM_0
100
AcDbLine
 10
-18.19686955333247
 20
-24.59347789862397
 30
0.0
 11
-18.1955295967374
 21
-24.59376225756716
 31
0.0
  0
LINE
  5
845A
330
1F
100
AcDbEntity
  8
AM_0
100
AcDbLine
 10
-17.98263294358423
 20
-23.81729534805754
 30
0.0
 11
-18.2860793267306
 21
-24.92401108000427
 31
0.0
  0
LINE
  5
845B
330
1F
100
AcDbEntity
  8
AM_0
100
AcDbLine
 10
-18.19686955333247
 20
-24.59347789862403
 30
0.0
 11
-18.56361124783359
 21
-25.95230097832137
 31
0.0
  0
LINE
  5
845C
330
1F
100
AcDbEntity
  8
AM_0
100
AcDbLine
 10
-17.9913089478988
 20
-25.37394539314846
 30
0.0
 11
-18.56217866308929
 21
-25.9469930756664
 31
0.0
  0
LINE
  5
845E
330
1F
100
AcDbEntity
  8
AM_0
100
AcDbLine
 10
63.0153195026952
 20
-31.99988050329951
 30
0.0
 11
62.08291025419374
 21
-31.99988050329951
 31
0.0
  0
LINE
  5
845F
330
1F
100
AcDbEntity
  8
AM_0
100
AcDbLine
 10
62.83831565571086
 20
-30.75502714823342
 30
0.0
 11
62.48989770690787
 21
-29.68112979595675
 31
0.0
  0
LINE
  5
8460
330
1F
100
AcDbEntity
  8
AM_0
100
AcDbLine
 10
62.93207836240686
 20
-30.67908330535284
 30
0.0
 11
62.83831565571097
 21
-30.75502714823342
 31
0.0
  0
LINE
  5
8461
330
1F
100
AcDbEntity
  8
AM_0
100
AcDbLine
 10
62.88858712080696
 20
-29.71614375792201
 30
0.0
 11
63.03840563863559
 21
-30.17791592026675
 31
0.0
  0
LINE
  5
8462
330
1F
100
AcDbEntity
  8
AM_0
100
AcDbLine
 10
62.08291025419374
 20
-31.99988050329951
 30
0.0
 11
62.08291025419374
 21
-29.64538707820976
 31
0.0
  0
LINE
  5
8463
330
1F
100
AcDbEntity
  8
AM_0
100
AcDbLine
 10
-13.60442000080559
 20
-31.99988050329949
 30
0.0
 11
-29.93460619674772
 21
-31.99988050329949
 31
0.0
  0
LINE
  5
8464
330
1F
100
AcDbEntity
  8
AM_0
100
AcDbLine
 10
-2.946958373166467
 20
-31.99988050329949
 30
0.0
 11
-13.60442000080559
 21
-31.99988050329949
 31
0.0
  0
LINE
  5
8465
330
1F
100
AcDbEntity
  8
AM_0
100
AcDbLine
 10
-6.188116429268234
 20
-30.50659170254749
 30
0.0
 11
-6.219719571821428
 21
-30.75502714823341
 31
0.0
  0
LINE
  5
8466
330
1F
100
AcDbEntity
  8
AM_0
100
AcDbLine
 10
-29.93460619674772
 20
-31.99988050329949
 30
0.0
 11
-31.00640296647225
 21
-31.99988050329949
 31
0.0
  0
LINE
  5
846B
330
1F
100
AcDbEntity
  8
AM_0
100
AcDbLine
 10
-149.9999999664724
 20
65.62862025131774
 30
0.0
 11
-149.9999999664724
 21
90.62862025131774
 31
0.0
  0
LINE
  5
8471
330
1F
100
AcDbEntity
  8
AM_0
100
AcDbLine
 10
-149.9999999664724
 20
-31.99988050329948
 30
0.0
 11
-149.9999999664722
 21
-6.999880503299422
 31
0.0
  0
LINE
  5
8473
330
1F
100
AcDbEntity
  8
AM_5
 62
     3
100
AcDbLine
 10
-149.9999999664724
 20
-6.999880503299479
 30
0.0
 11
-149.9999999664724
 21
65.68011025131774
 31
0.0
  0
DIMENSION
  5
847C
330
1F
100
AcDbEntity
  8
AM_5
100
AcDbDimension
  2
*D10
 10
15.61153513643864
 20
-0.0000000000000047
 30
0.0
 11
12.21116112069061
 21
-15.99994025164974
 31
0.0
 70
    32
  3
AM_JIS$0
100
AcDbAlignedDimension
 13
-2.94695837316658
 23
-31.99988050329949
 33
0.0
 14
-0.8172665954937201
 24
0.0
 34
0.0
 50
270.0
100
AcDbRotatedDimension
  0
DIMENSION
  5
8492
330
1F
100
AcDbEntity
  8
AM_5
100
AcDbDimension
  2
*D11
 10
-18.27117066068626
 20
-0.304659028094818
 30
0.0
 11
-15.50049457619736
 21
15.24655903896376
 31
0.0
 70
    34
  3
AM_JIS$2
100
AcDb2LineAngularDimension
 13
0.0
 23
-0.8648411930501538
 33
0.0
 14
0.0
 24
37.527626849084
 34
0.0
 15
-14.48763392446778
 25
-0.2386171488389266
 35
0.0
 16
-9.258303222137627
 26
15.83681349651355
 36
0.0
1001
ACAD
1000
DSTYLE
1002
{
1070
   271
1070
     0
1002
}
  0
DIMENSION
  5
84AA
330
1F
100
AcDbEntity
  8
AM_5
100
AcDbDimension
  2
*D12
 10
-30.99999996647227
 20
27.27799226568582
 30
0.0
 11
-15.49999998323613
 21
30.67799226568582
 31
0.0
 70
    32
  3
AM_JIS$0
100
AcDbAlignedDimension
 13
0.0
 23
3.713093900476565
 33
0.0
 14
-30.99999996647227
 24
-6.999880503299465
 34
0.0
 50
180.0
100
AcDbRotatedDimension
1001
ACAD
1000
DSTYLE
1002
{
1070
   271
1070
     6
1002
}
  0
DIMENSION
  5
84D3
330
1F
100
AcDbEntity
  8
AM_5
100
AcDbDimension
  2
*D13
 10
-149.9999999664724
 20
39.86877457295283
 30
0.0
 11
-74.9999999832362
 21
43.26877457295283
 31
0.0
 70
    32
  3
AM_JIS$0
100
AcDbAlignedDimension
 13
0.0
 23
8.291028994003283
 33
0.0
 14
-149.9999999664724
 24
-6.999880503299422
 34
0.0
 50
180.0
100
AcDbRotatedDimension
1001
ACAD
1000
DSTYLE
1002
{
1070
   271
1070
     6
1002
}
  0
DIMENSION
  5
850D
330
1F
100
AcDbEntity
  8
AM_5
100
AcDbDimension
  2
*D14
 10
-166.5377677075163
 20
-6.999880503299474
 30
0.0
 11
-169.9381417232643
 21
-19.4998805032995
 31
0.0
 70
    32
  3
AM_JIS$0
100
AcDbAlignedDimension
 13
-149.9999999664724
 23
-31.99988050329948
 33
0.0
 14
-149.9999999664724
 24
-6.999880503299479
 34
0.0
 50
270.0
100
AcDbRotatedDimension
  0
DIMENSION
  5
851A
330
1F
100
AcDbEntity
  8
AM_5
100
AcDbDimension
  2
*D15
 10
-169.1957034970647
 20
90.62862025131776
 30
0.0
 11
-172.5960775128128
 21
78.12862025131773
 31
0.0
 70
    32
  3
AM_JIS$0
100
AcDbAlignedDimension
 13
-149.9999999664724
 23
65.62862025131774
 33
0.0
 14
-149.9999999664724
 24
90.62862025131774
 34
0.0
 50
270.0
100
AcDbRotatedDimension
  0
DIMENSION
  5
8527
330
1F
100
AcDbEntity
  8
AM_5
100
AcDbDimension
  2
*D16
 10
16.4896683123892
 20
90.62862025131774
 30
0.0
 11
13.08929429664115
 21
78.12862028502198
 31
0.0
 70
    32
  3
AM_JIS$0
100
AcDbAlignedDimension
 13
-0.0019000359642405
 23
65.62862031872622
 33
0.0
 14
-1.372162429700097
 24
90.62862025131774
 34
0.0
 50
270.0
100
AcDbRotatedDimension
1001
ACAD
1000
DSTYLE
1002
{
1070
   271
1070
     6
1002
}
  0
ENDSEC
  0
SECTION
  2
OBJECTS
  0
DICTIONARY
  5
C
330
0
100
AcDbDictionary
  3
ACAD_GROUP
350
D
  3
ACAD_LAYOUT
350
1A
  3
ACAD_MLINESTYLE
350
17
  3
ACAD_PLOTSETTINGS
350
19
  3
ACAD_PLOTSTYLENAME
350
E
  3
ACDBVARIABLEDICTIONARY
350
30
  3
ACMDICTIONARY
350
4D
  3
AMG
350
3F
  3
AMGSNAPSETTINGS
350
73
  3
ENG_DATA
350
21C6
  3
FILENAME
350
21C9
  3
HOLD_DIC_DATA
350
21C4
  3
TABLE_DIC_DATA
350
1C0B
  3
ZWKSIZE
350
21CB
  3
DWGPROPS
350
8601
  3
ACDBHEADERROUNDTRIPXREC
350
860D
  0
DICTIONARY
  5
165
330
1F
100
AcDbDictionary
280
     1
  3
ACAD_INDEX
360
8603
  3
ACAD_LAYOUTSELFREF
360
8630
  0
DICTIONARY
  5
862E
330
1B
100
AcDbDictionary
280
     1
  3
ACAD_LAYOUTSELFREF
360
862F
  0
DICTIONARY
  5
D
102
{ACAD_REACTORS
330
C
102
}
330
C
100
AcDbDictionary
  3
*A1
350
7C0D
  3
*A2
350
7C0E
  3
*A3
350
847B
  0
DICTIONARY
  5
1A
102
{ACAD_REACTORS
330
C
102
}
330
C
100
AcDbDictionary
  0
DICTIONARY
  5
17
102
{ACAD_REACTORS
330
C
102
}
330
C
100
AcDbDictionary
  3
STANDARD
350
18
  0
DICTIONARY
  5
19
102
{ACAD_REACTORS
330
C
102
}
330
C
100
AcDbDictionary
  0
ACDBDICTIONARYWDFLT
  5
E
102
{ACAD_REACTORS
330
C
102
}
330
C
100
AcDbDictionary
281
     1
  3
Normal
350
F
100
AcDbDictionaryWithDefault
340
F
  0
DICTIONARY
  5
30
102
{ACAD_REACTORS
330
C
102
}
330
C
100
AcDbDictionary
  3
INDEXCTL
350
31
  3
SORTENTS
350
42BE
  0
DICTIONARY
  5
4D
102
{ACAD_REACTORS
330
C
102
}
330
C
100
AcDbDictionary
  3
ACMSTDDICTIONARY
350
17E
  0
DICTIONARY
  5
3F
102
{ACAD_REACTORS
330
C
102
}
330
C
100
AcDbDictionary
  3
ACMGSETTINGS
350
40
  0
DICTIONARY
  5
73
102
{ACAD_REACTORS
330
C
102
}
330
C
100
AcDbDictionary
  0
DICTIONARY
  5
21C6
102
{ACAD_REACTORS
330
C
102
}
330
C
100
AcDbDictionary
  3
ENG_ID
350
21C7
  0
DICTIONARY
  5
21C9
102
{ACAD_REACTORS
330
C
102
}
330
C
100
AcDbDictionary
  3
FILENAME
350
21CA
  0
DICTIONARY
  5
21C4
102
{ACAD_REACTORS
330
C
102
}
330
C
100
AcDbDictionary
  3
HOLD_DATA
350
21C5
  0
DICTIONARY
  5
1C0B
102
{ACAD_REACTORS
330
C
102
}
330
C
100
AcDbDictionary
  3
INPUT_DATA
350
1C0D
  3
TABLE_DATA
350
1C0C
  0
DICTIONARY
  5
21CB
102
{ACAD_REACTORS
330
C
102
}
330
C
100
AcDbDictionary
  3
ZWKSIZE
350
21CC
  0
XRECORD
  5
8601
102
{ACAD_REACTORS
330
C
102
}
330
C
100
AcDbXrecord
  1
DWGPROPS COOKIE
  2

  3

  4

  6

  7

  8

  9

300
AmdtFileType=82
301
=
302
=
303
=
304
=
305
=
306
=
307
=
308
=
309
=
 40
0.4135500231481482
 41
2451943.610431666
 42
2453022.891311284
  1

 90
        1
  0
DICTIONARY
  5
860D
102
{ACAD_REACTORS
330
C
102
}
330
C
100
AcDbDictionary
  3
TSTACKALIGN
350
860E
  3
TSTACKSIZE
350
860F
  3
HYPERLINKBASE
350
8610
  3
STYLESHEET
350
8611
  3
LAYOUTDICT
350
8612
  3
PLOTSETDICT
350
8613
  3
PLOTSTYLNAMDICT
350
8614
  3
LWETCUNION
350
8615
  3
INSUNITS
350
8616
  3
CEPSNTYPE
350
8617
  3
FINGERPRINTGUID
350
8618
  3
VERSIONGUID
350
8619
  3
PSVPSCALE
350
861A
  3
DIMSTYLEDATA
350
861B
  3
PUCSORTHOREF
350
861C
  3
PUCSORTHOVIEW
350
861D
  3
PUCSBASE
350
861E
  3
PUCSORGTOP
350
861F
  3
PUCSORGBOTTOM
350
8620
  3
PUCSORGLEFT
350
8621
  3
PUCSORGRIGHT
350
8622
  3
PUCSORGFRONT
350
8623
  3
PUCSORGBACK
350
8624
  3
UCSORTHOREF
350
8625
  3
UCSORTHOVIEW
350
8626
  3
UCSBASE
350
8627
  3
UCSORGTOP
350
8628
  3
UCSORGBOTTOM
350
8629
  3
UCSORGLEFT
350
862A
  3
UCSORGRIGHT
350
862B
  3
UCSORGFRONT
350
862C
  3
UCSORGBACK
350
862D
  0
DICTIONARY
  5
8603
102
{ACAD_REACTORS
330
165
102
}
330
165
100
AcDbDictionary
  3
*A1
350
8604
  0
XRECORD
  5
8630
102
{ACAD_REACTORS
330
165
102
}
330
165
100
AcDbXrecord
340
1F
  0
XRECORD
  5
862F
102
{ACAD_REACTORS
330
862E
102
}
330
862E
100
AcDbXrecord
340
1B
  0
GROUP
  5
7C0D
102
{ACAD_REACTORS
330
D
102
}
330
D
100
AcDbGroup
300

 70
     1
 71
     1
  0
GROUP
  5
7C0E
102
{ACAD_REACTORS
330
D
102
}
330
D
100
AcDbGroup
300

 70
     1
 71
     1
  0
GROUP
  5
847B
102
{ACAD_REACTORS
330
D
102
}
330
D
100
AcDbGroup
300

 70
     1
 71
     1
340
8371
340
836D
340
8369
340
8375
340
8379
340
8385
340
8381
340
837D
  0
MLINESTYLE
  5
18
102
{ACAD_REACTORS
330
17
102
}
330
17
100
AcDbMlineStyle
  2
STANDARD
 70
     0
  3

 62
   256
 51
90.0
 52
90.0
 71
     2
 49
0.5
 62
   256
  6
BYLAYER
 49
-0.5
 62
   256
  6
BYLAYER
  0
ACDBPLACEHOLDER
  5
F
102
{ACAD_REACTORS
330
E
102
}
330
E
100
AcDbPlaceHolder
280
     0
  0
DICTIONARYVAR
  5
31
102
{ACAD_REACTORS
330
30
102
}
330
30
100
DictionaryVariables
280
     0
  1
1
  0
DICTIONARYVAR
  5
42BE
102
{ACAD_REACTORS
330
30
102
}
330
30
100
DictionaryVariables
280
     0
  1
96
  0
DICTIONARY
  5
17E
102
{ACAD_REACTORS
330
4D
102
}
330
4D
100
AcDbDictionary
  0
DICTIONARY
  5
40
102
{ACAD_REACTORS
330
3F
102
}
330
3F
100
AcDbDictionary
  3
DWGSETTINGS
350
41
  0
XRECORD
  5
21C7
102
{ACAD_REACTORS
330
21C6
102
}
330
21C6
100
AcDbXrecord
  1
HOLD
  0

  0
XRECORD
  5
21CA
102
{ACAD_REACTORS
330
21C9
102
}
330
21C9
100
AcDbXrecord
  1
21000065__00___
  0

  0
XRECORD
  5
21C5
102
{ACAD_REACTORS
330
21C4
102
}
330
21C4
100
AcDbXrecord
  1
クランクシャフト加工用 ^M^J１コーナー型 ^M^J15.875 ^M^J20 ^M^Jクランプオン ^M^J９０° ^M^J1 ^M^J鋼 ^M^J ^M^J ^M^J ^M^J ^M^J
  0

  0
XRECORD
  5
1C0D
102
{ACAD_REACTORS
330
1C0B
102
}
330
1C0B
100
AcDbXrecord
  1
1,,,,,,,,,^M^J2,,,,,,,,,^M^J3,,,,,,,,,^M^J4,,,,,,,,,^M^J5,,,,,,,,,^M^J6,,,,,,,,,^M^J7,,,,,,,,,^M^J8,,,,,,,,,^M^J9,,,,,,,,,^M^J10,,,,,,,,,
  0

  0
XRECORD
  5
1C0C
102
{ACAD_REACTORS
330
1C0B
102
}
330
1C0B
100
AcDbXrecord
  1
10,10
  0

  0
XRECORD
  5
21CC
102
{ACAD_REACTORS
330
21CB
102
}
330
21CB
100
AcDbXrecord
  1
3
  0

  0
XRECORD
  5
860E
102
{ACAD_REACTORS
330
860D
102
}
330
860D
100
AcDbXrecord
 90
        1
  0
XRECORD
  5
860F
102
{ACAD_REACTORS
330
860D
102
}
330
860D
100
AcDbXrecord
 90
       70
  0
XRECORD
  5
8610
102
{ACAD_REACTORS
330
860D
102
}
330
860D
100
AcDbXrecord
  1

  0
XRECORD
  5
8611
102
{ACAD_REACTORS
330
860D
102
}
330
860D
100
AcDbXrecord
  1
sei_cad.ctb
  0
XRECORD
  5
8612
102
{ACAD_REACTORS
330
860D
102
}
330
860D
100
AcDbXrecord
340
1A
  0
XRECORD
  5
8613
102
{ACAD_REACTORS
330
860D
102
}
330
860D
100
AcDbXrecord
340
19
  0
XRECORD
  5
8614
102
{ACAD_REACTORS
330
860D
102
}
330
860D
100
AcDbXrecord
340
E
  0
XRECORD
  5
8615
102
{ACAD_REACTORS
330
860D
102
}
330
860D
100
AcDbXrecord
 90
    10781
  0
XRECORD
  5
8616
102
{ACAD_REACTORS
330
860D
102
}
330
860D
100
AcDbXrecord
 90
        4
  0
XRECORD
  5
8617
102
{ACAD_REACTORS
330
860D
102
}
330
860D
100
AcDbXrecord
 90
        0
  0
XRECORD
  5
8618
102
{ACAD_REACTORS
330
860D
102
}
330
860D
100
AcDbXrecord
  1
{C77AB3BE-9CA2-11D3-BAF3-006094EB760E}
  0
XRECORD
  5
8619
102
{ACAD_REACTORS
330
860D
102
}
330
860D
100
AcDbXrecord
  1
{EFC797C7-A7E0-4FD3-AF22-832FAF0B51B2}
  0
XRECORD
  5
861A
102
{ACAD_REACTORS
330
860D
102
}
330
860D
100
AcDbXrecord
 40
0.0
  0
XRECORD
  5
861B
102
{ACAD_REACTORS
330
860D
102
}
330
860D
100
AcDbXrecord
1000
DSTYLE
1002
{
1070
    79
 70
     2
1070
   179
 70
     1
1070
   341
340
59
1070
   342
340
59
1070
   371
 70
    -1
1070
   372
 70
    -1
1002
}
  0
XRECORD
  5
861C
102
{ACAD_REACTORS
330
860D
102
}
330
860D
100
AcDbXrecord
340
0
  0
XRECORD
  5
861D
102
{ACAD_REACTORS
330
860D
102
}
330
860D
100
AcDbXrecord
 70
     0
  0
XRECORD
  5
861E
102
{ACAD_REACTORS
330
860D
102
}
330
860D
100
AcDbXrecord
340
0
  0
XRECORD
  5
861F
102
{ACAD_REACTORS
330
860D
102
}
330
860D
100
AcDbXrecord
 10
0.0
 20
0.0
 30
0.0
  0
XRECORD
  5
8620
102
{ACAD_REACTORS
330
860D
102
}
330
860D
100
AcDbXrecord
 10
0.0
 20
0.0
 30
0.0
  0
XRECORD
  5
8621
102
{ACAD_REACTORS
330
860D
102
}
330
860D
100
AcDbXrecord
 10
0.0
 20
0.0
 30
0.0
  0
XRECORD
  5
8622
102
{ACAD_REACTORS
330
860D
102
}
330
860D
100
AcDbXrecord
 10
0.0
 20
0.0
 30
0.0
  0
XRECORD
  5
8623
102
{ACAD_REACTORS
330
860D
102
}
330
860D
100
AcDbXrecord
 10
0.0
 20
0.0
 30
0.0
  0
XRECORD
  5
8624
102
{ACAD_REACTORS
330
860D
102
}
330
860D
100
AcDbXrecord
 10
0.0
 20
0.0
 30
0.0
  0
XRECORD
  5
8625
102
{ACAD_REACTORS
330
860D
102
}
330
860D
100
AcDbXrecord
340
0
  0
XRECORD
  5
8626
102
{ACAD_REACTORS
330
860D
102
}
330
860D
100
AcDbXrecord
 70
     0
  0
XRECORD
  5
8627
102
{ACAD_REACTORS
330
860D
102
}
330
860D
100
AcDbXrecord
340
0
  0
XRECORD
  5
8628
102
{ACAD_REACTORS
330
860D
102
}
330
860D
100
AcDbXrecord
 10
0.0
 20
0.0
 30
0.0
  0
XRECORD
  5
8629
102
{ACAD_REACTORS
330
860D
102
}
330
860D
100
AcDbXrecord
 10
0.0
 20
0.0
 30
0.0
  0
XRECORD
  5
862A
102
{ACAD_REACTORS
330
860D
102
}
330
860D
100
AcDbXrecord
 10
0.0
 20
0.0
 30
0.0
  0
XRECORD
  5
862B
102
{ACAD_REACTORS
330
860D
102
}
330
860D
100
AcDbXrecord
 10
0.0
 20
0.0
 30
0.0
  0
XRECORD
  5
862C
102
{ACAD_REACTORS
330
860D
102
}
330
860D
100
AcDbXrecord
 10
0.0
 20
0.0
 30
0.0
  0
XRECORD
  5
862D
102
{ACAD_REACTORS
330
860D
102
}
330
860D
100
AcDbXrecord
 10
0.0
 20
0.0
 30
0.0
  0
LAYER_INDEX
  5
8604
102
{ACAD_REACTORS
330
8603
102
}
330
8603
100
AcDbIndex
 40
2453151.555409051
100
AcDbLayerIndex
  8
0
360
8605
 90
        1
  8
AM_5
360
8606
 90
       13
  8
Defpoints
360
8607
 90
        0
  8
AM_0
360
8608
 90
      820
  8
AM_6
360
8609
 90
        3
  8
AM_1
360
860A
 90
        0
  8
AM_VIS
360
860B
 90
        0
  0
XRECORD
  5
41
102
{ACAD_REACTORS
330
40
102
}
330
40
100
AcDbXrecord
  1
VERSION
140
15.0
  1
PRODUCT
  2
AutoCAD Mechanical 2000
  0
IDBUFFER
  5
8605
330
0
100
AcDbIdBuffer
330
1649
  0
IDBUFFER
  5
8606
330
0
100
AcDbIdBuffer
330
83D1
330
83D2
330
83D5
330
83D6
330
841D
330
8473
330
847C
330
8492
330
84AA
330
84D3
330
850D
330
851A
330
8527
  0
IDBUFFER
  5
8607
330
0
100
AcDbIdBuffer
  0
IDBUFFER
  5
8608
330
0
100
AcDbIdBuffer
330
82F7
330
82F8
330
82F9
330
82FA
330
82FB
330
82FC
330
82FD
330
82FE
330
82FF
330
8300
330
8301
330
8302
330
8303
330
8304
330
8305
330
8306
330
8307
330
8308
330
8309
330
830A
330
830B
330
830C
330
830D
330
830E
330
830F
330
8310
330
8311
330
8312
330
8313
330
8314
330
8315
330
8316
330
8317
330
8318
330
8319
330
831A
330
831B
330
831C
330
831D
330
831E
330
831F
330
8320
330
8321
330
8322
330
8323
330
8324
330
8325
330
8326
330
8327
330
8328
330
8329
330
832A
330
832B
330
832C
330
832D
330
832E
330
832F
330
8330
330
8331
330
8332
330
8333
330
8334
330
8335
330
8336
330
8337
330
8338
330
8339
330
833A
330
833B
330
833C
330
833D
330
833E
330
833F
330
8340
330
8341
330
8342
330
8343
330
8344
330
8345
330
8346
330
8347
330
8348
330
8349
330
834A
330
834B
330
834C
330
834D
330
834E
330
834F
330
8350
330
8351
330
8352
330
8353
330
8354
330
8355
330
8356
330
8357
330
8358
330
8359
330
835A
330
835B
330
835C
330
835E
330
835F
330
8360
330
8361
330
8362
330
8363
330
8364
330
8365
330
8366
330
8367
330
8369
330
836D
330
8371
330
8375
330
8379
330
837D
330
8381
330
8385
330
838A
330
838B
330
838C
330
838D
330
838E
330
838F
330
8390
330
8391
330
8392
330
8393
330
8394
330
8395
330
8396
330
8397
330
8398
330
8399
330
839A
330
839B
330
839C
330
839D
330
839E
330
839F
330
83A0
330
83A1
330
83A2
330
83A3
330
83A4
330
83A5
330
83A6
330
83A7
330
83A8
330
83A9
330
83AA
330
83AB
330
83AC
330
83AD
330
83AE
330
83AF
330
83B0
330
83B1
330
83B2
330
83B3
330
83B4
330
83B5
330
83B6
330
83B7
330
83B8
330
83B9
330
83BA
330
83BB
330
83BC
330
83BD
330
83BE
330
83BF
330
83C0
330
83C1
330
83C2
330
83C3
330
83C4
330
83C5
330
83C6
330
83C7
330
83C8
330
83C9
330
83CA
330
83CB
330
83CC
330
83D7
330
83D8
330
83D9
330
83DA
330
83DB
330
83DC
330
83DD
330
83DE
330
83DF
330
83E0
330
83E1
330
83E2
330
83E3
330
83E4
330
83E5
330
83E6
330
83E7
330
83E8
330
83E9
330
83EA
330
83EB
330
83EC
330
83ED
330
83EE
330
83EF
330
83F0
330
83F1
330
83F2
330
83F3
330
83F4
330
83F5
330
83F6
330
83F7
330
83F8
330
83F9
330
83FA
330
83FB
330
83FC
330
83FD
330
83FE
330
83FF
330
8400
330
8401
330
8402
330
8403
330
8404
330
8405
330
8406
330
8407
330
8408
330
8409
330
840A
330
8410
330
8411
330
8412
330
8413
330
8414
330
8415
330
8416
330
8417
330
8418
330
8419
330
841A
330
841B
330
841C
330
841E
330
8420
330
8421
330
8422
330
8424
330
8425
330
8426
330
8427
330
8428
330
8429
330
842A
330
842B
330
842C
330
842D
330
842E
330
842F
330
8430
330
8431
330
8432
330
8433
330
8434
330
8435
330
8436
330
8437
330
8438
330
8439
330
843A
330
843B
330
843C
330
843D
330
843E
330
843F
330
8440
330
8441
330
8442
330
8443
330
8444
330
8445
330
8446
330
8447
330
8448
330
8449
330
844A
330
844B
330
844C
330
844D
330
844E
330
844F
330
8450
330
8451
330
8452
330
8453
330
8454
330
8455
330
8456
330
8457
330
8458
330
8459
330
845A
330
845B
330
845C
330
845E
330
845F
330
8460
330
8461
330
8462
330
8463
330
8464
330
8465
330
8466
330
846B
330
8471
330
80F1
330
80F2
330
80F3
330
80F4
330
80F5
330
80F6
330
80F7
330
80F8
330
80F9
330
80FA
330
80FB
330
80FC
330
80FD
330
80FE
330
80FF
330
8100
330
8101
330
8102
330
8103
330
8104
330
8105
330
8106
330
8107
330
8108
330
8109
330
810A
330
810B
330
810C
330
810D
330
8124
330
8125
330
8126
330
8127
330
8128
330
8129
330
812A
330
812B
330
812C
330
812D
330
812E
330
812F
330
8130
330
8131
330
8132
330
8133
330
8134
330
8135
330
8136
330
8137
330
8138
330
8139
330
813A
330
813B
330
813C
330
813D
330
813E
330
813F
330
8140
330
8141
330
8142
330
8143
330
8144
330
8145
330
8146
330
8147
330
8148
330
8149
330
814A
330
814B
330
814C
330
814D
330
814E
330
814F
330
8150
330
8151
330
8152
330
8153
330
8154
330
8155
330
8156
330
8157
330
8158
330
8159
330
815A
330
815B
330
815C
330
815D
330
815E
330
815F
330
8160
330
8161
330
8162
330
8163
330
8164
330
8165
330
8166
330
8167
330
8168
330
8169
330
816A
330
816B
330
816C
330
816D
330
816E
330
816F
330
8170
330
8171
330
8172
330
8173
330
8174
330
8175
330
8176
330
8177
330
8178
330
8179
330
817A
330
817B
330
817C
330
817D
330
817E
330
817F
330
8180
330
8181
330
8182
330
8183
330
8184
330
8185
330
8186
330
8187
330
8188
330
8189
330
818A
330
818B
330
818C
330
818D
330
818E
330
818F
330
8190
330
8191
330
8192
330
8193
330
8194
330
8195
330
8196
330
8197
330
8198
330
8199
330
819A
330
819B
330
819C
330
819D
330
819E
330
819F
330
81A0
330
81A1
330
81A2
330
81A3
330
81A4
330
81A5
330
81A6
330
81A7
330
81A8
330
81A9
330
81AA
330
81AB
330
81AC
330
81AD
330
81AE
330
81AF
330
81B0
330
81B1
330
81B2
330
81B3
330
81B4
330
81B5
330
81B6
330
81B7
330
81B8
330
81B9
330
81BA
330
81BB
330
81BC
330
81BD
330
81BE
330
81BF
330
81C0
330
81C1
330
81C2
330
81C3
330
81C4
330
81C5
330
81C6
330
81C7
330
81C8
330
81C9
330
81CA
330
81CB
330
81CC
330
81CD
330
81CE
330
81CF
330
81D0
330
81D1
330
81D2
330
81D3
330
81D4
330
81D5
330
81D6
330
81D7
330
81D8
330
81D9
330
81DA
330
81DB
330
81DC
330
81DD
330
81DE
330
81DF
330
81E0
330
81E1
330
81E2
330
81E3
330
81E4
330
81E5
330
81E6
330
81E7
330
81E8
330
81E9
330
81EA
330
81EB
330
81EC
330
81ED
330
81EE
330
81EF
330
81F0
330
81F1
330
81F2
330
81F3
330
81F4
330
81F5
330
81F6
330
81F7
330
81F8
330
81F9
330
81FA
330
81FB
330
81FC
330
81FD
330
81FE
330
81FF
330
8200
330
8201
330
8202
330
8203
330
8204
330
8205
330
8206
330
8207
330
8208
330
8209
330
820A
330
820B
330
820C
330
820D
330
820E
330
820F
330
8210
330
8211
330
8212
330
8213
330
8214
330
8215
330
8216
330
8217
330
8218
330
8219
330
821A
330
821B
330
821C
330
821D
330
821E
330
821F
330
8220
330
8221
330
8222
330
8223
330
8224
330
8225
330
8226
330
8227
330
8228
330
8229
330
822A
330
822B
330
822C
330
822D
330
822E
330
822F
330
8230
330
8231
330
8232
330
8233
330
8234
330
8235
330
8236
330
8237
330
8238
330
8239
330
823A
330
823B
330
823C
330
823D
330
823E
330
823F
330
8240
330
8241
330
8242
330
8243
330
8244
330
8245
330
8246
330
8247
330
8248
330
8249
330
824A
330
824B
330
824C
330
824D
330
824E
330
824F
330
8250
330
8251
330
8252
330
8253
330
8254
330
8255
330
8256
330
8257
330
8258
330
8259
330
825A
330
825B
330
825C
330
825D
330
825E
330
825F
330
8260
330
8261
330
8262
330
8263
330
8264
330
8265
330
8266
330
8267
330
8268
330
8269
330
826A
330
826B
330
826C
330
826D
330
826E
330
826F
330
8270
330
8271
330
8272
330
8273
330
8274
330
8275
330
8276
330
8277
330
8278
330
8279
330
827A
330
827B
330
827C
330
827D
330
827E
330
827F
330
8280
330
8281
330
8282
330
8283
330
8284
330
8285
330
8286
330
8287
330
8288
330
8289
330
828A
330
828B
330
828C
330
828D
330
828E
330
828F
330
8290
330
8291
330
8292
330
8293
330
8294
330
8295
330
8296
330
8297
330
8298
330
8299
330
829A
330
829B
330
829C
330
829D
330
829E
330
829F
330
82A0
330
82A1
330
82A2
330
82A3
330
82A4
330
82A5
330
82A6
330
82A7
330
82A8
330
82A9
330
82AA
330
82AB
330
82AC
330
82AD
330
82AE
330
82AF
330
82B0
330
82B1
330
82B2
330
82B3
330
82B4
330
82B5
330
82B6
330
82B7
330
82B8
330
82B9
330
82BA
330
82BB
330
82BC
330
82BD
330
82BE
330
82BF
330
82C0
330
82C1
330
82C2
330
82C3
330
82C4
330
82C5
330
82C6
330
82C7
330
82C8
330
82C9
330
82CA
330
82CB
330
82CC
330
82CD
330
82CE
330
82CF
330
82D0
330
82D1
330
82D2
330
82D3
330
82D4
330
82D5
330
82D6
330
82D7
330
82D8
330
82D9
330
82DA
330
82DB
330
82DC
330
82DD
330
82DE
330
82DF
330
82E0
330
82E1
330
82E2
330
82E3
330
82E4
330
82E5
330
82E6
330
82E7
330
82E8
330
82E9
330
82EA
330
82EB
330
82EC
330
82ED
330
82EE
330
82EF
330
82F0
330
82F1
330
82F2
330
82F3
330
82F4
330
82F5
330
82F6
  0
IDBUFFER
  5
8609
330
0
100
AcDbIdBuffer
330
7495
330
8389
330
83CE
  0
IDBUFFER
  5
860A
330
0
100
AcDbIdBuffer
  0
IDBUFFER
  5
860B
330
0
100
AcDbIdBuffer
  0
ENDSEC
  0
EOF
