  0
SECTION
  2
HEADER
  9
$ACADVER
  1
AC1015
  9
$ACADMAINTVER
 70
     6
  9
$DWGCODEPAGE
  3
ANSI_932
  9
$INSBASE
 10
0.0
 20
0.0
 30
0.0
  9
$EXTMIN
 10
-28.48316359433204
 20
-100.5036423958527
 30
-0.0015258207003583
  9
$EXTMAX
 10
161.0023075686617
 20
32.02183269272098
 30
0.0000000349246037
  9
$LIMMIN
 10
0.0
 20
0.0
  9
$LIMMAX
 10
420.0
 20
297.0
  9
$ORTHOMODE
 70
     1
  9
$REGENMODE
 70
     1
  9
$FILLMODE
 70
     1
  9
$QTEXTMODE
 70
     0
  9
$MIRRTEXT
 70
     1
  9
$LTSCALE
 40
1.0
  9
$ATTMODE
 70
     1
  9
$TEXTSIZE
 40
3.0
  9
$TRACEWID
 40
1.0
  9
$TEXTSTYLE
  7
STANDARD
  9
$CLAYER
  8
AM_0
  9
$CELTYPE
  6
ByLayer
  9
$CECOLOR
 62
   256
  9
$CELTSCALE
 40
1.0
  9
$DISPSILH
 70
     0
  9
$DIMSCALE
 40
1.0
  9
$DIMASZ
 40
2.5
  9
$DIMEXO
 40
0.0
  9
$DIMDLI
 40
10.0
  9
$DIMRND
 40
0.0
  9
$DIMDLE
 40
0.0
  9
$DIMEXE
 40
1.0
  9
$DIMTP
 40
0.1
  9
$DIMTM
 40
0.1000000001
  9
$DIMTXT
 40
3.8
  9
$DIMCEN
 40
0.0
  9
$DIMTSZ
 40
0.0
  9
$DIMTOL
 70
     0
  9
$DIMLIM
 70
     0
  9
$DIMTIH
 70
     0
  9
$DIMTOH
 70
     0
  9
$DIMSE1
 70
     0
  9
$DIMSE2
 70
     0
  9
$DIMTAD
 70
     3
  9
$DIMZIN
 70
     1
  9
$DIMBLK
  1
Open30
  9
$DIMASO
 70
     1
  9
$DIMSHO
 70
     1
  9
$DIMPOST
  1

  9
$DIMAPOST
  1
"
  9
$DIMALT
 70
     0
  9
$DIMALTD
 70
     2
  9
$DIMALTF
 40
0.0393701
  9
$DIMLFAC
 40
1.0
  9
$DIMTOFL
 70
     1
  9
$DIMTVP
 40
0.0
  9
$DIMTIX
 70
     0
  9
$DIMSOXD
 70
     0
  9
$DIMSAH
 70
     0
  9
$DIMBLK1
  1

  9
$DIMBLK2
  1

  9
$DIMSTYLE
  2
AM_JIS
  9
$DIMCLRD
 70
   256
  9
$DIMCLRE
 70
   256
  9
$DIMCLRT
 70
     2
  9
$DIMTFAC
 40
0.71
  9
$DIMGAP
 40
1.5
  9
$DIMJUST
 70
     0
  9
$DIMSD1
 70
     0
  9
$DIMSD2
 70
     0
  9
$DIMTOLJ
 70
     0
  9
$DIMTZIN
 70
     8
  9
$DIMALTZ
 70
     0
  9
$DIMALTTZ
 70
     0
  9
$DIMUPT
 70
     0
  9
$DIMDEC
 70
     2
  9
$DIMTDEC
 70
     2
  9
$DIMALTU
 70
     2
  9
$DIMALTTD
 70
     2
  9
$DIMTXSTY
  7
STANDARD
  9
$DIMAUNIT
 70
     1
  9
$DIMADEC
 70
     0
  9
$DIMALTRND
 40
0.0
  9
$DIMAZIN
 70
     2
  9
$DIMDSEP
 70
    46
  9
$DIMATFIT
 70
     3
  9
$DIMFRAC
 70
     0
  9
$DIMLDRBLK
  1
Open30
  9
$DIMLUNIT
 70
     2
  9
$DIMLWD
 70
    -1
  9
$DIMLWE
 70
    -1
  9
$DIMTMOVE
 70
     0
  9
$LUNITS
 70
     2
  9
$LUPREC
 70
     2
  9
$SKETCHINC
 40
1.0
  9
$FILLETRAD
 40
0.794
  9
$AUNITS
 70
     1
  9
$AUPREC
 70
     5
  9
$MENU
  1
.
  9
$ELEVATION
 40
0.0
  9
$PELEVATION
 40
0.0
  9
$THICKNESS
 40
0.0
  9
$LIMCHECK
 70
     0
  9
$CHAMFERA
 40
1.0
  9
$CHAMFERB
 40
1.0
  9
$CHAMFERC
 40
20.0
  9
$CHAMFERD
 40
0.0
  9
$SKPOLY
 70
     0
  9
$TDCREATE
 40
2451943.610431667
  9
$TDUCREATE
 40
2451943.235431667
  9
$TDUPDATE
 40
2455436.382046077
  9
$TDUUPDATE
 40
2455436.007046077
  9
$TDINDWG
 40
1.833095625
  9
$TDUSRTIMER
 40
1.8330954514
  9
$USRTIMER
 70
     1
  9
$ANGBASE
 50
0.0
  9
$ANGDIR
 70
     0
  9
$PDMODE
 70
     0
  9
$PDSIZE
 40
0.0
  9
$PLINEWID
 40
0.0
  9
$SPLFRAME
 70
     0
  9
$SPLINETYPE
 70
     6
  9
$SPLINESEGS
 70
     8
  9
$HANDSEED
  5
21588
  9
$SURFTAB1
 70
     6
  9
$SURFTAB2
 70
     6
  9
$SURFTYPE
 70
     6
  9
$SURFU
 70
     6
  9
$SURFV
 70
     6
  9
$UCSBASE
  2

  9
$UCSNAME
  2

  9
$UCSORG
 10
0.0
 20
0.0
 30
0.0
  9
$UCSXDIR
 10
1.0
 20
0.0
 30
0.0
  9
$UCSYDIR
 10
0.0
 20
1.0
 30
0.0
  9
$UCSORTHOREF
  2

  9
$UCSORTHOVIEW
 70
     0
  9
$UCSORGTOP
 10
0.0
 20
0.0
 30
0.0
  9
$UCSORGBOTTOM
 10
0.0
 20
0.0
 30
0.0
  9
$UCSORGLEFT
 10
0.0
 20
0.0
 30
0.0
  9
$UCSORGRIGHT
 10
0.0
 20
0.0
 30
0.0
  9
$UCSORGFRONT
 10
0.0
 20
0.0
 30
0.0
  9
$UCSORGBACK
 10
0.0
 20
0.0
 30
0.0
  9
$PUCSBASE
  2

  9
$PUCSNAME
  2

  9
$PUCSORG
 10
0.0
 20
0.0
 30
0.0
  9
$PUCSXDIR
 10
1.0
 20
0.0
 30
0.0
  9
$PUCSYDIR
 10
0.0
 20
1.0
 30
0.0
  9
$PUCSORTHOREF
  2

  9
$PUCSORTHOVIEW
 70
     0
  9
$PUCSORGTOP
 10
0.0
 20
0.0
 30
0.0
  9
$PUCSORGBOTTOM
 10
0.0
 20
0.0
 30
0.0
  9
$PUCSORGLEFT
 10
0.0
 20
0.0
 30
0.0
  9
$PUCSORGRIGHT
 10
0.0
 20
0.0
 30
0.0
  9
$PUCSORGFRONT
 10
0.0
 20
0.0
 30
0.0
  9
$PUCSORGBACK
 10
0.0
 20
0.0
 30
0.0
  9
$USERI1
 70
     0
  9
$USERI2
 70
     0
  9
$USERI3
 70
     0
  9
$USERI4
 70
     0
  9
$USERI5
 70
     0
  9
$USERR1
 40
0.0
  9
$USERR2
 40
0.0
  9
$USERR3
 40
0.0
  9
$USERR4
 40
0.0
  9
$USERR5
 40
0.0
  9
$WORLDVIEW
 70
     1
  9
$SHADEDGE
 70
     3
  9
$SHADEDIF
 70
    70
  9
$TILEMODE
 70
     1
  9
$MAXACTVP
 70
    64
  9
$PINSBASE
 10
0.0
 20
0.0
 30
0.0
  9
$PLIMCHECK
 70
     0
  9
$PEXTMIN
 10
1.000000000000000E+20
 20
1.000000000000000E+20
 30
1.000000000000000E+20
  9
$PEXTMAX
 10
-1.000000000000000E+20
 20
-1.000000000000000E+20
 30
-1.000000000000000E+20
  9
$PLIMMIN
 10
0.0
 20
0.0
  9
$PLIMMAX
 10
420.0
 20
297.0
  9
$UNITMODE
 70
     0
  9
$VISRETAIN
 70
     1
  9
$PLINEGEN
 70
     0
  9
$PSLTSCALE
 70
     1
  9
$TREEDEPTH
 70
  3020
  9
$CMLSTYLE
  2
Standard
  9
$CMLJUST
 70
     0
  9
$CMLSCALE
 40
20.0
  9
$PROXYGRAPHICS
 70
     1
  9
$MEASUREMENT
 70
     1
  9
$CELWEIGHT
370
    -1
  9
$ENDCAPS
280
     0
  9
$JOINSTYLE
280
     0
  9
$LWDISPLAY
290
     0
  9
$INSUNITS
 70
     4
  9
$HYPERLINKBASE
  1

  9
$STYLESHEET
  1
sei_cad.ctb
  9
$XEDIT
290
     1
  9
$CEPSNTYPE
380
     0
  9
$PSTYLEMODE
290
     1
  9
$FINGERPRINTGUID
  2
{C77AB3BE-9CA2-11D3-BAF3-006094EB760E}
  9
$VERSIONGUID
  2
{C884705C-157B-4F7F-8484-ADBA9B2FBE0C}
  9
$EXTNAMES
290
     1
  9
$PSVPSCALE
 40
0.0
  9
$OLESTARTUP
290
     0
  0
ENDSEC
  0
SECTION
  2
CLASSES
  0
CLASS
  1
ACDBDICTIONARYWDFLT
  2
AcDbDictionaryWithDefault
  3
ObjectDBX Classes
 90
        0
280
     0
281
     0
  0
CLASS
  1
ACDBPLACEHOLDER
  2
AcDbPlaceHolder
  3
ObjectDBX Classes
 90
        0
280
     0
281
     0
  0
CLASS
  1
LAYOUT
  2
AcDbLayout
  3
ObjectDBX Classes
 90
        0
280
     0
281
     0
  0
CLASS
  1
ACME_DOCUMENT
  2
AcMeDbDoc
  3
AcMeServices
 90
        0
280
     1
281
     0
  0
CLASS
  1
ACMESCOPE
  2
AcMeScope
  3
AcMeServices
 90
        0
280
     1
281
     0
  0
CLASS
  1
ACMECOMMANDHISTORY
  2
AcMeCommandHistory
  3
AcMeServices
 90
        0
280
     1
281
     0
  0
CLASS
  1
DICTIONARYVAR
  2
AcDbDictionaryVar
  3
ObjectDBX Classes
 90
        0
280
     0
281
     0
  0
CLASS
  1
ACIMSYSVARMAN
  2
AcImSysVarManager
  3
AcMeServices
 90
        0
280
     1
281
     0
  0
CLASS
  1
ACIMREALSYSVAR
  2
AcImRealSysVar
  3
AcMeServices
 90
        0
280
     1
281
     0
  0
CLASS
  1
ACIMINTSYSVAR
  2
AcImIntSysVar
  3
AcMeServices
 90
        0
280
     1
281
     0
  0
CLASS
  1
ACMEDRAWINGMAN
  2
AcMeDrawingMan
  3
AcMeServices
 90
        0
280
     1
281
     0
  0
CLASS
  1
ACMEVIEW
  2
AcMeView
  3
AcMeServices
 90
        0
280
     1
281
     0
  0
CLASS
  1
ACDBENTITYCACHE
  2
AcMeEntityCache
  3
AcMeServices
 90
        0
280
     1
281
     0
  0
CLASS
  1
GSMANAGER
  2
AcMeGSManager
  3
AcMeServices
 90
        0
280
     1
281
     0
  0
CLASS
  1
AMDTINTERNALREACTOR
  2
AmdtInternalReactor
  3
AcMeServices
 90
        0
280
     1
281
     0
  0
CLASS
  1
ACMESTATEMGR
  2
AcMeStateMgr
  3
AcMeServices
 90
        0
280
     1
281
     0
  0
CLASS
  1
ACME_DATABASE
  2
AcMeDbDatabase
  3
AcMeServices
 90
        0
280
     1
281
     0
  0
CLASS
  1
ACRFINSADJUSTERMGR
  2
AcRfInsAdjusterMgr
  3
AcMeServices
 90
        0
280
     1
281
     0
  0
CLASS
  1
AMGSETTINGSOBJ
  2
AmgSettingsObj
  3
"AcadM|Product Description: AutoCAD Mechanical 2000|Company: Autodesk"
 90
        0
280
     1
281
     0
  0
CLASS
  1
AMGOBJPROPCFG
  2
AmgObjPropCfg
  3
"AmgLay|Product Description: AutoCAD Mechanical 2000|Company: Autodesk"
 90
        1
280
     1
281
     0
  0
CLASS
  1
ACMDATADICTIONARY
  2
AcmDataDictionary
  3
"AcmSymBB|Product Description: AutoCAD Mechanical 2004 DX|Company: Autodesk"
 90
        0
280
     1
281
     0
  0
CLASS
  1
ACMDATAENTRYBLOCK
  2
AcmDataEntryBlock
  3
"AcmSymBB|Product Description: AutoCAD Mechanical 2004 DX|Company: Autodesk"
 90
        0
280
     1
281
     0
  0
CLASS
  1
ACIMSTRSYSVAR
  2
AcImStrSysVar
  3
AcMeServices
 90
        0
280
     1
281
     0
  0
CLASS
  1
ACAMGFILTERDAT
  2
AcAmgFilterDat
  3
"AcadM|Product Description: AutoCAD Mechanical 2000|Company: Autodesk"
 90
        0
280
     1
281
     0
  0
CLASS
  1
LAYER_INDEX
  2
AcDbLayerIndex
  3
ObjectDBX Classes
 90
        0
280
     0
281
     0
  0
CLASS
  1
IDBUFFER
  2
AcDbIdBuffer
  3
ObjectDBX Classes
 90
        0
280
     0
281
     0
  0
CLASS
  1
ACMSTANDARDJIS
  2
AcmStandardJIS
  3
"Amdt_StdImp|Product Description: AutoCAD Mechanical 2004 DX|Company: Autodesk"
 90
        0
280
     1
281
     0
  0
CLASS
  1
ACMSURFSTANDARDJIS
  2
AcmSurfTextStdJIS
  3
"Amdt_StdImp|Product Description: AutoCAD Mechanical 2004 DX|Company: Autodesk"
 90
        0
280
     1
281
     0
  0
CLASS
  1
ACMFCFSTANDARDJIS
  2
AcmFCFStdJIS
  3
"Amdt_StdImp|Product Description: AutoCAD Mechanical 2004 DX|Company: Autodesk"
 90
        0
280
     1
281
     0
  0
CLASS
  1
ACMWELDSTANDARDJIS
  2
AcmWeldingStdJIS
  3
"Amdt_StdImp|Product Description: AutoCAD Mechanical 2004 DX|Company: Autodesk"
 90
        0
280
     1
281
     0
  0
CLASS
  1
ACMIDSTANDARDJIS
  2
AcmIdStdJIS
  3
"Amdt_StdImp|Product Description: AutoCAD Mechanical 2004 DX|Company: Autodesk"
 90
        0
280
     1
281
     0
  0
CLASS
  1
ACMDATUMSTANDARDJIS
  2
AcmDatumStdJIS
  3
"Amdt_StdImp|Product Description: AutoCAD Mechanical 2004 DX|Company: Autodesk"
 90
        0
280
     1
281
     0
  0
CLASS
  1
ACMBOMSTANDARDJIS
  2
AcmBOMStdJIS
  3
"Amdt_StdImp|Product Description: AutoCAD Mechanical 2004 DX|Company: Autodesk"
 90
        0
280
     1
281
     0
  0
CLASS
  1
AMDTNOTE
  2
AmdtNote
  3
"AcmSymBB|Product Description: AutoCAD Mechanical 2004 DX|Company: Autodesk"
 90
     1023
280
     1
281
     1
  0
CLASS
  1
ACMDATUMID
  2
AcmDatumId
  3
"AcmSymBB|Product Description: AutoCAD Mechanical 2004 DX|Company: Autodesk"
 90
     1023
280
     1
281
     1
  0
CLASS
  1
TABLESTYLE
  2
AcDbTableStyle
  3
ObjectDBX Classes
 90
     2047
280
     0
281
     0
  0
CLASS
  1
ACGREFMASTER
  2
AcGrefMaster
  3
AcAttribServices
 90
        0
280
     1
281
     0
  0
CLASS
  1
AM_DRAWING_MGR
  2
AcDmDwgMgr
  3
AcMechDwgViewMgmt
 90
        0
280
     1
281
     0
  0
CLASS
  1
AM_DWG_DOCUMENT
  2
AcDmDwgDocument
  3
AcMechDwgViewMgmt
 90
        0
280
     1
281
     0
  0
CLASS
  1
AM_DWG_SHEET
  2
AcDmSheet
  3
AcMechDwgViewMgmt
 90
        0
280
     1
281
     0
  0
CLASS
  1
AM_VIEWDIMPARMAP
  2
AcDmViewDimParMap
  3
AcMechDwgViewMgmt
 90
        0
280
     1
281
     0
  0
CLASS
  1
AM_DWGMGR_NAME
  2
AcDmDwgMgrName
  3
AcMechDwgViewMgmt
 90
        0
280
     1
281
     0
  0
CLASS
  1
ACGREFACADMASTER
  2
AcGrefacadMaster
  3
AcGrefServices
 90
        0
280
     1
281
     0
  0
CLASS
  1
AMDTMENUSTATEMGR
  2
AmdtMenuStateMgr
  3
McadcomServices
 90
        0
280
     1
281
     0
  0
CLASS
  1
AMDTMCOMMENUSTATE
  2
AmdtMcomMenuState
  3
McadcomServices
 90
        0
280
     1
281
     0
  0
CLASS
  1
AMIMASTER
  2
AmiMaster
  3
AmiServices
 90
        0
280
     1
281
     0
  0
CLASS
  1
MAPIAMMOUDLE
  2
MApiAmModule
  3
MApiAmServices
 90
        0
280
     1
281
     0
  0
CLASS
  1
AMDTADMENUSTATE
  2
AmdtAdMenuState
  3
DesignerServices
 90
        0
280
     1
281
     0
  0
CLASS
  1
ADAPPL
  2
AcAdAppl
  3
DesignerServices
 90
        0
280
     1
281
     0
  0
CLASS
  1
DEPMGR
  2
AcAdDepMgr
  3
DesignerServices
 90
        0
280
     1
281
     0
  0
CLASS
  1
PARAMMGR
  2
AcAdParamMgr
  3
DesignerServices
 90
        0
280
     1
281
     0
  0
CLASS
  1
PARAMSCOPE
  2
AcAdParamScope
  3
DesignerServices
 90
        0
280
     1
281
     0
  0
CLASS
  1
NAMEDAPPL
  2
AcAdNamedAppl
  3
DesignerServices
 90
        0
280
     1
281
     0
  0
CLASS
  1
AMDTDMMENUSTATE
  2
AmdtDmMenuState
  3
AcMechDwgViewMgmt
 90
        0
280
     1
281
     0
  0
CLASS
  1
AMDTAMMENUSTATE
  2
AmdtAmMenuState
  3
DesignerAssemblies
 90
        0
280
     1
281
     0
  0
CLASS
  1
ACAMPROJECT
  2
AcAmProject
  3
DesignerAssemblies
 90
        0
280
     1
281
     0
  0
CLASS
  1
ACAMGRCOMPDEF
  2
AcAmGrCompDef
  3
DesignerAssemblies
 90
        0
280
     1
281
     0
  0
CLASS
  1
ACCMCONTEXT
  2
AcCmContext
  3
DesignerAssemblies
 90
        0
280
     1
281
     0
  0
CLASS
  1
ACAMCOMPDEF
  2
AcAmCompDef
  3
DesignerAssemblies
 90
        0
280
     1
281
     0
  0
CLASS
  1
ACAMCOMPDEFMGR
  2
AcAmCompDefMgr
  3
DesignerAssemblies
 90
        0
280
     1
281
     0
  0
CLASS
  1
AMCONTEXTMGR
  2
AcAmContextMgr
  3
DesignerAssemblies
 90
        0
280
     1
281
     0
  0
CLASS
  1
ACAMCONTEXTMODELER
  2
AcAmContextModeler
  3
DesignerAssemblies
 90
        0
280
     1
281
     0
  0
CLASS
  1
ACAMGTITLESTD
  2
AcAmgTitleStd
  3
"TITLEAPP"
 90
        0
280
     1
281
     0
  0
CLASS
  1
ACMDETAILSTANDARDJIS
  2
AmdtDetailSymStdJIS
  3
"Amdt_StdImp|Product Description: AutoCAD Mechanical 2004 DX|Company: Autodesk"
 90
        0
280
     1
281
     0
  0
CLASS
  1
ACMSECTIONSTANDARDJIS
  2
AmdtSectionSymStdJIS
  3
"Amdt_StdImp|Product Description: AutoCAD Mechanical 2004 DX|Company: Autodesk"
 90
        0
280
     1
281
     0
  0
CLASS
  1
ACMCENTERLINESTANDARDJIS
  2
AmdtCenterLineStdJIS
  3
"Amdt_StdImp|Product Description: AutoCAD Mechanical 2004 DX|Company: Autodesk"
 90
        0
280
     1
281
     0
  0
CLASS
  1
ACMTHREADLINESTANDARDJIS
  2
AmdtThreadLineStdJIS
  3
"Amdt_StdImp|Product Description: AutoCAD Mechanical 2004 DX|Company: Autodesk"
 90
        0
280
     1
281
     0
  0
CLASS
  1
ACMNOTESTANDARDJIS
  2
AmdtNoteStdJIS
  3
"Amdt_StdImp|Product Description: AutoCAD Mechanical 2004 DX|Company: Autodesk"
 90
        0
280
     1
281
     0
  0
CLASS
  1
AMDTNOTETEMPLATEDB
  2
AmdtNoteTemplateDB
  3
AMDT_STDIMP_MODULE_NAME
 90
        0
280
     1
281
     0
  0
CLASS
  1
ACAMGLAYSTD
  2
AcAmgLayStd
  3
"AcAmgLayStd|Product Description: AutoCAD Mechanical 2000|Company: Autodesk"
 90
        0
280
     1
281
     0
  0
CLASS
  1
ACAMGDIMSTD
  2
AcAmgDimStd
  3
"AcAmgDimStd|Product Description: AutoCAD Mechanical 2000|Company: Autodesk"
 90
        0
280
     1
281
     0
  0
CLASS
  1
ACAMGHOLECHARTSTDJIS
  2
AcAmgHoleChartStdJIS
  3
ACMSYMBB_MODULE_NAME
 90
        0
280
     1
281
     0
  0
CLASS
  1
CATALOGSTATE
  2
AcAmCatalogState
  3
DesignerAssemblies
 90
        0
280
     1
281
     0
  0
CLASS
  1
ACAMGRCOMPDEFSET
  2
AcAmGrCompDefSet
  3
DesignerAssemblies
 90
        0
280
     1
281
     0
  0
CLASS
  1
AMDTBROWSERDBTAB
  2
AmdtBrowserDbTab
  3
McadcomServices
 90
        0
280
     1
281
     0
  0
CLASS
  1
CBROWSERAPPOBJECT
  2
CBrowserAppObject
  3
McadcomServices
 90
        0
280
     1
281
     0
  0
CLASS
  1
DM_PLACEHOLDER
  2
AcDmSelsetPlaceholder
  3
AcMechDwgViewMgmt
 90
        0
280
     1
281
     0
  0
CLASS
  1
SORTENTSTABLE
  2
AcDbSortentsTable
  3
ObjectDBX Classes
 90
        0
280
     0
281
     0
  0
ENDSEC
  0
SECTION
  2
TABLES
  0
TABLE
  2
VPORT
  5
8
330
0
100
AcDbSymbolTable
 70
    16
  0
VPORT
  5
21581
330
8
100
AcDbSymbolTableRecord
100
AcDbViewportTableRecord
  2
*Active
 70
     0
 10
0.0
 20
0.0
 11
1.0
 21
1.0
 12
66.2595719871648
 22
-34.24090485156586
 13
0.0
 23
0.0
 14
2.5
 24
2.5
 15
10.0
 25
10.0
 16
0.0
 26
0.0
 36
1.0
 17
0.0
 27
0.0
 37
0.0
 40
133.6931004197505
 41
1.697058823529412
 42
50.0
 43
0.0
 44
0.0
 50
0.0
 51
0.0
 71
     0
 72
 20000
 73
     1
 74
     3
 75
     0
 76
     0
 77
     0
 78
     0
281
     0
 65
     1
110
0.0
120
0.0
130
0.0
111
1.0
121
0.0
131
0.0
112
0.0
122
1.0
132
0.0
 79
     0
146
0.0
  0
ENDTAB
  0
TABLE
  2
LTYPE
  5
5
330
0
100
AcDbSymbolTable
 70
    13
  0
LTYPE
  5
14
330
5
100
AcDbSymbolTableRecord
100
AcDbLinetypeTableRecord
  2
ByBlock
 70
     0
  3

 72
    65
 73
     0
 40
0.0
  0
LTYPE
  5
15
330
5
100
AcDbSymbolTableRecord
100
AcDbLinetypeTableRecord
  2
ByLayer
 70
     0
  3

 72
    65
 73
     0
 40
0.0
  0
LTYPE
  5
16
330
5
100
AcDbSymbolTableRecord
100
AcDbLinetypeTableRecord
  2
Continuous
 70
     0
  3
Solid line
 72
    65
 73
     0
 40
0.0
  0
LTYPE
  5
43
330
5
100
AcDbSymbolTableRecord
100
AcDbLinetypeTableRecord
  2
AM_ISO02W050
 70
     0
  3
__ __ __ __ __ __ __ __ __ __ __ __ __ __ __
 72
    65
 73
     2
 40
7.5
 49
6.0
 74
     0
 49
-1.5
 74
     0
  0
LTYPE
  5
44
330
5
100
AcDbSymbolTableRecord
100
AcDbLinetypeTableRecord
  2
AM_ISO08W050
 70
     0
  3
____ . ____ . ____ . ____ . ____ . ____ . ____
 72
    65
 73
     4
 40
18.0
 49
12.0
 74
     0
 49
-1.5
 74
     0
 49
3.0
 74
     0
 49
-1.5
 74
     0
  0
LTYPE
  5
45
330
5
100
AcDbSymbolTableRecord
100
AcDbLinetypeTableRecord
  2
AM_ISO09W050
 70
     0
  3
_____ . . _____ . . _____ . . ____ .. ____
 72
    65
 73
     6
 40
22.5
 49
12.0
 74
     0
 49
-1.5
 74
     0
 49
3.0
 74
     0
 49
-1.5
 74
     0
 49
3.0
 74
     0
 49
-1.5
 74
     0
  0
LTYPE
  5
46
330
5
100
AcDbSymbolTableRecord
100
AcDbLinetypeTableRecord
  2
Amconstr
 70
     0
  3
_______________________
 72
    65
 73
     2
 40
9999.0
 49
9999.0
 74
     0
 49
0.0
 74
     0
  0
LTYPE
  5
47
330
5
100
AcDbSymbolTableRecord
100
AcDbLinetypeTableRecord
  2
AM_ISO02W050x2
 70
     0
  3
 _ _ _ _ _ _ _ _ _ _ _ _
 72
    65
 73
     2
 40
3.75
 49
3.0
 74
     0
 49
-0.75
 74
     0
  0
LTYPE
  5
48
330
5
100
AcDbSymbolTableRecord
100
AcDbLinetypeTableRecord
  2
AM_ISO08W050x2
 70
     0
  3
__ . __ . __ . __ . __ . __
 72
    65
 73
     4
 40
9.0
 49
6.0
 74
     0
 49
-0.75
 74
     0
 49
1.5
 74
     0
 49
-0.75
 74
     0
  0
LTYPE
  5
4B
330
5
100
AcDbSymbolTableRecord
100
AcDbLinetypeTableRecord
  2
Amzigzag
 70
     0
  3
/\/-/\/-/\/-/\/-/\/-/\/
 72
    65
 73
     2
 40
11.0001
 49
0.0001
 74
     4
 75
   135
340
4A
 46
0.04
 50
0.0
 44
0.0
 45
0.0
 49
-11.0
 74
     0
  0
LTYPE
  5
188
330
5
100
AcDbSymbolTableRecord
100
AcDbLinetypeTableRecord
  2
ACJISTGB
 70
     0
  3
__ . . __ . .
 72
    65
 73
     6
 40
9.0
 49
4.0
 74
     0
 49
-1.0
 74
     0
 49
1.0
 74
     0
 49
-1.0
 74
     0
 49
1.0
 74
     0
 49
-1.0
 74
     0
  0
LTYPE
  5
189
330
5
100
AcDbSymbolTableRecord
100
AcDbLinetypeTableRecord
  2
ACJISTGL
 70
     0
  3
_ _ _ _ _
 72
    65
 73
     2
 40
3.0
 49
2.0
 74
     0
 49
-1.0
 74
     0
  0
LTYPE
  5
652
330
5
100
AcDbSymbolTableRecord
100
AcDbLinetypeTableRecord
  2
CENTER
 70
     0
  3
____ _ ____ _ ____ _ ____ _ ____ _ ____ _ ____
 72
    65
 73
     4
 40
17.5
 49
13.0
 74
     0
 49
-1.5
 74
     0
 49
1.5
 74
     0
 49
-1.5
 74
     0
  0
LTYPE
  5
12AB
330
5
100
AcDbSymbolTableRecord
100
AcDbLinetypeTableRecord
  2
HIDDEN
 70
     0
  3
Hidden __ __ __ __ __ __ __ __ __ __ __ __ __ _
 72
    65
 73
     2
 40
0.375
 49
0.25
 74
     0
 49
-0.125
 74
     0
  0
LTYPE
  5
12AC
330
5
100
AcDbSymbolTableRecord
100
AcDbLinetypeTableRecord
  2
PHANTOM2
 70
     0
  3
Phantom (.5x) ___ _ _ ___ _ _ ___ _ _ ___ _ _
 72
    65
 73
     6
 40
1.25
 49
0.625
 74
     0
 49
-0.125
 74
     0
 49
0.125
 74
     0
 49
-0.125
 74
     0
 49
0.125
 74
     0
 49
-0.125
 74
     0
  0
ENDTAB
  0
TABLE
  2
LAYER
  5
2
102
{ACAD_XDICTIONARY
360
20B33
102
}
330
0
100
AcDbSymbolTable
 70
     5
  0
LAYER
  5
10
330
2
100
AcDbSymbolTableRecord
100
AcDbLayerTableRecord
  2
0
 70
     0
 62
     7
  6
Continuous
370
    -3
390
F
  0
LAYER
  5
7D
330
2
100
AcDbSymbolTableRecord
100
AcDbLayerTableRecord
  2
AM_5
 70
     0
 62
     3
  6
Continuous
370
    13
390
F
  0
LAYER
  5
7F
330
2
100
AcDbSymbolTableRecord
100
AcDbLayerTableRecord
  2
Defpoints
 70
     0
 62
     7
  6
Continuous
290
     0
370
    -3
390
F
  0
LAYER
  5
12B1
330
2
100
AcDbSymbolTableRecord
100
AcDbLayerTableRecord
  2
AM_0
 70
     0
 62
     7
  6
Continuous
370
    30
390
F
  0
LAYER
  5
18A5
330
2
100
AcDbSymbolTableRecord
100
AcDbLayerTableRecord
  2
AM_6
 70
     0
 62
     2
  6
Continuous
370
    30
390
F
  0
ENDTAB
  0
TABLE
  2
STYLE
  5
3
330
0
100
AcDbSymbolTable
 70
     5
  0
STYLE
  5
11
330
3
100
AcDbSymbolTableRecord
100
AcDbTextStyleTableRecord
  2
STANDARD
 70
     0
 40
0.0
 41
1.0
 50
0.0
 71
     0
 42
3.0
  3
ISOCP.SHX
  4
EXTFONT.SHX
  0
STYLE
  5
4A
330
3
100
AcDbSymbolTableRecord
100
AcDbTextStyleTableRecord
  2

 70
     1
 40
0.0
 41
1.0
 50
0.0
 71
     0
 42
2.5
  3
ltypeshp.shx
  4

  0
STYLE
  5
180
330
3
100
AcDbSymbolTableRecord
100
AcDbTextStyleTableRecord
  2
ACJISTS
 70
     0
 40
1.0
 41
1.0
 50
0.0
 71
     0
 42
2.5
  3
isocp.shx
  4
bigfont.shx
  0
STYLE
  5
187
330
3
100
AcDbSymbolTableRecord
100
AcDbTextStyleTableRecord
  2
ACJISGDT
 70
     0
 40
0.0
 41
1.0
 50
0.0
 71
     0
 42
2.5
  3
amgdt.shx
  4

  0
STYLE
  5
20B2D
330
3
100
AcDbSymbolTableRecord
100
AcDbTextStyleTableRecord
  2
ACISOTS
 70
     0
 40
3.8
 41
1.0
 50
0.0
 71
     0
 42
3.8
  3
isocp.shx
  4
extfont.shx
  0
ENDTAB
  0
TABLE
  2
VIEW
  5
6
330
0
100
AcDbSymbolTable
 70
     6
  0
VIEW
  5
A30
330
6
100
AcDbSymbolTableRecord
100
AcDbViewTableRecord
  2
AM_VIEW1
 70
     0
 40
148.5
 10
114.6739674593242
 20
222.75
 41
229.3479349186483
 11
0.0
 21
0.0
 31
1.0
 12
0.0
 22
0.0
 32
0.0
 42
50.0
 43
0.0
 44
0.0
 50
0.0
 71
     0
281
     0
 72
     0
  0
VIEW
  5
A31
330
6
100
AcDbSymbolTableRecord
100
AcDbViewTableRecord
  2
AM_VIEW2
 70
     0
 40
148.5
 10
305.3260325406758
 20
222.75
 41
229.3479349186483
 11
0.0
 21
0.0
 31
1.0
 12
0.0
 22
0.0
 32
0.0
 42
50.0
 43
0.0
 44
0.0
 50
0.0
 71
     0
281
     0
 72
     0
  0
VIEW
  5
A32
330
6
100
AcDbSymbolTableRecord
100
AcDbViewTableRecord
  2
AM_VIEW3
 70
     0
 40
148.5
 10
114.6739674593242
 20
74.25
 41
229.3479349186483
 11
0.0
 21
0.0
 31
1.0
 12
0.0
 22
0.0
 32
0.0
 42
50.0
 43
0.0
 44
0.0
 50
0.0
 71
     0
281
     0
 72
     0
  0
VIEW
  5
A33
330
6
100
AcDbSymbolTableRecord
100
AcDbViewTableRecord
  2
AM_VIEW4
 70
     0
 40
148.5
 10
305.3260325406758
 20
74.25
 41
229.3479349186483
 11
0.0
 21
0.0
 31
1.0
 12
0.0
 22
0.0
 32
0.0
 42
50.0
 43
0.0
 44
0.0
 50
0.0
 71
     0
281
     0
 72
     0
  0
VIEW
  5
A34
330
6
100
AcDbSymbolTableRecord
100
AcDbViewTableRecord
  2
AM_VIEW5
 70
     0
 40
148.5
 10
210.0
 20
148.5
 41
229.3479349186483
 11
0.0
 21
0.0
 31
1.0
 12
0.0
 22
0.0
 32
0.0
 42
50.0
 43
0.0
 44
0.0
 50
0.0
 71
     0
281
     0
 72
     0
  0
VIEW
  5
A35
330
6
100
AcDbSymbolTableRecord
100
AcDbViewTableRecord
  2
AM_VIEW6
 70
     0
 40
296.99703
 10
210.0
 20
148.5
 41
458.6912828785983
 11
0.0
 21
0.0
 31
1.0
 12
0.0
 22
0.0
 32
0.0
 42
50.0
 43
0.0
 44
0.0
 50
0.0
 71
     0
281
     0
 72
     0
  0
ENDTAB
  0
TABLE
  2
UCS
  5
7
330
0
100
AcDbSymbolTable
 70
     0
  0
ENDTAB
  0
TABLE
  2
APPID
  5
9
330
0
100
AcDbSymbolTable
 70
    47
  0
APPID
  5
12
330
9
100
AcDbSymbolTableRecord
100
AcDbRegAppTableRecord
  2
ACAD
 70
     0
  0
APPID
  5
2C
330
9
100
AcDbSymbolTableRecord
100
AcDbRegAppTableRecord
  2
MCAD_NO_VIS
 70
     0
  0
APPID
  5
2D
330
9
100
AcDbSymbolTableRecord
100
AcDbRegAppTableRecord
  2
ACAD_TEMP_GRAPHIC
 70
     0
  0
APPID
  5
B9
330
9
100
AcDbSymbolTableRecord
100
AcDbRegAppTableRecord
  2
GENIUS_GENDTOL_13
 70
     0
  0
APPID
  5
359
330
9
100
AcDbSymbolTableRecord
100
AcDbRegAppTableRecord
  2
GENIUS_GENREC_14
 70
     0
  0
APPID
  5
35A
330
9
100
AcDbSymbolTableRecord
100
AcDbRegAppTableRecord
  2
GENIUS_GENODEF_13
 70
     0
  0
APPID
  5
35B
330
9
100
AcDbSymbolTableRecord
100
AcDbRegAppTableRecord
  2
GENIUS_GENOBJ-N-REC_13
 70
     0
  0
APPID
  5
667
330
9
100
AcDbSymbolTableRecord
100
AcDbRegAppTableRecord
  2
GENIUS_GENCFG_13
 70
     0
  0
APPID
  5
668
330
9
100
AcDbSymbolTableRecord
100
AcDbRegAppTableRecord
  2
GENIUS_GENCFG0_13
 70
     0
  0
APPID
  5
669
330
9
100
AcDbSymbolTableRecord
100
AcDbRegAppTableRecord
  2
GENIUS_GENCFG1_13
 70
     0
  0
APPID
  5
66A
330
9
100
AcDbSymbolTableRecord
100
AcDbRegAppTableRecord
  2
GENIUS_GENCFG2_13
 70
     0
  0
APPID
  5
66B
330
9
100
AcDbSymbolTableRecord
100
AcDbRegAppTableRecord
  2
GENIUS_GENCFG3_13
 70
     0
  0
APPID
  5
66C
330
9
100
AcDbSymbolTableRecord
100
AcDbRegAppTableRecord
  2
GENIUS_GENCFG4_13
 70
     0
  0
APPID
  5
A76
330
9
100
AcDbSymbolTableRecord
100
AcDbRegAppTableRecord
  2
GENIUS_GENBLLY_14
 70
     0
  0
APPID
  5
A77
330
9
100
AcDbSymbolTableRecord
100
AcDbRegAppTableRecord
  2
GENIUS_GENOBJ-N-CEN_13
 70
     0
  0
APPID
  5
A83
330
9
100
AcDbSymbolTableRecord
100
AcDbRegAppTableRecord
  2
GENIUS_GENTRA_14
 70
     0
  0
APPID
  5
A8D
330
9
100
AcDbSymbolTableRecord
100
AcDbRegAppTableRecord
  2
GENIUS_GENOBJ-N-TIT_13
 70
     0
  0
APPID
  5
A8E
330
9
100
AcDbSymbolTableRecord
100
AcDbRegAppTableRecord
  2
GENIUS_GENTITLE_13
 70
     0
  0
APPID
  5
A8F
330
9
100
AcDbSymbolTableRecord
100
AcDbRegAppTableRecord
  2
GENIUS_GENOENT_13
 70
     0
  0
APPID
  5
A90
330
9
100
AcDbSymbolTableRecord
100
AcDbRegAppTableRecord
  2
GENIUS_GENOREF_13
 70
     0
  0
APPID
  5
A91
330
9
100
AcDbSymbolTableRecord
100
AcDbRegAppTableRecord
  2
GENIUS_GENOLIS_13
 70
     0
  0
APPID
  5
A92
330
9
100
AcDbSymbolTableRecord
100
AcDbRegAppTableRecord
  2
GENIUS_GENZVEED_13
 70
     0
  0
APPID
  5
A93
330
9
100
AcDbSymbolTableRecord
100
AcDbRegAppTableRecord
  2
GENIUS_GENSCREG_15
 70
     0
  0
APPID
  5
A94
330
9
100
AcDbSymbolTableRecord
100
AcDbRegAppTableRecord
  2
GENIUS_GENOBJ-N-SDF_13
 70
     0
  0
APPID
  5
12B5
330
9
100
AcDbSymbolTableRecord
100
AcDbRegAppTableRecord
  2
GENIUS_GENOBJ-N-RSBK_13
 70
     0
  0
APPID
  5
12B6
330
9
100
AcDbSymbolTableRecord
100
AcDbRegAppTableRecord
  2
GENIUS_GENOBJ-N-LIB_13
 70
     0
  0
APPID
  5
12B7
330
9
100
AcDbSymbolTableRecord
100
AcDbRegAppTableRecord
  2
GENIUS_GENSCALE_13
 70
     0
  0
APPID
  5
12B8
330
9
100
AcDbSymbolTableRecord
100
AcDbRegAppTableRecord
  2
GENIUS_GENOBJ-N-HTC_13
 70
     0
  0
APPID
  5
12B9
330
9
100
AcDbSymbolTableRecord
100
AcDbRegAppTableRecord
  2
GENIUS_GENHATCH_13
 70
     0
  0
APPID
  5
18AA
330
9
100
AcDbSymbolTableRecord
100
AcDbRegAppTableRecord
  2
BASE_TYPE
 70
     0
  0
APPID
  5
18AB
330
9
100
AcDbSymbolTableRecord
100
AcDbRegAppTableRecord
  2
GENIUS_GENOBJ-N-FIL_13
 70
     0
  0
APPID
  5
1E91
330
9
100
AcDbSymbolTableRecord
100
AcDbRegAppTableRecord
  2
GENIUS_GENOBJ-N-CRS_13
 70
     0
  0
APPID
  5
3B24
330
9
100
AcDbSymbolTableRecord
100
AcDbRegAppTableRecord
  2
GENIUS_GENDIMSH_14
 70
     0
  0
APPID
  5
576E
330
9
100
AcDbSymbolTableRecord
100
AcDbRegAppTableRecord
  2
GENIUS_GENFIL_13
 70
     0
  0
APPID
  5
576F
330
9
100
AcDbSymbolTableRecord
100
AcDbRegAppTableRecord
  2
GENIUS_GENOBJ-N-CHA_13
 70
     0
  0
APPID
  5
D3D6
330
9
100
AcDbSymbolTableRecord
100
AcDbRegAppTableRecord
  2
GENIUS_GENOBJ-N-DIM_13
 70
     0
  0
APPID
  5
D3E0
330
9
100
AcDbSymbolTableRecord
100
AcDbRegAppTableRecord
  2
GENIUS_GENDIM_13
 70
     0
  0
APPID
  5
208B8
330
9
100
AcDbSymbolTableRecord
100
AcDbRegAppTableRecord
  2
AD_DRAW
 70
     0
  0
APPID
  5
208BB
330
9
100
AcDbSymbolTableRecord
100
AcDbRegAppTableRecord
  2
ACATTRIBSERVICES
 70
     0
  0
APPID
  5
208D9
330
9
100
AcDbSymbolTableRecord
100
AcDbRegAppTableRecord
  2
DESIGNERASSEMBLIES
 70
     0
  0
APPID
  5
208EC
330
9
100
AcDbSymbolTableRecord
100
AcDbRegAppTableRecord
  2
ACADM_DIM_EDIT
 70
     0
  0
APPID
  5
208ED
330
9
100
AcDbSymbolTableRecord
100
AcDbRegAppTableRecord
  2
AMDT_DM_ADJ
 70
     0
  0
APPID
  5
20B2E
330
9
100
AcDbSymbolTableRecord
100
AcDbRegAppTableRecord
  2
ACAD_PSEXT
 70
     0
  0
APPID
  5
20B2F
330
9
100
AcDbSymbolTableRecord
100
AcDbRegAppTableRecord
  2
GENIUS_GENCEN_19
 70
     0
  0
APPID
  5
20B30
330
9
100
AcDbSymbolTableRecord
100
AcDbRegAppTableRecord
  2
ACAD_DIMASSOC_DIMLFAC
 70
     0
  0
APPID
  5
20B31
330
9
100
AcDbSymbolTableRecord
100
AcDbRegAppTableRecord
  2
ACAD_DIMASSOC_CALC_DIMLFAC
 70
     0
  0
APPID
  5
20B32
330
9
100
AcDbSymbolTableRecord
100
AcDbRegAppTableRecord
  2
ACAD_DIMASSOC_OVERRIDDEN_DIMLFAC
 70
     0
  0
ENDTAB
  0
TABLE
  2
DIMSTYLE
  5
A
330
0
100
AcDbSymbolTable
 70
    10
100
AcDbDimStyleTable
  0
DIMSTYLE
105
58
330
A
100
AcDbSymbolTableRecord
100
AcDbDimStyleTableRecord
  2
AM_JIS
 70
     0
  4
"
 41
2.5
 42
0.0
 43
10.0
 44
1.0
 47
0.1
 48
0.1000000001
 73
     0
 74
     0
 77
     3
 78
     1
 79
     2
140
3.8
141
0.0
143
0.0393701
146
0.71
147
1.5
172
     1
176
   256
177
   256
178
     2
179
     1
271
     2
272
     2
275
     1
283
     0
284
     8
340
11
341
59
342
59
371
    -1
372
    -1
  0
DIMSTYLE
105
5F
330
A
100
AcDbSymbolTableRecord
100
AcDbDimStyleTableRecord
  2
AM_JIS$3
 70
     0
  4
"
 41
2.5
 42
0.0
 43
10.0
 44
1.0
 47
0.1
 48
0.1000000001
 73
     0
 77
     3
 78
     1
 79
     2
140
3.8
141
0.0
143
0.0393701
146
0.71
147
1.5
172
     1
176
   256
177
   256
178
     2
179
     1
271
     2
272
     2
275
     1
283
     0
284
     8
288
     1
289
     0
340
11
341
59
342
59
371
    -1
372
    -1
  0
DIMSTYLE
105
60
330
A
100
AcDbSymbolTableRecord
100
AcDbDimStyleTableRecord
  2
AM_JIS$4
 70
     0
  4
"
 41
2.5
 42
0.0
 43
10.0
 44
1.0
 47
0.1
 48
0.1000000001
 73
     0
 77
     3
 78
     1
 79
     2
140
3.8
141
0.0
143
0.0393701
146
0.71
147
1.5
172
     1
176
   256
177
   256
178
     2
179
     1
271
     2
272
     2
275
     1
283
     0
284
     8
288
     1
289
     0
340
11
341
59
342
59
371
    -1
372
    -1
  0
DIMSTYLE
105
61
330
A
100
AcDbSymbolTableRecord
100
AcDbDimStyleTableRecord
  2
AM_JIS$6
 70
     0
  4
"
 41
2.5
 42
0.0
 43
10.0
 44
1.0
 47
0.1
 48
0.1000000001
 73
     0
 74
     0
 78
     1
 79
     2
140
3.8
141
0.0
143
0.0393701
146
0.71
147
1.5
172
     1
176
   256
177
   256
178
     2
179
     1
271
     2
272
     2
275
     1
283
     0
284
     8
340
11
341
59
342
59
371
    -1
372
    -1
  0
DIMSTYLE
105
62
330
A
100
AcDbSymbolTableRecord
100
AcDbDimStyleTableRecord
  2
AM_JIS$7
 70
     0
  4
"
 41
2.5
 42
0.0
 43
10.0
 44
1.0
 47
0.1
 48
0.1000000001
 73
     0
 74
     0
 77
     3
 78
     1
 79
     2
140
5.0
141
0.0
143
0.0393701
146
0.71
147
1.5
172
     1
176
   256
177
   256
178
     2
179
     1
271
     2
272
     2
275
     1
283
     0
284
     8
340
11
341
59
342
59
371
    -1
372
    -1
  0
DIMSTYLE
105
63
330
A
100
AcDbSymbolTableRecord
100
AcDbDimStyleTableRecord
  2
AM_JIS$SF
 70
     0
  4
"
 41
2.5
 42
1.0
 43
10.0
 44
1.0
 47
0.1
 48
0.1
 73
     0
 74
     0
 75
     1
 76
     1
 77
     3
 78
     8
 79
     2
140
3.5
141
0.0
143
0.0393701
146
0.71
147
1.5
176
   256
177
   256
178
     2
271
     2
272
     3
274
     4
340
11
341
59
342
59
343
59
344
59
371
    -1
372
    -1
  0
DIMSTYLE
105
68
330
A
100
AcDbSymbolTableRecord
100
AcDbDimStyleTableRecord
  2
AM_JIS$SH
 70
     0
  4
"
 41
2.5
 42
1.0
 43
10.0
 44
1.0
 47
0.1
 48
0.1
 73
     0
 74
     0
 75
     1
 76
     1
 77
     3
 78
     8
 79
     2
140
3.5
141
0.0
143
0.0393701
144
2.0
146
0.71
147
1.5
173
     1
176
   256
177
   256
178
     2
271
     2
272
     3
274
     4
340
11
341
59
342
59
343
64
344
59
371
    -1
372
    -1
  0
DIMSTYLE
105
65F
330
A
100
AcDbSymbolTableRecord
100
AcDbDimStyleTableRecord
  2
STANDARD
 70
     0
340
11
  0
DIMSTYLE
105
18A8
102
{ACAD_REACTORS
330
1F6C4
330
1F74C
330
1F864
330
1F7DC
330
1F917
330
1F9B5
102
}
330
A
100
AcDbSymbolTableRecord
100
AcDbDimStyleTableRecord
  2
AM_JIS$0
 70
     0
  4
"
 41
2.5
 42
0.0
 43
10.0
 44
1.0
 47
0.1
 48
0.1000000001
 73
     0
 74
     0
 77
     3
 78
     1
 79
     2
140
3.8
141
0.0
143
0.0393701
146
0.71
147
1.5
172
     1
176
     3
177
     3
178
     2
271
     2
272
     2
275
     1
283
     0
284
     8
289
     0
340
11
341
59
342
59
371
    13
372
    13
  0
DIMSTYLE
105
18A9
102
{ACAD_REACTORS
330
21512
102
}
330
A
100
AcDbSymbolTableRecord
100
AcDbDimStyleTableRecord
  2
AM_JIS$2
 70
     0
  4
"
 41
2.5
 42
0.0
 43
10.0
 44
1.0
 47
0.1
 48
0.1000000001
 73
     0
 74
     0
 77
     3
 78
     1
 79
     2
140
3.8
141
0.0
143
0.0393701
146
0.71
147
1.5
172
     1
176
     3
177
     3
178
     2
271
     2
272
     2
275
     1
283
     0
284
     8
289
     0
340
11
341
59
342
59
371
    13
372
    13
  0
ENDTAB
  0
TABLE
  2
BLOCK_RECORD
  5
1
330
0
100
AcDbSymbolTable
 70
    13
  0
BLOCK_RECORD
  5
1F
102
{ACAD_XDICTIONARY
360
165
102
}
330
1
100
AcDbSymbolTableRecord
100
AcDbBlockTableRecord
  2
*Model_Space
340
22
  0
BLOCK_RECORD
  5
1B
330
1
100
AcDbSymbolTableRecord
100
AcDbBlockTableRecord
  2
*Paper_Space
340
1E
  0
BLOCK_RECORD
  5
23
330
1
100
AcDbSymbolTableRecord
100
AcDbBlockTableRecord
  2
*Paper_Space0
340
26
  0
BLOCK_RECORD
  5
59
330
1
100
AcDbSymbolTableRecord
100
AcDbBlockTableRecord
  2
_Open30
340
0
102
{BLKREFS
331
2129E
331
2129F
331
21317
331
21318
331
21231
331
21232
331
21320
331
21321
331
2134F
331
21350
331
2156B
331
2156C
331
21535
331
21536
102
}
  0
BLOCK_RECORD
  5
64
330
1
100
AcDbSymbolTableRecord
100
AcDbBlockTableRecord
  2
GENAXEH
340
0
  0
BLOCK_RECORD
  5
1DF97
330
1
100
AcDbSymbolTableRecord
100
AcDbBlockTableRecord
  2
*S3
340
0
102
{BLKREFS
331
1E461
102
}
  0
BLOCK_RECORD
  5
1DF9F
330
1
100
AcDbSymbolTableRecord
100
AcDbBlockTableRecord
  2
*S4
340
0
102
{BLKREFS
331
1E462
102
}
  0
BLOCK_RECORD
  5
1F6C5
330
1
100
AcDbSymbolTableRecord
100
AcDbBlockTableRecord
  2
*D5
340
0
  0
BLOCK_RECORD
  5
1F74D
330
1
100
AcDbSymbolTableRecord
100
AcDbBlockTableRecord
  2
*D6
340
0
  0
BLOCK_RECORD
  5
1F7DD
330
1
100
AcDbSymbolTableRecord
100
AcDbBlockTableRecord
  2
*D7
340
0
  0
BLOCK_RECORD
  5
1F865
330
1
100
AcDbSymbolTableRecord
100
AcDbBlockTableRecord
  2
*D8
340
0
  0
BLOCK_RECORD
  5
1F918
330
1
100
AcDbSymbolTableRecord
100
AcDbBlockTableRecord
  2
*D9
340
0
  0
BLOCK_RECORD
  5
1F9B6
330
1
100
AcDbSymbolTableRecord
100
AcDbBlockTableRecord
  2
*D10
340
0
  0
BLOCK_RECORD
  5
208D0
330
1
100
AcDbSymbolTableRecord
100
AcDbBlockTableRecord
  2
*U11
340
0
  0
BLOCK_RECORD
  5
21513
330
1
100
AcDbSymbolTableRecord
100
AcDbBlockTableRecord
  2
*D12
340
0
  0
ENDTAB
  0
ENDSEC
  0
SECTION
  2
BLOCKS
  0
BLOCK
  5
20
330
1F
100
AcDbEntity
  8
0
100
AcDbBlockBegin
  2
*Model_Space
 70
     0
 71
     0
 10
0.0
 20
0.0
 30
0.0
  3
*Model_Space
  1

  0
ENDBLK
  5
21
330
1F
100
AcDbEntity
  8
0
100
AcDbBlockEnd
  0
BLOCK
  5
1C
330
1B
100
AcDbEntity
 67
     1
  8
0
100
AcDbBlockBegin
  2
*Paper_Space
 70
     0
 71
     0
 10
0.0
 20
0.0
 30
0.0
  3
*Paper_Space
  1

  0
ENDBLK
  5
1D
330
1B
100
AcDbEntity
 67
     1
  8
0
100
AcDbBlockEnd
  0
BLOCK
  5
24
330
23
100
AcDbEntity
  8
0
100
AcDbBlockBegin
  2
*Paper_Space0
 70
     0
 71
     0
 10
0.0
 20
0.0
 30
0.0
  3
*Paper_Space0
  1

  0
ENDBLK
  5
25
330
23
100
AcDbEntity
  8
0
100
AcDbBlockEnd
  0
BLOCK
  5
5D
330
59
100
AcDbEntity
  8
0
100
AcDbBlockBegin
  2
_Open30
 70
     0
 71
     0
 10
0.0
 20
0.0
 30
0.0
  3
_Open30
  1

  0
LINE
  5
5A
330
59
100
AcDbEntity
  8
0
 62
     0
370
    -2
100
AcDbLine
 10
-1.0
 20
0.26794919
 30
0.0
 11
0.0
 21
0.0
 31
0.0
  0
LINE
  5
5B
330
59
100
AcDbEntity
  8
0
 62
     0
370
    -2
100
AcDbLine
 10
0.0
 20
0.0
 30
0.0
 11
-1.0
 21
-0.26794919
 31
0.0
  0
LINE
  5
5C
330
59
100
AcDbEntity
  8
0
 62
     0
370
    -2
100
AcDbLine
 10
0.0
 20
0.0
 30
0.0
 11
-1.0
 21
0.0
 31
0.0
  0
ENDBLK
  5
5E
330
59
100
AcDbEntity
  8
0
100
AcDbBlockEnd
  0
BLOCK
  5
66
330
64
100
AcDbEntity
  8
0
100
AcDbBlockBegin
  2
GENAXEH
 70
     0
 71
     0
 10
0.0
 20
0.0
 30
0.0
  3
GENAXEH
  1

  0
LINE
  5
65
330
64
100
AcDbEntity
  8
0
100
AcDbLine
 10
-1.0
 20
0.0
 30
0.0
 11
1.0
 21
0.0
 31
0.0
  0
ENDBLK
  5
67
330
64
100
AcDbEntity
  8
0
100
AcDbBlockEnd
  0
BLOCK
  5
1DF9D
330
1DF97
100
AcDbEntity
  8
0
100
AcDbBlockBegin
  2
*S3
 70
     1
 71
     0
 10
0.0
 20
0.0
 30
0.0
  3
*S3
  1

  0
LINE
  5
1DF98
330
1DF97
100
AcDbEntity
  8
AM_5
100
AcDbLine
 10
147.8879118222266
 20
185.569543882291
 30
0.0
 11
152.7379118222266
 21
185.5695438822913
 31
0.0
  0
LINE
  5
1DF99
330
1DF97
100
AcDbEntity
  8
AM_5
100
AcDbLine
 10
152.7379118222266
 20
185.5695438822913
 30
0.0
 11
155.8879118222266
 21
185.5695438822914
 31
0.0
  0
LINE
  5
1DF9A
330
1DF97
100
AcDbEntity
  8
AM_5
100
AcDbLine
 10
152.7379118222267
 20
185.1548385167413
 30
0.0
 11
155.8879118222266
 21
185.5695438822914
 31
0.0
  0
LINE
  5
1DF9B
330
1DF97
100
AcDbEntity
  8
AM_5
100
AcDbLine
 10
155.8879118222266
 20
185.5695438822914
 30
0.0
 11
152.7379118222266
 21
185.9842492478413
 31
0.0
  0
MTEXT
  5
1DF9C
330
1DF97
100
AcDbEntity
  8
AM_0
 62
     2
100
AcDbMText
 10
146.3129118222265
 20
187.1445438822908
 30
0.0
 40
3.15
 41
0.0
 71
     9
 72
     5
  1

  7
ACJISTS
 73
     1
 44
1.0
  0
ENDBLK
  5
1DF9E
330
1DF97
100
AcDbEntity
  8
0
100
AcDbBlockEnd
  0
BLOCK
  5
1DFA5
330
1DF9F
100
AcDbEntity
  8
0
100
AcDbBlockBegin
  2
*S4
 70
     1
 71
     0
 10
0.0
 20
0.0
 30
0.0
  3
*S4
  1

  0
LINE
  5
1DFA0
330
1DF9F
100
AcDbEntity
  8
AM_5
100
AcDbLine
 10
147.8879118222267
 20
185.569543882291
 30
0.0
 11
147.8879118222265
 21
190.419543882291
 31
0.0
  0
LINE
  5
1DFA1
330
1DF9F
100
AcDbEntity
  8
AM_5
100
AcDbLine
 10
147.8879118222265
 20
190.419543882291
 30
0.0
 11
147.8879118222264
 21
193.569543882291
 31
0.0
  0
LINE
  5
1DFA2
330
1DF9F
100
AcDbEntity
  8
AM_5
100
AcDbLine
 10
148.3026171877765
 20
190.419543882291
 30
0.0
 11
147.8879118222264
 21
193.569543882291
 31
0.0
  0
LINE
  5
1DFA3
330
1DF9F
100
AcDbEntity
  8
AM_5
100
AcDbLine
 10
147.8879118222264
 20
193.569543882291
 30
0.0
 11
147.4732064566765
 21
190.419543882291
 31
0.0
  0
MTEXT
  5
1DFA4
330
1DF9F
100
AcDbEntity
  8
AM_0
 62
     2
100
AcDbMText
 10
146.3129118222265
 20
187.1445438822908
 30
0.0
 40
3.15
 41
0.0
 71
     7
 72
     5
  1

  7
ACJISTS
210
0.0
220
0.0
230
-1.0
 11
-1.0
 21
-5.684341886080802E-14
 31
0.0
 73
     1
 44
1.0
  0
ENDBLK
  5
1DFA6
330
1DF9F
100
AcDbEntity
  8
0
100
AcDbBlockEnd
  0
BLOCK
  5
1F6CF
330
1F6C5
100
AcDbEntity
  8
0
100
AcDbBlockBegin
  2
*D5
 70
     1
 71
     0
 10
0.0
 20
0.0
 30
0.0
  3
*D5
  1

  0
LINE
  5
2129B
330
1F6C5
100
AcDbEntity
  8
AM_5
 62
     3
370
    13
100
AcDbLine
 10
0.0
 20
0.8016075134790128
 30
0.0
 11
-0.0000000000000019
 21
-31.0
 31
0.0
  0
LINE
  5
2129C
330
1F6C5
100
AcDbEntity
  8
AM_5
 62
     3
370
    13
100
AcDbLine
 10
150.0000000000002
 20
7.0
 30
0.0
 11
150.0000000000002
 21
-31.0
 31
0.0
  0
LINE
  5
2129D
330
1F6C5
100
AcDbEntity
  8
AM_5
 62
     3
370
    13
100
AcDbLine
 10
2.499999999999998
 20
-30.0
 30
0.0
 11
147.5000000000002
 21
-30.0
 31
0.0
  0
INSERT
  5
2129E
330
1F6C5
100
AcDbEntity
  8
AM_5
 62
     3
370
    13
100
AcDbBlockReference
  2
_Open30
 10
-0.0000000000000019
 20
-30.0
 30
0.0
 41
2.5
 42
2.5
 43
2.5
 50
180.0
  0
INSERT
  5
2129F
330
1F6C5
100
AcDbEntity
  8
AM_5
 62
     3
370
    13
100
AcDbBlockReference
  2
_Open30
 10
150.0000000000002
 20
-30.0
 30
0.0
 41
2.5
 42
2.5
 43
2.5
  0
MTEXT
  5
212A0
330
1F6C5
100
AcDbEntity
  8
AM_5
 62
     2
100
AcDbMText
 10
75.00000000000009
 20
-26.6
 30
0.0
 40
3.8
 41
0.0
 71
     5
 72
     1
  1
150
 73
     1
 44
1.0
  0
POINT
  5
212A1
330
1F6C5
100
AcDbEntity
  8
Defpoints
 62
     0
100
AcDbPoint
 10
0.0
 20
0.8016075134790128
 30
0.0
  0
POINT
  5
212A2
330
1F6C5
100
AcDbEntity
  8
Defpoints
 62
     0
100
AcDbPoint
 10
150.0000000000002
 20
7.0
 30
0.0
  0
POINT
  5
212A3
330
1F6C5
100
AcDbEntity
  8
Defpoints
 62
     0
100
AcDbPoint
 10
150.0000000000002
 20
-30.0
 30
0.0
  0
ENDBLK
  5
1F6D0
330
1F6C5
100
AcDbEntity
  8
0
100
AcDbBlockEnd
  0
BLOCK
  5
1F757
330
1F74D
100
AcDbEntity
  8
0
100
AcDbBlockBegin
  2
*D6
 70
     1
 71
     0
 10
0.0
 20
0.0
 30
0.0
  3
*D6
  1

  0
LINE
  5
21314
330
1F74D
100
AcDbEntity
  8
AM_5
 62
     3
370
    13
100
AcDbLine
 10
35.00000000000017
 20
-60.00000000000001
 30
0.0
 11
35.00000000000017
 21
-39.0
 31
0.0
  0
LINE
  5
21315
330
1F74D
100
AcDbEntity
  8
AM_5
 62
     3
370
    13
100
AcDbLine
 10
0.0
 20
-59.99999999936546
 30
0.0
 11
0.0000000000000013
 21
-39.0
 31
0.0
  0
LINE
  5
21316
330
1F74D
100
AcDbEntity
  8
AM_5
 62
     3
370
    13
100
AcDbLine
 10
32.50000000000017
 20
-40.0
 30
0.0
 11
2.500000000000001
 21
-40.0
 31
0.0
  0
INSERT
  5
21317
330
1F74D
100
AcDbEntity
  8
AM_5
 62
     3
370
    13
100
AcDbBlockReference
  2
_Open30
 10
35.00000000000017
 20
-40.0
 30
0.0
 41
2.5
 42
2.5
 43
2.5
  0
INSERT
  5
21318
330
1F74D
100
AcDbEntity
  8
AM_5
 62
     3
370
    13
100
AcDbBlockReference
  2
_Open30
 10
0.0000000000000012
 20
-40.0
 30
0.0
 41
2.5
 42
2.5
 43
2.5
 50
180.0
  0
MTEXT
  5
21319
330
1F74D
100
AcDbEntity
  8
AM_5
 62
     2
100
AcDbMText
 10
17.50000000000009
 20
-36.6
 30
0.0
 40
3.8
 41
0.0
 71
     5
 72
     1
  1
35
 73
     1
 44
1.0
  0
POINT
  5
2131A
330
1F74D
100
AcDbEntity
  8
Defpoints
 62
     0
100
AcDbPoint
 10
35.00000000000017
 20
-60.00000000000001
 30
0.0
  0
POINT
  5
2131B
330
1F74D
100
AcDbEntity
  8
Defpoints
 62
     0
100
AcDbPoint
 10
0.0
 20
-59.99999999936546
 30
0.0
  0
POINT
  5
2131C
330
1F74D
100
AcDbEntity
  8
Defpoints
 62
     0
100
AcDbPoint
 10
0.0000000000000012
 20
-40.0
 30
0.0
  0
ENDBLK
  5
1F758
330
1F74D
100
AcDbEntity
  8
0
100
AcDbBlockEnd
  0
BLOCK
  5
1F7E7
330
1F7DD
100
AcDbEntity
  8
0
100
AcDbBlockBegin
  2
*D7
 70
     1
 71
     0
 10
0.0
 20
0.0
 30
0.0
  3
*D7
  1

  0
LINE
  5
2122E
330
1F7DD
100
AcDbEntity
  8
AM_5
 62
     3
370
    13
100
AcDbLine
 10
150.4000000000002
 20
32.0
 30
0.0
 11
161.0000000000002
 21
32.0
 31
0.0
  0
LINE
  5
2122F
330
1F7DD
100
AcDbEntity
  8
AM_5
 62
     3
370
    13
100
AcDbLine
 10
150.0000000000002
 20
7.0
 30
0.0
 11
161.0000000000002
 21
6.999999999999997
 31
0.0
  0
LINE
  5
21230
330
1F7DD
100
AcDbEntity
  8
AM_5
 62
     3
370
    13
100
AcDbLine
 10
160.0000000000002
 20
29.5
 30
0.0
 11
160.0000000000002
 21
9.499999999999996
 31
0.0
  0
INSERT
  5
21231
330
1F7DD
100
AcDbEntity
  8
AM_5
 62
     3
370
    13
100
AcDbBlockReference
  2
_Open30
 10
160.0000000000002
 20
32.0
 30
0.0
 41
2.5
 42
2.5
 43
2.5
 50
90.0
  0
INSERT
  5
21232
330
1F7DD
100
AcDbEntity
  8
AM_5
 62
     3
370
    13
100
AcDbBlockReference
  2
_Open30
 10
160.0000000000002
 20
6.999999999999997
 30
0.0
 41
2.5
 42
2.5
 43
2.5
 50
270.0
  0
MTEXT
  5
21233
330
1F7DD
100
AcDbEntity
  8
AM_5
 62
     2
100
AcDbMText
 10
156.5996259842521
 20
19.50000000000003
 30
0.0
 40
3.8
 41
0.0
 71
     5
 72
     1
  1
25
 11
6.123031769111886E-17
 21
1.0
 31
0.0
 73
     1
 44
1.0
  0
POINT
  5
21234
330
1F7DD
100
AcDbEntity
  8
Defpoints
 62
     0
100
AcDbPoint
 10
150.4000000000002
 20
32.0
 30
0.0
  0
POINT
  5
21235
330
1F7DD
100
AcDbEntity
  8
Defpoints
 62
     0
100
AcDbPoint
 10
150.0000000000002
 20
7.0
 30
0.0
  0
POINT
  5
21236
330
1F7DD
100
AcDbEntity
  8
Defpoints
 62
     0
100
AcDbPoint
 10
160.0000000000002
 20
6.999999999999997
 30
0.0
  0
ENDBLK
  5
1F7E8
330
1F7DD
100
AcDbEntity
  8
0
100
AcDbBlockEnd
  0
BLOCK
  5
1F86F
330
1F865
100
AcDbEntity
  8
0
100
AcDbBlockBegin
  2
*D8
 70
     1
 71
     0
 10
0.0
 20
0.0
 30
0.0
  3
*D8
  1

  0
LINE
  5
2131D
330
1F865
100
AcDbEntity
  8
AM_5
 62
     3
370
    13
100
AcDbLine
 10
150.0000000000001
 20
-60.00000000000001
 30
0.0
 11
161.0000000000002
 21
-60.00000000000001
 31
0.0
  0
LINE
  5
2131E
330
1F865
100
AcDbEntity
  8
AM_5
 62
     3
370
    13
100
AcDbLine
 10
150.4000000000002
 20
-85.00000000000003
 30
0.0
 11
161.0000000000001
 21
-85.00000000000004
 31
0.0
  0
LINE
  5
2131F
330
1F865
100
AcDbEntity
  8
AM_5
 62
     3
370
    13
100
AcDbLine
 10
160.0000000000002
 20
-62.50000000000001
 30
0.0
 11
160.0000000000001
 21
-82.50000000000004
 31
0.0
  0
INSERT
  5
21320
330
1F865
100
AcDbEntity
  8
AM_5
 62
     3
370
    13
100
AcDbBlockReference
  2
_Open30
 10
160.0000000000002
 20
-60.00000000000001
 30
0.0
 41
2.5
 42
2.5
 43
2.5
 50
90.0
  0
INSERT
  5
21321
330
1F865
100
AcDbEntity
  8
AM_5
 62
     3
370
    13
100
AcDbBlockReference
  2
_Open30
 10
160.0000000000001
 20
-85.00000000000004
 30
0.0
 41
2.5
 42
2.5
 43
2.5
 50
270.0
  0
MTEXT
  5
21322
330
1F865
100
AcDbEntity
  8
AM_5
 62
     2
100
AcDbMText
 10
156.5996259842521
 20
-72.5
 30
0.0
 40
3.8
 41
0.0
 71
     5
 72
     1
  1
25
 11
6.123031769111886E-17
 21
1.0
 31
0.0
 73
     1
 44
1.0
  0
POINT
  5
21323
330
1F865
100
AcDbEntity
  8
Defpoints
 62
     0
100
AcDbPoint
 10
150.0000000000001
 20
-60.00000000000001
 30
0.0
  0
POINT
  5
21324
330
1F865
100
AcDbEntity
  8
Defpoints
 62
     0
100
AcDbPoint
 10
150.4000000000002
 20
-85.00000000000003
 30
0.0
  0
POINT
  5
21325
330
1F865
100
AcDbEntity
  8
Defpoints
 62
     0
100
AcDbPoint
 10
160.0000000000001
 20
-85.00000000000004
 30
0.0
  0
ENDBLK
  5
1F870
330
1F865
100
AcDbEntity
  8
0
100
AcDbBlockEnd
  0
BLOCK
  5
1F922
330
1F918
100
AcDbEntity
  8
0
100
AcDbBlockBegin
  2
*D9
 70
     1
 71
     0
 10
0.0
 20
0.0
 30
0.0
  3
*D9
  1

  0
LINE
  5
2134C
330
1F918
100
AcDbEntity
  8
AM_5
 62
     3
370
    13
100
AcDbLine
 10
14.65899664426283
 20
32.0
 30
0.0
 11
-10.99999999999999
 21
32.0
 31
0.0
  0
LINE
  5
2134D
330
1F918
100
AcDbEntity
  8
AM_5
 62
     3
370
    13
100
AcDbLine
 10
-2.294522975629576
 20
0.0
 30
0.0
 11
-11.0
 21
0.0000000000000025
 31
0.0
  0
LINE
  5
2134E
330
1F918
100
AcDbEntity
  8
AM_5
 62
     3
370
    13
100
AcDbLine
 10
-9.999999999999995
 20
29.5
 30
0.0
 11
-10.0
 21
2.500000000000002
 31
0.0
  0
INSERT
  5
2134F
330
1F918
100
AcDbEntity
  8
AM_5
 62
     3
370
    13
100
AcDbBlockReference
  2
_Open30
 10
-9.999999999999995
 20
32.0
 30
0.0
 41
2.5
 42
2.5
 43
2.5
 50
90.0
  0
INSERT
  5
21350
330
1F918
100
AcDbEntity
  8
AM_5
 62
     3
370
    13
100
AcDbBlockReference
  2
_Open30
 10
-10.0
 20
0.0000000000000022
 30
0.0
 41
2.5
 42
2.5
 43
2.5
 50
270.0
  0
MTEXT
  5
21351
330
1F918
100
AcDbEntity
  8
AM_5
 62
     2
100
AcDbMText
 10
-13.40037401574803
 20
16.0
 30
0.0
 40
3.8
 41
0.0
 71
     5
 72
     1
  1
32
 11
6.123031769111886E-17
 21
1.0
 31
0.0
 73
     1
 44
1.0
  0
POINT
  5
21352
330
1F918
100
AcDbEntity
  8
Defpoints
 62
     0
100
AcDbPoint
 10
14.65899664426283
 20
32.0
 30
0.0
  0
POINT
  5
21353
330
1F918
100
AcDbEntity
  8
Defpoints
 62
     0
100
AcDbPoint
 10
-2.294522975629576
 20
0.0
 30
0.0
  0
POINT
  5
21354
330
1F918
100
AcDbEntity
  8
Defpoints
 62
     0
100
AcDbPoint
 10
-10.0
 20
0.0000000000000022
 30
0.0
  0
ENDBLK
  5
1F923
330
1F918
100
AcDbEntity
  8
0
100
AcDbBlockEnd
  0
BLOCK
  5
1F9C0
330
1F9B6
100
AcDbEntity
  8
0
100
AcDbBlockBegin
  2
*D10
 70
     1
 71
     0
 10
0.0
 20
0.0
 30
0.0
  3
*D10
  1

  0
LINE
  5
21568
330
1F9B6
100
AcDbEntity
  8
AM_5
 62
     3
370
    13
100
AcDbLine
 10
0.0117073676595076
 20
-59.99999999936546
 30
0.0
 11
-11.00000000000001
 21
-59.99999999936546
 31
0.0
  0
LINE
  5
21569
330
1F9B6
100
AcDbEntity
  8
AM_5
 62
     3
370
    13
100
AcDbLine
 10
2.671158688766923
 20
-85.00000000000003
 30
0.0
 11
-11.00000000000002
 21
-85.00000000000003
 31
0.0
  0
LINE
  5
2156A
330
1F9B6
100
AcDbEntity
  8
AM_5
 62
     3
370
    13
100
AcDbLine
 10
-10.00000000000002
 20
-62.49999999936546
 30
0.0
 11
-10.00000000000002
 21
-82.50000000000003
 31
0.0
  0
INSERT
  5
2156B
330
1F9B6
100
AcDbEntity
  8
AM_5
 62
     3
370
    13
100
AcDbBlockReference
  2
_Open30
 10
-10.00000000000001
 20
-59.99999999936546
 30
0.0
 41
2.5
 42
2.5
 43
2.5
 50
90.0
  0
INSERT
  5
2156C
330
1F9B6
100
AcDbEntity
  8
AM_5
 62
     3
370
    13
100
AcDbBlockReference
  2
_Open30
 10
-10.00000000000002
 20
-85.00000000000003
 30
0.0
 41
2.5
 42
2.5
 43
2.5
 50
270.0
  0
MTEXT
  5
2156D
330
1F9B6
100
AcDbEntity
  8
AM_5
 62
     2
100
AcDbMText
 10
-13.40037401574804
 20
-72.49999999968274
 30
0.0
 40
3.8
 41
0.0
 71
     5
 72
     1
  1
25
 11
6.123031769111886E-17
 21
1.0
 31
0.0
 73
     1
 44
1.0
  0
POINT
  5
2156E
330
1F9B6
100
AcDbEntity
  8
Defpoints
 62
     0
100
AcDbPoint
 10
0.0117073676595076
 20
-59.99999999936546
 30
0.0
  0
POINT
  5
2156F
330
1F9B6
100
AcDbEntity
  8
Defpoints
 62
     0
100
AcDbPoint
 10
2.671158688766923
 20
-85.00000000000003
 30
0.0
  0
POINT
  5
21570
330
1F9B6
100
AcDbEntity
  8
Defpoints
 62
     0
100
AcDbPoint
 10
-10.00000000000002
 20
-85.00000000000003
 30
0.0
  0
ENDBLK
  5
1F9C1
330
1F9B6
100
AcDbEntity
  8
0
100
AcDbBlockEnd
  0
BLOCK
  5
208D1
330
208D0
100
AcDbEntity
  8
0
100
AcDbBlockBegin
  2
*U11
 70
     1
 71
     0
 10
0.0
 20
0.0
 30
0.0
  3
*U11
  1

  0
ENDBLK
  5
208D2
330
208D0
100
AcDbEntity
  8
0
100
AcDbBlockEnd
  0
BLOCK
  5
2153E
330
21513
100
AcDbEntity
  8
0
100
AcDbBlockBegin
  2
*D12
 70
     1
 71
     0
 10
0.0
 20
0.0
 30
0.0
  3
*D12
  1

  0
LINE
  5
21532
330
21513
100
AcDbEntity
  8
AM_5
 62
     3
370
    13
100
AcDbLine
 10
-0.0000000000000001
 20
-1.430119419565017
 30
0.0
 11
-0.0000000000000053
 21
-21.08525830623231
 31
0.0
  0
LINE
  5
21533
330
21513
100
AcDbEntity
  8
AM_5
 62
     3
370
    13
100
AcDbLine
 10
2.343585881720458
 20
0.3855184038732488
 30
0.0
 11
20.1326130747542
 21
5.152073874381809
 31
0.0
  0
ARC
  5
21534
330
21513
100
AcDbEntity
  8
AM_5
 62
     3
370
    13
100
AcDbCircle
 10
-0.0000000000000001
 20
-0.2424435405267128
 30
0.0
 40
19.8428147657056
100
AcDbArc
 50
277.223489116737
 51
7.776510883262678
  0
INSERT
  5
21535
330
21513
100
AcDbEntity
  8
AM_5
 62
     3
370
    13
100
AcDbBlockReference
  2
_Open30
 10
-0.0000000000000053
 20
-20.08525830623231
 30
0.0
 41
2.5
 42
2.5
 43
2.5
 50
183.6117445583685
  0
INSERT
  5
21536
330
21513
100
AcDbEntity
  8
AM_5
 62
     3
370
    13
100
AcDbBlockReference
  2
_Open30
 10
19.16668724846513
 20
4.893254829279296
 30
0.0
 41
2.5
 42
2.5
 43
2.5
 50
101.3882554416312
  0
MTEXT
  5
21537
330
21513
100
AcDbEntity
  8
AM_5
 62
     2
100
AcDbMText
 10
13.04496201816255
 20
-10.25219495422339
 30
0.0
 40
3.8
 41
0.0
 71
     5
 72
     1
  1
105°
 11
0.6087614290087222
 21
0.7933533402912339
 31
0.0
 73
     1
 44
1.0
  0
POINT
  5
21538
330
21513
100
AcDbEntity
  8
Defpoints
 62
     0
100
AcDbPoint
 10
11.3813709804873
 20
-16.49672582030227
 30
0.0
  0
POINT
  5
21539
330
21513
100
AcDbEntity
  8
Defpoints
 62
     0
100
AcDbPoint
 10
0.0
 20
0.0
 30
0.0
  0
POINT
  5
2153A
330
21513
100
AcDbEntity
  8
Defpoints
 62
     0
100
AcDbPoint
 10
1.003823946229829
 20
0.0265302752085859
 30
0.0
  0
POINT
  5
2153B
330
21513
100
AcDbEntity
  8
Defpoints
 62
     0
100
AcDbPoint
 10
2.343585881720458
 20
0.3855184038732488
 30
0.0
  0
POINT
  5
2153C
330
21513
100
AcDbEntity
  8
Defpoints
 62
     0
100
AcDbPoint
 10
-0.0000000000000001
 20
-1.430119419565017
 30
0.0
  0
ENDBLK
  5
2153F
330
21513
100
AcDbEntity
  8
0
100
AcDbBlockEnd
  0
ENDSEC
  0
SECTION
  2
ENTITIES
  0
TEXT
  5
1E45F
330
1F
100
AcDbEntity
  8
AM_0
100
AcDbText
 10
-16.39025795225689
 20
-30.02283751579645
 30
0.0
 40
3.5
  1
-8%%d
100
AcDbText
  0
TEXT
  5
1E460
330
1F
100
AcDbEntity
  8
AM_0
100
AcDbText
 10
-28.99447843614553
 20
-19.79817008614666
 30
0.0
 40
3.5
  1
-8%%d
100
AcDbText
  0
INSERT
  5
1E461
330
1F
100
AcDbEntity
  8
AM_5
100
AcDbBlockReference
  2
*S3
 10
-173.0674198047349
 20
-214.3971974289185
 30
0.0
  0
INSERT
  5
1E462
330
1F
100
AcDbEntity
  8
AM_5
100
AcDbBlockReference
  2
*S4
 10
-173.0674198047349
 20
-214.3971974289185
 30
0.0
  0
TEXT
  5
1E47B
330
1F
100
AcDbEntity
  8
AM_6
100
AcDbText
 10
151.2162403638389
 20
-76.45697250710231
 30
0.0
 40
3.0
  1

100
AcDbText
  0
TEXT
  5
1E47F
330
1F
100
AcDbEntity
  8
AM_6
100
AcDbText
 10
163.4073958784107
 20
-76.45697250710231
 30
0.0
 40
3.0
  1

100
AcDbText
  0
LINE
  5
1EF23
330
1F
100
AcDbEntity
  8
AM_0
  6
Continuous
370
    30
100
AcDbLine
 10
8.050144551793778
 20
-49.78457279619886
 30
0.0
 11
9.945988545840464
 21
-48.74089927431942
 31
0.0
  0
LINE
  5
1EF24
330
1F
100
AcDbEntity
  8
AM_0
  6
Continuous
370
    30
100
AcDbLine
 10
12.89232051413853
 20
-67.45800742128961
 30
0.0
 11
5.256367878212018
 21
-68.81872377976151
 31
0.0
  0
LINE
  5
1EF25
330
1F
100
AcDbEntity
  8
AM_0
  6
Continuous
370
    30
100
AcDbLine
 10
7.502299775390839
 20
-57.98793836038499
 30
0.0
 11
12.86302293018781
 21
-56.95875479999529
 31
0.0
  0
ELLIPSE
  5
1EF26
330
1F
100
AcDbEntity
  8
AM_0
  6
Continuous
370
    30
100
AcDbEllipse
 10
14.43544166044512
 20
-48.56399859545911
 30
0.0
 11
4.852566160781304
 21
0.6801482597494521
 31
0.0
210
0.0
220
0.0
230
1.0
 40
0.1392094787801441
 41
2.499559880014836
 42
5.496500603724386
  0
LINE
  5
1EF32
330
1F
100
AcDbEntity
  8
AM_0
  6
Continuous
370
    30
100
AcDbLine
 10
20.27735943869345
 20
-85.00000000000003
 30
0.0
 11
2.671158688766923
 21
-85.00000000000003
 31
0.0
  0
LINE
  5
1EF33
330
1F
100
AcDbEntity
  8
AM_0
  6
Continuous
370
    30
100
AcDbLine
 10
15.20307776425511
 20
26.1516496919275
 30
0.0
 11
9.484307673831552
 21
20.33469340330618
 31
0.0
  0
LINE
  5
1EF34
330
1F
100
AcDbEntity
  8
AM_0
  6
Continuous
370
    30
100
AcDbLine
 10
7.502299775390839
 20
3.978969260746851
 30
0.0
 11
12.86302293018781
 21
5.936037986672147
 31
0.0
  0
ELLIPSE
  5
1EF37
330
1F
100
AcDbEntity
  8
AM_0
  6
Continuous
370
    30
100
AcDbEllipse
 10
14.43544166044512
 20
14.6740018882046
 30
0.0
 11
-3.486735333698694
 21
3.442771661428778
 31
0.0
210
0.0
220
0.0
230
1.0
 40
0.9806768383858927
 41
0.002125079888794
 42
3.143717733478603
  0
LINE
  5
1EF3E
330
1F
100
AcDbEntity
  8
AM_0
  6
Continuous
370
    30
100
AcDbLine
 10
11.03684024497062
 20
25.72624108346514
 30
0.0
 11
6.431755308310358
 21
17.74999999999938
 31
0.0
  0
SPLINE
  5
1EF3F
330
1F
100
AcDbEntity
  8
AM_0
  6
Continuous
370
    30
100
AcDbSpline
210
0.0
220
0.0
230
1.0
 70
     8
 71
     1
 72
    33
 73
    31
 74
     0
 42
0.0000000001
 43
0.0000000001
 40
0.0
 40
0.0
 40
0.2115595001651592
 40
0.4231190003303183
 40
0.6346785004954775
 40
0.8462380006606366
 40
1.057797500825796
 40
1.269357000990955
 40
1.480916501156114
 40
1.692476001321273
 40
1.904035501486433
 40
2.115595001651592
 40
2.327154501816751
 40
2.53871400198191
 40
2.750273502147069
 40
2.961833002312228
 40
3.211856069905526
 40
3.461879137498824
 40
3.711902205092121
 40
3.961925272685419
 40
4.211948340278717
 40
4.461971407872015
 40
4.711994475465312
 40
4.96201754305861
 40
5.212040610651908
 40
5.462063678245205
 40
5.712086745838503
 40
5.962109813431802
 40
6.212132881025099
 40
6.384535662964591
 40
6.556938444904082
 40
6.729341226843573
 40
6.729341226843573
 10
5.200618485939117
 20
-53.62017593346184
 30
0.0
 10
5.270233704029977
 20
-53.45266234066696
 30
0.0
 10
5.340910069220115
 20
-53.28793554923334
 30
0.0
 10
5.412641336066656
 20
-53.1260409915941
 30
0.0
 10
5.485421259126952
 20
-52.96702410018213
 30
0.0
 10
5.559243592958069
 20
-52.81093030743045
 30
0.0
 10
5.634102092117303
 20
-52.65780504577208
 30
0.0
 10
5.709990511161777
 20
-52.50769374764002
 30
0.0
 10
5.786902604648844
 20
-52.36064184546717
 30
0.0
 10
5.864832127135514
 20
-52.21669477168666
 30
0.0
 10
5.943772833179139
 20
-52.07589795873139
 30
0.0
 10
6.0237184773369
 20
-51.93829683903448
 30
0.0
 10
6.104662814165977
 20
-51.80393684502872
 30
0.0
 10
6.186599598223552
 20
-51.67286340914734
 30
0.0
 10
6.26952258406692
 20
-51.54512196382314
 30
0.0
 10
6.368935670359292
 20
-51.39806642540634
 30
0.0
 10
6.470147852441528
 20
-51.25491650217248
 30
0.0
 10
6.573356953355528
 20
-51.11575935851897
 30
0.0
 10
6.678760796143251
 20
-50.98068215884337
 30
0.0
 10
6.786557203846769
 20
-50.8497720675432
 30
0.0
 10
6.896943999507982
 20
-50.7231162490159
 30
0.0
 10
7.010119006168793
 20
-50.60080186765902
 30
0.0
 10
7.126280046871329
 20
-50.48291608787008
 30
0.0
 10
7.245624944657322
 20
-50.36954607404653
 30
0.0
 10
7.368351522568958
 20
-50.26077899058589
 30
0.0
 10
7.494657603648079
 20
-50.15670200188549
 30
0.0
 10
7.624741010936646
 20
-50.0574022723431
 30
0.0
 10
7.758799567476672
 20
-49.96296696635602
 30
0.0
 10
7.853732676081336
 20
-49.90081398319455
 30
0.0
 10
7.950838621538821
 20
-49.84129816391692
 30
0.0
 10
8.050144551793835
 20
-49.78457279619875
 30
0.0
  0
LINE
  5
1EF41
330
1F
100
AcDbEntity
  8
AM_0
  6
Continuous
370
    30
100
AcDbLine
 10
2.671158688766923
 20
-85.00000000000003
 30
0.0
 11
2.671158688766923
 21
-69.35075913713956
 31
0.0
  0
LINE
  5
1EF42
330
1F
100
AcDbEntity
  8
AM_0
  6
Continuous
370
    30
100
AcDbLine
 10
0.0001496671292216
 20
-60.00215639146722
 30
0.0
 11
0.6736752930008834
 21
-64.80747289955809
 31
0.0
  0
LINE
  5
1EF52
330
1F
100
AcDbEntity
  8
AM_0
  6
Continuous
370
    30
100
AcDbLine
 10
2.689891235991809
 20
-59.65752973721044
 30
0.0
 11
3.363416861863357
 21
-64.46284624530131
 31
0.0
  0
LINE
  5
1EF53
330
1F
100
AcDbEntity
  8
AM_0
  6
Continuous
370
    30
100
AcDbLine
 10
1.036585914008185
 20
-59.9633768902886
 30
0.0
 11
1.71011153987979
 21
-64.76869339837947
 31
0.0
  0
LINE
  5
1EF56
330
1F
100
AcDbEntity
  8
AM_0
  6
Continuous
370
    30
100
AcDbLine
 10
1.237683155263085
 20
-64.83484530858641
 30
0.0
 11
1.811546532471652
 21
-68.92911441129536
 31
0.0
  0
ELLIPSE
  5
1EF57
330
1F
100
AcDbEntity
  8
AM_0
  6
Continuous
370
    30
100
AcDbEllipse
 10
2.018247300310804
 20
-64.64038646593485
 30
0.0
 11
0.7922556997193962
 21
0.1110446138366451
 31
0.0
210
0.0
220
0.0
230
1.0
 40
0.1392094787801441
 41
4.064935181182339
 42
4.972901828126146
  0
ELLIPSE
  5
1EF58
330
1F
100
AcDbEntity
  8
AM_0
  6
Continuous
370
    30
100
AcDbEllipse
 10
1.459989074972327
 20
-64.69726112032527
 30
0.0
 11
0.7863137819714994
 21
0.1102117792328816
 31
0.0
210
0.0
220
0.0
230
1.0
 40
0.1392094787801441
 41
3.141592653589829
 42
5.016535059423348
  0
LINE
  5
1EF5B
330
1F
100
AcDbEntity
  8
AM_0
  6
Continuous
370
    30
100
AcDbLine
 10
2.379198662633257
 20
-69.35545054272473
 30
0.0
 11
1.821587100888223
 21
-68.94351600032019
 31
0.0
  0
LINE
  5
1EF60
330
1F
100
AcDbEntity
  8
AM_0
  6
Continuous
370
    30
100
AcDbLine
 10
3.529611395635527
 20
-64.48805515635161
 30
0.0
 11
2.237250320088151
 21
-64.71835213963504
 31
0.0
  0
ELLIPSE
  5
1EF61
330
1F
100
AcDbEntity
  8
AM_0
  6
Continuous
370
    30
100
AcDbEllipse
 10
2.672529336871776
 20
-69.30840821665163
 30
0.0
 11
0.2970958873947728
 21
0.04164173018874615
 31
0.0
210
0.0
220
0.0
230
1.0
 40
0.1392094787801441
 41
3.282638140348317
 42
4.972901828123447
  0
LINE
  5
1EF62
330
1F
100
AcDbEntity
  8
AM_0
  6
Continuous
370
    30
100
AcDbLine
 10
2.754655469288309
 20
-69.33764534428929
 30
0.0
 11
4.522980096789638
 21
-69.02253230437748
 31
0.0
  0
ELLIPSE
  5
1EF63
330
1F
100
AcDbEntity
  8
AM_0
  6
Continuous
370
    30
100
AcDbEllipse
 10
5.530121652933644
 20
-68.9161808718867
 30
0.0
 11
0.9903196246492426
 21
0.1388057672958205
 31
0.0
210
0.0
220
0.0
230
1.0
 40
0.1392094787801441
 41
1.831309174533748
 42
2.616707337931065
  0
ELLIPSE
  5
1EF64
330
1F
100
AcDbEntity
  8
AM_0
  6
Continuous
370
    30
100
AcDbEllipse
 10
4.875839616372673
 20
-64.24815912116992
 30
0.0
 11
0.9903196246492446
 21
0.1388057672958062
 31
0.0
210
0.0
220
0.0
230
0.9999999999999999
 40
0.1392094787801441
 41
1.831309174536369
 42
2.616707337933671
  0
LINE
  5
1EF66
330
1F
100
AcDbEntity
  8
AM_0
  6
Continuous
370
    30
100
AcDbLine
 10
4.663434392084128
 20
-68.96721631876108
 30
0.0
 11
4.522980096789638
 21
-69.02253230437748
 31
0.0
  0
LINE
  5
1EF69
330
1F
100
AcDbEntity
  8
AM_0
  6
Continuous
370
    30
100
AcDbLine
 10
3.529611395635527
 20
-64.48805515635161
 30
0.0
 11
4.009152355523156
 21
-64.29919456804419
 31
0.0
  0
LINE
  5
1EF6B
330
1F
100
AcDbEntity
  8
AM_0
  6
Continuous
370
    30
100
AcDbLine
 10
4.602085841651046
 20
-64.15070202904462
 30
0.0
 11
4.681051947079027
 21
-64.13663037662036
 31
0.0
  0
LINE
  5
1EF6E
330
1F
100
AcDbEntity
  8
AM_0
  6
Continuous
370
    30
100
AcDbLine
 10
4.509021551937963
 20
-64.13754884625291
 30
0.0
 11
4.794193091487728
 21
-64.08673166634924
 31
0.0
  0
ELLIPSE
  5
1EF6F
330
1F
100
AcDbEntity
  8
AM_0
  6
Continuous
370
    30
100
AcDbEllipse
 10
4.645898439298776
 20
-64.18627739231567
 30
0.0
 11
0.4951598123246228
 21
0.06940288364790322
 31
0.0
210
0.0
220
0.0
230
1.0
 40
0.1392094787801441
 41
1.831309174536262
 42
2.616707337933713
  0
LINE
  5
1EF70
330
1F
100
AcDbEntity
  8
AM_0
  6
Continuous
370
    30
100
AcDbLine
 10
4.049475140469895
 20
-64.27602179228722
 30
0.0
 11
4.212554808873961
 21
-64.21179511575281
 31
0.0
  0
ELLIPSE
  5
1EF71
330
1F
100
AcDbEntity
  8
AM_0
  6
Continuous
370
    30
100
AcDbEllipse
 10
3.009450427450474
 20
-64.33726432853644
 30
0.0
 11
1.188383549579092
 21
0.1665669207549848
 31
0.0
210
0.0
220
0.0
230
0.9999999999999999
 40
0.1392094787801441
 41
5.409234141122012
 42
5.758299991520834
  0
LINE
  5
1EF72
330
1F
100
AcDbEntity
  8
AM_0
  6
Continuous
370
    30
100
AcDbLine
 10
3.497573364600385
 20
-64.43351480807917
 30
0.0
 11
3.789938774312418
 21
-64.35722811972255
 31
0.0
  0
ELLIPSE
  5
1EF73
330
1F
100
AcDbEntity
  8
AM_0
  6
Continuous
370
    30
100
AcDbEllipse
 10
3.237410582313032
 20
-64.42686021101702
 30
0.0
 11
0.3961278498596974
 21
0.05552230691832827
 31
0.0
210
0.0
220
0.0
230
1.0
 40
0.1392094787801441
 41
5.01653505942333
 42
5.409234141122114
  0
LINE
  5
1EF74
330
1F
100
AcDbEntity
  8
AM_0
  6
Continuous
370
    30
100
AcDbLine
 10
1.71011153987979
 20
-64.76869339837947
 30
0.0
 11
3.363416861863357
 21
-64.46284624530131
 31
0.0
  0
LINE
  5
1EF8A
330
1F
100
AcDbEntity
  8
AM_0
  6
Continuous
370
    30
100
AcDbLine
 10
2.689891235991809
 20
-59.65752973721044
 30
0.0
 11
1.036585914008242
 21
-59.9633768902886
 31
0.0
  0
ELLIPSE
  5
1EF8B
330
1F
100
AcDbEntity
  8
AM_0
  6
Continuous
370
    30
100
AcDbEllipse
 10
1.186338745240334
 20
-59.38258528276879
 30
0.0
 11
0.4951598123246216
 21
0.06940288364791034
 31
0.0
210
0.0
220
0.0
230
1.0
 40
0.1392094787801441
 41
5.234701215922851
 42
6.020099379319988
  0
ELLIPSE
  5
1EF92
330
1F
100
AcDbEntity
  8
AM_0
  6
Continuous
370
    30
100
AcDbEllipse
 10
0.7864634491007791
 20
-59.8919446122344
 30
0.0
 11
0.7863137819715008
 21
0.1102117792328703
 31
0.0
210
0.0
220
0.0
230
0.9999999999999999
 40
0.1392094787801441
 41
2.834873494432984
 42
5.01653505942596
  0
LINE
  5
1EF93
330
1F
100
AcDbEntity
  8
AM_0
  6
Continuous
370
    30
100
AcDbLine
 10
0.0322150810033008
 20
-59.96396248920053
 30
0.0
 11
0.526207450494212
 21
-59.6587912741137
 31
0.0
  0
ELLIPSE
  5
1EF94
330
1F
100
AcDbEntity
  8
AM_0
  6
Continuous
370
    30
100
AcDbEllipse
 10
0.9061814394601697
 20
-59.62251022778321
 30
0.0
 11
0.3961278498596981
 21
0.05552230691832259
 31
0.0
210
0.0
220
0.0
230
1.0
 40
0.1392094787801441
 41
2.44217441273418
 42
2.834873494432952
  0
LINE
  5
1EF95
330
1F
100
AcDbEntity
  8
AM_0
  6
Continuous
370
    30
100
AcDbLine
 10
0.5980818714119778
 20
-59.62949615049024
 30
0.0
 11
0.8418043709463632
 21
-59.55323782340656
 31
0.0
  0
ELLIPSE
  5
1EF96
330
1F
100
AcDbEntity
  8
AM_0
  6
Continuous
370
    30
100
AcDbEllipse
 10
1.766103075090996
 20
-59.53228005528547
 30
0.0
 11
1.188383549579095
 21
0.1665669207549677
 31
0.0
210
0.0
220
0.0
230
1.0
 40
0.1392094787801441
 41
2.093108562335494
 42
2.442174412734313
  0
LINE
  5
1EF97
330
1F
100
AcDbEntity
  8
AM_0
  6
Continuous
370
    30
100
AcDbLine
 10
1.153139828984877
 20
-59.47200129448504
 30
0.0
 11
1.441740097784589
 21
-59.40770143310226
 31
0.0
  0
ARC
  5
1EF9B
330
1F
100
AcDbEntity
  8
AM_0
  6
Continuous
370
    30
100
AcDbCircle
 10
6.35849425823676
 20
-56.73834056242208
 30
0.0
 40
3.0
100
AcDbArc
 50
336.0251343483939
 51
342.1204479718384
  0
LINE
  5
1EF9C
330
1F
100
AcDbEntity
  8
AM_0
  6
Continuous
370
    30
100
AcDbLine
 10
3.635015129200497
 20
-57.58548625579135
 30
0.0
 11
3.713715577504502
 21
-58.14698020480057
 31
0.0
  0
LINE
  5
1EF9D
330
1F
100
AcDbEntity
  8
AM_0
  6
Continuous
370
    30
100
AcDbLine
 10
3.142067537630737
 20
-57.81362785406452
 30
0.0
 11
3.202284139764714
 21
-58.24324748720153
 31
0.0
  0
LINE
  5
1EFA1
330
1F
100
AcDbEntity
  8
AM_0
  6
Continuous
370
    30
100
AcDbLine
 10
3.223589277125882
 20
-57.86608455787211
 30
0.0
 11
3.149329808510913
 21
-57.8223026137872
 31
0.0
  0
ELLIPSE
  5
1EFA3
330
1F
100
AcDbEntity
  8
AM_0
  6
Continuous
370
    30
100
AcDbEllipse
 10
6.556104026435605
 20
-58.1482014875096
 30
0.0
 11
2.77784654714113
 21
0.3893501772647773
 31
0.0
210
0.0
220
0.0
230
1.0
 40
0.1392094787801441
 41
5.496500603721708
 42
6.562850497570705
  0
ELLIPSE
  5
1EFA4
330
1F
100
AcDbEntity
  8
AM_0
  6
Continuous
370
    30
100
AcDbEllipse
 10
6.501171727554095
 20
-57.75628312066669
 30
0.0
 11
2.787456150049568
 21
0.3906970841339475
 31
0.0
210
0.0
220
0.0
230
1.0
 40
0.1392094787801441
 41
3.925704276926838
 42
5.060168290723146
  0
ELLIPSE
  5
1EFA8
330
1F
100
AcDbEntity
  8
AM_0
  6
Continuous
370
    30
100
AcDbEllipse
 10
6.556104026435605
 20
-58.1482014875096
 30
0.0
 11
2.77784654714113
 21
0.3893501772647773
 31
0.0
210
0.0
220
0.0
230
1.0
 40
0.1392094787801441
 41
2.861927463198671
 42
5.496500603721721
  0
ARC
  5
1EFA9
330
1F
100
AcDbEntity
  8
AM_0
  6
Continuous
370
    30
100
AcDbCircle
 10
6.35849425823676
 20
-56.73834056242208
 30
0.0
 40
3.0
100
AcDbArc
 50
208.4294989994197
 51
219.9323598264934
  0
ELLIPSE
  5
1EFAF
330
1F
100
AcDbEntity
  8
AM_0
  6
Continuous
370
    30
100
AcDbEllipse
 10
6.501171727554095
 20
-57.75628312066669
 30
0.0
 11
2.787456150049568
 21
0.3906970841339475
 31
0.0
210
0.0
220
0.0
230
1.0
 40
0.1392094787801441
 41
3.141592653589792
 42
3.925704276926837
  0
LINE
  5
1EFB4
330
1F
100
AcDbEntity
  8
AM_0
  6
Continuous
370
    30
100
AcDbLine
 10
11.54569887609779
 20
-57.95828467485623
 30
0.0
 11
3.835495926066358
 21
-59.33223233816204
 31
0.0
  0
ELLIPSE
  5
1EFB5
330
1F
100
AcDbEntity
  8
AM_0
  6
Continuous
370
    30
100
AcDbEllipse
 10
3.972372813427114
 20
-59.38096088422469
 30
0.0
 11
0.4951598123246216
 21
0.06940288364791034
 31
0.0
210
0.0
220
0.0
230
1.0
 40
0.1392094787801441
 41
1.831309174533574
 42
2.616707337931192
  0
LINE
  5
1EFB6
330
1F
100
AcDbEntity
  8
AM_0
  6
Continuous
370
    30
100
AcDbLine
 10
3.539029183002299
 20
-59.40647860766183
 30
0.0
 11
3.37594951459829
 21
-59.47070528419636
 31
0.0
  0
ELLIPSE
  5
1EFB7
330
1F
100
AcDbEntity
  8
AM_0
  6
Continuous
370
    30
100
AcDbEllipse
 10
2.335924801578813
 20
-59.53194782044545
 30
0.0
 11
1.188383549579095
 21
0.1665669207549677
 31
0.0
210
0.0
220
0.0
230
1.0
 40
0.1392094787801441
 41
5.409234141124671
 42
5.758299991523493
  0
LINE
  5
1EFB8
330
1F
100
AcDbEntity
  8
AM_0
  6
Continuous
370
    30
100
AcDbLine
 10
3.116413148440756
 20
-59.55191161163168
 30
0.0
 11
2.82404773872878
 21
-59.62819829998819
 31
0.0
  0
ELLIPSE
  5
1EFB9
330
1F
100
AcDbEntity
  8
AM_0
  6
Continuous
370
    30
100
AcDbEllipse
 10
2.56388495644137
 20
-59.62154370292615
 30
0.0
 11
0.3961278498596981
 21
0.05552230691832259
 31
0.0
210
0.0
220
0.0
230
1.0
 40
0.1392094787801441
 41
5.016535059425974
 42
5.409234141124813
  0
LINE
  5
1EFBA
330
1F
100
AcDbEntity
  8
AM_0
  6
Continuous
370
    30
100
AcDbLine
 10
1.666973716188295
 20
-59.33349669611118
 30
0.0
 11
3.614459334771567
 21
-57.95055509523457
 31
0.0
  0
ELLIPSE
  5
1EFCB
330
1F
100
AcDbEntity
  8
AM_0
  6
Continuous
370
    30
100
AcDbEllipse
 10
3.121211923362921
 20
-58.01200492834835
 30
0.0
 11
0.4951598123246216
 21
0.06940288364791034
 31
0.0
210
0.0
220
0.0
230
1.0
 40
0.1392094787801441
 41
6.173625864423296
 42
6.805497542717418
  0
LINE
  5
1EFCC
330
1F
100
AcDbEntity
  8
AM_0
  6
Continuous
370
    30
100
AcDbLine
 10
3.545531065284251
 20
-57.91746703300589
 30
0.0
 11
3.371820073453307
 21
-57.90038430677146
 31
0.0
  0
ELLIPSE
  5
1EFCE
330
1F
100
AcDbEntity
  8
AM_0
  6
Continuous
370
    30
100
AcDbEllipse
 10
4.390186014064398
 20
-57.6734933579495
 30
0.0
 11
1.188383549579095
 21
0.1665669207549677
 31
0.0
210
0.0
220
0.0
230
1.0
 40
0.1392094787801441
 41
3.314839038731438
 42
3.663904889130257
  0
LINE
  5
1F054
330
1F
100
AcDbEntity
  8
AM_0
  6
Continuous
370
    30
100
AcDbLine
 10
3.644134634765806
 20
-57.42544061534295
 30
0.0
 11
5.200618485939117
 21
-53.62017593346184
 31
0.0
  0
SPLINE
  5
1F055
330
1F
100
AcDbEntity
  8
AM_0
  6
Continuous
370
    30
100
AcDbSpline
210
0.0
220
0.0
230
1.0
 70
     8
 71
     3
 72
    10
 73
     6
 74
     0
 42
0.0000000001
 43
0.0000000001
 40
3.417218093344732
 40
3.417218093344732
 40
3.417218093344732
 40
3.417218093344732
 40
3.52970193934656
 40
3.52970193934656
 40
3.881004348481016
 40
3.881004348481016
 40
3.881004348481016
 40
3.881004348481016
 10
3.635015129200497
 20
-57.58548625579135
 30
0.0
 10
3.63257977605997
 20
-57.56786242879161
 30
0.0
 10
3.630818531789259
 20
-57.55127235183943
 30
0.0
 10
3.627197598108626
 20
-57.48747139028671
 30
0.0
 10
3.633231792684418
 20
-57.44961213487987
 30
0.0
 10
3.646374640530123
 20
-57.42024087534468
 30
0.0
  0
ELLIPSE
  5
1F059
330
1F
100
AcDbEntity
  8
AM_0
  6
Continuous
370
    30
100
AcDbEllipse
 10
3.538195387490475
 20
-57.75810554714622
 30
0.0
 11
0.3961278498596981
 21
0.05552230691832259
 31
0.0
210
0.0
220
0.0
230
1.0
 40
0.1392094787801441
 41
2.922139957032593
 42
3.31483903873152
  0
LINE
  5
1F05A
330
1F
100
AcDbEntity
  8
AM_0
  6
Continuous
370
    30
100
AcDbLine
 10
3.149885355727292
 20
-57.8002914851362
 30
0.0
 11
3.49623728136379
 21
-57.51019919930013
 31
0.0
  0
ELLIPSE
  5
1F05B
330
1F
100
AcDbEntity
  8
AM_0
  6
Continuous
370
    30
100
AcDbEllipse
 10
4.267032694413615
 20
-57.42646011239015
 30
0.0
 11
0.7863137819715008
 21
0.1102117792328703
 31
0.0
210
0.0
220
0.0
230
0.9999999999999999
 40
0.1392094787801441
 41
2.480101125510343
 42
2.922139957032682
  0
LINE
  5
1F074
330
1F
100
AcDbEntity
  8
AM_0
  6
Continuous
370
    30
100
AcDbLine
 10
3.702039254626527
 20
15.27583799480323
 30
0.0
 11
4.375564880498132
 21
15.95796444082595
 31
0.0
  0
LINE
  5
1F076
330
1F
100
AcDbEntity
  8
AM_0
  6
Continuous
370
    30
100
AcDbLine
 10
7.741030467580004
 20
18.20380177537714
 30
0.0
 11
6.77896610995748
 21
15.42275232666833
 31
0.0
  0
ELLIPSE
  5
1F077
330
1F
100
AcDbEntity
  8
AM_0
  6
Continuous
370
    30
100
AcDbEllipse
 10
4.267032694413615
 20
14.71796846435944
 30
0.0
 11
-0.5649934397870947
 21
0.557869530443765
 31
0.0
210
0.0
220
0.0
230
1.0
 40
0.9806768383858928
 41
4.670880828973658
 42
6.852542393966486
  0
LINE
  5
1F079
330
1F
100
AcDbEntity
  8
AM_0
  6
Continuous
370
    30
100
AcDbLine
 10
6.431755308310301
 20
17.74999999999938
 30
0.0
 11
5.753680794579736
 21
15.03586624239171
 31
0.0
  0
ELLIPSE
  5
1F21F
330
1F
100
AcDbEntity
  8
AM_0
  6
Continuous
370
    30
100
AcDbEllipse
 10
5.057267957119507
 20
5.137053451144254
 30
0.0
 11
-3.570180033190059
 21
0.122123099316732
 31
0.0
210
0.0
220
0.0
230
0.9999999999999998
 40
0.4181471732087664
 41
2.060725242312385
 42
2.339398083062454
  0
SPLINE
  5
1F221
330
1F
100
AcDbEntity
  8
AM_0
  6
Continuous
370
    30
100
AcDbSpline
210
0.0
220
0.0
230
1.0
 70
     8
 71
     3
 72
    14
 73
    10
 74
     0
 42
0.0000000001
 43
0.0000000001
 40
4.998793235216645
 40
4.998793235216645
 40
4.998793235216645
 40
4.998793235216645
 40
5.108053850523562
 40
5.108053850523562
 40
5.537615457444261
 40
5.537615457444261
 40
5.913618473901959
 40
5.913618473901959
 40
6.277718437296911
 40
6.277718437296911
 40
6.277718437296911
 40
6.277718437296911
 10
5.44744876423681
 20
3.854369649908961
 30
0.0
 10
5.48364075513939
 20
3.842368636920185
 30
0.0
 10
5.519964902158449
 20
3.831224770593451
 30
0.0
 10
5.699289235044489
 20
3.78049733469328
 30
0.0
 10
5.84291208347662
 20
3.753482369900951
 30
0.0
 10
6.102062961869706
 20
3.725397380397283
 30
0.0
 10
6.233628777033005
 20
3.720471829360406
 30
0.0
 10
6.480627978014582
 20
3.730354535829235
 30
0.0
 10
6.596279281475063
 20
3.744364149179035
 30
0.0
 10
6.69220476563487
 20
3.762336840671594
 30
0.0
  0
ELLIPSE
  5
1F228
330
1F
100
AcDbEntity
  8
AM_0
  6
Continuous
370
    30
100
AcDbEllipse
 10
0.7864634491007791
 20
0.7862687866598321
 30
0.0
 11
-0.5649934397870947
 21
0.557869530443765
 31
0.0
210
0.0
220
0.0
230
1.0
 40
0.9806768383858928
 41
0.4820906241872021
 42
2.663752189180177
  0
LINE
  5
1F27A
330
1F
100
AcDbEntity
  8
AM_0
  6
Continuous
370
    30
100
AcDbLine
 10
5.730201996382561
 20
12.94962525682735
 30
0.0
 11
3.864380682006299
 21
7.556076169780738
 31
0.0
  0
ELLIPSE
  5
1F286
330
1F
100
AcDbEntity
  8
AM_0
  6
Continuous
370
    30
100
AcDbEllipse
 10
5.057267957119279
 20
5.137053451144027
 30
0.0
 11
2.006156687961287
 21
-1.974312967380833
 31
0.0
210
0.0
220
0.0
230
1.0
 40
0.2505591764755828
 41
4.28407413027564
 42
4.714099261794057
  0
ELLIPSE
  5
1F287
330
1F
100
AcDbEntity
  8
AM_0
  6
Continuous
370
    30
100
AcDbEllipse
 10
5.057267957119279
 20
5.137053451144027
 30
0.0
 11
2.006156687961287
 21
-1.974312967380833
 31
0.0
210
0.0
220
0.0
230
1.0
 40
0.2505591764755828
 41
4.714099261794042
 42
5.144124393312476
  0
ELLIPSE
  5
1F288
330
1F
100
AcDbEntity
  8
AM_0
  6
Continuous
370
    30
100
AcDbEllipse
 10
5.057267957119507
 20
5.137053451144254
 30
0.0
 11
-0.1748818956501859
 21
3.56372384358306
 31
0.0
210
0.0
220
0.0
230
1.0
 40
0.4173950943615269
 41
0.8043956532382248
 42
1.083068493988285
  0
SPLINE
  5
1F289
330
1F
100
AcDbEntity
  8
AM_0
  6
Continuous
370
    30
100
AcDbSpline
210
0.0
220
0.0
230
1.0
 70
     8
 71
     3
 72
    14
 73
    10
 74
     0
 42
0.0000000001
 43
0.0000000001
 40
3.16560197595159
 40
3.16560197595159
 40
3.16560197595159
 40
3.16560197595159
 40
3.52970193934656
 40
3.52970193934656
 40
3.905704955804262
 40
3.905704955804262
 40
4.335266562724965
 40
4.335266562724965
 40
4.444527178031889
 40
4.444527178031889
 40
4.444527178031889
 40
4.444527178031889
 10
3.661274361389474
 20
6.742601605092261
 30
0.0
 10
3.644877810821527
 20
6.646429401593821
 30
0.0
 10
3.6327829825766
 20
6.530594383813707
 30
0.0
 10
3.627004752244829
 20
6.28352300476439
 30
0.0
 10
3.634123730098281
 20
6.152082045567283
 30
0.0
 10
3.666534678915923
 20
5.893479013772605
 30
0.0
 10
3.695950783226294
 20
5.750347579621405
 30
0.0
 10
3.749679034851852
 20
5.571918184700223
 30
0.0
 10
3.761430899363177
 20
5.535789687736326
 30
0.0
 10
3.77403783658076
 20
5.499807505263391
 30
0.0
  0
ELLIPSE
  5
1F28B
330
1F
100
AcDbEntity
  8
AM_0
  6
Continuous
370
    30
100
AcDbEllipse
 10
4.566319934022374
 20
4.435059630706689
 30
0.0
 11
1.448796210056701
 21
-1.498296629928373
 31
0.0
210
0.0
220
0.0
230
1.0
 40
0.1055556558269576
 41
1.805401582111892
 42
2.254279164123697
  0
LINE
  5
1F28C
330
1F
100
AcDbEntity
  8
AM_0
  6
Continuous
370
    30
100
AcDbLine
 10
4.869338565164469
 20
4.454232198077364
 30
0.0
 11
4.383355360484416
 21
4.932091610150735
 31
0.0
  0
ELLIPSE
  5
1F28D
330
1F
100
AcDbEntity
  8
AM_0
  6
Continuous
370
    30
100
AcDbEllipse
 10
4.37135611945962
 20
4.626764391088102
 30
0.0
 11
1.52182129171058
 21
-1.423084362857958
 31
0.0
210
0.0
220
0.0
230
1.0
 40
0.1056235954339754
 41
0.8886779743383981
 42
1.337555556350217
  0
LINE
  5
1F2BF
330
1F
100
AcDbEntity
  8
AM_0
  6
Continuous
370
    30
100
AcDbLine
 10
4.837096291220803
 20
15.24841771287123
 30
0.0
 11
6.038454799332385
 21
13.96152255349097
 31
0.0
  0
LINE
  5
1F2E1
330
1F
100
AcDbEntity
  8
AM_0
  6
Continuous
370
    30
100
AcDbLine
 10
6.77896610995748
 20
15.42275232666844
 30
0.0
 11
5.730201996382561
 21
12.94962525682735
 31
0.0
  0
ELLIPSE
  5
1F2E3
330
1F
100
AcDbEntity
  8
AM_0
  6
Continuous
370
    30
100
AcDbEllipse
 10
5.751269108245651
 20
13.69429371293091
 30
0.0
 11
-0.2846314558121383
 21
0.2810425846064306
 31
0.0
210
0.0
220
0.0
230
1.0
 40
0.980676838385893
 41
4.335817228807367
 42
4.670880828973545
  0
LINE
  5
1F2E5
330
1F
100
AcDbEntity
  8
AM_0
  6
Continuous
370
    30
100
AcDbLine
 10
6.361469015084822
 20
14.43823793153905
 30
0.0
 11
5.753680794579736
 21
15.03586624239171
 31
0.0
  0
LINE
  5
1F320
330
1F
100
AcDbEntity
  8
AM_0
  6
Continuous
370
    30
100
AcDbLine
 10
5.131469681516478
 20
17.33817345558663
 30
0.0
 11
5.717024613396688
 21
17.93120583519004
 31
0.0
  0
ELLIPSE
  5
1F321
330
1F
100
AcDbEntity
  8
AM_0
  6
Continuous
370
    30
100
AcDbEllipse
 10
5.700732593140742
 20
16.77608828637375
 30
0.0
 11
-0.5692629116242767
 21
0.5620851692128612
 31
0.0
210
0.0
220
0.0
230
0.9999999999999999
 40
0.9806768383858929
 41
4.7145140602735
 42
6.808909162666721
  0
LINE
  5
1F322
330
1F
100
AcDbEntity
  8
AM_0
  6
Continuous
370
    30
100
AcDbLine
 10
5.878695549716781
 20
15.53626370645469
 30
0.0
 11
5.510621917092408
 21
15.93054415889395
 31
0.0
  0
LINE
  5
1F323
330
1F
100
AcDbEntity
  8
AM_0
  6
Continuous
370
    30
100
AcDbLine
 10
4.726505572786323
 20
16.16071190745464
 30
0.0
 11
4.931716639623858
 21
16.98211172806469
 31
0.0
  0
ELLIPSE
  5
1F324
330
1F
100
AcDbEntity
  8
AM_0
  6
Continuous
370
    30
100
AcDbEllipse
 10
4.94055832028522
 20
15.40009491038217
 30
0.0
 11
0.5649934397870947
 21
-0.557869530443765
 31
0.0
210
0.0
220
0.0
230
1.0
 40
0.9806768383858928
 41
1.529288175383889
 42
3.141592653589853
  0
ARC
  5
1F325
330
1F
100
AcDbEntity
  8
AM_0
  6
Continuous
370
    30
100
AcDbCircle
 10
10.91050663829719
 20
18.93256769076919
 30
0.0
 40
2.0
100
AcDbArc
 50
135.4876605714479
 51
135.5446597811883
  0
LINE
  5
1F326
330
1F
100
AcDbEntity
  8
AM_0
  6
Continuous
370
    30
100
AcDbLine
 10
9.482913511654942
 20
20.33327389292725
 30
0.0
 11
8.348449385886283
 21
19.17703342945646
 31
0.0
  0
LINE
  5
1F327
330
1F
100
AcDbEntity
  8
AM_0
  6
Continuous
370
    30
100
AcDbLine
 10
6.250745526880166
 20
17.33554445319822
 30
0.0
 11
6.312934490320572
 21
17.27439505292915
 31
0.0
  0
LINE
  5
1F328
330
1F
100
AcDbEntity
  8
AM_0
  6
Continuous
370
    30
100
AcDbLine
 10
6.250745526880166
 20
17.33554445319834
 30
0.0
 11
6.354451248554767
 21
17.44057448121924
 31
0.0
  0
ELLIPSE
  5
1F329
330
1F
100
AcDbEntity
  8
AM_0
  6
Continuous
370
    30
100
AcDbEllipse
 10
6.286287525020953
 20
17.36912066597716
 30
0.0
 11
-0.5692629116242767
 21
0.5620851692128612
 31
0.0
210
0.0
220
0.0
230
0.9999999999999999
 40
0.9806768383858929
 41
5.043876491940464
 42
6.283185307179585
  0
ELLIPSE
  5
1F32C
330
1F
100
AcDbEntity
  8
AM_0
  6
Continuous
370
    30
100
AcDbEllipse
 10
9.776411721362479
 20
17.77670352319325
 30
0.0
 11
-1.627718069122556
 21
-1.656453263802745
 31
0.0
210
0.0
220
0.0
230
1.0
 40
0.8611970254527505
 41
4.713267672347088
 42
5.216592172936775
  0
LINE
  5
1F32D
330
1F
100
AcDbEntity
  8
AM_0
  6
Continuous
370
    30
100
AcDbLine
 10
27.28520505392476
 20
-48.16831300479896
 30
0.0
 11
28.02706354073027
 21
-53.46115517201476
 31
0.0
  0
LINE
  5
1F331
330
1F
100
AcDbEntity
  8
AM_0
  6
Continuous
370
    30
100
AcDbLine
 10
20.27735943869345
 20
-85.00000000000003
 30
0.0
 11
150.0000000000001
 21
-85.00000000000004
 31
0.0
  0
LINE
  5
1F332
330
1F
100
AcDbEntity
  8
AM_0
  6
Continuous
370
    30
100
AcDbLine
 10
150.0000000000001
 20
-60.00000000000001
 30
0.0
 11
35.00000000000017
 21
-60.00000000000001
 31
0.0
  0
LINE
  5
1F333
330
1F
100
AcDbEntity
  8
AM_0
  6
Continuous
370
    30
100
AcDbLine
 10
18.72855835355203
 20
-85.00000000000003
 30
0.0
 11
18.72855835355203
 21
-56.38098626408839
 31
0.0
  0
LINE
  5
1F334
330
1F
100
AcDbEntity
  8
AM_0
  6
Continuous
370
    30
100
AcDbLine
 10
25.87751368903884
 20
-52.74152501785261
 30
0.0
 11
26.50452495091912
 21
-53.45821605206712
 31
0.0
  0
LINE
  5
1F337
330
1F
100
AcDbEntity
  8
AM_0
  6
Continuous
370
    30
100
AcDbLine
 10
29.6593794240066
 20
-54.78998376413657
 30
0.0
 11
20.27735943871357
 21
-56.10499202054623
 31
0.0
  0
LINE
  5
1F339
330
1F
100
AcDbEntity
  8
AM_0
  6
Continuous
370
    30
100
AcDbLine
 10
17.48469937075646
 20
-61.91442004717101
 30
0.0
 11
18.07025430263667
 21
-66.0921033786949
 31
0.0
  0
LINE
  5
1F33E
330
1F
100
AcDbEntity
  8
AM_0
  6
Continuous
370
    30
100
AcDbLine
 10
17.6416862251063
 20
-66.6580723184444
 30
0.0
 11
18.06455998293927
 21
-66.10871041045118
 31
0.0
  0
LINE
  5
1F343
330
1F
100
AcDbEntity
  8
AM_0
  6
Continuous
370
    30
100
AcDbLine
 10
13.8994620702826
 20
-67.35165598879905
 30
0.0
 11
13.64561524874762
 21
-67.3666039251076
 31
0.0
  0
ELLIPSE
  5
1F344
330
1F
100
AcDbEntity
  8
AM_0
  6
Continuous
370
    30
100
AcDbEllipse
 10
13.16607428886005
 20
-67.5554645134149
 30
0.0
 11
0.9903196246492426
 21
0.1388057672958205
 31
0.0
210
0.0
220
0.0
230
1.0
 40
0.1392094787801441
 41
1.045911011136103
 42
1.83130917453363
  0
LINE
  5
1F347
330
1F
100
AcDbEntity
  8
AM_0
  6
Continuous
370
    30
100
AcDbLine
 10
13.8994620702826
 20
-67.35165598879905
 30
0.0
 11
17.42885184001449
 21
-66.72272353936216
 31
0.0
  0
ELLIPSE
  5
1F348
330
1F
100
AcDbEntity
  8
AM_0
  6
Continuous
370
    30
100
AcDbEllipse
 10
17.34672570759807
 20
-66.69348641172451
 30
0.0
 11
0.2970958873947731
 21
0.04164173018874619
 31
0.0
210
0.0
220
0.0
230
0.9999999999999999
 40
0.1392094787801441
 41
4.972901828123325
 42
6.142139820421273
  0
LINE
  5
1F34A
330
1F
100
AcDbEntity
  8
AM_0
  6
Continuous
370
    30
100
AcDbLine
 10
15.31722068753294
 20
-55.44016751544859
 30
0.0
 11
18.0813442606609
 21
-54.90949460841671
 31
0.0
  0
LINE
  5
1F34B
330
1F
100
AcDbEntity
  8
AM_0
  6
Continuous
370
    30
100
AcDbLine
 10
13.53867441951681
 20
-57.30581651177565
 30
0.0
 11
20.27735943869345
 21
-56.10499202040288
 31
0.0
  0
ELLIPSE
  5
1F34C
330
1F
100
AcDbEntity
  8
AM_0
  6
Continuous
370
    30
100
AcDbEllipse
 10
15.75506544082145
 20
-55.63259538506202
 30
0.0
 11
2.475799061623114
 21
0.3470144182395164
 31
0.0
210
0.0
220
0.0
230
1.0
 40
0.1392094787801441
 41
4.024156092961198
 42
6.283185304385569
  0
LINE
  5
1F34D
330
1F
100
AcDbEntity
  8
AM_0
  6
Continuous
370
    30
100
AcDbLine
 10
15.44236598057245
 20
-57.31019101018717
 30
0.0
 11
16.11589160644405
 21
-62.11550751827804
 31
0.0
  0
LINE
  5
1F34E
330
1F
100
AcDbEntity
  8
AM_0
  6
Continuous
370
    30
100
AcDbLine
 10
14.84023696989118
 20
-57.50358507466035
 30
0.0
 11
15.51376259576273
 21
-62.30890158275122
 31
0.0
  0
LINE
  5
1F350
330
1F
100
AcDbEntity
  8
AM_0
  6
Continuous
370
    30
100
AcDbLine
 10
12.99041915433077
 20
-57.81656476176738
 30
0.0
 11
12.60749774127328
 21
-57.86061326539198
 31
0.0
  0
LINE
  5
1F351
330
1F
100
AcDbEntity
  8
AM_0
  6
Continuous
370
    30
100
AcDbLine
 10
12.99041915433077
 20
-57.81656476176738
 30
0.0
 11
13.66394478020243
 21
-62.62188126985825
 31
0.0
  0
LINE
  5
1F354
330
1F
100
AcDbEntity
  8
AM_0
  6
Continuous
370
    30
100
AcDbLine
 10
16.91144669081433
 20
-62.10343033470792
 30
0.0
 11
13.85802047303628
 21
-62.64754672751644
 31
0.0
  0
LINE
  5
1F355
330
1F
100
AcDbEntity
  8
AM_0
  6
Continuous
370
    30
100
AcDbLine
 10
13.81841171816029
 20
-62.59978040309466
 30
0.0
 11
15.51376259576273
 21
-62.30890158275122
 31
0.0
  0
ELLIPSE
  5
1F356
330
1F
100
AcDbEntity
  8
AM_0
  6
Continuous
370
    30
100
AcDbEllipse
 10
12.51179225229907
 20
-62.88744276269813
 30
0.0
 11
0.9903196246492446
 21
0.1388057672958062
 31
0.0
210
0.0
220
0.0
230
0.9999999999999999
 40
0.1392094787801441
 41
1.045911011138758
 42
1.831309174536278
  0
LINE
  5
1F358
330
1F
100
AcDbEntity
  8
AM_0
  6
Continuous
370
    30
100
AcDbLine
 10
12.99133321218665
 20
-62.69858217439071
 30
0.0
 11
13.85802047303628
 21
-62.64754672751644
 31
0.0
  0
ELLIPSE
  5
1F359
330
1F
100
AcDbEntity
  8
AM_0
  6
Continuous
370
    30
100
AcDbEllipse
 10
13.72562342028107
 20
-62.55787496972425
 30
0.0
 11
0.3961278498596974
 21
0.05552230691832827
 31
0.0
210
0.0
220
0.0
230
1.0
 40
0.1392094787801441
 41
4.536569515124676
 42
4.929268596823641
  0
LINE
  5
1F35A
330
1F
100
AcDbEntity
  8
AM_0
  6
Continuous
370
    30
100
AcDbLine
 10
13.28102336714494
 20
-62.66592977348284
 30
0.0
 11
13.66394478020243
 21
-62.62188126985836
 31
0.0
  0
ELLIPSE
  5
1F35B
330
1F
100
AcDbEntity
  8
AM_0
  6
Continuous
370
    30
100
AcDbEllipse
 10
12.79253366150914
 20
-57.66859436498987
 30
0.0
 11
1.188383549579095
 21
0.1665669207549677
 31
0.0
210
0.0
220
0.0
230
1.0
 40
0.1392094787801441
 41
4.187503664728718
 42
4.536569515127522
  0
ELLIPSE
  5
1F35D
330
1F
100
AcDbEntity
  8
AM_0
  6
Continuous
370
    30
100
AcDbEllipse
 10
13.46605928738075
 20
-62.47391087308085
 30
0.0
 11
1.188383549579092
 21
0.1665669207549848
 31
0.0
210
0.0
220
0.0
230
0.9999999999999999
 40
0.1392094787801441
 41
4.187503664726039
 42
4.536569515124864
  0
LINE
  5
1F35E
330
1F
100
AcDbEntity
  8
AM_0
  6
Continuous
370
    30
100
AcDbLine
 10
12.21708450964422
 20
-57.89522707095875
 30
0.0
 11
11.92234624340205
 21
-57.91258292676525
 31
0.0
  0
LINE
  5
1F360
330
1F
100
AcDbEntity
  8
AM_0
  6
Continuous
370
    30
100
AcDbLine
 10
12.59587186927365
 20
-62.71789943485612
 30
0.0
 11
12.89061013551577
 21
-62.70054357904962
 31
0.0
  0
ELLIPSE
  5
1F361
330
1F
100
AcDbEntity
  8
AM_0
  6
Continuous
370
    30
100
AcDbEllipse
 10
11.68257576345837
 20
-58.00701322091891
 30
0.0
 11
0.4951598123246216
 21
0.06940288364791034
 31
0.0
210
0.0
220
0.0
230
1.0
 40
0.1392094787801441
 41
1.045911011136386
 42
1.831309174533559
  0
ELLIPSE
  5
1F363
330
1F
100
AcDbEntity
  8
AM_0
  6
Continuous
370
    30
100
AcDbEllipse
 10
12.35610138932998
 20
-62.81232972900978
 30
0.0
 11
0.4951598123246228
 21
0.06940288364790322
 31
0.0
210
0.0
220
0.0
230
1.0
 40
0.1392094787801441
 41
1.045911011139003
 42
1.831309174536205
  0
LINE
  5
1F364
330
1F
100
AcDbEntity
  8
AM_0
  6
Continuous
370
    30
100
AcDbLine
 10
11.54569887609762
 20
-57.95828467485626
 30
0.0
 11
11.26052733654785
 21
-58.00910185475993
 31
0.0
  0
ELLIPSE
  5
1F391
330
1F
100
AcDbEntity
  8
AM_0
  6
Continuous
370
    30
100
AcDbEllipse
 10
16.69244367103704
 20
-62.02546466100773
 30
0.0
 11
0.7922556997193962
 21
0.1110446138366451
 31
0.0
210
0.0
220
0.0
230
1.0
 40
0.1392094787801441
 41
4.972901828126101
 42
7.067296930519288
  0
LINE
  5
1F392
330
1F
100
AcDbEntity
  8
AM_0
  6
Continuous
370
    30
100
AcDbLine
 10
16.08142936246532
 20
-61.86963418616415
 30
0.0
 11
17.24245660477652
 21
-61.86895724865519
 31
0.0
  0
ELLIPSE
  5
1F393
330
1F
100
AcDbEntity
  8
AM_0
  6
Continuous
370
    30
100
AcDbEllipse
 10
15.32957782447255
 20
-62.22571929751086
 30
0.0
 11
0.7863137819714994
 21
0.1102117792328816
 31
0.0
210
0.0
220
0.0
230
1.0
 40
0.1392094787801441
 41
4.929268596823526
 42
6.283185307179624
  0
LINE
  5
1F396
330
1F
100
AcDbEntity
  8
AM_0
  6
Continuous
370
    30
100
AcDbLine
 10
12.86302293018781
 20
-56.95875479999529
 30
0.0
 11
15.31722068753288
 21
-55.44016751544859
 31
0.0
  0
LINE
  5
1F397
330
1F
100
AcDbEntity
  8
AM_0
  6
Continuous
370
    30
100
AcDbLine
 10
13.86977175039624
 20
-57.2809862916979
 30
0.0
 11
15.17672514674337
 21
-57.26523142445581
 31
0.0
  0
LINE
  5
1F398
330
1F
100
AcDbEntity
  8
AM_0
  6
Continuous
370
    30
100
AcDbLine
 10
14.84023696989112
 20
-57.50358507466035
 30
0.0
 11
13.14488609228863
 21
-57.79446389500379
 31
0.0
  0
LINE
  5
1F39E
330
1F
100
AcDbEntity
  8
AM_0
  6
Continuous
370
    30
100
AcDbLine
 10
11.88824675809377
 20
-57.27044690762997
 30
0.0
 11
11.90718394783755
 21
-57.41528038943977
 31
0.0
  0
ELLIPSE
  5
1F39F
330
1F
100
AcDbEntity
  8
AM_0
  6
Continuous
370
    30
100
AcDbEllipse
 10
12.40235578032548
 20
-57.34596624561959
 30
0.0
 11
0.4951598123246216
 21
0.06940288364791034
 31
0.0
210
0.0
220
0.0
230
1.0
 40
0.1392094787801441
 41
3.140306113529491
 42
3.925704276926825
  0
LINE
  5
1F3A0
330
1F
100
AcDbEntity
  8
AM_0
  6
Continuous
370
    30
100
AcDbLine
 10
12.05859769673828
 20
-57.44378337833996
 30
0.0
 11
12.27220552173799
 21
-57.44365883419175
 31
0.0
  0
ELLIPSE
  5
1F3A1
330
1F
100
AcDbEntity
  8
AM_0
  6
Continuous
370
    30
100
AcDbEllipse
 10
12.61596360532519
 20
-57.34584170147139
 30
0.0
 11
0.4951598123246216
 21
0.06940288364791034
 31
0.0
210
0.0
220
0.0
230
1.0
 40
0.1392094787801441
 41
3.925704276926826
 42
4.711102440324321
  0
LINE
  5
1F3A2
330
1F
100
AcDbEntity
  8
AM_0
  6
Continuous
370
    30
100
AcDbLine
 10
12.62498809382873
 20
-57.41486187337671
 30
0.0
 11
12.96177875406369
 21
-57.36771792307673
 31
0.0
  0
ELLIPSE
  5
1F3A3
330
1F
100
AcDbEntity
  8
AM_0
  6
Continuous
370
    30
100
AcDbEllipse
 10
12.98343752647207
 20
-57.53336633564948
 30
0.0
 11
1.188383549579095
 21
0.1665669207549677
 31
0.0
210
0.0
220
0.0
230
1.0
 40
0.1392094787801441
 41
1.220443936338304
 42
1.569509786737111
  0
LINE
  5
1F3A4
330
1F
100
AcDbEntity
  8
AM_0
  6
Continuous
370
    30
100
AcDbLine
 10
13.36954591654865
 20
-57.32081134454063
 30
0.0
 11
13.73617079487553
 21
-57.28830660026915
 31
0.0
  0
ELLIPSE
  5
1F3A5
330
1F
100
AcDbEntity
  8
AM_0
  6
Continuous
370
    30
100
AcDbEllipse
 10
13.60746799818344
 20
-57.35915826397206
 30
0.0
 11
0.3961278498596981
 21
0.05552230691832259
 31
0.0
210
0.0
220
0.0
230
1.0
 40
0.1392094787801441
 41
0.8277448546395902
 42
1.220443936338477
  0
ELLIPSE
  5
1F3A6
330
1F
100
AcDbEntity
  8
AM_0
  6
Continuous
370
    30
100
AcDbEllipse
 10
13.05209779440946
 20
-57.75255846163338
 30
0.0
 11
0.3961278498596981
 21
0.05552230691832259
 31
0.0
210
0.0
220
0.0
230
1.0
 40
0.1392094787801441
 41
4.536569515127379
 42
4.92926859682613
  0
LINE
  5
1F3AB
330
1F
100
AcDbEntity
  8
AM_0
  6
Continuous
370
    30
100
AcDbLine
 10
11.08477394575414
 20
-57.30015363149823
 30
0.0
 11
11.17145803647128
 21
-57.28801959410623
 31
0.0
  0
ELLIPSE
  5
1F3AC
330
1F
100
AcDbEntity
  8
AM_0
  6
Continuous
370
    30
100
AcDbEllipse
 10
11.17687272957346
 20
-57.32943169724945
 30
0.0
 11
0.2970958873947737
 21
0.04164173018874192
 31
0.0
210
0.0
220
0.0
230
1.0
 40
0.1392094787801441
 41
0.784111623339756
 42
1.569509786737279
  0
LINE
  5
1F3AD
330
1F
100
AcDbEntity
  8
AM_0
  6
Continuous
370
    30
100
AcDbLine
 10
11.38312757972574
 20
-57.27074141761727
 30
0.0
 11
11.88824675809377
 21
-57.27044690762997
 31
0.0
  0
ELLIPSE
  5
1F3B7
330
1F
100
AcDbEntity
  8
AM_0
  6
Continuous
370
    30
100
AcDbEllipse
 10
14.65605219860095
 20
-57.42040278942
 30
0.0
 11
0.7863137819715008
 21
0.1102117792328703
 31
0.0
210
0.0
220
0.0
230
0.9999999999999999
 40
0.1392094787801441
 41
4.929268596826179
 42
7.110930161819217
  0
LINE
  5
1F3BB
330
1F
100
AcDbEntity
  8
AM_0
  6
Continuous
370
    30
100
AcDbLine
 10
19.04594829954397
 20
-54.68546225248656
 30
0.0
 11
25.87751368903884
 21
-52.74152501785261
 31
0.0
  0
LINE
  5
1F3BC
330
1F
100
AcDbEntity
  8
AM_0
  6
Continuous
370
    30
100
AcDbLine
 10
18.17557182756627
 20
-54.89109147178363
 30
0.0
 11
18.23086449863592
 21
-55.2855809683391
 31
0.0
  0
ELLIPSE
  5
1F3BD
330
1F
100
AcDbEntity
  8
AM_0
  6
Continuous
370
    30
100
AcDbEllipse
 10
17.6198657490545
 20
-54.68629373062436
 30
0.0
 11
2.163811732423609
 21
0.3558244165147443
 31
0.0
210
0.0
220
0.0
230
1.0
 40
0.1371113133917759
 41
4.904712168199014
 42
5.409191832821687
  0
LINE
  5
1F3BE
330
1F
100
AcDbEntity
  8
AM_0
  6
Continuous
370
    30
100
AcDbLine
 10
35.00000000000017
 20
-60.00000000000001
 30
0.0
 11
33.24713427409274
 21
-53.45821605206711
 31
0.0
  0
LINE
  5
1F3BF
330
1F
100
AcDbEntity
  8
AM_0
  6
Continuous
370
    30
100
AcDbLine
 10
33.3295281665488
 20
-53.76571424494647
 30
0.0
 11
30.21922681598812
 21
-54.20166214978454
 31
0.0
  0
LINE
  5
1F3C1
330
1F
100
AcDbEntity
  8
AM_0
  6
Continuous
370
    30
100
AcDbLine
 10
30.21922681600006
 20
-54.20166214986935
 30
0.0
 11
29.6593794240066
 21
-54.78998376413657
 31
0.0
  0
LINE
  5
1F3C3
330
1F
100
AcDbEntity
  8
AM_0
  6
Continuous
370
    30
100
AcDbLine
 10
150.0000000000001
 20
-60.00000000000001
 30
0.0
 11
150.0000000000001
 21
-85.00000000000003
 31
0.0
  0
ELLIPSE
  5
1F3C6
330
1F
100
AcDbEntity
  8
AM_0
  6
Continuous
370
    30
100
AcDbEllipse
 10
15.17780714636621
 20
15.42723856834715
 30
0.0
 11
3.024209218003969
 21
-2.986077461443327
 31
0.0
210
0.0
220
0.0
230
1.0
 40
0.9806768383858928
 41
0.0000000000000015
 42
1.572921406683712
  0
ELLIPSE
  5
1F3C7
330
1F
100
AcDbEntity
  8
AM_0
  6
Continuous
370
    30
100
AcDbEllipse
 10
14.62799030891995
 20
14.87040065322657
 30
0.0
 11
3.024209218003969
 21
-2.986077461443327
 31
0.0
210
0.0
220
0.0
230
1.0
 40
0.9806768383858928
 41
-0.0000000000000018
 42
6.283185307179585
  0
ELLIPSE
  5
1F3C8
330
1F
100
AcDbEntity
  8
AM_0
  6
Continuous
370
    30
100
AcDbEllipse
 10
14.49053609955843
 20
14.73119117444645
 30
0.0
 11
-2.312630578473623
 21
2.283470999927251
 31
0.0
210
0.0
220
0.0
230
1.0
 40
0.9806768383858926
 41
-0.0000000000000006
 42
6.283185307179585
  0
LINE
  5
1F3C9
330
1F
100
AcDbEntity
  8
AM_0
  6
Continuous
370
    30
100
AcDbLine
 10
12.27057826068824
 20
15.3259296220445
 30
0.0
 11
13.85832883744968
 21
16.94094046462413
 31
0.0
  0
LINE
  5
1F3CA
330
1F
100
AcDbEntity
  8
AM_0
  6
Continuous
370
    30
100
AcDbLine
 10
16.07828667631986
 20
16.34620201702609
 30
0.0
 11
16.71049393842861
 21
14.1364527268484
 31
0.0
  0
LINE
  5
1F3CB
330
1F
100
AcDbEntity
  8
AM_0
  6
Continuous
370
    30
100
AcDbLine
 10
12.27057826068824
 20
15.3259296220445
 30
0.0
 11
12.68294088877292
 21
15.74355805838485
 31
0.0
  0
LINE
  5
1F3CC
330
1F
100
AcDbEntity
  8
AM_0
  6
Continuous
370
    30
100
AcDbLine
 10
12.68294088877292
 20
15.74355805838485
 30
0.0
 11
13.31514815088167
 21
13.53380876820717
 31
0.0
  0
ELLIPSE
  5
1F3CD
330
1F
100
AcDbEntity
  8
AM_0
  6
Continuous
370
    30
100
AcDbEllipse
 10
14.86154970946586
 20
15.10555127242304
 30
0.0
 11
3.486735333698694
 21
-3.442771661428778
 31
0.0
210
0.0
220
0.0
230
1.0
 40
0.9806768383858927
 41
3.143717733478587
 42
6.262149511565003
  0
LINE
  5
1F3CE
330
1F
100
AcDbEntity
  8
AM_0
  6
Continuous
370
    30
100
AcDbLine
 10
19.04594829954397
 20
8.662118375422267
 30
0.0
 11
25.87751368903884
 21
15.61097566907273
 31
0.0
  0
ELLIPSE
  5
1F3D0
330
1F
100
AcDbEntity
  8
AM_0
  6
Continuous
370
    30
100
AcDbEllipse
 10
15.12295782761947
 20
15.37332209673519
 30
0.0
 11
-3.486735333698694
 21
3.442771661428778
 31
0.0
210
0.0
220
0.0
230
1.0
 40
0.9806768383858927
 41
3.143717733478604
 42
6.285310387068397
  0
LINE
  5
1F3D2
330
1F
100
AcDbEntity
  8
AM_0
  6
Continuous
370
    30
100
AcDbLine
 10
35.00000000000017
 20
32.0
 30
0.0
 11
35.00000000000017
 21
7.000000000000002
 31
0.0
  0
SPLINE
  5
1F3D6
330
1F
100
AcDbEntity
  8
AM_0
  6
Continuous
370
    30
100
AcDbSpline
210
0.0
220
0.0
230
1.0
 70
     8
 71
     1
 72
    35
 73
    33
 74
     0
 42
0.0000000001
 43
0.0000000001
 40
5.479564197823929
 40
5.479564197823929
 40
5.518769778990781
 40
5.557975360157633
 40
5.597180941324486
 40
5.636386522491338
 40
5.688660630713809
 40
5.740934738936278
 40
5.793208847158748
 40
5.845482955381218
 40
5.897757063603687
 40
5.950031171826157
 40
5.976168225937392
 40
6.002305280048628
 40
6.028442334159862
 40
6.054579388271097
 40
6.080716442382331
 40
6.106853496493566
 40
6.119439776784496
 40
6.132026057075425
 40
6.144612337366354
 40
6.157198617657285
 40
6.169784897948214
 40
6.182371178239143
 40
6.194957458530072
 40
6.202894070279107
 40
6.21083068202814
 40
6.218767293777175
 40
6.226703905526209
 40
6.234640517275243
 40
6.242577129024278
 40
6.250513740773312
 40
6.257094780967144
 40
6.263675821160977
 40
6.263675821160977
 10
24.39498933140885
 20
-46.27543938490408
 30
0.0
 10
24.49957194330926
 20
-46.27595307086529
 30
0.0
 10
24.60275331224455
 20
-46.27765946397983
 30
0.0
 10
24.70473673682795
 20
-46.28063726216487
 30
0.0
 10
24.8058034585456
 20
-46.28499167656435
 30
0.0
 10
24.93980859455496
 20
-46.29319384129758
 30
0.0
 10
25.07414931233814
 20
-46.30460678023064
 30
0.0
 10
25.21068688752246
 20
-46.32003121649188
 30
0.0
 10
25.35214418805913
 20
-46.34078574380271
 30
0.0
 10
25.50253234089337
 20
-46.36912401846712
 30
0.0
 10
25.6678054110597
 20
-46.40906188702866
 30
0.0
 10
25.75864083827236
 20
-46.43550614386766
 30
0.0
 10
25.85679174472296
 20
-46.46808738305424
 30
0.0
 10
25.96397380070073
 20
-46.50887282259396
 30
0.0
 10
26.08214504383165
 20
-46.56079344365878
 30
0.0
 10
26.21337574430947
 20
-46.62801297646558
 30
0.0
 10
26.35948958848837
 20
-46.71639813701586
 30
0.0
 10
26.43546279043267
 20
-46.76879219681416
 30
0.0
 10
26.51502045657168
 20
-46.8290217885658
 30
0.0
 10
26.5978878388114
 20
-46.89830610214335
 30
0.0
 10
26.68352583090837
 20
-46.97795328246821
 30
0.0
 10
26.77104959071596
 20
-47.06929628817625
 30
0.0
 10
26.85914820807295
 20
-47.17358550451502
 30
0.0
 10
26.94602453514619
 20
-47.29182994085045
 30
0.0
 10
26.99916320367129
 20
-47.37384441693655
 30
0.0
 10
27.05024447229289
 20
-47.46165247677948
 30
0.0
 10
27.09854768159198
 20
-47.55513001325676
 30
0.0
 10
27.14332331639866
 20
-47.65400008776271
 30
0.0
 10
27.18382454298501
 20
-47.75781945574079
 30
0.0
 10
27.21934458847068
 20
-47.86597494131877
 30
0.0
 10
27.24925694448069
 20
-47.97769216861968
 30
0.0
 10
27.26944017208223
 20
-48.07237955760661
 30
0.0
 10
27.28520505392476
 20
-48.16831300479896
 30
0.0
  0
LINE
  5
1F3D8
330
1F
100
AcDbEntity
  8
AM_0
  6
Continuous
370
    30
100
AcDbLine
 10
17.66828507047592
 20
-46.10109564129868
 30
0.0
 11
18.78350819396599
 21
-46.92496472610776
 31
0.0
  0
ELLIPSE
  5
1F3D9
330
1F
100
AcDbEntity
  8
AM_0
  6
Continuous
370
    30
100
AcDbEllipse
 10
14.62799030891995
 20
-47.59139767880913
 30
0.0
 11
4.208858404759285
 21
0.5899245110072383
 31
0.0
210
0.0
220
0.0
230
1.0
 40
0.1392094787801441
 41
3.000547166831391
 42
6.424230793937989
  0
LINE
  5
1F3DA
330
1F
100
AcDbEntity
  8
AM_0
  6
Continuous
370
    30
100
AcDbLine
 10
18.61686007631863
 20
-48.36632720858108
 30
0.0
 11
17.92934390914428
 21
-48.56196147402159
 31
0.0
  0
ELLIPSE
  5
1F3DD
330
1F
100
AcDbEntity
  8
AM_0
  6
Continuous
370
    30
100
AcDbEllipse
 10
14.49053609955843
 20
-46.61072084042326
 30
0.0
 11
3.218538780110048
 21
0.4511187437113713
 31
0.0
210
0.0
220
0.0
230
0.9999999999999999
 40
0.1392094787801441
 41
2.352782870245788
 42
8.635968177425371
  0
LINE
  5
1F3DE
330
1F
100
AcDbEntity
  8
AM_0
  6
Continuous
370
    30
100
AcDbLine
 10
13.85832883744968
 20
-46.38565332693133
 30
0.0
 11
16.07828667631986
 21
-46.15892285716393
 31
0.0
  0
LINE
  5
1F3DF
330
1F
100
AcDbEntity
  8
AM_0
  6
Continuous
370
    30
100
AcDbLine
 10
16.07828667631986
 20
-46.15892285716393
 30
0.0
 11
16.13287041675449
 21
-46.54835443765421
 31
0.0
  0
LINE
  5
1F3E0
330
1F
100
AcDbEntity
  8
AM_0
  6
Continuous
370
    30
100
AcDbLine
 10
16.07828667631986
 20
-46.15892285716393
 30
0.0
 11
16.71049393842861
 21
-46.38399037065585
 31
0.0
  0
LINE
  5
1F3E1
330
1F
100
AcDbEntity
  8
AM_0
  6
Continuous
370
    30
100
AcDbLine
 10
13.85832883744968
 20
-46.38565332693133
 30
0.0
 11
13.9383753896085
 21
-46.9567511496856
 31
0.0
  0
LINE
  5
1F3E2
330
1F
100
AcDbEntity
  8
AM_0
  6
Continuous
370
    30
100
AcDbLine
 10
15.12274336166718
 20
-46.83578835391518
 30
0.0
 11
12.90278552279699
 21
-47.06251882368258
 31
0.0
  0
LINE
  5
1F3E4
330
1F
100
AcDbEntity
  8
AM_0
  6
Continuous
370
    30
100
AcDbLine
 10
10.60581637038882
 20
-49.51323579920472
 30
0.0
 11
10.41913190416068
 21
-48.18132218981634
 31
0.0
  0
LINE
  5
1F3E5
330
1F
100
AcDbEntity
  8
AM_0
  6
Continuous
370
    30
100
AcDbLine
 10
11.29513049321895
 20
-46.99437351762515
 30
0.0
 11
10.44938297755294
 21
-48.09309733361158
 31
0.0
  0
LINE
  5
1F3E6
330
1F
100
AcDbEntity
  8
AM_0
  6
Continuous
370
    30
100
AcDbLine
 10
10.46928096408811
 20
-48.53911422664157
 30
0.0
 11
10.36313134812821
 21
-48.56931933764349
 31
0.0
  0
ARC
  5
1F3E7
330
1F
100
AcDbEntity
  8
AM_0
  6
Continuous
370
    30
100
AcDbCircle
 10
10.91050663829719
 20
-50.4929565933943
 30
0.0
 40
2.0
100
AcDbArc
 50
105.8838216411595
 51
118.8330481141187
  0
LINE
  5
1F3E8
330
1F
100
AcDbEntity
  8
AM_0
  6
Continuous
370
    30
100
AcDbLine
 10
12.27057826068824
 20
-46.83745131019066
 30
0.0
 11
13.85832883744968
 21
-46.38565332693133
 31
0.0
  0
LINE
  5
1F3E9
330
1F
100
AcDbEntity
  8
AM_0
  6
Continuous
370
    30
100
AcDbLine
 10
12.90278552279699
 20
-47.06251882368258
 30
0.0
 11
12.27057826068824
 21
-46.83745131019066
 31
0.0
  0
LINE
  5
1F3EC
330
1F
100
AcDbEntity
  8
AM_0
  6
Continuous
370
    30
100
AcDbLine
 10
16.71049393842861
 20
-46.38399037065585
 30
0.0
 11
15.12274336166718
 21
-46.83578835391518
 31
0.0
  0
LINE
  5
1F3ED
330
1F
100
AcDbEntity
  8
AM_0
  6
Continuous
370
    30
100
AcDbLine
 10
24.39498933140885
 20
-46.27543938490408
 30
0.0
 11
20.82978295518524
 21
-46.27751808024834
 31
0.0
  0
LINE
  5
1F3F1
330
1F
100
AcDbEntity
  8
AM_0
  6
Continuous
370
    30
100
AcDbLine
 10
19.01132234987165
 20
-48.24626774133697
 30
0.0
 11
18.83684871367927
 21
-47.00147316780192
 31
0.0
  0
SPLINE
  5
1F3F2
330
1F
100
AcDbEntity
  8
AM_0
  6
Continuous
370
    30
100
AcDbSpline
210
0.0
220
0.0
230
1.0
 70
     8
 71
     1
 72
    25
 73
    23
 74
     0
 42
0.0000000001
 43
0.0000000001
 40
4.624589853524328
 40
4.624589853524328
 40
4.654896126256602
 40
4.694166034426474
 40
4.733435942596347
 40
4.772705850766219
 40
4.811975758936092
 40
4.851245667105965
 40
4.890515575275837
 40
4.92978548344571
 40
4.969055391615583
 40
5.008325299785455
 40
5.047595207955328
 40
5.086865116125201
 40
5.126135024295073
 40
5.165404932464946
 40
5.204674840634818
 40
5.243944748804692
 40
5.283214656974565
 40
5.322484565144437
 40
5.36175447331431
 40
5.401024381484183
 40
5.440294289654056
 40
5.479564197823929
 40
5.479564197823929
 10
18.21141067789597
 20
-46.5023659651124
 30
0.0
 10
18.30956777941458
 20
-46.48780340290125
 30
0.0
 10
18.43699682314417
 20
-46.46961056780185
 30
0.0
 10
18.56451872573996
 20
-46.45211538020772
 30
0.0
 10
18.69198614947936
 20
-46.43533834694745
 30
0.0
 10
18.81925240564181
 20
-46.41929962352924
 30
0.0
 10
18.94617213142942
 20
-46.40401895078526
 30
0.0
 10
19.07260198896734
 20
-46.38951561041836
 30
0.0
 10
19.19840139712244
 20
-46.37580840016608
 30
0.0
 10
19.32343330836665
 20
-46.36291563017005
 30
0.0
 10
19.44756504499549
 20
-46.35085514316688
 30
0.0
 10
19.57066921184912
 20
-46.33964436237807
 30
0.0
 10
19.69262470646277
 20
-46.32930037257563
 30
0.0
 10
19.81331785257589
 20
-46.31984004190042
 30
0.0
 10
19.93264368954033
 20
-46.3112801948165
 30
0.0
 10
20.05050745890878
 20
-46.30363785040697
 30
0.0
 10
20.16682634110623
 20
-46.29693054548966
 30
0.0
 10
20.2815315106032
 20
-46.29117676942428
 30
0.0
 10
20.39457059889361
 20
-46.28639654793858
 30
0.0
 10
20.50591068288372
 20
-46.28261222832862
 30
0.0
 10
20.61554195499537
 20
-46.27984954020576
 30
0.0
 10
20.72348228466058
 20
-46.27813903810386
 30
0.0
 10
20.82978295518524
 20
-46.27751808024834
 30
0.0
  0
ELLIPSE
  5
1F3F4
330
1F
100
AcDbEntity
  8
AM_0
  6
Continuous
370
    30
100
AcDbEllipse
 10
15.12295782761947
 20
-48.36836433001849
 30
0.0
 11
4.852566160781304
 21
0.6801482597494521
 31
0.0
210
0.0
220
0.0
230
1.0
 40
0.1392094787801441
 41
5.496500603724389
 42
6.944279818894781
  0
ELLIPSE
  5
1F3FF
330
1F
100
AcDbEntity
  8
AM_0
  6
Continuous
370
    30
100
AcDbEllipse
 10
14.65605219860095
 20
4.502613891440262
 30
0.0
 11
-0.5633125162885837
 21
0.5597079341939951
 31
0.0
210
0.0
220
0.0
230
1.0
 40
0.9805480300824123
 41
2.606205695269788
 42
4.761215211234337
  0
LINE
  5
1F418
330
1F
100
AcDbEntity
  8
AM_0
  6
Continuous
370
    30
100
AcDbLine
 10
18.20201636437014
 20
12.44116110690385
 30
0.0
 11
17.65219952692394
 21
11.88432319178327
 31
0.0
  0
ELLIPSE
  5
1F419
330
1F
100
AcDbEntity
  8
AM_0
  6
Continuous
370
    30
100
AcDbEllipse
 10
17.27799860291725
 20
6.561149232432229
 30
0.0
 11
-0.5692629116242767
 21
0.5620851692128612
 31
0.0
210
0.0
220
0.0
230
0.9999999999999999
 40
0.9806768383858929
 41
3.141592653589792
 42
4.251832364617516
  0
LINE
  5
1F41A
330
1F
100
AcDbEntity
  8
AM_0
  6
Continuous
370
    30
100
AcDbLine
 10
15.31722068753294
 20
7.027224923083338
 30
0.0
 11
18.0813442606609
 21
8.036338739140149
 31
0.0
  0
LINE
  5
1F41B
330
1F
100
AcDbEntity
  8
AM_0
  6
Continuous
370
    30
100
AcDbLine
 10
18.61686007631863
 20
11.93782461795996
 30
0.0
 11
17.92934390914428
 21
11.23850440942937
 31
0.0
  0
LINE
  5
1F41E
330
1F
100
AcDbEntity
  8
AM_0
  6
Continuous
370
    30
100
AcDbLine
 10
14.95458444633061
 20
5.988766739303799
 30
0.0
 11
18.72855835355202
 21
7.0
 31
0.0
  0
LINE
  5
1F41F
330
1F
100
AcDbEntity
  8
AM_0
  6
Continuous
370
    30
100
AcDbLine
 10
12.86302293018781
 20
5.936037986672147
 30
0.0
 11
15.31722068753288
 21
7.027224923083338
 31
0.0
  0
LINE
  5
1F421
330
1F
100
AcDbEntity
  8
AM_0
  6
Continuous
370
    30
100
AcDbLine
 10
13.86977175039624
 20
6.261115465431487
 30
0.0
 11
15.17672514674337
 21
5.081628164639085
 31
0.0
  0
ELLIPSE
  5
1F424
330
1F
100
AcDbEntity
  8
AM_0
  6
Continuous
370
    30
100
AcDbEllipse
 10
13.60746799818344
 20
5.969420617472395
 30
0.0
 11
-0.2846314558121383
 21
0.2810425846064306
 31
0.0
210
0.0
220
0.0
230
1.0
 40
0.980676838385893
 41
4.758147291573364
 42
5.095542542616816
  0
LINE
  5
1F42D
330
1F
100
AcDbEntity
  8
AM_0
  6
Continuous
370
    30
100
AcDbLine
 10
17.2617065826613
 20
5.406031683615936
 30
0.0
 11
17.84726151454152
 21
5.999064063219464
 31
0.0
  0
LINE
  5
1F42E
330
1F
100
AcDbEntity
  8
AM_0
  6
Continuous
370
    30
100
AcDbLine
 10
15.22104563838798
 20
3.944744360996481
 30
0.0
 11
15.89457126425964
 21
4.626870807019202
 31
0.0
  0
ELLIPSE
  5
1F42F
330
1F
100
AcDbEntity
  8
AM_0
  6
Continuous
370
    30
100
AcDbEllipse
 10
16.69244367103704
 20
5.968116852828814
 30
0.0
 11
-0.5692629116242767
 21
0.5620851692128612
 31
0.0
210
0.0
220
0.0
230
0.9999999999999999
 40
0.9806768383858929
 41
2.620118957880314
 42
4.714514060273499
  0
LINE
  5
1F430
330
1F
100
AcDbEntity
  8
AM_0
  6
Continuous
370
    30
100
AcDbLine
 10
17.24245660477652
 20
6.527573019653403
 30
0.0
 11
17.34211444360614
 21
6.628503473978924
 31
0.0
  0
LINE
  5
1F431
330
1F
100
AcDbEntity
  8
AM_0
  6
Continuous
370
    30
100
AcDbLine
 10
17.18313334734944
 20
6.58590461762509
 30
0.0
 11
17.24245660477652
 21
6.527573019653403
 31
0.0
  0
LINE
  5
1F432
330
1F
100
AcDbEntity
  8
AM_0
  6
Continuous
370
    30
100
AcDbLine
 10
16.91144669081433
 20
5.202637244313507
 30
0.0
 11
16.09362856311918
 21
4.983503537442005
 31
0.0
  0
LINE
  5
1F433
330
1F
100
AcDbEntity
  8
AM_0
  6
Continuous
370
    30
100
AcDbLine
 10
15.85025077261491
 20
5.763754610661806
 30
0.0
 11
15.45295305616946
 21
6.122304205843136
 31
0.0
  0
ELLIPSE
  5
1F435
330
1F
100
AcDbEntity
  8
AM_0
  6
Continuous
370
    30
100
AcDbEllipse
 10
15.32957782447255
 20
5.184740337462984
 30
0.0
 11
0.5649934397870947
 21
-0.557869530443765
 31
0.0
210
0.0
220
0.0
230
1.0
 40
0.9806768383858928
 41
-0.0000000000000174
 42
1.616554637983615
  0
LINE
  5
1F436
330
1F
100
AcDbEntity
  8
AM_0
  6
Continuous
370
    30
100
AcDbLine
 10
14.95458444633061
 20
5.988766739303799
 30
0.0
 11
14.34024176474924
 21
6.592839945548406
 31
0.0
  0
LINE
  5
1F437
330
1F
100
AcDbEntity
  8
AM_0
  6
Continuous
370
    30
100
AcDbLine
 10
15.12274336166718
 20
12.52144188426877
 30
0.0
 11
12.90278552279699
 21
13.11618033186682
 31
0.0
  0
LINE
  5
1F438
330
1F
100
AcDbEntity
  8
AM_0
  6
Continuous
370
    30
100
AcDbLine
 10
13.31514815088167
 20
13.53380876820717
 30
0.0
 11
15.53369432716011
 21
12.9394485124846
 31
0.0
  0
LINE
  5
1F439
330
1F
100
AcDbEntity
  8
AM_0
  6
Continuous
370
    30
100
AcDbLine
 10
12.90278552279699
 20
13.11618033186682
 30
0.0
 11
13.31514815088167
 21
13.53380876820717
 31
0.0
  0
LINE
  5
1F43A
330
1F
100
AcDbEntity
  8
AM_0
  6
Continuous
370
    30
100
AcDbLine
 10
12.90278552279699
 20
13.11618033186682
 30
0.0
 11
12.27057826068824
 21
15.3259296220445
 31
0.0
  0
LINE
  5
1F43B
330
1F
100
AcDbEntity
  8
AM_0
  6
Continuous
370
    30
100
AcDbLine
 10
16.71049393842861
 20
14.1364527268484
 30
0.0
 11
15.12274336166718
 21
12.52144188426877
 31
0.0
  0
ELLIPSE
  5
1F440
330
1F
100
AcDbEntity
  8
AM_0
  6
Continuous
370
    30
100
AcDbEllipse
 10
17.6198657490545
 20
10.06436224431008
 30
0.0
 11
-1.627718069122552
 21
-1.656453263802743
 31
0.0
210
0.0
220
0.0
230
1.0
 40
0.8611970254527518
 41
1.066040190101635
 42
1.570519854724308
  0
LINE
  5
1F447
330
1F
100
AcDbEntity
  8
AM_0
  6
Continuous
370
    30
100
AcDbLine
 10
26.70065313025333
 20
23.57848404200382
 30
0.0
 11
23.13544675402966
 21
27.08409371422346
 31
0.0
  0
LINE
  5
1F44A
330
1F
100
AcDbEntity
  8
AM_0
  6
Continuous
370
    30
100
AcDbLine
 10
25.89881330690218
 20
15.63493883161954
 30
0.0
 11
26.55066666114146
 21
16.29511625438619
 31
0.0
  0
LINE
  5
1F44B
330
1F
100
AcDbEntity
  8
AM_0
  6
Continuous
370
    30
100
AcDbLine
 10
25.87751368903884
 20
15.61097566907273
 30
0.0
 11
26.55066666114146
 21
16.29511625438619
 31
0.0
  0
ELLIPSE
  5
1F44D
330
1F
100
AcDbEntity
  8
AM_0
  6
Continuous
370
    30
100
AcDbEllipse
 10
19.42025390869424
 20
23.30633559882546
 30
0.0
 11
4.259683911039551
 21
4.323120487029229
 31
0.0
210
0.0
220
0.0
230
1.0
 40
0.823841779066633
 41
1.225860215890118
 42
1.56952586528264
  0
LINE
  5
1F450
330
1F
100
AcDbEntity
  8
AM_0
  6
Continuous
370
    30
100
AcDbLine
 10
13.16431101148078
 20
29.41112854267823
 30
0.0
 11
11.23957359112023
 21
26.07738553938469
 31
0.0
  0
ELLIPSE
  5
1F452
330
1F
100
AcDbEntity
  8
AM_0
  6
Continuous
370
    30
100
AcDbEllipse
 10
15.17780714636621
 20
15.42723856834715
 30
0.0
 11
3.024209218003969
 21
-2.986077461443327
 31
0.0
210
0.0
220
0.0
230
1.0
 40
0.9806768383858928
 41
1.572921406683703
 42
3.14159265358979
  0
LINE
  5
1F455
330
1F
100
AcDbEntity
  8
AM_0
  6
Continuous
370
    30
100
AcDbLine
 10
13.85832883744968
 20
16.94094046462413
 30
0.0
 11
16.07828667631986
 21
16.34620201702609
 31
0.0
  0
LINE
  5
1F456
330
1F
100
AcDbEntity
  8
AM_0
  6
Continuous
370
    30
100
AcDbLine
 10
12.15359792836227
 20
18.41331602979045
 30
0.0
 11
11.60378109091602
 21
17.85647811466987
 31
0.0
  0
LINE
  5
1F457
330
1F
100
AcDbEntity
  8
AM_0
  6
Continuous
370
    30
100
AcDbLine
 10
13.85974050004137
 20
16.94056227274876
 30
0.0
 11
12.68294088877292
 21
15.74355805838485
 31
0.0
  0
LINE
  5
1F458
330
1F
100
AcDbEntity
  8
AM_0
  6
Continuous
370
    30
100
AcDbLine
 10
10.94153941174591
 20
18.10949936697983
 30
0.0
 11
11.36764746076676
 21
18.54104875119828
 31
0.0
  0
LINE
  5
1F459
330
1F
100
AcDbEntity
  8
AM_0
  6
Continuous
370
    30
100
AcDbLine
 10
11.70801070584923
 20
18.88725573059998
 30
0.0
 11
11.36764746076676
 21
18.54104875119828
 31
0.0
  0
LINE
  5
1F45A
330
1F
100
AcDbEntity
  8
AM_0
  6
Continuous
370
    30
100
AcDbLine
 10
11.62905557892032
 20
18.80881957551054
 30
0.0
 11
11.64340515488345
 21
18.82335239338357
 31
0.0
  0
LINE
  5
1F45B
330
1F
100
AcDbEntity
  8
AM_0
  6
Continuous
370
    30
100
AcDbLine
 10
10.94153941174591
 20
18.10949936697983
 30
0.0
 11
11.62905557892032
 21
18.80881957551054
 31
0.0
  0
LINE
  5
1F45D
330
1F
100
AcDbEntity
  8
AM_0
  6
Continuous
370
    30
100
AcDbLine
 10
11.23957359112023
 20
26.07738553938469
 30
0.0
 11
11.03684024497062
 21
25.72624108346514
 31
0.0
  0
LINE
  5
1F45F
330
1F
100
AcDbEntity
  8
AM_0
  6
Continuous
370
    30
100
AcDbLine
 10
15.21050735680319
 20
26.15919048363918
 30
0.0
 11
15.8641012728616
 21
26.82113069493556
 31
0.0
  0
SPLINE
  5
1F460
330
1F
100
AcDbEntity
  8
AM_0
  6
Continuous
370
    30
100
AcDbSpline
210
0.0
220
0.0
230
1.0
 70
     8
 71
     1
 72
     8
 73
     6
 74
     0
 42
0.0000000001
 43
0.0000000001
 40
3.908767871029027
 40
3.908767871029027
 40
3.909192887006788
 40
3.909617902984549
 40
3.910042918962311
 40
3.910467934940072
 40
3.910892950917834
 40
3.910892950917834
 10
15.20307776425511
 20
26.1516496919275
 30
0.0
 10
15.20456237522819
 20
26.15315913793751
 30
0.0
 10
15.20604764025092
 20
26.15466794039952
 30
0.0
 10
15.20753355904208
 20
26.15617609902762
 30
0.0
 10
15.20902013132002
 20
26.15768361353599
 30
0.0
 10
15.21050735680319
 20
26.15919048363918
 30
0.0
  0
ELLIPSE
  5
1F468
330
1F
100
AcDbEntity
  8
AM_0
  6
Continuous
370
    30
100
AcDbEllipse
 10
19.69786591815773
 20
23.58749267157015
 30
0.0
 11
3.557893197651727
 21
-3.513032307580386
 31
0.0
210
0.0
220
0.0
230
1.0
 40
0.9806768383858927
 41
1.57292140668371
 42
2.797927004197275
  0
LINE
  5
1F46A
330
1F
100
AcDbEntity
  8
AM_0
  6
Continuous
370
    30
100
AcDbLine
 10
14.65899664426284
 20
32.0
 30
0.0
 11
13.16431101148078
 21
29.41112854267823
 31
0.0
  0
ELLIPSE
  5
1F46C
330
1F
100
AcDbEntity
  8
AM_0
  6
Continuous
370
    30
100
AcDbEllipse
 10
23.2630722943814
 20
20.08188299935051
 30
0.0
 11
3.557893197651727
 21
-3.513032307580386
 31
0.0
210
0.0
220
0.0
230
1.0
 40
0.9806768383858927
 41
0.3479158091701386
 42
1.572921406683714
  0
ELLIPSE
  5
1F46D
330
1F
100
AcDbEntity
  8
AM_0
  6
Continuous
370
    30
100
AcDbEllipse
 10
22.98546028491785
 20
19.80072592660582
 30
0.0
 11
4.259683911039531
 21
4.323120487029249
 31
0.0
210
0.0
220
0.0
230
1.0
 40
0.8238417790666328
 41
4.713243598761233
 42
5.059034328042556
  0
LINE
  5
1F46F
330
1F
100
AcDbEntity
  8
AM_0
  6
Continuous
370
    30
100
AcDbLine
 10
150.0000000000001
 20
31.99999999999999
 30
0.0
 11
150.0000000000001
 21
7.000000000000001
 31
0.0
  0
LINE
  5
1F699
330
1F
100
AcDbEntity
  8
AM_5
100
AcDbLine
 10
0.801805973443237
 20
0.0
 30
0.0
 11
-2.294522975629576
 21
0.0
 31
0.0
  0
DIMENSION
  5
1F6C4
330
1F
100
AcDbEntity
  8
AM_5
100
AcDbDimension
  2
*D5
 10
150.0000000000002
 20
-30.0
 30
0.0
 11
75.00000000000009
 21
-30.0
 31
0.0
 70
   160
  1
<>
 71
     5
 42
150.0000000000002
  3
AM_JIS$0
100
AcDbAlignedDimension
 13
0.0
 23
0.8016075134790128
 33
0.0
 14
150.0000000000002
 24
7.0
 34
0.0
100
AcDbRotatedDimension
1001
ACAD
1000
DSTYLE
1002
{
1070
   271
1070
     0
1002
}
  0
DIMENSION
  5
1F74C
330
1F
100
AcDbEntity
  8
AM_5
100
AcDbDimension
  2
*D6
 10
0.0000000000000012
 20
-40.0
 30
0.0
 11
17.50000000000009
 21
-40.0
 31
0.0
 70
   160
  1
<>
 71
     5
 42
35.00000000000017
  3
AM_JIS$0
100
AcDbAlignedDimension
 13
35.00000000000017
 23
-60.00000000000001
 33
0.0
 14
0.0
 24
-59.99999999936546
 34
0.0
 50
180.0
100
AcDbRotatedDimension
1001
ACAD
1000
DSTYLE
1002
{
1070
   271
1070
     0
1002
}
  0
DIMENSION
  5
1F7DC
330
1F
100
AcDbEntity
  8
AM_5
100
AcDbDimension
  2
*D7
 10
160.0000000000002
 20
6.999999999999997
 30
0.0
 11
160.0000000000002
 21
19.50000000000003
 31
0.0
 70
   160
  1
<>
 71
     5
 42
25.0
  3
AM_JIS$0
100
AcDbAlignedDimension
 13
150.4000000000002
 23
32.0
 33
0.0
 14
150.0000000000002
 24
7.0
 34
0.0
 50
90.0
100
AcDbRotatedDimension
1001
ACAD
1000
DSTYLE
1002
{
1070
   271
1070
     0
1002
}
  0
DIMENSION
  5
1F864
330
1F
100
AcDbEntity
  8
AM_5
100
AcDbDimension
  2
*D8
 10
160.0000000000001
 20
-85.00000000000004
 30
0.0
 11
160.0000000000002
 21
-72.5
 31
0.0
 70
   160
  1
<>
 71
     5
 42
25.00000000000002
  3
AM_JIS$0
100
AcDbAlignedDimension
 13
150.0000000000001
 23
-60.00000000000001
 33
0.0
 14
150.4000000000002
 24
-85.00000000000003
 34
0.0
 50
90.0
100
AcDbRotatedDimension
1001
ACAD
1000
DSTYLE
1002
{
1070
   271
1070
     0
1002
}
  0
DIMENSION
  5
1F917
330
1F
100
AcDbEntity
  8
AM_5
100
AcDbDimension
  2
*D9
 10
-10.0
 20
0.0000000000000022
 30
0.0
 11
-10.0
 21
16.0
 31
0.0
 70
   160
  1
<>
 71
     5
 42
32.0
  3
AM_JIS$0
100
AcDbAlignedDimension
 13
14.65899664426283
 23
32.0
 33
0.0
 14
-2.294522975629576
 24
0.0
 34
0.0
 50
270.0
100
AcDbRotatedDimension
1001
ACAD
1000
DSTYLE
1002
{
1070
   271
1070
     0
1002
}
  0
DIMENSION
  5
1F9B5
330
1F
100
AcDbEntity
  8
AM_5
100
AcDbDimension
  2
*D10
 10
-10.00000000000002
 20
-85.00000000000003
 30
0.0
 11
-10.00000000000001
 21
-72.49999999968274
 31
0.0
 70
   160
  1
<>
 71
     5
 42
25.00000000063457
  3
AM_JIS$0
100
AcDbAlignedDimension
 13
0.0117073676595076
 23
-59.99999999936546
 33
0.0
 14
2.671158688766923
 24
-85.00000000000003
 34
0.0
 50
270.0
100
AcDbRotatedDimension
1001
ACAD
1000
DSTYLE
1002
{
1070
   271
1070
     0
1002
}
  0
LINE
  5
210F2
330
1F
100
AcDbEntity
  8
AM_0
  6
Continuous
370
    30
100
AcDbLine
 10
14.65899664426283
 20
32.0
 30
0.0
 11
150.0000000000001
 21
32.0
 31
0.0
  0
LINE
  5
2110F
330
1F
100
AcDbEntity
  8
AM_0
  6
Continuous
370
    30
100
AcDbLine
 10
18.72855835355202
 20
7.000000000000001
 30
0.0
 11
150.0000000000001
 21
6.999999999999999
 31
0.0
  0
TEXT
  5
21167
330
1F
100
AcDbEntity
  8
AM_0
100
AcDbText
 10
59.53911315358096
 20
-100.6815128430234
 30
0.0
 40
3.8
  1
DTR55QR2525-M17
  7
ACISOTS
100
AcDbText
  0
ELLIPSE
  5
21454
330
1F
100
AcDbEntity
  8
AM_0
  6
Continuous
370
    30
100
AcDbEllipse
 10
1.186338745240334
 20
3.979674566525489
 30
0.0
 11
0.3557893197651729
 21
-0.3513032307580383
 31
0.0
210
0.0
220
0.0
230
1.0
 40
0.9806768383858929
 41
6.023510999269475
 42
6.808909162666613
  0
LINE
  5
21456
330
1F
100
AcDbEntity
  8
AM_0
  6
Continuous
370
    30
100
AcDbLine
 10
0.4291433192251759
 20
2.615558808922025
 30
0.0
 11
0.8418043709463632
 21
3.117683737666368
 31
0.0
  0
ELLIPSE
  5
21457
330
1F
100
AcDbEntity
  8
AM_0
  6
Continuous
370
    30
100
AcDbEllipse
 10
1.766103075090996
 20
2.35267871972718
 30
0.0
 11
-0.8538943674364147
 21
0.843127753819292
 31
0.0
210
0.0
220
0.0
230
1.0
 40
0.9806768383858929
 41
6.023510999269289
 42
6.372576849668107
  0
LINE
  5
21458
330
1F
100
AcDbEntity
  8
AM_0
  6
Continuous
370
    30
100
AcDbLine
 10
1.153139828984877
 20
3.38255372666714
 30
0.0
 11
1.441740097784589
 21
3.550559980300648
 31
0.0
  0
ELLIPSE
  5
21459
330
1F
100
AcDbEntity
  8
AM_0
  6
Continuous
370
    30
100
AcDbEllipse
 10
3.972372813427114
 20
1.240212401949691
 30
0.0
 11
0.3557893197651729
 21
-0.3513032307580383
 31
0.0
210
0.0
220
0.0
230
1.0
 40
0.9806768383858929
 41
2.620118957880198
 42
3.405517121277816
  0
LINE
  5
2145A
330
1F
100
AcDbEntity
  8
AM_0
  6
Continuous
370
    30
100
AcDbLine
 10
3.539029183002299
 20
1.488329599581846
 30
0.0
 11
3.37594951459829
 21
1.196900973054596
 31
0.0
  0
ELLIPSE
  5
2145B
330
1F
100
AcDbEntity
  8
AM_0
  6
Continuous
370
    30
100
AcDbEllipse
 10
2.335924801578813
 20
1.792382247371904
 30
0.0
 11
-0.8538943674364147
 21
0.843127753819292
 31
0.0
210
0.0
220
0.0
230
1.0
 40
0.9806768383858929
 41
3.056451270878879
 42
3.405517121277701
  0
LINE
  5
2145C
330
1F
100
AcDbEntity
  8
AM_0
  6
Continuous
370
    30
100
AcDbLine
 10
3.116413148440756
 20
0.8810977761697245
 30
0.0
 11
2.82404773872878
 21
0.6323666379225301
 31
0.0
  0
ELLIPSE
  5
2145D
330
1F
100
AcDbEntity
  8
AM_0
  6
Continuous
370
    30
100
AcDbEllipse
 10
2.56388495644137
 20
0.9361281283232188
 30
0.0
 11
0.7196598179847848
 21
0.495589220169076
 31
0.0
210
0.0
220
0.0
230
1.0
 40
0.4557067372374667
 41
4.111910579345692
 42
4.760458401740027
  0
LINE
  5
21466
330
1F
100
AcDbEntity
  8
AM_0
  6
Continuous
370
    30
100
AcDbLine
 10
1.666973716188295
 20
3.850909915468662
 30
0.0
 11
3.601846894310938
 21
11.59564077187719
 31
0.0
  0
ELLIPSE
  5
21468
330
1F
100
AcDbEntity
  8
AM_0
  6
Continuous
370
    30
100
AcDbEllipse
 10
3.121211923362921
 20
11.72440542293393
 30
0.0
 11
0.3557893197651729
 21
-0.3513032307580383
 31
0.0
210
0.0
220
0.0
230
1.0
 40
0.9806768383858929
 41
0.5257238554871374
 42
1.311122018884455
  0
LINE
  5
21469
330
1F
100
AcDbEntity
  8
AM_0
  6
Continuous
370
    30
100
AcDbLine
 10
3.545531065284251
 20
11.97141929328016
 30
0.0
 11
3.371820073453307
 21
12.26328117905232
 31
0.0
  0
ELLIPSE
  5
2146A
330
1F
100
AcDbEntity
  8
AM_0
  6
Continuous
370
    30
100
AcDbEllipse
 10
4.390186014064398
 20
12.8561144678831
 30
0.0
 11
-0.8538943674364147
 21
0.843127753819292
 31
0.0
210
0.0
220
0.0
230
1.0
 40
0.9806768383858929
 41
0.9620561684856477
 42
1.311122018884466
  0
LINE
  5
2146B
330
1F
100
AcDbEntity
  8
AM_0
  6
Continuous
370
    30
100
AcDbLine
 10
3.223589277125882
 20
12.65127139849367
 30
0.0
 11
3.097856156558635
 21
13.29763497385383
 31
0.0
  0
LINE
  5
2148B
330
1F
100
AcDbEntity
  8
AM_0
  6
Continuous
370
    30
100
AcDbLine
 10
13.25584474797432
 20
3.30944935468532
 30
0.0
 11
12.60749774127328
 21
3.424226228114755
 31
0.0
  0
ELLIPSE
  5
2148C
330
1F
100
AcDbEntity
  8
AM_0
  6
Continuous
370
    30
100
AcDbEllipse
 10
12.79253366150914
 20
4.594222146958352
 30
0.0
 11
-0.8538943674364147
 21
0.843127753819292
 31
0.0
210
0.0
220
0.0
230
1.0
 40
0.9806768383858929
 41
1.834720794482927
 42
2.18378664488173
  0
LINE
  5
2148D
330
1F
100
AcDbEntity
  8
AM_0
  6
Continuous
370
    30
100
AcDbLine
 10
12.21708450964422
 20
3.565875955151775
 30
0.0
 11
11.92234624340205
 21
3.734632635810137
 31
0.0
  0
ELLIPSE
  5
2148E
330
1F
100
AcDbEntity
  8
AM_0
  6
Continuous
370
    30
100
AcDbEllipse
 10
11.68257576345837
 20
3.306155055890692
 30
0.0
 11
0.3557893197651729
 21
-0.3513032307580383
 31
0.0
210
0.0
220
0.0
230
1.0
 40
0.9806768383858929
 41
1.834720794483009
 42
2.620118957880183
  0
LINE
  5
2148F
330
1F
100
AcDbEntity
  8
AM_0
  6
Continuous
370
    30
100
AcDbLine
 10
11.54569887609762
 20
3.784579811212836
 30
0.0
 11
3.835495926066358
 21
1.718637157271836
 31
0.0
  0
LINE
  5
214C6
330
1F
100
AcDbEntity
  8
AM_0
  6
ACJISTGB
 48
0.5
100
AcDbLine
 10
1.003823946229829
 20
0.0265302752085859
 30
0.0
 11
2.343585881720458
 21
0.3855184038732489
 31
0.0
  0
LINE
  5
214C7
330
1F
100
AcDbEntity
  8
AM_0
  6
ACJISTGB
 48
0.5
100
AcDbLine
 10
13.25584474797432
 20
3.30944935468532
 30
0.0
 11
14.87341269572966
 21
3.742875379988824
 31
0.0
  0
LINE
  5
214C8
330
1F
100
AcDbEntity
  8
AM_0
  6
ACJISTGB
 48
0.5
100
AcDbLine
 10
3.503784360548309
 20
14.92244673023763
 30
0.0
 11
3.097856156558635
 21
13.29763497385383
 31
0.0
  0
LINE
  5
214C9
330
1F
100
AcDbEntity
  8
AM_0
  6
ACJISTGB
 48
0.5
100
AcDbLine
 10
0.4291433192251759
 20
2.615558808922025
 30
0.0
 11
0.02321511523553
 21
0.9907470525383246
 31
0.0
  0
LINE
  5
21510
330
1F
100
AcDbEntity
  8
AM_5
100
AcDbLine
 10
0.0
 20
0.0
 30
0.0
 11
-0.0000000000000001
 21
-1.430119419565017
 31
0.0
  0
DIMENSION
  5
21512
330
1F
100
AcDbEntity
  8
AM_5
100
AcDbDimension
  2
*D12
 10
-0.0000000000000001
 20
-1.430119419565017
 30
0.0
 11
13.04496201816255
 21
-10.25219495422338
 31
0.0
 70
    34
 71
     5
 42
1.832595714594041
  3
AM_JIS$2
100
AcDb2LineAngularDimension
 13
1.003823946229829
 23
0.0265302752085859
 33
0.0
 14
2.343585881720458
 24
0.3855184038732489
 34
0.0
 15
0.0
 25
0.0
 35
0.0
 16
11.3813709804873
 26
-16.49672582030227
 36
0.0
1001
ACAD
1000
DSTYLE
1002
{
1070
   179
1070
     0
1002
}
  0
LINE
  5
21571
330
1F
100
AcDbEntity
  8
AM_0
100
AcDbLine
 10
33.24713427409274
 20
-53.45821605206711
 30
0.0
 11
23.35885126667773
 21
-53.45821605206712
 31
0.0
  0
LINE
  5
21572
330
1F
100
AcDbEntity
  8
AM_0
100
AcDbLine
 10
12.21922450196797
 20
-62.76360118294734
 30
0.0
 11
4.794193091487728
 21
-64.08673166634924
 31
0.0
  0
LINE
  5
21573
330
1F
100
AcDbEntity
  8
AM_0
100
AcDbLine
 10
4.681051947079027
 20
-64.13663037662036
 30
0.0
 11
12.23803847757743
 21
-62.78998567057283
 31
0.0
  0
ENDSEC
  0
SECTION
  2
OBJECTS
  0
DICTIONARY
  5
C
330
0
100
AcDbDictionary
281
     1
  3
ACAD_COLOR
350
20881
  3
ACAD_GROUP
350
D
  3
ACAD_LAYOUT
350
1A
  3
ACAD_MATERIAL
350
20880
  3
ACAD_MLINESTYLE
350
17
  3
ACAD_PLOTSETTINGS
350
19
  3
ACAD_PLOTSTYLENAME
350
E
  3
ACAD_TABLESTYLE
350
20882
  3
AcAmCatalogState
350
208E9
  3
ACDBHEADERROUNDTRIPXREC
350
21584
  3
AcDbVariableDictionary
350
30
  3
ACDMSYSVARMGR
350
2089C
  3
ACGREF_MASTER
350
20894
  3
ACGREFACAD_MASTER
350
208BC
  3
AcmDictionary
350
4D
  3
ACME_BOM_MANAGER_NAME
350
36
  3
ACME_COMMAND_HISTORY
350
2F
  3
ACME_SCOPE_NAME
350
2E
  3
ACMESTATEMGR
350
3B
  3
AcmeSysVarManager
350
32
  3
AcmSystemVariableManager
350
6A
  3
AD_APPL
350
208C7
  3
ADSYSVARMGR
350
208C6
  3
AmdtNamedDwgMgr
350
208B7
  3
AMG
350
3F
  3
AMGSNAPSETTINGS
350
73
  3
AMI_MASTER
350
208BF
  3
AUTOCAD_ASSEMBLIES_PROJECT
350
208CF
  3
Designer_Assemblies_SysVars
350
208CA
  3
DWGPROPS
350
21587
  3
FILENAME
350
217A
  3
GREFAM_MODULE
350
208C0
  3
ZWKSIZE
350
217C
  0
DICTIONARY
  5
20B33
330
2
100
AcDbDictionary
280
     1
281
     1
  3
ACAD_LAYERSTATES
360
20B34
  0
DICTIONARY
  5
165
330
1F
100
AcDbDictionary
280
     1
281
     1
  3
ACAD_SORTENTS
360
21082
  0
DICTIONARY
  5
20881
102
{ACAD_REACTORS
330
C
102
}
330
C
100
AcDbDictionary
281
     1
  0
DICTIONARY
  5
D
102
{ACAD_REACTORS
330
C
102
}
330
C
100
AcDbDictionary
281
     1
  0
DICTIONARY
  5
1A
102
{ACAD_REACTORS
330
C
102
}
330
C
100
AcDbDictionary
281
     1
  3
Model
350
22
  3
ﾚｲｱｳﾄ1
350
1E
  3
ﾚｲｱｳﾄ2
350
26
  0
DICTIONARY
  5
20880
102
{ACAD_REACTORS
330
C
102
}
330
C
100
AcDbDictionary
281
     1
  0
DICTIONARY
  5
17
102
{ACAD_REACTORS
330
C
102
}
330
C
100
AcDbDictionary
281
     1
  3
Standard
350
18
  0
DICTIONARY
  5
19
102
{ACAD_REACTORS
330
C
102
}
330
C
100
AcDbDictionary
281
     1
  0
ACDBDICTIONARYWDFLT
  5
E
102
{ACAD_REACTORS
330
C
102
}
330
C
100
AcDbDictionary
281
     1
  3
Normal
350
F
100
AcDbDictionaryWithDefault
340
F
  0
DICTIONARY
  5
20882
102
{ACAD_REACTORS
330
C
102
}
330
C
100
AcDbDictionary
281
     1
  3
Standard
350
20883
  0
ACAD_PROXY_OBJECT
  5
208E9
102
{ACAD_REACTORS
330
C
102
}
330
C
100
AcDbProxyObject
 90
      499
 91
      572
 95
       25
 70
     0
 93
      184
310
3FFFFFFFE00A028140285221D2E31B0B2483ECB65400AA
  0
DICTIONARY
  5
21584
102
{ACAD_REACTORS
330
C
102
}
330
C
100
AcDbDictionary
281
     1
  3
COLORDICT
350
21585
  3
MATERIALDICT
350
21586
  0
DICTIONARY
  5
30
102
{ACAD_REACTORS
330
C
102
}
330
C
100
AcDbDictionary
281
     1
  3
CTABLESTYLE
350
208FF
  3
HIDETEXT
350
21583
  3
INDEXCTL
350
21582
  0
ACAD_PROXY_OBJECT
  5
2089C
102
{ACAD_REACTORS
330
C
102
}
330
C
100
AcDbProxyObject
 90
      499
 91
      507
 95
       25
 70
     0
 93
      240
310
4C51A47A0000000000000000000000000000000000000000000000000000
330
2089D
330
2089E
330
2089F
330
208A0
330
208A1
330
208A2
330
208A3
330
208A4
330
208A5
330
208A6
330
208A7
330
208A8
330
208A9
330
208AA
330
208AB
330
208AC
330
208AD
330
208AE
330
208AF
330
208B0
330
208B1
330
208B2
330
208B3
330
208B4
330
208B5
330
208B6
 94
        0
  0
ACAD_PROXY_OBJECT
  5
20894
102
{ACAD_REACTORS
330
C
102
}
330
C
100
AcDbProxyObject
 90
      499
 91
      536
 95
       25
 70
     0
 93
       34
310
0400004280
  0
ACAD_PROXY_OBJECT
  5
208BC
102
{ACAD_REACTORS
330
C
102
}
330
C
100
AcDbProxyObject
 90
      499
 91
      542
 95
       25
 70
     0
 93
      114
310
04000041C080000000000000000000
  0
DICTIONARY
  5
4D
102
{ACAD_REACTORS
330
C
102
}
330
C
100
AcDbDictionary
281
     1
  3
AcmBOMDATA
350
4E
  3
AcmStdDictionary
350
17E
  3
AMDTSECTSYM_ARROWCOLOR
350
208DD
  0
ACAD_PROXY_OBJECT
  5
36
102
{ACAD_REACTORS
330
C
102
}
330
C
100
AcDbProxyObject
 90
      499
 91
      510
 95
       25
 70
     0
 93
       50
310
00010040400000
330
0
330
0
330
37
 94
        0
  0
ACAD_PROXY_OBJECT
  5
2F
102
{ACAD_REACTORS
330
C
102
}
330
C
100
AcDbProxyObject
 90
      499
 91
      505
 95
       25
 70
     0
 93
     3520
310
47805044C494E4540405184D5347202D20436F6D6D616E642043414E43454C4C45442E0141151492536014151549054D160141151492536014151549054D16014151549054D16014151549054D16014151549054D16014151549054D16014151549054D16014151549054D16014151549054D1601411312539150101461354
310
D1C80B4810DBDB5B585B990810D05390D1531311510B805044C494E4540405184D5347202D20436F6D6D616E642043414E43454C4C45442E014151549054D16014151549054D16014151549054D1601419156151153912014311D4925417D4D514915510D210101461354D1C80B4810DBDB5B585B990810D05390D15313115
310
10B80504554E444F80505584C494E4580506455854454E4480506455854454E4440405184D5347202D20436F6D6D616E642043414E43454C4C45442E01411353D591601419156151153912014151549054D16014115149253601411693D3D350101461354D1C80B4810DBDB5B585B990810D05390D1531311510B805055055
310
524745805055153415645404052D4D5347202D205050413A2020206465736B746F702E6172782046696C6556657273696F6E3A20392E322E302E34
  0
ACAD_PROXY_OBJECT
  5
2E
102
{ACAD_REACTORS
330
C
102
}
330
C
100
AcDbProxyObject
 90
      499
 91
      504
 95
       25
 70
     0
 93
      586
310
09000046408000000000000000001344E200000000000000000000000000000000000000000000000000000000000000000000000000000000000000000000000000000000AAA406AA80
360
33
360
34
360
35
360
37
360
6B
360
6C
360
20895
360
20896
360
20897
360
20898
360
20899
360
2089A
360
2089D
360
2089E
360
2089F
360
208A0
360
208A1
360
208A2
360
208A3
360
208A4
360
208A5
360
208A6
360
208A7
360
208A8
360
208A9
360
208AA
360
208AB
360
208AC
360
208AD
360
208AE
360
208AF
360
208B0
360
208B1
360
208B2
360
208B3
360
208B4
360
208B5
360
208B6
360
208C2
360
208C3
360
208C4
360
208C5
360
208CB
360
208CC
360
208CD
360
208CE
360
208D3
360
208D4
360
208D5
360
208D6
360
208D7
360
208D8
 94
        0
  0
ACAD_PROXY_OBJECT
  5
3B
102
{ACAD_REACTORS
330
C
102
}
330
C
100
AcDbProxyObject
 90
      499
 91
      515
 95
       25
 70
     0
 93
       50
310
09000042641280
  0
ACAD_PROXY_OBJECT
  5
32
102
{ACAD_REACTORS
330
C
102
}
330
C
100
AcDbProxyObject
 90
      499
 91
      507
 95
       25
 70
     0
 93
       48
310
903412000000
330
33
330
34
330
35
 94
        0
  0
ACAD_PROXY_OBJECT
  5
6A
102
{ACAD_REACTORS
330
C
102
}
330
C
100
AcDbProxyObject
 90
      499
 91
      507
 95
       25
 70
     0
 93
       40
310
90240E0000
330
6B
330
6C
 94
        0
  0
ACAD_PROXY_OBJECT
  5
208C7
102
{ACAD_REACTORS
330
C
102
}
330
C
100
AcDbProxyObject
 90
      499
 91
      552
 95
       25
 70
     0
 93
       42
310
000900004040
330
208C2
 94
        0
  0
ACAD_PROXY_OBJECT
  5
208C6
102
{ACAD_REACTORS
330
C
102
}
330
C
100
AcDbProxyObject
 90
      499
 91
      507
 95
       25
 70
     0
 93
        8
310
AA
  0
ACAD_PROXY_OBJECT
  5
208B7
102
{ACAD_REACTORS
330
C
102
}
330
C
100
AcDbProxyObject
 90
      499
 91
      541
 95
       25
 70
     0
 93
       42
310
000100005E80
330
20895
 94
        0
  0
DICTIONARY
  5
3F
102
{ACAD_REACTORS
330
C
102
}
330
C
100
AcDbDictionary
281
     1
  3
AcMgSettings
350
40
  3
AMGLAYCFG
350
42
  0
DICTIONARY
  5
73
102
{ACAD_REACTORS
330
C
102
}
330
C
100
AcDbDictionary
281
     1
  3
DIMENSION
350
62F
  3
FEA
350
630
  3
HATCH (1)
350
631
  3
HATCH (2)
350
632
  3
SYMBOLS
350
633
  0
ACAD_PROXY_OBJECT
  5
208BF
102
{ACAD_REACTORS
330
C
102
}
330
C
100
AcDbProxyObject
 90
      499
 91
      545
 95
       25
 70
     0
 93
       34
310
0500004280
  0
ACAD_PROXY_OBJECT
  5
208CF
102
{ACAD_REACTORS
330
C
102
}
330
C
100
AcDbProxyObject
 90
      499
 91
      555
 95
       25
 70
     0
 93
       98
310
0900004E400000000000000000
330
208D6
330
0
330
208D7
330
0
330
0
330
0
330
0
330
0
 94
        0
  0
ACAD_PROXY_OBJECT
  5
208CA
102
{ACAD_REACTORS
330
C
102
}
330
C
100
AcDbProxyObject
 90
      499
 91
      507
 95
       25
 70
     0
 93
       56
310
90441600000000
330
208CB
330
208CC
330
208CD
330
208CE
 94
        0
  0
XRECORD
  5
21587
102
{ACAD_REACTORS
330
C
102
}
330
C
100
AcDbXrecord
280
     1
  1
DWGPROPS COOKIE
  2

  3

  4

  6

  7

  8

  9

300
AmdtFileType=82
301
=
302
=
303
=
304
=
305
=
306
=
307
=
308
=
309
=
 40
0.0
 41
2451943.235431667
 42
2455436.007046077
  1

 90
        1
  0
DICTIONARY
  5
217A
102
{ACAD_REACTORS
330
C
102
}
330
C
100
AcDbDictionary
281
     1
  3
FILENAME
350
217B
  0
ACAD_PROXY_OBJECT
  5
208C0
102
{ACAD_REACTORS
330
C
102
}
330
C
100
AcDbProxyObject
 90
      499
 91
      546
 95
       25
 70
     0
 93
        8
310
05
  0
DICTIONARY
  5
217C
102
{ACAD_REACTORS
330
C
102
}
330
C
100
AcDbDictionary
281
     1
  3
ZWKSIZE
350
217D
  0
DICTIONARY
  5
20B34
102
{ACAD_REACTORS
330
20B33
102
}
330
20B33
100
AcDbDictionary
281
     1
  0
SORTENTSTABLE
  5
21082
102
{ACAD_REACTORS
330
165
102
}
330
165
100
AcDbSortentsTable
330
1F
331
0
  5
1EF59
331
1E45F
  5
1E45F
331
1E460
  5
1E460
331
1E461
  5
1E461
331
1E462
  5
1E462
331
1E47B
  5
1E47B
331
1E47F
  5
1E47F
331
1EF23
  5
1EF23
331
1EF24
  5
1EF24
331
1EF25
  5
1EF25
331
1EF26
  5
1EF26
331
1EF32
  5
1EF32
331
1EF33
  5
1EF33
331
1EF34
  5
1EF34
331
1EF37
  5
1EF37
331
1EF3E
  5
1EF3E
331
1EF3F
  5
1EF3F
331
1EF41
  5
1EF41
331
1EF42
  5
1EF42
331
1EF52
  5
1EF52
331
1EF53
  5
1EF53
331
1EF56
  5
1EF56
331
1EF57
  5
1EF57
331
1EF58
  5
1EF58
331
1EF5B
  5
1EF5B
331
1EF60
  5
1EF60
331
1EF61
  5
1EF61
331
1EF62
  5
1EF62
331
1EF63
  5
1EF63
331
1EF64
  5
1EF64
331
1EF66
  5
1EF66
331
1EF69
  5
1EF69
331
1EF6B
  5
1EF6B
331
1EF6E
  5
1EF6E
331
1EF6F
  5
1EF6F
331
1EF70
  5
1EF70
331
1EF71
  5
1EF71
331
1EF72
  5
1EF72
331
1EF73
  5
1EF73
331
1EF74
  5
1EF74
331
1EF8A
  5
1EF8A
331
1EF8B
  5
1EF8B
331
1EF92
  5
1EF92
331
1EF93
  5
1EF93
331
1EF94
  5
1EF94
331
1EF95
  5
1EF95
331
1EF96
  5
1EF96
331
1EF97
  5
1EF97
331
1EF9B
  5
1EF9B
331
1EF9C
  5
1EF9C
331
1EF9D
  5
1EF9D
331
1EFA1
  5
1EFA1
331
1EFA3
  5
1EFA3
331
1EFA4
  5
1EFA4
331
1EFA8
  5
1EFA8
331
1EFA9
  5
1EFA9
331
1EFAF
  5
1EFAF
331
1EFB4
  5
1EFB4
331
1EFB5
  5
1EFB5
331
1EFB6
  5
1EFB6
331
1EFB7
  5
1EFB7
331
1EFB8
  5
1EFB8
331
1EFB9
  5
1EFB9
331
1EFBA
  5
1EFBA
331
1EFCB
  5
1EFCB
331
1EFCC
  5
1EFCC
331
1EFCE
  5
1EFCE
331
1F054
  5
1F054
331
1F055
  5
1F055
331
1F059
  5
1F059
331
1F05A
  5
1F05A
331
1F05B
  5
1F05B
331
1F074
  5
1F074
331
1F076
  5
1F076
331
1F077
  5
1F077
331
1F079
  5
1F079
331
1F21F
  5
1F21F
331
1F221
  5
1F221
331
1F228
  5
1F228
331
1F27A
  5
1F27A
331
1F286
  5
1F286
331
1F287
  5
1F287
331
1F288
  5
1F288
331
1F289
  5
1F289
331
1F28B
  5
1F28B
331
1F28C
  5
1F28C
331
1F28D
  5
1F28D
331
1F2BF
  5
1F2BF
331
1F2E1
  5
1F2E1
331
1F2E3
  5
1F2E3
331
1F2E5
  5
1F2E5
331
1F320
  5
1F320
331
1F321
  5
1F321
331
1F322
  5
1F322
331
1F323
  5
1F323
331
1F324
  5
1F324
331
1F325
  5
1F325
331
1F326
  5
1F326
331
1F327
  5
1F327
331
1F328
  5
1F328
331
1F329
  5
1F329
331
1F32C
  5
1F32C
331
1F32D
  5
1F32D
331
1F331
  5
1F331
331
1F332
  5
1F332
331
1F333
  5
1F333
331
1F334
  5
1F334
331
1F337
  5
1F337
331
1F339
  5
1F339
331
1F33E
  5
1F33E
331
1F343
  5
1F343
331
1F344
  5
1F344
331
1F347
  5
1F347
331
1F348
  5
1F348
331
1F34A
  5
1F34A
331
1F34B
  5
1F34B
331
1F34C
  5
1F34C
331
1F34D
  5
1F34D
331
1F34E
  5
1F34E
331
1F350
  5
1F350
331
1F351
  5
1F351
331
1F354
  5
1F354
331
1F355
  5
1F355
331
1F356
  5
1F356
331
1F358
  5
1F358
331
1F359
  5
1F359
331
1F35A
  5
1F35A
331
1F35B
  5
1F35B
331
1F35D
  5
1F35D
331
1F35E
  5
1F35E
331
1F360
  5
1F360
331
1F361
  5
1F361
331
1F363
  5
1F363
331
1F364
  5
1F364
331
1F391
  5
1F391
331
1F392
  5
1F392
331
1F393
  5
1F393
331
1F396
  5
1F396
331
1F397
  5
1F397
331
1F398
  5
1F398
331
1F39E
  5
1F39E
331
1F39F
  5
1F39F
331
1F3A0
  5
1F3A0
331
1F3A1
  5
1F3A1
331
1F3A2
  5
1F3A2
331
1F3A3
  5
1F3A3
331
1F3A4
  5
1F3A4
331
1F3A5
  5
1F3A5
331
1F3A6
  5
1F3A6
331
1F3AB
  5
1F3AB
331
1F3AC
  5
1F3AC
331
1F3AD
  5
1F3AD
331
1F3B7
  5
1F3B7
331
1F3BB
  5
1F3BB
331
1F3BC
  5
1F3BC
331
1F3BD
  5
1F3BD
331
1F3BE
  5
1F3BE
331
1F3BF
  5
1F3BF
331
1F3C1
  5
1F3C1
331
1F3C3
  5
1F3C3
331
1F3C6
  5
1F3C6
331
1F3C7
  5
1F3C7
331
1F3C8
  5
1F3C8
331
1F3C9
  5
1F3C9
331
1F3CA
  5
1F3CA
331
1F3CB
  5
1F3CB
331
1F3CC
  5
1F3CC
331
1F3CD
  5
1F3CD
331
1F3CE
  5
1F3CE
331
1F3D0
  5
1F3D0
331
1F3D2
  5
1F3D2
331
1F3D6
  5
1F3D6
331
1F3D8
  5
1F3D8
331
1F3D9
  5
1F3D9
331
1F3DA
  5
1F3DA
331
1F3DD
  5
1F3DD
331
1F3DE
  5
1F3DE
331
1F3DF
  5
1F3DF
331
1F3E0
  5
1F3E0
331
1F3E1
  5
1F3E1
331
1F3E2
  5
1F3E2
331
1F3E4
  5
1F3E4
331
1F3E5
  5
1F3E5
331
1F3E6
  5
1F3E6
331
1F3E7
  5
1F3E7
331
1F3E8
  5
1F3E8
331
1F3E9
  5
1F3E9
331
1F3EC
  5
1F3EC
331
1F3ED
  5
1F3ED
331
1F3F1
  5
1F3F1
331
1F3F2
  5
1F3F2
331
1F3F4
  5
1F3F4
331
1F3FF
  5
1F3FF
331
1F418
  5
1F418
331
1F419
  5
1F419
331
1F41A
  5
1F41A
331
1F41B
  5
1F41B
331
1F41E
  5
1F41E
331
1F41F
  5
1F41F
331
1F421
  5
1F421
331
1F424
  5
1F424
331
1F42D
  5
1F42D
331
1F42E
  5
1F42E
331
1F42F
  5
1F42F
331
1F430
  5
1F430
331
1F431
  5
1F431
331
1F432
  5
1F432
331
1F433
  5
1F433
331
1F435
  5
1F435
331
1F436
  5
1F436
331
1F437
  5
1F437
331
1F438
  5
1F438
331
1F439
  5
1F439
331
1F43A
  5
1F43A
331
1F43B
  5
1F43B
331
1F440
  5
1F440
331
1F447
  5
1F447
331
1F44A
  5
1F44A
331
1F44B
  5
1F44B
331
1F44D
  5
1F44D
331
1F450
  5
1F450
331
1F452
  5
1F452
331
1F455
  5
1F455
331
1F456
  5
1F456
331
1F457
  5
1F457
331
1F458
  5
1F458
331
1F459
  5
1F459
331
1F45A
  5
1F45A
331
1F45B
  5
1F45B
331
1F45D
  5
1F45D
331
1F45F
  5
1F45F
331
1F460
  5
1F460
331
1F468
  5
1F468
331
1F46A
  5
1F46A
331
1F46C
  5
1F46C
331
1F46D
  5
1F46D
331
1F46F
  5
1F46F
331
1F699
  5
1F699
331
1F6C4
  5
1F6C4
331
1F74C
  5
1F74C
331
1F7DC
  5
1F7DC
331
1F864
  5
1F864
331
1F917
  5
1F917
331
1F9B5
  5
1F9B5
331
210F2
  5
210F2
331
2110F
  5
2110F
331
21167
  5
21167
  0
LAYOUT
  5
22
102
{ACAD_REACTORS
330
1A
102
}
330
1A
100
AcDbPlotSettings
  1

  2
SII LP-2150 (D-SCAN C2)
  4
User262
  6
AM_VIEW1
 40
3.174999952316284
 41
3.174999952316284
 42
3.17498779296875
 43
3.17498779296875
 44
296.9259948730469
 45
419.9889831542969
 46
0.0
 47
0.0
 48
0.0
 49
0.0
140
420.0
141
297.0
142
1.0
143
1.022107788374329
 70
 11952
 72
     1
 73
     1
 74
     4
  7
sei_cad.ctb
 75
     0
147
0.9783703943695685
148
0.0
149
0.0
100
AcDbLayout
  1
Model
 70
     1
 71
     0
 10
0.0
 20
0.0
 11
12.0
 21
9.0
 12
0.0
 22
0.0
 32
0.0
 14
0.0
 24
0.0
 34
0.0
 15
0.0
 25
0.0
 35
0.0
146
0.0
 13
0.0
 23
0.0
 33
0.0
 16
1.0
 26
0.0
 36
0.0
 17
0.0
 27
1.0
 37
0.0
 76
     0
330
1F
  0
LAYOUT
  5
1E
102
{ACAD_REACTORS
330
1A
102
}
330
1A
100
AcDbPlotSettings
  1

  2
Canon LASER SHOT LBP-2030
  4

  6

 40
0.0
 41
0.0
 42
0.0
 43
0.0
 44
0.0
 45
0.0
 46
0.0
 47
0.0
 48
0.0
 49
0.0
140
0.0
141
0.0
142
1.0
143
1.0
 70
   688
 72
     0
 73
     0
 74
     5
  7
sei_cad.ctb
 75
    16
147
1.0
148
0.0
149
0.0
100
AcDbLayout
  1
ﾚｲｱｳﾄ1
 70
     1
 71
     1
 10
0.0
 20
0.0
 11
420.0
 21
297.0
 12
0.0
 22
0.0
 32
0.0
 14
1.000000000000000E+20
 24
1.000000000000000E+20
 34
1.000000000000000E+20
 15
-1.000000000000000E+20
 25
-1.000000000000000E+20
 35
-1.000000000000000E+20
146
0.0
 13
0.0
 23
0.0
 33
0.0
 16
1.0
 26
0.0
 36
0.0
 17
0.0
 27
1.0
 37
0.0
 76
     0
330
1B
  0
LAYOUT
  5
26
102
{ACAD_REACTORS
330
1A
102
}
330
1A
100
AcDbPlotSettings
  1

  2
Canon LASER SHOT LBP-2030
  4

  6

 40
0.0
 41
0.0
 42
0.0
 43
0.0
 44
0.0
 45
0.0
 46
0.0
 47
0.0
 48
0.0
 49
0.0
140
0.0
141
0.0
142
1.0
143
1.0
 70
   688
 72
     0
 73
     0
 74
     5
  7
sei_cad.ctb
 75
    16
147
1.0
148
0.0
149
0.0
100
AcDbLayout
  1
ﾚｲｱｳﾄ2
 70
     1
 71
     2
 10
0.0
 20
0.0
 11
12.0
 21
9.0
 12
0.0
 22
0.0
 32
0.0
 14
0.0
 24
0.0
 34
0.0
 15
0.0
 25
0.0
 35
0.0
146
0.0
 13
0.0
 23
0.0
 33
0.0
 16
1.0
 26
0.0
 36
0.0
 17
0.0
 27
1.0
 37
0.0
 76
     0
330
23
  0
MLINESTYLE
  5
18
102
{ACAD_REACTORS
330
17
102
}
330
17
100
AcDbMlineStyle
  2
STANDARD
 70
     0
  3

 62
   256
 51
90.0
 52
90.0
 71
     2
 49
0.5
 62
   256
  6
BYLAYER
 49
-0.5
 62
   256
  6
BYLAYER
  0
ACDBPLACEHOLDER
  5
F
102
{ACAD_REACTORS
330
E
102
}
330
E
  0
TABLESTYLE
  5
20883
102
{ACAD_REACTORS
330
20882
102
}
330
20882
100
AcDbTableStyle
  3
Standard
 70
     0
 71
     0
 40
1.5
 41
1.5
280
     0
281
     0
  7
STANDARD
140
4.5
170
     2
 62
     0
 63
     7
283
     0
274
    -2
284
     1
 64
     0
275
    -2
285
     1
 65
     0
276
    -2
286
     1
 66
     0
277
    -2
287
     1
 67
     0
278
    -2
288
     1
 68
     0
279
    -2
289
     1
 69
     0
  7
STANDARD
140
6.0
170
     5
 62
     0
 63
     7
283
     0
274
    -2
284
     1
 64
     0
275
    -2
285
     1
 65
     0
276
    -2
286
     1
 66
     0
277
    -2
287
     1
 67
     0
278
    -2
288
     1
 68
     0
279
    -2
289
     1
 69
     0
  7
STANDARD
140
4.5
170
     5
 62
     0
 63
     7
283
     0
274
    -2
284
     1
 64
     0
275
    -2
285
     1
 65
     0
276
    -2
286
     1
 66
     0
277
    -2
287
     1
 67
     0
278
    -2
288
     1
 68
     0
279
    -2
289
     1
 69
     0
  0
XRECORD
  5
21585
102
{ACAD_REACTORS
330
21584
102
}
330
21584
100
AcDbXrecord
280
     1
340
20881
  0
XRECORD
  5
21586
102
{ACAD_REACTORS
330
21584
102
}
330
21584
100
AcDbXrecord
280
     1
340
20880
  0
DICTIONARYVAR
  5
208FF
102
{ACAD_REACTORS
330
30
102
}
330
30
100
DictionaryVariables
280
     0
  1
STANDARD
  0
DICTIONARYVAR
  5
21583
102
{ACAD_REACTORS
330
30
102
}
330
30
100
DictionaryVariables
280
     0
  1
0
  0
DICTIONARYVAR
  5
21582
102
{ACAD_REACTORS
330
30
102
}
330
30
100
DictionaryVariables
280
     0
  1
1
  0
ACAD_PROXY_OBJECT
  5
4E
102
{ACAD_REACTORS
330
4D
102
}
330
4D
100
AcDbProxyObject
 90
      499
 91
      520
 95
       25
 70
     0
 93
      118
310
405010040CA904C415CD5B075DD0C8
350
4F
 94
        0
  0
DICTIONARY
  5
17E
102
{ACAD_REACTORS
330
4D
102
}
330
4D
100
AcDbDictionary
281
     1
  3
JIS
350
17F
  0
XRECORD
  5
208DD
102
{ACAD_REACTORS
330
4D
102
}
330
4D
100
AcDbXrecord
280
     1
 90
-1023410169
  0
ACAD_PROXY_OBJECT
  5
33
330
2E
100
AcDbProxyObject
 90
      499
 91
      508
 95
       25
 70
     0
 93
      156
310
00010143D050D351505391D5531054925390D490
330
2E
 94
        0
  0
ACAD_PROXY_OBJECT
  5
34
330
2E
100
AcDbProxyObject
 90
      499
 91
      508
 95
       25
 70
     0
 93
      148
310
000101439050D351531253915054925390D490
330
2E
 94
        0
  0
ACAD_PROXY_OBJECT
  5
35
330
2E
100
AcDbProxyObject
 90
      499
 91
      509
 95
       25
 70
     0
 93
      156
310
000101439050D35154D6535093D314D256915080
330
2E
 94
        0
  0
ACAD_PROXY_OBJECT
  5
37
330
2E
100
AcDbProxyObject
 90
      499
 91
      511
 95
       25
 70
     0
 93
       88
310
000101411093D34C402B00
330
2E
330
0
330
0
 94
        0
  0
ACAD_PROXY_OBJECT
  5
6B
330
2E
100
AcDbProxyObject
 90
      499
 91
      509
 95
       25
 70
     0
 93
      108
310
00010142505351D153D35054D4E0
330
2E
 94
        0
  0
ACAD_PROXY_OBJECT
  5
6C
330
2E
100
AcDbProxyObject
 90
      499
 91
      522
 95
       25
 70
     0
 93
      140
310
00010142105350D55494D511005034A49530
330
2E
 94
        0
  0
ACAD_PROXY_OBJECT
  5
20895
330
2E
100
AcDbProxyObject
 90
      499
 91
      537
 95
       25
 70
     0
 93
      358
310
0001014124FEA55D00507392E312E302E34014124FEA55D00507392E322E302E3240501000041505391D311658
330
2E
330
20896
330
2089C
 94
        0
  0
ACAD_PROXY_OBJECT
  5
20896
330
2E
100
AcDbProxyObject
 90
      499
 91
      538
 95
       25
 70
     0
 93
       56
310
000190240E0000
330
2E
330
20897
330
20899
 94
        0
  0
ACAD_PROXY_OBJECT
  5
20897
330
2E
100
AcDbProxyObject
 90
      499
 91
      539
 95
       25
 70
     0
 93
       48
310
0001AA000000
330
2E
330
1E
330
20898
330
0
 94
        0
  0
ACAD_PROXY_OBJECT
  5
20898
330
2E
100
AcDbProxyObject
 90
      499
 91
      540
 95
       25
 70
     0
 93
       28
310
0001AAA0
330
2E
 94
        0
  0
ACAD_PROXY_OBJECT
  5
20899
330
2E
100
AcDbProxyObject
 90
      499
 91
      539
 95
       25
 70
     0
 93
       48
310
0001AA000000
330
2E
330
26
330
2089A
330
0
 94
        0
  0
ACAD_PROXY_OBJECT
  5
2089A
330
2E
100
AcDbProxyObject
 90
      499
 91
      540
 95
       25
 70
     0
 93
       28
310
0001AAA0
330
2E
 94
        0
  0
ACAD_PROXY_OBJECT
  5
2089D
330
2E
100
AcDbProxyObject
 90
      499
 91
      509
 95
       25
 70
     0
 93
      108
310
000101421053521310D05310D010
330
2E
 94
        0
  0
ACAD_PROXY_OBJECT
  5
2089E
330
2E
100
AcDbProxyObject
 90
      499
 91
      509
 95
       25
 70
     0
 93
      124
310
00010142905354915554D15112535010
330
2E
 94
        0
  0
ACAD_PROXY_OBJECT
  5
2089F
330
2E
100
AcDbProxyObject
 90
      499
 91
      509
 95
       25
 70
     0
 93
      132
310
00010143105354D150D51253D391125360
330
2E
 94
        0
  0
ACAD_PROXY_OBJECT
  5
208A0
330
2E
100
AcDbProxyObject
 90
      499
 91
      509
 95
       25
 70
     0
 93
      124
310
00010142905355941093D49111549010
330
2E
 94
        0
  0
ACAD_PROXY_OBJECT
  5
208A1
330
2E
100
AcDbProxyObject
 90
      499
 91
      509
 95
       25
 70
     0
 93
      116
310
0001014290535115D1D0D3D313D4A0
330
2E
 94
        0
  0
ACAD_PROXY_OBJECT
  5
208A2
330
2E
100
AcDbProxyObject
 90
      499
 91
      509
 95
       25
 70
     0
 93
      148
310
00010143505355925155D49151949154D21010
330
2E
 94
        0
  0
ACAD_PROXY_OBJECT
  5
208A3
330
2E
100
AcDbProxyObject
 90
      499
 91
      509
 95
       25
 70
     0
 93
      172
310
00010144105350539393D51154149154D15495915010
330
2E
 94
        0
  0
ACAD_PROXY_OBJECT
  5
208A4
330
2E
100
AcDbProxyObject
 90
      499
 91
      509
 95
       25
 70
     0
 93
      172
310
00010144105350555513D11253505494905391D15010
330
2E
 94
        0
  0
ACAD_PROXY_OBJECT
  5
208A5
330
2E
100
AcDbProxyObject
 90
      499
 91
      509
 95
       25
 70
     0
 93
      124
310
00010142D05351561514915191125360
330
2E
 94
        0
  0
ACAD_PROXY_OBJECT
  5
208A6
330
2E
100
AcDbProxyObject
 90
      499
 91
      509
 95
       25
 70
     0
 93
      132
310
00010142D05355105410539393D5115010
330
2E
 94
        0
  0
ACAD_PROXY_OBJECT
  5
208A7
330
2E
100
AcDbProxyObject
 90
      499
 91
      509
 95
       25
 70
     0
 93
      108
310
00010142105350555513D0D31010
330
2E
 94
        0
  0
ACAD_PROXY_OBJECT
  5
208A8
330
2E
100
AcDbProxyObject
 90
      499
 91
      509
 95
       25
 70
     0
 93
      108
310
00010142105350D3119150551050
330
2E
 94
        0
  0
ACAD_PROXY_OBJECT
  5
208A9
330
2E
100
AcDbProxyObject
 90
      499
 91
      509
 95
       25
 70
     0
 93
      108
310
00010142105350D315925155D3F0
330
2E
 94
        0
  0
ACAD_PROXY_OBJECT
  5
208AA
330
2E
100
AcDbProxyObject
 90
      499
 91
      509
 95
       25
 70
     0
 93
      148
310
0001014350535212511156915493D112535010
330
2E
 94
        0
  0
ACAD_PROXY_OBJECT
  5
208AB
330
2E
100
AcDbProxyObject
 90
      499
 91
      509
 95
       25
 70
     0
 93
      124
310
00010142905352105510D21254D3D010
330
2E
 94
        0
  0
ACAD_PROXY_OBJECT
  5
208AC
330
2E
100
AcDbProxyObject
 90
      499
 91
      509
 95
       25
 70
     0
 93
      148
310
00010143905354D25391D31152105513105660
330
2E
 94
        0
  0
ACAD_PROXY_OBJECT
  5
208AD
330
2E
100
AcDbProxyObject
 90
      499
 91
      509
 95
       25
 70
     0
 93
      124
310
00010142D0535115D1D193111254D420
330
2E
 94
        0
  0
ACAD_PROXY_OBJECT
  5
208AE
330
2E
100
AcDbProxyObject
 90
      499
 91
      509
 95
       25
 70
     0
 93
      100
310
00010142105350555513D213A0
330
2E
 94
        0
  0
ACAD_PROXY_OBJECT
  5
208AF
330
2E
100
AcDbProxyObject
 90
      499
 91
      509
 95
       25
 70
     0
 93
      116
310
000101425053521390D3D553951010
330
2E
 94
        0
  0
ACAD_PROXY_OBJECT
  5
208B0
330
2E
100
AcDbProxyObject
 90
      499
 91
      509
 95
       25
 70
     0
 93
      108
310
0001014210535213941493D29010
330
2E
 94
        0
  0
ACAD_PROXY_OBJECT
  5
208B1
330
2E
100
AcDbProxyObject
 90
      499
 91
      509
 95
       25
 70
     0
 93
      108
310
0001014210535213951654115070
330
2E
 94
        0
  0
ACAD_PROXY_OBJECT
  5
208B2
330
2E
100
AcDbProxyObject
 90
      499
 91
      509
 95
       25
 70
     0
 93
      108
310
000101421053521395925155D0F0
330
2E
 94
        0
  0
ACAD_PROXY_OBJECT
  5
208B3
330
2E
100
AcDbProxyObject
 90
      499
 91
      509
 95
       25
 70
     0
 93
      140
310
00010143505354D150D51253D390D3D41660
330
2E
 94
        0
  0
ACAD_PROXY_OBJECT
  5
208B4
330
2E
100
AcDbProxyObject
 90
      499
 91
      509
 95
       25
 70
     0
 93
      108
310
00010142105350D3141493D29030
330
2E
 94
        0
  0
ACAD_PROXY_OBJECT
  5
208B5
330
2E
100
AcDbProxyObject
 90
      499
 91
      508
 95
       25
 70
     0
 93
      212
310
00010143905350555513D2105510D21493D500000000000002E400
330
2E
 94
        0
  0
ACAD_PROXY_OBJECT
  5
208B6
330
2E
100
AcDbProxyObject
 90
      499
 91
      509
 95
       25
 70
     0
 93
      156
310
00010143905350555513D2105510D21111551010
330
2E
 94
        0
  0
ACAD_PROXY_OBJECT
  5
208C2
330
2E
100
AcDbProxyObject
 90
      499
 91
      548
 95
       25
 70
     0
 93
      698
310
0001000000009AA6A9AA4051E546875204D61722030332030363A30383A343620323030352028555443290141CE4B8C4B8C0B8D00518467269204175672032372030393A31303A303820323031300141CE4B8C8B8C0B8C80
330
2E
330
208C3
330
208C4
330
208C6
330
0
 94
        0
  0
ACAD_PROXY_OBJECT
  5
208C3
330
2E
100
AcDbProxyObject
 90
      499
 91
      549
 95
       25
 70
     0
 93
       70
310
0001AAA80820000000
330
2E
330
208C3
330
208C3
 94
        0
  0
ACAD_PROXY_OBJECT
  5
208C4
330
2E
100
AcDbProxyObject
 90
      499
 91
      550
 95
       25
 70
     0
 93
       48
310
000100000000
330
2E
330
0
330
208C5
330
0
330
0
 94
        0
  0
ACAD_PROXY_OBJECT
  5
208C5
330
2E
100
AcDbProxyObject
 90
      499
 91
      551
 95
       25
 70
     0
 93
       40
310
000100AAAA
330
2E
330
0
 94
        0
  0
ACAD_PROXY_OBJECT
  5
208CB
330
2E
100
AcDbProxyObject
 90
      499
 91
      522
 95
       25
 70
     0
 93
      180
310
00010143105050D3D35411119390535140504434F4D500
330
2E
 94
        0
  0
ACAD_PROXY_OBJECT
  5
208CC
330
2E
100
AcDbProxyObject
 90
      499
 91
      522
 95
       25
 70
     0
 93
      212
310
0001014390505193D311115491119390535140506466F6C6465720
330
2E
 94
        0
  0
ACAD_PROXY_OBJECT
  5
208CD
330
2E
100
AcDbProxyObject
 90
      499
 91
      522
 95
       25
 70
     0
 93
      180
310
00010143105050539393D1119390535140504284156290
330
2E
 94
        0
  0
ACAD_PROXY_OBJECT
  5
208CE
330
2E
100
AcDbProxyObject
 90
      499
 91
      522
 95
       25
 70
     0
 93
      436
310
00010143905050D3D35415925155D31254D50052295BD96CA0A90B396CA0A894591A496CA0A8DB691A496CA0A89BA96CA0A95E28F95310
330
2E
 94
        0
  0
ACAD_PROXY_OBJECT
  5
208D3
330
2E
100
AcDbProxyObject
 90
      499
 91
      556
 95
       25
 70
     0
 93
       32
310
00010000
330
2E
340
208D0
330
208D5
330
208D0
 94
        0
  0
ACAD_PROXY_OBJECT
  5
208D4
330
2E
100
AcDbProxyObject
 90
      499
 91
      557
 95
       25
 70
     0
 93
       18
310
000180
330
2E
 94
        0
  0
ACAD_PROXY_OBJECT
  5
208D5
330
2E
100
AcDbProxyObject
 90
      499
 91
      558
 95
       25
 70
     0
 93
      210
310
00010143D115148D4D54548C8D4C8D4B534C4DD050055401550000
330
2E
330
208D3
330
208D4
 94
        0
  0
ACAD_PROXY_OBJECT
  5
208D6
330
2E
100
AcDbProxyObject
 90
      499
 91
      559
 95
       25
 70
     0
 93
      178
310
000100AAAAAA826F2482A98205D363499D549B7C10F800
330
2E
330
208D5
 94
        0
  0
ACAD_PROXY_OBJECT
  5
208D7
330
2E
100
AcDbProxyObject
 90
      499
 91
      560
 95
       25
 70
     0
 93
      108
310
000190140A000000000000AAAAA0
330
2E
330
208D8
330
208D8
330
208D8
330
208D8
330
208D8
330
0
 94
        0
  0
ACAD_PROXY_OBJECT
  5
208D8
330
2E
100
AcDbProxyObject
 90
      499
 91
      561
 95
       25
 70
     0
 93
       51
310
00010000AAAA80
330
2E
330
208D7
330
208D5
 94
        0
  0
DICTIONARY
  5
40
102
{ACAD_REACTORS
330
3F
102
}
330
3F
100
AcDbDictionary
281
     1
  3
DWGSETTINGS
350
41
  3
FEM
350
69
  3
Shaft
350
56
  3
TRANSSETTINGS
350
4C
  0
ACAD_PROXY_OBJECT
  5
42
102
{ACAD_REACTORS
330
3F
102
}
330
3F
100
AcDbProxyObject
 90
      499
 91
      519
 95
       25
 70
     0
 93
    23232
310
41502491013041105357CC201C00030C011E441013141105357CC603800030C011E441013241105357CCA01400030C011E441013341105357CCE01800030C010D9013441105357CD200C00030C010D9013541105357CD600C00030C010D9013641105357CDA00800030C011E9013741105357CDE01000030C010D901384110
310
5357CE200400030C011E9013941105357CE63F400030C0241102324141505357CC4C201C00030C011E902344141505357CC4C600C00030C010D902495041505357CC4CA01C00030C011E40902304E41505357CC13A01C00030C011E902314E41505357CC53A03800030C011E902324E41505357CC93A01400030C011E90233
310
4E41505357CCD3A01800030C010D902344E41505357CD13A00C00030C010D902354E41505357CD53A00C00030C010D902364E41505357CD93A00800030C011E902374E41505357CDD3A01000030C010D902384E41505357CE13A00400030C011E902394E41505357CE53A3F400030C024110332414E41905357CC4C13A01C0
310
0030C011E90334414E41905357CC4C53A00C00030C010D90349504E41905357CC4C93A01C00030C011E409044B4C494E41505357D0D3200400030C011E42504494E464F42105357D410549151A01000030C010D42D055241484D3541905357D093D4A01C00030C011E425045649455742105357D5925155D4E00400030C011
310
E42D06424548494E4441905357D25395A3F400030C0243505545241494C41505357D514A00C00030C010D4250348494441905357D21251201C00030C011E4250356495341905357D59254E01C00030C011E4250650415244494D42505357D41054911253600C00030C010D4250652454644494D42505357D49151911253601
310
000030C010D425774110531514901348070000C300479034110915312501348000000C0003FFFFFFFD034110921395901398000000C0003FFFFFFFE415092139594D06424548494E448000000C0003FFFFFFFE411093125110234418000000C0003FFFFFFFD03411093D05410234418000000C0003FFFFFFFD03411093D48C
310
9055241484D358010000C30047A411093D48CD055241484D358020000C30047A411093D48D5055241484D358000000C0003FFFFFFFE411093D48DD055241484D3581E0000C30047903411094105410234418000000C0003FFFFFFFD03411094115610234418000000C0003FFFFFFFD034110951112501358000000C0003FFF
310
FFFFD034110D0530C901348000000C0003FFFFFFFE4110D0530CD01348020000C30047A4110D0530D501348070000C30047A4110D0530DD013481E0000C30047A4110D15393901378000000C0003FFFFFFFE4110D15395D01378000000C0003FFFFFFFE4110D312539044B4C494E8000000C0003FFFFFFFE4110D3D38C5013
310
08000000C0003FFFFFFFD034110D3D38C901318000000C0003FFFFFFFD034110D3D38CD01328000000C0003FFFFFFFD034110D3D38D101328000000C0003FFFFFFFD034111115494101348000000C0003FFFFFFFD034111115510501348000000C0003FFFFFFFE4111125051D01358000000C0003FFFFFFFE4111125312501
310
358000000C0003FFFFFFFE411112535410650415244494D8000000C0003FFFFFFFE411112535490652454644494D8000000C0003FFFFFFFE411156135410234418000000C0003FFFFFFFD034111915353901388000000C0003FFFFFFFE415191535413901388030000C3004364151915354D410234418000000C0003FFFFFF
310
FE4151915354D510234418030000C300436415191535593901328000000C0003FFFFFFFE415191535595101328030000C3004364111931055101308000000C0003FFFFFFFD03411194905490234418000000C0003FFFFFFFD034111D49312501358000000C0003FFFFFFFD034111D5931250234418000000C0003FFFFFFFD0
310
34112105510D01388000000C0003FFFFFFFD014112125113901338000000C0003FFFFFFFD034112125115D01338000000C0003FFFFFFFD034112131253901348000000C0003FFFFFFFD01411213D0D3901378000000C0003FFFFFFFE411213D0D5D01378000000C0003FFFFFFFE4112539193D04494E464F8000000C0003FF
310
FFFFFE4113105112501348000000C0003FFFFFFFD034113115051101358000000C0003FFFFFFFE419397D0921395902394E8000000C0003FFFFFFFE419397D0D3D38C502304E8000000C0003FFFFFFFD03419397D0D3D38C902314E8000000C0003FFFFFFFD03419397D0D3D38CD02324E8000000C0003FFFFFFFD03419397
310
D0D3D38D102324E8000000C0003FFFFFFFD03419397D0D15393902374E8000000C0003FFFFFFFE419397D0D15395D02374E8000000C0003FFFFFFFE419397D1125312502354E8000000C0003FFFFFFFE419397D2105510D02384E8000000C0003FFFFFFFD01419397D2125113902334E8000000C0003FFFFFFFD03419397D2
310
125115D02334E8000000C0003FFFFFFFD03419397D3115051102354E8000000C0003FFFFFFFE419397D391D25410349504E8000000C0003FFFFFFFE419397D412105390334414E8000000C0003FFFFFFFE419397D510D3D3902304E8000000C0003FFFFFFFD03419397D5121312502344E8000000C0003FFFFFFFD01419397
310
D5131153902304E8000000C0003FFFFFFFD03419397D516150CD02364E8000000C0003FFFFFFFD03419397D594131250332414E8000000C0003FFFFFFFE411391D25410249508000000C0003FFFFFFFE411410530C9055241484D358010000C30047A411410530CD055241484D358020000C30047A411410530D5055241484
310
D358000000C0003FFFFFFFE411410530DD055241484D3581E0000C30047903411412105390234418000000C0003FFFFFFFE411413D4D3901368070000C30047A419413D4D49151901368050000C30047903411413D4D6101368000000C0003FFFFFFFD03411414D150D0234418000000C0003FFFFFFFD03411490D1D390137
310
8000000C0003FFFFFFFE411490D1D5D01378000000C0003FFFFFFFE4114919112501348000000C0003FFFFFFFD034114945514901348070000C30047903411494D093D01348000000C0003FFFFFFFD034114D09492D01348000000C0003FFFFFFFD014114D0D153901378000000C0003FFFFFFFD034114D150D51013480000
310
00C0003FFFFFFFD014114D15313901378000000C0003FFFFFFFD034114D15315D01378000000C0003FFFFFFFD034114D4D654D01308000000C0003FFFFFFFD034114D51312501348070000C300479034114D6508C501358000000C0003FFFFFFFD034114D6508C901358000000C0003FFFFFFFD034114D6508CD0135802000
310
0C30047A4114D6508D501358070000C300479034114D65353901378000000C0003FFFFFFFD034114D65355D01378000000C0003FFFFFFFD03411510D3D3901308000000C0003FFFFFFFD034115121312501348000000C0003FFFFFFFD01411512550C9055241484D358010000C30047A411512550CD055241484D358020000
310
C30047A411512550D5055241484D358000000C0003FFFFFFFE411512550DD055241484D3581E0000C300479034115131153901308000000C0003FFFFFFFD03415514905253105545241494C8000000C0003FFFFFFFE41151492D3901378000000C0003FFFFFFFD0341151492D5D01378000000C0003FFFFFFFD03411514931
310
2501348000000C0003FFFFFFFD01411516150C501368030000C300436411516150C901368030000C300436411516150CD01368000000C0003FFFFFFFE411516150D501368070000C30047A411516150DD013681E0000C30047A4115925155D04564945578000000C0003FFFFFFFE41159151121034849448000000C0003FFF
310
FFFFD0241159151159035649538000000C0003FFFFFFFD02411594131250232418000000C0003FFFFFFFE4116925690501348000000C0003FFFFFFFD01411354D653501358020000C30047AAAA3F400030C01013F90A4391E41D1E4190D4151E4110D40D0D4091E4051E4791E7F6
340
16
340
16
340
16
340
43
340
16
340
16
340
16
340
44
340
16
340
16
340
44
340
45
340
16
340
16
340
16
340
16
340
43
340
16
340
16
340
16
340
44
340
16
340
16
340
44
340
45
340
16
340
46
340
16
340
16
340
16
340
16
340
16
340
43
340
16
340
16
340
16
340
47
340
15
340
15
340
15
340
15
340
15
340
15
340
15
340
15
340
15
340
15
340
15
340
15
340
15
340
15
340
15
340
15
340
48
340
15
340
15
340
15
340
15
340
15
340
15
340
15
340
15
340
15
340
15
340
15
340
15
340
15
340
15
340
15
340
16
340
15
340
15
340
15
340
15
340
15
340
15
340
15
340
15
340
47
340
15
340
15
340
48
340
15
340
15
340
15
340
15
340
15
340
15
340
15
340
15
340
15
340
48
340
15
340
15
340
15
340
47
340
15
340
15
340
15
340
15
340
15
340
15
340
15
340
15
340
15
340
15
340
15
340
15
340
15
340
15
340
15
340
15
340
15
340
15
340
15
340
48
340
15
340
15
340
48
340
15
340
15
340
16
340
15
340
48
340
15
340
15
340
47
340
15
340
15
340
16
340
15
340
48
340
15
340
15
340
15
340
15
340
15
340
15
340
15
340
15
340
15
340
48
340
15
340
15
340
15
340
15
340
15
340
15
340
15
340
15
340
15
340
15
340
15
340
4B
340
16
 94
        0
  0
ACAD_PROXY_OBJECT
  5
62F
102
{ACAD_REACTORS
330
73
102
}
330
73
100
AcDbProxyObject
 90
      499
 91
      523
 95
       25
 70
     0
 93
      253
310
43D1444494D454E53494F4E2C414D44545F2A5F44494D404A9012A404A9012A0
  0
ACAD_PROXY_OBJECT
  5
630
102
{ACAD_REACTORS
330
73
102
}
330
73
100
AcDbProxyObject
 90
      499
 91
      523
 95
       25
 70
     0
 93
      181
310
43D012A42D05357D191504B505357CA9012A404A9012A8
  0
ACAD_PROXY_OBJECT
  5
631
102
{ACAD_REACTORS
330
73
102
}
330
73
100
AcDbProxyObject
 90
      499
 91
      523
 95
       25
 70
     0
 93
      133
310
43D054841544348404A9012A404A9012A8
  0
ACAD_PROXY_OBJECT
  5
632
102
{ACAD_REACTORS
330
73
102
}
330
73
100
AcDbProxyObject
 90
      499
 91
      523
 95
       25
 70
     0
 93
      549
310
43D044C494E4549CE0B0E138B0A8B4E0B0A8B4E138B105357CE0B105357CE138B0A8B505357CE0B0A8B505357CE139012A404A910494E534552542C5354445041525432448
  0
ACAD_PROXY_OBJECT
  5
633
102
{ACAD_REACTORS
330
73
102
}
330
73
100
AcDbProxyObject
 90
      499
 91
      523
 95
       25
 70
     0
 93
      909
310
43D6641434D46434652414D452C41434D444154554D5441524745542C41434D444154554D49442C41434D57454C4453594D2C41434D5355524653594D2C41434D4645415449442C41434D504152545245462C41434D42414C4C4F4F4E2C414D44544544474553594D404A9012A404A9012A8
  0
XRECORD
  5
217B
102
{ACAD_REACTORS
330
217A
102
}
330
217A
100
AcDbXrecord
280
     1
  1
21000753__00___
  0

  0
XRECORD
  5
217D
102
{ACAD_REACTORS
330
217C
102
}
330
217C
100
AcDbXrecord
280
     1
  1
3
  0

  0
ACAD_PROXY_OBJECT
  5
4F
102
{ACAD_REACTORS
330
4E
102
}
330
4E
100
AcDbProxyObject
 90
      499
 91
      521
 95
       25
 70
     0
 93
      157
310
057356C1D77406406AA8FFFFFFFF05DD01009010
330
1F
330
0
330
208D5
 94
        0
  0
ACAD_PROXY_OBJECT
  5
17F
102
{ACAD_REACTORS
330
17E
102
}
330
17E
100
AcDbProxyObject
 90
      499
 91
      526
 95
       25
 70
     0
 93
     2379
310
5DC33333333333309408000000C00040D29254D01640600800030C0200800030C003333333333330940C8121E8720B1B6A9BAB9332A32BC3A29BA3220480A1282C6DA8C868CA6E8C88120286A0B1B6ABB2B63234B733A9BA3220480A1082C6DA92C8A6E8C88120285A0B1B6A230BA3AB6A9BA3220480A1282C6DA849E9AA6E
310
8C88120286A0B1A0B6B3AA34BA3632A9BA3220480A2082DAC8E888CAE8C2D2D8A6F2DAA6E8C88120288A0B6B23A29B2B1BA34B7B729BCB6A9BA3220480A2282DAC8E886CADCE8CAE498D2DCCAA6E8C88120288A0B6B23A2A343932B0B22634B732A9BA3220480A1682DAC8E89CDEE8CAA6E8C88120285A0B1A0B6B3A630BCA
310
9BA3220480A1682C682DACE88D2DAA6E8C88120288A0B1A0B6B3A437B632A1B430B93A29BA3220480C812020
340
180
360
181
360
182
360
183
360
184
360
185
360
186
360
208DA
360
208DB
360
208DC
360
208DE
360
208DF
360
208E0
360
208E6
360
208E7
360
208E8
340
0
340
0
 94
        0
  0
ACAD_PROXY_OBJECT
  5
41
102
{ACAD_REACTORS
330
40
102
}
330
40
100
AcDbProxyObject
 90
      499
 91
      518
 95
       25
 70
     0
 93
     2978
310
4050B44574753455454494E4753A0E8482A68AA6A88882A069492A684A1A0A723A0A92920ACA0A81969B1820C868A9C829C8E82A12686AF87260F862666A8321A2A72224A0A50602A2140ECC009A020E868A9C889282A682A106260F86460F8666083A1A2A72224A9AA250000000000000042020C868A9C988A9C940000000
310
00000048808321A2A727A323250000000000000122020E868A9C9E8C8C62940000000000000488083A1A2A727A32319250000000000000122021CC6D0C2DACCCAE4C8D2DADADEC8CA9FC84A1A624A720A92920ACA0A8298981718182108698929C8AA8B2A082A0AB098929C8A84A22BA3AAA9A1A0A622A50A0E9882A6A89E8
310
49482A02608426A0A5A2AB24A2ABA7E8120CA0A68682988A0C00800010652455649534941501304154D0D0531150540CC4E8C5085354414E44415244415034A4953425512535154D51053541282F4E1C6C5B4ADCD050756455253494F4E4150531352E3030441ED115D1D4D15515125391D4D153911F40
  0
ACAD_PROXY_OBJECT
  5
69
102
{ACAD_REACTORS
330
40
102
}
330
40
100
AcDbProxyObject
 90
      499
 91
      518
 95
       25
 70
     0
 93
      411
310
4050346454D21092DCC6E486DECACC942842630BCA3B937BAB820A8320A6AFA322A0A20F688AE8EA68AA8A8929C8EA68A9C88FA0
  0
ACAD_PROXY_OBJECT
  5
56
102
{ACAD_REACTORS
330
40
102
}
330
40
100
AcDbProxyObject
 90
      499
 91
      518
 95
       25
 70
     0
 93
      583
310
40505536861667421292DCE8CAE4E4EAE0E89FA0484A634B3B43A2634B732A7F21A98D2CED0E898D2DCCAACD2CAEE9FC8229B4B232A7E80A20F688AE8EA68AA8A8929C8EA68A9C88FA
  0
ACAD_PROXY_OBJECT
  5
4C
102
{ACAD_REACTORS
330
40
102
}
330
40
100
AcDbProxyObject
 90
      499
 91
      518
 95
       25
 70
     0
 93
      852
310
4050D5452414E5353455454494E4753A2488A482AE929C8EA8A4829CA69882A8929E9C0C00800050D4F524947494E414C4C595F4F4E0600400028529A7AAA921A2A620A723A0A81A52827212AAA0A48AA68AA4AC8A0C0080001107B44574753455454494E4753454E447D0
  0
ACAD_PROXY_OBJECT
  5
181
330
17F
100
AcDbProxyObject
 90
      499
 91
      527
 95
       25
 70
     0
 93
       86
310
5DEA0C80A0280A0280A034
  0
ACAD_PROXY_OBJECT
  5
182
330
17F
100
AcDbProxyObject
 90
      499
 91
      528
 95
       25
 70
     0
 93
      282
310
5DD0E4050140501405014050140501405014050141101405014041000000000000001000
340
187
 94
        0
  0
ACAD_PROXY_OBJECT
  5
183
330
17F
100
AcDbProxyObject
 90
      499
 91
      529
 95
       25
 70
     0
 93
      323
310
5DCC199999999999E99F91740501405014050140501405014050140501405014050140501405014040
340
0
 94
        0
  0
ACAD_PROXY_OBJECT
  5
184
330
17F
100
AcDbProxyObject
 90
      499
 91
      530
 95
       25
 70
     0
 93
       10
310
5DC0
  0
ACAD_PROXY_OBJECT
  5
185
330
17F
100
AcDbProxyObject
 90
      499
 91
      531
 95
       25
 70
     0
 93
      257
310
5DE0C16A22A7D90F49F80000000000001081400000000000004204010000618000
340
188
340
189
 94
        0
  0
ACAD_PROXY_OBJECT
  5
186
330
17F
100
AcDbProxyObject
 90
      499
 91
      532
 95
       25
 70
     0
 93
     5277
310
5DD06411255115350141236025B6901405014069010000000000000910240690120281A8AA2CA0282484A4BE52028120280A032020000000000001220480D202405044E414D454050496BC914F4051C40640A80000000000004E4090193C3D3C4946284953424C414E4B28504152543A4E414D45292C424C4F434B3A4E414D
310
452C504152543A4E414D45293E3C41435F44455343524950544E3E40480A109A82A88AA492829880A091BBD2F7E80A3A80C81D0E27A15AF46E08A81203480901411393D5115014124A363B7D0147501904A0000000000000F902406428F4F1050D7D393D5114F901202832B22A72227A92028366EF6EE06F582028EA0320B4
310
0000000000001F20480C879E9E20A1AFAB27222FA620A122A61F20240506445020000000000000490201C00030C00010180000000000003E400000000000000F901073D3C4954454D3E4050180000000000003E400000000000000F901073D3C4954454D3E40501800000000000034400000000000000D101073D3C4954454
310
D3E40501800000000000034400000000000000D101073D3C4954454D3E405029010000000000000F9000000000000003E4041CF4F125511534F901418F4F1455164F9014060000000000000F9000000000000003E4041CF4F125511534F901800000000000034400000000000000D101073D3C4954454D3E40640400000000
310
0000003E400000000000000F90288800000000000020810000001800120881A068120480A032208521122080D21480D211480A1485214852050000000000003C2FC000000000000F0BF40600800030C0200400030C00CDCCCCCCCCCCEC3F3373333333333B0FC3333333333330940C80D069014090341504901A1999999999
310
9984A040100006180400800061804010000618008098A02808
340
0
340
0
 94
        0
  0
ACAD_PROXY_OBJECT
  5
208DA
330
17F
100
AcDbProxyObject
 90
      499
 91
      562
 95
       25
 70
     0
 93
     3042
310
5DD9740D29254D064A49535F413342929254D7D512551311505134A49535F42525F5265766973696F6E6C6973744190F4134522028323937783231306D6D2941D29254D7D04D1490E41312028353934783834316D6D2941929254D7D04C50E41332028323937783432306D6D2941929254D7D04CD0F41344C2028323130783
310
239376D6D2941D29254D7D04D1310E41322028343230783539346D6D2941929254D7D04C90F4130202838343178313138396D6D2941929254D7D04C10243129254C82557247A25E4C81050A4A49535F5449544C454143129254C82557247A25E4C81090A4A49535F5449544C45424110E979A97F0838A835883675F42525F4
310
4D29254D7D09497D4995D9A5CDA5BDB9B1A5CDD10E979A97F0838A835883675F54525F44D29254D7D51497D4995D9A5CDA5BDB9B1A5CDD10E979A97F0838A835883675F424C5F44D29254D7D09317D4995D9A5CDA5BDB9B1A5CDD10E979A97F0838A835883675F544C5F44D29254D7D51317D4995D9A5CDA5BDB9B1A5CDD00
  0
ACAD_PROXY_OBJECT
  5
208DB
330
17F
100
AcDbProxyObject
 90
      499
 91
      563
 95
       25
 70
     0
 93
      898
310
5DC4000000000000124048CF4F11115510525317D3105091530F880A0F11115510525317D05094D4D0D053114F8A50241C9A9999999999B93F26A666666666724FC000000000000E03F400000000000000400000000000000510000000000000024408070000C300000000000000049000
340
16
340
180
 94
        0
  0
ACAD_PROXY_OBJECT
  5
208DC
330
17F
100
AcDbProxyObject
 90
      499
 91
      564
 95
       25
 70
     0
 93
      823
310
5DC0B00000000000002480959E9E29A2A1AA24A7A72FA620A122A62FA324A929AA1F169E29A2A1AA24A7A72FA620A122A62FA620A9AA1F000000000000048803FFFE01C00030C008140380006180000000000000048800000000000000A2000000000000002480
340
652
340
180
 94
        0
  0
ACAD_PROXY_OBJECT
  5
208DE
330
17F
100
AcDbProxyObject
 90
      499
 91
      565
 95
       25
 70
     0
 93
      152
310
5DE8273108AC1C5A0640A3D0A5723F0BD1F200
  0
ACAD_PROXY_OBJECT
  5
208DF
330
17F
100
AcDbProxyObject
 90
      499
 91
      566
 95
       25
 70
     0
 93
       14
310
5DE0
340
0
 94
        0
  0
ACAD_PROXY_OBJECT
  5
208E0
330
17F
100
AcDbProxyObject
 90
      499
 91
      567
 95
       25
 70
     0
 93
     6059
310
5DD084050BA4050AA405024050E836583938376838C815B83672031405983D3C486F6C653A6469613E3C696628657175616C28486F6C653A7465726D696E6174696F6E2C223022292C2220905B82B320222C22208368838A838B22293E3C696628657175616C28486F6C653A7465726D696E6174696F6E2C223022292C486F
310
6C653A64657074682C2222293E2C203C486F6C653A63746469613E2082B482AE82E882CC905B82B3203C486F6C653A637464657074683E406901405034050E836583938376838C815B83672031405EF3D3C486F6C653A6374616E676C653E252564202525633C486F6C653A63746469613E208E4D8C8A2C203C69662865717
310
5616C28486F6C653A7461707065642C223022292C22252563222C486F6C653A6E6F6D696E616C202220782022293E3C696628657175616C28486F6C653A7461707065642C223022292C486F6C653A6469612C486F6C653A706974636864657363293E203C696628657175616C28486F6C653A7465726D696E6174696F6E2C2
310
23022292C22905B82B320222C222022293E3C696628657175616C28486F6C653A7465726D696E6174696F6E2C223022292C486F6C653A64657074682C2222293E406901405014050E836583938376838C815B83672031405C73D3C696628657175616C28486F6C653A7461707065642C223022292C22252563222C486F6C65
310
3A6E6F6D696E616C202220782022293E3C696628657175616C28486F6C653A7461707065642C223022292C486F6C653A6469612C486F6C653A706974636864657363293E203C696628657175616C28486F6C653A7465726D696E6174696F6E2C223022292C22905B82B320222C222022293E3C696628657175616C28486F6C
310
653A7465726D696E6174696F6E2C223022292C486F6C653A64657074682C2222293E4069014051E4090E836583938376838C815B83672032405173D3C535444503A444553433E203C535444503A5354443E40690E836583938376838C815B836720314050C3D3C535444503A444553433E40690240515AAABBA120
360
208E4
330
208E4
360
208E5
330
208E5
360
208E3
330
208E3
360
208E2
360
208E1
330
208E2
330
208E1
 94
        0
  0
ACAD_PROXY_OBJECT
  5
208E6
330
17F
100
AcDbProxyObject
 90
      499
 91
      569
 95
       25
 70
     0
 93
       26
310
5DD02A80
340
42
 94
        0
  0
ACAD_PROXY_OBJECT
  5
208E7
330
17F
100
AcDbProxyObject
 90
      499
 91
      570
 95
       25
 70
     0
 93
      250
310
5DD020000000000000A1000000000000002440408F0F9023C3E409A0DCFFFF80
340
58
340
18A8
340
18A9
340
5F
340
60
340
61
340
62
340
63
340
68
340
0
 94
        0
  0
ACAD_PROXY_OBJECT
  5
208E8
330
17F
100
AcDbProxyObject
 90
      499
 91
      571
 95
       25
 70
     0
 93
    13889
310
5DD1D003FFFFFFFD030300030CCCCCCCCCCCC250200800030C01030300030CCCCCCCCCCCC250200800030C00050C8DC0955782CC838A83588367014ED1D15395149050D3CB1294138B0C0B23702555E0B320E2A0D620D9CB11D15395149055160B095CCB0A11D1539354D1C819D95B991A5B5E880CCC0A78000C0000000000
310
00000000000000000000010CCCCCCCCCCCC250200800030C010CCCCCCCCCCCC250200800030C020143CF4F111959985D5B1D151A5D1B194F8050A8C8A8365815B8375838B014E51D15395149050D3CB1294138B0C0B2322A0D96056E0DD60E2CB11D15395149055160B095CCB0A11D1539354D1C819D95B991A5B5E880CCC4
310
A78000C000000000000000000000000000000010CCCCCCCCCCCC250200800030C010CCCCCCCCCCCC250200800030C020143CF4F111959985D5B1D151A5D1B194F90D44111409034110541D0C4350F4050E44D03449074510F000141232D24D7C053247454E545241434F2C4A504E2C302C8CB4935F2C47454E54524154582C
310
25732C2847454E4D53472067656E64696D7A20312900010104002214000281464500A608E8A9CA8A482869E5894A09C5860591914588E8A9CA8A482A8B0584AE658508E8A9C9AA68E40CECADCC8D2DAF4406452029E9E9E27B934B3B4B71F1E24A31427A91424A9A12620A7259427B934B3B4B7149624A9A12620A7259424B
310
A32B6949496111116111711149F1E24BA32B69F00808200111A000140560052F47454E545241434F2C4A504E2C302C582C47454E54524154582C25732C2847454E4D53472067656E64696D7A20332900010100002054000280AC80A5E8E8A9CA8A482869E5894A09C586058B2588E8A9CA8A482A8B0584AE658508E8A9C9AA
310
68E40CECADCC8D2DAF4406852000202000040E800050152014BD1D15395149050D3CB1294138B0C0B148B11D15395149055160B095CCB0A11D1539354D1C819D95B991A5B5E880D8A400040400008250000A0507A6029823A2A72A2920A1A79625282716181641E99623A2A72A2920AA2C1612B9961423A2A726A9A39033B2
310
B73234B6BD101B948000808180105A000140A0F4C053047454E545241434F2C4A504E2C302C83D32C47454E54524154582C25732C2847454E4D53472067656E64696D7A203829000101010020F400028248704B5F00A668E8A9CA8A482869E5894A09C58605921C12D7C588E8A9CA8A482A8B0584AE658508E8A9C9AA68E40
310
CECADCC8D2DAF440646052000200080043280005048B4B8A69014CD1D15395149050D3CB1294138B0C0B22D2E29A4B11D15395149055160B095CCB0A11D1539354D1C819D95B991A5B5E880C8C4A4000400100086D0000A09196926BE029923A2A72A2920A1A796252827161816465A49AF9623A2A72A2920AA2C1612B9961
310
423A2A726A9A39033B2B73234B6BD10189480A02620202080043E80005048D8096DA014CD1D15395149050D3CB1294138B0C0B236025B68B11D15395149055160B095CCB0A11D1539354D1C819D95B991A5B5E880C4D0A4000404140280D0000A190687072706CD06C5069D06B0029DA3A2A72A2920A1A7962528271618164
310
1A1C1C9C1B341B141A741AC1623A2A72A2920AA2C1612B9961423A2A726A9A39033B2B73234B6BD10189A94800080820050EA000143A322A0D0E0E4E0D9A0D8A0D3A0D60053D47454E545241434F2C4A504E2C302C8C8A8343839383668362834E83582C47454E54524154582C25732C2847454E4D53472067656E64696D7A
310
2031372900010105002274000281464500A628E8A9CA8A482869E5894A09C5860591914588E8A9CA8A482A8B0584AE658508E8A9C9AA68E40CECADCC8D2DAF440626C52000202080044A8000504909497CA014CD1D15395149050D3CB1294138B0C0B242525F28B11D15395149055160B095CCB0A11D1539354D1C819D95B9
310
91A5B5E880C4E4A400040418008A521E000000000000001CA040C00000000000034408080000000000006881010000000000000D102040000000000001A204080000000000003440818000000000000728103000000000000125020600000000004028A040000000000000034408000000000000004881000000000000000D
310
102000000000000001A204000000000000003440818000000000000508143C0000000000000039408180000000000006881030000000000000D102060000000000001A2040C00000000000034408180000000000006881030000000000000E5020600000000000024A040C0000000000805140800000000000000688100000
310
00000000009102000000000000001A2040000000000000034408180000000000006881030000000000000A10284220000000878000002020000008380000020400000081800000208000000828000002028900000000
340
0
340
0
340
0
340
0
340
180
340
180
 94
        0
  0
ACAD_PROXY_OBJECT
  5
208E4
330
208E0
100
AcDbProxyObject
 90
      499
 91
      568
 95
       25
 70
     0
 93
     1376
310
5DE0143A0D960E4E0DDA0E32056E0D9C80C405983D3C486F6C653A6469613E3C696628657175616C28486F6C653A7465726D696E6174696F6E2C223022292C2220905B82B320222C22208368838A838B22293E3C696628657175616C28486F6C653A7465726D696E6174696F6E2C223022292C486F6C653A64657074682C22
310
22293E2C203C486F6C653A63746469613E2082B482AE82E882CC905B82B3203C486F6C653A637464657074683E
  0
ACAD_PROXY_OBJECT
  5
208E5
330
208E0
100
AcDbProxyObject
 90
      499
 91
      568
 95
       25
 70
     0
 93
     2072
310
5DE0143A0D960E4E0DDA0E32056E0D9C80C405EF3D3C486F6C653A6374616E676C653E252564202525633C486F6C653A63746469613E208E4D8C8A2C203C696628657175616C28486F6C653A7461707065642C223022292C22252563222C486F6C653A6E6F6D696E616C202220782022293E3C696628657175616C28486F6C
310
653A7461707065642C223022292C486F6C653A6469612C486F6C653A706974636864657363293E203C696628657175616C28486F6C653A7465726D696E6174696F6E2C223022292C22905B82B320222C222022293E3C696628657175616C28486F6C653A7465726D696E6174696F6E2C223022292C486F6C653A6465707468
310
2C2222293E
  0
ACAD_PROXY_OBJECT
  5
208E3
330
208E0
100
AcDbProxyObject
 90
      499
 91
      568
 95
       25
 70
     0
 93
     1752
310
5DE0143A0D960E4E0DDA0E32056E0D9C80C405C73D3C696628657175616C28486F6C653A7461707065642C223022292C22252563222C486F6C653A6E6F6D696E616C202220782022293E3C696628657175616C28486F6C653A7461707065642C223022292C486F6C653A6469612C486F6C653A706974636864657363293E20
310
3C696628657175616C28486F6C653A7465726D696E6174696F6E2C223022292C22905B82B320222C222022293E3C696628657175616C28486F6C653A7465726D696E6174696F6E2C223022292C486F6C653A64657074682C2222293E
  0
ACAD_PROXY_OBJECT
  5
208E2
330
208E0
100
AcDbProxyObject
 90
      499
 91
      568
 95
       25
 70
     0
 93
      344
310
5DE0143A0D960E4E0DDA0E32056E0D9C80C805173D3C535444503A444553433E203C535444503A5354443E
  0
ACAD_PROXY_OBJECT
  5
208E1
330
208E0
100
AcDbProxyObject
 90
      499
 91
      568
 95
       25
 70
     0
 93
      256
310
5DE0143A0D960E4E0DDA0E32056E0D9C80C4050C3D3C535444503A444553433E
  0
ENDSEC
  0
EOF
