  0
SECTION
  2
HEADER
  9
$ACADVER
  1
AC1015
  9
$ACADMAINTVER
 70
     6
  9
$DWGCODEPAGE
  3
ANSI_932
  9
$INSBASE
 10
0.0
 20
0.0
 30
0.0
  9
$EXTMIN
 10
-82.17868918849297
 20
-109.3518065509026
 30
-0.00000000000001
  9
$EXTMAX
 10
138.0005144172499
 20
25.01780338166032
 30
0.0000000000000053
  9
$LIMMIN
 10
0.0
 20
0.0
  9
$LIMMAX
 10
420.0
 20
297.0
  9
$ORTHOMODE
 70
     0
  9
$REGENMODE
 70
     1
  9
$FILLMODE
 70
     1
  9
$QTEXTMODE
 70
     0
  9
$MIRRTEXT
 70
     1
  9
$LTSCALE
 40
1.0
  9
$ATTMODE
 70
     1
  9
$TEXTSIZE
 40
4.0
  9
$TRACEWID
 40
1.0
  9
$TEXTSTYLE
  7
STANDARD
  9
$CLAYER
  8
AM_0
  9
$CELTYPE
  6
ByLayer
  9
$CECOLOR
 62
   256
  9
$CELTSCALE
 40
1.0
  9
$DISPSILH
 70
     0
  9
$DIMSCALE
 40
1.0
  9
$DIMASZ
 40
2.5
  9
$DIMEXO
 40
0.0
  9
$DIMDLI
 40
10.0
  9
$DIMRND
 40
0.0
  9
$DIMDLE
 40
0.0
  9
$DIMEXE
 40
1.0
  9
$DIMTP
 40
0.1
  9
$DIMTM
 40
0.1000000001
  9
$DIMTXT
 40
3.8
  9
$DIMCEN
 40
0.0
  9
$DIMTSZ
 40
0.0
  9
$DIMTOL
 70
     0
  9
$DIMLIM
 70
     0
  9
$DIMTIH
 70
     0
  9
$DIMTOH
 70
     0
  9
$DIMSE1
 70
     0
  9
$DIMSE2
 70
     0
  9
$DIMTAD
 70
     3
  9
$DIMZIN
 70
     1
  9
$DIMBLK
  1
Open30
  9
$DIMASO
 70
     1
  9
$DIMSHO
 70
     1
  9
$DIMPOST
  1

  9
$DIMAPOST
  1
"
  9
$DIMALT
 70
     0
  9
$DIMALTD
 70
     2
  9
$DIMALTF
 40
0.0393701
  9
$DIMLFAC
 40
1.0
  9
$DIMTOFL
 70
     1
  9
$DIMTVP
 40
0.0
  9
$DIMTIX
 70
     0
  9
$DIMSOXD
 70
     0
  9
$DIMSAH
 70
     0
  9
$DIMBLK1
  1

  9
$DIMBLK2
  1

  9
$DIMSTYLE
  2
AM_JIS
  9
$DIMCLRD
 70
   256
  9
$DIMCLRE
 70
   256
  9
$DIMCLRT
 70
     2
  9
$DIMTFAC
 40
0.71
  9
$DIMGAP
 40
1.5
  9
$DIMJUST
 70
     0
  9
$DIMSD1
 70
     0
  9
$DIMSD2
 70
     0
  9
$DIMTOLJ
 70
     0
  9
$DIMTZIN
 70
     8
  9
$DIMALTZ
 70
     0
  9
$DIMALTTZ
 70
     0
  9
$DIMUPT
 70
     0
  9
$DIMDEC
 70
     2
  9
$DIMTDEC
 70
     2
  9
$DIMALTU
 70
     2
  9
$DIMALTTD
 70
     2
  9
$DIMTXSTY
  7
STANDARD
  9
$DIMAUNIT
 70
     1
  9
$DIMADEC
 70
     1
  9
$DIMALTRND
 40
0.0
  9
$DIMAZIN
 70
     2
  9
$DIMDSEP
 70
    46
  9
$DIMATFIT
 70
     3
  9
$DIMFRAC
 70
     0
  9
$DIMLDRBLK
  1
Open30
  9
$DIMLUNIT
 70
     2
  9
$DIMLWD
 70
    -1
  9
$DIMLWE
 70
    -1
  9
$DIMTMOVE
 70
     0
  9
$LUNITS
 70
     2
  9
$LUPREC
 70
     2
  9
$SKETCHINC
 40
1.0
  9
$FILLETRAD
 40
0.8
  9
$AUNITS
 70
     1
  9
$AUPREC
 70
     5
  9
$MENU
  1
.
  9
$ELEVATION
 40
0.0
  9
$PELEVATION
 40
0.0
  9
$THICKNESS
 40
0.0
  9
$LIMCHECK
 70
     0
  9
$CHAMFERA
 40
20.0
  9
$CHAMFERB
 40
20.0
  9
$CHAMFERC
 40
20.0
  9
$CHAMFERD
 40
0.0
  9
$SKPOLY
 70
     0
  9
$TDCREATE
 40
2451943.610431667
  9
$TDUCREATE
 40
2451943.235431667
  9
$TDUPDATE
 40
2455441.488667894
  9
$TDUUPDATE
 40
2455441.113667894
  9
$TDINDWG
 40
1.3049306713
  9
$TDUSRTIMER
 40
1.3049304977
  9
$USRTIMER
 70
     1
  9
$ANGBASE
 50
0.0
  9
$ANGDIR
 70
     0
  9
$PDMODE
 70
     0
  9
$PDSIZE
 40
0.0
  9
$PLINEWID
 40
0.0
  9
$SPLFRAME
 70
     0
  9
$SPLINETYPE
 70
     6
  9
$SPLINESEGS
 70
     8
  9
$HANDSEED
  5
11EB0
  9
$SURFTAB1
 70
     6
  9
$SURFTAB2
 70
     6
  9
$SURFTYPE
 70
     6
  9
$SURFU
 70
     6
  9
$SURFV
 70
     6
  9
$UCSBASE
  2

  9
$UCSNAME
  2

  9
$UCSORG
 10
0.0
 20
0.0
 30
0.0
  9
$UCSXDIR
 10
1.0
 20
0.0
 30
0.0
  9
$UCSYDIR
 10
0.0
 20
1.0
 30
0.0
  9
$UCSORTHOREF
  2

  9
$UCSORTHOVIEW
 70
     0
  9
$UCSORGTOP
 10
0.0
 20
0.0
 30
0.0
  9
$UCSORGBOTTOM
 10
0.0
 20
0.0
 30
0.0
  9
$UCSORGLEFT
 10
0.0
 20
0.0
 30
0.0
  9
$UCSORGRIGHT
 10
0.0
 20
0.0
 30
0.0
  9
$UCSORGFRONT
 10
0.0
 20
0.0
 30
0.0
  9
$UCSORGBACK
 10
0.0
 20
0.0
 30
0.0
  9
$PUCSBASE
  2

  9
$PUCSNAME
  2

  9
$PUCSORG
 10
0.0
 20
0.0
 30
0.0
  9
$PUCSXDIR
 10
1.0
 20
0.0
 30
0.0
  9
$PUCSYDIR
 10
0.0
 20
1.0
 30
0.0
  9
$PUCSORTHOREF
  2

  9
$PUCSORTHOVIEW
 70
     0
  9
$PUCSORGTOP
 10
0.0
 20
0.0
 30
0.0
  9
$PUCSORGBOTTOM
 10
0.0
 20
0.0
 30
0.0
  9
$PUCSORGLEFT
 10
0.0
 20
0.0
 30
0.0
  9
$PUCSORGRIGHT
 10
0.0
 20
0.0
 30
0.0
  9
$PUCSORGFRONT
 10
0.0
 20
0.0
 30
0.0
  9
$PUCSORGBACK
 10
0.0
 20
0.0
 30
0.0
  9
$USERI1
 70
     0
  9
$USERI2
 70
     0
  9
$USERI3
 70
     0
  9
$USERI4
 70
     0
  9
$USERI5
 70
     0
  9
$USERR1
 40
0.0
  9
$USERR2
 40
0.0
  9
$USERR3
 40
0.0
  9
$USERR4
 40
0.0
  9
$USERR5
 40
0.0
  9
$WORLDVIEW
 70
     1
  9
$SHADEDGE
 70
     3
  9
$SHADEDIF
 70
    70
  9
$TILEMODE
 70
     1
  9
$MAXACTVP
 70
    64
  9
$PINSBASE
 10
0.0
 20
0.0
 30
0.0
  9
$PLIMCHECK
 70
     0
  9
$PEXTMIN
 10
1.000000000000000E+20
 20
1.000000000000000E+20
 30
1.000000000000000E+20
  9
$PEXTMAX
 10
-1.000000000000000E+20
 20
-1.000000000000000E+20
 30
-1.000000000000000E+20
  9
$PLIMMIN
 10
0.0
 20
0.0
  9
$PLIMMAX
 10
420.0
 20
297.0
  9
$UNITMODE
 70
     0
  9
$VISRETAIN
 70
     1
  9
$PLINEGEN
 70
     0
  9
$PSLTSCALE
 70
     1
  9
$TREEDEPTH
 70
  3020
  9
$CMLSTYLE
  2
Standard
  9
$CMLJUST
 70
     0
  9
$CMLSCALE
 40
20.0
  9
$PROXYGRAPHICS
 70
     1
  9
$MEASUREMENT
 70
     1
  9
$CELWEIGHT
370
    -1
  9
$ENDCAPS
280
     0
  9
$JOINSTYLE
280
     0
  9
$LWDISPLAY
290
     0
  9
$INSUNITS
 70
     4
  9
$HYPERLINKBASE
  1

  9
$STYLESHEET
  1
sei_cad.ctb
  9
$XEDIT
290
     1
  9
$CEPSNTYPE
380
     0
  9
$PSTYLEMODE
290
     1
  9
$FINGERPRINTGUID
  2
{C77AB3BE-9CA2-11D3-BAF3-006094EB760E}
  9
$VERSIONGUID
  2
{55CD5671-D2DC-4521-B8AB-A147B537DA75}
  9
$EXTNAMES
290
     1
  9
$PSVPSCALE
 40
0.0
  9
$OLESTARTUP
290
     0
  0
ENDSEC
  0
SECTION
  2
CLASSES
  0
CLASS
  1
ACDBDICTIONARYWDFLT
  2
AcDbDictionaryWithDefault
  3
ObjectDBX Classes
 90
        0
280
     0
281
     0
  0
CLASS
  1
ACDBPLACEHOLDER
  2
AcDbPlaceHolder
  3
ObjectDBX Classes
 90
        0
280
     0
281
     0
  0
CLASS
  1
LAYOUT
  2
AcDbLayout
  3
ObjectDBX Classes
 90
        0
280
     0
281
     0
  0
CLASS
  1
ACME_DOCUMENT
  2
AcMeDbDoc
  3
AcMeServices
 90
        0
280
     1
281
     0
  0
CLASS
  1
ACMESCOPE
  2
AcMeScope
  3
AcMeServices
 90
        0
280
     1
281
     0
  0
CLASS
  1
ACMECOMMANDHISTORY
  2
AcMeCommandHistory
  3
AcMeServices
 90
        0
280
     1
281
     0
  0
CLASS
  1
DICTIONARYVAR
  2
AcDbDictionaryVar
  3
ObjectDBX Classes
 90
        0
280
     0
281
     0
  0
CLASS
  1
ACIMSYSVARMAN
  2
AcImSysVarManager
  3
AcMeServices
 90
        0
280
     1
281
     0
  0
CLASS
  1
ACIMREALSYSVAR
  2
AcImRealSysVar
  3
AcMeServices
 90
        0
280
     1
281
     0
  0
CLASS
  1
ACIMINTSYSVAR
  2
AcImIntSysVar
  3
AcMeServices
 90
        0
280
     1
281
     0
  0
CLASS
  1
ACMEDRAWINGMAN
  2
AcMeDrawingMan
  3
AcMeServices
 90
        0
280
     1
281
     0
  0
CLASS
  1
ACMEVIEW
  2
AcMeView
  3
AcMeServices
 90
        0
280
     1
281
     0
  0
CLASS
  1
ACDBENTITYCACHE
  2
AcMeEntityCache
  3
AcMeServices
 90
        0
280
     1
281
     0
  0
CLASS
  1
GSMANAGER
  2
AcMeGSManager
  3
AcMeServices
 90
        0
280
     1
281
     0
  0
CLASS
  1
AMDTINTERNALREACTOR
  2
AmdtInternalReactor
  3
AcMeServices
 90
        0
280
     1
281
     0
  0
CLASS
  1
ACMESTATEMGR
  2
AcMeStateMgr
  3
AcMeServices
 90
        0
280
     1
281
     0
  0
CLASS
  1
ACME_DATABASE
  2
AcMeDbDatabase
  3
AcMeServices
 90
        0
280
     1
281
     0
  0
CLASS
  1
ACRFINSADJUSTERMGR
  2
AcRfInsAdjusterMgr
  3
AcMeServices
 90
        0
280
     1
281
     0
  0
CLASS
  1
AMGSETTINGSOBJ
  2
AmgSettingsObj
  3
"AcadM|Product Description: AutoCAD Mechanical 2000|Company: Autodesk"
 90
        0
280
     1
281
     0
  0
CLASS
  1
AMGOBJPROPCFG
  2
AmgObjPropCfg
  3
"AmgLay|Product Description: AutoCAD Mechanical 2000|Company: Autodesk"
 90
        1
280
     1
281
     0
  0
CLASS
  1
ACMDATADICTIONARY
  2
AcmDataDictionary
  3
"AcmSymBB|Product Description: AutoCAD Mechanical 2004 DX|Company: Autodesk"
 90
        0
280
     1
281
     0
  0
CLASS
  1
ACMDATAENTRYBLOCK
  2
AcmDataEntryBlock
  3
"AcmSymBB|Product Description: AutoCAD Mechanical 2004 DX|Company: Autodesk"
 90
        0
280
     1
281
     0
  0
CLASS
  1
ACIMSTRSYSVAR
  2
AcImStrSysVar
  3
AcMeServices
 90
        0
280
     1
281
     0
  0
CLASS
  1
ACAMGFILTERDAT
  2
AcAmgFilterDat
  3
"AcadM|Product Description: AutoCAD Mechanical 2000|Company: Autodesk"
 90
        0
280
     1
281
     0
  0
CLASS
  1
LAYER_INDEX
  2
AcDbLayerIndex
  3
ObjectDBX Classes
 90
        0
280
     0
281
     0
  0
CLASS
  1
IDBUFFER
  2
AcDbIdBuffer
  3
ObjectDBX Classes
 90
        0
280
     0
281
     0
  0
CLASS
  1
ACMSTANDARDJIS
  2
AcmStandardJIS
  3
"Amdt_StdImp|Product Description: AutoCAD Mechanical 2004 DX|Company: Autodesk"
 90
        0
280
     1
281
     0
  0
CLASS
  1
ACMSURFSTANDARDJIS
  2
AcmSurfTextStdJIS
  3
"Amdt_StdImp|Product Description: AutoCAD Mechanical 2004 DX|Company: Autodesk"
 90
        0
280
     1
281
     0
  0
CLASS
  1
ACMFCFSTANDARDJIS
  2
AcmFCFStdJIS
  3
"Amdt_StdImp|Product Description: AutoCAD Mechanical 2004 DX|Company: Autodesk"
 90
        0
280
     1
281
     0
  0
CLASS
  1
ACMWELDSTANDARDJIS
  2
AcmWeldingStdJIS
  3
"Amdt_StdImp|Product Description: AutoCAD Mechanical 2004 DX|Company: Autodesk"
 90
        0
280
     1
281
     0
  0
CLASS
  1
ACMIDSTANDARDJIS
  2
AcmIdStdJIS
  3
"Amdt_StdImp|Product Description: AutoCAD Mechanical 2004 DX|Company: Autodesk"
 90
        0
280
     1
281
     0
  0
CLASS
  1
ACMDATUMSTANDARDJIS
  2
AcmDatumStdJIS
  3
"Amdt_StdImp|Product Description: AutoCAD Mechanical 2004 DX|Company: Autodesk"
 90
        0
280
     1
281
     0
  0
CLASS
  1
ACMBOMSTANDARDJIS
  2
AcmBOMStdJIS
  3
"Amdt_StdImp|Product Description: AutoCAD Mechanical 2004 DX|Company: Autodesk"
 90
        0
280
     1
281
     0
  0
CLASS
  1
AMDTNOTE
  2
AmdtNote
  3
"AcmSymBB|Product Description: AutoCAD Mechanical 2004 DX|Company: Autodesk"
 90
     1023
280
     1
281
     1
  0
CLASS
  1
TABLESTYLE
  2
AcDbTableStyle
  3
ObjectDBX Classes
 90
     2047
280
     0
281
     0
  0
CLASS
  1
ACGREFMASTER
  2
AcGrefMaster
  3
AcAttribServices
 90
        0
280
     1
281
     0
  0
CLASS
  1
AM_DRAWING_MGR
  2
AcDmDwgMgr
  3
AcMechDwgViewMgmt
 90
        0
280
     1
281
     0
  0
CLASS
  1
AM_DWG_DOCUMENT
  2
AcDmDwgDocument
  3
AcMechDwgViewMgmt
 90
        0
280
     1
281
     0
  0
CLASS
  1
AM_DWG_SHEET
  2
AcDmSheet
  3
AcMechDwgViewMgmt
 90
        0
280
     1
281
     0
  0
CLASS
  1
AM_VIEWDIMPARMAP
  2
AcDmViewDimParMap
  3
AcMechDwgViewMgmt
 90
        0
280
     1
281
     0
  0
CLASS
  1
AM_DWGMGR_NAME
  2
AcDmDwgMgrName
  3
AcMechDwgViewMgmt
 90
        0
280
     1
281
     0
  0
CLASS
  1
ACGREFACADMASTER
  2
AcGrefacadMaster
  3
AcGrefServices
 90
        0
280
     1
281
     0
  0
CLASS
  1
AMDTMENUSTATEMGR
  2
AmdtMenuStateMgr
  3
McadcomServices
 90
        0
280
     1
281
     0
  0
CLASS
  1
AMDTMCOMMENUSTATE
  2
AmdtMcomMenuState
  3
McadcomServices
 90
        0
280
     1
281
     0
  0
CLASS
  1
AMIMASTER
  2
AmiMaster
  3
AmiServices
 90
        0
280
     1
281
     0
  0
CLASS
  1
MAPIAMMOUDLE
  2
MApiAmModule
  3
MApiAmServices
 90
        0
280
     1
281
     0
  0
CLASS
  1
AMDTADMENUSTATE
  2
AmdtAdMenuState
  3
DesignerServices
 90
        0
280
     1
281
     0
  0
CLASS
  1
ADAPPL
  2
AcAdAppl
  3
DesignerServices
 90
        0
280
     1
281
     0
  0
CLASS
  1
DEPMGR
  2
AcAdDepMgr
  3
DesignerServices
 90
        0
280
     1
281
     0
  0
CLASS
  1
PARAMMGR
  2
AcAdParamMgr
  3
DesignerServices
 90
        0
280
     1
281
     0
  0
CLASS
  1
PARAMSCOPE
  2
AcAdParamScope
  3
DesignerServices
 90
        0
280
     1
281
     0
  0
CLASS
  1
NAMEDAPPL
  2
AcAdNamedAppl
  3
DesignerServices
 90
        0
280
     1
281
     0
  0
CLASS
  1
AMDTDMMENUSTATE
  2
AmdtDmMenuState
  3
AcMechDwgViewMgmt
 90
        0
280
     1
281
     0
  0
CLASS
  1
AMDTAMMENUSTATE
  2
AmdtAmMenuState
  3
DesignerAssemblies
 90
        0
280
     1
281
     0
  0
CLASS
  1
ACAMPROJECT
  2
AcAmProject
  3
DesignerAssemblies
 90
        0
280
     1
281
     0
  0
CLASS
  1
ACAMGRCOMPDEF
  2
AcAmGrCompDef
  3
DesignerAssemblies
 90
        0
280
     1
281
     0
  0
CLASS
  1
ACCMCONTEXT
  2
AcCmContext
  3
DesignerAssemblies
 90
        0
280
     1
281
     0
  0
CLASS
  1
ACAMCOMPDEF
  2
AcAmCompDef
  3
DesignerAssemblies
 90
        0
280
     1
281
     0
  0
CLASS
  1
ACAMCOMPDEFMGR
  2
AcAmCompDefMgr
  3
DesignerAssemblies
 90
        0
280
     1
281
     0
  0
CLASS
  1
AMCONTEXTMGR
  2
AcAmContextMgr
  3
DesignerAssemblies
 90
        0
280
     1
281
     0
  0
CLASS
  1
ACAMCONTEXTMODELER
  2
AcAmContextModeler
  3
DesignerAssemblies
 90
        0
280
     1
281
     0
  0
CLASS
  1
ACAMGTITLESTD
  2
AcAmgTitleStd
  3
"TITLEAPP"
 90
        0
280
     1
281
     0
  0
CLASS
  1
ACMDETAILSTANDARDJIS
  2
AmdtDetailSymStdJIS
  3
"Amdt_StdImp|Product Description: AutoCAD Mechanical 2004 DX|Company: Autodesk"
 90
        0
280
     1
281
     0
  0
CLASS
  1
ACMSECTIONSTANDARDJIS
  2
AmdtSectionSymStdJIS
  3
"Amdt_StdImp|Product Description: AutoCAD Mechanical 2004 DX|Company: Autodesk"
 90
        0
280
     1
281
     0
  0
CLASS
  1
ACMCENTERLINESTANDARDJIS
  2
AmdtCenterLineStdJIS
  3
"Amdt_StdImp|Product Description: AutoCAD Mechanical 2004 DX|Company: Autodesk"
 90
        0
280
     1
281
     0
  0
CLASS
  1
ACMTHREADLINESTANDARDJIS
  2
AmdtThreadLineStdJIS
  3
"Amdt_StdImp|Product Description: AutoCAD Mechanical 2004 DX|Company: Autodesk"
 90
        0
280
     1
281
     0
  0
CLASS
  1
ACMNOTESTANDARDJIS
  2
AmdtNoteStdJIS
  3
"Amdt_StdImp|Product Description: AutoCAD Mechanical 2004 DX|Company: Autodesk"
 90
        0
280
     1
281
     0
  0
CLASS
  1
AMDTNOTETEMPLATEDB
  2
AmdtNoteTemplateDB
  3
AMDT_STDIMP_MODULE_NAME
 90
        0
280
     1
281
     0
  0
CLASS
  1
ACAMGLAYSTD
  2
AcAmgLayStd
  3
"AcAmgLayStd|Product Description: AutoCAD Mechanical 2000|Company: Autodesk"
 90
        0
280
     1
281
     0
  0
CLASS
  1
ACAMGDIMSTD
  2
AcAmgDimStd
  3
"AcAmgDimStd|Product Description: AutoCAD Mechanical 2000|Company: Autodesk"
 90
        0
280
     1
281
     0
  0
CLASS
  1
ACAMGHOLECHARTSTDJIS
  2
AcAmgHoleChartStdJIS
  3
ACMSYMBB_MODULE_NAME
 90
        0
280
     1
281
     0
  0
CLASS
  1
CATALOGSTATE
  2
AcAmCatalogState
  3
DesignerAssemblies
 90
        0
280
     1
281
     0
  0
CLASS
  1
ACAMGRCOMPDEFSET
  2
AcAmGrCompDefSet
  3
DesignerAssemblies
 90
        0
280
     1
281
     0
  0
CLASS
  1
AMDTBROWSERDBTAB
  2
AmdtBrowserDbTab
  3
McadcomServices
 90
        0
280
     1
281
     0
  0
CLASS
  1
CBROWSERAPPOBJECT
  2
CBrowserAppObject
  3
McadcomServices
 90
        0
280
     1
281
     0
  0
CLASS
  1
DM_PLACEHOLDER
  2
AcDmSelsetPlaceholder
  3
AcMechDwgViewMgmt
 90
        0
280
     1
281
     0
  0
CLASS
  1
SORTENTSTABLE
  2
AcDbSortentsTable
  3
ObjectDBX Classes
 90
        0
280
     0
281
     0
  0
CLASS
  1
ACMSTANDARDISO
  2
AcmStandardISO
  3
"Amdt_StdImp|Product Description: AutoCAD Mechanical 2004 DX|Company: Autodesk"
 90
        0
280
     1
281
     0
  0
CLASS
  1
AMDTEDGESTANDARDISO13715
  2
AmdtEdgeStdISO13715
  3
"Amdt_StdImp|Product Description: AutoCAD Mechanical 2004 DX|Company: Autodesk"
 90
        0
280
     1
281
     0
  0
CLASS
  1
ACMSURFSTANDARDISO
  2
AcmSurfTextStdISO
  3
"Amdt_StdImp|Product Description: AutoCAD Mechanical 2004 DX|Company: Autodesk"
 90
        0
280
     1
281
     0
  0
CLASS
  1
ACMFCFSTANDARDISO
  2
AcmFCFStdISO
  3
"Amdt_StdImp|Product Description: AutoCAD Mechanical 2004 DX|Company: Autodesk"
 90
        0
280
     1
281
     0
  0
CLASS
  1
ACMWELDSTANDARDISO
  2
AcmWeldingStdISO
  3
"Amdt_StdImp|Product Description: AutoCAD Mechanical 2004 DX|Company: Autodesk"
 90
        0
280
     1
281
     0
  0
CLASS
  1
ACMIDSTANDARDISO
  2
AcmIdStdISO
  3
"Amdt_StdImp|Product Description: AutoCAD Mechanical 2004 DX|Company: Autodesk"
 90
        0
280
     1
281
     0
  0
CLASS
  1
ACMDATUMSTANDARDISO
  2
AcmDatumStdISO
  3
"Amdt_StdImp|Product Description: AutoCAD Mechanical 2004 DX|Company: Autodesk"
 90
        0
280
     1
281
     0
  0
CLASS
  1
ACMBOMSTANDARDISO
  2
AcmBOMStdISO
  3
"Amdt_StdImp|Product Description: AutoCAD Mechanical 2004 DX|Company: Autodesk"
 90
        0
280
     1
281
     0
  0
CLASS
  1
ACMDETAILSTANDARDISO
  2
AmdtDetailSymStdISO
  3
"Amdt_StdImp|Product Description: AutoCAD Mechanical 2004 DX|Company: Autodesk"
 90
        0
280
     1
281
     0
  0
CLASS
  1
ACMSECTIONSTANDARDISO
  2
AmdtSectionSymStdISO
  3
"Amdt_StdImp|Product Description: AutoCAD Mechanical 2004 DX|Company: Autodesk"
 90
        0
280
     1
281
     0
  0
CLASS
  1
ACMCENTERLINESTANDARDISO
  2
AmdtCenterLineStdISO
  3
"Amdt_StdImp|Product Description: AutoCAD Mechanical 2004 DX|Company: Autodesk"
 90
        0
280
     1
281
     0
  0
CLASS
  1
ACMTHREADLINESTANDARDISO
  2
AmdtThreadLineStdISO
  3
"Amdt_StdImp|Product Description: AutoCAD Mechanical 2004 DX|Company: Autodesk"
 90
        0
280
     1
281
     0
  0
CLASS
  1
ACMNOTESTANDARDISO
  2
AmdtNoteStdISO
  3
"Amdt_StdImp|Product Description: AutoCAD Mechanical 2004 DX|Company: Autodesk"
 90
        0
280
     1
281
     0
  0
CLASS
  1
ACAMGHOLECHARTSTDISO
  2
AcAmgHoleChartStdISO
  3
ACMSYMBB_MODULE_NAME
 90
        0
280
     1
281
     0
  0
ENDSEC
  0
SECTION
  2
TABLES
  0
TABLE
  2
VPORT
  5
8
330
0
100
AcDbSymbolTable
 70
     3
  0
VPORT
  5
11EA9
330
8
100
AcDbSymbolTableRecord
100
AcDbViewportTableRecord
  2
*Active
 70
     0
 10
0.0
 20
0.0
 11
1.0
 21
1.0
 12
27.91091261437846
 22
-42.16700158462112
 13
0.0
 23
0.0
 14
2.5
 24
2.5
 15
10.0
 25
10.0
 16
0.0
 26
0.0
 36
1.0
 17
0.0
 27
0.0
 37
0.0
 40
135.5534831478277
 41
1.697058823529412
 42
50.0
 43
0.0
 44
0.0
 50
0.0
 51
0.0
 71
    16
 72
 20000
 73
     1
 74
     3
 75
     0
 76
     0
 77
     0
 78
     0
281
     0
 65
     1
110
0.0
120
0.0
130
0.0
111
1.0
121
0.0
131
0.0
112
0.0
122
1.0
132
0.0
 79
     0
146
0.0
  0
ENDTAB
  0
TABLE
  2
LTYPE
  5
5
330
0
100
AcDbSymbolTable
 70
    16
  0
LTYPE
  5
14
330
5
100
AcDbSymbolTableRecord
100
AcDbLinetypeTableRecord
  2
ByBlock
 70
     0
  3

 72
    65
 73
     0
 40
0.0
  0
LTYPE
  5
15
330
5
100
AcDbSymbolTableRecord
100
AcDbLinetypeTableRecord
  2
ByLayer
 70
     0
  3

 72
    65
 73
     0
 40
0.0
  0
LTYPE
  5
16
330
5
100
AcDbSymbolTableRecord
100
AcDbLinetypeTableRecord
  2
Continuous
 70
     0
  3
Solid line
 72
    65
 73
     0
 40
0.0
  0
LTYPE
  5
43
330
5
100
AcDbSymbolTableRecord
100
AcDbLinetypeTableRecord
  2
AM_ISO02W050
 70
     0
  3
__ __ __ __ __ __ __ __ __ __ __ __ __ __ __
 72
    65
 73
     2
 40
7.5
 49
6.0
 74
     0
 49
-1.5
 74
     0
  0
LTYPE
  5
44
330
5
100
AcDbSymbolTableRecord
100
AcDbLinetypeTableRecord
  2
AM_ISO08W050
 70
     0
  3
____ . ____ . ____ . ____ . ____ . ____ . ____
 72
    65
 73
     4
 40
18.0
 49
12.0
 74
     0
 49
-1.5
 74
     0
 49
3.0
 74
     0
 49
-1.5
 74
     0
  0
LTYPE
  5
45
330
5
100
AcDbSymbolTableRecord
100
AcDbLinetypeTableRecord
  2
AM_ISO09W050
 70
     0
  3
_____ . . _____ . . _____ . . ____ .. ____
 72
    65
 73
     6
 40
22.5
 49
12.0
 74
     0
 49
-1.5
 74
     0
 49
3.0
 74
     0
 49
-1.5
 74
     0
 49
3.0
 74
     0
 49
-1.5
 74
     0
  0
LTYPE
  5
46
330
5
100
AcDbSymbolTableRecord
100
AcDbLinetypeTableRecord
  2
Amconstr
 70
     0
  3
_______________________
 72
    65
 73
     2
 40
9999.0
 49
9999.0
 74
     0
 49
0.0
 74
     0
  0
LTYPE
  5
47
330
5
100
AcDbSymbolTableRecord
100
AcDbLinetypeTableRecord
  2
AM_ISO02W050x2
 70
     0
  3
 _ _ _ _ _ _ _ _ _ _ _ _
 72
    65
 73
     2
 40
3.75
 49
3.0
 74
     0
 49
-0.75
 74
     0
  0
LTYPE
  5
48
330
5
100
AcDbSymbolTableRecord
100
AcDbLinetypeTableRecord
  2
AM_ISO08W050x2
 70
     0
  3
__ . __ . __ . __ . __ . __
 72
    65
 73
     4
 40
9.0
 49
6.0
 74
     0
 49
-0.75
 74
     0
 49
1.5
 74
     0
 49
-0.75
 74
     0
  0
LTYPE
  5
4B
330
5
100
AcDbSymbolTableRecord
100
AcDbLinetypeTableRecord
  2
Amzigzag
 70
     0
  3
/\/-/\/-/\/-/\/-/\/-/\/
 72
    65
 73
     2
 40
11.0001
 49
0.0001
 74
     4
 75
   135
340
4A
 46
0.04
 50
0.0
 44
0.0
 45
0.0
 49
-11.0
 74
     0
  0
LTYPE
  5
188
330
5
100
AcDbSymbolTableRecord
100
AcDbLinetypeTableRecord
  2
ACJISTGB
 70
     0
  3
__ . . __ . .
 72
    65
 73
     6
 40
9.0
 49
4.0
 74
     0
 49
-1.0
 74
     0
 49
1.0
 74
     0
 49
-1.0
 74
     0
 49
1.0
 74
     0
 49
-1.0
 74
     0
  0
LTYPE
  5
189
330
5
100
AcDbSymbolTableRecord
100
AcDbLinetypeTableRecord
  2
ACJISTGL
 70
     0
  3
_ _ _ _ _
 72
    65
 73
     2
 40
3.0
 49
2.0
 74
     0
 49
-1.0
 74
     0
  0
LTYPE
  5
652
330
5
100
AcDbSymbolTableRecord
100
AcDbLinetypeTableRecord
  2
CENTER
 70
     0
  3
____ _ ____ _ ____ _ ____ _ ____ _ ____ _ ____
 72
    65
 73
     4
 40
17.5
 49
13.0
 74
     0
 49
-1.5
 74
     0
 49
1.5
 74
     0
 49
-1.5
 74
     0
  0
LTYPE
  5
12AB
330
5
100
AcDbSymbolTableRecord
100
AcDbLinetypeTableRecord
  2
HIDDEN
 70
     0
  3
Hidden __ __ __ __ __ __ __ __ __ __ __ __ __ _
 72
    65
 73
     2
 40
0.375
 49
0.25
 74
     0
 49
-0.125
 74
     0
  0
LTYPE
  5
12AC
330
5
100
AcDbSymbolTableRecord
100
AcDbLinetypeTableRecord
  2
PHANTOM2
 70
     0
  3
Phantom (.5x) ___ _ _ ___ _ _ ___ _ _ ___ _ _
 72
    65
 73
     6
 40
1.25
 49
0.625
 74
     0
 49
-0.125
 74
     0
 49
0.125
 74
     0
 49
-0.125
 74
     0
 49
0.125
 74
     0
 49
-0.125
 74
     0
  0
LTYPE
  5
F5A5
330
5
100
AcDbSymbolTableRecord
100
AcDbLinetypeTableRecord
  2
ACISOWELD
 70
     0
  3
_ _ _ _ _
 72
    65
 73
     2
 40
2.0
 49
2.0
 74
     0
 49
-1.0
 74
     0
  0
LTYPE
  5
F5A6
330
5
100
AcDbSymbolTableRecord
100
AcDbLinetypeTableRecord
  2
ACISOTGB
 70
     0
  3
__ . . __ . .
 72
    65
 73
     6
 40
9.0
 49
4.0
 74
     0
 49
-1.0
 74
     0
 49
1.0
 74
     0
 49
-1.0
 74
     0
 49
1.0
 74
     0
 49
-1.0
 74
     0
  0
LTYPE
  5
F5A7
330
5
100
AcDbSymbolTableRecord
100
AcDbLinetypeTableRecord
  2
ACISOTGL
 70
     0
  3
_ _ _ _ _
 72
    65
 73
     2
 40
3.0
 49
2.0
 74
     0
 49
-1.0
 74
     0
  0
ENDTAB
  0
TABLE
  2
LAYER
  5
2
102
{ACAD_XDICTIONARY
360
EDC8
102
}
330
0
100
AcDbSymbolTable
 70
     5
  0
LAYER
  5
10
330
2
100
AcDbSymbolTableRecord
100
AcDbLayerTableRecord
  2
0
 70
     0
 62
     7
  6
Continuous
370
    -3
390
F
  0
LAYER
  5
7D
330
2
100
AcDbSymbolTableRecord
100
AcDbLayerTableRecord
  2
AM_5
 70
     0
 62
     3
  6
Continuous
370
    13
390
F
  0
LAYER
  5
7F
330
2
100
AcDbSymbolTableRecord
100
AcDbLayerTableRecord
  2
Defpoints
 70
     0
 62
     7
  6
Continuous
290
     0
370
    -3
390
F
  0
LAYER
  5
12B1
330
2
100
AcDbSymbolTableRecord
100
AcDbLayerTableRecord
  2
AM_0
 70
     0
 62
     7
  6
Continuous
370
    30
390
F
  0
LAYER
  5
18A5
330
2
100
AcDbSymbolTableRecord
100
AcDbLayerTableRecord
  2
AM_6
 70
     0
 62
     2
  6
Continuous
370
    30
390
F
  0
ENDTAB
  0
TABLE
  2
STYLE
  5
3
330
0
100
AcDbSymbolTable
 70
     6
  0
STYLE
  5
11
330
3
100
AcDbSymbolTableRecord
100
AcDbTextStyleTableRecord
  2
STANDARD
 70
     0
 40
0.0
 41
1.0
 50
0.0
 71
     0
 42
4.0
  3
ISOCP.SHX
  4
EXTFONT.SHX
  0
STYLE
  5
4A
330
3
100
AcDbSymbolTableRecord
100
AcDbTextStyleTableRecord
  2

 70
     1
 40
0.0
 41
1.0
 50
0.0
 71
     0
 42
2.5
  3
ltypeshp.shx
  4

  0
STYLE
  5
180
330
3
100
AcDbSymbolTableRecord
100
AcDbTextStyleTableRecord
  2
ACJISTS
 70
     0
 40
1.0
 41
1.0
 50
0.0
 71
     0
 42
2.5
  3
isocp.shx
  4
bigfont.shx
  0
STYLE
  5
187
330
3
100
AcDbSymbolTableRecord
100
AcDbTextStyleTableRecord
  2
ACJISGDT
 70
     0
 40
0.0
 41
1.0
 50
0.0
 71
     0
 42
2.5
  3
amgdt.shx
  4

  0
STYLE
  5
F5A9
330
3
100
AcDbSymbolTableRecord
100
AcDbTextStyleTableRecord
  2
ACISOTS
 70
     0
 40
1.0
 41
1.0
 50
0.0
 71
     0
 42
1.0
  3
isocp.shx
  4
extfont.shx
  0
STYLE
  5
F5AA
330
3
100
AcDbSymbolTableRecord
100
AcDbTextStyleTableRecord
  2
ACISOGDT
 70
     0
 40
0.0
 41
1.0
 50
0.0
 71
     0
 42
1.0
  3
amgdt.shx
  4

  0
ENDTAB
  0
TABLE
  2
VIEW
  5
6
330
0
100
AcDbSymbolTable
 70
     6
  0
VIEW
  5
A30
330
6
100
AcDbSymbolTableRecord
100
AcDbViewTableRecord
  2
AM_VIEW1
 70
     0
 40
148.5
 10
109.5616966580977
 20
222.75
 41
219.1233933161954
 11
0.0
 21
0.0
 31
1.0
 12
0.0
 22
0.0
 32
0.0
 42
50.0
 43
0.0
 44
0.0
 50
0.0
 71
    16
281
     0
 72
     0
  0
VIEW
  5
A31
330
6
100
AcDbSymbolTableRecord
100
AcDbViewTableRecord
  2
AM_VIEW2
 70
     0
 40
148.5
 10
310.4383033419023
 20
222.75
 41
219.1233933161954
 11
0.0
 21
0.0
 31
1.0
 12
0.0
 22
0.0
 32
0.0
 42
50.0
 43
0.0
 44
0.0
 50
0.0
 71
    16
281
     0
 72
     0
  0
VIEW
  5
A32
330
6
100
AcDbSymbolTableRecord
100
AcDbViewTableRecord
  2
AM_VIEW3
 70
     0
 40
148.5
 10
109.5616966580977
 20
74.25
 41
219.1233933161954
 11
0.0
 21
0.0
 31
1.0
 12
0.0
 22
0.0
 32
0.0
 42
50.0
 43
0.0
 44
0.0
 50
0.0
 71
    16
281
     0
 72
     0
  0
VIEW
  5
A33
330
6
100
AcDbSymbolTableRecord
100
AcDbViewTableRecord
  2
AM_VIEW4
 70
     0
 40
148.5
 10
310.4383033419023
 20
74.25
 41
219.1233933161954
 11
0.0
 21
0.0
 31
1.0
 12
0.0
 22
0.0
 32
0.0
 42
50.0
 43
0.0
 44
0.0
 50
0.0
 71
    16
281
     0
 72
     0
  0
VIEW
  5
A34
330
6
100
AcDbSymbolTableRecord
100
AcDbViewTableRecord
  2
AM_VIEW5
 70
     0
 40
148.5
 10
210.0
 20
148.5
 41
219.1233933161954
 11
0.0
 21
0.0
 31
1.0
 12
0.0
 22
0.0
 32
0.0
 42
50.0
 43
0.0
 44
0.0
 50
0.0
 71
    16
281
     0
 72
     0
  0
VIEW
  5
A35
330
6
100
AcDbSymbolTableRecord
100
AcDbViewTableRecord
  2
AM_VIEW6
 70
     0
 40
296.99703
 10
210.0
 20
148.5
 41
438.2424041645245
 11
0.0
 21
0.0
 31
1.0
 12
0.0
 22
0.0
 32
0.0
 42
50.0
 43
0.0
 44
0.0
 50
0.0
 71
    16
281
     0
 72
     0
  0
ENDTAB
  0
TABLE
  2
UCS
  5
7
330
0
100
AcDbSymbolTable
 70
     0
  0
ENDTAB
  0
TABLE
  2
APPID
  5
9
330
0
100
AcDbSymbolTable
 70
    45
  0
APPID
  5
12
330
9
100
AcDbSymbolTableRecord
100
AcDbRegAppTableRecord
  2
ACAD
 70
     0
  0
APPID
  5
2C
330
9
100
AcDbSymbolTableRecord
100
AcDbRegAppTableRecord
  2
MCAD_NO_VIS
 70
     0
  0
APPID
  5
2D
330
9
100
AcDbSymbolTableRecord
100
AcDbRegAppTableRecord
  2
ACAD_TEMP_GRAPHIC
 70
     0
  0
APPID
  5
B9
330
9
100
AcDbSymbolTableRecord
100
AcDbRegAppTableRecord
  2
GENIUS_GENDTOL_13
 70
     0
  0
APPID
  5
359
330
9
100
AcDbSymbolTableRecord
100
AcDbRegAppTableRecord
  2
GENIUS_GENREC_14
 70
     0
  0
APPID
  5
35A
330
9
100
AcDbSymbolTableRecord
100
AcDbRegAppTableRecord
  2
GENIUS_GENODEF_13
 70
     0
  0
APPID
  5
35B
330
9
100
AcDbSymbolTableRecord
100
AcDbRegAppTableRecord
  2
GENIUS_GENOBJ-N-REC_13
 70
     0
  0
APPID
  5
667
330
9
100
AcDbSymbolTableRecord
100
AcDbRegAppTableRecord
  2
GENIUS_GENCFG_13
 70
     0
  0
APPID
  5
668
330
9
100
AcDbSymbolTableRecord
100
AcDbRegAppTableRecord
  2
GENIUS_GENCFG0_13
 70
     0
  0
APPID
  5
669
330
9
100
AcDbSymbolTableRecord
100
AcDbRegAppTableRecord
  2
GENIUS_GENCFG1_13
 70
     0
  0
APPID
  5
66A
330
9
100
AcDbSymbolTableRecord
100
AcDbRegAppTableRecord
  2
GENIUS_GENCFG2_13
 70
     0
  0
APPID
  5
66B
330
9
100
AcDbSymbolTableRecord
100
AcDbRegAppTableRecord
  2
GENIUS_GENCFG3_13
 70
     0
  0
APPID
  5
66C
330
9
100
AcDbSymbolTableRecord
100
AcDbRegAppTableRecord
  2
GENIUS_GENCFG4_13
 70
     0
  0
APPID
  5
A76
330
9
100
AcDbSymbolTableRecord
100
AcDbRegAppTableRecord
  2
GENIUS_GENBLLY_14
 70
     0
  0
APPID
  5
A77
330
9
100
AcDbSymbolTableRecord
100
AcDbRegAppTableRecord
  2
GENIUS_GENOBJ-N-CEN_13
 70
     0
  0
APPID
  5
A83
330
9
100
AcDbSymbolTableRecord
100
AcDbRegAppTableRecord
  2
GENIUS_GENTRA_14
 70
     0
  0
APPID
  5
A8D
330
9
100
AcDbSymbolTableRecord
100
AcDbRegAppTableRecord
  2
GENIUS_GENOBJ-N-TIT_13
 70
     0
  0
APPID
  5
A8E
330
9
100
AcDbSymbolTableRecord
100
AcDbRegAppTableRecord
  2
GENIUS_GENTITLE_13
 70
     0
  0
APPID
  5
A8F
330
9
100
AcDbSymbolTableRecord
100
AcDbRegAppTableRecord
  2
GENIUS_GENOENT_13
 70
     0
  0
APPID
  5
A90
330
9
100
AcDbSymbolTableRecord
100
AcDbRegAppTableRecord
  2
GENIUS_GENOREF_13
 70
     0
  0
APPID
  5
A91
330
9
100
AcDbSymbolTableRecord
100
AcDbRegAppTableRecord
  2
GENIUS_GENOLIS_13
 70
     0
  0
APPID
  5
A92
330
9
100
AcDbSymbolTableRecord
100
AcDbRegAppTableRecord
  2
GENIUS_GENZVEED_13
 70
     0
  0
APPID
  5
A93
330
9
100
AcDbSymbolTableRecord
100
AcDbRegAppTableRecord
  2
GENIUS_GENSCREG_15
 70
     0
  0
APPID
  5
A94
330
9
100
AcDbSymbolTableRecord
100
AcDbRegAppTableRecord
  2
GENIUS_GENOBJ-N-SDF_13
 70
     0
  0
APPID
  5
12B5
330
9
100
AcDbSymbolTableRecord
100
AcDbRegAppTableRecord
  2
GENIUS_GENOBJ-N-RSBK_13
 70
     0
  0
APPID
  5
12B6
330
9
100
AcDbSymbolTableRecord
100
AcDbRegAppTableRecord
  2
GENIUS_GENOBJ-N-LIB_13
 70
     0
  0
APPID
  5
12B7
330
9
100
AcDbSymbolTableRecord
100
AcDbRegAppTableRecord
  2
GENIUS_GENSCALE_13
 70
     0
  0
APPID
  5
12B8
330
9
100
AcDbSymbolTableRecord
100
AcDbRegAppTableRecord
  2
GENIUS_GENOBJ-N-HTC_13
 70
     0
  0
APPID
  5
12B9
330
9
100
AcDbSymbolTableRecord
100
AcDbRegAppTableRecord
  2
GENIUS_GENHATCH_13
 70
     0
  0
APPID
  5
18AA
330
9
100
AcDbSymbolTableRecord
100
AcDbRegAppTableRecord
  2
BASE_TYPE
 70
     0
  0
APPID
  5
18AB
330
9
100
AcDbSymbolTableRecord
100
AcDbRegAppTableRecord
  2
GENIUS_GENOBJ-N-FIL_13
 70
     0
  0
APPID
  5
1E91
330
9
100
AcDbSymbolTableRecord
100
AcDbRegAppTableRecord
  2
GENIUS_GENOBJ-N-CRS_13
 70
     0
  0
APPID
  5
3B24
330
9
100
AcDbSymbolTableRecord
100
AcDbRegAppTableRecord
  2
GENIUS_GENDIMSH_14
 70
     0
  0
APPID
  5
4D78
330
9
100
AcDbSymbolTableRecord
100
AcDbRegAppTableRecord
  2
GENIUS_GENOBJ-N-DIM_13
 70
     0
  0
APPID
  5
4D79
330
9
100
AcDbSymbolTableRecord
100
AcDbRegAppTableRecord
  2
GENIUS_GENDIM_13
 70
     0
  0
APPID
  5
517C
330
9
100
AcDbSymbolTableRecord
100
AcDbRegAppTableRecord
  2
GENIUS_GENFIL_13
 70
     0
  0
APPID
  5
517D
330
9
100
AcDbSymbolTableRecord
100
AcDbRegAppTableRecord
  2
GENIUS_GENOBJ-N-CHA_13
 70
     0
  0
APPID
  5
ED83
330
9
100
AcDbSymbolTableRecord
100
AcDbRegAppTableRecord
  2
AD_DRAW
 70
     0
  0
APPID
  5
ED86
330
9
100
AcDbSymbolTableRecord
100
AcDbRegAppTableRecord
  2
ACATTRIBSERVICES
 70
     0
  0
APPID
  5
EDA4
330
9
100
AcDbSymbolTableRecord
100
AcDbRegAppTableRecord
  2
DESIGNERASSEMBLIES
 70
     0
  0
APPID
  5
EDB7
330
9
100
AcDbSymbolTableRecord
100
AcDbRegAppTableRecord
  2
ACADM_DIM_EDIT
 70
     0
  0
APPID
  5
EDB8
330
9
100
AcDbSymbolTableRecord
100
AcDbRegAppTableRecord
  2
AMDT_DM_ADJ
 70
     0
  0
APPID
  5
F08C
330
9
100
AcDbSymbolTableRecord
100
AcDbRegAppTableRecord
  2
ACAD_PSEXT
 70
     0
  0
APPID
  5
F2B1
330
9
100
AcDbSymbolTableRecord
100
AcDbRegAppTableRecord
  2
GENIUS_GENCEN_19
 70
     0
  0
APPID
  5
10513
330
9
100
AcDbSymbolTableRecord
100
AcDbRegAppTableRecord
  2
ACAD_DSTYLE_DIMTEXT_FILL
 70
     0
  0
ENDTAB
  0
TABLE
  2
DIMSTYLE
  5
A
330
0
100
AcDbSymbolTable
 70
    17
100
AcDbDimStyleTable
  0
DIMSTYLE
105
58
330
A
100
AcDbSymbolTableRecord
100
AcDbDimStyleTableRecord
  2
AM_JIS
 70
     0
  4
"
 41
2.5
 42
0.0
 43
10.0
 44
1.0
 47
0.1
 48
0.1000000001
 73
     0
 74
     0
 77
     3
 78
     1
 79
     2
140
3.8
141
0.0
143
0.0393701
146
0.71
147
1.5
172
     1
176
   256
177
   256
178
     2
179
     1
271
     2
272
     2
275
     1
283
     0
284
     8
340
11
341
59
342
59
371
    -1
372
    -1
  0
DIMSTYLE
105
5F
330
A
100
AcDbSymbolTableRecord
100
AcDbDimStyleTableRecord
  2
AM_JIS$3
 70
     0
  4
"
 41
2.5
 42
0.0
 43
10.0
 44
1.0
 47
0.1
 48
0.1000000001
 73
     0
 77
     3
 78
     1
 79
     2
140
3.8
141
0.0
143
0.0393701
146
0.71
147
1.5
172
     1
176
   256
177
   256
178
     2
179
     1
271
     2
272
     2
275
     1
283
     0
284
     8
288
     1
289
     0
340
11
341
59
342
59
371
    -1
372
    -1
  0
DIMSTYLE
105
60
330
A
100
AcDbSymbolTableRecord
100
AcDbDimStyleTableRecord
  2
AM_JIS$4
 70
     0
  4
"
 41
2.5
 42
0.0
 43
10.0
 44
1.0
 47
0.1
 48
0.1000000001
 73
     0
 77
     3
 78
     1
 79
     2
140
3.8
141
0.0
143
0.0393701
146
0.71
147
1.5
172
     1
176
   256
177
   256
178
     2
179
     1
271
     2
272
     2
275
     1
283
     0
284
     8
288
     1
289
     0
340
11
341
59
342
59
371
    -1
372
    -1
  0
DIMSTYLE
105
61
330
A
100
AcDbSymbolTableRecord
100
AcDbDimStyleTableRecord
  2
AM_JIS$6
 70
     0
  4
"
 41
2.5
 42
0.0
 43
10.0
 44
1.0
 47
0.1
 48
0.1000000001
 73
     0
 74
     0
 78
     1
 79
     2
140
3.8
141
0.0
143
0.0393701
146
0.71
147
1.5
172
     1
176
   256
177
   256
178
     2
179
     1
271
     2
272
     2
275
     1
283
     0
284
     8
340
11
341
59
342
59
371
    -1
372
    -1
  0
DIMSTYLE
105
62
330
A
100
AcDbSymbolTableRecord
100
AcDbDimStyleTableRecord
  2
AM_JIS$7
 70
     0
  4
"
 41
2.5
 42
0.0
 43
10.0
 44
1.0
 47
0.1
 48
0.1000000001
 73
     0
 74
     0
 77
     3
 78
     1
 79
     2
140
5.0
141
0.0
143
0.0393701
146
0.71
147
1.5
172
     1
176
   256
177
   256
178
     2
179
     1
271
     2
272
     2
275
     1
283
     0
284
     8
340
11
341
59
342
59
371
    -1
372
    -1
  0
DIMSTYLE
105
63
330
A
100
AcDbSymbolTableRecord
100
AcDbDimStyleTableRecord
  2
AM_JIS$SF
 70
     0
  4
"
 41
2.5
 42
1.0
 43
10.0
 44
1.0
 47
0.1
 48
0.1
 73
     0
 74
     0
 75
     1
 76
     1
 77
     3
 78
     8
 79
     2
140
3.5
141
0.0
143
0.0393701
146
0.71
147
1.5
176
   256
177
   256
178
     2
271
     2
272
     3
274
     4
340
11
341
59
342
59
343
59
344
59
371
    -1
372
    -1
  0
DIMSTYLE
105
68
330
A
100
AcDbSymbolTableRecord
100
AcDbDimStyleTableRecord
  2
AM_JIS$SH
 70
     0
  4
"
 41
2.5
 42
1.0
 43
10.0
 44
1.0
 47
0.1
 48
0.1
 73
     0
 74
     0
 75
     1
 76
     1
 77
     3
 78
     8
 79
     2
140
3.5
141
0.0
143
0.0393701
144
2.0
146
0.71
147
1.5
173
     1
176
   256
177
   256
178
     2
271
     2
272
     3
274
     4
340
11
341
59
342
59
343
64
344
59
371
    -1
372
    -1
  0
DIMSTYLE
105
65F
330
A
100
AcDbSymbolTableRecord
100
AcDbDimStyleTableRecord
  2
STANDARD
 70
     0
340
11
  0
DIMSTYLE
105
18A8
102
{ACAD_REACTORS
330
D329
330
D81E
330
EECB
330
EFBF
330
F04E
330
FE88
102
}
330
A
100
AcDbSymbolTableRecord
100
AcDbDimStyleTableRecord
  2
AM_JIS$0
 70
     0
  4
"
 41
2.5
 42
0.0
 43
10.0
 44
1.0
 47
0.1
 48
0.1000000001
 73
     0
 74
     0
 77
     3
 78
     1
 79
     2
140
3.8
141
0.0
143
0.0393701
146
0.71
147
1.5
172
     1
176
     3
177
     3
178
     2
271
     2
272
     2
275
     1
283
     0
284
     8
289
     0
340
11
341
59
342
59
371
    13
372
    13
  0
DIMSTYLE
105
18A9
102
{ACAD_REACTORS
330
11D06
102
}
330
A
100
AcDbSymbolTableRecord
100
AcDbDimStyleTableRecord
  2
AM_JIS$2
 70
     0
  4
"
 41
2.5
 42
0.0
 43
10.0
 44
1.0
 47
0.1
 48
0.1000000001
 73
     0
 74
     0
 77
     3
 78
     1
 79
     2
140
3.8
141
0.0
143
0.0393701
146
0.71
147
1.5
172
     1
176
     3
177
     3
178
     2
271
     2
272
     2
275
     1
283
     0
284
     8
289
     0
340
11
341
59
342
59
371
    13
372
    13
  0
DIMSTYLE
105
F5AE
330
A
100
AcDbSymbolTableRecord
100
AcDbDimStyleTableRecord
  2
AM_ISO
 70
     0
  4
"
 41
2.5
 42
1.0
 43
10.0
 44
1.0
 47
0.1
 48
0.1
 73
     0
 74
     0
 77
     1
 78
     8
 79
     2
140
3.5
141
0.0
143
0.0393701
146
0.71
147
1.5
172
     1
176
   256
177
   256
178
     2
271
     2
272
     3
274
     4
283
     0
284
     8
340
11
371
    -1
372
    -1
  0
DIMSTYLE
105
F5AF
330
A
100
AcDbSymbolTableRecord
100
AcDbDimStyleTableRecord
  2
AM_ISO$3
 70
     0
  4
"
 41
2.5
 42
1.0
 43
10.0
 44
1.0
 47
0.1
 48
0.1
 73
     0
 77
     1
 78
     8
 79
     2
140
3.5
141
0.0
143
0.0393701
146
0.71
147
1.5
176
   256
177
   256
178
     2
271
     2
272
     3
274
     4
283
     0
284
     8
288
     1
289
     0
340
11
371
    -1
372
    -1
  0
DIMSTYLE
105
F5B0
330
A
100
AcDbSymbolTableRecord
100
AcDbDimStyleTableRecord
  2
AM_ISO$4
 70
     0
  4
"
 41
2.5
 42
1.0
 43
10.0
 44
1.0
 47
0.1
 48
0.1
 73
     0
 77
     1
 78
     8
 79
     2
140
3.5
141
0.0
143
0.0393701
146
0.71
147
1.5
176
   256
177
   256
178
     2
271
     2
272
     3
274
     4
283
     0
284
     8
288
     1
289
     0
340
11
371
    -1
372
    -1
  0
DIMSTYLE
105
F5B1
330
A
100
AcDbSymbolTableRecord
100
AcDbDimStyleTableRecord
  2
AM_ISO$6
 70
     0
  4
"
 41
2.5
 42
1.0
 43
10.0
 44
1.0
 47
0.1
 48
0.1
 73
     0
 74
     0
 78
     8
 79
     2
140
3.5
141
0.0
143
0.0393701
146
0.71
147
1.5
172
     1
176
   256
177
   256
178
     2
271
     2
272
     3
274
     4
283
     0
284
     8
340
11
371
    -1
372
    -1
  0
DIMSTYLE
105
F5B2
330
A
100
AcDbSymbolTableRecord
100
AcDbDimStyleTableRecord
  2
AM_ISO$7
 70
     0
  4
"
 41
2.5
 42
1.0
 43
10.0
 44
1.0
 47
0.1
 48
0.1
 73
     0
 74
     0
 77
     1
 78
     8
 79
     2
140
5.0
141
0.0
143
0.0393701
146
0.71
147
1.5
172
     1
176
   256
177
   256
178
     2
271
     2
272
     3
274
     4
283
     0
284
     8
340
11
371
    -1
372
    -1
  0
DIMSTYLE
105
F5B3
330
A
100
AcDbSymbolTableRecord
100
AcDbDimStyleTableRecord
  2
AM_ISO$SF
 70
     0
  4
"
 41
2.5
 42
1.0
 43
10.0
 44
1.0
 47
0.1
 48
0.1
 73
     0
 74
     0
 75
     1
 76
     1
 77
     1
 78
     8
 79
     2
140
3.5
141
0.0
143
0.0393701
146
0.71
147
1.5
172
     1
176
   256
177
   256
178
     2
271
     2
272
     3
274
     4
283
     0
284
     8
340
11
371
    -1
372
    -1
  0
DIMSTYLE
105
F5B4
330
A
100
AcDbSymbolTableRecord
100
AcDbDimStyleTableRecord
  2
AM_ISO$SH
 70
     0
  4
"
 41
2.5
 42
1.0
 43
10.0
 44
1.0
 47
0.1
 48
0.1
 73
     0
 74
     0
 75
     1
 76
     1
 77
     1
 78
     8
 79
     2
140
3.5
141
0.0
143
0.0393701
144
2.0
146
0.71
147
1.5
172
     1
173
     1
176
   256
177
   256
178
     2
271
     2
272
     3
274
     4
283
     0
284
     8
340
11
343
64
371
    -1
372
    -1
  0
ENDTAB
  0
TABLE
  2
BLOCK_RECORD
  5
1
330
0
100
AcDbSymbolTable
 70
    11
  0
BLOCK_RECORD
  5
1F
102
{ACAD_XDICTIONARY
360
165
102
}
330
1
100
AcDbSymbolTableRecord
100
AcDbBlockTableRecord
  2
*Model_Space
340
22
  0
BLOCK_RECORD
  5
1B
330
1
100
AcDbSymbolTableRecord
100
AcDbBlockTableRecord
  2
*Paper_Space
340
1E
  0
BLOCK_RECORD
  5
23
330
1
100
AcDbSymbolTableRecord
100
AcDbBlockTableRecord
  2
*Paper_Space0
340
26
  0
BLOCK_RECORD
  5
59
330
1
100
AcDbSymbolTableRecord
100
AcDbBlockTableRecord
  2
_Open30
340
0
102
{BLKREFS
331
11E4E
331
11E4F
331
11E73
331
11E74
331
11E3C
331
11E3D
331
11E2A
331
11E2B
331
11E85
331
11E86
331
11E61
331
11E62
331
11DEE
331
11DEF
102
}
  0
BLOCK_RECORD
  5
64
330
1
100
AcDbSymbolTableRecord
100
AcDbBlockTableRecord
  2
GENAXEH
340
0
  0
BLOCK_RECORD
  5
D32A
330
1
100
AcDbSymbolTableRecord
100
AcDbBlockTableRecord
  2
*D3
340
0
  0
BLOCK_RECORD
  5
D81F
330
1
100
AcDbSymbolTableRecord
100
AcDbBlockTableRecord
  2
*D4
340
0
  0
BLOCK_RECORD
  5
ED9B
330
1
100
AcDbSymbolTableRecord
100
AcDbBlockTableRecord
  2
*U5
340
0
  0
BLOCK_RECORD
  5
EECC
330
1
100
AcDbSymbolTableRecord
100
AcDbBlockTableRecord
  2
*D6
340
0
  0
BLOCK_RECORD
  5
EFC0
330
1
100
AcDbSymbolTableRecord
100
AcDbBlockTableRecord
  2
*D7
340
0
  0
BLOCK_RECORD
  5
F04F
330
1
100
AcDbSymbolTableRecord
100
AcDbBlockTableRecord
  2
*D8
340
0
  0
BLOCK_RECORD
  5
FE89
330
1
100
AcDbSymbolTableRecord
100
AcDbBlockTableRecord
  2
*D9
340
0
  0
BLOCK_RECORD
  5
11D07
330
1
100
AcDbSymbolTableRecord
100
AcDbBlockTableRecord
  2
*D10
340
0
  0
ENDTAB
  0
ENDSEC
  0
SECTION
  2
BLOCKS
  0
BLOCK
  5
20
330
1F
100
AcDbEntity
  8
0
100
AcDbBlockBegin
  2
*Model_Space
 70
     0
 71
     0
 10
0.0
 20
0.0
 30
0.0
  3
*Model_Space
  1

  0
ENDBLK
  5
21
330
1F
100
AcDbEntity
  8
0
100
AcDbBlockEnd
  0
BLOCK
  5
1C
330
1B
100
AcDbEntity
 67
     1
  8
0
100
AcDbBlockBegin
  2
*Paper_Space
 70
     0
 71
     0
 10
0.0
 20
0.0
 30
0.0
  3
*Paper_Space
  1

  0
ENDBLK
  5
1D
330
1B
100
AcDbEntity
 67
     1
  8
0
100
AcDbBlockEnd
  0
BLOCK
  5
24
330
23
100
AcDbEntity
  8
0
100
AcDbBlockBegin
  2
*Paper_Space0
 70
     0
 71
     0
 10
0.0
 20
0.0
 30
0.0
  3
*Paper_Space0
  1

  0
ENDBLK
  5
25
330
23
100
AcDbEntity
  8
0
100
AcDbBlockEnd
  0
BLOCK
  5
5D
330
59
100
AcDbEntity
  8
0
100
AcDbBlockBegin
  2
_Open30
 70
     0
 71
     0
 10
0.0
 20
0.0
 30
0.0
  3
_Open30
  1

  0
LINE
  5
5A
330
59
100
AcDbEntity
  8
0
 62
     0
370
    -2
100
AcDbLine
 10
-1.0
 20
0.26794919
 30
0.0
 11
0.0
 21
0.0
 31
0.0
  0
LINE
  5
5B
330
59
100
AcDbEntity
  8
0
 62
     0
370
    -2
100
AcDbLine
 10
0.0
 20
0.0
 30
0.0
 11
-1.0
 21
-0.26794919
 31
0.0
  0
LINE
  5
5C
330
59
100
AcDbEntity
  8
0
 62
     0
370
    -2
100
AcDbLine
 10
0.0
 20
0.0
 30
0.0
 11
-1.0
 21
0.0
 31
0.0
  0
ENDBLK
  5
5E
330
59
100
AcDbEntity
  8
0
100
AcDbBlockEnd
  0
BLOCK
  5
66
330
64
100
AcDbEntity
  8
0
100
AcDbBlockBegin
  2
GENAXEH
 70
     0
 71
     0
 10
0.0
 20
0.0
 30
0.0
  3
GENAXEH
  1

  0
LINE
  5
65
330
64
100
AcDbEntity
  8
0
100
AcDbLine
 10
-1.0
 20
0.0
 30
0.0
 11
1.0
 21
0.0
 31
0.0
  0
ENDBLK
  5
67
330
64
100
AcDbEntity
  8
0
100
AcDbBlockEnd
  0
BLOCK
  5
D334
330
D32A
100
AcDbEntity
  8
0
100
AcDbBlockBegin
  2
*D3
 70
     1
 71
     0
 10
0.0
 20
0.0
 30
0.0
  3
*D3
  1

  0
LINE
  5
11E4B
330
D32A
100
AcDbEntity
  8
AM_5
 62
     3
370
    13
100
AcDbLine
 10
0.0
 20
0.5580047974186471
 30
0.0
 11
-0.0000000000000018
 21
-29.28644961362011
 31
0.0
  0
LINE
  5
11E4C
330
D32A
100
AcDbEntity
  8
AM_5
 62
     3
370
    13
100
AcDbLine
 10
124.9999999999975
 20
5.0
 30
0.0
 11
124.9999999999975
 21
-29.28644961362011
 31
0.0
  0
LINE
  5
11E4D
330
D32A
100
AcDbEntity
  8
AM_5
 62
     3
370
    13
100
AcDbLine
 10
2.499999999999998
 20
-28.28644961362011
 30
0.0
 11
122.4999999999975
 21
-28.28644961362011
 31
0.0
  0
INSERT
  5
11E4E
330
D32A
100
AcDbEntity
  8
AM_5
 62
     3
370
    13
100
AcDbBlockReference
  2
_Open30
 10
-0.0000000000000018
 20
-28.28644961362011
 30
0.0
 41
2.5
 42
2.5
 43
2.5
 50
180.0
  0
INSERT
  5
11E4F
330
D32A
100
AcDbEntity
  8
AM_5
 62
     3
370
    13
100
AcDbBlockReference
  2
_Open30
 10
124.9999999999975
 20
-28.28644961362011
 30
0.0
 41
2.5
 42
2.5
 43
2.5
  0
MTEXT
  5
11E50
330
D32A
100
AcDbEntity
  8
AM_5
 62
     2
370
    13
100
AcDbMText
 10
62.49999999999876
 20
-24.88607559787208
 30
0.0
 40
3.8
 41
0.0
 71
     5
 72
     1
  1
125
 73
     1
 44
1.0
  0
POINT
  5
11E51
330
D32A
100
AcDbEntity
  8
Defpoints
 62
     0
100
AcDbPoint
 10
0.0
 20
0.5580047974186471
 30
0.0
  0
POINT
  5
11E52
330
D32A
100
AcDbEntity
  8
Defpoints
 62
     0
100
AcDbPoint
 10
124.9999999999975
 20
5.0
 30
0.0
  0
POINT
  5
11E53
330
D32A
100
AcDbEntity
  8
Defpoints
 62
     0
100
AcDbPoint
 10
124.9999999999975
 20
-28.28644961362011
 30
0.0
  0
ENDBLK
  5
D335
330
D32A
100
AcDbEntity
  8
0
100
AcDbBlockEnd
  0
BLOCK
  5
D829
330
D81F
100
AcDbEntity
  8
0
100
AcDbBlockBegin
  2
*D4
 70
     1
 71
     0
 10
0.0
 20
0.0
 30
0.0
  3
*D4
  1

  0
LINE
  5
11E70
330
D81F
100
AcDbEntity
  8
AM_5
 62
     3
370
    13
100
AcDbLine
 10
0.0
 20
-69.45478299747998
 30
0.0
 11
-16.85624732747071
 21
-69.45478299747998
 31
0.0
  0
LINE
  5
11E71
330
D81F
100
AcDbEntity
  8
AM_5
 62
     3
370
    13
100
AcDbLine
 10
5.120584281383202
 20
-89.45478299747998
 30
0.0
 11
-16.85624732747071
 21
-89.45478299747998
 31
0.0
  0
LINE
  5
11E72
330
D81F
100
AcDbEntity
  8
AM_5
 62
     3
370
    13
100
AcDbLine
 10
-15.85624732747071
 20
-71.95478299747998
 30
0.0
 11
-15.85624732747071
 21
-86.95478299747998
 31
0.0
  0
INSERT
  5
11E73
330
D81F
100
AcDbEntity
  8
AM_5
 62
     3
370
    13
100
AcDbBlockReference
  2
_Open30
 10
-15.85624732747071
 20
-69.45478299747998
 30
0.0
 41
2.5
 42
2.5
 43
2.5
 50
90.0
  0
INSERT
  5
11E74
330
D81F
100
AcDbEntity
  8
AM_5
 62
     3
370
    13
100
AcDbBlockReference
  2
_Open30
 10
-15.85624732747071
 20
-89.45478299747998
 30
0.0
 41
2.5
 42
2.5
 43
2.5
 50
270.0
  0
MTEXT
  5
11E75
330
D81F
100
AcDbEntity
  8
AM_5
 62
     2
370
    13
100
AcDbMText
 10
-19.25662134321873
 20
-78.53843745348763
 30
0.0
 40
3.8
 41
0.0
 71
     5
 72
     1
  1
20
 11
6.123031769111886E-17
 21
1.0
 31
0.0
 73
     1
 44
1.0
  0
POINT
  5
11E76
330
D81F
100
AcDbEntity
  8
Defpoints
 62
     0
100
AcDbPoint
 10
0.0
 20
-69.45478299747998
 30
0.0
  0
POINT
  5
11E77
330
D81F
100
AcDbEntity
  8
Defpoints
 62
     0
100
AcDbPoint
 10
5.120584281383202
 20
-89.45478299747998
 30
0.0
  0
POINT
  5
11E78
330
D81F
100
AcDbEntity
  8
Defpoints
 62
     0
100
AcDbPoint
 10
-15.85624732747071
 20
-89.45478299747998
 30
0.0
  0
ENDBLK
  5
D82A
330
D81F
100
AcDbEntity
  8
0
100
AcDbBlockEnd
  0
BLOCK
  5
ED9C
330
ED9B
100
AcDbEntity
  8
0
100
AcDbBlockBegin
  2
*U5
 70
     1
 71
     0
 10
0.0
 20
0.0
 30
0.0
  3
*U5
  1

  0
ENDBLK
  5
ED9D
330
ED9B
100
AcDbEntity
  8
0
100
AcDbBlockEnd
  0
BLOCK
  5
EEEB
330
EECC
100
AcDbEntity
  8
0
100
AcDbBlockBegin
  2
*D6
 70
     1
 71
     0
 10
0.0
 20
0.0
 30
0.0
  3
*D6
  1

  0
LINE
  5
11E39
330
EECC
100
AcDbEntity
  8
AM_5
 62
     3
370
    13
100
AcDbLine
 10
124.9999999999976
 20
25.0
 30
0.0
 11
137.9999999999976
 21
25.0
 31
0.0
  0
LINE
  5
11E3A
330
EECC
100
AcDbEntity
  8
AM_5
 62
     3
370
    13
100
AcDbLine
 10
124.9999999999975
 20
5.0
 30
0.0
 11
137.9999999999976
 21
4.999999999999996
 31
0.0
  0
LINE
  5
11E3B
330
EECC
100
AcDbEntity
  8
AM_5
 62
     3
370
    13
100
AcDbLine
 10
136.9999999999976
 20
22.5
 30
0.0
 11
136.9999999999976
 21
7.499999999999996
 31
0.0
  0
INSERT
  5
11E3C
330
EECC
100
AcDbEntity
  8
AM_5
 62
     3
370
    13
100
AcDbBlockReference
  2
_Open30
 10
136.9999999999976
 20
25.0
 30
0.0
 41
2.5
 42
2.5
 43
2.5
 50
90.0
  0
INSERT
  5
11E3D
330
EECC
100
AcDbEntity
  8
AM_5
 62
     3
370
    13
100
AcDbBlockReference
  2
_Open30
 10
136.9999999999976
 20
4.999999999999996
 30
0.0
 41
2.5
 42
2.5
 43
2.5
 50
270.0
  0
MTEXT
  5
11E3E
330
EECC
100
AcDbEntity
  8
AM_5
 62
     2
370
    13
100
AcDbMText
 10
133.5996259842495
 20
15.00000000000002
 30
0.0
 40
3.8
 41
0.0
 71
     5
 72
     1
  1
20
 11
6.123031769111886E-17
 21
1.0
 31
0.0
 73
     1
 44
1.0
  0
POINT
  5
11E3F
330
EECC
100
AcDbEntity
  8
Defpoints
 62
     0
100
AcDbPoint
 10
124.9999999999976
 20
25.0
 30
0.0
  0
POINT
  5
11E40
330
EECC
100
AcDbEntity
  8
Defpoints
 62
     0
100
AcDbPoint
 10
124.9999999999975
 20
5.0
 30
0.0
  0
POINT
  5
11E41
330
EECC
100
AcDbEntity
  8
Defpoints
 62
     0
100
AcDbPoint
 10
136.9999999999976
 20
4.999999999999996
 30
0.0
  0
ENDBLK
  5
EEEC
330
EECC
100
AcDbEntity
  8
0
100
AcDbBlockEnd
  0
BLOCK
  5
EFDF
330
EFC0
100
AcDbEntity
  8
0
100
AcDbBlockBegin
  2
*D7
 70
     1
 71
     0
 10
0.0
 20
0.0
 30
0.0
  3
*D7
  1

  0
LINE
  5
11E27
330
EFC0
100
AcDbEntity
  8
AM_5
 62
     3
370
    13
100
AcDbLine
 10
124.9999999999976
 20
-69.45478299747998
 30
0.0
 11
137.9999999999976
 21
-69.45478299747998
 31
0.0
  0
LINE
  5
11E28
330
EFC0
100
AcDbEntity
  8
AM_5
 62
     3
370
    13
100
AcDbLine
 10
124.9999999999976
 20
-89.45478299747998
 30
0.0
 11
137.9999999999976
 21
-89.45478299747998
 31
0.0
  0
LINE
  5
11E29
330
EFC0
100
AcDbEntity
  8
AM_5
 62
     3
370
    13
100
AcDbLine
 10
136.9999999999976
 20
-71.95478299747998
 30
0.0
 11
136.9999999999976
 21
-86.95478299747998
 31
0.0
  0
INSERT
  5
11E2A
330
EFC0
100
AcDbEntity
  8
AM_5
 62
     3
370
    13
100
AcDbBlockReference
  2
_Open30
 10
136.9999999999976
 20
-69.45478299747998
 30
0.0
 41
2.5
 42
2.5
 43
2.5
 50
90.0
  0
INSERT
  5
11E2B
330
EFC0
100
AcDbEntity
  8
AM_5
 62
     3
370
    13
100
AcDbBlockReference
  2
_Open30
 10
136.9999999999976
 20
-89.45478299747998
 30
0.0
 41
2.5
 42
2.5
 43
2.5
 50
270.0
  0
MTEXT
  5
11E2C
330
EFC0
100
AcDbEntity
  8
AM_5
 62
     2
370
    13
100
AcDbMText
 10
133.5996259842496
 20
-79.45478299747997
 30
0.0
 40
3.8
 41
0.0
 71
     5
 72
     1
  1
20
 11
6.123031769111886E-17
 21
1.0
 31
0.0
 73
     1
 44
1.0
  0
POINT
  5
11E2D
330
EFC0
100
AcDbEntity
  8
Defpoints
 62
     0
100
AcDbPoint
 10
124.9999999999976
 20
-69.45478299747998
 30
0.0
  0
POINT
  5
11E2E
330
EFC0
100
AcDbEntity
  8
Defpoints
 62
     0
100
AcDbPoint
 10
124.9999999999976
 20
-89.45478299747998
 30
0.0
  0
POINT
  5
11E2F
330
EFC0
100
AcDbEntity
  8
Defpoints
 62
     0
100
AcDbPoint
 10
136.9999999999976
 20
-89.45478299747998
 30
0.0
  0
ENDBLK
  5
EFE0
330
EFC0
100
AcDbEntity
  8
0
100
AcDbBlockEnd
  0
BLOCK
  5
F06E
330
F04F
100
AcDbEntity
  8
0
100
AcDbBlockBegin
  2
*D8
 70
     1
 71
     0
 10
0.0
 20
0.0
 30
0.0
  3
*D8
  1

  0
LINE
  5
11E82
330
F04F
100
AcDbEntity
  8
AM_5
 62
     3
370
    13
100
AcDbLine
 10
0.0
 20
-69.45478299747998
 30
0.0
 11
0.0000000000000017
 21
-41.88928426433745
 31
0.0
  0
LINE
  5
11E83
330
F04F
100
AcDbEntity
  8
AM_5
 62
     3
370
    13
100
AcDbLine
 10
34.99999999999758
 20
-62.55576154004785
 30
0.0
 11
34.99999999999758
 21
-41.88928426433745
 31
0.0
  0
LINE
  5
11E84
330
F04F
100
AcDbEntity
  8
AM_5
 62
     3
370
    13
100
AcDbLine
 10
2.500000000000002
 20
-42.88928426433745
 30
0.0
 11
32.49999999999758
 21
-42.88928426433745
 31
0.0
  0
INSERT
  5
11E85
330
F04F
100
AcDbEntity
  8
AM_5
 62
     3
370
    13
100
AcDbBlockReference
  2
_Open30
 10
0.0000000000000016
 20
-42.88928426433745
 30
0.0
 41
2.5
 42
2.5
 43
2.5
 50
180.0
  0
INSERT
  5
11E86
330
F04F
100
AcDbEntity
  8
AM_5
 62
     3
370
    13
100
AcDbBlockReference
  2
_Open30
 10
34.99999999999758
 20
-42.88928426433745
 30
0.0
 41
2.5
 42
2.5
 43
2.5
  0
MTEXT
  5
11E87
330
F04F
100
AcDbEntity
  8
AM_5
 62
     2
370
    13
100
AcDbMText
 10
17.49999999999879
 20
-39.48928426433745
 30
0.0
 40
3.8
 41
0.0
 71
     5
 72
     1
  1
35
 73
     1
 44
1.0
  0
POINT
  5
11E88
330
F04F
100
AcDbEntity
  8
Defpoints
 62
     0
100
AcDbPoint
 10
0.0
 20
-69.45478299747998
 30
0.0
  0
POINT
  5
11E89
330
F04F
100
AcDbEntity
  8
Defpoints
 62
     0
100
AcDbPoint
 10
34.99999999999758
 20
-62.55576154004785
 30
0.0
  0
POINT
  5
11E8A
330
F04F
100
AcDbEntity
  8
Defpoints
 62
     0
100
AcDbPoint
 10
34.99999999999758
 20
-42.88928426433745
 30
0.0
  0
ENDBLK
  5
F06F
330
F04F
100
AcDbEntity
  8
0
100
AcDbBlockEnd
  0
BLOCK
  5
FEC3
330
FE89
100
AcDbEntity
  8
0
100
AcDbBlockBegin
  2
*D9
 70
     1
 71
     0
 10
0.0
 20
0.0
 30
0.0
  3
*D9
  1

  0
LINE
  5
11E5E
330
FE89
100
AcDbEntity
  8
AM_5
 62
     3
370
    13
100
AcDbLine
 10
30.72115686291571
 20
25.0
 30
0.0
 11
-13.19269972820225
 21
25.00000000000001
 31
0.0
  0
LINE
  5
11E5F
330
FE89
100
AcDbEntity
  8
AM_5
 62
     3
370
    13
100
AcDbLine
 10
0.8109150405632306
 20
0.0
 30
0.0
 11
-13.19269972820226
 21
0.000000000000004
 31
0.0
  0
LINE
  5
11E60
330
FE89
100
AcDbEntity
  8
AM_5
 62
     3
370
    13
100
AcDbLine
 10
-12.19269972820225
 20
22.50000000000001
 30
0.0
 11
-12.19269972820226
 21
2.500000000000004
 31
0.0
  0
INSERT
  5
11E61
330
FE89
100
AcDbEntity
  8
AM_5
 62
     3
370
    13
100
AcDbBlockReference
  2
_Open30
 10
-12.19269972820225
 20
25.00000000000001
 30
0.0
 41
2.5
 42
2.5
 43
2.5
 50
90.0
  0
INSERT
  5
11E62
330
FE89
100
AcDbEntity
  8
AM_5
 62
     3
370
    13
100
AcDbBlockReference
  2
_Open30
 10
-12.19269972820226
 20
0.0000000000000037
 30
0.0
 41
2.5
 42
2.5
 43
2.5
 50
270.0
  0
MTEXT
  5
11E63
330
FE89
100
AcDbEntity
  8
AM_5
 62
     2
370
    13
100
AcDbMText
 10
-15.59307374395029
 20
13.78440674716672
 30
0.0
 40
3.8
 41
0.0
 71
     5
 72
     1
  1
{25
 11
6.123031769111886E-17
 21
1.0
 31
0.0
 73
     1
 44
1.0
  0
POINT
  5
11E64
330
FE89
100
AcDbEntity
  8
Defpoints
 62
     0
100
AcDbPoint
 10
30.72115686291571
 20
25.0
 30
0.0
  0
POINT
  5
11E65
330
FE89
100
AcDbEntity
  8
Defpoints
 62
     0
100
AcDbPoint
 10
0.8109150405632306
 20
0.0
 30
0.0
  0
POINT
  5
11E66
330
FE89
100
AcDbEntity
  8
Defpoints
 62
     0
100
AcDbPoint
 10
-12.19269972820226
 20
0.0000000000000037
 30
0.0
  0
ENDBLK
  5
FEC4
330
FE89
100
AcDbEntity
  8
0
100
AcDbBlockEnd
  0
BLOCK
  5
11D13
330
11D07
100
AcDbEntity
  8
0
100
AcDbBlockBegin
  2
*D10
 70
     1
 71
     0
 10
0.0
 20
0.0
 30
0.0
  3
*D10
  1

  0
LINE
  5
11DEB
330
11D07
100
AcDbEntity
  8
AM_5
 62
     3
370
    13
100
AcDbLine
 10
0.0
 20
-1.890349225166347
 30
0.0
 11
-0.0000000000000053
 21
-19.20438610369525
 31
0.0
  0
LINE
  5
11DEC
330
11D07
100
AcDbEntity
  8
AM_5
 62
     3
370
    13
100
AcDbLine
 10
13.14191336049618
 20
6.322497128084081
 30
0.0
 11
16.57436169439949
 21
8.10931663343543
 31
0.0
  0
ARC
  5
11DED
330
11D07
100
AcDbEntity
  8
AM_5
 62
     3
370
    13
100
AcDbCircle
 10
-0.0000000000000001
 20
-0.5187499485961373
 30
0.0
 40
17.68563615509911
100
AcDbArc
 50
278.1059553135945
 51
19.39404468640605
  0
INSERT
  5
11DEE
330
11D07
100
AcDbEntity
  8
AM_5
 62
     3
370
    13
100
AcDbBlockReference
  2
_Open30
 10
-0.0000000000000062
 20
-18.20438610369525
 30
0.0
 41
2.5
 42
2.5
 43
2.5
 50
184.0529776567973
  0
INSERT
  5
11DEF
330
11D07
100
AcDbEntity
  8
AM_5
 62
     3
370
    13
100
AcDbBlockReference
  2
_Open30
 10
15.68735086122128
 20
7.647568020200385
 30
0.0
 41
2.5
 42
2.5
 43
2.5
 50
113.4470223432033
  0
MTEXT
  5
11DF0
330
11D07
100
AcDbEntity
  8
AM_5
 62
     2
370
    13
100
AcDbMText
 10
12.41289018199381
 20
-7.589786484043861
 30
0.0
 40
3.8
 41
0.0
 71
     5
 72
     1
  1
117°30'
 11
0.494975264571875
 21
0.8689070649166125
 31
0.0
 73
     1
 44
1.0
  0
POINT
  5
11DF1
330
11D07
100
AcDbEntity
  8
Defpoints
 62
     0
100
AcDbPoint
 10
11.16986492457338
 20
-14.23063690033747
 30
0.0
  0
POINT
  5
11DF2
330
11D07
100
AcDbEntity
  8
Defpoints
 62
     0
100
AcDbPoint
 10
0.0
 20
0.5580047974186471
 30
0.0
  0
POINT
  5
11DF3
330
11D07
100
AcDbEntity
  8
Defpoints
 62
     0
100
AcDbPoint
 10
1.158909437756932
 20
0.0845401192735835
 30
0.0
  0
POINT
  5
11DF4
330
11D07
100
AcDbEntity
  8
Defpoints
 62
     0
100
AcDbPoint
 10
13.14191336049618
 20
6.322497128084081
 30
0.0
  0
POINT
  5
11DF5
330
11D07
100
AcDbEntity
  8
Defpoints
 62
     0
100
AcDbPoint
 10
0.0
 20
-1.890349225166347
 30
0.0
  0
ENDBLK
  5
11D14
330
11D07
100
AcDbEntity
  8
0
100
AcDbBlockEnd
  0
ENDSEC
  0
SECTION
  2
ENTITIES
  0
ACAD_PROXY_ENTITY
  5
541C
330
1F
100
AcDbEntity
  8
AM_5
100
AcDbProxyEntity
 90
      498
 91
      533
 95
       25
 70
     0
 92
      668
310
9C020000270000000C00000016000000000000C00C00000013000000010000000C00000016000000000000C00C00000017000000FFFFFFFF3C0000000600000002000000D4D1729E214242C090DB979B9E1240C00000000000000000CED1729E214242C08E1D969DA34B34C000000000000000000C00000016000000000000
310
C00C00000010000000FFFFFFFF0C00000012000000FFFFFFFF0C00000017000000000000000C00000014000000010000000C00000013000000020000000C00000016000000000000C00C00000017000000FFFFFFFF3C0000000600000002000000CED1729E214242C08E1D969DA34B34C00000000000000000CCD1729E2142
310
42C028B72F373D2531C000000000000000000C00000016000000000000C00C00000010000000FFFFFFFF0C00000012000000FFFFFFFF0C00000017000000000000000C00000014000000010000000C00000013000000030000000C00000016000000000000C00C00000017000000FFFFFFFF3C000000060000000200000025
310
90B38D0C0D42C08F1D969DA34B34C00000000000000000CCD1729E214242C028B72F373D2531C000000000000000000C00000016000000000000C00C00000010000000FFFFFFFF0C00000012000000FFFFFFFF0C00000017000000000000000C00000014000000010000000C00000013000000040000000C00000016000000
310
000000C00C00000017000000FFFFFFFF3C0000000600000002000000CCD1729E214242C028B72F373D2531C00000000000000000771332AF367742C08E1D969DA34B34C000000000000000000C00000016000000000000C00C00000010000000FFFFFFFF0C00000012000000FFFFFFFF0C00000017000000000000000C0000
310
0014000000010000000C00000013000000050000000C00000016000000000000C0
 93
     1409
310
5DCD4D1729E214242C00804C28DB944CD7024000000000000B7BC8000000000000B73C6A54051F8000000C800AA35345CA7885090B0090DB979B9E1240C09018FFFFFFFF33345CA7885090B0028B72F373D2531C0A8FFFFFFFF1FFFFFFFF1A9A2E53C42848580486DCBCDCF09206045409C8703838D904887841C03C20FF00
310
C2A48FB02A50000000000002DEF28333333333333094041D050000000000003C2FC000000000000F0BF40401015213400500
340
17F
340
EDAB
330
0
330
0
340
0
340
0
340
180
330
0
330
0
 94
        0
  0
ACAD_PROXY_ENTITY
  5
541D
330
1F
100
AcDbEntity
  8
AM_5
100
AcDbProxyEntity
 90
      498
 91
      533
 95
       25
 70
     0
 92
      668
310
9C020000270000000C00000016000000000000C00C00000013000000010000000C00000016000000000000C00C00000017000000FFFFFFFF3C0000000600000002000000D4D1729E214242C090DB979B9E1240C000000000000000000E0A4CA3A9AA38C090DB979B9E1240C000000000000000000C00000016000000000000
310
C00C00000010000000FFFFFFFF0C00000012000000FFFFFFFF0C00000017000000000000000C00000014000000010000000C00000013000000020000000C00000016000000000000C00C00000017000000FFFFFFFF3C00000006000000020000000E0A4CA3A9AA38C090DB979B9E1240C00000000000000000A8A3E53C4384
310
35C090DB979B9E1240C000000000000000000C00000016000000000000C00C00000010000000FFFFFFFF0C00000012000000FFFFFFFF0C00000017000000000000000C00000014000000010000000C00000013000000030000000C00000016000000000000C00C00000017000000FFFFFFFF3C00000006000000020000000E
310
0A4CA3A9AA38C0391D57ACB34740C00000000000000000A8A3E53C438435C090DB979B9E1240C000000000000000000C00000016000000000000C00C00000010000000FFFFFFFF0C00000012000000FFFFFFFF0C00000017000000000000000C00000014000000010000000C00000013000000040000000C00000016000000
310
000000C00C00000017000000FFFFFFFF3C0000000600000002000000A8A3E53C438435C090DB979B9E1240C000000000000000000E0A4CA3A9AA38C0CE33B11513BB3FC000000000000000000C00000016000000000000C00C00000010000000FFFFFFFF0C00000012000000FFFFFFFF0C00000017000000000000000C0000
310
0014000000010000000C00000013000000050000000C00000016000000000000C0
 93
     1537
310
5DCB0FFBF3BEB7239C02536E5E6E78490302000000000020306F0000000000000F0BF9000000000020306F2A54051F8000000C800AA35345CA7885090B0090DB979B9E1240C09018FFFFFFFF2A28F94F10E10D70090DB979B9E1240C0A8FFFFFFFF1FFFFFFFF1A9A2E53C42848580486DCBCDCF09206045409C8703838D904
310
887841C0091D4C4D4E3710302A4000000000080C1BC0000000000003C2FE8333333333333094041D050000000000003C2FC000000000000F0BF40401015213400500
340
17F
340
EDAB
330
0
330
0
340
0
340
0
340
180
330
0
330
0
 94
        0
  0
TEXT
  5
541E
330
1F
100
AcDbEntity
  8
AM_6
 62
     0
100
AcDbText
 10
-41.62863774237931
 20
-15.75461192150135
 30
0.0
 40
4.0
  1
-10%%d
100
AcDbText
  0
TEXT
  5
541F
330
1F
100
AcDbEntity
  8
AM_6
 62
     0
100
AcDbText
 10
-19.97882708702335
 20
-33.59327032692625
 30
0.0
 40
4.0
  1
-13%%D
100
AcDbText
  0
DIMENSION
  5
D329
330
1F
100
AcDbEntity
  8
AM_5
370
    13
100
AcDbDimension
  2
*D3
 10
124.9999999999975
 20
-28.28644961362011
 30
0.0
 11
62.49999999999876
 21
-24.88607559787208
 31
0.0
 70
    32
  1
<>
 71
     5
 42
124.9999999999975
  3
AM_JIS$0
100
AcDbAlignedDimension
 13
0.0
 23
0.5580047974186471
 33
0.0
 14
124.9999999999975
 24
5.0
 34
0.0
100
AcDbRotatedDimension
1001
ACAD
1000
DSTYLE
1002
{
1070
   271
1070
     0
1002
}
  0
DIMENSION
  5
D81E
330
1F
100
AcDbEntity
  8
AM_5
370
    13
100
AcDbDimension
  2
*D4
 10
-15.85624732747071
 20
-89.45478299747998
 30
0.0
 11
-15.8562473274707
 21
-78.53843745348763
 31
0.0
 70
   160
  1
<>
 71
     5
 42
20.0
  3
AM_JIS$0
100
AcDbAlignedDimension
 13
0.0
 23
-69.45478299747998
 33
0.0
 14
5.120584281383202
 24
-89.45478299747998
 34
0.0
 50
270.0
100
AcDbRotatedDimension
1001
ACAD
1000
DSTYLE
1002
{
1070
   271
1070
     0
1002
}
  0
DIMENSION
  5
EECB
330
1F
100
AcDbEntity
  8
AM_5
370
    13
100
AcDbDimension
  2
*D6
 10
136.9999999999976
 20
4.999999999999996
 30
0.0
 11
133.5996259842495
 21
15.00000000000002
 31
0.0
 70
    32
  1
<>
 71
     5
 42
20.0
  3
AM_JIS$0
100
AcDbAlignedDimension
 13
124.9999999999976
 23
25.0
 33
0.0
 14
124.9999999999975
 24
5.0
 34
0.0
 50
90.0
100
AcDbRotatedDimension
1001
ACAD
1000
DSTYLE
1002
{
1070
   179
1070
     1
1070
   271
1070
     0
1002
}
  0
DIMENSION
  5
EFBF
330
1F
100
AcDbEntity
  8
AM_5
370
    13
100
AcDbDimension
  2
*D7
 10
136.9999999999976
 20
-89.45478299747998
 30
0.0
 11
133.5996259842496
 21
-79.45478299747997
 31
0.0
 70
    32
  1
<>
 71
     5
 42
20.0
  3
AM_JIS$0
100
AcDbAlignedDimension
 13
124.9999999999976
 23
-69.45478299747998
 33
0.0
 14
124.9999999999976
 24
-89.45478299747998
 34
0.0
 50
90.0
100
AcDbRotatedDimension
1001
ACAD
1000
DSTYLE
1002
{
1070
   179
1070
     1
1070
   271
1070
     0
1002
}
  0
DIMENSION
  5
F04E
330
1F
100
AcDbEntity
  8
AM_5
370
    13
100
AcDbDimension
  2
*D8
 10
34.99999999999758
 20
-42.88928426433745
 30
0.0
 11
17.49999999999879
 21
-39.48928426433745
 31
0.0
 70
    32
  1
<>
 71
     5
 42
34.99999999999758
  3
AM_JIS$0
100
AcDbAlignedDimension
 13
0.0
 23
-69.45478299747998
 33
0.0
 14
34.99999999999758
 24
-62.55576154004785
 34
0.0
100
AcDbRotatedDimension
1001
ACAD
1000
DSTYLE
1002
{
1070
   179
1070
     1
1070
   271
1070
     0
1002
}
  0
DIMENSION
  5
FE88
330
1F
100
AcDbEntity
  8
AM_5
370
    13
100
AcDbDimension
  2
*D9
 10
-12.19269972820226
 20
0.0000000000000037
 30
0.0
 11
-12.19269972820226
 21
13.78440674716671
 31
0.0
 70
   160
  1
{<>
 71
     5
 42
25.00000000000001
  3
AM_JIS$0
100
AcDbAlignedDimension
 13
30.72115686291571
 23
25.0
 33
0.0
 14
0.8109150405632306
 24
0.0
 34
0.0
 50
90.0
100
AcDbRotatedDimension
1001
ACAD
1000
DSTYLE
1002
{
1070
   179
1070
     1
1070
   271
1070
     0
1002
}
  0
LINE
  5
113A2
330
1F
100
AcDbEntity
  8
AM_0
100
AcDbLine
 10
1.158909437756932
 20
0.0845401192735835
 30
0.0
 11
13.14191336049618
 21
6.322497128084081
 31
0.0
  0
LINE
  5
113A4
330
1F
100
AcDbEntity
  8
AM_0
100
AcDbLine
 10
6.087205533094988
 20
13.37507025322248
 30
0.0
 11
0.0787773515431525
 21
1.160931483871536
 31
0.0
  0
LINE
  5
113A6
330
1F
100
AcDbEntity
  8
AM_0
100
AcDbLine
 10
18.08490668000931
 20
19.62067815267324
 30
0.0
 11
13.97141877279236
 21
17.47933188533295
 31
0.0
  0
LINE
  5
113A7
330
1F
100
AcDbEntity
  8
AM_0
100
AcDbLine
 10
6.369860956818997
 20
13.52221135347281
 30
0.0
 11
6.087205533094988
 21
13.37507025322236
 31
0.0
  0
LINE
  5
113A8
330
1F
100
AcDbEntity
  8
AM_0
100
AcDbLine
 10
6.087205533094988
 20
13.37507025322236
 30
0.0
 11
6.625591665070601
 21
13.79206950335669
 31
0.0
  0
ELLIPSE
  5
113AA
330
1F
100
AcDbEntity
  8
AM_0
100
AcDbEllipse
 10
18.46356001087619
 20
18.91700338696228
 30
0.0
 11
0.4898738256451634
 21
-0.6324742168245062
 31
0.0
210
0.0
220
0.0
230
1.0
 40
0.9602101798330289
 41
2.05886737801348
 42
2.969520238277106
  0
ELLIPSE
  5
113AC
330
1F
100
AcDbEntity
  8
AM_0
100
AcDbEllipse
 10
0.7802561068900502
 20
0.7882148849845407
 30
0.0
 11
0.4898738256451634
 21
-0.6324742168245062
 31
0.0
210
0.0
220
0.0
230
1.0
 40
0.9602101798330289
 41
3.580385476475303
 42
6.1111128918669
  0
LINE
  5
113AD
330
1F
100
AcDbEntity
  8
AM_0
100
AcDbLine
 10
124.9999999999976
 20
5.0
 30
0.0
 11
124.9999999999976
 21
25.0
 31
0.0
  0
LINE
  5
113AE
330
1F
100
AcDbEntity
  8
AM_0
100
AcDbLine
 10
124.9999999999976
 20
25.0
 30
0.0
 11
35.79999999999754
 21
25.0
 31
0.0
  0
LINE
  5
113B3
330
1F
100
AcDbEntity
  8
AM_0
100
AcDbLine
 10
20.521858865403
 20
25.0
 30
0.0
 11
22.07169440940388
 21
25.0
 31
0.0
  0
LINE
  5
113B4
330
1F
100
AcDbEntity
  8
AM_0
100
AcDbLine
 10
35.79999999999754
 20
5.0
 30
0.0
 11
124.9999999999976
 21
5.0
 31
0.0
  0
LINE
  5
113B5
330
1F
100
AcDbEntity
  8
AM_0
100
AcDbLine
 10
25.0568324816339
 20
25.0
 30
0.0
 11
34.99999999999758
 21
25.0
 31
0.0
  0
LINE
  5
113B7
330
1F
100
AcDbEntity
  8
AM_0
100
AcDbLine
 10
34.99999999999758
 20
5.0
 30
0.0
 11
34.72413298118963
 21
5.0
 31
0.0
  0
LINE
  5
113B9
330
1F
100
AcDbEntity
  8
AM_0
100
AcDbLine
 10
34.72413298118963
 20
5.0
 30
0.0
 11
32.07979295562413
 21
5.0
 31
0.0
  0
LINE
  5
113BB
330
1F
100
AcDbEntity
  8
AM_0
100
AcDbLine
 10
22.0716944094041
 20
25.0
 30
0.0
 11
23.96196416917118
 21
25.0
 31
0.0
  0
LINE
  5
113BD
330
1F
100
AcDbEntity
  8
AM_0
100
AcDbLine
 10
32.07979295562413
 20
5.0
 30
0.0
 11
13.74337520357071
 21
5.0
 31
0.0
  0
LINE
  5
113BE
330
1F
100
AcDbEntity
  8
AM_0
100
AcDbLine
 10
13.05583948222019
 20
6.277689903140441
 30
0.0
 11
13.74337520357071
 21
5.0
 31
0.0
  0
LINE
  5
113BF
330
1F
100
AcDbEntity
  8
AM_0
100
AcDbLine
 10
13.33987636945093
 20
6.724923118627544
 30
0.0
 11
13.1419133604962
 21
6.322497128084137
 31
0.0
  0
LINE
  5
113C1
330
1F
100
AcDbEntity
  8
AM_0
100
AcDbLine
 10
6.366894543863822
 20
13.51618112753226
 30
0.0
 11
13.95375513566623
 21
17.46565076875402
 31
0.0
  0
LINE
  5
113C2
330
1F
100
AcDbEntity
  8
AM_0
100
AcDbLine
 10
12.13904183332042
 20
25.0
 30
0.0
 11
20.52185886540278
 21
25.0
 31
0.0
  0
LINE
  5
113C5
330
1F
100
AcDbEntity
  8
AM_0
100
AcDbLine
 10
23.96196416917096
 20
25.0
 30
0.0
 11
25.0568324816339
 21
25.0
 31
0.0
  0
LINE
  5
113C7
330
1F
100
AcDbEntity
  8
AM_0
100
AcDbLine
 10
34.99999999999758
 20
6.522000459127412
 30
0.0
 11
34.99999999999758
 21
5.0
 31
0.0
  0
LINE
  5
113C8
330
1F
100
AcDbEntity
  8
AM_0
100
AcDbLine
 10
34.99999999999758
 20
25.0
 30
0.0
 11
34.99999999999758
 21
6.522000459127298
 31
0.0
  0
LINE
  5
113C9
330
1F
100
AcDbEntity
  8
AM_0
100
AcDbLine
 10
35.79999999999754
 20
5.0
 30
0.0
 11
35.79999999999754
 21
25.0
 31
0.0
  0
LINE
  5
113CA
330
1F
100
AcDbEntity
  8
AM_0
100
AcDbLine
 10
12.13904183332042
 20
25.0
 30
0.0
 11
6.532209241772108
 21
13.60223851223526
 31
0.0
  0
LINE
  5
113CE
330
1F
100
AcDbEntity
  8
AM_0
100
AcDbLine
 10
34.99999999999758
 20
5.0
 30
0.0
 11
35.79999999999754
 21
5.0
 31
0.0
  0
LINE
  5
113CF
330
1F
100
AcDbEntity
  8
AM_0
100
AcDbLine
 10
35.79999999999754
 20
25.0
 30
0.0
 11
34.99999999999758
 21
25.0
 31
0.0
  0
LINE
  5
113D0
330
1F
100
AcDbEntity
  8
AM_0
100
AcDbLine
 10
18.01556083508066
 20
16.1442858726067
 30
0.0
 11
20.24043004035147
 21
15.70154140080649
 31
0.0
  0
LINE
  5
113D1
330
1F
100
AcDbEntity
  8
AM_0
100
AcDbLine
 10
20.24043004035147
 20
15.70154140080649
 30
0.0
 11
21.04878370522701
 21
13.54729568089181
 31
0.0
  0
LINE
  5
113D2
330
1F
100
AcDbEntity
  8
AM_0
100
AcDbLine
 10
21.04878370522678
 20
13.54729568089169
 30
0.0
 11
19.63226816483152
 21
11.83579443277711
 31
0.0
  0
LINE
  5
113D3
330
1F
100
AcDbEntity
  8
AM_0
100
AcDbLine
 10
19.63226816483152
 20
11.83579443277711
 30
0.0
 11
17.40739895956071
 21
12.27853890457732
 31
0.0
  0
LINE
  5
113D4
330
1F
100
AcDbEntity
  8
AM_0
100
AcDbLine
 10
18.18018308391206
 20
12.87708775498675
 30
0.0
 11
20.16688091191585
 21
12.48173890553437
 31
0.0
  0
LINE
  5
113D5
330
1F
100
AcDbEntity
  8
AM_0
100
AcDbLine
 10
17.40739895956071
 20
12.2785389045772
 30
0.0
 11
18.18018308391228
 21
12.87708775498675
 31
0.0
  0
LINE
  5
113D6
330
1F
100
AcDbEntity
  8
AM_0
100
AcDbLine
 10
17.40739895956071
 20
12.27853890457732
 30
0.0
 11
16.59904529468517
 21
14.432784624492
 31
0.0
  0
LINE
  5
113D7
330
1F
100
AcDbEntity
  8
AM_0
100
AcDbLine
 10
17.37182941903674
 20
15.03133347490154
 30
0.0
 11
18.18018308391228
 21
12.87708775498675
 31
0.0
  0
LINE
  5
113D8
330
1F
100
AcDbEntity
  8
AM_0
100
AcDbLine
 10
16.59904529468517
 20
14.432784624492
 30
0.0
 11
17.37182941903674
 21
15.03133347490154
 31
0.0
  0
LINE
  5
113D9
330
1F
100
AcDbEntity
  8
AM_0
100
AcDbLine
 10
16.5990452946854
 20
14.432784624492
 30
0.0
 11
18.01556083508066
 21
16.14428587260659
 31
0.0
  0
LINE
  5
113DA
330
1F
100
AcDbEntity
  8
AM_0
100
AcDbLine
 10
18.25373221234767
 20
16.09689025025887
 30
0.0
 11
17.37182941903697
 21
15.03133347490166
 31
0.0
  0
LINE
  5
113DB
330
1F
100
AcDbEntity
  8
AM_0
100
AcDbLine
 10
17.32543712171864
 20
18.20512921587135
 30
0.0
 11
16.58891060708274
 21
17.63466317659902
 31
0.0
  0
LINE
  5
113DC
330
1F
100
AcDbEntity
  8
AM_0
100
AcDbLine
 10
22.53034651919811
 20
11.48509066211125
 30
0.0
 11
21.79382000456221
 21
10.91462462283892
 31
0.0
  0
ARC
  5
113DD
330
1F
100
AcDbEntity
  8
AM_0
100
AcDbCircle
 10
19.29520655037172
 20
14.35507264507135
 30
0.0
 40
4.25202913761753
100
AcDbArc
 50
129.5292186439176
 51
305.988898521054
  0
ELLIPSE
  5
113DE
330
1F
100
AcDbEntity
  8
AM_0
100
AcDbEllipse
 10
18.82391449995598
 20
13.9900401526919
 30
0.0
 11
-1.583386368127087
 21
2.044304065016883
 31
0.0
210
0.0
220
0.0
230
1.0
 40
0.9602101798330291
 41
0.0000000000000153
 42
6.2831853071796
  0
ELLIPSE
  5
113DF
330
1F
100
AcDbEntity
  8
AM_0
100
AcDbEllipse
 10
19.92789182045848
 20
14.84510993899119
 30
0.0
 11
2.602454698739929
 21
-3.360019276880188
 31
0.0
210
0.0
220
0.0
230
1.0
 40
0.9602101798330293
 41
-0.0000000000000265
 42
3.14159265358981
  0
ELLIPSE
  5
113E0
330
1F
100
AcDbEntity
  8
AM_0
100
AcDbEllipse
 10
18.88858399413593
 20
14.04012898109579
 30
0.0
 11
2.016377748176452
 21
-2.603337574569707
 31
0.0
210
0.0
220
0.0
230
1.0
 40
0.9602101798330291
 41
-0.0000000000000213
 42
6.283185307179565
  0
ELLIPSE
  5
113E1
330
1F
100
AcDbEntity
  8
AM_0
100
AcDbEllipse
 10
19.03523933590176
 20
14.15371877086284
 30
0.0
 11
-2.42310379673284
 21
3.128460015402379
 31
0.0
210
0.0
220
0.0
230
0.9999999999999999
 40
0.9602101798330294
 41
0.0000000000000056
 42
6.283185307179592
  0
ELLIPSE
  5
113E2
330
1F
100
AcDbEntity
  8
AM_0
100
AcDbEllipse
 10
19.19136530582259
 20
14.27464389971885
 30
0.0
 11
2.60245469873993
 21
-3.360019276880189
 31
0.0
210
0.0
220
0.0
230
1.0
 40
0.9602101798330293
 41
0.0000000000000168
 42
3.141592653589828
  0
LINE
  5
113E3
330
1F
100
AcDbEntity
  8
AM_0
100
AcDbLine
 10
21.74838549994033
 20
21.17936643762118
 30
0.0
 11
11.8996091925379
 21
16.05241800373278
 31
0.0
  0
LINE
  5
113F3
330
1F
100
AcDbEntity
  8
AM_0
100
AcDbLine
 10
23.85062322475014
 20
12.25030390967777
 30
0.0
 11
22.77316596118666
 21
11.689415159889
 31
0.0
  0
LINE
  5
113F4
330
1F
100
AcDbEntity
  8
AM_0
100
AcDbLine
 10
16.00516041616956
 20
17.43991596830529
 30
0.0
 11
17.01862478875077
 21
17.96749212757914
 31
0.0
  0
LINE
  5
113F5
330
1F
100
AcDbEntity
  8
AM_0
100
AcDbLine
 10
18.87489774503055
 20
18.93380666544863
 30
0.0
 11
19.95235500859221
 21
19.49469541523661
 31
0.0
  0
ARC
  5
113F6
330
1F
100
AcDbEntity
  8
AM_0
100
AcDbCircle
 10
19.30337021721593
 20
14.6524189713117
 30
0.0
 40
4.31837091968323
100
AcDbArc
 50
139.7970244799625
 51
166.1322872886248
  0
ARC
  5
113F7
330
1F
100
AcDbEntity
  8
AM_0
100
AcDbCircle
 10
20.30029481833194
 20
14.69641741667499
 30
0.0
 40
4.311415438407154
100
AcDbArc
 50
325.4338450999589
 51
348.4307748373256
  0
ARC
  5
113F8
330
1F
100
AcDbEntity
  8
AM_0
100
AcDbCircle
 10
19.71084797757666
 20
14.32527724997362
 30
0.0
 40
5.175056503399845
100
AcDbArc
 50
67.58434739940566
 51
87.32517680880171
  0
ELLIPSE
  5
113F9
330
1F
100
AcDbEntity
  8
AM_0
100
AcDbEllipse
 10
25.85006900629296
 20
21.74121869373664
 30
0.0
 11
1.445723212911595
 21
0.8960292297199489
 31
0.0
210
0.0
220
0.0
230
1.0
 40
0.880518988329329
 41
6.229310059843072
 42
7.800106386637968
  0
LINE
  5
113FA
330
1F
100
AcDbEntity
  8
AM_0
100
AcDbLine
 10
25.14009401091752
 20
23.06060887944466
 30
0.0
 11
21.99111089644984
 21
21.30998164152152
 31
0.0
  0
ELLIPSE
  5
113FB
330
1F
100
AcDbEntity
  8
AM_0
100
AcDbEllipse
 10
28.68996898779514
 20
16.46365795090446
 30
0.0
 11
1.445723212911595
 21
0.8960292297199487
 31
0.0
210
0.0
220
0.0
230
1.0
 40
0.8805189883293291
 41
4.830586148360732
 42
6.229310059842996
  0
LINE
  5
113FC
330
1F
100
AcDbEntity
  8
AM_0
100
AcDbLine
 10
28.75613001578253
 20
19.92861818210713
 30
0.0
 11
30.17608000653362
 21
17.28983781069098
 31
0.0
  0
LINE
  5
11400
330
1F
100
AcDbEntity
  8
AM_0
100
AcDbLine
 10
28.75613001578253
 20
19.92861818210713
 30
0.0
 11
27.33618002503144
 21
22.56739855352328
 31
0.0
  0
LINE
  5
11401
330
1F
100
AcDbEntity
  8
AM_0
100
AcDbLine
 10
28.11544827836937
 20
14.12136063912374
 30
0.0
 11
29.64391775064777
 21
15.3052147281112
 31
0.0
  0
LINE
  5
11402
330
1F
100
AcDbEntity
  8
AM_0
100
AcDbLine
 10
7.173452205598636
 20
7.619801798822891
 30
0.0
 11
6.418292467431087
 21
9.023161570181287
 31
0.0
  0
LINE
  5
11403
330
1F
100
AcDbEntity
  8
AM_0
100
AcDbLine
 10
9.651340530387273
 20
14.49784989480122
 30
0.0
 11
10.50935300780984
 21
15.16241114265188
 31
0.0
  0
ARC
  5
11404
330
1F
100
AcDbEntity
  8
AM_0
100
AcDbCircle
 10
11.7415385719265
 20
27.7758102899088
 30
0.0
 40
21.21394722843668
100
AcDbArc
 50
260.4073524654041
 51
269.8034121758446
  0
ARC
  5
11405
330
1F
100
AcDbEntity
  8
AM_0
100
AcDbCircle
 10
11.7861120879796
 20
13.99646956497577
 30
0.0
 40
7.435407902530391
100
AcDbArc
 50
269.0956045423311
 51
297.0352048670478
  0
LINE
  5
11406
330
1F
100
AcDbEntity
  8
AM_0
100
AcDbLine
 10
15.16721285885487
 20
7.370765124642276
 30
0.0
 11
17.64829729432071
 21
8.642303164249256
 31
0.0
  0
LINE
  5
11407
330
1F
100
AcDbEntity
  8
AM_0
100
AcDbLine
 10
6.446605464914313
 20
10.54380726717295
 30
0.0
 11
8.259137252408181
 21
13.10555179746962
 31
0.0
  0
SPLINE
  5
11408
330
1F
100
AcDbEntity
  8
AM_0
100
AcDbSpline
210
0.0
220
0.0
230
1.0
 70
     8
 71
     3
 72
     8
 73
     4
 74
     0
 42
0.0000000001
 43
0.0000000001
 40
0.0
 40
0.0
 40
0.0
 40
0.0
 40
2.378379810455674
 40
2.378379810455674
 40
2.378379810455674
 40
2.378379810455674
 10
8.269754027315997
 20
13.0980400250138
 30
0.0
 10
8.649041441125604
 20
13.60636150668972
 30
0.0
 10
9.114174220362742
 20
14.08179544024858
 30
0.0
 10
9.651340530388183
 20
14.49784989480179
 30
0.0
  0
LINE
  5
11409
330
1F
100
AcDbEntity
  8
AM_0
100
AcDbLine
 10
27.88955777513738
 20
13.97673354590222
 30
0.0
 11
17.64701579841935
 21
8.644803678929634
 31
0.0
  0
ELLIPSE
  5
1140B
330
1F
100
AcDbEntity
  8
AM_0
100
AcDbEllipse
 10
21.85878323199049
 20
21.26487341625114
 30
0.0
 11
0.4403004311316356
 21
0.2369293783921611
 31
0.0
210
0.0
220
0.0
230
0.9999999999999999
 40
0.0478193071132805
 41
4.433311293354664
 42
4.991816653992832
  0
ELLIPSE
  5
1140C
330
1F
100
AcDbEntity
  8
AM_0
100
AcDbEllipse
 10
16.63277582837472
 20
7.256483432345704
 30
0.0
 11
6.123422820564523
 21
-7.905927710306341
 31
0.0
210
0.0
220
0.0
230
1.0
 40
0.9602101798330276
 41
2.969520238277206
 42
3.14159265358981
  0
ELLIPSE
  5
11420
330
1F
100
AcDbEntity
  8
AM_0
100
AcDbEllipse
 10
19.50150564015948
 20
14.62314734271672
 30
0.0
 11
2.755540269254045
 21
-3.557667469637845
 31
0.0
210
0.0
220
0.0
230
1.0
 40
0.960210179833029
 41
3.38451442541519
 42
3.873328568809244
  0
ELLIPSE
  5
11421
330
1F
100
AcDbEntity
  8
AM_0
100
AcDbEllipse
 10
19.39110790810909
 20
14.53764036408677
 30
0.0
 11
-2.755540269254045
 21
3.557667469637845
 31
0.0
210
0.0
220
0.0
230
1.0
 40
0.960210179833029
 41
0.6689962552567805
 42
0.9904689524788972
  0
ELLIPSE
  5
11422
330
1F
100
AcDbEntity
  8
AM_0
100
AcDbEllipse
 10
20.2438802687112
 20
14.98156555663741
 30
0.0
 11
-2.755540269254045
 21
3.557667469637845
 31
0.0
210
0.0
220
0.0
230
1.0
 40
0.960210179833029
 41
3.810588908843922
 42
5.27004422129896
  0
ARC
  5
11424
330
1F
100
AcDbEntity
  8
AM_0
100
AcDbCircle
 10
27.19693485528487
 20
15.30724979566958
 30
0.0
 40
1.5
100
AcDbArc
 50
297.4999999999973
 51
307.7590585824877
  0
ARC
  5
11425
330
1F
100
AcDbEntity
  8
AM_0
100
AcDbCircle
 10
8.494353498993945
 20
8.330589933999704
 30
0.0
 40
1.5
100
AcDbArc
 50
208.2850697759336
 51
258.9322600027136
  0
ARC
  5
11426
330
1F
100
AcDbEntity
  8
AM_0
100
AcDbCircle
 10
7.739193760826169
 20
9.733949705357873
 30
0.0
 40
1.5
100
AcDbArc
 50
147.9855485037204
 51
208.2850697759291
  0
LINE
  5
11427
330
1F
100
AcDbEntity
  8
AM_0
100
AcDbLine
 10
3.344557195600913
 20
-78.27917461573503
 30
0.0
 11
15.23075109955366
 21
-74.44399659685843
 31
0.0
  0
LINE
  5
11429
330
1F
100
AcDbEntity
  8
AM_0
100
AcDbLine
 10
14.18137448694515
 20
-69.88039693229788
 30
0.0
 11
15.23075109955366
 21
-74.44399659685843
 31
0.0
  0
LINE
  5
1142A
330
1F
100
AcDbEntity
  8
AM_0
100
AcDbLine
 10
15.23075109955366
 20
-74.44399659685843
 30
0.0
 11
15.27013590101214
 21
-74.42068103753817
 31
0.0
  0
LINE
  5
1142B
330
1F
100
AcDbEntity
  8
AM_0
100
AcDbLine
 10
1.152675373844062
 20
-73.92531615612489
 30
0.0
 11
2.186250337757286
 21
-78.42019654695821
 31
0.0
  0
ELLIPSE
  5
1142C
330
1F
100
AcDbEntity
  8
AM_0
100
AcDbEllipse
 10
2.965903864734031
 20
-78.24091917004444
 30
0.0
 11
0.7796535269765186
 21
0.1792773769137522
 31
0.0
210
0.0
220
0.0
230
0.9999999999999998
 40
0.1710139572598702
 41
3.141592653589507
 42
5.179784419229113
  0
LINE
  5
1142D
330
1F
100
AcDbEntity
  8
AM_0
100
AcDbLine
 10
13.15661058467126
 20
-65.30133556923855
 30
0.0
 11
13.17120231736939
 21
-65.29269735356365
 31
0.0
  0
LINE
  5
1142E
330
1F
100
AcDbEntity
  8
AM_0
100
AcDbLine
 10
14.20759699378968
 20
-69.87193602524377
 30
0.0
 11
14.22218872648918
 21
-69.86329780956811
 31
0.0
  0
LINE
  5
1142F
330
1F
100
AcDbEntity
  8
AM_0
100
AcDbLine
 10
1.158909437756932
 20
-69.17249231525076
 30
0.0
 11
13.15661058467126
 21
-65.30133556923857
 31
0.0
  0
LINE
  5
11430
330
1F
100
AcDbEntity
  8
AM_0
100
AcDbLine
 10
13.15661058467126
 20
-65.30133556923857
 30
0.0
 11
14.20759699378945
 21
-69.8719360252438
 31
0.0
  0
LINE
  5
11431
330
1F
100
AcDbEntity
  8
AM_0
100
AcDbLine
 10
2.209895846875128
 20
-73.74309277125599
 30
0.0
 11
14.20759699378945
 21
-69.87193602524377
 31
0.0
  0
LINE
  5
11433
330
1F
100
AcDbEntity
  8
AM_0
100
AcDbLine
 10
6.087205533094988
 20
-65.67220493393262
 30
0.0
 11
0.0787773515431525
 21
-69.22915732421225
 31
0.0
  0
LINE
  5
11434
330
1F
100
AcDbEntity
  8
AM_0
100
AcDbLine
 10
6.28111928625421
 20
-65.60963706993144
 30
0.0
 11
6.087205533094988
 21
-65.67220493393262
 31
0.0
  0
LINE
  5
11435
330
1F
100
AcDbEntity
  8
AM_0
100
AcDbLine
 10
0.000602579913533
 20
-69.31351424647386
 30
0.0
 11
1.051588989031728
 21
-73.88411470247905
 31
0.0
  0
ELLIPSE
  5
11436
330
1F
100
AcDbEntity
  8
AM_0
100
AcDbEllipse
 10
0.7802561068900502
 20
-69.13423686956017
 30
0.0
 11
0.7796535269765186
 21
0.1792773769137522
 31
0.0
210
0.0
220
0.0
230
0.9999999999999998
 40
0.1710139572598702
 41
2.649057003837517
 42
5.179784419229113
  0
ELLIPSE
  5
11437
330
1F
100
AcDbEntity
  8
AM_0
100
AcDbEllipse
 10
1.831242516008246
 20
-73.70483732556539
 30
0.0
 11
0.7796535269765186
 21
0.1792773769137522
 31
0.0
210
0.0
220
0.0
230
0.9999999999999998
 40
0.1710139572598702
 41
3.14159265358979
 42
5.179784419229113
  0
LINE
  5
11438
330
1F
100
AcDbEntity
  8
AM_0
100
AcDbLine
 10
13.15353868024076
 20
-65.21588053917651
 30
0.0
 11
15.27317513560806
 21
-74.43389826557191
 31
0.0
  0
LINE
  5
11439
330
1F
100
AcDbEntity
  8
AM_0
100
AcDbLine
 10
15.27317513560806
 20
-74.43389826557191
 30
0.0
 11
15.25150714978358
 21
-74.43170914326038
 31
0.0
  0
LINE
  5
1143A
330
1F
100
AcDbEntity
  8
AM_0
100
AcDbLine
 10
18.64374764142789
 20
-89.45478299747998
 30
0.0
 11
15.19476344404174
 21
-74.45560830927752
 31
0.0
  0
LINE
  5
1143B
330
1F
100
AcDbEntity
  8
AM_0
100
AcDbLine
 10
35.79999999999754
 20
-69.45478299747998
 30
0.0
 11
124.9999999999976
 21
-69.45478299747998
 31
0.0
  0
LINE
  5
1143C
330
1F
100
AcDbEntity
  8
AM_0
100
AcDbLine
 10
124.9999999999976
 20
-69.45478299747998
 30
0.0
 11
124.9999999999976
 21
-89.45478299747998
 31
0.0
  0
LINE
  5
1143D
330
1F
100
AcDbEntity
  8
AM_0
100
AcDbLine
 10
13.74337520357071
 20
-65.27547187839153
 30
0.0
 11
21.54502838751077
 21
-89.45478299747998
 31
0.0
  0
LINE
  5
1143F
330
1F
100
AcDbEntity
  8
AM_0
100
AcDbLine
 10
34.99999999999758
 20
-62.55576154004785
 30
0.0
 11
34.72413298118963
 21
-61.70077935640074
 31
0.0
  0
LINE
  5
11440
330
1F
100
AcDbEntity
  8
AM_0
100
AcDbLine
 10
34.72413298118963
 20
-61.70077935640077
 30
0.0
 11
32.07979295562413
 21
-61.05910555304311
 31
0.0
  0
LINE
  5
11441
330
1F
100
AcDbEntity
  8
AM_0
100
AcDbLine
 10
32.07979295562436
 20
-61.05910555304314
 30
0.0
 11
25.94258536626884
 21
-60.43906185478977
 31
0.0
  0
LINE
  5
11442
330
1F
100
AcDbEntity
  8
AM_0
100
AcDbLine
 10
32.07979295562413
 20
-61.05910555304314
 30
0.0
 11
13.74337520357071
 21
-65.27547187839153
 31
0.0
  0
LINE
  5
11443
330
1F
100
AcDbEntity
  8
AM_0
100
AcDbLine
 10
13.15353868024053
 20
-65.21588053917648
 30
0.0
 11
13.74337520357071
 21
-65.27547187839153
 31
0.0
  0
LINE
  5
11444
330
1F
100
AcDbEntity
  8
AM_0
100
AcDbLine
 10
16.63578776205563
 20
-63.15441058050408
 30
0.0
 11
13.15353868024076
 21
-65.21588053917645
 31
0.0
  0
LINE
  5
11445
330
1F
100
AcDbEntity
  8
AM_0
100
AcDbLine
 10
25.94258536626884
 20
-60.43906185478977
 30
0.0
 11
23.79228657644362
 21
-61.13287340787338
 31
0.0
  0
LINE
  5
11446
330
1F
100
AcDbEntity
  8
AM_0
100
AcDbLine
 10
34.99999999999758
 20
-68.65478299747997
 30
0.0
 11
34.99999999999758
 21
-62.55576154004785
 31
0.0
  0
LINE
  5
1144B
330
1F
100
AcDbEntity
  8
AM_0
100
AcDbLine
 10
6.311318417552542
 20
-89.45478299747998
 30
0.0
 11
3.714124385447889
 21
-78.15993072871353
 31
0.0
  0
LINE
  5
1144D
330
1F
100
AcDbEntity
  8
AM_0
100
AcDbLine
 10
5.120584281383202
 20
-89.45478299747995
 30
0.0
 11
2.589555578958283
 21
-78.44767496915395
 31
0.0
  0
ELLIPSE
  5
1144F
330
1F
100
AcDbEntity
  8
AM_0
100
AcDbEllipse
 10
21.37676685986398
 20
-61.61145244973372
 30
0.0
 11
2.436417271801628
 21
0.5602418028554342
 31
0.0
210
0.0
220
0.0
230
1.0
 40
0.17101395725987
 41
3.635404631764125
 42
6.107079637231889
  0
ARC
  5
11450
330
1F
100
AcDbEntity
  8
AM_0
100
AcDbCircle
 10
35.79999999999754
 20
-68.65478299747997
 30
0.0
 40
0.8000000000000002
100
AcDbArc
 50
180.0
 51
270.0
  0
LINE
  5
11451
330
1F
100
AcDbEntity
  8
AM_0
100
AcDbLine
 10
18.01556083508066
 20
-50.31164071975306
 30
0.0
 11
20.24043004035147
 21
-49.87889635472726
 31
0.0
  0
LINE
  5
11453
330
1F
100
AcDbEntity
  8
AM_0
100
AcDbLine
 10
20.24043004035147
 20
-49.87889635472726
 30
0.0
 11
21.04878370522701
 21
-50.07669186540628
 31
0.0
  0
LINE
  5
11454
330
1F
100
AcDbEntity
  8
AM_0
100
AcDbLine
 10
21.04878370522678
 20
-50.07669186540628
 30
0.0
 11
19.63226816483152
 21
-50.70723174111109
 31
0.0
  0
LINE
  5
11455
330
1F
100
AcDbEntity
  8
AM_0
100
AcDbLine
 10
19.63226816483152
 20
-50.70723174111109
 30
0.0
 11
17.40739895956071
 21
-51.13997610613689
 31
0.0
  0
LINE
  5
11456
330
1F
100
AcDbEntity
  8
AM_0
100
AcDbLine
 10
17.40739895956071
 20
-51.13997610613689
 30
0.0
 11
16.59904529468517
 21
-50.94218059545787
 31
0.0
  0
LINE
  5
11457
330
1F
100
AcDbEntity
  8
AM_0
100
AcDbLine
 10
16.5990452946854
 20
-50.94218059545787
 30
0.0
 11
18.01556083508066
 21
-50.31164071975306
 31
0.0
  0
ARC
  5
11459
330
1F
100
AcDbEntity
  8
AM_0
100
AcDbCircle
 10
20.61318464500286
 20
-58.29073470386123
 30
0.0
 40
8.441302536758103
100
AcDbArc
 50
80.35742446701302
 51
125.5421111582359
  0
LINE
  5
1145A
330
1F
100
AcDbEntity
  8
AM_0
100
AcDbLine
 10
24.06980118252122
 20
-54.35807606474296
 30
0.0
 11
23.33327466788532
 21
-51.15501996958466
 31
0.0
  0
LINE
  5
1145B
330
1F
100
AcDbEntity
  8
AM_0
100
AcDbLine
 10
15.77637394039979
 20
-56.2211120244765
 30
0.0
 11
15.04945594375963
 21
-53.05984209929324
 31
0.0
  0
LINE
  5
1145C
330
1F
100
AcDbEntity
  8
AM_0
100
AcDbLine
 10
15.70624572137658
 20
-51.42214395197595
 30
0.0
 11
15.21098767562407
 21
-52.18730290254823
 31
0.0
  0
LINE
  5
1145D
330
1F
100
AcDbEntity
  8
AM_0
100
AcDbLine
 10
22.02711444972405
 20
-49.96869222473413
 30
0.0
 11
22.80684665004478
 21
-50.44067363041262
 31
0.0
  0
ARC
  5
1145E
330
1F
100
AcDbEntity
  8
AM_0
100
AcDbCircle
 10
22.22983751142019
 20
-51.41703805478699
 30
0.0
 40
1.13411949777836
100
AcDbArc
 50
13.35784733993536
 51
59.41787971929872
  0
ARC
  5
1145F
330
1F
100
AcDbEntity
  8
AM_0
100
AcDbCircle
 10
16.156513385701
 20
-52.81356815531535
 30
0.0
 40
1.134119497777693
100
AcDbArc
 50
146.4816559059297
 51
192.5416882853245
  0
LINE
  5
11460
330
1F
100
AcDbEntity
  8
AM_0
100
AcDbLine
 10
23.76766454457638
 20
-60.85325200184741
 30
0.0
 11
23.82922171782829
 21
-61.12095598136096
 31
0.0
  0
ELLIPSE
  5
11462
330
1F
100
AcDbEntity
  8
AM_0
100
AcDbEllipse
 10
19.92789182045848
 20
-55.31048712959722
 30
0.0
 11
4.141909362062753
 21
0.952411064854308
 31
0.0
210
0.0
220
0.0
230
1.0
 40
0.1710139572598701
 41
4.61642926377455
 42
6.283185307179586
  0
ELLIPSE
  5
11463
330
1F
100
AcDbEntity
  8
AM_0
100
AcDbEllipse
 10
18.88858399413593
 20
-50.7906752807408
 30
0.0
 11
3.209144765006212
 21
0.7379265734074473
 31
0.0
210
0.0
220
0.0
230
0.9999999999999999
 40
0.17101395725987
 41
2.967138199157093
 42
6.457639761612295
  0
ELLIPSE
  5
11464
330
1F
100
AcDbEntity
  8
AM_0
100
AcDbEllipse
 10
19.03523933590176
 20
-51.42845990491463
 30
0.0
 11
3.856465323218504
 21
0.8867746548733634
 31
0.0
210
0.0
220
0.0
230
1.0
 40
0.1710139572598701
 41
2.967138199158399
 42
6.457639761613534
  0
ELLIPSE
  5
11465
330
1F
100
AcDbEntity
  8
AM_0
100
AcDbEllipse
 10
19.19136530582259
 20
-52.10743103443892
 30
0.0
 11
4.141909362062754
 21
0.9524110648543077
 31
0.0
210
0.0
220
0.0
230
1.0
 40
0.1710139572598701
 41
3.141592653589794
 42
6.283185307179587
  0
LINE
  5
1146A
330
1F
100
AcDbEntity
  8
AM_0
100
AcDbLine
 10
16.15945916479095
 20
-63.30810191187169
 30
0.0
 11
26.0082354721936
 21
-60.13031340259778
 31
0.0
  0
LINE
  5
1146B
330
1F
100
AcDbEntity
  8
AM_0
100
AcDbLine
 10
6.573629573856209
 20
-66.16380892632867
 30
0.0
 11
7.328789312023758
 21
-66.24010291345689
 31
0.0
  0
LINE
  5
1146C
330
1F
100
AcDbEntity
  8
AM_0
100
AcDbLine
 10
8.774366438777037
 20
-66.0515861466601
 30
0.0
 11
12.34037668142614
 21
-65.18340772122721
 31
0.0
  0
ARC
  5
1146D
330
1F
100
AcDbEntity
  8
AM_0
100
AcDbCircle
 10
14.83860851352492
 20
-66.68826987380118
 30
0.0
 40
2.869746095061188
100
AcDbArc
 50
108.5852542853902
 51
139.6393747731426
  0
LINE
  5
1146E
330
1F
100
AcDbEntity
  8
AM_0
100
AcDbLine
 10
12.33957101908763
 20
-65.18269926237144
 30
0.0
 11
12.65075595634445
 21
-64.82881846582006
 31
0.0
  0
LINE
  5
1147A
330
1F
100
AcDbEntity
  8
AM_0
100
AcDbLine
 10
23.74841746351157
 20
-52.96042090963169
 30
0.0
 11
24.02584167763197
 21
-52.87090770999049
 31
0.0
  0
LINE
  5
11480
330
1F
100
AcDbEntity
  8
AM_0
100
AcDbLine
 10
23.85062322475014
 20
-54.87061129571401
 30
0.0
 11
22.7731659611853
 21
-55.21826172501827
 31
0.0
  0
LINE
  5
11481
330
1F
100
AcDbEntity
  8
AM_0
100
AcDbLine
 10
20.98088589589074
 20
-55.79655559819852
 30
0.0
 11
19.90342863232908
 21
-56.14420602750172
 31
0.0
  0
ARC
  5
11482
330
1F
100
AcDbEntity
  8
AM_0
100
AcDbCircle
 10
18.58977674400612
 20
-62.08298422991931
 30
0.0
 40
6.082332432645075
100
AcDbArc
 50
77.52707099459312
 51
96.03057086617061
  0
SPLINE
  5
11483
330
1F
100
AcDbEntity
  8
AM_0
100
AcDbSpline
210
0.0
220
0.0
230
1.0
 70
     8
 71
     3
 72
    12
 73
     8
 74
     0
 42
0.0000000001
 43
0.0000000001
 40
8.99452670302588
 40
8.99452670302588
 40
8.99452670302588
 40
8.99452670302588
 40
9.498828259779057
 40
9.498828259779057
 40
10.00312981653223
 40
10.00312981653223
 40
10.38868853346645
 40
10.38868853346645
 40
10.38868853346645
 40
10.38868853346645
 10
15.11087246589827
 20
-55.74739569563946
 30
0.0
 10
15.14713603363825
 20
-55.71056850157814
 30
0.0
 10
15.19522512134503
 20
-55.68747824641997
 30
0.0
 10
15.31185388125695
 20
-55.66048655064907
 30
0.0
 10
15.38042406618078
 20
-55.65668668035488
 30
0.0
 10
15.51757163307283
 20
-55.6628047135892
 30
0.0
 10
15.5823420958744
 20
-55.66967895911577
 30
0.0
 10
15.65198316892688
 20
-55.68015306260492
 30
0.0
  0
ARC
  5
11484
330
1F
100
AcDbEntity
  8
AM_0
100
AcDbCircle
 10
36.13376346918639
 20
-62.79717779770408
 30
0.0
 40
14.61868635599497
100
AcDbArc
 50
142.5764504605655
 51
147.165003461856
  0
LINE
  5
11486
330
1F
100
AcDbEntity
  8
AM_0
100
AcDbLine
 10
26.25096086870289
 20
-60.13036158210494
 30
0.0
 11
27.74906112744756
 21
-60.62157057646132
 31
0.0
  0
LINE
  5
11487
330
1F
100
AcDbEntity
  8
AM_0
100
AcDbLine
 10
25.97484680092256
 20
-60.36732243073931
 30
0.0
 11
26.3054453035173
 21
-60.47572168976581
 31
0.0
  0
ELLIPSE
  5
11488
330
1F
100
AcDbEntity
  8
AM_0
100
AcDbEllipse
 10
25.73818846913068
 20
-60.34341277718272
 30
0.0
 11
0.5488470330659484
 21
-0.1579597935788711
 31
0.0
210
0.0
220
0.0
230
1.0
 40
0.0815346338363243
 41
1.148576199819278
 42
1.832717021888923
  0
LINE
  5
1148C
330
1F
100
AcDbEntity
  8
AM_0
100
AcDbLine
 10
28.65878521836575
 20
-54.26199374070635
 30
0.0
 11
30.17755498351593
 21
-60.86692194999372
 31
0.0
  0
LINE
  5
1148D
330
1F
100
AcDbEntity
  8
AM_0
100
AcDbLine
 10
6.277343397745284
 20
-65.59321623176439
 30
0.0
 11
6.390937751678251
 21
-66.08722300614431
 31
0.0
  0
LINE
  5
1148E
330
1F
100
AcDbEntity
  8
AM_0
100
AcDbLine
 10
24.50781271893888
 20
-52.81882020521499
 30
0.0
 11
27.34771270044107
 21
-53.10573604789468
 31
0.0
  0
ARC
  5
1148F
330
1F
100
AcDbEntity
  8
AM_0
100
AcDbCircle
 10
21.55737396673871
 20
-68.33460520363417
 30
0.0
 40
15.65669762443554
100
AcDbArc
 50
148.5553003466607
 51
167.4002407043693
  0
ARC
  5
11490
330
1F
100
AcDbEntity
  8
AM_0
100
AcDbCircle
 10
15.40203636673786
 20
-64.71402259363765
 30
0.0
 40
8.517415852707158
100
AcDbArc
 50
122.3615504492636
 51
147.7331815569493
  0
ARC
  5
11491
330
1F
100
AcDbEntity
  8
AM_0
100
AcDbCircle
 10
17.39399337463109
 20
-67.72118843388006
 30
0.0
 40
12.12396529754454
100
AcDbArc
 50
107.9681693619839
 51
122.7063726689054
  0
LINE
  5
11492
330
1F
100
AcDbEntity
  8
AM_0
100
AcDbLine
 10
23.74221586885969
 20
-52.93345099727202
 30
0.0
 11
23.89643041812778
 21
-52.88369240723699
 31
0.0
  0
LINE
  5
11493
330
1F
100
AcDbEntity
  8
AM_0
100
AcDbLine
 10
13.65388844140975
 20
-56.18853264154157
 30
0.0
 11
15.22019698884273
 21
-55.68315033325737
 31
0.0
  0
ELLIPSE
  5
11495
330
1F
100
AcDbEntity
  8
AM_0
100
AcDbEllipse
 10
26.11863320424376
 20
-60.6104184925143
 30
0.0
 11
0.05025928171877145
 21
0.4974675915083446
 31
0.0
210
0.0
220
0.0
230
1.0
 40
0.8795934571387016
 41
6.092390367905503
 42
6.650895728543671
  0
ELLIPSE
  5
11496
330
1F
100
AcDbEntity
  8
AM_0
100
AcDbEllipse
 10
11.42629252895412
 20
-62.82990884073882
 30
0.0
 11
9.745669087206469
 21
2.24096721142194
 31
0.0
210
0.0
220
0.0
230
1.0
 40
0.1710139572598722
 41
4.932059137247992
 42
5.179784419229174
  0
ELLIPSE
  5
11497
330
1F
100
AcDbEntity
  8
AM_0
100
AcDbEllipse
 10
8.607947852926912
 20
-65.82737191155917
 30
0.0
 11
1.461850363080973
 21
0.3361450817132792
 31
0.0
210
0.0
220
0.0
230
1.0
 40
0.1710139572598683
 41
3.608988092434272
 42
4.787085337530433
  0
ELLIPSE
  5
11498
330
1F
100
AcDbEntity
  8
AM_0
100
AcDbEllipse
 10
12.17395809557556
 20
-64.95919348612625
 30
0.0
 11
1.461850363080975
 21
0.3361450817132795
 31
0.0
210
0.0
220
0.0
230
1.0
 40
0.1710139572598682
 41
4.78708533753043
 42
6.283185307179434
  0
ELLIPSE
  5
11499
330
1F
100
AcDbEntity
  8
AM_0
100
AcDbEllipse
 10
7.852788114759136
 20
-65.75107792443097
 30
0.0
 11
1.461850363080973
 21
0.3361450817132792
 31
0.0
210
0.0
220
0.0
230
1.0
 40
0.1710139572598683
 41
3.141592653589874
 42
3.608988092434272
  0
ELLIPSE
  5
114A3
330
1F
100
AcDbEntity
  8
AM_0
100
AcDbEllipse
 10
24.35703487378291
 20
-54.31122297974002
 30
0.0
 11
0.1507778451563145
 21
1.492402774525033
 31
0.0
210
0.0
220
0.0
230
1.0
 40
0.8795934571387019
 41
-0.0000000000002349
 42
0.3677104213642143
  0
ELLIPSE
  5
114AB
330
1F
100
AcDbEntity
  8
AM_0
100
AcDbEllipse
 10
24.35703487378291
 20
-54.31122297974002
 30
0.0
 11
-0.4606044556548353
 21
1.42753057250306
 31
0.0
210
0.0
220
0.0
230
1.0
 40
0.4439251925506215
 41
6.091157122251222
 42
6.283185307179606
  0
ELLIPSE
  5
114AF
330
1F
100
AcDbEntity
  8
AM_0
100
AcDbEllipse
 10
19.39110790810909
 20
-54.96795904031291
 30
0.0
 11
4.385551089242933
 21
1.008435245139778
 31
0.0
210
0.0
220
0.0
230
1.0
 40
0.1710139572598702
 41
2.879260436210034
 42
4.338715748662541
  0
ELLIPSE
  5
114B0
330
1F
100
AcDbEntity
  8
AM_0
100
AcDbEllipse
 10
20.2438802687112
 20
-54.69280503904776
 30
0.0
 11
4.385551089242933
 21
1.008435245139778
 31
0.0
210
0.0
220
0.0
230
1.0
 40
0.1710139572598702
 41
6.020853089797127
 42
6.846947725758668
  0
ARC
  5
114B2
330
1F
100
AcDbEntity
  8
AM_0
100
AcDbCircle
 10
27.19693485528487
 20
-54.59813882241971
 30
0.0
 40
1.5
100
AcDbArc
 50
12.9497678126272
 51
84.23096756185868
  0
ARC
  5
114B3
330
1F
100
AcDbEntity
  8
AM_0
100
AcDbCircle
 10
24.35703487378291
 20
-54.31122297974002
 30
0.0
 40
1.5
100
AcDbArc
 50
84.23096756185868
 51
107.8827216488976
  0
ARC
  5
114B4
330
1F
100
AcDbEntity
  8
AM_0
100
AcDbCircle
 10
7.739193760826169
 20
-65.25707115005105
 30
0.0
 40
1.5
100
AcDbArc
 50
166.9851834545562
 51
192.9497678126272
  0
LINE
  5
114B6
330
1F
100
AcDbEntity
  8
AM_0
100
AcDbLine
 10
-67.50288343492301
 20
14.73701112387437
 30
0.0
 11
-71.02677732928524
 21
2.63639117972491
 31
0.0
  0
LINE
  5
114B7
330
1F
100
AcDbEntity
  8
AM_0
100
AcDbLine
 10
-62.94134996992804
 20
13.9245995233664
 30
0.0
 11
-67.50288343492301
 21
14.73701112387437
 31
0.0
  0
LINE
  5
114B8
330
1F
100
AcDbEntity
  8
AM_0
100
AcDbLine
 10
-67.39160311556648
 20
14.91654744524453
 30
0.0
 11
-67.50288343492295
 21
14.73701112387448
 31
0.0
  0
LINE
  5
114B9
330
1F
100
AcDbEntity
  8
AM_0
100
AcDbLine
 10
-66.60052467336791
 20
0.6796730791032815
 30
0.0
 11
-71.07212996148203
 21
1.476068422211938
 31
0.0
  0
ELLIPSE
  5
114BA
330
1F
100
AcDbEntity
  8
AM_0
100
AcDbEllipse
 10
-70.93185687463316
 20
2.263674580838028
 30
0.0
 11
0.140273086848873
 21
0.7876061586261811
 31
0.0
210
0.0
220
0.0
230
1.0
 40
0.2207954641004686
 41
1.117564218938643
 42
3.141592653588803
  0
LINE
  5
114BB
330
1F
100
AcDbEntity
  8
AM_0
100
AcDbLine
 10
-57.99227327382724
 20
6.091771930572008
 30
0.0
 11
-57.85319352871105
 21
6.569354737555159
 31
0.0
  0
LINE
  5
114BC
330
1F
100
AcDbEntity
  8
AM_0
100
AcDbLine
 10
-54.79970502629246
 20
17.05466019204459
 30
0.0
 11
-54.43532088354758
 21
18.30591069992306
 31
0.0
  0
LINE
  5
114BD
330
1F
100
AcDbEntity
  8
AM_0
100
AcDbLine
 10
-61.86343001983946
 20
-0.1538359688787523
 30
0.0
 11
-57.99227327382724
 21
6.091771930571895
 31
0.0
  0
LINE
  5
114BE
330
1F
100
AcDbEntity
  8
AM_0
100
AcDbLine
 10
-58.36314263852128
 20
13.13669416507014
 30
0.0
 11
-61.92009502880094
 21
0.9225553957192005
 31
0.0
  0
LINE
  5
114C0
330
1F
100
AcDbEntity
  8
AM_0
100
AcDbLine
 10
-62.93374309452653
 20
13.95072060162704
 30
0.0
 11
-66.49069548480614
 21
1.736581832276102
 31
0.0
  0
LINE
  5
114C2
330
1F
100
AcDbEntity
  8
AM_0
100
AcDbLine
 10
-54.49198589250906
 20
19.3823020645209
 30
0.0
 11
-55.70689029453891
 21
17.42221183097206
 31
0.0
  0
LINE
  5
114C3
330
1F
100
AcDbEntity
  8
AM_0
100
AcDbLine
 10
-58.26719936615953
 20
13.29148615595989
 30
0.0
 11
-58.36314263852128
 21
13.13669416507003
 31
0.0
  0
LINE
  5
114C4
330
1F
100
AcDbEntity
  8
AM_0
100
AcDbLine
 10
-58.36314263852128
 20
13.13669416507003
 30
0.0
 11
-62.93374309452653
 21
13.95072060162704
 31
0.0
  0
LINE
  5
114C5
330
1F
100
AcDbEntity
  8
AM_0
100
AcDbLine
 10
-62.83779982216484
 20
14.10551259251679
 30
0.0
 11
-62.93374309452653
 21
13.95072060162704
 31
0.0
  0
LINE
  5
114C6
330
1F
100
AcDbEntity
  8
AM_0
100
AcDbLine
 10
-54.38996825135078
 20
19.46623345743615
 30
0.0
 11
-55.02071375580724
 21
19.57856957613853
 31
0.0
  0
LINE
  5
114C7
330
1F
100
AcDbEntity
  8
AM_0
100
AcDbLine
 10
-61.96544766099774
 20
-0.2377673617938854
 30
0.0
 11
-66.53604811700294
 21
0.5762590747631293
 31
0.0
  0
ELLIPSE
  5
114C8
330
1F
100
AcDbEntity
  8
AM_0
100
AcDbEllipse
 10
-54.53024133819966
 20
18.67862729880994
 30
0.0
 11
0.140273086848873
 21
0.7876061586261811
 31
0.0
210
0.0
220
0.0
230
1.0
 40
0.2207954641004686
 41
4.259156872528694
 42
6.789884287920292
  0
ELLIPSE
  5
114C9
330
1F
100
AcDbEntity
  8
AM_0
100
AcDbEllipse
 10
-61.82517457414886
 20
0.5498387968322049
 30
0.0
 11
0.140273086848873
 21
0.7876061586261811
 31
0.0
210
0.0
220
0.0
230
1.0
 40
0.2207954641004686
 41
1.117564218938901
 42
3.648291634330497
  0
ELLIPSE
  5
114CA
330
1F
100
AcDbEntity
  8
AM_0
100
AcDbEllipse
 10
-66.39577503015406
 20
1.36386523338922
 30
0.0
 11
0.140273086848873
 21
0.7876061586261811
 31
0.0
210
0.0
220
0.0
230
1.0
 40
0.2207954641004686
 41
1.117564218938642
 42
3.141592653588513
  0
LINE
  5
114CB
330
1F
100
AcDbEntity
  8
AM_0
100
AcDbLine
 10
-57.90681824376523
 20
6.107753388410742
 30
0.0
 11
-57.98363505815175
 21
6.121434504991612
 31
0.0
  0
LINE
  5
114CE
330
1F
100
AcDbEntity
  8
AM_0
100
AcDbLine
 10
-57.96640958298022
 20
5.011623911847664
 30
0.0
 11
-58.66177132056569
 21
5.011623911847664
 31
0.0
  0
LINE
  5
114CF
330
1F
100
AcDbEntity
  8
AM_0
100
AcDbLine
 10
-53.7500432576318
 20
5.011623911847778
 30
0.0
 11
-53.67874802817701
 21
6.32303599912666
 31
0.0
  0
LINE
  5
114D0
330
1F
100
AcDbEntity
  8
AM_0
100
AcDbLine
 10
-53.7500432576318
 20
5.011623911847664
 30
0.0
 11
-57.96640958298022
 21
5.011623911847664
 31
0.0
  0
LINE
  5
114D1
330
1F
100
AcDbEntity
  8
AM_0
100
AcDbLine
 10
-57.90681824376517
 20
6.107753388410856
 30
0.0
 11
-57.96640958298022
 21
5.011623911847664
 31
0.0
  0
LINE
  5
114D3
330
1F
100
AcDbEntity
  8
AM_0
100
AcDbLine
 10
-57.77450288841683
 20
6.562108109592032
 30
0.0
 11
-57.90681824376517
 21
6.107753388410856
 31
0.0
  0
LINE
  5
114D5
330
1F
100
AcDbEntity
  8
AM_0
100
AcDbLine
 10
-55.41437704729518
 20
18.51003253244198
 30
0.0
 11
-55.02071375580732
 21
19.57856957613855
 31
0.0
  0
LINE
  5
114D6
330
1F
100
AcDbEntity
  8
AM_0
100
AcDbLine
 10
-58.19038255177273
 20
13.27780503937993
 30
0.0
 11
-55.74241971277806
 21
17.22727468060168
 31
0.0
  0
LINE
  5
114D7
330
1F
100
AcDbEntity
  8
AM_0
100
AcDbLine
 10
-54.77330699092661
 20
25.01162391184766
 30
0.0
 11
-52.84572070206869
 21
25.01162391184766
 31
0.0
  0
LINE
  5
114D8
330
1F
100
AcDbEntity
  8
AM_0
100
AcDbLine
 10
-52.84572070206869
 20
25.01162391184766
 30
0.0
 11
-52.84572070206869
 21
21.6458298640988
 31
0.0
  0
LINE
  5
114D9
330
1F
100
AcDbEntity
  8
AM_0
100
AcDbLine
 10
-52.93145412954303
 20
20.06884001592107
 30
0.0
 11
-52.84572070206869
 21
21.64582986409891
 31
0.0
  0
LINE
  5
114DA
330
1F
100
AcDbEntity
  8
AM_0
100
AcDbLine
 10
-82.14572070206864
 20
25.01162391184766
 30
0.0
 11
-54.77330699092661
 21
25.01162391184766
 31
0.0
  0
LINE
  5
114DB
330
1F
100
AcDbEntity
  8
AM_0
100
AcDbLine
 10
-54.77330699092661
 20
25.01162391184766
 30
0.0
 11
-58.19038255177273
 21
13.27780503937993
 31
0.0
  0
LINE
  5
114DC
330
1F
100
AcDbEntity
  8
AM_0
100
AcDbLine
 10
-67.40840027816986
 20
14.91953902907471
 30
0.0
 11
-58.19038255177273
 21
13.27780503937993
 31
0.0
  0
LINE
  5
114DD
330
1F
100
AcDbEntity
  8
AM_0
100
AcDbLine
 10
-67.42492952612909
 20
14.86277961647215
 30
0.0
 11
-67.40840027816986
 21
14.91953902907471
 31
0.0
  0
LINE
  5
114DE
330
1F
100
AcDbEntity
  8
AM_0
100
AcDbLine
 10
-82.14572070206864
 20
5.015047407483053
 30
0.0
 11
-82.14572070206864
 21
25.01162391184766
 31
0.0
  0
LINE
  5
114DF
330
1F
100
AcDbEntity
  8
AM_0
100
AcDbLine
 10
-82.14572070206864
 20
3.846647321415162
 30
0.0
 11
-82.14572070206864
 21
5.015047407483166
 31
0.0
  0
LINE
  5
114E0
330
1F
100
AcDbEntity
  8
AM_0
100
AcDbLine
 10
-70.91648697371491
 20
3.015114749806344
 30
0.0
 11
-82.1457207020687
 21
5.015047407483053
 31
0.0
  0
LINE
  5
114E1
330
1F
100
AcDbEntity
  8
AM_0
100
AcDbLine
 10
-82.1457207020687
 20
3.846647321415162
 30
0.0
 11
-71.15297130798544
 21
1.88883265278173
 31
0.0
  0
ELLIPSE
  5
114E3
330
1F
100
AcDbEntity
  8
AM_0
100
AcDbEllipse
 10
-55.29690262012119
 20
17.21153743658613
 30
0.0
 11
0.3506827171222269
 21
1.969015396565444
 31
0.0
210
0.0
220
0.0
230
1.0
 40
0.2207954641004696
 41
0.8906714161817659
 42
1.602113512885912
  0
LINE
  5
114E4
330
1F
100
AcDbEntity
  8
AM_0
100
AcDbLine
 10
-43.00257842434175
 20
15.90590978445437
 30
0.0
 11
-42.56983405931592
 21
15.46316531265416
 31
0.0
  0
LINE
  5
114E6
330
1F
100
AcDbEntity
  8
AM_0
100
AcDbLine
 10
-42.56983405931592
 20
15.46316531265416
 30
0.0
 11
-42.76762956999497
 21
13.30891959273947
 31
0.0
  0
LINE
  5
114E8
330
1F
100
AcDbEntity
  8
AM_0
100
AcDbLine
 10
-42.76762956999497
 20
13.30891959273936
 30
0.0
 11
-43.39816944569978
 21
11.59741834462477
 31
0.0
  0
LINE
  5
114E9
330
1F
100
AcDbEntity
  8
AM_0
100
AcDbLine
 10
-43.39816944569978
 20
11.59741834462477
 30
0.0
 11
-43.83091381072555
 21
12.04016281642498
 31
0.0
  0
LINE
  5
114EA
330
1F
100
AcDbEntity
  8
AM_0
100
AcDbLine
 10
-43.83091381072555
 20
12.04016281642498
 30
0.0
 11
-43.63311830004656
 21
14.19440853633967
 31
0.0
  0
LINE
  5
114EB
330
1F
100
AcDbEntity
  8
AM_0
100
AcDbLine
 10
-43.63311830004656
 20
14.19440853633967
 30
0.0
 11
-43.00257842434175
 21
15.90590978445425
 31
0.0
  0
ARC
  5
114EC
330
1F
100
AcDbEntity
  8
AM_0
100
AcDbCircle
 10
-50.03272724454743
 20
14.96850991912402
 30
0.0
 40
7.53547761886417
100
AcDbArc
 50
324.7102628776343
 51
15.09268977736912
  0
LINE
  5
114ED
330
1F
100
AcDbEntity
  8
AM_0
100
AcDbLine
 10
-48.74662560807079
 20
10.42257613313711
 30
0.0
 11
-45.54356951291246
 21
9.852110093864781
 31
0.0
  0
LINE
  5
114EE
330
1F
100
AcDbEntity
  8
AM_0
100
AcDbLine
 10
-47.25622406030126
 20
18.79089156854047
 30
0.0
 11
-44.05316796514299
 21
18.22042552926814
 31
0.0
  0
LINE
  5
114EF
330
1F
100
AcDbEntity
  8
AM_0
100
AcDbLine
 10
-42.75717944467166
 20
16.93060756096713
 30
0.0
 11
-43.24883768369753
 21
17.67532249421629
 31
0.0
  0
LINE
  5
114F0
330
1F
100
AcDbEntity
  8
AM_0
100
AcDbLine
 10
-43.88196082879594
 20
10.61517838531415
 30
0.0
 11
-44.60050011144998
 21
10.0860002913895
 31
0.0
  0
ARC
  5
114F1
330
1F
100
AcDbEntity
  8
AM_0
100
AcDbCircle
 10
-44.28145063648717
 20
17.017612696892
 30
0.0
 40
1.224284153195208
100
AcDbArc
 50
32.49458445536919
 51
79.25360836585557
  0
ARC
  5
114F2
330
1F
100
AcDbEntity
  8
AM_0
100
AcDbCircle
 10
-45.34254433755817
 20
11.05977750116108
 30
0.0
 40
1.224284153197933
100
AcDbArc
 50
260.5493442891971
 51
307.3083681995691
  0
ELLIPSE
  5
114F3
330
1F
100
AcDbEntity
  8
AM_0
100
AcDbEllipse
 10
-43.20037393502074
 20
13.75166406453957
 30
0.0
 11
0.4533953069224037
 21
2.545726653958744
 31
0.0
210
0.0
220
0.0
230
0.9999999999999998
 40
0.2207954641004686
 41
0.6787713960546579
 42
6.961956703234244
  0
ELLIPSE
  5
114F4
330
1F
100
AcDbEntity
  8
AM_0
100
AcDbEllipse
 10
-48.00142483418588
 20
14.60673385083885
 30
0.0
 11
0.7452007738846374
 21
4.184157717701585
 31
0.0
210
0.0
220
0.0
230
1.0
 40
0.2207954641004686
 41
-0.0000000000012816
 42
1.019107301061449
  0
ELLIPSE
  5
114F5
330
1F
100
AcDbEntity
  8
AM_0
100
AcDbEllipse
 10
-48.00142483418588
 20
14.60673385083885
 30
0.0
 11
0.7452007738846374
 21
4.184157717701585
 31
0.0
210
0.0
220
0.0
230
1.0
 40
0.2207954641004686
 41
3.07193699222462
 42
3.141592653588457
  0
ELLIPSE
  5
114F6
330
1F
100
AcDbEntity
  8
AM_0
100
AcDbEllipse
 10
-43.48161298532952
 20
13.80175289294346
 30
0.0
 11
0.5773803705833552
 21
3.24187872354483
 31
0.0
210
0.0
220
0.0
230
1.0
 40
0.2207954641004686
 41
6.054823099320809
 42
9.653140168625598
  0
ELLIPSE
  5
114F7
330
1F
100
AcDbEntity
  8
AM_0
100
AcDbEllipse
 10
-44.1193976095033
 20
13.9153426827105
 30
0.0
 11
0.6938444789846447
 21
3.895802089004919
 31
0.0
210
0.0
220
0.0
230
1.0
 40
0.2207954641004687
 41
6.054823099321936
 42
9.653140168626971
  0
ELLIPSE
  5
114F8
330
1F
100
AcDbEntity
  8
AM_0
100
AcDbEllipse
 10
-44.79836873902761
 20
14.03626781156652
 30
0.0
 11
0.7452007738846376
 21
4.184157717701586
 31
0.0
210
0.0
220
0.0
230
1.0
 40
0.2207954641004686
 41
-0.0000000000012812
 42
3.141592653588509
  0
LINE
  5
114FA
330
1F
100
AcDbEntity
  8
AM_0
100
AcDbLine
 10
-58.85474663091739
 20
8.917668704602079
 30
0.0
 11
-58.93104061804561
 21
7.51430893324391
 31
0.0
  0
LINE
  5
114FC
330
1F
100
AcDbEntity
  8
AM_0
100
AcDbLine
 10
-52.39087734316698
 20
20.94099034946885
 30
0.0
 11
-55.56866585244089
 21
15.81404191558045
 31
0.0
  0
ARC
  5
114FE
330
1F
100
AcDbEntity
  8
AM_0
100
AcDbCircle
 10
-58.48470411378773
 20
15.73939869104652
 30
0.0
 40
2.569623509165683
100
AcDbArc
 50
315.9612687599475
 51
330.0627301676078
  0
LINE
  5
11500
330
1F
100
AcDbEntity
  8
AM_0
100
AcDbLine
 10
-57.53082324364792
 20
13.29578994516749
 30
0.0
 11
-58.53369202681816
 21
10.54768985680221
 31
0.0
  0
LINE
  5
11512
330
1F
100
AcDbEntity
  8
AM_0
100
AcDbLine
 10
-48.56654154721255
 20
10.39050306358058
 30
0.0
 11
-48.71632748693119
 21
10.1488429320716
 31
0.0
  0
LINE
  5
11513
330
1F
100
AcDbEntity
  8
AM_0
100
AcDbLine
 10
-48.44130066806875
 20
17.20153988015295
 30
0.0
 11
-48.09365023876629
 21
17.76242862993956
 31
0.0
  0
LINE
  5
11514
330
1F
100
AcDbEntity
  8
AM_0
100
AcDbLine
 10
-47.51535636558393
 20
18.69543057729618
 30
0.0
 11
-47.16770593628056
 21
19.25631932708427
 31
0.0
  0
SPLINE
  5
11515
330
1F
100
AcDbEntity
  8
AM_0
100
AcDbSpline
210
0.0
220
0.0
230
1.0
 70
     8
 71
     3
 72
    10
 73
     6
 74
     0
 42
0.0000000001
 43
0.0000000001
 40
3.067847702325723
 40
3.067847702325723
 40
3.067847702325723
 40
3.067847702325723
 40
3.530110897271872
 40
3.530110897271872
 40
4.034412454024997
 40
4.034412454024997
 40
4.034412454024997
 40
4.034412454024997
 10
-48.69794167499421
 20
9.948632338082803
 30
0.0
 10
-48.68751258270825
 20
9.965436735457729
 30
0.0
 10
-48.68274725943942
 20
9.990757053448078
 30
0.0
 10
-48.6885273636224
 20
10.06271885333877
 30
0.0
 10
-48.70040506310775
 20
10.11105448952276
 30
0.0
 10
-48.72524924290636
 20
10.17151354331634
 30
0.0
  0
ARC
  5
11516
330
1F
100
AcDbEntity
  8
AM_0
100
AcDbCircle
 10
-52.69513502762598
 20
16.31810199548352
 30
0.0
 40
4.344602312596527
100
AcDbArc
 50
348.4615974480864
 51
11.73242834284584
  0
SPLINE
  5
11517
330
1F
100
AcDbEntity
  8
AM_0
100
AcDbSpline
210
0.0
220
0.0
230
1.0
 70
     8
 71
     3
 72
    12
 73
     8
 74
     0
 42
0.0000000001
 43
0.0000000001
 40
2.048907805611841
 40
2.048907805611841
 40
2.048907805611841
 40
2.048907805611841
 40
3.025809340519053
 40
3.025809340519053
 40
3.530110897272228
 40
3.530110897272228
 40
4.034412454025404
 40
4.034412454025404
 40
4.034412454025404
 40
4.034412454025404
 10
-47.16770593628044
 20
19.25631932708427
 30
0.0
 10
-46.96343099109768
 20
19.24849564957572
 30
0.0
 10
-46.78049068048702
 20
19.212899425763
 30
0.0
 10
-46.55767424406528
 20
19.11778630733988
 30
0.0
 10
-46.49145461489403
 20
19.07821305263792
 30
0.0
 10
-46.38378463789556
 20
18.98501958184215
 30
0.0
 10
-46.34223442543024
 20
18.93139925489641
 30
0.0
 10
-46.31739024563163
 20
18.87094020110283
 30
0.0
  0
LINE
  5
11518
330
1F
100
AcDbEntity
  8
AM_0
100
AcDbLine
 10
-52.84572070206858
 20
21.8427110001644
 30
0.0
 11
-52.39092552267411
 21
21.07160555336918
 31
0.0
  0
LINE
  5
1151A
330
1F
100
AcDbEntity
  8
AM_0
100
AcDbLine
 10
-58.28731487960968
 20
6.615452298423293
 30
0.0
 11
-58.78132165398958
 21
6.703435174645847
 31
0.0
  0
ARC
  5
1151B
330
1F
100
AcDbEntity
  8
AM_0
100
AcDbCircle
 10
-57.05077578243922
 20
14.41663590859741
 30
0.0
 40
0.6210022161356092
100
AcDbArc
 50
258.3539206904212
 51
310.68780508614
  0
LINE
  5
1151C
330
1F
100
AcDbEntity
  8
AM_0
100
AcDbLine
 10
-46.73914864648705
 20
21.8231959977735
 30
0.0
 11
-52.84572070206869
 21
22.91077981478645
 31
0.0
  0
LINE
  5
1151D
330
1F
100
AcDbEntity
  8
AM_0
100
AcDbLine
 10
-58.16944315779611
 20
6.581858978056971
 30
0.0
 11
-53.9140336386856
 21
6.304404229238486
 31
0.0
  0
ARC
  5
1151E
330
1F
100
AcDbEntity
  8
AM_0
100
AcDbCircle
 10
-53.70520383930304
 20
11.02860898005054
 30
0.0
 40
4.709479424049565
100
AcDbArc
 50
267.4738580231425
 51
307.5737840117549
  0
ARC
  5
1151F
330
1F
100
AcDbEntity
  8
AM_0
100
AcDbCircle
 10
-54.75623902012271
 20
12.41526353720542
 30
0.0
 40
6.449413612722544
100
AcDbArc
 50
307.4623786102579
 51
327.4652683739312
  0
LINE
  5
11520
330
1F
100
AcDbEntity
  8
AM_0
100
AcDbLine
 10
-45.50437246698883
 20
20.26500683833797
 30
0.0
 11
-45.60054417838379
 21
18.49601407764396
 31
0.0
  0
LINE
  5
11521
330
1F
100
AcDbEntity
  8
AM_0
100
AcDbLine
 10
-48.69794167499433
 20
9.948632338082575
 30
0.0
 11
-49.31896032793819
 21
8.946699515670161
 31
0.0
  0
ELLIPSE
  5
11522
330
1F
100
AcDbEntity
  8
AM_0
100
AcDbEllipse
 10
-58.51830961614789
 20
8.180196722069923
 30
0.0
 11
0.2630120378416335
 21
1.476761547424089
 31
0.0
210
0.0
220
0.0
230
1.0
 40
0.2207954641004648
 41
2.077495307535582
 42
3.141592653588354
  0
ELLIPSE
  5
11523
330
1F
100
AcDbEntity
  8
AM_0
100
AcDbEllipse
 10
-57.43914684584942
 20
12.33165658179348
 30
0.0
 11
0.2630120378416339
 21
1.476761547424091
 31
0.0
210
0.0
220
0.0
230
1.0
 40
0.2207954641004648
 41
-0.0000000000012848
 42
0.8993980624396785
  0
ELLIPSE
  5
11524
330
1F
100
AcDbEntity
  8
AM_0
100
AcDbEllipse
 10
-52.87098243308347
 20
21.0264973280988
 30
0.0
 11
0.4992627391132878
 21
-0.02714253733712262
 31
0.0
210
0.0
220
0.0
230
1.0
 40
0.4733166635836867
 41
6.02983391584567
 42
6.588339276483839
  0
ELLIPSE
  5
11525
330
1F
100
AcDbEntity
  8
AM_0
100
AcDbEllipse
 10
-56.04685892357364
 20
7.018107344193368
 30
0.0
 11
1.753413585610934
 21
9.845076982827257
 31
0.0
210
0.0
220
0.0
230
1.0
 40
0.2207954641004724
 41
0.5066989807407625
 42
0.7544242627219142
  0
ELLIPSE
  5
11526
330
1F
100
AcDbEntity
  8
AM_0
100
AcDbEllipse
 10
-58.44201562901966
 20
9.583556493428091
 30
0.0
 11
0.2630120378416335
 21
1.476761547424089
 31
0.0
210
0.0
220
0.0
230
1.0
 40
0.2207954641004648
 41
0.8993980624394634
 42
2.077495307535648
  0
ELLIPSE
  5
11539
330
1F
100
AcDbEntity
  8
AM_0
100
AcDbEllipse
 10
-47.65889674490157
 20
14.29926427593443
 30
0.0
 11
0.7890361135250116
 21
4.430284642272249
 31
0.0
210
0.0
220
0.0
230
1.0
 40
0.2207954641004686
 41
1.347767651311441
 42
2.807222963763947
  0
ELLIPSE
  5
1153A
330
1F
100
AcDbEntity
  8
AM_0
100
AcDbEllipse
 10
-47.38374274363642
 20
14.74318946848507
 30
0.0
 11
0.7890361135250116
 21
4.430284642272249
 31
0.0
210
0.0
220
0.0
230
1.0
 40
0.2207954641004686
 41
5.810882308457639
 42
5.948815617353626
  0
ARC
  5
1153C
330
1F
100
AcDbEntity
  8
AM_0
100
AcDbCircle
 10
-58.02430284176799
 20
8.092213845847368
 30
0.0
 40
1.5
100
AcDbArc
 50
259.9014763275013
 51
264.4906078539748
  0
ARC
  5
1153D
330
1F
100
AcDbEntity
  8
AM_0
100
AcDbCircle
 10
-47.00216068432874
 20
20.34643445034953
 30
0.0
 40
1.5
100
AcDbArc
 50
356.8881646905708
 51
79.90147632750129
  0
LINE
  5
11CB8
330
1F
100
AcDbEntity
  8
AM_0
100
AcDbLine
 10
5.120584281383202
 20
-89.45478299747995
 30
0.0
 11
124.9999999999976
 21
-89.45478299747995
 31
0.0
  0
LINE
  5
11D05
330
1F
100
AcDbEntity
  8
AM_5
370
    13
100
AcDbLine
 10
0.0
 20
0.5580047974186471
 30
0.0
 11
0.0
 21
-1.890349225166347
 31
0.0
  0
DIMENSION
  5
11D06
330
1F
100
AcDbEntity
  8
AM_5
370
    13
100
AcDbDimension
  2
*D10
 10
0.0
 20
-1.890349225166347
 30
0.0
 11
15.36717420271029
 21
-9.272702383588239
 31
0.0
 70
   162
 71
     5
 42
2.050761871093346
  3
AM_JIS$2
100
AcDb2LineAngularDimension
 13
1.158909437756932
 23
0.0845401192735835
 33
0.0
 14
13.14191336049618
 24
6.322497128084081
 34
0.0
 15
0.0
 25
0.5580047974186471
 35
0.0
 16
11.16986492457338
 26
-14.23063690033747
 36
0.0
1001
ACAD
1000
DSTYLE
1002
{
1070
   179
1070
     1
1002
}
  0
TEXT
  5
11DA6
330
1F
100
AcDbEntity
  8
AM_6
  6
Continuous
 62
     0
370
    30
100
AcDbText
 10
45.9961765315758
 20
-109.3179478639856
 30
0.0
 40
3.8
  1
DVQNR2020K16
  7
ACISOTS
100
AcDbText
  0
ENDSEC
  0
SECTION
  2
OBJECTS
  0
DICTIONARY
  5
C
330
0
100
AcDbDictionary
281
     1
  3
ACAD_COLOR
350
ED4C
  3
ACAD_GROUP
350
D
  3
ACAD_LAYOUT
350
1A
  3
ACAD_MATERIAL
350
ED4B
  3
ACAD_MLINESTYLE
350
17
  3
ACAD_PLOTSETTINGS
350
19
  3
ACAD_PLOTSTYLENAME
350
E
  3
ACAD_TABLESTYLE
350
ED4D
  3
AcAmCatalogState
350
EDB4
  3
ACDBHEADERROUNDTRIPXREC
350
11EAC
  3
AcDbVariableDictionary
350
30
  3
ACDMSYSVARMGR
350
ED67
  3
ACGREF_MASTER
350
ED5F
  3
ACGREFACAD_MASTER
350
ED87
  3
AcmDictionary
350
4D
  3
ACME_BOM_MANAGER_NAME
350
36
  3
ACME_COMMAND_HISTORY
350
2F
  3
ACME_SCOPE_NAME
350
2E
  3
ACMESTATEMGR
350
3B
  3
AcmeSysVarManager
350
32
  3
AcmSystemVariableManager
350
6A
  3
AD_APPL
350
ED92
  3
ADSYSVARMGR
350
ED91
  3
AmdtNamedDwgMgr
350
ED82
  3
AMG
350
3F
  3
AMGSNAPSETTINGS
350
73
  3
AMI_MASTER
350
ED8A
  3
AUTOCAD_ASSEMBLIES_PROJECT
350
ED9A
  3
Designer_Assemblies_SysVars
350
ED95
  3
DWGPROPS
350
11EAF
  3
FILENAME
350
217A
  3
GREFAM_MODULE
350
ED8B
  3
ZWKSIZE
350
217C
  0
DICTIONARY
  5
EDC8
330
2
100
AcDbDictionary
280
     1
281
     1
  3
ACAD_LAYERSTATES
360
F5B5
  3
AMLAYER_GROUPCOLORS
360
EDC9
  0
DICTIONARY
  5
165
330
1F
100
AcDbDictionary
280
     1
281
     1
  3
ACAD_SORTENTS
360
F11C
  0
DICTIONARY
  5
ED4C
102
{ACAD_REACTORS
330
C
102
}
330
C
100
AcDbDictionary
281
     1
  0
DICTIONARY
  5
D
102
{ACAD_REACTORS
330
C
102
}
330
C
100
AcDbDictionary
281
     1
  0
DICTIONARY
  5
1A
102
{ACAD_REACTORS
330
C
102
}
330
C
100
AcDbDictionary
281
     1
  3
Model
350
22
  3
ﾚｲｱｳﾄ1
350
1E
  3
ﾚｲｱｳﾄ2
350
26
  0
DICTIONARY
  5
ED4B
102
{ACAD_REACTORS
330
C
102
}
330
C
100
AcDbDictionary
281
     1
  0
DICTIONARY
  5
17
102
{ACAD_REACTORS
330
C
102
}
330
C
100
AcDbDictionary
281
     1
  3
Standard
350
18
  0
DICTIONARY
  5
19
102
{ACAD_REACTORS
330
C
102
}
330
C
100
AcDbDictionary
281
     1
  0
ACDBDICTIONARYWDFLT
  5
E
102
{ACAD_REACTORS
330
C
102
}
330
C
100
AcDbDictionary
281
     1
  3
Normal
350
F
100
AcDbDictionaryWithDefault
340
F
  0
DICTIONARY
  5
ED4D
102
{ACAD_REACTORS
330
C
102
}
330
C
100
AcDbDictionary
281
     1
  3
Standard
350
ED4E
  0
ACAD_PROXY_OBJECT
  5
EDB4
102
{ACAD_REACTORS
330
C
102
}
330
C
100
AcDbProxyObject
 90
      499
 91
      571
 95
       25
 70
     0
 93
      184
310
3FFFFFFFE00A028140285221D2E31B0B2483ECB65400AA
  0
DICTIONARY
  5
11EAC
102
{ACAD_REACTORS
330
C
102
}
330
C
100
AcDbDictionary
281
     1
  3
COLORDICT
350
11EAD
  3
MATERIALDICT
350
11EAE
  0
DICTIONARY
  5
30
102
{ACAD_REACTORS
330
C
102
}
330
C
100
AcDbDictionary
281
     1
  3
CTABLESTYLE
350
EE09
  3
HIDETEXT
350
11EAB
  3
INDEXCTL
350
11EAA
  0
ACAD_PROXY_OBJECT
  5
ED67
102
{ACAD_REACTORS
330
C
102
}
330
C
100
AcDbProxyObject
 90
      499
 91
      507
 95
       25
 70
     0
 93
      240
310
4C51A47A0000000000000000000000000000000000000000000000000000
330
ED68
330
ED69
330
ED6A
330
ED6B
330
ED6C
330
ED6D
330
ED6E
330
ED6F
330
ED70
330
ED71
330
ED72
330
ED73
330
ED74
330
ED75
330
ED76
330
ED77
330
ED78
330
ED79
330
ED7A
330
ED7B
330
ED7C
330
ED7D
330
ED7E
330
ED7F
330
ED80
330
ED81
 94
        0
  0
ACAD_PROXY_OBJECT
  5
ED5F
102
{ACAD_REACTORS
330
C
102
}
330
C
100
AcDbProxyObject
 90
      499
 91
      535
 95
       25
 70
     0
 93
       34
310
0400004280
  0
ACAD_PROXY_OBJECT
  5
ED87
102
{ACAD_REACTORS
330
C
102
}
330
C
100
AcDbProxyObject
 90
      499
 91
      541
 95
       25
 70
     0
 93
      114
310
04000041C080000000000000000000
  0
DICTIONARY
  5
4D
102
{ACAD_REACTORS
330
C
102
}
330
C
100
AcDbDictionary
281
     1
  3
AcmBOMDATA
350
4E
  3
AcmStdDictionary
350
17E
  3
AMDTSECTSYM_ARROWCOLOR
350
EDA8
  0
ACAD_PROXY_OBJECT
  5
36
102
{ACAD_REACTORS
330
C
102
}
330
C
100
AcDbProxyObject
 90
      499
 91
      510
 95
       25
 70
     0
 93
       50
310
00010040400000
330
0
330
0
330
37
 94
        0
  0
ACAD_PROXY_OBJECT
  5
2F
102
{ACAD_REACTORS
330
C
102
}
330
C
100
AcDbProxyObject
 90
      499
 91
      505
 95
       25
 70
     0
 93
     4872
310
47805055153415645404052D4D5347202D205050413A2020206465736B746F702E6172782046696C6556657273696F6E3A20392E322E302E34014154155491D1601415454D05591501014B5354D1C80B481414104E88080819195CDADD1BDC0B985C9E08119A5B1955995C9CDA5BDB8E880E4B8C8B8C0B8D00505515341564
310
5404052D4D5347202D205050413A2020206465736B746F702E6172782046696C6556657273696F6E3A20392E322E302E3401415454D05591501014B5354D1C80B481414104E88080819195CDADD1BDC0B985C9E08119A5B1955995C9CDA5BDB8E880E4B8C8B8C0B8D0050E414D4454524553455444424D4F4440805084E202
310
D20554E444F014213880B4815539113C0504554E444F80504554E444F8050A50524F5045525449455380505455241534540405184D5347202D20436F6D6D616E642043414E43454C4C45442E014151549054D16014151549054D16014151549054D160141151492536014151549054D16014311D4925417D4D514915510D22
310
014151549054D16014151549054D16014151549054D16014151549054D16014151549054D1601411693D3D36014154155491D1601415454D05591501014B5354D1C80B481414104E88080819195CDADD1BDC0B985C9E08119A5B1955995C9CDA5BDB8E880E4B8C8B8C0B8D0050E414D4454524553455444424D4F444080508
310
4E202D20554E444F014213880B4815539113C0504554E444F80504554E444F805054552415345805045A4F4F4D805055153415645404052D4D5347202D205050413A2020206465736B746F702E6172782046696C6556657273696F6E3A20392E322E302E34
  0
ACAD_PROXY_OBJECT
  5
2E
102
{ACAD_REACTORS
330
C
102
}
330
C
100
AcDbProxyObject
 90
      499
 91
      504
 95
       25
 70
     0
 93
      594
310
09000046408000000000000000001354E60000000000000000000000000000000000000000000000000000000000000000000000000000000000000000000000000000000000AAA406AA80
360
33
360
34
360
35
360
37
360
6B
360
6C
360
ED60
360
ED61
360
ED62
360
ED63
360
ED64
360
ED65
360
ED68
360
ED69
360
ED6A
360
ED6B
360
ED6C
360
ED6D
360
ED6E
360
ED6F
360
ED70
360
ED71
360
ED72
360
ED73
360
ED74
360
ED75
360
ED76
360
ED77
360
ED78
360
ED79
360
ED7A
360
ED7B
360
ED7C
360
ED7D
360
ED7E
360
ED7F
360
ED80
360
ED81
360
ED8D
360
ED8E
360
ED8F
360
ED90
360
ED96
360
ED97
360
ED98
360
ED99
360
ED9E
360
ED9F
360
EDA0
360
EDA1
360
EDA2
360
EDA3
360
EDCB
 94
        0
  0
ACAD_PROXY_OBJECT
  5
3B
102
{ACAD_REACTORS
330
C
102
}
330
C
100
AcDbProxyObject
 90
      499
 91
      515
 95
       25
 70
     0
 93
       50
310
09000042641280
  0
ACAD_PROXY_OBJECT
  5
32
102
{ACAD_REACTORS
330
C
102
}
330
C
100
AcDbProxyObject
 90
      499
 91
      507
 95
       25
 70
     0
 93
       48
310
903412000000
330
33
330
34
330
35
 94
        0
  0
ACAD_PROXY_OBJECT
  5
6A
102
{ACAD_REACTORS
330
C
102
}
330
C
100
AcDbProxyObject
 90
      499
 91
      507
 95
       25
 70
     0
 93
       48
310
903412000000
330
6B
330
6C
330
EDCB
 94
        0
  0
ACAD_PROXY_OBJECT
  5
ED92
102
{ACAD_REACTORS
330
C
102
}
330
C
100
AcDbProxyObject
 90
      499
 91
      551
 95
       25
 70
     0
 93
       42
310
000900004040
330
ED8D
 94
        0
  0
ACAD_PROXY_OBJECT
  5
ED91
102
{ACAD_REACTORS
330
C
102
}
330
C
100
AcDbProxyObject
 90
      499
 91
      507
 95
       25
 70
     0
 93
        8
310
AA
  0
ACAD_PROXY_OBJECT
  5
ED82
102
{ACAD_REACTORS
330
C
102
}
330
C
100
AcDbProxyObject
 90
      499
 91
      540
 95
       25
 70
     0
 93
       42
310
000100005E80
330
ED60
 94
        0
  0
DICTIONARY
  5
3F
102
{ACAD_REACTORS
330
C
102
}
330
C
100
AcDbDictionary
281
     1
  3
AcMgSettings
350
40
  3
AMGLAYCFG
350
42
  0
DICTIONARY
  5
73
102
{ACAD_REACTORS
330
C
102
}
330
C
100
AcDbDictionary
281
     1
  3
DIMENSION
350
62F
  3
FEA
350
630
  3
HATCH (1)
350
631
  3
HATCH (2)
350
632
  3
SYMBOLS
350
633
  0
ACAD_PROXY_OBJECT
  5
ED8A
102
{ACAD_REACTORS
330
C
102
}
330
C
100
AcDbProxyObject
 90
      499
 91
      544
 95
       25
 70
     0
 93
       34
310
0500004280
  0
ACAD_PROXY_OBJECT
  5
ED9A
102
{ACAD_REACTORS
330
C
102
}
330
C
100
AcDbProxyObject
 90
      499
 91
      554
 95
       25
 70
     0
 93
       98
310
0900004E400000000000000000
330
EDA1
330
0
330
EDA2
330
0
330
0
330
0
330
0
330
0
 94
        0
  0
ACAD_PROXY_OBJECT
  5
ED95
102
{ACAD_REACTORS
330
C
102
}
330
C
100
AcDbProxyObject
 90
      499
 91
      507
 95
       25
 70
     0
 93
       56
310
90441600000000
330
ED96
330
ED97
330
ED98
330
ED99
 94
        0
  0
XRECORD
  5
11EAF
102
{ACAD_REACTORS
330
C
102
}
330
C
100
AcDbXrecord
280
     1
  1
DWGPROPS COOKIE
  2

  3

  4

  6

  7

  8

  9

300
AmdtFileType=84
301
=
302
=
303
=
304
=
305
=
306
=
307
=
308
=
309
=
 40
0.0
 41
2451943.235431667
 42
2455441.113667894
  1

 90
        1
  0
DICTIONARY
  5
217A
102
{ACAD_REACTORS
330
C
102
}
330
C
100
AcDbDictionary
281
     1
  3
FILENAME
350
217B
  0
ACAD_PROXY_OBJECT
  5
ED8B
102
{ACAD_REACTORS
330
C
102
}
330
C
100
AcDbProxyObject
 90
      499
 91
      545
 95
       25
 70
     0
 93
        8
310
05
  0
DICTIONARY
  5
217C
102
{ACAD_REACTORS
330
C
102
}
330
C
100
AcDbDictionary
281
     1
  3
ZWKSIZE
350
217D
  0
DICTIONARY
  5
F5B5
102
{ACAD_REACTORS
330
EDC8
102
}
330
EDC8
100
AcDbDictionary
281
     1
  0
DICTIONARY
  5
EDC9
102
{ACAD_REACTORS
330
EDC8
102
}
330
EDC8
100
AcDbDictionary
280
     1
281
     1
  3
基本画層グループ
360
EDCA
  0
SORTENTSTABLE
  5
F11C
102
{ACAD_REACTORS
330
165
102
}
330
165
100
AcDbSortentsTable
330
1F
331
0
  5
114C1
331
541C
  5
541C
331
541D
  5
541D
331
541E
  5
541E
331
541F
  5
541F
331
D329
  5
D329
331
D81E
  5
D81E
331
EECB
  5
F114
331
EFBF
  5
F288
331
F04E
  5
F289
331
FE88
  5
10074
331
113A2
  5
113A4
331
113A4
  5
113A6
331
113A6
  5
113A8
331
113A7
  5
113A9
331
113A8
  5
113AA
331
113AA
  5
113AC
331
113AC
  5
113AE
331
113AD
  5
113AF
331
113AE
  5
113B0
331
113B3
  5
113B5
331
113B4
  5
113B6
331
113B5
  5
113B7
331
113B7
  5
113B9
331
113B9
  5
113BB
331
113BB
  5
113BD
331
113BD
  5
113BF
331
113BE
  5
113C0
331
113BF
  5
113C1
331
113C1
  5
113C3
331
113C2
  5
113C4
331
113C5
  5
113C7
331
113C7
  5
113C9
331
113C8
  5
113CA
331
113C9
  5
113CB
331
113CA
  5
113CC
331
113CE
  5
113D0
331
113CF
  5
113D1
331
113D0
  5
113D2
331
113D1
  5
113D3
331
113D2
  5
113D4
331
113D3
  5
113D5
331
113D4
  5
113D6
331
113D5
  5
113D7
331
113D6
  5
113D8
331
113D7
  5
113D9
331
113D8
  5
113DA
331
113D9
  5
113DB
331
113DA
  5
113DC
331
113DB
  5
113DD
331
113DC
  5
113DE
331
113DD
  5
113DF
331
113DE
  5
113E0
331
113DF
  5
113E1
331
113E0
  5
113E2
331
113E1
  5
113E3
331
113E2
  5
113E4
331
113E3
  5
113E5
331
113F3
  5
113F5
331
113F4
  5
113F6
331
113F5
  5
113F7
331
113F6
  5
113F8
331
113F7
  5
113F9
331
113F8
  5
113FA
331
113F9
  5
113FB
331
113FA
  5
113FC
331
113FB
  5
113FD
331
113FC
  5
113FE
331
11400
  5
11402
331
11401
  5
11403
331
11402
  5
11404
331
11403
  5
11405
331
11404
  5
11406
331
11405
  5
11407
331
11406
  5
11408
331
11407
  5
11409
331
11408
  5
1140A
331
11409
  5
1140B
331
1140B
  5
1140D
331
1140C
  5
1140E
331
11420
  5
11422
331
11421
  5
11423
331
11422
  5
11424
331
11424
  5
11426
331
11425
  5
11427
331
11426
  5
11428
331
11427
  5
11429
331
11429
  5
1142B
331
1142A
  5
1142C
331
1142B
  5
1142D
331
1142C
  5
1142E
331
1142D
  5
1142F
331
1142E
  5
11430
331
1142F
  5
11431
331
11430
  5
11432
331
11431
  5
11433
331
11433
  5
11435
331
11434
  5
11436
331
11435
  5
11437
331
11436
  5
11438
331
11437
  5
11439
331
11438
  5
1143A
331
11439
  5
1143B
331
1143A
  5
1143C
331
1143B
  5
1143D
331
1143C
  5
1143E
331
1143D
  5
1143F
331
1143F
  5
11441
331
11440
  5
11442
331
11441
  5
11443
331
11442
  5
11444
331
11443
  5
11445
331
11444
  5
11446
331
11445
  5
11447
331
11446
  5
11448
331
1144B
  5
1144D
331
1144D
  5
1144F
331
1144F
  5
11451
331
11450
  5
11452
331
11451
  5
11453
331
11453
  5
11455
331
11454
  5
11456
331
11455
  5
11457
331
11456
  5
11458
331
11457
  5
11459
331
11459
  5
1145B
331
1145A
  5
1145C
331
1145B
  5
1145D
331
1145C
  5
1145E
331
1145D
  5
1145F
331
1145E
  5
11460
331
1145F
  5
11461
331
11460
  5
11462
331
11462
  5
11464
331
11463
  5
11465
331
11464
  5
11466
331
11465
  5
11467
331
1146A
  5
1146C
331
1146B
  5
1146D
331
1146C
  5
1146E
331
1146D
  5
1146F
331
1146E
  5
11470
331
1147A
  5
1147C
331
11480
  5
11482
331
11481
  5
11483
331
11482
  5
11484
331
11483
  5
11485
331
11484
  5
11486
331
11486
  5
11488
331
11487
  5
11489
331
11488
  5
1148A
331
1148C
  5
1148E
331
1148D
  5
1148F
331
1148E
  5
11490
331
1148F
  5
11491
331
11490
  5
11492
331
11491
  5
11493
331
11492
  5
11494
331
11493
  5
11495
331
11495
  5
11497
331
11496
  5
11498
331
11497
  5
11499
331
11498
  5
1149A
331
11499
  5
1149B
331
114A3
  5
114A5
331
114AB
  5
114AD
331
114AF
  5
114B1
331
114B0
  5
114B2
331
114B2
  5
114B4
331
114B3
  5
114B5
331
114B4
  5
114B6
331
114B6
  5
114B8
331
114B7
  5
114B9
331
114B8
  5
114BA
331
114B9
  5
114BB
331
114BA
  5
114BC
331
114BB
  5
114BD
331
114BC
  5
114BE
331
114BD
  5
114BF
331
114BE
  5
114C0
331
114C0
  5
114C2
331
114C2
  5
114C4
331
114C3
  5
114C5
331
114C4
  5
114C6
331
114C5
  5
114C7
331
114C6
  5
114C8
331
114C7
  5
114C9
331
114C8
  5
114CA
331
114C9
  5
114CB
331
114CA
  5
114CC
331
114CB
  5
114CD
331
114CE
  5
114D0
331
114CF
  5
114D1
331
114D0
  5
114D2
331
114D1
  5
114D3
331
114D3
  5
114D5
331
114D5
  5
114D7
331
114D6
  5
114D8
331
114D7
  5
114D9
331
114D8
  5
114DA
331
114D9
  5
114DB
331
114DA
  5
114DC
331
114DB
  5
114DD
331
114DC
  5
114DE
331
114DD
  5
114DF
331
114DE
  5
114E0
331
114DF
  5
114E1
331
114E0
  5
114E2
331
114E1
  5
114E3
331
114E3
  5
114E5
331
114E4
  5
114E6
331
114E6
  5
114E8
331
114E8
  5
114EA
331
114E9
  5
114EB
331
114EA
  5
114EC
331
114EB
  5
114ED
331
114EC
  5
114EE
331
114ED
  5
114EF
331
114EE
  5
114F0
331
114EF
  5
114F1
331
114F0
  5
114F2
331
114F1
  5
114F3
331
114F2
  5
114F4
331
114F3
  5
114F5
331
114F4
  5
114F6
331
114F5
  5
114F7
331
114F6
  5
114F8
331
114F7
  5
114F9
331
114F8
  5
114FA
331
114FA
  5
114FC
331
114FC
  5
114FE
331
114FE
  5
11500
331
11500
  5
11502
331
11512
  5
11514
331
11513
  5
11515
331
11514
  5
11516
331
11515
  5
11517
331
11516
  5
11518
331
11517
  5
11519
331
11518
  5
1151A
331
1151A
  5
1151C
331
1151B
  5
1151D
331
1151C
  5
1151E
331
1151D
  5
1151F
331
1151E
  5
11520
331
1151F
  5
11521
331
11520
  5
11522
331
11521
  5
11523
331
11522
  5
11524
331
11523
  5
11525
331
11524
  5
11526
331
11525
  5
11527
331
11526
  5
11528
331
11539
  5
1153B
331
1153A
  5
1153C
331
1153C
  5
1153E
331
1153D
  5
1153F
331
11CB8
  5
11CB8
  0
LAYOUT
  5
22
102
{ACAD_REACTORS
330
1A
102
}
330
1A
100
AcDbPlotSettings
  1

  2
Canon LBP9100C
  4
A4
  6
AM_VIEW1
 40
5.789083480834961
 41
5.789072036743164
 42
5.789093017578125
 43
5.789093017578125
 44
209.9733276367188
 45
296.9259948730469
 46
0.0
 47
0.0
 48
0.0
 49
0.0
140
420.0
141
297.0
142
1.0
143
1.497012393175651
 70
 11952
 72
     1
 73
     1
 74
     4
  7
sei_cad.ctb
 75
     0
147
0.6679971418798171
148
0.0
149
0.0
100
AcDbLayout
  1
Model
 70
     1
 71
     0
 10
0.0
 20
0.0
 11
12.0
 21
9.0
 12
0.0
 22
0.0
 32
0.0
 14
0.0
 24
0.0
 34
0.0
 15
0.0
 25
0.0
 35
0.0
146
0.0
 13
0.0
 23
0.0
 33
0.0
 16
1.0
 26
0.0
 36
0.0
 17
0.0
 27
1.0
 37
0.0
 76
     0
330
1F
1001
ACAD_PSEXT
1000
Canon LBP9100C
1000
Canon LBP9100C
1000
IP_10.254.89.242
1000

1070
     0
  0
LAYOUT
  5
1E
102
{ACAD_REACTORS
330
1A
102
}
330
1A
100
AcDbPlotSettings
  1

  2
Canon LASER SHOT LBP-2030
  4

  6

 40
0.0
 41
0.0
 42
0.0
 43
0.0
 44
0.0
 45
0.0
 46
0.0
 47
0.0
 48
0.0
 49
0.0
140
0.0
141
0.0
142
1.0
143
1.0
 70
   688
 72
     0
 73
     0
 74
     5
  7
sei_cad.ctb
 75
    16
147
1.0
148
0.0
149
0.0
100
AcDbLayout
  1
ﾚｲｱｳﾄ1
 70
     1
 71
     1
 10
0.0
 20
0.0
 11
420.0
 21
297.0
 12
0.0
 22
0.0
 32
0.0
 14
1.000000000000000E+20
 24
1.000000000000000E+20
 34
1.000000000000000E+20
 15
-1.000000000000000E+20
 25
-1.000000000000000E+20
 35
-1.000000000000000E+20
146
0.0
 13
0.0
 23
0.0
 33
0.0
 16
1.0
 26
0.0
 36
0.0
 17
0.0
 27
1.0
 37
0.0
 76
     0
330
1B
  0
LAYOUT
  5
26
102
{ACAD_REACTORS
330
1A
102
}
330
1A
100
AcDbPlotSettings
  1

  2
Canon LASER SHOT LBP-2030
  4

  6

 40
0.0
 41
0.0
 42
0.0
 43
0.0
 44
0.0
 45
0.0
 46
0.0
 47
0.0
 48
0.0
 49
0.0
140
0.0
141
0.0
142
1.0
143
1.0
 70
   688
 72
     0
 73
     0
 74
     5
  7
sei_cad.ctb
 75
    16
147
1.0
148
0.0
149
0.0
100
AcDbLayout
  1
ﾚｲｱｳﾄ2
 70
     1
 71
     2
 10
0.0
 20
0.0
 11
12.0
 21
9.0
 12
0.0
 22
0.0
 32
0.0
 14
0.0
 24
0.0
 34
0.0
 15
0.0
 25
0.0
 35
0.0
146
0.0
 13
0.0
 23
0.0
 33
0.0
 16
1.0
 26
0.0
 36
0.0
 17
0.0
 27
1.0
 37
0.0
 76
     0
330
23
  0
MLINESTYLE
  5
18
102
{ACAD_REACTORS
330
17
102
}
330
17
100
AcDbMlineStyle
  2
STANDARD
 70
     0
  3

 62
   256
 51
90.0
 52
90.0
 71
     2
 49
0.5
 62
   256
  6
BYLAYER
 49
-0.5
 62
   256
  6
BYLAYER
  0
ACDBPLACEHOLDER
  5
F
102
{ACAD_REACTORS
330
E
102
}
330
E
  0
TABLESTYLE
  5
ED4E
102
{ACAD_REACTORS
330
ED4D
102
}
330
ED4D
100
AcDbTableStyle
  3
Standard
 70
     0
 71
     8
 40
1.5
 41
1.5
280
     0
281
     0
  7
STANDARD
140
4.5
170
     2
 62
     0
 63
     7
283
     0
274
    -2
284
     1
 64
     0
275
    -2
285
     1
 65
     0
276
    -2
286
     1
 66
     0
277
    -2
287
     1
 67
     0
278
    -2
288
     1
 68
     0
279
    -2
289
     1
 69
     0
  7
STANDARD
140
6.0
170
     5
 62
     0
 63
     7
283
     0
274
    -2
284
     1
 64
     0
275
    -2
285
     1
 65
     0
276
    -2
286
     1
 66
     0
277
    -2
287
     1
 67
     0
278
    -2
288
     1
 68
     0
279
    -2
289
     1
 69
     0
  7
STANDARD
140
4.5
170
     5
 62
     0
 63
     7
283
     0
274
    -2
284
     1
 64
     0
275
    -2
285
     1
 65
     0
276
    -2
286
     1
 66
     0
277
    -2
287
     1
 67
     0
278
    -2
288
     1
 68
     0
279
    -2
289
     1
 69
     0
  0
XRECORD
  5
11EAD
102
{ACAD_REACTORS
330
11EAC
102
}
330
11EAC
100
AcDbXrecord
280
     1
340
ED4C
  0
XRECORD
  5
11EAE
102
{ACAD_REACTORS
330
11EAC
102
}
330
11EAC
100
AcDbXrecord
280
     1
340
ED4B
  0
DICTIONARYVAR
  5
EE09
102
{ACAD_REACTORS
330
30
102
}
330
30
100
DictionaryVariables
280
     0
  1
STANDARD
  0
DICTIONARYVAR
  5
11EAB
102
{ACAD_REACTORS
330
30
102
}
330
30
100
DictionaryVariables
280
     0
  1
0
  0
DICTIONARYVAR
  5
11EAA
102
{ACAD_REACTORS
330
30
102
}
330
30
100
DictionaryVariables
280
     0
  1
1
  0
ACAD_PROXY_OBJECT
  5
4E
102
{ACAD_REACTORS
330
4D
102
}
330
4D
100
AcDbProxyObject
 90
      499
 91
      520
 95
       25
 70
     0
 93
      118
310
405010040CA904C415CD5B075DD158
350
4F
 94
        0
  0
DICTIONARY
  5
17E
102
{ACAD_REACTORS
330
4D
102
}
330
4D
100
AcDbDictionary
281
     1
  3
ISO
350
F94D
  3
JIS
350
17F
  0
XRECORD
  5
EDA8
102
{ACAD_REACTORS
330
4D
102
}
330
4D
100
AcDbXrecord
280
     1
 90
-1023410169
  0
ACAD_PROXY_OBJECT
  5
33
330
2E
100
AcDbProxyObject
 90
      499
 91
      508
 95
       25
 70
     0
 93
      156
310
00010143D050D351505391D5531054925390D490
330
2E
 94
        0
  0
ACAD_PROXY_OBJECT
  5
34
330
2E
100
AcDbProxyObject
 90
      499
 91
      508
 95
       25
 70
     0
 93
      148
310
000101439050D351531253915054925390D490
330
2E
 94
        0
  0
ACAD_PROXY_OBJECT
  5
35
330
2E
100
AcDbProxyObject
 90
      499
 91
      509
 95
       25
 70
     0
 93
      156
310
000101439050D35154D6535093D314D256915080
330
2E
 94
        0
  0
ACAD_PROXY_OBJECT
  5
37
330
2E
100
AcDbProxyObject
 90
      499
 91
      511
 95
       25
 70
     0
 93
       88
310
000101411093D34C402B00
330
2E
330
0
330
0
 94
        0
  0
ACAD_PROXY_OBJECT
  5
6B
330
2E
100
AcDbProxyObject
 90
      499
 91
      509
 95
       25
 70
     0
 93
      108
310
00010142505351D153D35054D4E0
330
2E
 94
        0
  0
ACAD_PROXY_OBJECT
  5
6C
330
2E
100
AcDbProxyObject
 90
      499
 91
      522
 95
       25
 70
     0
 93
      140
310
00010142105350D55494D511005034A49530
330
2E
 94
        0
  0
ACAD_PROXY_OBJECT
  5
ED60
330
2E
100
AcDbProxyObject
 90
      499
 91
      536
 95
       25
 70
     0
 93
      486
310
0001014124FEA55D00507392E312E302E34014124FEA55D00507392E322E302E324050100004157D554D1548182D4454FB21E93F2E07A17AD46E278FD8
330
2E
330
ED61
330
ED67
 94
        0
  0
ACAD_PROXY_OBJECT
  5
ED61
330
2E
100
AcDbProxyObject
 90
      499
 91
      537
 95
       25
 70
     0
 93
       56
310
000190240E0000
330
2E
330
ED62
330
ED64
 94
        0
  0
ACAD_PROXY_OBJECT
  5
ED62
330
2E
100
AcDbProxyObject
 90
      499
 91
      538
 95
       25
 70
     0
 93
       48
310
0001AA000000
330
2E
330
1E
330
ED63
330
0
 94
        0
  0
ACAD_PROXY_OBJECT
  5
ED63
330
2E
100
AcDbProxyObject
 90
      499
 91
      539
 95
       25
 70
     0
 93
       28
310
0001AAA0
330
2E
 94
        0
  0
ACAD_PROXY_OBJECT
  5
ED64
330
2E
100
AcDbProxyObject
 90
      499
 91
      538
 95
       25
 70
     0
 93
       48
310
0001AA000000
330
2E
330
26
330
ED65
330
0
 94
        0
  0
ACAD_PROXY_OBJECT
  5
ED65
330
2E
100
AcDbProxyObject
 90
      499
 91
      539
 95
       25
 70
     0
 93
       28
310
0001AAA0
330
2E
 94
        0
  0
ACAD_PROXY_OBJECT
  5
ED68
330
2E
100
AcDbProxyObject
 90
      499
 91
      509
 95
       25
 70
     0
 93
      108
310
000101421053521310D05310D010
330
2E
 94
        0
  0
ACAD_PROXY_OBJECT
  5
ED69
330
2E
100
AcDbProxyObject
 90
      499
 91
      509
 95
       25
 70
     0
 93
      124
310
00010142905354915554D15112535010
330
2E
 94
        0
  0
ACAD_PROXY_OBJECT
  5
ED6A
330
2E
100
AcDbProxyObject
 90
      499
 91
      509
 95
       25
 70
     0
 93
      132
310
00010143105354D150D51253D391125360
330
2E
 94
        0
  0
ACAD_PROXY_OBJECT
  5
ED6B
330
2E
100
AcDbProxyObject
 90
      499
 91
      509
 95
       25
 70
     0
 93
      124
310
00010142905355941093D49111549010
330
2E
 94
        0
  0
ACAD_PROXY_OBJECT
  5
ED6C
330
2E
100
AcDbProxyObject
 90
      499
 91
      509
 95
       25
 70
     0
 93
      116
310
0001014290535115D1D0D3D313D4A0
330
2E
 94
        0
  0
ACAD_PROXY_OBJECT
  5
ED6D
330
2E
100
AcDbProxyObject
 90
      499
 91
      509
 95
       25
 70
     0
 93
      148
310
00010143505355925155D49151949154D21010
330
2E
 94
        0
  0
ACAD_PROXY_OBJECT
  5
ED6E
330
2E
100
AcDbProxyObject
 90
      499
 91
      509
 95
       25
 70
     0
 93
      172
310
00010144105350539393D51154149154D15495915010
330
2E
 94
        0
  0
ACAD_PROXY_OBJECT
  5
ED6F
330
2E
100
AcDbProxyObject
 90
      499
 91
      509
 95
       25
 70
     0
 93
      172
310
00010144105350555513D11253505494905391D15010
330
2E
 94
        0
  0
ACAD_PROXY_OBJECT
  5
ED70
330
2E
100
AcDbProxyObject
 90
      499
 91
      509
 95
       25
 70
     0
 93
      124
310
00010142D05351561514915191125360
330
2E
 94
        0
  0
ACAD_PROXY_OBJECT
  5
ED71
330
2E
100
AcDbProxyObject
 90
      499
 91
      509
 95
       25
 70
     0
 93
      132
310
00010142D05355105410539393D5115010
330
2E
 94
        0
  0
ACAD_PROXY_OBJECT
  5
ED72
330
2E
100
AcDbProxyObject
 90
      499
 91
      509
 95
       25
 70
     0
 93
      108
310
00010142105350555513D0D31010
330
2E
 94
        0
  0
ACAD_PROXY_OBJECT
  5
ED73
330
2E
100
AcDbProxyObject
 90
      499
 91
      509
 95
       25
 70
     0
 93
      108
310
00010142105350D3119150551050
330
2E
 94
        0
  0
ACAD_PROXY_OBJECT
  5
ED74
330
2E
100
AcDbProxyObject
 90
      499
 91
      509
 95
       25
 70
     0
 93
      108
310
00010142105350D315925155D3F0
330
2E
 94
        0
  0
ACAD_PROXY_OBJECT
  5
ED75
330
2E
100
AcDbProxyObject
 90
      499
 91
      509
 95
       25
 70
     0
 93
      148
310
0001014350535212511156915493D112535010
330
2E
 94
        0
  0
ACAD_PROXY_OBJECT
  5
ED76
330
2E
100
AcDbProxyObject
 90
      499
 91
      509
 95
       25
 70
     0
 93
      124
310
00010142905352105510D21254D3D010
330
2E
 94
        0
  0
ACAD_PROXY_OBJECT
  5
ED77
330
2E
100
AcDbProxyObject
 90
      499
 91
      509
 95
       25
 70
     0
 93
      148
310
00010143905354D25391D31152105513105660
330
2E
 94
        0
  0
ACAD_PROXY_OBJECT
  5
ED78
330
2E
100
AcDbProxyObject
 90
      499
 91
      509
 95
       25
 70
     0
 93
      124
310
00010142D0535115D1D193111254D420
330
2E
 94
        0
  0
ACAD_PROXY_OBJECT
  5
ED79
330
2E
100
AcDbProxyObject
 90
      499
 91
      509
 95
       25
 70
     0
 93
      100
310
00010142105350555513D213A0
330
2E
 94
        0
  0
ACAD_PROXY_OBJECT
  5
ED7A
330
2E
100
AcDbProxyObject
 90
      499
 91
      509
 95
       25
 70
     0
 93
      116
310
000101425053521390D3D553951010
330
2E
 94
        0
  0
ACAD_PROXY_OBJECT
  5
ED7B
330
2E
100
AcDbProxyObject
 90
      499
 91
      509
 95
       25
 70
     0
 93
      108
310
0001014210535213941493D29010
330
2E
 94
        0
  0
ACAD_PROXY_OBJECT
  5
ED7C
330
2E
100
AcDbProxyObject
 90
      499
 91
      509
 95
       25
 70
     0
 93
      108
310
0001014210535213951654115070
330
2E
 94
        0
  0
ACAD_PROXY_OBJECT
  5
ED7D
330
2E
100
AcDbProxyObject
 90
      499
 91
      509
 95
       25
 70
     0
 93
      108
310
000101421053521395925155D0F0
330
2E
 94
        0
  0
ACAD_PROXY_OBJECT
  5
ED7E
330
2E
100
AcDbProxyObject
 90
      499
 91
      509
 95
       25
 70
     0
 93
      140
310
00010143505354D150D51253D390D3D41660
330
2E
 94
        0
  0
ACAD_PROXY_OBJECT
  5
ED7F
330
2E
100
AcDbProxyObject
 90
      499
 91
      509
 95
       25
 70
     0
 93
      108
310
00010142105350D3141493D29030
330
2E
 94
        0
  0
ACAD_PROXY_OBJECT
  5
ED80
330
2E
100
AcDbProxyObject
 90
      499
 91
      508
 95
       25
 70
     0
 93
      212
310
00010143905350555513D2105510D21493D500000000000002E400
330
2E
 94
        0
  0
ACAD_PROXY_OBJECT
  5
ED81
330
2E
100
AcDbProxyObject
 90
      499
 91
      509
 95
       25
 70
     0
 93
      156
310
00010143905350555513D2105510D21111551010
330
2E
 94
        0
  0
ACAD_PROXY_OBJECT
  5
ED8D
330
2E
100
AcDbProxyObject
 90
      499
 91
      547
 95
       25
 70
     0
 93
      698
310
0001000000009AA6A9AA4051E546875204170722032312030303A33303A353620323030352028555443290141CE4B8C4B8C0B8D00518576564205365702030312031313A34333A343020323031300141CE4B8C8B8C0B8C80
330
2E
330
ED8E
330
ED8F
330
ED91
330
0
 94
        0
  0
ACAD_PROXY_OBJECT
  5
ED8E
330
2E
100
AcDbProxyObject
 90
      499
 91
      548
 95
       25
 70
     0
 93
       70
310
0001AAA80820000000
330
2E
330
ED8E
330
ED8E
 94
        0
  0
ACAD_PROXY_OBJECT
  5
ED8F
330
2E
100
AcDbProxyObject
 90
      499
 91
      549
 95
       25
 70
     0
 93
       48
310
000100000000
330
2E
330
0
330
ED90
330
0
330
0
 94
        0
  0
ACAD_PROXY_OBJECT
  5
ED90
330
2E
100
AcDbProxyObject
 90
      499
 91
      550
 95
       25
 70
     0
 93
       40
310
000100AAAA
330
2E
330
0
 94
        0
  0
ACAD_PROXY_OBJECT
  5
ED96
330
2E
100
AcDbProxyObject
 90
      499
 91
      522
 95
       25
 70
     0
 93
      180
310
00010143105050D3D35411119390535140504434F4D500
330
2E
 94
        0
  0
ACAD_PROXY_OBJECT
  5
ED97
330
2E
100
AcDbProxyObject
 90
      499
 91
      522
 95
       25
 70
     0
 93
      212
310
0001014390505193D311115491119390535140506466F6C6465720
330
2E
 94
        0
  0
ACAD_PROXY_OBJECT
  5
ED98
330
2E
100
AcDbProxyObject
 90
      499
 91
      522
 95
       25
 70
     0
 93
      180
310
00010143105050539393D1119390535140504284156290
330
2E
 94
        0
  0
ACAD_PROXY_OBJECT
  5
ED99
330
2E
100
AcDbProxyObject
 90
      499
 91
      522
 95
       25
 70
     0
 93
      436
310
00010143905050D3D35415925155D31254D50052295BD96CA0A90B396CA0A894591A496CA0A8DB691A496CA0A89BA96CA0A95E28F95310
330
2E
 94
        0
  0
ACAD_PROXY_OBJECT
  5
ED9E
330
2E
100
AcDbProxyObject
 90
      499
 91
      555
 95
       25
 70
     0
 93
       32
310
00010000
330
2E
340
ED9B
330
EDA0
330
ED9B
 94
        0
  0
ACAD_PROXY_OBJECT
  5
ED9F
330
2E
100
AcDbProxyObject
 90
      499
 91
      556
 95
       25
 70
     0
 93
       18
310
000180
330
2E
 94
        0
  0
ACAD_PROXY_OBJECT
  5
EDA0
330
2E
100
AcDbProxyObject
 90
      499
 91
      557
 95
       25
 70
     0
 93
      186
310
0001014311159453948C8C0C8C12CC4D9050055401550000
330
2E
330
ED9E
330
ED9F
 94
        0
  0
ACAD_PROXY_OBJECT
  5
EDA1
330
2E
100
AcDbProxyObject
 90
      499
 91
      558
 95
       25
 70
     0
 93
      178
310
000100AAAAAABAC03B2E67439410EA36E89D743EA29000
330
2E
330
EDA0
 94
        0
  0
ACAD_PROXY_OBJECT
  5
EDA2
330
2E
100
AcDbProxyObject
 90
      499
 91
      559
 95
       25
 70
     0
 93
      108
310
000190140A000000000000AAAAA0
330
2E
330
EDA3
330
EDA3
330
EDA3
330
EDA3
330
EDA3
330
0
 94
        0
  0
ACAD_PROXY_OBJECT
  5
EDA3
330
2E
100
AcDbProxyObject
 90
      499
 91
      560
 95
       25
 70
     0
 93
       51
310
00010000AAAA80
330
2E
330
EDA2
330
EDA0
 94
        0
  0
ACAD_PROXY_OBJECT
  5
EDCB
330
2E
100
AcDbProxyObject
 90
      499
 91
      509
 95
       25
 70
     0
 93
      140
310
0001014350535311D0D3D313D49353D11160
330
2E
 94
        0
  0
DICTIONARY
  5
40
102
{ACAD_REACTORS
330
3F
102
}
330
3F
100
AcDbDictionary
281
     1
  3
DWGSETTINGS
350
41
  3
FEM
350
69
  3
Shaft
350
56
  3
TRANSSETTINGS
350
4C
  0
ACAD_PROXY_OBJECT
  5
42
102
{ACAD_REACTORS
330
3F
102
}
330
3F
100
AcDbProxyObject
 90
      499
 91
      519
 95
       25
 70
     0
 93
    23232
310
41502491013041105357CC201C00030C011E441013141105357CC603800030C011E441013241105357CCA01400030C011E441013341105357CCE01800030C010D9013441105357CD200C00030C010D9013541105357CD600C00030C010D9013641105357CDA00800030C011E9013741105357CDE01000030C010D901384110
310
5357CE200400030C011E9013941105357CE63F400030C0241102324141505357CC4C201C00030C011E902344141505357CC4C600C00030C010D902495041505357CC4CA01C00030C011E40902304E41505357CC13A01C00030C011E902314E41505357CC53A03800030C011E902324E41505357CC93A01400030C011E90233
310
4E41505357CCD3A01800030C010D902344E41505357CD13A00C00030C010D902354E41505357CD53A00C00030C010D902364E41505357CD93A00800030C011E902374E41505357CDD3A01000030C010D902384E41505357CE13A00400030C011E902394E41505357CE53A3F400030C024110332414E41905357CC4C13A01C0
310
0030C011E90334414E41905357CC4C53A00C00030C010D90349504E41905357CC4C93A01C00030C011E409044B4C494E41505357D0D3200400030C011E42504494E464F42105357D410549151A01000030C010D42D055241484D3541905357D093D4A01C00030C011E425045649455742105357D5925155D4E00400030C011
310
E42D06424548494E4441905357D25395A3F400030C0243505545241494C41505357D514A00C00030C010D4250348494441905357D21251201C00030C011E4250356495341905357D59254E01C00030C011E4250650415244494D42505357D41054911253600C00030C010D4250652454644494D42505357D49151911253601
310
000030C010D425774110531514901348070000C300479034110915312501348000000C0003FFFFFFFD034110921395901398000000C0003FFFFFFFE415092139594D06424548494E448000000C0003FFFFFFFE411093125110234418000000C0003FFFFFFFD03411093D05410234418000000C0003FFFFFFFD03411093D48C
310
9055241484D358010000C30047A411093D48CD055241484D358020000C30047A411093D48D5055241484D358000000C0003FFFFFFFE411093D48DD055241484D3581E0000C30047903411094105410234418000000C0003FFFFFFFD03411094115610234418000000C0003FFFFFFFD034110951112501358000000C0003FFF
310
FFFFD034110D0530C901348000000C0003FFFFFFFE4110D0530CD01348020000C30047A4110D0530D501348070000C30047A4110D0530DD013481E0000C30047A4110D15393901378000000C0003FFFFFFFE4110D15395D01378000000C0003FFFFFFFE4110D312539044B4C494E8000000C0003FFFFFFFE4110D3D38C5013
310
08000000C0003FFFFFFFD034110D3D38C901318000000C0003FFFFFFFD034110D3D38CD01328000000C0003FFFFFFFD034110D3D38D101328000000C0003FFFFFFFD034111115494101348000000C0003FFFFFFFD034111115510501348000000C0003FFFFFFFE4111125051D01358000000C0003FFFFFFFE4111125312501
310
358000000C0003FFFFFFFE411112535410650415244494D8000000C0003FFFFFFFE411112535490652454644494D8000000C0003FFFFFFFE411156135410234418000000C0003FFFFFFFD034111915353901388000000C0003FFFFFFFE415191535413901388030000C3004364151915354D410234418000000C0003FFFFFF
310
FE4151915354D510234418030000C300436415191535593901328000000C0003FFFFFFFE415191535595101328030000C3004364111931055101308000000C0003FFFFFFFD03411194905490234418000000C0003FFFFFFFD034111D49312501358000000C0003FFFFFFFD034111D5931250234418000000C0003FFFFFFFD0
310
34112105510D01388000000C0003FFFFFFFD014112125113901338000000C0003FFFFFFFD034112125115D01338000000C0003FFFFFFFD034112131253901348000000C0003FFFFFFFD01411213D0D3901378000000C0003FFFFFFFE411213D0D5D01378000000C0003FFFFFFFE4112539193D04494E464F8000000C0003FF
310
FFFFFE4113105112501348000000C0003FFFFFFFD034113115051101358000000C0003FFFFFFFE419397D0921395902394E8000000C0003FFFFFFFE419397D0D3D38C502304E8000000C0003FFFFFFFD03419397D0D3D38C902314E8000000C0003FFFFFFFD03419397D0D3D38CD02324E8000000C0003FFFFFFFD03419397
310
D0D3D38D102324E8000000C0003FFFFFFFD03419397D0D15393902374E8000000C0003FFFFFFFE419397D0D15395D02374E8000000C0003FFFFFFFE419397D1125312502354E8000000C0003FFFFFFFE419397D2105510D02384E8000000C0003FFFFFFFD01419397D2125113902334E8000000C0003FFFFFFFD03419397D2
310
125115D02334E8000000C0003FFFFFFFD03419397D3115051102354E8000000C0003FFFFFFFE419397D391D25410349504E8000000C0003FFFFFFFE419397D412105390334414E8000000C0003FFFFFFFE419397D510D3D3902304E8000000C0003FFFFFFFD03419397D5121312502344E8000000C0003FFFFFFFD01419397
310
D5131153902304E8000000C0003FFFFFFFD03419397D516150CD02364E8000000C0003FFFFFFFD03419397D594131250332414E8000000C0003FFFFFFFE411391D25410249508000000C0003FFFFFFFE411410530C9055241484D358010000C30047A411410530CD055241484D358020000C30047A411410530D5055241484
310
D358000000C0003FFFFFFFE411410530DD055241484D3581E0000C30047903411412105390234418000000C0003FFFFFFFE411413D4D3901368070000C30047A419413D4D49151901368050000C30047903411413D4D6101368000000C0003FFFFFFFD03411414D150D0234418000000C0003FFFFFFFD03411490D1D390137
310
8000000C0003FFFFFFFE411490D1D5D01378000000C0003FFFFFFFE4114919112501348000000C0003FFFFFFFD034114945514901348070000C30047903411494D093D01348000000C0003FFFFFFFD034114D09492D01348000000C0003FFFFFFFD014114D0D153901378000000C0003FFFFFFFD034114D150D51013480000
310
00C0003FFFFFFFD014114D15313901378000000C0003FFFFFFFD034114D15315D01378000000C0003FFFFFFFD034114D4D654D01308000000C0003FFFFFFFD034114D51312501348070000C300479034114D6508C501358000000C0003FFFFFFFD034114D6508C901358000000C0003FFFFFFFD034114D6508CD0135802000
310
0C30047A4114D6508D501358070000C300479034114D65353901378000000C0003FFFFFFFD034114D65355D01378000000C0003FFFFFFFD03411510D3D3901308000000C0003FFFFFFFD034115121312501348000000C0003FFFFFFFD01411512550C9055241484D358010000C30047A411512550CD055241484D358020000
310
C30047A411512550D5055241484D358000000C0003FFFFFFFE411512550DD055241484D3581E0000C300479034115131153901308000000C0003FFFFFFFD03415514905253105545241494C8000000C0003FFFFFFFE41151492D3901378000000C0003FFFFFFFD0341151492D5D01378000000C0003FFFFFFFD03411514931
310
2501348000000C0003FFFFFFFD01411516150C501368030000C300436411516150C901368030000C300436411516150CD01368000000C0003FFFFFFFE411516150D501368070000C30047A411516150DD013681E0000C30047A4115925155D04564945578000000C0003FFFFFFFE41159151121034849448000000C0003FFF
310
FFFFD0241159151159035649538000000C0003FFFFFFFD02411594131250232418000000C0003FFFFFFFE4116925690501348000000C0003FFFFFFFD01411354D653501358020000C30047AAAA3F400030C01013F90A4051E4091E40D0D4110D4151E4190D41D1E4391E4791E7F6
340
16
340
16
340
16
340
43
340
16
340
16
340
16
340
44
340
16
340
16
340
44
340
45
340
16
340
16
340
16
340
16
340
43
340
16
340
16
340
16
340
44
340
16
340
16
340
44
340
45
340
16
340
46
340
16
340
16
340
16
340
16
340
16
340
43
340
16
340
16
340
16
340
47
340
15
340
15
340
15
340
15
340
15
340
15
340
15
340
15
340
15
340
15
340
15
340
15
340
15
340
15
340
15
340
15
340
48
340
15
340
15
340
15
340
15
340
15
340
15
340
15
340
15
340
15
340
15
340
15
340
15
340
15
340
15
340
15
340
16
340
15
340
15
340
15
340
15
340
15
340
15
340
15
340
15
340
47
340
15
340
15
340
48
340
15
340
15
340
15
340
15
340
15
340
15
340
15
340
15
340
15
340
48
340
15
340
15
340
15
340
47
340
15
340
15
340
15
340
15
340
15
340
15
340
15
340
15
340
15
340
15
340
15
340
15
340
15
340
15
340
15
340
15
340
15
340
15
340
15
340
48
340
15
340
15
340
48
340
15
340
15
340
16
340
15
340
48
340
15
340
15
340
47
340
15
340
15
340
16
340
15
340
48
340
15
340
15
340
15
340
15
340
15
340
15
340
15
340
15
340
15
340
48
340
15
340
15
340
15
340
15
340
15
340
15
340
15
340
15
340
15
340
15
340
15
340
4B
340
16
 94
        0
  0
ACAD_PROXY_OBJECT
  5
62F
102
{ACAD_REACTORS
330
73
102
}
330
73
100
AcDbProxyObject
 90
      499
 91
      523
 95
       25
 70
     0
 93
      253
310
43D1444494D454E53494F4E2C414D44545F2A5F44494D404A9012A404A9012A0
  0
ACAD_PROXY_OBJECT
  5
630
102
{ACAD_REACTORS
330
73
102
}
330
73
100
AcDbProxyObject
 90
      499
 91
      523
 95
       25
 70
     0
 93
      181
310
43D012A42D05357D191504B505357CA9012A404A9012A8
  0
ACAD_PROXY_OBJECT
  5
631
102
{ACAD_REACTORS
330
73
102
}
330
73
100
AcDbProxyObject
 90
      499
 91
      523
 95
       25
 70
     0
 93
      133
310
43D054841544348404A9012A404A9012A8
  0
ACAD_PROXY_OBJECT
  5
632
102
{ACAD_REACTORS
330
73
102
}
330
73
100
AcDbProxyObject
 90
      499
 91
      523
 95
       25
 70
     0
 93
      549
310
43D044C494E4549CE0B0E138B0A8B4E0B0A8B4E138B105357CE0B105357CE138B0A8B505357CE0B0A8B505357CE139012A404A910494E534552542C5354445041525432448
  0
ACAD_PROXY_OBJECT
  5
633
102
{ACAD_REACTORS
330
73
102
}
330
73
100
AcDbProxyObject
 90
      499
 91
      523
 95
       25
 70
     0
 93
      909
310
43D6641434D46434652414D452C41434D444154554D5441524745542C41434D444154554D49442C41434D57454C4453594D2C41434D5355524653594D2C41434D4645415449442C41434D504152545245462C41434D42414C4C4F4F4E2C414D44544544474553594D404A9012A404A9012A8
  0
XRECORD
  5
217B
102
{ACAD_REACTORS
330
217A
102
}
330
217A
100
AcDbXrecord
280
     1
  1
21000753__00___
  0

  0
XRECORD
  5
217D
102
{ACAD_REACTORS
330
217C
102
}
330
217C
100
AcDbXrecord
280
     1
  1
3
  0

  0
XRECORD
  5
EDCA
102
{ACAD_REACTORS
330
EDC9
102
}
330
EDC9
100
AcDbXrecord
280
     1
 90
-1073741824
  0
ACAD_PROXY_OBJECT
  5
4F
102
{ACAD_REACTORS
330
4E
102
}
330
4E
100
AcDbProxyObject
 90
      499
 91
      521
 95
       25
 70
     0
 93
      157
310
057356C1D77406406AA8FFFFFFFF05DD01009010
330
1F
330
0
330
EDA0
 94
        0
  0
ACAD_PROXY_OBJECT
  5
F94D
102
{ACAD_REACTORS
330
17E
102
}
330
17E
100
AcDbProxyObject
 90
      499
 91
      577
 95
       25
 70
     0
 93
     2497
310
5DC0000000000000C408030000C30040D254D3D01640600800030C0200800030C000000000000000C40C88A2085A0B6B23A22B233B2A9BA3220480A1C82C6DAA6EAE4CCA8CAF0E8A6E8C88120284A0B1B6A321A329BA3220480A1A82C6DAAECAD8C8D2DCCEA6E8C8812028420B1B6A4B229BA3220480A1682C6DA88C2E8EAD
310
AA6E8C88120284A0B1B6A127A6A9BA3220480A2082DAC8E888CAE8C2D2D8A6F2DAA6E8C88120288A0B6B23A29B2B1BA34B7B729BCB6A9BA3220480A2282DAC8E886CADCE8CAE498D2DCCAA6E8C88120288A0B6B23A2A343932B0B22634B732A9BA3220480A1682DAC8E89CDEE8CAA6E8C88120285A0B1A0B6B3A630BCA9BA3
310
220480A1682C682DACE88D2DAA6E8C88120288A0B1A0B6B3A437B632A1B430B93A29BA3220480A1A82C682DACEA8D2E8D8CAA6E8C8812032048080
340
F5A9
360
F94E
360
F94F
360
F950
360
F951
360
F952
360
F953
360
F954
360
F955
360
F956
360
F957
360
F958
360
F959
360
F95F
360
F960
360
F961
360
F962
340
0
340
0
 94
        0
  0
ACAD_PROXY_OBJECT
  5
17F
102
{ACAD_REACTORS
330
17E
102
}
330
17E
100
AcDbProxyObject
 90
      499
 91
      526
 95
       25
 70
     0
 93
     2379
310
5DC33333333333309408000000C00040D29254D01640600800030C0200800030C003333333333330940C8121E8720B1B6A9BAB9332A32BC3A29BA3220480A1282C6DA8C868CA6E8C88120286A0B1B6ABB2B63234B733A9BA3220480A1082C6DA92C8A6E8C88120285A0B1B6A230BA3AB6A9BA3220480A1282C6DA849E9AA6E
310
8C88120286A0B1A0B6B3AA34BA3632A9BA3220480A2082DAC8E888CAE8C2D2D8A6F2DAA6E8C88120288A0B6B23A29B2B1BA34B7B729BCB6A9BA3220480A2282DAC8E886CADCE8CAE498D2DCCAA6E8C88120288A0B6B23A2A343932B0B22634B732A9BA3220480A1682DAC8E89CDEE8CAA6E8C88120285A0B1A0B6B3A630BCA
310
9BA3220480A1682C682DACE88D2DAA6E8C88120288A0B1A0B6B3A437B632A1B430B93A29BA3220480C812020
340
180
360
181
360
182
360
183
360
184
360
185
360
186
360
EDA5
360
EDA6
360
EDA7
360
EDA9
360
EDAA
360
EDAB
360
EDB1
360
EDB2
360
EDB3
340
0
340
0
 94
        0
  0
ACAD_PROXY_OBJECT
  5
41
102
{ACAD_REACTORS
330
40
102
}
330
40
100
AcDbProxyObject
 90
      499
 91
      518
 95
       25
 70
     0
 93
     2962
310
4050B44574753455454494E4753A0E8482A68AA6A88882A069492A684A1A0A723A0A92920ACA0A809820C868A9C829C8E82A12686AF87260F862666A8321A2A72224A0A50602A2140ECC009A020E868A9C889282A682A106260F86460F8666083A1A2A72224A9AA250000000000000042020C868A9C988A9C9400000000000
310
0048808321A2A727A323250000000000000122020E868A9C9E8C8C62940000000000000488083A1A2A727A32319250000000000000122021CC6D0C2DACCCAE4C8D2DADADEC8CA9FC84A1A624A720A92920ACA0A82991A9718182108698929C8AA8B2A082A0AB098929C8A84A22BA3AAA9A1A0A622A50A0E9882A6A89E84948
310
2A02608426A0A5A2AB24A2ABA7E8120CA0A68682988A0C00800010652455649534941501304154D0D0531150540CC4E8C5085354414E44415244415034A4953425512535154D5105354128281435145C8ADCD050756455253494F4E4150531352E3030441ED115D1D4D15515125391D4D153911F40
  0
ACAD_PROXY_OBJECT
  5
69
102
{ACAD_REACTORS
330
40
102
}
330
40
100
AcDbProxyObject
 90
      499
 91
      518
 95
       25
 70
     0
 93
      411
310
4050346454D21092DCC6E486DECACC942842630BCA3B937BAB820A8320A6AFA322A0A20F688AE8EA68AA8A8929C8EA68A9C88FA0
  0
ACAD_PROXY_OBJECT
  5
56
102
{ACAD_REACTORS
330
40
102
}
330
40
100
AcDbProxyObject
 90
      499
 91
      518
 95
       25
 70
     0
 93
      583
310
40505536861667421292DCE8CAE4E4EAE0E89FA0484A634B3B43A2634B732A7F21A98D2CED0E898D2DCCAACD2CAEE9FC8229B4B232A7E80A20F688AE8EA68AA8A8929C8EA68A9C88FA
  0
ACAD_PROXY_OBJECT
  5
4C
102
{ACAD_REACTORS
330
40
102
}
330
40
100
AcDbProxyObject
 90
      499
 91
      518
 95
       25
 70
     0
 93
      852
310
4050D5452414E5353455454494E4753A2488A482AE929C8EA8A4829CA69882A8929E9C0C00800050D4F524947494E414C4C595F4F4E0600400028529A7AAA921A2A620A723A0A81A52827212AAA0A48AA68AA4AC8A0C0080001107B44574753455454494E4753454E447D0
  0
ACAD_PROXY_OBJECT
  5
F94E
330
F94D
100
AcDbProxyObject
 90
      499
 91
      578
 95
       25
 70
     0
 93
       13
310
5DD8
  0
ACAD_PROXY_OBJECT
  5
F94F
330
F94D
100
AcDbProxyObject
 90
      499
 91
      579
 95
       25
 70
     0
 93
       96
310
5DEA0E80A0280A0280A0280F
  0
ACAD_PROXY_OBJECT
  5
F950
330
F94D
100
AcDbProxyObject
 90
      499
 91
      580
 95
       25
 70
     0
 93
      272
310
5DD0E4050140501405014050140501405014050140D01405012C0000000000000040
340
F5AA
 94
        0
  0
ACAD_PROXY_OBJECT
  5
F951
330
F94D
100
AcDbProxyObject
 90
      499
 91
      581
 95
       25
 70
     0
 93
      497
310
5DE8666666666667A67E199999999999E99FD22405014050140501405014050140501405014050140501405014050140501405014050140501405014050100
340
F5A5
 94
        0
  0
ACAD_PROXY_OBJECT
  5
F952
330
F94D
100
AcDbProxyObject
 90
      499
 91
      582
 95
       25
 70
     0
 93
       10
310
5DC0
  0
ACAD_PROXY_OBJECT
  5
F953
330
F94D
100
AcDbProxyObject
 90
      499
 91
      583
 95
       25
 70
     0
 93
      257
310
5DE290EA22A7D90F49F80000000000001081400000000000004204010000618000
340
F5A6
340
F5A7
 94
        0
  0
ACAD_PROXY_OBJECT
  5
F954
330
F94D
100
AcDbProxyObject
 90
      499
 91
      584
 95
       25
 70
     0
 93
    13013
310
5DD0E411255115350141236025B690140501406901000000000000091013347454E545241434F2C4A504E2C302C8D8096DA2C47454E54524154582C25732C2847454E4D53472067656E647767203232322940690120281A8AA2CA0282484A4BE52028120280A0320200000000000012202668E8A9CA8A482869E5894A09C58
310
605921292F94588E8A9CA8A482A8B0584AE658508E8A9C9AA68E40CECADCC8EECE406464665280D202405044E414D454050496BC914F4051C40640A80000000000004E404CD1D15395149050D3CB1294138B0C0B25AF2453CB11D15395149055160B095CCB0A11D1539354D1C819D95B991DD9C80C8C8D8A50192C3D494628
310
4953424C414E4B28504152543A4E414D45292C424C4F434B3A4E414D452C504152543A4E414D452940480A0A888AA686A480A09251B1DBE80A3A80C81D0000000000100A28099A3A2A72A2920A1A7962528271618164946C76F9623A2A72A2920AA2C1612B9961423A2A726A9A39033B2B7323BB39019189B94A0348090142
310
14D51053911054911014122D2E29A50147501904A000000000000125013347454E545241434F2C4A504E2C302C8B4B8A692C47454E54524154582C25732C2847454E4D53472067656E64776720323138294069012028426A0AA22A924A0A62028246EF4BDFA028EA0320B40000000000001CA02668E8A9CA8A482869E5894A
310
09C5860591BBD2F7E588E8A9CA8A482A8B0584AE658508E8A9C9AA68E40CECADCC8EECE406464625280D202405044E4F544540504928D8B4C4051D40641A80000000000003E404CD1D15395149050D3CB1294138B0C0B24A362D30B11D15395149055160B095CCB0A11D1539354D1C819D95B991DD9C80C8C8D4A501240480
310
A0CAC8A9C889EA480A1106F1072706BF02B680A3A80C83D00000000000007C809BA3A2A72A2920A1A79625282716181641BC41C9C1AFC0AD9623A2A72A2920AA2C1612B9961423A2A726A9A39033B2B7323BB39019191A14A0248090141911154D0D48C90141A43825AF880C90147501908A000000000020145013447454E5
310
45241434F2C4A504E2C302C90E096BE20322C47454E54524154582C25732C2847454E4D53472067656E6477672033362940490120284A9AA20A72220A922192028345A5C53490192028EA03213400000000000024A026A8E8A9CA8A482869E5894A09C586059169714D24064588E8A9CA8A482A8B0584AE658508E8A9C9AA6
310
8E40CECADCC8EECE4064646052809202405094D4154455249414C32405068DDE97BF20324051D40642A8713D0AD7A37045404D11D15395149050D3CB1294138B0C0B2377A5EFC80C8B11D15395149055160B095CCB0A11D1539354D1C819D95B991DD9C80D0C0A501240480A089A82A6A680A091D7F2F9480A3A80A0485A06
310
8100000000000007C809923A2A72A2920A1A796252827161816475FCBE51623A2A72A2920AA2C1612B9961423A2A726A9A39033B2B7323BB3901A1914A024809014154149250D150141226FE29A501475014090C409020000000000000F9013247454E545241434F2C4A504E2C302C89BF8A692C47454E54524154582C2573
310
2C2847454E4D53472067656E6477672034332940490120281A224A6A02824850CB202028EA028121A81A040000000000001F202648E8A9CA8A482869E5894A09C58605921432C80588E8A9CA8A482A8B0584AE658508E8A9C9AA68E40CECADCC8EECE406868528092024050E445020000000000000510201C00030C0001018
310
0000000000003E400000000000000F901073D3C4954454D3E4050180000000000003E400000000000000F901073D3C4954454D3E40501800000000000034400000000000000D101073D3C4954454D3E40501800000000000034400000000000000D101073D3C4954454D3E405029010000000000000F9000000000000003E4
310
041CF4F125511534F901418F4F1455164F9014060000000000000F9000000000000003E4041CF4F125511534F9014060000000000000D100000000000000344041CF4F125511534F901901000000000000000F9000000000000003E40A2200000000000008204018000618048220681A048120280C88214844882034852034
310
8452028521485214814000000000000F0BF0000000000003C2FD018020000C3008070000C3003373333333333B0FCCDCCCCCCCCCCEC3F000000000000031012034164050341105901A000000000000062040100006180401000061804008000618008098A02808
340
0
340
0
 94
        0
  0
ACAD_PROXY_OBJECT
  5
F955
330
F94D
100
AcDbProxyObject
 90
      499
 91
      585
 95
       25
 70
     0
 93
      898
310
5DC4000000000000144048CF4F11115510525317D3105091530F880A0F11115510525317D05094D4D0D053114F8A51141C9A9999999999B93F26A666666666724FC000000000000E03F400000000000000400000000000000510000000000000024408070000C300000000000000051000
340
16
340
F5A9
 94
        0
  0
ACAD_PROXY_OBJECT
  5
F956
330
F94D
100
AcDbProxyObject
 90
      499
 91
      586
 95
       25
 70
     0
 93
      823
310
5DC0B00000000000002880959E9E29A2A1AA24A7A72FA620A122A62FA324A929AA1F169E29A2A1AA24A7A72FA620A122A62FA620A9AA1F000000000000048803FFFE01C00030C0088C0380006180000000000000048800000000000000A2000000000000002880
340
652
340
F5A9
 94
        0
  0
ACAD_PROXY_OBJECT
  5
F957
330
F94D
100
AcDbProxyObject
 90
      499
 91
      587
 95
       25
 70
     0
 93
      152
310
5DE80000000000000840A3D0A5723F0BD1F200
  0
ACAD_PROXY_OBJECT
  5
F958
330
F94D
100
AcDbProxyObject
 90
      499
 91
      588
 95
       25
 70
     0
 93
       14
310
5DE0
340
0
 94
        0
  0
ACAD_PROXY_OBJECT
  5
F959
330
F94D
100
AcDbProxyObject
 90
      499
 91
      589
 95
       25
 70
     0
 93
     8619
310
5DD084050BA4050AA405024050E836583938376838C815B836720314043A013D2525633C486F6C653A63746469613E2078203C486F6C653A637464657074683E20555C503C696628657175616C28486F6C653A7461707065642C223022292C22252563222C486F6C653A6E6F6D696E616C202220782022293E3C6966286571
310
75616C28486F6C653A7461707065642C223022292C486F6C653A6469612C486F6C653A706974636864657363293E3C696628657175616C28486F6C653A7461707065642C223122292C22207820222C2222293E3C696628657175616C28486F6C653A7461707065642C223122292C486F6C653A74617064657074682C222229
310
3E203C696628657175616C28486F6C653A7465726D696E6174696F6E2C223022292C22202F20222C2222293E3C696628657175616C28486F6C653A7465726D696E6174696F6E2C223022292C486F6C653A64657074682C2222293E406901405034050E836583938376838C815B836720314043B013D2525633C486F6C653A6
310
3746469613E2078203C486F6C653A6374616E676C653E2525645C503C696628657175616C28486F6C653A7461707065642C223022292C22252563222C486F6C653A6E6F6D696E616C202220782022293E3C696628657175616C28486F6C653A7461707065642C223022292C486F6C653A6469612C486F6C653A70697463686
310
4657363293E3C696628657175616C28486F6C653A7461707065642C223122292C22207820222C2222293E3C696628657175616C28486F6C653A7461707065642C223122292C486F6C653A74617064657074682C2222293E203C696628657175616C28486F6C653A7465726D696E6174696F6E2C223022292C22202F20222C2
310
222293E3C696628657175616C28486F6C653A7465726D696E6174696F6E2C223022292C486F6C653A64657074682C2222293E406901405014050E836583938376838C815B8367203140416013D3C696628657175616C28486F6C653A7461707065642C223022292C22252563222C486F6C653A6E6F6D696E616C2022207820
310
22293E3C696628657175616C28486F6C653A7461707065642C223022292C486F6C653A6469612C486F6C653A706974636864657363293E3C696628657175616C28486F6C653A7461707065642C223122292C22207820222C2222293E3C696628657175616C28486F6C653A7461707065642C223122292C486F6C653A746170
310
64657074682C2222293E203C696628657175616C28486F6C653A7465726D696E6174696F6E2C223022292C22202F20222C2222293E3C696628657175616C28486F6C653A7465726D696E6174696F6E2C223022292C486F6C653A64657074682C2222293E4069014051E4090E836583938376838C815B83672032405173D3C5
310
35444503A444553433E203C535444503A5354443E40690E836583938376838C815B836720314050C3D3C535444503A444553433E40690240515AAABBA120
360
F95A
330
F95A
360
F95B
330
F95B
360
F95C
330
F95C
360
F95D
360
F95E
330
F95D
330
F95E
 94
        0
  0
ACAD_PROXY_OBJECT
  5
F95F
330
F94D
100
AcDbProxyObject
 90
      499
 91
      568
 95
       25
 70
     0
 93
       26
310
5DD02A80
340
0
 94
        0
  0
ACAD_PROXY_OBJECT
  5
F960
330
F94D
100
AcDbProxyObject
 90
      499
 91
      569
 95
       25
 70
     0
 93
      250
310
5DD020000000000000A1000000000000002440408F0F9023C3E409A0DCFFFF80
340
F5AE
340
0
340
0
340
F5AF
340
F5B0
340
F5B1
340
F5B2
340
F5B3
340
F5B4
340
0
 94
        0
  0
ACAD_PROXY_OBJECT
  5
F961
330
F94D
100
AcDbProxyObject
 90
      499
 91
      590
 95
       25
 70
     0
 93
    13889
310
5DD1D003FFFFFFFD030300030000000000000310200800030C01030300030000000000000310200800030C00050C8DC0955782CC838A83588367014ED1D15395149050D3CB1294138B0C0B23702555E0B320E2A0D620D9CB11D15395149055160B095CCB0A11D1539354D1C819D95B991A5B5E880CCC0A78000C0000000000
310
00000000000000000000010000000000000310200800030C010000000000000310200800030C020143CF4F111959985D5B1D151A5D1B194F8050A8C8A8365815B8375838B014E51D15395149050D3CB1294138B0C0B2322A0D96056E0DD60E2CB11D15395149055160B095CCB0A11D1539354D1C819D95B991A5B5E880CCC4
310
A78000C000000000000000000000000000000010000000000000310200800030C010000000000000310200800030C020143CF4F111959985D5B1D151A5D1B194F90D44111409034110541D0C4350F4050E44D03449074510F000141232D24D7C053247454E545241434F2C4A504E2C302C8CB4935F2C47454E54524154582C
310
25732C2847454E4D53472067656E64696D7A20312900010104002214000281464500A608E8A9CA8A482869E5894A09C5860591914588E8A9CA8A482A8B0584AE658508E8A9C9AA68E40CECADCC8D2DAF4406452029E9E9E27B934B3B4B71F1E24A31427A91424A9A12620A7259427B934B3B4B7149624A9A12620A7259424B
310
A32B6949496111116111711149F1E24BA32B69F00808200111A000140560052F47454E545241434F2C4A504E2C302C582C47454E54524154582C25732C2847454E4D53472067656E64696D7A20332900010100002054000280AC80A5E8E8A9CA8A482869E5894A09C586058B2588E8A9CA8A482A8B0584AE658508E8A9C9AA
310
68E40CECADCC8D2DAF4406852000202000040E800050152014BD1D15395149050D3CB1294138B0C0B148B11D15395149055160B095CCB0A11D1539354D1C819D95B991A5B5E880D8A400040400008250000A0507A6029823A2A72A2920A1A79625282716181641E99623A2A72A2920AA2C1612B9961423A2A726A9A39033B2
310
B73234B6BD101B948000808180105A000140A0F4C053047454E545241434F2C4A504E2C302C83D32C47454E54524154582C25732C2847454E4D53472067656E64696D7A203829000101010020F400028248704B5F00A668E8A9CA8A482869E5894A09C58605921C12D7C588E8A9CA8A482A8B0584AE658508E8A9C9AA68E40
310
CECADCC8D2DAF440646052000200080043280005048B4B8A69014CD1D15395149050D3CB1294138B0C0B22D2E29A4B11D15395149055160B095CCB0A11D1539354D1C819D95B991A5B5E880C8C4A4000400100086D0000A09196926BE029923A2A72A2920A1A796252827161816465A49AF9623A2A72A2920AA2C1612B9961
310
423A2A726A9A39033B2B73234B6BD10189480A02620202080043E80005048D8096DA014CD1D15395149050D3CB1294138B0C0B236025B68B11D15395149055160B095CCB0A11D1539354D1C819D95B991A5B5E880C4D0A4000404140280D0000A190687072706CD06C5069D06B0029DA3A2A72A2920A1A7962528271618164
310
1A1C1C9C1B341B141A741AC1623A2A72A2920AA2C1612B9961423A2A726A9A39033B2B73234B6BD10189A94800080828050EA000143A322A0D0E0E4E0D9A0D8A0D3A0D60053D47454E545241434F2C4A504E2C302C8C8A8343839383668362834E83582C47454E54524154582C25732C2847454E4D53472067656E64696D7A
310
2031372900010105002274000281464500A628E8A9CA8A482869E5894A09C5860591914588E8A9CA8A482A8B0584AE658508E8A9C9AA68E40CECADCC8D2DAF440626C52000202080044A8000504909497CA014CD1D15395149050D3CB1294138B0C0B242525F28B11D15395149055160B095CCB0A11D1539354D1C819D95B9
310
91A5B5E880C4E4A400040418008A521E000000000000001CA040C00000000000034408080000000000006881010000000000000D102040000000000001A204080000000000003440818000000000000728103000000000000125020600000000004028A040000000000000034408000000000000004881000000000000000D
310
102000000000000001A204000000000000003440818000000000000508143C0000000000000039408180000000000006881030000000000000D102060000000000001A2040C00000000000034408180000000000006881030000000000000E5020600000000000024A040C0000000000805140800000000000000688100000
310
00000000009102000000000000001A2040000000000000034408180000000000006881030000000000000A10284220000000878000002020000008380000020400000081800000208000000828000002028900000000
340
0
340
0
340
0
340
0
340
F5A9
340
F5A9
 94
        0
  0
ACAD_PROXY_OBJECT
  5
F962
330
F94D
100
AcDbProxyObject
 90
      499
 91
      561
 95
       25
 70
     0
 93
     7018
310
5DD9740D254D3D0649534F5F4133429254D3D7D5125513115051349534F5F42525F5265766973696F6E6C69737446111413478342028323937783834316D6D2920421254D3D7D04D1E0D11141327835202835393478323130326D6D29421254D3D7D04C9E0D51141347839202832393778313839326D6D29421254D3D7D04D
310
1E0E51141337837202834323078323038306D6D29421254D3D7D04CDE0DD1141347838202832393778313638326D6D29421254D3D7D04D1E0E11141327834202835393478313638326D6D29421254D3D7D04C9E0D10E41312028353934783834316D6D29419254D3D7D04C51141347837202832393778313437316D6D29421
310
254D3D7D04D1E0DD1141347836202832393778313236316D6D29421254D3D7D04D1E0D91141347835202832393778313035316D6D29421254D3D7D04D1E0D5104130202838343078313138396D6D2920419254D3D7D04C10E41332028323937783432306D6D29419254D3D7D04CD1141327833202835393478313236316D6D
310
29421254D3D7D04C9E0CD10413478332028323937783633306D6D29421254D3D7D04D1E0CD1141337834202834323078313138396D6D29421254D3D7D04CDE0D11141337836202834323078313738336D6D29421254D3D7D04CDE0D91141337835202834323078313438366D6D29421254D3D7D04CDE0D50E4132202834323
310
0783539346D6D29419254D3D7D04C910413378332028343230783839316D6D29421254D3D7D04CDE0CD0E41342028323937783231306D6D29419254D3D7D04D1124130783220283131383978313638326D6D29421254D3D7D04C1E0C9124130783320283131383978323532336D6D29421254D3D7D04C1E0CD114131783420
310
2838343178323337386D6D29421254D3D7D04C5E0D11141317833202838343178313738336D6D29421254D3D7D04C5E0CD02431254D3C82557247A25E4C81050A49534F5F5449544C4541431254D3C82557247A25E4C81090A49534F5F5449544C45424110E979A97F0838A835883675F42525F44D254D3D7D09497D4995D9
310
A5CDA5BDB9B1A5CDD10E979A97F0838A835883675F54525F44D254D3D7D51497D4995D9A5CDA5BDB9B1A5CDD10E979A97F0838A835883675F424C5F44D254D3D7D09317D4995D9A5CDA5BDB9B1A5CDD10E979A97F0838A835883675F544C5F44D254D3D7D51317D4995D9A5CDA5BDB9B1A5CDD00
  0
ACAD_PROXY_OBJECT
  5
181
330
17F
100
AcDbProxyObject
 90
      499
 91
      527
 95
       25
 70
     0
 93
       86
310
5DEA0C80A0280A0280A034
  0
ACAD_PROXY_OBJECT
  5
182
330
17F
100
AcDbProxyObject
 90
      499
 91
      528
 95
       25
 70
     0
 93
      282
310
5DD0E4050140501405014050140501405014050141101405014041000000000000001000
340
187
 94
        0
  0
ACAD_PROXY_OBJECT
  5
183
330
17F
100
AcDbProxyObject
 90
      499
 91
      529
 95
       25
 70
     0
 93
      323
310
5DCC199999999999E99F91740501405014050140501405014050140501405014050140501405014040
340
0
 94
        0
  0
ACAD_PROXY_OBJECT
  5
184
330
17F
100
AcDbProxyObject
 90
      499
 91
      530
 95
       25
 70
     0
 93
       10
310
5DC0
  0
ACAD_PROXY_OBJECT
  5
185
330
17F
100
AcDbProxyObject
 90
      499
 91
      531
 95
       25
 70
     0
 93
      257
310
5DE0C16A22A7D90F49F80000000000001081400000000000004204010000618000
340
188
340
189
 94
        0
  0
ACAD_PROXY_OBJECT
  5
186
330
17F
100
AcDbProxyObject
 90
      499
 91
      532
 95
       25
 70
     0
 93
     5277
310
5DD06411255115350141236025B6901405014069010000000000000910240690120281A8AA2CA0282484A4BE52028120280A032020000000000001220480D202405044E414D454050496BC914F4051C40640A80000000000004E4090193C3D3C4946284953424C414E4B28504152543A4E414D45292C424C4F434B3A4E414D
310
452C504152543A4E414D45293E3C41435F44455343524950544E3E40480A109A82A88AA492829880A091BBD2F7E80A3A80C81D0E27A15AF46E08A81203480901411393D5115014124A363B7D0147501904A0000000000000F902406428F4F1050D7D393D5114F901202832B22A72227A92028366EF6EE06F582028EA0320B4
310
0000000000001F20480C879E9E20A1AFAB27222FA620A122A61F20240506445020000000000000490201C00030C00010180000000000003E400000000000000F901073D3C4954454D3E4050180000000000003E400000000000000F901073D3C4954454D3E40501800000000000034400000000000000D101073D3C4954454
310
D3E40501800000000000034400000000000000D101073D3C4954454D3E405029010000000000000F9000000000000003E4041CF4F125511534F901418F4F1455164F9014060000000000000F9000000000000003E4041CF4F125511534F901800000000000034400000000000000D101073D3C4954454D3E40640400000000
310
0000003E400000000000000F90288800000000000020810000001800120881A068120480A032208521122080D21480D211480A1485214852050000000000003C2FC000000000000F0BF40600800030C0200400030C00CDCCCCCCCCCCEC3F3373333333333B0FC3333333333330940C80D069014090341504901A1999999999
310
9984A040100006180400800061804010000618008098A02808
340
0
340
0
 94
        0
  0
ACAD_PROXY_OBJECT
  5
EDA5
330
17F
100
AcDbProxyObject
 90
      499
 91
      561
 95
       25
 70
     0
 93
     3042
310
5DD9740D29254D064A49535F413342929254D7D512551311505134A49535F42525F5265766973696F6E6C6973744190F4134522028323937783231306D6D2941D29254D7D04D1490E41312028353934783834316D6D2941929254D7D04C50E41332028323937783432306D6D2941929254D7D04CD0F41344C2028323130783
310
239376D6D2941D29254D7D04D1310E41322028343230783539346D6D2941929254D7D04C90F4130202838343178313138396D6D2941929254D7D04C10243129254C82557247A25E4C81050A4A49535F5449544C454143129254C82557247A25E4C81090A4A49535F5449544C45424110E979A97F0838A835883675F42525F4
310
4D29254D7D09497D4995D9A5CDA5BDB9B1A5CDD10E979A97F0838A835883675F54525F44D29254D7D51497D4995D9A5CDA5BDB9B1A5CDD10E979A97F0838A835883675F424C5F44D29254D7D09317D4995D9A5CDA5BDB9B1A5CDD10E979A97F0838A835883675F544C5F44D29254D7D51317D4995D9A5CDA5BDB9B1A5CDD00
  0
ACAD_PROXY_OBJECT
  5
EDA6
330
17F
100
AcDbProxyObject
 90
      499
 91
      562
 95
       25
 70
     0
 93
      898
310
5DC4000000000000124048CF4F11115510525317D3105091530F880A0F11115510525317D05094D4D0D053114F8A50241C9A9999999999B93F26A666666666724FC000000000000E03F400000000000000400000000000000510000000000000024408070000C300000000000000049000
340
16
340
180
 94
        0
  0
ACAD_PROXY_OBJECT
  5
EDA7
330
17F
100
AcDbProxyObject
 90
      499
 91
      563
 95
       25
 70
     0
 93
      823
310
5DC0B00000000000002480959E9E29A2A1AA24A7A72FA620A122A62FA324A929AA1F169E29A2A1AA24A7A72FA620A122A62FA620A9AA1F000000000000048803FFFE01C00030C008140380006180000000000000048800000000000000A2000000000000002480
340
652
340
180
 94
        0
  0
ACAD_PROXY_OBJECT
  5
EDA9
330
17F
100
AcDbProxyObject
 90
      499
 91
      564
 95
       25
 70
     0
 93
      152
310
5DE8273108AC1C5A0640A3D0A5723F0BD1F200
  0
ACAD_PROXY_OBJECT
  5
EDAA
330
17F
100
AcDbProxyObject
 90
      499
 91
      565
 95
       25
 70
     0
 93
       14
310
5DE0
340
0
 94
        0
  0
ACAD_PROXY_OBJECT
  5
EDAB
330
17F
100
AcDbProxyObject
 90
      499
 91
      566
 95
       25
 70
     0
 93
     6059
310
5DD084050BA4050AA405024050E836583938376838C815B83672031405983D3C486F6C653A6469613E3C696628657175616C28486F6C653A7465726D696E6174696F6E2C223022292C2220905B82B320222C22208368838A838B22293E3C696628657175616C28486F6C653A7465726D696E6174696F6E2C223022292C486F
310
6C653A64657074682C2222293E2C203C486F6C653A63746469613E2082B482AE82E882CC905B82B3203C486F6C653A637464657074683E406901405034050E836583938376838C815B83672031405EF3D3C486F6C653A6374616E676C653E252564202525633C486F6C653A63746469613E208E4D8C8A2C203C69662865717
310
5616C28486F6C653A7461707065642C223022292C22252563222C486F6C653A6E6F6D696E616C202220782022293E3C696628657175616C28486F6C653A7461707065642C223022292C486F6C653A6469612C486F6C653A706974636864657363293E203C696628657175616C28486F6C653A7465726D696E6174696F6E2C2
310
23022292C22905B82B320222C222022293E3C696628657175616C28486F6C653A7465726D696E6174696F6E2C223022292C486F6C653A64657074682C2222293E406901405014050E836583938376838C815B83672031405C73D3C696628657175616C28486F6C653A7461707065642C223022292C22252563222C486F6C65
310
3A6E6F6D696E616C202220782022293E3C696628657175616C28486F6C653A7461707065642C223022292C486F6C653A6469612C486F6C653A706974636864657363293E203C696628657175616C28486F6C653A7465726D696E6174696F6E2C223022292C22905B82B320222C222022293E3C696628657175616C28486F6C
310
653A7465726D696E6174696F6E2C223022292C486F6C653A64657074682C2222293E4069014051E4090E836583938376838C815B83672032405173D3C535444503A444553433E203C535444503A5354443E40690E836583938376838C815B836720314050C3D3C535444503A444553433E40690240515AAABBA120
360
EDAF
330
EDAF
360
EDB0
330
EDB0
360
EDAE
330
EDAE
360
EDAD
360
EDAC
330
EDAD
330
EDAC
 94
        0
  0
ACAD_PROXY_OBJECT
  5
EDB1
330
17F
100
AcDbProxyObject
 90
      499
 91
      568
 95
       25
 70
     0
 93
       26
310
5DD02A80
340
42
 94
        0
  0
ACAD_PROXY_OBJECT
  5
EDB2
330
17F
100
AcDbProxyObject
 90
      499
 91
      569
 95
       25
 70
     0
 93
      250
310
5DD020000000000000A1000000000000002440408F0F9023C3E409A0DCFFFF80
340
58
340
18A8
340
18A9
340
5F
340
60
340
61
340
62
340
63
340
68
340
0
 94
        0
  0
ACAD_PROXY_OBJECT
  5
EDB3
330
17F
100
AcDbProxyObject
 90
      499
 91
      570
 95
       25
 70
     0
 93
    13889
310
5DD1D003FFFFFFFD030300030CCCCCCCCCCCC250200800030C01030300030CCCCCCCCCCCC250200800030C00050C8DC0955782CC838A83588367014ED1D15395149050D3CB1294138B0C0B23702555E0B320E2A0D620D9CB11D15395149055160B095CCB0A11D1539354D1C819D95B991A5B5E880CCC0A78000C0000000000
310
00000000000000000000010CCCCCCCCCCCC250200800030C010CCCCCCCCCCCC250200800030C020143CF4F111959985D5B1D151A5D1B194F8050A8C8A8365815B8375838B014E51D15395149050D3CB1294138B0C0B2322A0D96056E0DD60E2CB11D15395149055160B095CCB0A11D1539354D1C819D95B991A5B5E880CCC4
310
A78000C000000000000000000000000000000010CCCCCCCCCCCC250200800030C010CCCCCCCCCCCC250200800030C020143CF4F111959985D5B1D151A5D1B194F90D44111409034110541D0C4350F4050E44D03449074510F000141232D24D7C053247454E545241434F2C4A504E2C302C8CB4935F2C47454E54524154582C
310
25732C2847454E4D53472067656E64696D7A20312900010104002214000281464500A608E8A9CA8A482869E5894A09C5860591914588E8A9CA8A482A8B0584AE658508E8A9C9AA68E40CECADCC8D2DAF4406452029E9E9E27B934B3B4B71F1E24A31427A91424A9A12620A7259427B934B3B4B7149624A9A12620A7259424B
310
A32B6949496111116111711149F1E24BA32B69F00808200111A000140560052F47454E545241434F2C4A504E2C302C582C47454E54524154582C25732C2847454E4D53472067656E64696D7A20332900010100002054000280AC80A5E8E8A9CA8A482869E5894A09C586058B2588E8A9CA8A482A8B0584AE658508E8A9C9AA
310
68E40CECADCC8D2DAF4406852000202000040E800050152014BD1D15395149050D3CB1294138B0C0B148B11D15395149055160B095CCB0A11D1539354D1C819D95B991A5B5E880D8A400040400008250000A0507A6029823A2A72A2920A1A79625282716181641E99623A2A72A2920AA2C1612B9961423A2A726A9A39033B2
310
B73234B6BD101B948000808180105A000140A0F4C053047454E545241434F2C4A504E2C302C83D32C47454E54524154582C25732C2847454E4D53472067656E64696D7A203829000101010020F400028248704B5F00A668E8A9CA8A482869E5894A09C58605921C12D7C588E8A9CA8A482A8B0584AE658508E8A9C9AA68E40
310
CECADCC8D2DAF440646052000200080043280005048B4B8A69014CD1D15395149050D3CB1294138B0C0B22D2E29A4B11D15395149055160B095CCB0A11D1539354D1C819D95B991A5B5E880C8C4A4000400100086D0000A09196926BE029923A2A72A2920A1A796252827161816465A49AF9623A2A72A2920AA2C1612B9961
310
423A2A726A9A39033B2B73234B6BD10189480A02620202080043E80005048D8096DA014CD1D15395149050D3CB1294138B0C0B236025B68B11D15395149055160B095CCB0A11D1539354D1C819D95B991A5B5E880C4D0A4000404140280D0000A190687072706CD06C5069D06B0029DA3A2A72A2920A1A7962528271618164
310
1A1C1C9C1B341B141A741AC1623A2A72A2920AA2C1612B9961423A2A726A9A39033B2B73234B6BD10189A94800080820050EA000143A322A0D0E0E4E0D9A0D8A0D3A0D60053D47454E545241434F2C4A504E2C302C8C8A8343839383668362834E83582C47454E54524154582C25732C2847454E4D53472067656E64696D7A
310
2031372900010105002274000281464500A628E8A9CA8A482869E5894A09C5860591914588E8A9CA8A482A8B0584AE658508E8A9C9AA68E40CECADCC8D2DAF440626C52000202080044A8000504909497CA014CD1D15395149050D3CB1294138B0C0B242525F28B11D15395149055160B095CCB0A11D1539354D1C819D95B9
310
91A5B5E880C4E4A400040418008A521E000000000000001CA040C00000000000034408080000000000006881010000000000000D102040000000000001A204080000000000003440818000000000000728103000000000000125020600000000004028A040000000000000034408000000000000004881000000000000000D
310
102000000000000001A204000000000000003440818000000000000508143C0000000000000039408180000000000006881030000000000000D102060000000000001A2040C00000000000034408180000000000006881030000000000000E5020600000000000024A040C0000000000805140800000000000000688100000
310
00000000009102000000000000001A2040000000000000034408180000000000006881030000000000000A10284220000000878000002020000008380000020400000081800000208000000828000002028900000000
340
0
340
0
340
0
340
0
340
180
340
180
 94
        0
  0
ACAD_PROXY_OBJECT
  5
F95A
330
F959
100
AcDbProxyObject
 90
      499
 91
      567
 95
       25
 70
     0
 93
     2680
310
5DE0143A0D960E4E0DDA0E32056E0D9C80C4043A013D2525633C486F6C653A63746469613E2078203C486F6C653A637464657074683E20555C503C696628657175616C28486F6C653A7461707065642C223022292C22252563222C486F6C653A6E6F6D696E616C202220782022293E3C696628657175616C28486F6C653A74
310
61707065642C223022292C486F6C653A6469612C486F6C653A706974636864657363293E3C696628657175616C28486F6C653A7461707065642C223122292C22207820222C2222293E3C696628657175616C28486F6C653A7461707065642C223122292C486F6C653A74617064657074682C2222293E203C69662865717561
310
6C28486F6C653A7465726D696E6174696F6E2C223022292C22202F20222C2222293E3C696628657175616C28486F6C653A7465726D696E6174696F6E2C223022292C486F6C653A64657074682C2222293E
  0
ACAD_PROXY_OBJECT
  5
F95B
330
F959
100
AcDbProxyObject
 90
      499
 91
      567
 95
       25
 70
     0
 93
     2688
310
5DE0143A0D960E4E0DDA0E32056E0D9C80C4043B013D2525633C486F6C653A63746469613E2078203C486F6C653A6374616E676C653E2525645C503C696628657175616C28486F6C653A7461707065642C223022292C22252563222C486F6C653A6E6F6D696E616C202220782022293E3C696628657175616C28486F6C653A
310
7461707065642C223022292C486F6C653A6469612C486F6C653A706974636864657363293E3C696628657175616C28486F6C653A7461707065642C223122292C22207820222C2222293E3C696628657175616C28486F6C653A7461707065642C223122292C486F6C653A74617064657074682C2222293E203C696628657175
310
616C28486F6C653A7465726D696E6174696F6E2C223022292C22202F20222C2222293E3C696628657175616C28486F6C653A7465726D696E6174696F6E2C223022292C486F6C653A64657074682C2222293E
  0
ACAD_PROXY_OBJECT
  5
F95C
330
F959
100
AcDbProxyObject
 90
      499
 91
      567
 95
       25
 70
     0
 93
     2392
310
5DE0143A0D960E4E0DDA0E32056E0D9C80C40416013D3C696628657175616C28486F6C653A7461707065642C223022292C22252563222C486F6C653A6E6F6D696E616C202220782022293E3C696628657175616C28486F6C653A7461707065642C223022292C486F6C653A6469612C486F6C653A706974636864657363293E
310
3C696628657175616C28486F6C653A7461707065642C223122292C22207820222C2222293E3C696628657175616C28486F6C653A7461707065642C223122292C486F6C653A74617064657074682C2222293E203C696628657175616C28486F6C653A7465726D696E6174696F6E2C223022292C22202F20222C2222293E3C69
310
6628657175616C28486F6C653A7465726D696E6174696F6E2C223022292C486F6C653A64657074682C2222293E
  0
ACAD_PROXY_OBJECT
  5
F95D
330
F959
100
AcDbProxyObject
 90
      499
 91
      567
 95
       25
 70
     0
 93
      344
310
5DE0143A0D960E4E0DDA0E32056E0D9C80C805173D3C535444503A444553433E203C535444503A5354443E
  0
ACAD_PROXY_OBJECT
  5
F95E
330
F959
100
AcDbProxyObject
 90
      499
 91
      567
 95
       25
 70
     0
 93
      256
310
5DE0143A0D960E4E0DDA0E32056E0D9C80C4050C3D3C535444503A444553433E
  0
ACAD_PROXY_OBJECT
  5
EDAF
330
EDAB
100
AcDbProxyObject
 90
      499
 91
      567
 95
       25
 70
     0
 93
     1376
310
5DE0143A0D960E4E0DDA0E32056E0D9C80C405983D3C486F6C653A6469613E3C696628657175616C28486F6C653A7465726D696E6174696F6E2C223022292C2220905B82B320222C22208368838A838B22293E3C696628657175616C28486F6C653A7465726D696E6174696F6E2C223022292C486F6C653A64657074682C22
310
22293E2C203C486F6C653A63746469613E2082B482AE82E882CC905B82B3203C486F6C653A637464657074683E
  0
ACAD_PROXY_OBJECT
  5
EDB0
330
EDAB
100
AcDbProxyObject
 90
      499
 91
      567
 95
       25
 70
     0
 93
     2072
310
5DE0143A0D960E4E0DDA0E32056E0D9C80C405EF3D3C486F6C653A6374616E676C653E252564202525633C486F6C653A63746469613E208E4D8C8A2C203C696628657175616C28486F6C653A7461707065642C223022292C22252563222C486F6C653A6E6F6D696E616C202220782022293E3C696628657175616C28486F6C
310
653A7461707065642C223022292C486F6C653A6469612C486F6C653A706974636864657363293E203C696628657175616C28486F6C653A7465726D696E6174696F6E2C223022292C22905B82B320222C222022293E3C696628657175616C28486F6C653A7465726D696E6174696F6E2C223022292C486F6C653A6465707468
310
2C2222293E
  0
ACAD_PROXY_OBJECT
  5
EDAE
330
EDAB
100
AcDbProxyObject
 90
      499
 91
      567
 95
       25
 70
     0
 93
     1752
310
5DE0143A0D960E4E0DDA0E32056E0D9C80C405C73D3C696628657175616C28486F6C653A7461707065642C223022292C22252563222C486F6C653A6E6F6D696E616C202220782022293E3C696628657175616C28486F6C653A7461707065642C223022292C486F6C653A6469612C486F6C653A706974636864657363293E20
310
3C696628657175616C28486F6C653A7465726D696E6174696F6E2C223022292C22905B82B320222C222022293E3C696628657175616C28486F6C653A7465726D696E6174696F6E2C223022292C486F6C653A64657074682C2222293E
  0
ACAD_PROXY_OBJECT
  5
EDAD
330
EDAB
100
AcDbProxyObject
 90
      499
 91
      567
 95
       25
 70
     0
 93
      344
310
5DE0143A0D960E4E0DDA0E32056E0D9C80C805173D3C535444503A444553433E203C535444503A5354443E
  0
ACAD_PROXY_OBJECT
  5
EDAC
330
EDAB
100
AcDbProxyObject
 90
      499
 91
      567
 95
       25
 70
     0
 93
      256
310
5DE0143A0D960E4E0DDA0E32056E0D9C80C4050C3D3C535444503A444553433E
  0
ENDSEC
  0
EOF
