  0
SECTION
  2
HEADER
  9
$ACADVER
  1
AC1015
  9
$ACADMAINTVER
 70
     6
  9
$DWGCODEPAGE
  3
ANSI_932
  9
$INSBASE
 10
0.0
 20
0.0
 30
0.0
  9
$EXTMIN
 10
-82.28911718065547
 20
-113.1389151423213
 30
-0.0000000000000076
  9
$EXTMAX
 10
163.0011058140049
 20
12.50066673165986
 30
0.0000000000000076
  9
$LIMMIN
 10
0.0
 20
0.0
  9
$LIMMAX
 10
420.0
 20
297.0
  9
$ORTHOMODE
 70
     1
  9
$REGENMODE
 70
     1
  9
$FILLMODE
 70
     1
  9
$QTEXTMODE
 70
     0
  9
$MIRRTEXT
 70
     1
  9
$LTSCALE
 40
1.0
  9
$ATTMODE
 70
     1
  9
$TEXTSIZE
 40
3.5
  9
$TRACEWID
 40
1.0
  9
$TEXTSTYLE
  7
STANDARD
  9
$CLAYER
  8
AM_0
  9
$CELTYPE
  6
ByLayer
  9
$CECOLOR
 62
   256
  9
$CELTSCALE
 40
1.0
  9
$DISPSILH
 70
     0
  9
$DIMSCALE
 40
1.0
  9
$DIMASZ
 40
2.5
  9
$DIMEXO
 40
0.0
  9
$DIMDLI
 40
10.0
  9
$DIMRND
 40
0.0
  9
$DIMDLE
 40
0.0
  9
$DIMEXE
 40
1.0
  9
$DIMTP
 40
0.1
  9
$DIMTM
 40
0.1000000001
  9
$DIMTXT
 40
3.8
  9
$DIMCEN
 40
0.0
  9
$DIMTSZ
 40
0.0
  9
$DIMTOL
 70
     0
  9
$DIMLIM
 70
     0
  9
$DIMTIH
 70
     0
  9
$DIMTOH
 70
     0
  9
$DIMSE1
 70
     0
  9
$DIMSE2
 70
     0
  9
$DIMTAD
 70
     3
  9
$DIMZIN
 70
     1
  9
$DIMBLK
  1
Open30
  9
$DIMASO
 70
     1
  9
$DIMSHO
 70
     1
  9
$DIMPOST
  1

  9
$DIMAPOST
  1
"
  9
$DIMALT
 70
     0
  9
$DIMALTD
 70
     2
  9
$DIMALTF
 40
0.0393701
  9
$DIMLFAC
 40
0.3333333333333333
  9
$DIMTOFL
 70
     1
  9
$DIMTVP
 40
0.0
  9
$DIMTIX
 70
     0
  9
$DIMSOXD
 70
     0
  9
$DIMSAH
 70
     0
  9
$DIMBLK1
  1

  9
$DIMBLK2
  1

  9
$DIMSTYLE
  2
AM_JIS
  9
$DIMCLRD
 70
   256
  9
$DIMCLRE
 70
   256
  9
$DIMCLRT
 70
     2
  9
$DIMTFAC
 40
0.71
  9
$DIMGAP
 40
1.5
  9
$DIMJUST
 70
     0
  9
$DIMSD1
 70
     0
  9
$DIMSD2
 70
     0
  9
$DIMTOLJ
 70
     0
  9
$DIMTZIN
 70
     8
  9
$DIMALTZ
 70
     0
  9
$DIMALTTZ
 70
     0
  9
$DIMUPT
 70
     0
  9
$DIMDEC
 70
     1
  9
$DIMTDEC
 70
     2
  9
$DIMALTU
 70
     2
  9
$DIMALTTD
 70
     2
  9
$DIMTXSTY
  7
STANDARD
  9
$DIMAUNIT
 70
     1
  9
$DIMADEC
 70
     1
  9
$DIMALTRND
 40
0.0
  9
$DIMAZIN
 70
     2
  9
$DIMDSEP
 70
    46
  9
$DIMATFIT
 70
     3
  9
$DIMFRAC
 70
     0
  9
$DIMLDRBLK
  1
Open30
  9
$DIMLUNIT
 70
     2
  9
$DIMLWD
 70
    -1
  9
$DIMLWE
 70
    -1
  9
$DIMTMOVE
 70
     0
  9
$LUNITS
 70
     2
  9
$LUPREC
 70
     2
  9
$SKETCHINC
 40
1.0
  9
$FILLETRAD
 40
0.8
  9
$AUNITS
 70
     1
  9
$AUPREC
 70
     5
  9
$MENU
  1
.
  9
$ELEVATION
 40
0.0
  9
$PELEVATION
 40
0.0
  9
$THICKNESS
 40
0.0
  9
$LIMCHECK
 70
     0
  9
$CHAMFERA
 40
20.0
  9
$CHAMFERB
 40
20.0
  9
$CHAMFERC
 40
20.0
  9
$CHAMFERD
 40
0.0
  9
$SKPOLY
 70
     0
  9
$TDCREATE
 40
2451943.610431667
  9
$TDUCREATE
 40
2451943.235431667
  9
$TDUPDATE
 40
2455441.481214364
  9
$TDUUPDATE
 40
2455441.106214364
  9
$TDINDWG
 40
1.3858795486
  9
$TDUSRTIMER
 40
1.385879375
  9
$USRTIMER
 70
     1
  9
$ANGBASE
 50
0.0
  9
$ANGDIR
 70
     0
  9
$PDMODE
 70
     0
  9
$PDSIZE
 40
0.0
  9
$PLINEWID
 40
0.0
  9
$SPLFRAME
 70
     0
  9
$SPLINETYPE
 70
     6
  9
$SPLINESEGS
 70
     8
  9
$HANDSEED
  5
12D4A
  9
$SURFTAB1
 70
     6
  9
$SURFTAB2
 70
     6
  9
$SURFTYPE
 70
     6
  9
$SURFU
 70
     6
  9
$SURFV
 70
     6
  9
$UCSBASE
  2

  9
$UCSNAME
  2

  9
$UCSORG
 10
0.0
 20
0.0
 30
0.0
  9
$UCSXDIR
 10
1.0
 20
0.0
 30
0.0
  9
$UCSYDIR
 10
0.0
 20
1.0
 30
0.0
  9
$UCSORTHOREF
  2

  9
$UCSORTHOVIEW
 70
     0
  9
$UCSORGTOP
 10
0.0
 20
0.0
 30
0.0
  9
$UCSORGBOTTOM
 10
0.0
 20
0.0
 30
0.0
  9
$UCSORGLEFT
 10
0.0
 20
0.0
 30
0.0
  9
$UCSORGRIGHT
 10
0.0
 20
0.0
 30
0.0
  9
$UCSORGFRONT
 10
0.0
 20
0.0
 30
0.0
  9
$UCSORGBACK
 10
0.0
 20
0.0
 30
0.0
  9
$PUCSBASE
  2

  9
$PUCSNAME
  2

  9
$PUCSORG
 10
0.0
 20
0.0
 30
0.0
  9
$PUCSXDIR
 10
1.0
 20
0.0
 30
0.0
  9
$PUCSYDIR
 10
0.0
 20
1.0
 30
0.0
  9
$PUCSORTHOREF
  2

  9
$PUCSORTHOVIEW
 70
     0
  9
$PUCSORGTOP
 10
0.0
 20
0.0
 30
0.0
  9
$PUCSORGBOTTOM
 10
0.0
 20
0.0
 30
0.0
  9
$PUCSORGLEFT
 10
0.0
 20
0.0
 30
0.0
  9
$PUCSORGRIGHT
 10
0.0
 20
0.0
 30
0.0
  9
$PUCSORGFRONT
 10
0.0
 20
0.0
 30
0.0
  9
$PUCSORGBACK
 10
0.0
 20
0.0
 30
0.0
  9
$USERI1
 70
     0
  9
$USERI2
 70
     0
  9
$USERI3
 70
     0
  9
$USERI4
 70
     0
  9
$USERI5
 70
     0
  9
$USERR1
 40
0.0
  9
$USERR2
 40
0.0
  9
$USERR3
 40
0.0
  9
$USERR4
 40
0.0
  9
$USERR5
 40
0.0
  9
$WORLDVIEW
 70
     1
  9
$SHADEDGE
 70
     3
  9
$SHADEDIF
 70
    70
  9
$TILEMODE
 70
     1
  9
$MAXACTVP
 70
    64
  9
$PINSBASE
 10
0.0
 20
0.0
 30
0.0
  9
$PLIMCHECK
 70
     0
  9
$PEXTMIN
 10
1.000000000000000E+20
 20
1.000000000000000E+20
 30
1.000000000000000E+20
  9
$PEXTMAX
 10
-1.000000000000000E+20
 20
-1.000000000000000E+20
 30
-1.000000000000000E+20
  9
$PLIMMIN
 10
0.0
 20
0.0
  9
$PLIMMAX
 10
420.0
 20
297.0
  9
$UNITMODE
 70
     0
  9
$VISRETAIN
 70
     1
  9
$PLINEGEN
 70
     0
  9
$PSLTSCALE
 70
     1
  9
$TREEDEPTH
 70
  3020
  9
$CMLSTYLE
  2
Standard
  9
$CMLJUST
 70
     0
  9
$CMLSCALE
 40
20.0
  9
$PROXYGRAPHICS
 70
     1
  9
$MEASUREMENT
 70
     1
  9
$CELWEIGHT
370
    -1
  9
$ENDCAPS
280
     0
  9
$JOINSTYLE
280
     0
  9
$LWDISPLAY
290
     0
  9
$INSUNITS
 70
     4
  9
$HYPERLINKBASE
  1

  9
$STYLESHEET
  1
sei_cad.ctb
  9
$XEDIT
290
     1
  9
$CEPSNTYPE
380
     0
  9
$PSTYLEMODE
290
     1
  9
$FINGERPRINTGUID
  2
{C77AB3BE-9CA2-11D3-BAF3-006094EB760E}
  9
$VERSIONGUID
  2
{0809F94E-0D17-4579-B4F3-7A8ECAE03086}
  9
$EXTNAMES
290
     1
  9
$PSVPSCALE
 40
0.0
  9
$OLESTARTUP
290
     0
  0
ENDSEC
  0
SECTION
  2
CLASSES
  0
CLASS
  1
ACDBDICTIONARYWDFLT
  2
AcDbDictionaryWithDefault
  3
ObjectDBX Classes
 90
        0
280
     0
281
     0
  0
CLASS
  1
ACDBPLACEHOLDER
  2
AcDbPlaceHolder
  3
ObjectDBX Classes
 90
        0
280
     0
281
     0
  0
CLASS
  1
LAYOUT
  2
AcDbLayout
  3
ObjectDBX Classes
 90
        0
280
     0
281
     0
  0
CLASS
  1
ACME_DOCUMENT
  2
AcMeDbDoc
  3
AcMeServices
 90
        0
280
     1
281
     0
  0
CLASS
  1
ACMESCOPE
  2
AcMeScope
  3
AcMeServices
 90
        0
280
     1
281
     0
  0
CLASS
  1
ACMECOMMANDHISTORY
  2
AcMeCommandHistory
  3
AcMeServices
 90
        0
280
     1
281
     0
  0
CLASS
  1
DICTIONARYVAR
  2
AcDbDictionaryVar
  3
ObjectDBX Classes
 90
        0
280
     0
281
     0
  0
CLASS
  1
ACIMSYSVARMAN
  2
AcImSysVarManager
  3
AcMeServices
 90
        0
280
     1
281
     0
  0
CLASS
  1
ACIMREALSYSVAR
  2
AcImRealSysVar
  3
AcMeServices
 90
        0
280
     1
281
     0
  0
CLASS
  1
ACIMINTSYSVAR
  2
AcImIntSysVar
  3
AcMeServices
 90
        0
280
     1
281
     0
  0
CLASS
  1
ACMEDRAWINGMAN
  2
AcMeDrawingMan
  3
AcMeServices
 90
        0
280
     1
281
     0
  0
CLASS
  1
ACMEVIEW
  2
AcMeView
  3
AcMeServices
 90
        0
280
     1
281
     0
  0
CLASS
  1
ACDBENTITYCACHE
  2
AcMeEntityCache
  3
AcMeServices
 90
        0
280
     1
281
     0
  0
CLASS
  1
GSMANAGER
  2
AcMeGSManager
  3
AcMeServices
 90
        0
280
     1
281
     0
  0
CLASS
  1
AMDTINTERNALREACTOR
  2
AmdtInternalReactor
  3
AcMeServices
 90
        0
280
     1
281
     0
  0
CLASS
  1
ACMESTATEMGR
  2
AcMeStateMgr
  3
AcMeServices
 90
        0
280
     1
281
     0
  0
CLASS
  1
ACME_DATABASE
  2
AcMeDbDatabase
  3
AcMeServices
 90
        0
280
     1
281
     0
  0
CLASS
  1
ACRFINSADJUSTERMGR
  2
AcRfInsAdjusterMgr
  3
AcMeServices
 90
        0
280
     1
281
     0
  0
CLASS
  1
AMGSETTINGSOBJ
  2
AmgSettingsObj
  3
"AcadM|Product Description: AutoCAD Mechanical 2000|Company: Autodesk"
 90
        0
280
     1
281
     0
  0
CLASS
  1
AMGOBJPROPCFG
  2
AmgObjPropCfg
  3
"AmgLay|Product Description: AutoCAD Mechanical 2000|Company: Autodesk"
 90
        1
280
     1
281
     0
  0
CLASS
  1
ACMDATADICTIONARY
  2
AcmDataDictionary
  3
"AcmSymBB|Product Description: AutoCAD Mechanical 2004 DX|Company: Autodesk"
 90
        0
280
     1
281
     0
  0
CLASS
  1
ACMDATAENTRYBLOCK
  2
AcmDataEntryBlock
  3
"AcmSymBB|Product Description: AutoCAD Mechanical 2004 DX|Company: Autodesk"
 90
        0
280
     1
281
     0
  0
CLASS
  1
ACIMSTRSYSVAR
  2
AcImStrSysVar
  3
AcMeServices
 90
        0
280
     1
281
     0
  0
CLASS
  1
ACAMGFILTERDAT
  2
AcAmgFilterDat
  3
"AcadM|Product Description: AutoCAD Mechanical 2000|Company: Autodesk"
 90
        0
280
     1
281
     0
  0
CLASS
  1
LAYER_INDEX
  2
AcDbLayerIndex
  3
ObjectDBX Classes
 90
        0
280
     0
281
     0
  0
CLASS
  1
IDBUFFER
  2
AcDbIdBuffer
  3
ObjectDBX Classes
 90
        0
280
     0
281
     0
  0
CLASS
  1
ACMSTANDARDJIS
  2
AcmStandardJIS
  3
"Amdt_StdImp|Product Description: AutoCAD Mechanical 2004 DX|Company: Autodesk"
 90
        0
280
     1
281
     0
  0
CLASS
  1
ACMSURFSTANDARDJIS
  2
AcmSurfTextStdJIS
  3
"Amdt_StdImp|Product Description: AutoCAD Mechanical 2004 DX|Company: Autodesk"
 90
        0
280
     1
281
     0
  0
CLASS
  1
ACMFCFSTANDARDJIS
  2
AcmFCFStdJIS
  3
"Amdt_StdImp|Product Description: AutoCAD Mechanical 2004 DX|Company: Autodesk"
 90
        0
280
     1
281
     0
  0
CLASS
  1
ACMWELDSTANDARDJIS
  2
AcmWeldingStdJIS
  3
"Amdt_StdImp|Product Description: AutoCAD Mechanical 2004 DX|Company: Autodesk"
 90
        0
280
     1
281
     0
  0
CLASS
  1
ACMIDSTANDARDJIS
  2
AcmIdStdJIS
  3
"Amdt_StdImp|Product Description: AutoCAD Mechanical 2004 DX|Company: Autodesk"
 90
        0
280
     1
281
     0
  0
CLASS
  1
ACMDATUMSTANDARDJIS
  2
AcmDatumStdJIS
  3
"Amdt_StdImp|Product Description: AutoCAD Mechanical 2004 DX|Company: Autodesk"
 90
        0
280
     1
281
     0
  0
CLASS
  1
ACMBOMSTANDARDJIS
  2
AcmBOMStdJIS
  3
"Amdt_StdImp|Product Description: AutoCAD Mechanical 2004 DX|Company: Autodesk"
 90
        0
280
     1
281
     0
  0
CLASS
  1
AMDTNOTE
  2
AmdtNote
  3
"AcmSymBB|Product Description: AutoCAD Mechanical 2004 DX|Company: Autodesk"
 90
     1023
280
     1
281
     1
  0
CLASS
  1
TABLESTYLE
  2
AcDbTableStyle
  3
ObjectDBX Classes
 90
     2047
280
     0
281
     0
  0
CLASS
  1
ACGREFMASTER
  2
AcGrefMaster
  3
AcAttribServices
 90
        0
280
     1
281
     0
  0
CLASS
  1
AM_DRAWING_MGR
  2
AcDmDwgMgr
  3
AcMechDwgViewMgmt
 90
        0
280
     1
281
     0
  0
CLASS
  1
AM_DWG_DOCUMENT
  2
AcDmDwgDocument
  3
AcMechDwgViewMgmt
 90
        0
280
     1
281
     0
  0
CLASS
  1
AM_DWG_SHEET
  2
AcDmSheet
  3
AcMechDwgViewMgmt
 90
        0
280
     1
281
     0
  0
CLASS
  1
AM_VIEWDIMPARMAP
  2
AcDmViewDimParMap
  3
AcMechDwgViewMgmt
 90
        0
280
     1
281
     0
  0
CLASS
  1
AM_DWGMGR_NAME
  2
AcDmDwgMgrName
  3
AcMechDwgViewMgmt
 90
        0
280
     1
281
     0
  0
CLASS
  1
ACGREFACADMASTER
  2
AcGrefacadMaster
  3
AcGrefServices
 90
        0
280
     1
281
     0
  0
CLASS
  1
AMDTMENUSTATEMGR
  2
AmdtMenuStateMgr
  3
McadcomServices
 90
        0
280
     1
281
     0
  0
CLASS
  1
AMDTMCOMMENUSTATE
  2
AmdtMcomMenuState
  3
McadcomServices
 90
        0
280
     1
281
     0
  0
CLASS
  1
AMIMASTER
  2
AmiMaster
  3
AmiServices
 90
        0
280
     1
281
     0
  0
CLASS
  1
MAPIAMMOUDLE
  2
MApiAmModule
  3
MApiAmServices
 90
        0
280
     1
281
     0
  0
CLASS
  1
AMDTADMENUSTATE
  2
AmdtAdMenuState
  3
DesignerServices
 90
        0
280
     1
281
     0
  0
CLASS
  1
ADAPPL
  2
AcAdAppl
  3
DesignerServices
 90
        0
280
     1
281
     0
  0
CLASS
  1
DEPMGR
  2
AcAdDepMgr
  3
DesignerServices
 90
        0
280
     1
281
     0
  0
CLASS
  1
PARAMMGR
  2
AcAdParamMgr
  3
DesignerServices
 90
        0
280
     1
281
     0
  0
CLASS
  1
PARAMSCOPE
  2
AcAdParamScope
  3
DesignerServices
 90
        0
280
     1
281
     0
  0
CLASS
  1
NAMEDAPPL
  2
AcAdNamedAppl
  3
DesignerServices
 90
        0
280
     1
281
     0
  0
CLASS
  1
AMDTDMMENUSTATE
  2
AmdtDmMenuState
  3
AcMechDwgViewMgmt
 90
        0
280
     1
281
     0
  0
CLASS
  1
AMDTAMMENUSTATE
  2
AmdtAmMenuState
  3
DesignerAssemblies
 90
        0
280
     1
281
     0
  0
CLASS
  1
ACAMPROJECT
  2
AcAmProject
  3
DesignerAssemblies
 90
        0
280
     1
281
     0
  0
CLASS
  1
ACAMGRCOMPDEF
  2
AcAmGrCompDef
  3
DesignerAssemblies
 90
        0
280
     1
281
     0
  0
CLASS
  1
ACCMCONTEXT
  2
AcCmContext
  3
DesignerAssemblies
 90
        0
280
     1
281
     0
  0
CLASS
  1
ACAMCOMPDEF
  2
AcAmCompDef
  3
DesignerAssemblies
 90
        0
280
     1
281
     0
  0
CLASS
  1
ACAMCOMPDEFMGR
  2
AcAmCompDefMgr
  3
DesignerAssemblies
 90
        0
280
     1
281
     0
  0
CLASS
  1
AMCONTEXTMGR
  2
AcAmContextMgr
  3
DesignerAssemblies
 90
        0
280
     1
281
     0
  0
CLASS
  1
ACAMCONTEXTMODELER
  2
AcAmContextModeler
  3
DesignerAssemblies
 90
        0
280
     1
281
     0
  0
CLASS
  1
ACAMGTITLESTD
  2
AcAmgTitleStd
  3
"TITLEAPP"
 90
        0
280
     1
281
     0
  0
CLASS
  1
ACMDETAILSTANDARDJIS
  2
AmdtDetailSymStdJIS
  3
"Amdt_StdImp|Product Description: AutoCAD Mechanical 2004 DX|Company: Autodesk"
 90
        0
280
     1
281
     0
  0
CLASS
  1
ACMSECTIONSTANDARDJIS
  2
AmdtSectionSymStdJIS
  3
"Amdt_StdImp|Product Description: AutoCAD Mechanical 2004 DX|Company: Autodesk"
 90
        0
280
     1
281
     0
  0
CLASS
  1
ACMCENTERLINESTANDARDJIS
  2
AmdtCenterLineStdJIS
  3
"Amdt_StdImp|Product Description: AutoCAD Mechanical 2004 DX|Company: Autodesk"
 90
        0
280
     1
281
     0
  0
CLASS
  1
ACMTHREADLINESTANDARDJIS
  2
AmdtThreadLineStdJIS
  3
"Amdt_StdImp|Product Description: AutoCAD Mechanical 2004 DX|Company: Autodesk"
 90
        0
280
     1
281
     0
  0
CLASS
  1
ACMNOTESTANDARDJIS
  2
AmdtNoteStdJIS
  3
"Amdt_StdImp|Product Description: AutoCAD Mechanical 2004 DX|Company: Autodesk"
 90
        0
280
     1
281
     0
  0
CLASS
  1
AMDTNOTETEMPLATEDB
  2
AmdtNoteTemplateDB
  3
AMDT_STDIMP_MODULE_NAME
 90
        0
280
     1
281
     0
  0
CLASS
  1
ACAMGLAYSTD
  2
AcAmgLayStd
  3
"AcAmgLayStd|Product Description: AutoCAD Mechanical 2000|Company: Autodesk"
 90
        0
280
     1
281
     0
  0
CLASS
  1
ACAMGDIMSTD
  2
AcAmgDimStd
  3
"AcAmgDimStd|Product Description: AutoCAD Mechanical 2000|Company: Autodesk"
 90
        0
280
     1
281
     0
  0
CLASS
  1
ACAMGHOLECHARTSTDJIS
  2
AcAmgHoleChartStdJIS
  3
ACMSYMBB_MODULE_NAME
 90
        0
280
     1
281
     0
  0
CLASS
  1
CATALOGSTATE
  2
AcAmCatalogState
  3
DesignerAssemblies
 90
        0
280
     1
281
     0
  0
CLASS
  1
ACAMGRCOMPDEFSET
  2
AcAmGrCompDefSet
  3
DesignerAssemblies
 90
        0
280
     1
281
     0
  0
CLASS
  1
AMDTBROWSERDBTAB
  2
AmdtBrowserDbTab
  3
McadcomServices
 90
        0
280
     1
281
     0
  0
CLASS
  1
CBROWSERAPPOBJECT
  2
CBrowserAppObject
  3
McadcomServices
 90
        0
280
     1
281
     0
  0
CLASS
  1
DM_PLACEHOLDER
  2
AcDmSelsetPlaceholder
  3
AcMechDwgViewMgmt
 90
        0
280
     1
281
     0
  0
CLASS
  1
SORTENTSTABLE
  2
AcDbSortentsTable
  3
ObjectDBX Classes
 90
        0
280
     0
281
     0
  0
CLASS
  1
ACMSTANDARDISO
  2
AcmStandardISO
  3
"Amdt_StdImp|Product Description: AutoCAD Mechanical 2004 DX|Company: Autodesk"
 90
        0
280
     1
281
     0
  0
CLASS
  1
AMDTEDGESTANDARDISO13715
  2
AmdtEdgeStdISO13715
  3
"Amdt_StdImp|Product Description: AutoCAD Mechanical 2004 DX|Company: Autodesk"
 90
        0
280
     1
281
     0
  0
CLASS
  1
ACMSURFSTANDARDISO
  2
AcmSurfTextStdISO
  3
"Amdt_StdImp|Product Description: AutoCAD Mechanical 2004 DX|Company: Autodesk"
 90
        0
280
     1
281
     0
  0
CLASS
  1
ACMFCFSTANDARDISO
  2
AcmFCFStdISO
  3
"Amdt_StdImp|Product Description: AutoCAD Mechanical 2004 DX|Company: Autodesk"
 90
        0
280
     1
281
     0
  0
CLASS
  1
ACMWELDSTANDARDISO
  2
AcmWeldingStdISO
  3
"Amdt_StdImp|Product Description: AutoCAD Mechanical 2004 DX|Company: Autodesk"
 90
        0
280
     1
281
     0
  0
CLASS
  1
ACMIDSTANDARDISO
  2
AcmIdStdISO
  3
"Amdt_StdImp|Product Description: AutoCAD Mechanical 2004 DX|Company: Autodesk"
 90
        0
280
     1
281
     0
  0
CLASS
  1
ACMDATUMSTANDARDISO
  2
AcmDatumStdISO
  3
"Amdt_StdImp|Product Description: AutoCAD Mechanical 2004 DX|Company: Autodesk"
 90
        0
280
     1
281
     0
  0
CLASS
  1
ACMBOMSTANDARDISO
  2
AcmBOMStdISO
  3
"Amdt_StdImp|Product Description: AutoCAD Mechanical 2004 DX|Company: Autodesk"
 90
        0
280
     1
281
     0
  0
CLASS
  1
ACMDETAILSTANDARDISO
  2
AmdtDetailSymStdISO
  3
"Amdt_StdImp|Product Description: AutoCAD Mechanical 2004 DX|Company: Autodesk"
 90
        0
280
     1
281
     0
  0
CLASS
  1
ACMSECTIONSTANDARDISO
  2
AmdtSectionSymStdISO
  3
"Amdt_StdImp|Product Description: AutoCAD Mechanical 2004 DX|Company: Autodesk"
 90
        0
280
     1
281
     0
  0
CLASS
  1
ACMCENTERLINESTANDARDISO
  2
AmdtCenterLineStdISO
  3
"Amdt_StdImp|Product Description: AutoCAD Mechanical 2004 DX|Company: Autodesk"
 90
        0
280
     1
281
     0
  0
CLASS
  1
ACMTHREADLINESTANDARDISO
  2
AmdtThreadLineStdISO
  3
"Amdt_StdImp|Product Description: AutoCAD Mechanical 2004 DX|Company: Autodesk"
 90
        0
280
     1
281
     0
  0
CLASS
  1
ACMNOTESTANDARDISO
  2
AmdtNoteStdISO
  3
"Amdt_StdImp|Product Description: AutoCAD Mechanical 2004 DX|Company: Autodesk"
 90
        0
280
     1
281
     0
  0
CLASS
  1
ACAMGHOLECHARTSTDISO
  2
AcAmgHoleChartStdISO
  3
ACMSYMBB_MODULE_NAME
 90
        0
280
     1
281
     0
  0
ENDSEC
  0
SECTION
  2
TABLES
  0
TABLE
  2
VPORT
  5
8
330
0
100
AcDbSymbolTable
 70
   118
  0
VPORT
  5
12D43
330
8
100
AcDbSymbolTableRecord
100
AcDbViewportTableRecord
  2
*Active
 70
     0
 10
0.0
 20
0.0
 11
1.0
 21
1.0
 12
40.35599431667468
 22
-50.3191242053307
 13
0.0
 23
0.0
 14
2.5
 24
2.5
 15
10.0
 25
10.0
 16
0.0
 26
0.0
 36
1.0
 17
0.0
 27
0.0
 37
0.0
 40
145.288829088182
 41
1.697058823529412
 42
50.0
 43
0.0
 44
0.0
 50
0.0
 51
0.0
 71
    16
 72
 20000
 73
     1
 74
     3
 75
     0
 76
     0
 77
     0
 78
     0
281
     0
 65
     1
110
0.0
120
0.0
130
0.0
111
1.0
121
0.0
131
0.0
112
0.0
122
1.0
132
0.0
 79
     0
146
0.0
  0
ENDTAB
  0
TABLE
  2
LTYPE
  5
5
330
0
100
AcDbSymbolTable
 70
    16
  0
LTYPE
  5
14
330
5
100
AcDbSymbolTableRecord
100
AcDbLinetypeTableRecord
  2
ByBlock
 70
     0
  3

 72
    65
 73
     0
 40
0.0
  0
LTYPE
  5
15
330
5
100
AcDbSymbolTableRecord
100
AcDbLinetypeTableRecord
  2
ByLayer
 70
     0
  3

 72
    65
 73
     0
 40
0.0
  0
LTYPE
  5
16
330
5
100
AcDbSymbolTableRecord
100
AcDbLinetypeTableRecord
  2
Continuous
 70
     0
  3
Solid line
 72
    65
 73
     0
 40
0.0
  0
LTYPE
  5
43
330
5
100
AcDbSymbolTableRecord
100
AcDbLinetypeTableRecord
  2
AM_ISO02W050
 70
     0
  3
__ __ __ __ __ __ __ __ __ __ __ __ __ __ __
 72
    65
 73
     2
 40
7.5
 49
6.0
 74
     0
 49
-1.5
 74
     0
  0
LTYPE
  5
44
330
5
100
AcDbSymbolTableRecord
100
AcDbLinetypeTableRecord
  2
AM_ISO08W050
 70
     0
  3
____ . ____ . ____ . ____ . ____ . ____ . ____
 72
    65
 73
     4
 40
18.0
 49
12.0
 74
     0
 49
-1.5
 74
     0
 49
3.0
 74
     0
 49
-1.5
 74
     0
  0
LTYPE
  5
45
330
5
100
AcDbSymbolTableRecord
100
AcDbLinetypeTableRecord
  2
AM_ISO09W050
 70
     0
  3
_____ . . _____ . . _____ . . ____ .. ____
 72
    65
 73
     6
 40
22.5
 49
12.0
 74
     0
 49
-1.5
 74
     0
 49
3.0
 74
     0
 49
-1.5
 74
     0
 49
3.0
 74
     0
 49
-1.5
 74
     0
  0
LTYPE
  5
46
330
5
100
AcDbSymbolTableRecord
100
AcDbLinetypeTableRecord
  2
Amconstr
 70
     0
  3
_______________________
 72
    65
 73
     2
 40
9999.0
 49
9999.0
 74
     0
 49
0.0
 74
     0
  0
LTYPE
  5
47
330
5
100
AcDbSymbolTableRecord
100
AcDbLinetypeTableRecord
  2
AM_ISO02W050x2
 70
     0
  3
 _ _ _ _ _ _ _ _ _ _ _ _
 72
    65
 73
     2
 40
3.75
 49
3.0
 74
     0
 49
-0.75
 74
     0
  0
LTYPE
  5
48
330
5
100
AcDbSymbolTableRecord
100
AcDbLinetypeTableRecord
  2
AM_ISO08W050x2
 70
     0
  3
__ . __ . __ . __ . __ . __
 72
    65
 73
     4
 40
9.0
 49
6.0
 74
     0
 49
-0.75
 74
     0
 49
1.5
 74
     0
 49
-0.75
 74
     0
  0
LTYPE
  5
4B
330
5
100
AcDbSymbolTableRecord
100
AcDbLinetypeTableRecord
  2
Amzigzag
 70
     0
  3
/\/-/\/-/\/-/\/-/\/-/\/
 72
    65
 73
     2
 40
11.0001
 49
0.0001
 74
     4
 75
   135
340
4A
 46
0.04
 50
0.0
 44
0.0
 45
0.0
 49
-11.0
 74
     0
  0
LTYPE
  5
188
330
5
100
AcDbSymbolTableRecord
100
AcDbLinetypeTableRecord
  2
ACJISTGB
 70
     0
  3
__ . . __ . .
 72
    65
 73
     6
 40
9.0
 49
4.0
 74
     0
 49
-1.0
 74
     0
 49
1.0
 74
     0
 49
-1.0
 74
     0
 49
1.0
 74
     0
 49
-1.0
 74
     0
  0
LTYPE
  5
189
330
5
100
AcDbSymbolTableRecord
100
AcDbLinetypeTableRecord
  2
ACJISTGL
 70
     0
  3
_ _ _ _ _
 72
    65
 73
     2
 40
3.0
 49
2.0
 74
     0
 49
-1.0
 74
     0
  0
LTYPE
  5
652
330
5
100
AcDbSymbolTableRecord
100
AcDbLinetypeTableRecord
  2
CENTER
 70
     0
  3
____ _ ____ _ ____ _ ____ _ ____ _ ____ _ ____
 72
    65
 73
     4
 40
17.5
 49
13.0
 74
     0
 49
-1.5
 74
     0
 49
1.5
 74
     0
 49
-1.5
 74
     0
  0
LTYPE
  5
12AB
330
5
100
AcDbSymbolTableRecord
100
AcDbLinetypeTableRecord
  2
HIDDEN
 70
     0
  3
Hidden __ __ __ __ __ __ __ __ __ __ __ __ __ _
 72
    65
 73
     2
 40
0.375
 49
0.25
 74
     0
 49
-0.125
 74
     0
  0
LTYPE
  5
12AC
330
5
100
AcDbSymbolTableRecord
100
AcDbLinetypeTableRecord
  2
PHANTOM2
 70
     0
  3
Phantom (.5x) ___ _ _ ___ _ _ ___ _ _ ___ _ _
 72
    65
 73
     6
 40
1.25
 49
0.625
 74
     0
 49
-0.125
 74
     0
 49
0.125
 74
     0
 49
-0.125
 74
     0
 49
0.125
 74
     0
 49
-0.125
 74
     0
  0
LTYPE
  5
F5A5
330
5
100
AcDbSymbolTableRecord
100
AcDbLinetypeTableRecord
  2
ACISOWELD
 70
     0
  3
_ _ _ _ _
 72
    65
 73
     2
 40
2.0
 49
2.0
 74
     0
 49
-1.0
 74
     0
  0
LTYPE
  5
F5A6
330
5
100
AcDbSymbolTableRecord
100
AcDbLinetypeTableRecord
  2
ACISOTGB
 70
     0
  3
__ . . __ . .
 72
    65
 73
     6
 40
9.0
 49
4.0
 74
     0
 49
-1.0
 74
     0
 49
1.0
 74
     0
 49
-1.0
 74
     0
 49
1.0
 74
     0
 49
-1.0
 74
     0
  0
LTYPE
  5
F5A7
330
5
100
AcDbSymbolTableRecord
100
AcDbLinetypeTableRecord
  2
ACISOTGL
 70
     0
  3
_ _ _ _ _
 72
    65
 73
     2
 40
3.0
 49
2.0
 74
     0
 49
-1.0
 74
     0
  0
ENDTAB
  0
TABLE
  2
LAYER
  5
2
102
{ACAD_XDICTIONARY
360
EDC8
102
}
330
0
100
AcDbSymbolTable
 70
     5
  0
LAYER
  5
10
330
2
100
AcDbSymbolTableRecord
100
AcDbLayerTableRecord
  2
0
 70
     0
 62
     7
  6
Continuous
370
    -3
390
F
  0
LAYER
  5
7D
330
2
100
AcDbSymbolTableRecord
100
AcDbLayerTableRecord
  2
AM_5
 70
     0
 62
     3
  6
Continuous
370
    13
390
F
  0
LAYER
  5
7F
330
2
100
AcDbSymbolTableRecord
100
AcDbLayerTableRecord
  2
Defpoints
 70
     0
 62
     7
  6
Continuous
290
     0
370
    -3
390
F
  0
LAYER
  5
12B1
330
2
100
AcDbSymbolTableRecord
100
AcDbLayerTableRecord
  2
AM_0
 70
     0
 62
     7
  6
Continuous
370
    30
390
F
  0
LAYER
  5
18A5
330
2
100
AcDbSymbolTableRecord
100
AcDbLayerTableRecord
  2
AM_6
 70
     0
 62
     2
  6
Continuous
370
    30
390
F
  0
ENDTAB
  0
TABLE
  2
STYLE
  5
3
330
0
100
AcDbSymbolTable
 70
     6
  0
STYLE
  5
11
330
3
100
AcDbSymbolTableRecord
100
AcDbTextStyleTableRecord
  2
STANDARD
 70
     0
 40
0.0
 41
1.0
 50
0.0
 71
     0
 42
3.5
  3
ISOCP.SHX
  4
EXTFONT.SHX
  0
STYLE
  5
4A
330
3
100
AcDbSymbolTableRecord
100
AcDbTextStyleTableRecord
  2

 70
     1
 40
0.0
 41
1.0
 50
0.0
 71
     0
 42
2.5
  3
ltypeshp.shx
  4

  0
STYLE
  5
180
330
3
100
AcDbSymbolTableRecord
100
AcDbTextStyleTableRecord
  2
ACJISTS
 70
     0
 40
1.0
 41
1.0
 50
0.0
 71
     0
 42
2.5
  3
isocp.shx
  4
bigfont.shx
  0
STYLE
  5
187
330
3
100
AcDbSymbolTableRecord
100
AcDbTextStyleTableRecord
  2
ACJISGDT
 70
     0
 40
0.0
 41
1.0
 50
0.0
 71
     0
 42
2.5
  3
amgdt.shx
  4

  0
STYLE
  5
F5A9
330
3
100
AcDbSymbolTableRecord
100
AcDbTextStyleTableRecord
  2
ACISOTS
 70
     0
 40
1.0
 41
1.0
 50
0.0
 71
     0
 42
1.0
  3
isocp.shx
  4
extfont.shx
  0
STYLE
  5
F5AA
330
3
100
AcDbSymbolTableRecord
100
AcDbTextStyleTableRecord
  2
ACISOGDT
 70
     0
 40
0.0
 41
1.0
 50
0.0
 71
     0
 42
1.0
  3
amgdt.shx
  4

  0
ENDTAB
  0
TABLE
  2
VIEW
  5
6
330
0
100
AcDbSymbolTable
 70
     6
  0
VIEW
  5
A30
330
6
100
AcDbSymbolTableRecord
100
AcDbViewTableRecord
  2
AM_VIEW1
 70
     0
 40
148.5
 10
109.5616966580977
 20
222.75
 41
219.1233933161954
 11
0.0
 21
0.0
 31
1.0
 12
0.0
 22
0.0
 32
0.0
 42
50.0
 43
0.0
 44
0.0
 50
0.0
 71
    16
281
     0
 72
     0
  0
VIEW
  5
A31
330
6
100
AcDbSymbolTableRecord
100
AcDbViewTableRecord
  2
AM_VIEW2
 70
     0
 40
148.5
 10
310.4383033419023
 20
222.75
 41
219.1233933161954
 11
0.0
 21
0.0
 31
1.0
 12
0.0
 22
0.0
 32
0.0
 42
50.0
 43
0.0
 44
0.0
 50
0.0
 71
    16
281
     0
 72
     0
  0
VIEW
  5
A32
330
6
100
AcDbSymbolTableRecord
100
AcDbViewTableRecord
  2
AM_VIEW3
 70
     0
 40
148.5
 10
109.5616966580977
 20
74.25
 41
219.1233933161954
 11
0.0
 21
0.0
 31
1.0
 12
0.0
 22
0.0
 32
0.0
 42
50.0
 43
0.0
 44
0.0
 50
0.0
 71
    16
281
     0
 72
     0
  0
VIEW
  5
A33
330
6
100
AcDbSymbolTableRecord
100
AcDbViewTableRecord
  2
AM_VIEW4
 70
     0
 40
148.5
 10
310.4383033419023
 20
74.25
 41
219.1233933161954
 11
0.0
 21
0.0
 31
1.0
 12
0.0
 22
0.0
 32
0.0
 42
50.0
 43
0.0
 44
0.0
 50
0.0
 71
    16
281
     0
 72
     0
  0
VIEW
  5
A34
330
6
100
AcDbSymbolTableRecord
100
AcDbViewTableRecord
  2
AM_VIEW5
 70
     0
 40
148.5
 10
210.0
 20
148.5
 41
219.1233933161954
 11
0.0
 21
0.0
 31
1.0
 12
0.0
 22
0.0
 32
0.0
 42
50.0
 43
0.0
 44
0.0
 50
0.0
 71
    16
281
     0
 72
     0
  0
VIEW
  5
A35
330
6
100
AcDbSymbolTableRecord
100
AcDbViewTableRecord
  2
AM_VIEW6
 70
     0
 40
296.99703
 10
210.0
 20
148.5
 41
438.2424041645245
 11
0.0
 21
0.0
 31
1.0
 12
0.0
 22
0.0
 32
0.0
 42
50.0
 43
0.0
 44
0.0
 50
0.0
 71
    16
281
     0
 72
     0
  0
ENDTAB
  0
TABLE
  2
UCS
  5
7
330
0
100
AcDbSymbolTable
 70
     0
  0
ENDTAB
  0
TABLE
  2
APPID
  5
9
330
0
100
AcDbSymbolTable
 70
    45
  0
APPID
  5
12
330
9
100
AcDbSymbolTableRecord
100
AcDbRegAppTableRecord
  2
ACAD
 70
     0
  0
APPID
  5
2C
330
9
100
AcDbSymbolTableRecord
100
AcDbRegAppTableRecord
  2
MCAD_NO_VIS
 70
     0
  0
APPID
  5
2D
330
9
100
AcDbSymbolTableRecord
100
AcDbRegAppTableRecord
  2
ACAD_TEMP_GRAPHIC
 70
     0
  0
APPID
  5
B9
330
9
100
AcDbSymbolTableRecord
100
AcDbRegAppTableRecord
  2
GENIUS_GENDTOL_13
 70
     0
  0
APPID
  5
359
330
9
100
AcDbSymbolTableRecord
100
AcDbRegAppTableRecord
  2
GENIUS_GENREC_14
 70
     0
  0
APPID
  5
35A
330
9
100
AcDbSymbolTableRecord
100
AcDbRegAppTableRecord
  2
GENIUS_GENODEF_13
 70
     0
  0
APPID
  5
35B
330
9
100
AcDbSymbolTableRecord
100
AcDbRegAppTableRecord
  2
GENIUS_GENOBJ-N-REC_13
 70
     0
  0
APPID
  5
667
330
9
100
AcDbSymbolTableRecord
100
AcDbRegAppTableRecord
  2
GENIUS_GENCFG_13
 70
     0
  0
APPID
  5
668
330
9
100
AcDbSymbolTableRecord
100
AcDbRegAppTableRecord
  2
GENIUS_GENCFG0_13
 70
     0
  0
APPID
  5
669
330
9
100
AcDbSymbolTableRecord
100
AcDbRegAppTableRecord
  2
GENIUS_GENCFG1_13
 70
     0
  0
APPID
  5
66A
330
9
100
AcDbSymbolTableRecord
100
AcDbRegAppTableRecord
  2
GENIUS_GENCFG2_13
 70
     0
  0
APPID
  5
66B
330
9
100
AcDbSymbolTableRecord
100
AcDbRegAppTableRecord
  2
GENIUS_GENCFG3_13
 70
     0
  0
APPID
  5
66C
330
9
100
AcDbSymbolTableRecord
100
AcDbRegAppTableRecord
  2
GENIUS_GENCFG4_13
 70
     0
  0
APPID
  5
A76
330
9
100
AcDbSymbolTableRecord
100
AcDbRegAppTableRecord
  2
GENIUS_GENBLLY_14
 70
     0
  0
APPID
  5
A77
330
9
100
AcDbSymbolTableRecord
100
AcDbRegAppTableRecord
  2
GENIUS_GENOBJ-N-CEN_13
 70
     0
  0
APPID
  5
A83
330
9
100
AcDbSymbolTableRecord
100
AcDbRegAppTableRecord
  2
GENIUS_GENTRA_14
 70
     0
  0
APPID
  5
A8D
330
9
100
AcDbSymbolTableRecord
100
AcDbRegAppTableRecord
  2
GENIUS_GENOBJ-N-TIT_13
 70
     0
  0
APPID
  5
A8E
330
9
100
AcDbSymbolTableRecord
100
AcDbRegAppTableRecord
  2
GENIUS_GENTITLE_13
 70
     0
  0
APPID
  5
A8F
330
9
100
AcDbSymbolTableRecord
100
AcDbRegAppTableRecord
  2
GENIUS_GENOENT_13
 70
     0
  0
APPID
  5
A90
330
9
100
AcDbSymbolTableRecord
100
AcDbRegAppTableRecord
  2
GENIUS_GENOREF_13
 70
     0
  0
APPID
  5
A91
330
9
100
AcDbSymbolTableRecord
100
AcDbRegAppTableRecord
  2
GENIUS_GENOLIS_13
 70
     0
  0
APPID
  5
A92
330
9
100
AcDbSymbolTableRecord
100
AcDbRegAppTableRecord
  2
GENIUS_GENZVEED_13
 70
     0
  0
APPID
  5
A93
330
9
100
AcDbSymbolTableRecord
100
AcDbRegAppTableRecord
  2
GENIUS_GENSCREG_15
 70
     0
  0
APPID
  5
A94
330
9
100
AcDbSymbolTableRecord
100
AcDbRegAppTableRecord
  2
GENIUS_GENOBJ-N-SDF_13
 70
     0
  0
APPID
  5
12B5
330
9
100
AcDbSymbolTableRecord
100
AcDbRegAppTableRecord
  2
GENIUS_GENOBJ-N-RSBK_13
 70
     0
  0
APPID
  5
12B6
330
9
100
AcDbSymbolTableRecord
100
AcDbRegAppTableRecord
  2
GENIUS_GENOBJ-N-LIB_13
 70
     0
  0
APPID
  5
12B7
330
9
100
AcDbSymbolTableRecord
100
AcDbRegAppTableRecord
  2
GENIUS_GENSCALE_13
 70
     0
  0
APPID
  5
12B8
330
9
100
AcDbSymbolTableRecord
100
AcDbRegAppTableRecord
  2
GENIUS_GENOBJ-N-HTC_13
 70
     0
  0
APPID
  5
12B9
330
9
100
AcDbSymbolTableRecord
100
AcDbRegAppTableRecord
  2
GENIUS_GENHATCH_13
 70
     0
  0
APPID
  5
18AA
330
9
100
AcDbSymbolTableRecord
100
AcDbRegAppTableRecord
  2
BASE_TYPE
 70
     0
  0
APPID
  5
18AB
330
9
100
AcDbSymbolTableRecord
100
AcDbRegAppTableRecord
  2
GENIUS_GENOBJ-N-FIL_13
 70
     0
  0
APPID
  5
1E91
330
9
100
AcDbSymbolTableRecord
100
AcDbRegAppTableRecord
  2
GENIUS_GENOBJ-N-CRS_13
 70
     0
  0
APPID
  5
3B24
330
9
100
AcDbSymbolTableRecord
100
AcDbRegAppTableRecord
  2
GENIUS_GENDIMSH_14
 70
     0
  0
APPID
  5
4D78
330
9
100
AcDbSymbolTableRecord
100
AcDbRegAppTableRecord
  2
GENIUS_GENOBJ-N-DIM_13
 70
     0
  0
APPID
  5
4D79
330
9
100
AcDbSymbolTableRecord
100
AcDbRegAppTableRecord
  2
GENIUS_GENDIM_13
 70
     0
  0
APPID
  5
517C
330
9
100
AcDbSymbolTableRecord
100
AcDbRegAppTableRecord
  2
GENIUS_GENFIL_13
 70
     0
  0
APPID
  5
517D
330
9
100
AcDbSymbolTableRecord
100
AcDbRegAppTableRecord
  2
GENIUS_GENOBJ-N-CHA_13
 70
     0
  0
APPID
  5
ED83
330
9
100
AcDbSymbolTableRecord
100
AcDbRegAppTableRecord
  2
AD_DRAW
 70
     0
  0
APPID
  5
ED86
330
9
100
AcDbSymbolTableRecord
100
AcDbRegAppTableRecord
  2
ACATTRIBSERVICES
 70
     0
  0
APPID
  5
EDA4
330
9
100
AcDbSymbolTableRecord
100
AcDbRegAppTableRecord
  2
DESIGNERASSEMBLIES
 70
     0
  0
APPID
  5
EDB7
330
9
100
AcDbSymbolTableRecord
100
AcDbRegAppTableRecord
  2
ACADM_DIM_EDIT
 70
     0
  0
APPID
  5
EDB8
330
9
100
AcDbSymbolTableRecord
100
AcDbRegAppTableRecord
  2
AMDT_DM_ADJ
 70
     0
  0
APPID
  5
F08C
330
9
100
AcDbSymbolTableRecord
100
AcDbRegAppTableRecord
  2
ACAD_PSEXT
 70
     0
  0
APPID
  5
F2B1
330
9
100
AcDbSymbolTableRecord
100
AcDbRegAppTableRecord
  2
GENIUS_GENCEN_19
 70
     0
  0
APPID
  5
10513
330
9
100
AcDbSymbolTableRecord
100
AcDbRegAppTableRecord
  2
ACAD_DSTYLE_DIMTEXT_FILL
 70
     0
  0
ENDTAB
  0
TABLE
  2
DIMSTYLE
  5
A
330
0
100
AcDbSymbolTable
 70
    17
100
AcDbDimStyleTable
  0
DIMSTYLE
105
58
330
A
100
AcDbSymbolTableRecord
100
AcDbDimStyleTableRecord
  2
AM_JIS
 70
     0
  4
"
 41
2.5
 42
0.0
 43
10.0
 44
1.0
 47
0.1
 48
0.1000000001
 73
     0
 74
     0
 77
     3
 78
     1
 79
     2
140
3.8
141
0.0
143
0.0393701
146
0.71
147
1.5
172
     1
176
   256
177
   256
178
     2
179
     1
271
     2
272
     2
275
     1
283
     0
284
     8
340
11
341
59
342
59
371
    -1
372
    -1
  0
DIMSTYLE
105
5F
330
A
100
AcDbSymbolTableRecord
100
AcDbDimStyleTableRecord
  2
AM_JIS$3
 70
     0
  4
"
 41
2.5
 42
0.0
 43
10.0
 44
1.0
 47
0.1
 48
0.1000000001
 73
     0
 77
     3
 78
     1
 79
     2
140
3.8
141
0.0
143
0.0393701
146
0.71
147
1.5
172
     1
176
   256
177
   256
178
     2
179
     1
271
     2
272
     2
275
     1
283
     0
284
     8
288
     1
289
     0
340
11
341
59
342
59
371
    -1
372
    -1
  0
DIMSTYLE
105
60
330
A
100
AcDbSymbolTableRecord
100
AcDbDimStyleTableRecord
  2
AM_JIS$4
 70
     0
  4
"
 41
2.5
 42
0.0
 43
10.0
 44
1.0
 47
0.1
 48
0.1000000001
 73
     0
 77
     3
 78
     1
 79
     2
140
3.8
141
0.0
143
0.0393701
146
0.71
147
1.5
172
     1
176
   256
177
   256
178
     2
179
     1
271
     2
272
     2
275
     1
283
     0
284
     8
288
     1
289
     0
340
11
341
59
342
59
371
    -1
372
    -1
  0
DIMSTYLE
105
61
330
A
100
AcDbSymbolTableRecord
100
AcDbDimStyleTableRecord
  2
AM_JIS$6
 70
     0
  4
"
 41
2.5
 42
0.0
 43
10.0
 44
1.0
 47
0.1
 48
0.1000000001
 73
     0
 74
     0
 78
     1
 79
     2
140
3.8
141
0.0
143
0.0393701
146
0.71
147
1.5
172
     1
176
   256
177
   256
178
     2
179
     1
271
     2
272
     2
275
     1
283
     0
284
     8
340
11
341
59
342
59
371
    -1
372
    -1
  0
DIMSTYLE
105
62
330
A
100
AcDbSymbolTableRecord
100
AcDbDimStyleTableRecord
  2
AM_JIS$7
 70
     0
  4
"
 41
2.5
 42
0.0
 43
10.0
 44
1.0
 47
0.1
 48
0.1000000001
 73
     0
 74
     0
 77
     3
 78
     1
 79
     2
140
5.0
141
0.0
143
0.0393701
146
0.71
147
1.5
172
     1
176
   256
177
   256
178
     2
179
     1
271
     2
272
     2
275
     1
283
     0
284
     8
340
11
341
59
342
59
371
    -1
372
    -1
  0
DIMSTYLE
105
63
330
A
100
AcDbSymbolTableRecord
100
AcDbDimStyleTableRecord
  2
AM_JIS$SF
 70
     0
  4
"
 41
2.5
 42
1.0
 43
10.0
 44
1.0
 47
0.1
 48
0.1
 73
     0
 74
     0
 75
     1
 76
     1
 77
     3
 78
     8
 79
     2
140
3.5
141
0.0
143
0.0393701
146
0.71
147
1.5
176
   256
177
   256
178
     2
271
     2
272
     3
274
     4
340
11
341
59
342
59
343
59
344
59
371
    -1
372
    -1
  0
DIMSTYLE
105
68
330
A
100
AcDbSymbolTableRecord
100
AcDbDimStyleTableRecord
  2
AM_JIS$SH
 70
     0
  4
"
 41
2.5
 42
1.0
 43
10.0
 44
1.0
 47
0.1
 48
0.1
 73
     0
 74
     0
 75
     1
 76
     1
 77
     3
 78
     8
 79
     2
140
3.5
141
0.0
143
0.0393701
144
2.0
146
0.71
147
1.5
173
     1
176
   256
177
   256
178
     2
271
     2
272
     3
274
     4
340
11
341
59
342
59
343
64
344
59
371
    -1
372
    -1
  0
DIMSTYLE
105
65F
330
A
100
AcDbSymbolTableRecord
100
AcDbDimStyleTableRecord
  2
STANDARD
 70
     0
340
11
  0
DIMSTYLE
105
18A8
102
{ACAD_REACTORS
330
D329
330
D81E
330
EECB
330
EFBF
330
F04E
330
FE88
102
}
330
A
100
AcDbSymbolTableRecord
100
AcDbDimStyleTableRecord
  2
AM_JIS$0
 70
     0
  4
"
 41
2.5
 42
0.0
 43
10.0
 44
1.0
 47
0.1
 48
0.1000000001
 73
     0
 74
     0
 77
     3
 78
     1
 79
     2
140
3.8
141
0.0
143
0.0393701
146
0.71
147
1.5
172
     1
176
     3
177
     3
178
     2
271
     2
272
     2
275
     1
283
     0
284
     8
289
     0
340
11
341
59
342
59
371
    13
372
    13
  0
DIMSTYLE
105
18A9
102
{ACAD_REACTORS
330
11E71
330
129D0
102
}
330
A
100
AcDbSymbolTableRecord
100
AcDbDimStyleTableRecord
  2
AM_JIS$2
 70
     0
  4
"
 41
2.5
 42
0.0
 43
10.0
 44
1.0
 47
0.1
 48
0.1000000001
 73
     0
 74
     0
 77
     3
 78
     1
 79
     2
140
3.8
141
0.0
143
0.0393701
146
0.71
147
1.5
172
     1
176
     3
177
     3
178
     2
271
     2
272
     2
275
     1
283
     0
284
     8
289
     0
340
11
341
59
342
59
371
    13
372
    13
  0
DIMSTYLE
105
F5AE
330
A
100
AcDbSymbolTableRecord
100
AcDbDimStyleTableRecord
  2
AM_ISO
 70
     0
  4
"
 41
2.5
 42
1.0
 43
10.0
 44
1.0
 47
0.1
 48
0.1
 73
     0
 74
     0
 77
     1
 78
     8
 79
     2
140
3.5
141
0.0
143
0.0393701
146
0.71
147
1.5
172
     1
176
   256
177
   256
178
     2
271
     2
272
     3
274
     4
283
     0
284
     8
340
11
371
    -1
372
    -1
  0
DIMSTYLE
105
F5AF
330
A
100
AcDbSymbolTableRecord
100
AcDbDimStyleTableRecord
  2
AM_ISO$3
 70
     0
  4
"
 41
2.5
 42
1.0
 43
10.0
 44
1.0
 47
0.1
 48
0.1
 73
     0
 77
     1
 78
     8
 79
     2
140
3.5
141
0.0
143
0.0393701
146
0.71
147
1.5
176
   256
177
   256
178
     2
271
     2
272
     3
274
     4
283
     0
284
     8
288
     1
289
     0
340
11
371
    -1
372
    -1
  0
DIMSTYLE
105
F5B0
330
A
100
AcDbSymbolTableRecord
100
AcDbDimStyleTableRecord
  2
AM_ISO$4
 70
     0
  4
"
 41
2.5
 42
1.0
 43
10.0
 44
1.0
 47
0.1
 48
0.1
 73
     0
 77
     1
 78
     8
 79
     2
140
3.5
141
0.0
143
0.0393701
146
0.71
147
1.5
176
   256
177
   256
178
     2
271
     2
272
     3
274
     4
283
     0
284
     8
288
     1
289
     0
340
11
371
    -1
372
    -1
  0
DIMSTYLE
105
F5B1
330
A
100
AcDbSymbolTableRecord
100
AcDbDimStyleTableRecord
  2
AM_ISO$6
 70
     0
  4
"
 41
2.5
 42
1.0
 43
10.0
 44
1.0
 47
0.1
 48
0.1
 73
     0
 74
     0
 78
     8
 79
     2
140
3.5
141
0.0
143
0.0393701
146
0.71
147
1.5
172
     1
176
   256
177
   256
178
     2
271
     2
272
     3
274
     4
283
     0
284
     8
340
11
371
    -1
372
    -1
  0
DIMSTYLE
105
F5B2
330
A
100
AcDbSymbolTableRecord
100
AcDbDimStyleTableRecord
  2
AM_ISO$7
 70
     0
  4
"
 41
2.5
 42
1.0
 43
10.0
 44
1.0
 47
0.1
 48
0.1
 73
     0
 74
     0
 77
     1
 78
     8
 79
     2
140
5.0
141
0.0
143
0.0393701
146
0.71
147
1.5
172
     1
176
   256
177
   256
178
     2
271
     2
272
     3
274
     4
283
     0
284
     8
340
11
371
    -1
372
    -1
  0
DIMSTYLE
105
F5B3
330
A
100
AcDbSymbolTableRecord
100
AcDbDimStyleTableRecord
  2
AM_ISO$SF
 70
     0
  4
"
 41
2.5
 42
1.0
 43
10.0
 44
1.0
 47
0.1
 48
0.1
 73
     0
 74
     0
 75
     1
 76
     1
 77
     1
 78
     8
 79
     2
140
3.5
141
0.0
143
0.0393701
146
0.71
147
1.5
172
     1
176
   256
177
   256
178
     2
271
     2
272
     3
274
     4
283
     0
284
     8
340
11
371
    -1
372
    -1
  0
DIMSTYLE
105
F5B4
330
A
100
AcDbSymbolTableRecord
100
AcDbDimStyleTableRecord
  2
AM_ISO$SH
 70
     0
  4
"
 41
2.5
 42
1.0
 43
10.0
 44
1.0
 47
0.1
 48
0.1
 73
     0
 74
     0
 75
     1
 76
     1
 77
     1
 78
     8
 79
     2
140
3.5
141
0.0
143
0.0393701
144
2.0
146
0.71
147
1.5
172
     1
173
     1
176
   256
177
   256
178
     2
271
     2
272
     3
274
     4
283
     0
284
     8
340
11
343
64
371
    -1
372
    -1
  0
ENDTAB
  0
TABLE
  2
BLOCK_RECORD
  5
1
330
0
100
AcDbSymbolTable
 70
    12
  0
BLOCK_RECORD
  5
1F
102
{ACAD_XDICTIONARY
360
165
102
}
330
1
100
AcDbSymbolTableRecord
100
AcDbBlockTableRecord
  2
*Model_Space
340
22
  0
BLOCK_RECORD
  5
1B
330
1
100
AcDbSymbolTableRecord
100
AcDbBlockTableRecord
  2
*Paper_Space
340
1E
  0
BLOCK_RECORD
  5
23
330
1
100
AcDbSymbolTableRecord
100
AcDbBlockTableRecord
  2
*Paper_Space0
340
26
  0
BLOCK_RECORD
  5
59
330
1
100
AcDbSymbolTableRecord
100
AcDbBlockTableRecord
  2
_Open30
340
0
102
{BLKREFS
331
12CC2
331
12CC3
331
12CD7
331
12CD8
331
12CAE
331
12CAF
331
12CE0
331
12CE1
331
12B67
331
12B68
331
12C9C
331
12C9D
331
12B18
331
12B19
331
12B25
331
12B26
102
}
  0
BLOCK_RECORD
  5
64
330
1
100
AcDbSymbolTableRecord
100
AcDbBlockTableRecord
  2
GENAXEH
340
0
  0
BLOCK_RECORD
  5
D32A
330
1
100
AcDbSymbolTableRecord
100
AcDbBlockTableRecord
  2
*D3
340
0
  0
BLOCK_RECORD
  5
D81F
330
1
100
AcDbSymbolTableRecord
100
AcDbBlockTableRecord
  2
*D4
340
0
  0
BLOCK_RECORD
  5
ED9B
330
1
100
AcDbSymbolTableRecord
100
AcDbBlockTableRecord
  2
*U5
340
0
  0
BLOCK_RECORD
  5
EECC
330
1
100
AcDbSymbolTableRecord
100
AcDbBlockTableRecord
  2
*D6
340
0
  0
BLOCK_RECORD
  5
EFC0
330
1
100
AcDbSymbolTableRecord
100
AcDbBlockTableRecord
  2
*D7
340
0
  0
BLOCK_RECORD
  5
F04F
330
1
100
AcDbSymbolTableRecord
100
AcDbBlockTableRecord
  2
*D8
340
0
  0
BLOCK_RECORD
  5
FE89
330
1
100
AcDbSymbolTableRecord
100
AcDbBlockTableRecord
  2
*D9
340
0
  0
BLOCK_RECORD
  5
11E72
330
1
100
AcDbSymbolTableRecord
100
AcDbBlockTableRecord
  2
*D10
340
0
  0
BLOCK_RECORD
  5
129D1
330
1
100
AcDbSymbolTableRecord
100
AcDbBlockTableRecord
  2
*D11
340
0
  0
ENDTAB
  0
ENDSEC
  0
SECTION
  2
BLOCKS
  0
BLOCK
  5
20
330
1F
100
AcDbEntity
  8
0
100
AcDbBlockBegin
  2
*Model_Space
 70
     0
 71
     0
 10
0.0
 20
0.0
 30
0.0
  3
*Model_Space
  1

  0
ENDBLK
  5
21
330
1F
100
AcDbEntity
  8
0
100
AcDbBlockEnd
  0
BLOCK
  5
1C
330
1B
100
AcDbEntity
 67
     1
  8
0
100
AcDbBlockBegin
  2
*Paper_Space
 70
     0
 71
     0
 10
0.0
 20
0.0
 30
0.0
  3
*Paper_Space
  1

  0
ENDBLK
  5
1D
330
1B
100
AcDbEntity
 67
     1
  8
0
100
AcDbBlockEnd
  0
BLOCK
  5
24
330
23
100
AcDbEntity
  8
0
100
AcDbBlockBegin
  2
*Paper_Space0
 70
     0
 71
     0
 10
0.0
 20
0.0
 30
0.0
  3
*Paper_Space0
  1

  0
ENDBLK
  5
25
330
23
100
AcDbEntity
  8
0
100
AcDbBlockEnd
  0
BLOCK
  5
5D
330
59
100
AcDbEntity
  8
0
100
AcDbBlockBegin
  2
_Open30
 70
     0
 71
     0
 10
0.0
 20
0.0
 30
0.0
  3
_Open30
  1

  0
LINE
  5
5A
330
59
100
AcDbEntity
  8
0
 62
     0
370
    -2
100
AcDbLine
 10
-1.0
 20
0.26794919
 30
0.0
 11
0.0
 21
0.0
 31
0.0
  0
LINE
  5
5B
330
59
100
AcDbEntity
  8
0
 62
     0
370
    -2
100
AcDbLine
 10
0.0
 20
0.0
 30
0.0
 11
-1.0
 21
-0.26794919
 31
0.0
  0
LINE
  5
5C
330
59
100
AcDbEntity
  8
0
 62
     0
370
    -2
100
AcDbLine
 10
0.0
 20
0.0
 30
0.0
 11
-1.0
 21
0.0
 31
0.0
  0
ENDBLK
  5
5E
330
59
100
AcDbEntity
  8
0
100
AcDbBlockEnd
  0
BLOCK
  5
66
330
64
100
AcDbEntity
  8
0
100
AcDbBlockBegin
  2
GENAXEH
 70
     0
 71
     0
 10
0.0
 20
0.0
 30
0.0
  3
GENAXEH
  1

  0
LINE
  5
65
330
64
100
AcDbEntity
  8
0
100
AcDbLine
 10
-1.0
 20
0.0
 30
0.0
 11
1.0
 21
0.0
 31
0.0
  0
ENDBLK
  5
67
330
64
100
AcDbEntity
  8
0
100
AcDbBlockEnd
  0
BLOCK
  5
D334
330
D32A
100
AcDbEntity
  8
0
100
AcDbBlockBegin
  2
*D3
 70
     1
 71
     0
 10
0.0
 20
0.0
 30
0.0
  3
*D3
  1

  0
LINE
  5
12CBF
330
D32A
100
AcDbEntity
  8
AM_5
 62
     3
370
    13
100
AcDbLine
 10
0.0
 20
-24.97160314876754
 30
0.0
 11
-0.0000000000000004
 21
-32.04242916497509
 31
0.0
  0
LINE
  5
12CC0
330
D32A
100
AcDbEntity
  8
AM_5
 62
     3
370
    13
100
AcDbLine
 10
150.0000000000006
 20
-12.49999999999915
 30
0.0
 11
150.0000000000006
 21
-32.04242916497509
 31
0.0
  0
LINE
  5
12CC1
330
D32A
100
AcDbEntity
  8
AM_5
 62
     3
370
    13
100
AcDbLine
 10
2.5
 20
-31.04242916497509
 30
0.0
 11
147.5000000000006
 21
-31.04242916497509
 31
0.0
  0
INSERT
  5
12CC2
330
D32A
100
AcDbEntity
  8
AM_5
 62
     3
370
    13
100
AcDbBlockReference
  2
_Open30
 10
-0.0000000000000004
 20
-31.04242916497509
 30
0.0
 41
2.5
 42
2.5
 43
2.5
 50
180.0
  0
INSERT
  5
12CC3
330
D32A
100
AcDbEntity
  8
AM_5
 62
     3
370
    13
100
AcDbBlockReference
  2
_Open30
 10
150.0000000000006
 20
-31.04242916497509
 30
0.0
 41
2.5
 42
2.5
 43
2.5
  0
MTEXT
  5
12CC4
330
D32A
100
AcDbEntity
  8
AM_5
 62
     2
370
    13
100
AcDbMText
 10
75.0000000000003
 20
-27.64242916497509
 30
0.0
 40
3.8
 41
0.0
 71
     5
 72
     1
  1
150
 73
     1
 44
1.0
  0
POINT
  5
12CC5
330
D32A
100
AcDbEntity
  8
Defpoints
 62
     0
100
AcDbPoint
 10
0.0
 20
-24.97160314876754
 30
0.0
  0
POINT
  5
12CC6
330
D32A
100
AcDbEntity
  8
Defpoints
 62
     0
100
AcDbPoint
 10
150.0000000000006
 20
-12.49999999999915
 30
0.0
  0
POINT
  5
12CC7
330
D32A
100
AcDbEntity
  8
Defpoints
 62
     0
100
AcDbPoint
 10
150.0000000000006
 20
-31.04242916497509
 30
0.0
  0
ENDBLK
  5
D335
330
D32A
100
AcDbEntity
  8
0
100
AcDbBlockEnd
  0
BLOCK
  5
D829
330
D81F
100
AcDbEntity
  8
0
100
AcDbBlockBegin
  2
*D4
 70
     1
 71
     0
 10
0.0
 20
0.0
 30
0.0
  3
*D4
  1

  0
LINE
  5
12CD4
330
D81F
100
AcDbEntity
  8
AM_5
 62
     3
370
    13
100
AcDbLine
 10
0.0000000000029843
 20
-74.45478299747924
 30
0.0
 11
-21.68260210568192
 21
-74.45478299747924
 31
0.0
  0
LINE
  5
12CD5
330
D81F
100
AcDbEntity
  8
AM_5
 62
     3
370
    13
100
AcDbLine
 10
6.934750096527629
 20
-99.45478299747924
 30
0.0
 11
-21.68260210568193
 21
-99.45478299747924
 31
0.0
  0
LINE
  5
12CD6
330
D81F
100
AcDbEntity
  8
AM_5
 62
     3
370
    13
100
AcDbLine
 10
-20.68260210568192
 20
-76.95478299747924
 30
0.0
 11
-20.68260210568193
 21
-96.95478299747924
 31
0.0
  0
INSERT
  5
12CD7
330
D81F
100
AcDbEntity
  8
AM_5
 62
     3
370
    13
100
AcDbBlockReference
  2
_Open30
 10
-20.68260210568192
 20
-74.45478299747924
 30
0.0
 41
2.5
 42
2.5
 43
2.5
 50
90.0
  0
INSERT
  5
12CD8
330
D81F
100
AcDbEntity
  8
AM_5
 62
     3
370
    13
100
AcDbBlockReference
  2
_Open30
 10
-20.68260210568193
 20
-99.45478299747924
 30
0.0
 41
2.5
 42
2.5
 43
2.5
 50
270.0
  0
MTEXT
  5
12CD9
330
D81F
100
AcDbEntity
  8
AM_5
 62
     2
370
    13
100
AcDbMText
 10
-24.08297612142994
 20
-86.95478299747924
 30
0.0
 40
3.8
 41
0.0
 71
     5
 72
     1
  1
25
 11
6.123031769111886E-17
 21
1.0
 31
0.0
 73
     1
 44
1.0
  0
POINT
  5
12CDA
330
D81F
100
AcDbEntity
  8
Defpoints
 62
     0
100
AcDbPoint
 10
0.0000000000029843
 20
-74.45478299747924
 30
0.0
  0
POINT
  5
12CDB
330
D81F
100
AcDbEntity
  8
Defpoints
 62
     0
100
AcDbPoint
 10
6.934750096527629
 20
-99.45478299747924
 30
0.0
  0
POINT
  5
12CDC
330
D81F
100
AcDbEntity
  8
Defpoints
 62
     0
100
AcDbPoint
 10
-20.68260210568193
 20
-99.45478299747924
 30
0.0
  0
ENDBLK
  5
D82A
330
D81F
100
AcDbEntity
  8
0
100
AcDbBlockEnd
  0
BLOCK
  5
ED9C
330
ED9B
100
AcDbEntity
  8
0
100
AcDbBlockBegin
  2
*U5
 70
     1
 71
     0
 10
0.0
 20
0.0
 30
0.0
  3
*U5
  1

  0
ENDBLK
  5
ED9D
330
ED9B
100
AcDbEntity
  8
0
100
AcDbBlockEnd
  0
BLOCK
  5
EEEB
330
EECC
100
AcDbEntity
  8
0
100
AcDbBlockBegin
  2
*D6
 70
     1
 71
     0
 10
0.0
 20
0.0
 30
0.0
  3
*D6
  1

  0
LINE
  5
12CAB
330
EECC
100
AcDbEntity
  8
AM_5
 62
     3
370
    13
100
AcDbLine
 10
150.0000000000006
 20
12.50000000000074
 30
0.0
 11
163.0000000000006
 21
12.50000000000074
 31
0.0
  0
LINE
  5
12CAC
330
EECC
100
AcDbEntity
  8
AM_5
 62
     3
370
    13
100
AcDbLine
 10
150.0000000000005
 20
-12.49999999999915
 30
0.0
 11
163.0000000000006
 21
-12.49999999999915
 31
0.0
  0
LINE
  5
12CAD
330
EECC
100
AcDbEntity
  8
AM_5
 62
     3
370
    13
100
AcDbLine
 10
162.0000000000006
 20
10.00000000000074
 30
0.0
 11
162.0000000000006
 21
-9.999999999999151
 31
0.0
  0
INSERT
  5
12CAE
330
EECC
100
AcDbEntity
  8
AM_5
 62
     3
370
    13
100
AcDbBlockReference
  2
_Open30
 10
162.0000000000006
 20
12.50000000000074
 30
0.0
 41
2.5
 42
2.5
 43
2.5
 50
90.0
  0
INSERT
  5
12CAF
330
EECC
100
AcDbEntity
  8
AM_5
 62
     3
370
    13
100
AcDbBlockReference
  2
_Open30
 10
162.0000000000006
 20
-12.49999999999915
 30
0.0
 41
2.5
 42
2.5
 43
2.5
 50
270.0
  0
MTEXT
  5
12CB0
330
EECC
100
AcDbEntity
  8
AM_5
 62
     2
370
    13
100
AcDbMText
 10
158.5996259842525
 20
0.0000000000008192
 30
0.0
 40
3.8
 41
0.0
 71
     5
 72
     1
  1
25
 11
6.123031769111886E-17
 21
1.0
 31
0.0
 73
     1
 44
1.0
  0
POINT
  5
12CB1
330
EECC
100
AcDbEntity
  8
Defpoints
 62
     0
100
AcDbPoint
 10
150.0000000000006
 20
12.50000000000074
 30
0.0
  0
POINT
  5
12CB2
330
EECC
100
AcDbEntity
  8
Defpoints
 62
     0
100
AcDbPoint
 10
150.0000000000005
 20
-12.49999999999915
 30
0.0
  0
POINT
  5
12CB3
330
EECC
100
AcDbEntity
  8
Defpoints
 62
     0
100
AcDbPoint
 10
162.0000000000006
 20
-12.49999999999915
 30
0.0
  0
ENDBLK
  5
EEEC
330
EECC
100
AcDbEntity
  8
0
100
AcDbBlockEnd
  0
BLOCK
  5
EFDF
330
EFC0
100
AcDbEntity
  8
0
100
AcDbBlockBegin
  2
*D7
 70
     1
 71
     0
 10
0.0
 20
0.0
 30
0.0
  3
*D7
  1

  0
LINE
  5
12CDD
330
EFC0
100
AcDbEntity
  8
AM_5
 62
     3
370
    13
100
AcDbLine
 10
150.0000000000006
 20
-74.45478299747924
 30
0.0
 11
163.0000000000006
 21
-74.45478299747926
 31
0.0
  0
LINE
  5
12CDE
330
EFC0
100
AcDbEntity
  8
AM_5
 62
     3
370
    13
100
AcDbLine
 10
150.0000000000006
 20
-99.45478299747923
 30
0.0
 11
163.0000000000006
 21
-99.45478299747924
 31
0.0
  0
LINE
  5
12CDF
330
EFC0
100
AcDbEntity
  8
AM_5
 62
     3
370
    13
100
AcDbLine
 10
162.0000000000006
 20
-76.95478299747926
 30
0.0
 11
162.0000000000006
 21
-96.95478299747924
 31
0.0
  0
INSERT
  5
12CE0
330
EFC0
100
AcDbEntity
  8
AM_5
 62
     3
370
    13
100
AcDbBlockReference
  2
_Open30
 10
162.0000000000006
 20
-74.45478299747926
 30
0.0
 41
2.5
 42
2.5
 43
2.5
 50
90.0
  0
INSERT
  5
12CE1
330
EFC0
100
AcDbEntity
  8
AM_5
 62
     3
370
    13
100
AcDbBlockReference
  2
_Open30
 10
162.0000000000006
 20
-99.45478299747924
 30
0.0
 41
2.5
 42
2.5
 43
2.5
 50
270.0
  0
MTEXT
  5
12CE2
330
EFC0
100
AcDbEntity
  8
AM_5
 62
     2
370
    13
100
AcDbMText
 10
158.5996259842526
 20
-86.95478299747923
 30
0.0
 40
3.8
 41
0.0
 71
     5
 72
     1
  1
25
 11
6.123031769111886E-17
 21
1.0
 31
0.0
 73
     1
 44
1.0
  0
POINT
  5
12CE3
330
EFC0
100
AcDbEntity
  8
Defpoints
 62
     0
100
AcDbPoint
 10
150.0000000000006
 20
-74.45478299747924
 30
0.0
  0
POINT
  5
12CE4
330
EFC0
100
AcDbEntity
  8
Defpoints
 62
     0
100
AcDbPoint
 10
150.0000000000006
 20
-99.45478299747923
 30
0.0
  0
POINT
  5
12CE5
330
EFC0
100
AcDbEntity
  8
Defpoints
 62
     0
100
AcDbPoint
 10
162.0000000000006
 20
-99.45478299747924
 30
0.0
  0
ENDBLK
  5
EFE0
330
EFC0
100
AcDbEntity
  8
0
100
AcDbBlockEnd
  0
BLOCK
  5
F06E
330
F04F
100
AcDbEntity
  8
0
100
AcDbBlockBegin
  2
*D8
 70
     1
 71
     0
 10
0.0
 20
0.0
 30
0.0
  3
*D8
  1

  0
LINE
  5
12B64
330
F04F
100
AcDbEntity
  8
AM_5
 62
     3
370
    13
100
AcDbLine
 10
0.0063620296059241
 20
-74.45221597827111
 30
0.0
 11
0.0063620296059258
 21
-47.73336793893412
 31
0.0
  0
LINE
  5
12B65
330
F04F
100
AcDbEntity
  8
AM_5
 62
     3
370
    13
100
AcDbLine
 10
37.00000000000063
 20
-65.95478299747924
 30
0.0
 11
37.00000000000063
 21
-47.73336793893412
 31
0.0
  0
LINE
  5
12B66
330
F04F
100
AcDbEntity
  8
AM_5
 62
     3
370
    13
100
AcDbLine
 10
2.506362029605926
 20
-48.73336793893412
 30
0.0
 11
34.50000000000063
 21
-48.73336793893412
 31
0.0
  0
INSERT
  5
12B67
330
F04F
100
AcDbEntity
  8
AM_5
 62
     3
370
    13
100
AcDbBlockReference
  2
_Open30
 10
0.0063620296059257
 20
-48.73336793893412
 30
0.0
 41
2.5
 42
2.5
 43
2.5
 50
180.0
  0
INSERT
  5
12B68
330
F04F
100
AcDbEntity
  8
AM_5
 62
     3
370
    13
100
AcDbBlockReference
  2
_Open30
 10
37.00000000000063
 20
-48.73336793893412
 30
0.0
 41
2.5
 42
2.5
 43
2.5
  0
MTEXT
  5
12B69
330
F04F
100
AcDbEntity
  8
AM_5
 62
     2
370
    13
100
AcDbMText
 10
18.71186367754888
 20
-45.33336793893412
 30
0.0
 40
3.8
 41
0.0
 71
     5
 72
     1
  1
37
 73
     1
 44
1.0
  0
POINT
  5
12B6A
330
F04F
100
AcDbEntity
  8
Defpoints
 62
     0
100
AcDbPoint
 10
0.0063620296059241
 20
-74.45221597827111
 30
0.0
  0
POINT
  5
12B6B
330
F04F
100
AcDbEntity
  8
Defpoints
 62
     0
100
AcDbPoint
 10
37.00000000000063
 20
-65.95478299747924
 30
0.0
  0
POINT
  5
12B6C
330
F04F
100
AcDbEntity
  8
Defpoints
 62
     0
100
AcDbPoint
 10
37.00000000000063
 20
-48.73336793893412
 30
0.0
  0
ENDBLK
  5
F06F
330
F04F
100
AcDbEntity
  8
0
100
AcDbBlockEnd
  0
BLOCK
  5
FEC3
330
FE89
100
AcDbEntity
  8
0
100
AcDbBlockBegin
  2
*D9
 70
     1
 71
     0
 10
0.0
 20
0.0
 30
0.0
  3
*D9
  1

  0
LINE
  5
12C99
330
FE89
100
AcDbEntity
  8
AM_5
 62
     3
370
    13
100
AcDbLine
 10
34.44535785757967
 20
12.50000000000074
 30
0.0
 11
-10.06626814130038
 21
12.50000000000075
 31
0.0
  0
LINE
  5
12C9A
330
FE89
100
AcDbEntity
  8
AM_5
 62
     3
370
    13
100
AcDbLine
 10
-8.056241553697873
 20
0.0
 30
0.0
 11
-10.06626814130038
 21
0.0000000000000006
 31
0.0
  0
LINE
  5
12C9B
330
FE89
100
AcDbEntity
  8
AM_5
 62
     3
370
    13
100
AcDbLine
 10
-9.066268141300382
 20
10.00000000000075
 30
0.0
 11
-9.066268141300384
 21
2.5
 31
0.0
  0
INSERT
  5
12C9C
330
FE89
100
AcDbEntity
  8
AM_5
 62
     3
370
    13
100
AcDbBlockReference
  2
_Open30
 10
-9.06626814130038
 20
12.50000000000075
 30
0.0
 41
2.5
 42
2.5
 43
2.5
 50
90.0
  0
INSERT
  5
12C9D
330
FE89
100
AcDbEntity
  8
AM_5
 62
     3
370
    13
100
AcDbBlockReference
  2
_Open30
 10
-9.066268141300384
 20
0.0000000000000003
 30
0.0
 41
2.5
 42
2.5
 43
2.5
 50
270.0
  0
MTEXT
  5
12C9E
330
FE89
100
AcDbEntity
  8
AM_5
 62
     2
370
    13
100
AcDbMText
 10
-12.46664215704842
 20
5.27618263172468
 30
0.0
 40
3.8
 41
0.0
 71
     5
 72
     1
  1
{12.5
 11
6.123031769111886E-17
 21
1.0
 31
0.0
 73
     1
 44
1.0
  0
POINT
  5
12C9F
330
FE89
100
AcDbEntity
  8
Defpoints
 62
     0
100
AcDbPoint
 10
34.44535785757967
 20
12.50000000000074
 30
0.0
  0
POINT
  5
12CA0
330
FE89
100
AcDbEntity
  8
Defpoints
 62
     0
100
AcDbPoint
 10
-8.056241553697873
 20
0.0
 30
0.0
  0
POINT
  5
12CA1
330
FE89
100
AcDbEntity
  8
Defpoints
 62
     0
100
AcDbPoint
 10
-9.066268141300384
 20
0.0000000000000003
 30
0.0
  0
ENDBLK
  5
FEC4
330
FE89
100
AcDbEntity
  8
0
100
AcDbBlockEnd
  0
BLOCK
  5
11EA6
330
11E72
100
AcDbEntity
  8
0
100
AcDbBlockBegin
  2
*D10
 70
     1
 71
     0
 10
0.0
 20
0.0
 30
0.0
  3
*D10
  1

  0
LINE
  5
12B16
330
11E72
100
AcDbEntity
  8
AM_5
 62
     3
370
    13
100
AcDbLine
 10
13.60334182616714
 20
-4.289117202497152
 30
0.0
 11
22.77156118707596
 21
-7.179845663168484
 31
0.0
  0
ARC
  5
12B17
330
11E72
100
AcDbEntity
  8
AM_5
 62
     3
370
    13
100
AcDbCircle
 10
0.0000000000000051
 20
0.0000000000000493
 30
0.0
 40
22.87664512957514
100
AcDbArc
 50
276.2645034036351
 51
336.2354965963654
  0
INSERT
  5
12B18
330
11E72
100
AcDbEntity
  8
AM_5
 62
     3
370
    13
100
AcDbBlockReference
  2
_Open30
 10
0.0000000000000036
 20
-22.87664512957509
 30
0.0
 41
2.5
 42
2.5
 43
2.5
 50
183.1322517018176
  0
INSERT
  5
12B19
330
11E72
100
AcDbEntity
  8
AM_5
 62
     3
370
    13
100
AcDbBlockReference
  2
_Open30
 10
21.81784423632773
 20
-6.879139863664217
 30
0.0
 41
2.5
 42
2.5
 43
2.5
 50
69.36774829818285
  0
MTEXT
  5
12B1A
330
11E72
100
AcDbEntity
  8
AM_5
 62
     2
370
    13
100
AcDbMText
 10
12.20017396961462
 20
-15.18159713635007
 30
0.0
 40
3.8
 41
0.0
 71
     5
 72
     1
  1
72°30'
 11
0.7794919801445975
 21
0.6264122068496546
 31
0.0
 73
     1
 44
1.0
  0
POINT
  5
12B1B
330
11E72
100
AcDbEntity
  8
Defpoints
 62
     0
100
AcDbPoint
 10
9.36552269818889
 20
-20.8717003853117
 30
0.0
  0
POINT
  5
12B1C
330
11E72
100
AcDbEntity
  8
Defpoints
 62
     0
100
AcDbPoint
 10
0.5494269557381131
 20
-0.1732336537216384
 30
0.0
  0
POINT
  5
12B1D
330
11E72
100
AcDbEntity
  8
Defpoints
 62
     0
100
AcDbPoint
 10
0.0
 20
-74.45478299747924
 30
0.0
  0
POINT
  5
12B1E
330
11E72
100
AcDbEntity
  8
Defpoints
 62
     0
100
AcDbPoint
 10
0.0
 20
0.5921520639412847
 30
0.0
  0
POINT
  5
12B1F
330
11E72
100
AcDbEntity
  8
Defpoints
 62
     0
100
AcDbPoint
 10
13.60334182616714
 20
-4.289117202497152
 30
0.0
  0
ENDBLK
  5
11EA7
330
11E72
100
AcDbEntity
  8
0
100
AcDbBlockEnd
  0
BLOCK
  5
129E1
330
129D1
100
AcDbEntity
  8
0
100
AcDbBlockBegin
  2
*D11
 70
     1
 71
     0
 10
0.0
 20
0.0
 30
0.0
  3
*D11
  1

  0
LINE
  5
12B20
330
129D1
100
AcDbEntity
  8
AM_5
 62
     3
370
    13
100
AcDbLine
 10
-4.022415051841904
 20
-74.45360239800499
 30
0.0
 11
-15.46714495562144
 21
-74.45360239800505
 31
0.0
  0
LINE
  5
12B21
330
129D1
100
AcDbEntity
  8
AM_5
 62
     3
370
    13
100
AcDbLine
 10
-0.0046223413446072
 20
-74.45360239800499
 30
0.0
 11
-15.00326777028078
 21
-78.2126236661112
 31
0.0
  0
ARC
  5
12B22
330
129D1
100
AcDbEntity
  8
AM_5
 62
     3
370
    13
100
AcDbCircle
 10
-0.0046223413446072
 20
-74.45360239800499
 30
0.0
 40
14.46252261427684
100
AcDbArc
 50
160.1668916899144
 51
170.0834458449573
  0
ARC
  5
12B23
330
129D1
100
AcDbEntity
  8
AM_5
 62
     3
370
    13
100
AcDbCircle
 10
-0.0046223413446072
 20
-74.45360239800499
 30
0.0
 40
14.46252261427684
100
AcDbArc
 50
203.9864448713033
 51
213.9029990263462
  0
ARC
  5
12B24
330
129D1
100
AcDbEntity
  8
AM_5
 62
     3
370
    13
100
AcDbCircle
 10
-0.0046223413446072
 20
-74.45360239800499
 30
0.0
 40
14.46252261427684
100
AcDbArc
 50
180.0000000000001
 51
194.0698907162604
  0
INSERT
  5
12B25
330
129D1
100
AcDbEntity
  8
AM_5
 62
     3
370
    13
100
AcDbBlockReference
  2
_Open30
 10
-14.46714495562144
 20
-74.45360239800503
 30
0.0
 41
2.5
 42
2.5
 43
2.5
 50
265.0417229224787
  0
INSERT
  5
12B26
330
129D1
100
AcDbEntity
  8
AM_5
 62
     3
370
    13
100
AcDbBlockReference
  2
_Open30
 10
-14.03326786773656
 20
-77.96951836163549
 30
0.0
 41
2.5
 42
2.5
 43
2.5
 50
109.0281677937819
  0
MTEXT
  5
12B27
330
129D1
100
AcDbEntity
  8
AM_5
 62
     2
370
    13
100
AcDbMText
 10
-15.72302265705437
 20
-65.96822640983295
 30
0.0
 40
3.8
 41
0.0
 71
     5
 72
     1
  1
-14°
 11
0.4750379423671093
 21
0.8799653136980019
 31
0.0
 73
     1
 44
1.0
  0
POINT
  5
12B28
330
129D1
100
AcDbEntity
  8
Defpoints
 62
     0
100
AcDbPoint
 10
-14.27377119749382
 20
-76.8107089483172
 30
0.0
  0
POINT
  5
12B29
330
129D1
100
AcDbEntity
  8
Defpoints
 62
     0
100
AcDbPoint
 10
0.0000000000000036
 20
-74.45360239800499
 30
0.0
  0
POINT
  5
12B2A
330
129D1
100
AcDbEntity
  8
Defpoints
 62
     0
100
AcDbPoint
 10
12.28666096904107
 20
-71.37311118998423
 30
0.0
  0
POINT
  5
12B2B
330
129D1
100
AcDbEntity
  8
Defpoints
 62
     0
100
AcDbPoint
 10
0.5360672926080383
 20
-74.31809257192754
 30
0.0
  0
POINT
  5
12B2C
330
129D1
100
AcDbEntity
  8
Defpoints
 62
     0
100
AcDbPoint
 10
-4.022415051841904
 20
-74.45360239800499
 30
0.0
  0
ENDBLK
  5
129E2
330
129D1
100
AcDbEntity
  8
0
100
AcDbBlockEnd
  0
ENDSEC
  0
SECTION
  2
ENTITIES
  0
DIMENSION
  5
D329
330
1F
100
AcDbEntity
  8
AM_5
370
    13
100
AcDbDimension
  2
*D3
 10
150.0000000000006
 20
-31.04242916497509
 30
0.0
 11
75.0000000000003
 21
-31.04242916497509
 31
0.0
 70
   160
  1
<>
 71
     5
 42
150.0000000000006
  3
AM_JIS$0
100
AcDbAlignedDimension
 13
0.0
 23
-24.97160314876754
 33
0.0
 14
150.0000000000006
 24
-12.49999999999915
 34
0.0
100
AcDbRotatedDimension
1001
ACAD
1000
DSTYLE
1002
{
1070
   271
1070
     0
1002
}
  0
DIMENSION
  5
D81E
330
1F
100
AcDbEntity
  8
AM_5
370
    13
100
AcDbDimension
  2
*D4
 10
-20.68260210568193
 20
-99.45478299747924
 30
0.0
 11
-20.68260210568191
 21
-86.95478299747924
 31
0.0
 70
   160
  1
<>
 71
     5
 42
25.0
  3
AM_JIS$0
100
AcDbAlignedDimension
 13
0.0000000000029843
 23
-74.45478299747924
 33
0.0
 14
6.934750096527629
 24
-99.45478299747924
 34
0.0
 50
270.0
100
AcDbRotatedDimension
1001
ACAD
1000
DSTYLE
1002
{
1070
   271
1070
     0
1002
}
  0
DIMENSION
  5
EECB
330
1F
100
AcDbEntity
  8
AM_5
370
    13
100
AcDbDimension
  2
*D6
 10
162.0000000000006
 20
-12.49999999999915
 30
0.0
 11
158.5996259842525
 21
0.0000000000008192
 31
0.0
 70
    32
  1
<>
 71
     5
 42
24.99999999999989
  3
AM_JIS$0
100
AcDbAlignedDimension
 13
150.0000000000006
 23
12.50000000000074
 33
0.0
 14
150.0000000000005
 24
-12.49999999999915
 34
0.0
 50
90.0
100
AcDbRotatedDimension
1001
ACAD
1000
DSTYLE
1002
{
1070
   179
1070
     1
1070
   271
1070
     0
1002
}
  0
DIMENSION
  5
EFBF
330
1F
100
AcDbEntity
  8
AM_5
370
    13
100
AcDbDimension
  2
*D7
 10
162.0000000000006
 20
-99.45478299747924
 30
0.0
 11
158.5996259842526
 21
-86.95478299747923
 31
0.0
 70
    32
  1
<>
 71
     5
 42
24.99999999999999
  3
AM_JIS$0
100
AcDbAlignedDimension
 13
150.0000000000006
 23
-74.45478299747924
 33
0.0
 14
150.0000000000006
 24
-99.45478299747923
 34
0.0
 50
90.0
100
AcDbRotatedDimension
1001
ACAD
1000
DSTYLE
1002
{
1070
   179
1070
     1
1070
   271
1070
     0
1002
}
  0
DIMENSION
  5
F04E
330
1F
100
AcDbEntity
  8
AM_5
370
    13
100
AcDbDimension
  2
*D8
 10
37.00000000000063
 20
-48.73336793893412
 30
0.0
 11
18.71186367754888
 21
-48.73336793893412
 31
0.0
 70
   160
  1
<>
 71
     5
 42
36.9936379703947
  3
AM_JIS$0
100
AcDbAlignedDimension
 13
0.0063620296059241
 23
-74.45221597827111
 33
0.0
 14
37.00000000000063
 24
-65.95478299747924
 34
0.0
100
AcDbRotatedDimension
1001
ACAD
1000
DSTYLE
1002
{
1070
   179
1070
     1
1070
   271
1070
     0
1002
}
  0
DIMENSION
  5
FE88
330
1F
100
AcDbEntity
  8
AM_5
370
    13
100
AcDbDimension
  2
*D9
 10
-9.066268141300384
 20
0.0000000000000003
 30
0.0
 11
-9.066268141300384
 21
5.27618263172468
 31
0.0
 70
   160
  1
{<>
 71
     5
 42
12.50000000000075
  3
AM_JIS$0
100
AcDbAlignedDimension
 13
34.44535785757967
 23
12.50000000000074
 33
0.0
 14
-8.056241553697873
 24
0.0
 34
0.0
 50
90.0
100
AcDbRotatedDimension
1001
ACAD
1000
DSTYLE
1002
{
1070
   179
1070
     1
1070
   271
1070
     1
1002
}
  0
LINE
  5
11851
330
1F
100
AcDbEntity
  8
AM_0
370
    30
100
AcDbLine
 10
13.60334182616714
 20
-4.289117202497152
 30
0.0
 11
13.91538832052777
 21
-4.184657604440929
 31
0.0
  0
LINE
  5
11852
330
1F
100
AcDbEntity
  8
AM_0
370
    30
100
AcDbLine
 10
22.13295893741827
 20
-1.433772274359797
 30
0.0
 11
26.58317809988387
 21
0.0559675989441644
 31
0.0
  0
LINE
  5
11855
330
1F
100
AcDbEntity
  8
AM_0
370
    30
100
AcDbLine
 10
0.5494269557381131
 20
-0.1732336537216384
 30
0.0
 11
13.60334182616714
 21
-4.289117202497152
 31
0.0
  0
LINE
  5
11856
330
1F
100
AcDbEntity
  8
AM_0
370
    30
100
AcDbLine
 10
13.60334182616714
 20
-4.289117202497039
 30
0.0
 11
14.23081803874527
 21
-4.284112212571301
 31
0.0
  0
LINE
  5
11857
330
1F
100
AcDbEntity
  8
AM_0
370
    30
100
AcDbLine
 10
13.51590356632471
 20
5.69773975696495
 30
0.0
 11
0.5360672926079815
 21
1.352654955523747
 31
0.0
  0
LINE
  5
11858
330
1F
100
AcDbEntity
  8
AM_0
370
    30
100
AcDbLine
 10
13.82968143570781
 20
5.598805974771324
 30
0.0
 11
13.51590356632448
 21
5.69773975696495
 31
0.0
  0
LINE
  5
11859
330
1F
100
AcDbEntity
  8
AM_0
370
    30
100
AcDbLine
 10
13.51590356632471
 20
5.697739756964836
 30
0.0
 11
14.04270570325468
 21
5.701941732012358
 31
0.0
  0
ELLIPSE
  5
1185A
330
1F
100
AcDbEntity
  8
AM_0
370
    30
100
AcDbEllipse
 10
26.34312338217308
 20
0.8168572701047765
 30
0.0
 11
0.006380902564988421
 21
-0.7999745521467895
 31
0.0
210
0.0
220
0.0
230
1.0
 40
0.9701505847080268
 41
0.3062354807069171
 42
1.254448839677073
  0
ELLIPSE
  5
1185C
330
1F
100
AcDbEntity
  8
AM_0
370
    30
100
AcDbEllipse
 10
0.7761220103187725
 20
0.5917652843631345
 30
0.0
 11
0.006380902564988421
 21
-0.7999745521467895
 31
0.0
210
0.0
220
0.0
230
1.0
 40
0.9701505847080268
 41
3.44782813429671
 42
5.978555549688583
  0
LINE
  5
1185D
330
1F
100
AcDbEntity
  8
AM_0
370
    30
100
AcDbLine
 10
150.0000000000006
 20
-12.49999999999915
 30
0.0
 11
150.0000000000006
 21
12.50000000000074
 31
0.0
  0
LINE
  5
1185F
330
1F
100
AcDbEntity
  8
AM_0
370
    30
100
AcDbLine
 10
40.28828504215064
 20
-12.49999999999915
 30
0.0
 11
150.0000000000006
 21
-12.49999999999915
 31
0.0
  0
LINE
  5
11863
330
1F
100
AcDbEntity
  8
AM_0
370
    30
100
AcDbLine
 10
150.0000000000006
 20
12.50000000000074
 30
0.0
 11
34.44535785757967
 21
12.50000000000074
 31
0.0
  0
LINE
  5
11865
330
1F
100
AcDbEntity
  8
AM_0
370
    30
100
AcDbLine
 10
37.80000000000053
 20
-11.71544673982353
 30
0.0
 11
37.80000000000052
 21
12.50000000000074
 31
0.0
  0
LINE
  5
11868
330
1F
100
AcDbEntity
  8
AM_0
370
    30
100
AcDbLine
 10
22.11355929177637
 20
-1.433927013342498
 30
0.0
 11
13.90563619823786
 21
-4.181582772093918
 31
0.0
  0
LINE
  5
1186A
330
1F
100
AcDbEntity
  8
AM_0
370
    30
100
AcDbLine
 10
13.82003391235696
 20
5.595576403442294
 30
0.0
 11
13.86983533130763
 21
5.579874076362728
 31
0.0
  0
LINE
  5
1186C
330
1F
100
AcDbEntity
  8
AM_0
370
    30
100
AcDbLine
 10
13.95466285765895
 20
5.640644320458421
 30
0.0
 11
13.82003391235696
 21
5.595576403442294
 31
0.0
  0
LINE
  5
1186E
330
1F
100
AcDbEntity
  8
AM_0
370
    30
100
AcDbLine
 10
37.00000000000057
 20
12.50000000000074
 30
0.0
 11
37.00000000000057
 21
-11.46320770872036
 31
0.0
  0
LINE
  5
11873
330
1F
100
AcDbEntity
  8
AM_0
370
    30
100
AcDbLine
 10
37.00000000000057
 20
-4.062145726187339
 30
0.0
 11
37.00000000000057
 21
-6.759107684884896
 31
0.0
  0
LINE
  5
11879
330
1F
100
AcDbEntity
  8
AM_0
370
    30
100
AcDbLine
 10
37.00000000000057
 20
12.50000000000074
 30
0.0
 11
37.00000000000057
 21
-4.062145726187339
 31
0.0
  0
LINE
  5
1187B
330
1F
100
AcDbEntity
  8
AM_0
370
    30
100
AcDbLine
 10
13.90563619823786
 20
-4.181582772094032
 30
0.0
 11
40.28828504215064
 21
-12.49999999999915
 31
0.0
  0
LINE
  5
11882
330
1F
100
AcDbEntity
  8
AM_0
370
    30
100
AcDbLine
 10
23.08298606859182
 20
7.219713123886606
 30
0.0
 11
25.18856850478289
 21
6.429450049830109
 31
0.0
  0
LINE
  5
11883
330
1F
100
AcDbEntity
  8
AM_0
370
    30
100
AcDbLine
 10
25.18856850478289
 20
6.429450049829995
 30
0.0
 11
25.57827937598529
 21
4.155063809404226
 31
0.0
  0
LINE
  5
11884
330
1F
100
AcDbEntity
  8
AM_0
370
    30
100
AcDbLine
 10
25.57827937598529
 20
4.155063809404226
 30
0.0
 11
23.86240781099662
 21
2.670940643035067
 31
0.0
  0
LINE
  5
11885
330
1F
100
AcDbEntity
  8
AM_0
370
    30
100
AcDbLine
 10
23.86240781099639
 20
2.670940643035067
 30
0.0
 11
21.75682537480532
 21
3.461203717091564
 31
0.0
  0
LINE
  5
11886
330
1F
100
AcDbEntity
  8
AM_0
370
    30
100
AcDbLine
 10
22.60555987158921
 20
3.467973547598092
 30
0.0
 11
24.12470453785238
 21
2.897811148224434
 31
0.0
  0
LINE
  5
11887
330
1F
100
AcDbEntity
  8
AM_0
370
    30
100
AcDbLine
 10
21.75682537480554
 20
3.461203717091678
 30
0.0
 11
22.60555987158921
 21
3.467973547598092
 31
0.0
  0
LINE
  5
11888
330
1F
100
AcDbEntity
  8
AM_0
370
    30
100
AcDbLine
 10
21.75682537480554
 20
3.461203717091564
 30
0.0
 11
21.36711450360315
 21
5.735589957517334
 31
0.0
  0
LINE
  5
11889
330
1F
100
AcDbEntity
  8
AM_0
370
    30
100
AcDbLine
 10
22.21584900038681
 20
5.742359788023862
 30
0.0
 11
22.60555987158898
 21
3.467973547598206
 31
0.0
  0
LINE
  5
1188A
330
1F
100
AcDbEntity
  8
AM_0
370
    30
100
AcDbLine
 10
21.36711450360315
 20
5.735589957517448
 30
0.0
 11
22.21584900038681
 21
5.742359788023862
 31
0.0
  0
LINE
  5
1188B
330
1F
100
AcDbEntity
  8
AM_0
370
    30
100
AcDbLine
 10
21.36711450360315
 20
5.735589957517448
 30
0.0
 11
23.08298606859182
 21
7.219713123886606
 31
0.0
  0
LINE
  5
1188C
330
1F
100
AcDbEntity
  8
AM_0
370
    30
100
AcDbLine
 10
23.66942383851995
 20
6.999612449203539
 30
0.0
 11
22.21584900038681
 21
5.742359788023862
 31
0.0
  0
LINE
  5
1188D
330
1F
100
AcDbEntity
  8
AM_0
370
    30
100
AcDbLine
 10
24.65127624746572
 20
9.20486287817829
 30
0.0
 11
23.84236281217511
 21
9.198410675667276
 31
0.0
  0
LINE
  5
1188E
330
1F
100
AcDbEntity
  8
AM_0
370
    30
100
AcDbLine
 10
24.7190733372189
 20
0.7051332616189825
 30
0.0
 11
23.9101599019283
 21
0.6986810591079689
 31
0.0
  0
ARC
  5
1188F
330
1F
100
AcDbEntity
  8
AM_0
370
    30
100
AcDbCircle
 10
23.97440188550957
 20
4.949328673725802
 30
0.0
 40
4.251133046155027
100
AcDbArc
 50
91.77987808413222
 51
269.1341285734966
  0
ELLIPSE
  5
11890
330
1F
100
AcDbEntity
  8
AM_0
370
    30
100
AcDbEllipse
 10
23.47269693979422
 20
4.945326883460837
 30
0.0
 11
-0.02062456414045723
 21
2.585704184234781
 31
0.0
210
0.0
220
0.0
230
1.0
 40
0.9701505847080268
 41
0.000000000000002
 42
6.283185307179588
  0
ELLIPSE
  5
11891
330
1F
100
AcDbEntity
  8
AM_0
370
    30
100
AcDbEllipse
 10
24.68517479234231
 20
4.954998069898636
 30
0.0
 11
0.03389854487650099
 21
-4.24986480827982
 31
0.0
210
0.0
220
0.0
230
0.9999999999999999
 40
0.9701505847080265
 41
0.0000000000000435
 42
3.141592653589836
  0
ELLIPSE
  5
11892
330
1F
100
AcDbEntity
  8
AM_0
370
    30
100
AcDbEllipse
 10
23.54372224798874
 20
4.945893408445897
 30
0.0
 11
0.02626453848269967
 21
-3.292788472484365
 31
0.0
210
0.0
220
0.0
230
1.0
 40
0.9701505847080264
 41
0.0000000000000288
 42
6.283185307179615
  0
ELLIPSE
  5
11893
330
1F
100
AcDbEntity
  8
AM_0
370
    30
100
AcDbEllipse
 10
23.70479109473661
 20
4.947178155085169
 30
0.0
 11
-0.03156239101250876
 21
3.956980906345915
 31
0.0
210
0.0
220
0.0
230
1.0
 40
0.9701505847080264
 41
0.0000000000000198
 42
6.283185307179605
  0
ELLIPSE
  5
11894
330
1F
100
AcDbEntity
  8
AM_0
370
    30
100
AcDbEllipse
 10
23.8762613570517
 20
4.948545867387622
 30
0.0
 11
0.03389854487650099
 21
-4.24986480827982
 31
0.0
210
0.0
220
0.0
230
0.9999999999999999
 40
0.9701505847080265
 41
-0.0000000000000644
 42
3.141592653589891
  0
LINE
  5
11896
330
1F
100
AcDbEntity
  8
AM_0
370
    30
100
AcDbLine
 10
19.67495040747019
 20
-1.905919529128994
 30
0.0
 11
30.32995026129004
 21
1.660911126349731
 31
0.0
  0
LINE
  5
11897
330
1F
100
AcDbEntity
  8
AM_0
370
    30
100
AcDbLine
 10
16.77709466827685
 20
-2.396637330598935
 30
0.0
 11
17.32126439954527
 21
-2.374786434542955
 31
0.0
  0
LINE
  5
118A5
330
1F
100
AcDbEntity
  8
AM_0
370
    30
100
AcDbLine
 10
28.0560231662256
 20
1.753043722034761
 30
0.0
 11
26.89036495372886
 21
1.36283203708075
 31
0.0
  0
LINE
  5
118A6
330
1F
100
AcDbEntity
  8
AM_0
370
    30
100
AcDbLine
 10
24.95136834768562
 20
0.7137402838955609
 30
0.0
 11
23.78571013519115
 21
0.3235285989422323
 31
0.0
  0
ARC
  5
118A8
330
1F
100
AcDbEntity
  8
AM_0
370
    30
100
AcDbCircle
 10
24.15118208586262
 20
4.788651677308224
 30
0.0
 40
4.480055117036296
100
AcDbArc
 50
239.9595019377438
 51
265.3207504862486
  0
ARC
  5
118A9
330
1F
100
AcDbEntity
  8
AM_0
370
    30
100
AcDbCircle
 10
24.09182964325453
 20
5.308379101801222
 30
0.0
 40
5.324963844965368
100
AcDbArc
 50
318.1122696323528
 51
337.7372817769699
  0
ARC
  5
118AA
330
1F
100
AcDbEntity
  8
AM_0
370
    30
100
AcDbCircle
 10
25.03723604838166
 20
5.502691771561729
 30
0.0
 40
4.120300355242941
100
AcDbArc
 50
58.02002366372322
 51
95.14667310310699
  0
LINE
  5
118AE
330
1F
100
AcDbEntity
  8
AM_0
370
    30
100
AcDbLine
 10
30.59282069393669
 20
1.742888174920665
 30
0.0
 11
34.0067814693906
 21
2.728350362960953
 31
0.0
  0
ELLIPSE
  5
118AF
330
1F
100
AcDbEntity
  8
AM_0
370
    30
100
AcDbEllipse
 10
33.55667887368315
 20
4.155018496386958
 30
0.0
 11
1.649692616207646
 21
0.3117770252661239
 31
0.0
210
0.0
220
0.0
230
1.0
 40
0.8897482969020343
 41
4.818212940105805
 42
6.389009266900701
  0
LINE
  5
118B0
330
1F
100
AcDbEntity
  8
AM_0
370
    30
100
AcDbLine
 10
34.26763656930746
 20
7.473427506712312
 30
0.0
 11
35.16784176072213
 21
4.620091239860301
 31
0.0
  0
LINE
  5
118B1
330
1F
100
AcDbEntity
  8
AM_0
370
    30
100
AcDbLine
 10
34.26763656930746
 20
7.473427506712312
 30
0.0
 11
33.51746557646004
 21
9.851207729094483
 31
0.0
  0
LINE
  5
118B6
330
1F
100
AcDbEntity
  8
AM_0
370
    30
100
AcDbLine
 10
15.92875693611074
 20
-2.401063216413093
 30
0.0
 11
16.77700070538333
 21
-2.39429730013677
 31
0.0
  0
LINE
  5
118B7
330
1F
100
AcDbEntity
  8
AM_0
370
    30
100
AcDbLine
 10
10.73777518512122
 20
-0.9996010726588906
 30
0.0
 11
10.25902683407082
 21
0.5178641072524783
 31
0.0
  0
LINE
  5
118B8
330
1F
100
AcDbEntity
  8
AM_0
370
    30
100
AcDbLine
 10
11.9874508366978
 20
-2.043008468336154
 30
0.0
 11
15.15170555749194
 21
-2.370339526427927
 31
0.0
  0
LINE
  5
118B9
330
1F
100
AcDbEntity
  8
AM_0
370
    30
100
AcDbLine
 10
15.15170106788116
 20
-2.374316996219648
 30
0.0
 11
15.9284748584563
 21
-2.407638805599902
 31
0.0
  0
SPLINE
  5
118BA
330
1F
100
AcDbEntity
  8
AM_0
370
    30
100
AcDbSpline
210
0.0
220
0.0
230
1.0
 70
     8
 71
     3
 72
     8
 73
     4
 74
     0
 42
0.0000000001
 43
0.0000000001
 40
0.0
 40
0.0
 40
0.0
 40
0.0
 40
5.40400696004931
 40
5.40400696004931
 40
5.40400696004931
 40
5.40400696004931
 10
10.44894924500215
 20
1.812368896372789
 30
0.0
 10
11.00395504992196
 20
2.62893681870429
 30
0.0
 10
11.80765423795867
 20
3.583751461529175
 30
0.0
 10
12.78821300311699
 20
4.628231357474249
 30
0.0
  0
ARC
  5
118BB
330
1F
100
AcDbEntity
  8
AM_0
370
    30
100
AcDbCircle
 10
18.48251449950965
 20
-0.7561312569112602
 30
0.0
 40
7.836863549597065
100
AcDbArc
 50
109.4924432739026
 51
136.6024999876525
  0
LINE
  5
118BC
330
1F
100
AcDbEntity
  8
AM_0
370
    30
100
AcDbLine
 10
15.86596231112742
 20
6.635990330614334
 30
0.0
 11
18.55794195501289
 21
7.56562309955217
 31
0.0
  0
LINE
  5
118BD
330
1F
100
AcDbEntity
  8
AM_0
370
    30
100
AcDbLine
 10
18.55933426896934
 20
7.561591313073166
 30
0.0
 11
21.86699895874347
 21
8.668853628923955
 31
0.0
  0
LINE
  5
118BE
330
1F
100
AcDbEntity
  8
AM_0
370
    30
100
AcDbLine
 10
23.34600114085663
 20
9.163959250233745
 30
0.0
 11
25.18451037935199
 21
9.77941220210738
 31
0.0
  0
ELLIPSE
  5
118C0
330
1F
100
AcDbEntity
  8
AM_0
370
    30
100
AcDbEllipse
 10
16.67426643608758
 20
7.605201360377748
 30
0.0
 11
0.07976128206240911
 21
-9.999681901834867
 31
0.0
210
0.0
220
0.0
230
1.0
 40
0.9701505847080263
 41
0.0585101987256658
 42
0.3062354807068475
  0
ELLIPSE
  5
118D0
330
1F
100
AcDbEntity
  8
AM_0
370
    30
100
AcDbEllipse
 10
24.22388452165649
 20
4.800578144874237
 30
0.0
 11
0.03589257692805936
 21
-4.499856855825691
 31
0.0
210
0.0
220
0.0
230
1.0
 40
0.9701505847080268
 41
5.218365979743821
 42
6.174426600748602
  0
ELLIPSE
  5
118D1
330
1F
100
AcDbEntity
  8
AM_0
370
    30
100
AcDbEllipse
 10
24.10263673640168
 20
4.79961102623048
 30
0.0
 11
-0.03589257692805936
 21
4.499856855825691
 31
0.0
210
0.0
220
0.0
230
1.0
 40
0.9701505847080268
 41
1.630604633158225
 42
2.606759463728766
  0
ELLIPSE
  5
118D2
330
1F
100
AcDbEntity
  8
AM_0
370
    30
100
AcDbEllipse
 10
25.0252172777756
 20
5.108450876279051
 30
0.0
 11
-0.03589257692805936
 21
4.499856855825691
 31
0.0
210
0.0
220
0.0
230
1.0
 40
0.9701505847080268
 41
4.288896804863389
 42
5.748352117318444
  0
ELLIPSE
  5
118D5
330
1F
100
AcDbEntity
  8
AM_0
370
    30
100
AcDbEllipse
 10
30.45119804654485
 20
1.661878244993488
 30
0.0
 11
-0.4768320260037911
 21
-0.1504367607239666
 31
0.0
210
0.0
220
0.0
230
1.0
 40
0.0731078059497285
 41
4.387853719199952
 42
4.946359079838445
  0
ARC
  5
118D6
330
1F
100
AcDbEntity
  8
AM_0
370
    30
100
AcDbCircle
 10
12.16827126313262
 20
-0.5482907904868739
 30
0.0
 40
1.5
100
AcDbArc
 50
197.5100763921491
 51
263.0985649425197
  0
ARC
  5
118D7
330
1F
100
AcDbEntity
  8
AM_0
370
    30
100
AcDbCircle
 10
11.68952291208223
 20
0.9691743894244951
 30
0.0
 40
1.5
100
AcDbArc
 50
145.7967929732052
 51
197.5100763921491
  0
LINE
  5
118D8
330
1F
100
AcDbEntity
  8
AM_0
370
    30
100
AcDbLine
 10
2.978964288749182
 20
-83.52338728961888
 30
0.0
 11
15.91155541230131
 21
-80.2989301719557
 31
0.0
  0
LINE
  5
118DA
330
1F
100
AcDbEntity
  8
AM_0
370
    30
100
AcDbLine
 10
14.75729489058239
 20
-75.68108697713916
 30
0.0
 11
15.91155541230131
 21
-80.29893017195576
 31
0.0
  0
LINE
  5
118DB
330
1F
100
AcDbEntity
  8
AM_0
370
    30
100
AcDbLine
 10
15.91155541230154
 20
-80.29893017195565
 30
0.0
 11
16.23357518188544
 21
-80.21822427298957
 31
0.0
  0
LINE
  5
118DC
330
1F
100
AcDbEntity
  8
AM_0
370
    30
100
AcDbLine
 10
1.275460190571209
 20
-79.04208504749022
 30
0.0
 11
2.429537423719637
 21
-83.65919496081398
 31
0.0
  0
ELLIPSE
  5
118DD
330
1F
100
AcDbEntity
  8
AM_0
370
    30
100
AcDbEllipse
 10
3.205659343329842
 20
-83.46519814150821
 30
0.0
 11
0.7761219196101143
 21
0.1939968193056573
 31
0.0
210
0.0
220
0.0
230
1.0
 40
0.0019342372875622
 41
3.141592653589857
 42
4.415497360036474
  0
LINE
  5
118DE
330
1F
100
AcDbEntity
  8
AM_0
370
    30
100
AcDbLine
 10
13.6033418261672
 20
-71.06308895009727
 30
0.0
 11
13.92503584387913
 21
-70.98246469238478
 31
0.0
  0
LINE
  5
118DF
330
1F
100
AcDbEntity
  8
AM_0
370
    30
100
AcDbLine
 10
14.75762074179301
 20
-75.68100573330753
 30
0.0
 11
15.07931475950517
 21
-75.60038147559493
 31
0.0
  0
LINE
  5
118E0
330
1F
100
AcDbEntity
  8
AM_0
370
    30
100
AcDbLine
 10
0.5494269557381699
 20
-74.31779547527839
 30
0.0
 11
13.6033418261672
 21
-71.06308895009732
 31
0.0
  0
LINE
  5
118E1
330
1F
100
AcDbEntity
  8
AM_0
370
    30
100
AcDbLine
 10
13.6033418261672
 20
-71.06308895009732
 30
0.0
 11
14.75762074179301
 21
-75.68100573330753
 31
0.0
  0
LINE
  5
118E2
330
1F
100
AcDbEntity
  8
AM_0
370
    30
100
AcDbLine
 10
1.703705871363979
 20
-78.93571225848859
 30
0.0
 11
14.75762074179301
 21
-75.68100573330753
 31
0.0
  0
LINE
  5
118E4
330
1F
100
AcDbEntity
  8
AM_0
370
    30
100
AcDbLine
 10
12.28666096904107
 20
-71.37311118998423
 30
0.0
 11
0.5360672926080383
 21
-74.31809257192754
 31
0.0
  0
LINE
  5
118E5
330
1F
100
AcDbEntity
  8
AM_0
370
    30
100
AcDbLine
 10
0.0000000907083972
 20
-74.45360314647337
 30
0.0
 11
1.154279006334207
 21
-79.07151992968363
 31
0.0
  0
ELLIPSE
  5
118E6
330
1F
100
AcDbEntity
  8
AM_0
370
    30
100
AcDbEllipse
 10
0.7761220103188293
 20
-74.25960632716772
 30
0.0
 11
0.7761219196101143
 21
0.1939968193056573
 31
0.0
210
0.0
220
0.0
230
1.0
 40
0.0019342372875622
 41
1.884769944644585
 42
4.415497360036463
  0
ELLIPSE
  5
118E7
330
1F
100
AcDbEntity
  8
AM_0
370
    30
100
AcDbEllipse
 10
1.930400925944639
 20
-78.87752311037798
 30
0.0
 11
0.7761219196101143
 21
0.1939968193056573
 31
0.0
210
0.0
220
0.0
230
1.0
 40
0.0019342372875622
 41
3.141592653589857
 42
4.415497360036474
  0
ELLIPSE
  5
118E8
330
1F
100
AcDbEntity
  8
AM_0
370
    30
100
AcDbEllipse
 10
13.55962269624587
 20
-71.06406119070516
 30
0.0
 11
1.848140321071584
 21
0.4619549259715964
 31
0.0
210
0.0
220
0.0
230
1.0
 40
0.0019342372875622
 41
2.328998137634476
 42
4.910155019002898
  0
LINE
  5
118E9
330
1F
100
AcDbEntity
  8
AM_0
370
    30
100
AcDbLine
 10
37.00000000000063
 20
-65.95478299747924
 30
0.0
 11
33.75576027645701
 21
-65.95478299747924
 31
0.0
  0
LINE
  5
118EA
330
1F
100
AcDbEntity
  8
AM_0
370
    30
100
AcDbLine
 10
37.80000000000058
 20
-74.45478299747924
 30
0.0
 11
150.0000000000006
 21
-74.45478299747924
 31
0.0
  0
LINE
  5
118EB
330
1F
100
AcDbEntity
  8
AM_0
370
    30
100
AcDbLine
 10
150.0000000000006
 20
-74.45478299747924
 30
0.0
 11
150.0000000000006
 21
-99.45478299747923
 31
0.0
  0
LINE
  5
118EC
330
1F
100
AcDbEntity
  8
AM_0
370
    30
100
AcDbLine
 10
6.934750096527629
 20
-99.45478299747924
 30
0.0
 11
150.0000000000006
 21
-99.45478299747923
 31
0.0
  0
LINE
  5
118EF
330
1F
100
AcDbEntity
  8
AM_0
370
    30
100
AcDbLine
 10
37.00000000000063
 20
-73.65478299747923
 30
0.0
 11
37.00000000000063
 21
-65.95478299747924
 31
0.0
  0
LINE
  5
118F0
330
1F
100
AcDbEntity
  8
AM_0
370
    30
100
AcDbLine
 10
33.70764705143569
 20
-65.95478299747924
 30
0.0
 11
33.75576027645678
 21
-65.95478299747924
 31
0.0
  0
LINE
  5
118F1
330
1F
100
AcDbEntity
  8
AM_0
370
    30
100
AcDbLine
 10
33.75576027645701
 20
-65.95478299747924
 30
0.0
 11
32.35929803624293
 21
-66.30383799262495
 31
0.0
  0
LINE
  5
118F8
330
1F
100
AcDbEntity
  8
AM_0
370
    30
100
AcDbLine
 10
33.70764705143591
 20
-65.95478299747924
 30
0.0
 11
31.94578060899534
 21
-66.38403909779404
 31
0.0
  0
LINE
  5
118FC
330
1F
100
AcDbEntity
  8
AM_0
370
    30
100
AcDbLine
 10
13.90563619823769
 20
-70.90485264560823
 30
0.0
 11
16.23359367513007
 21
-80.21829825880531
 31
0.0
  0
LINE
  5
118FD
330
1F
100
AcDbEntity
  8
AM_0
370
    30
100
AcDbLine
 10
13.90563619823791
 20
-70.90485264560823
 30
0.0
 11
32.35929803624293
 21
-66.30383799262495
 31
0.0
  0
LINE
  5
118FE
330
1F
100
AcDbEntity
  8
AM_0
370
    30
100
AcDbLine
 10
32.35929803624271
 20
-66.30383799262495
 30
0.0
 11
40.8686378295822
 21
-99.45478299747926
 31
0.0
  0
LINE
  5
11900
330
1F
100
AcDbEntity
  8
AM_0
370
    30
100
AcDbLine
 10
16.23359367513029
 20
-80.21829825880525
 30
0.0
 11
16.17293180174255
 21
-80.23342296255157
 31
0.0
  0
LINE
  5
11901
330
1F
100
AcDbEntity
  8
AM_0
370
    30
100
AcDbLine
 10
7.518122989344137
 20
-99.45478299747923
 30
0.0
 11
3.503288503303963
 21
-83.39265858031132
 31
0.0
  0
LINE
  5
11903
330
1F
100
AcDbEntity
  8
AM_0
370
    30
100
AcDbLine
 10
6.934750096527632
 20
-99.45478299747924
 30
0.0
 11
2.954139022526704
 21
-83.52957598103171
 31
0.0
  0
ARC
  5
11904
330
1F
100
AcDbEntity
  8
AM_0
370
    30
100
AcDbCircle
 10
37.80000000000058
 20
-73.65478299747923
 30
0.0
 40
0.8
100
AcDbArc
 50
180.0
 51
270.0
  0
LINE
  5
11909
330
1F
100
AcDbEntity
  8
AM_0
370
    30
100
AcDbLine
 10
23.08298606859188
 20
-56.67037339888128
 30
0.0
 11
25.18856850478295
 21
-56.14564469610201
 31
0.0
  0
LINE
  5
1190A
330
1F
100
AcDbEntity
  8
AM_0
370
    30
100
AcDbLine
 10
25.18856850478295
 20
-56.14564469610201
 30
0.0
 11
25.1897929032088
 21
-56.15054313959212
 31
0.0
  0
LINE
  5
1190B
330
1F
100
AcDbEntity
  8
AM_0
370
    30
100
AcDbLine
 10
25.18856850478295
 20
-56.14564469610201
 30
0.0
 11
25.57827937598535
 21
-56.05276843669066
 31
0.0
  0
LINE
  5
1190C
330
1F
100
AcDbEntity
  8
AM_0
370
    30
100
AcDbLine
 10
25.57827937598535
 20
-56.05276843669066
 30
0.0
 11
23.86240781099667
 21
-56.48462088005852
 31
0.0
  0
LINE
  5
1190D
330
1F
100
AcDbEntity
  8
AM_0
370
    30
100
AcDbLine
 10
23.86240781099644
 20
-56.48462088005852
 30
0.0
 11
21.75682537480537
 21
-57.00934958283773
 31
0.0
  0
LINE
  5
1190E
330
1F
100
AcDbEntity
  8
AM_0
370
    30
100
AcDbLine
 10
21.7568253748056
 20
-57.00934958283773
 30
0.0
 11
21.3671145036032
 21
-57.10222584224914
 31
0.0
  0
LINE
  5
1190F
330
1F
100
AcDbEntity
  8
AM_0
370
    30
100
AcDbLine
 10
21.3671145036032
 20
-57.10222584224914
 30
0.0
 11
23.08298606859188
 21
-56.67037339888128
 31
0.0
  0
LINE
  5
11910
330
1F
100
AcDbEntity
  8
AM_0
370
    30
100
AcDbLine
 10
23.08298606859211
 20
-56.67037339888134
 30
0.0
 11
23.08498279196846
 21
-56.67836167820121
 31
0.0
  0
SPLINE
  5
11911
330
1F
100
AcDbEntity
  8
AM_0
370
    30
100
AcDbSpline
210
0.0
220
0.0
230
1.0
 70
     8
 71
     3
 72
    60
 73
    56
 74
     0
 42
0.0000000001
 43
0.0000000001
 40
0.0
 40
0.0
 40
0.0
 40
0.0
 40
0.3242703839548532
 40
0.3242703839548532
 40
0.4817116795374177
 40
0.4817116795374177
 40
0.6379310340495492
 40
0.6379310340495492
 40
0.6848842793655089
 40
0.6848842793655089
 40
0.7196019494404351
 40
0.7196019494404351
 40
0.7582528658426005
 40
0.7582528658426005
 40
0.7951027272786414
 40
0.7951027272786414
 40
0.8593068662227565
 40
0.8593068662227565
 40
1.027433387558583
 40
1.027433387558583
 40
1.533045544294164
 40
1.533045544294164
 40
2.538464358124553
 40
2.538464358124553
 40
3.368732004584556
 40
3.368732004584556
 40
4.195359802815454
 40
4.195359802815454
 40
5.020795406880635
 40
5.020795406880635
 40
5.845962335374195
 40
5.845962335374195
 40
6.6712865952589
 40
6.6712865952589
 40
7.49743687730228
 40
7.49743687730228
 40
8.326934122567042
 40
8.326934122567042
 40
8.612286891209205
 40
8.612286891209205
 40
8.662394365136271
 40
8.662394365136271
 40
8.712486757145967
 40
8.712486757145967
 40
8.754237809507204
 40
8.754237809507204
 40
8.792006982869669
 40
8.792006982869669
 40
8.85935585084688
 40
8.85935585084688
 40
9.002670025972027
 40
9.002670025972027
 40
9.274826373738241
 40
9.274826373738241
 40
9.437354064345032
 40
9.437354064345032
 40
9.437354064345032
 40
9.437354064345032
 10
20.34911697893489
 20
-57.6601477347499
 30
0.0
 10
20.40473006562655
 20
-57.5674682252241
 30
0.0
 10
20.4764881242283
 20
-57.48284858827367
 30
0.0
 10
20.59877388310082
 20
-57.37886553531087
 30
0.0
 10
20.64156129284351
 20
-57.34793998181306
 30
0.0
 10
20.73070535831101
 20
-57.29362509093903
 30
0.0
 10
20.77784002790185
 20
-57.26981948042709
 30
0.0
 10
20.83880623578369
 20
-57.24461412083349
 30
0.0
 10
20.85296900405064
 20
-57.23915003751586
 30
0.0
 10
20.87612426155459
 20
-57.23075838436029
 30
0.0
 10
20.88559921813084
 20
-57.22750647360709
 30
0.0
 10
20.90293259666959
 20
-57.22178185361952
 30
0.0
 10
20.91058805504935
 20
-57.21939274807568
 30
0.0
 10
20.92235570059569
 20
-57.21580377747631
 30
0.0
 10
20.92684856254999
 20
-57.21448129104726
 30
0.0
 10
20.93725798199642
 20
-57.21145545877073
 30
0.0
 10
20.94194404740364
 20
-57.21014496779128
 30
0.0
 10
20.95719149612927
 20
-57.20591395853916
 30
0.0
 10
20.96531919041439
 20
-57.20375343952355
 30
0.0
 10
21.00365984952958
 20
-57.19360625256837
 30
0.0
 10
21.04267690082628
 20
-57.18354201014091
 30
0.0
 10
21.20585424511336
 20
-57.14178834142717
 30
0.0
 10
21.37638520553463
 20
-57.09856649702658
 30
0.0
 10
21.77042494804658
 20
-56.99915925721871
 30
0.0
 10
21.98380536612257
 20
-56.94546532796642
 30
0.0
 10
22.44784690415912
 20
-56.82892437289797
 30
0.0
 10
22.70411083177049
 20
-56.76466933977338
 30
0.0
 10
23.22738148257753
 20
-56.6336532609119
 30
0.0
 10
23.50088384895793
 20
-56.56526557520124
 30
0.0
 10
24.03101296987978
 20
-56.43288496963027
 30
0.0
 10
24.29424021140534
 20
-56.36724375347887
 30
0.0
 10
24.77783847264158
 20
-56.24683027802325
 30
0.0
 10
25.00420931954085
 20
-56.19056410864624
 30
0.0
 10
25.39256499142852
 20
-56.09424730138409
 30
0.0
 10
25.55925872338406
 20
-56.05302878353672
 30
0.0
 10
25.8139362468732
 20
-55.99034542437465
 30
0.0
 10
25.90285612676775
 20
-55.96862506024087
 30
0.0
 10
25.97340416635842
 20
-55.95182789795257
 30
0.0
 10
25.98362041445688
 20
-55.94929251888465
 30
0.0
 10
26.01091427562591
 20
-55.94336898534669
 30
0.0
 10
26.01567337995988
 20
-55.94234884464873
 30
0.0
 10
26.02885441280927
 20
-55.93967065311688
 30
0.0
 10
26.03773592786678
 20
-55.9379126410505
 30
0.0
 10
26.05934354512823
 20
-55.93411025223128
 30
0.0
 10
26.07130987820682
 20
-55.93216634976056
 30
0.0
 10
26.09523379101978
 20
-55.9287964050078
 30
0.0
 10
26.10724237599987
 20
-55.92730867413417
 30
0.0
 10
26.14102024091829
 20
-55.92377079624839
 30
0.0
 10
26.16329210274938
 20
-55.92216289318719
 30
0.0
 10
26.23297483783466
 20
-55.91950521254148
 30
0.0
 10
26.2809800488746
 20
-55.92108621251578
 30
0.0
 10
26.41858461729311
 20
-55.93557138400485
 30
0.0
 10
26.50832186722226
 20
-55.95764640766328
 30
0.0
 10
26.6429854366931
 20
-56.01108472752139
 30
0.0
 10
26.69186950328907
 20
-56.03525001137717
 30
0.0
 10
26.73832154211613
 20
-56.06312369531412
 30
0.0
  0
LINE
  5
11912
330
1F
100
AcDbEntity
  8
AM_0
370
    30
100
AcDbLine
 10
28.71105863054754
 20
-60.00851901612637
 30
0.0
 11
27.9994090549805
 21
-57.1614267975238
 31
0.0
  0
LINE
  5
11913
330
1F
100
AcDbEntity
  8
AM_0
370
    30
100
AcDbLine
 10
20.44200100238521
 20
-61.97867049403237
 30
0.0
 11
19.75311365912302
 21
-59.22264300264635
 31
0.0
  0
LINE
  5
11914
330
1F
100
AcDbEntity
  8
AM_0
370
    30
100
AcDbLine
 10
20.34911697893489
 20
-57.6601477347499
 30
0.0
 11
19.86579804717525
 21
-58.46560134656602
 31
0.0
  0
LINE
  5
11915
330
1F
100
AcDbEntity
  8
AM_0
370
    30
100
AcDbLine
 10
26.73832154211613
 20
-56.06312369531412
 30
0.0
 11
27.54377696216164
 21
-56.54643961363655
 31
0.0
  0
ARC
  5
11916
330
1F
100
AcDbEntity
  8
AM_0
370
    30
100
AcDbCircle
 10
27.02886206270358
 20
-57.40420817737379
 30
0.0
 40
1.000452029144745
100
AcDbArc
 50
14.04427920332751
 51
59.02378162827255
  0
ARC
  5
11917
330
1F
100
AcDbEntity
  8
AM_0
370
    30
100
AcDbCircle
 10
20.72374811286107
 20
-58.98021305277496
 30
0.0
 40
1.000451659690785
100
AcDbArc
 50
149.0440189811948
 51
194.0235389256178
  0
LINE
  5
11918
330
1F
100
AcDbEntity
  8
AM_0
370
    30
100
AcDbLine
 10
23.64461849900289
 20
-67.57475007480718
 30
0.0
 11
23.85682953063187
 21
-68.42374148518155
 31
0.0
  0
LINE
  5
11919
330
1F
100
AcDbEntity
  8
AM_0
370
    30
100
AcDbLine
 10
28.49461896833253
 20
-66.35922331267943
 30
0.0
 11
28.70830901131427
 21
-67.21413179496298
 31
0.0
  0
ELLIPSE
  5
1191A
330
1F
100
AcDbEntity
  8
AM_0
370
    30
100
AcDbEllipse
 10
23.47269693979428
 20
-56.57749713946993
 30
0.0
 11
2.50860691709099
 21
0.6270429303791574
 31
0.0
210
0.0
220
0.0
230
1.0
 40
0.0019342372875622
 41
1.578534463937786
 42
7.861719771117372
  0
ELLIPSE
  5
1191B
330
1F
100
AcDbEntity
  8
AM_0
370
    30
100
AcDbEllipse
 10
24.68517479234237
 20
-61.42825006301007
 30
0.0
 11
4.123147697928731
 21
1.030608102561305
 31
0.0
210
0.0
220
0.0
230
1.0
 40
0.0019342372875622
 41
4.491431650035999
 42
5.669872652869632
  0
ELLIPSE
  5
1191C
330
1F
100
AcDbEntity
  8
AM_0
370
    30
100
AcDbEllipse
 10
23.5437222479888
 20
-56.86164766695879
 30
0.0
 11
3.19460825757078
 21
0.7985135134537221
 31
0.0
210
0.0
220
0.0
230
0.9999999999999998
 40
0.0019342372875622
 41
3.139658411477842
 42
6.285119549291577
  0
ELLIPSE
  5
1191D
330
1F
100
AcDbEntity
  8
AM_0
370
    30
100
AcDbEllipse
 10
23.70479109473666
 20
-57.50603484286603
 30
0.0
 11
3.838996638895878
 21
0.9595826615037972
 31
0.0
210
0.0
220
0.0
230
1.0
 40
0.0019342372875623
 41
3.139658411477843
 42
6.285119549291577
  0
ELLIPSE
  5
1191E
330
1F
100
AcDbEntity
  8
AM_0
370
    30
100
AcDbEllipse
 10
23.87626135705176
 20
-58.19203490008522
 30
0.0
 11
4.123147697928731
 21
1.030608102561305
 31
0.0
210
0.0
220
0.0
230
1.0
 40
0.0019342372875622
 41
3.141592653589857
 42
6.283185307179506
  0
LINE
  5
11923
330
1F
100
AcDbEntity
  8
AM_0
370
    30
100
AcDbLine
 10
19.67495040747025
 20
-68.56964437070178
 30
0.0
 11
30.32995026129009
 21
-65.89924515018902
 31
0.0
  0
LINE
  5
11924
330
1F
100
AcDbEntity
  8
AM_0
370
    30
100
AcDbLine
 10
10.43041067590883
 20
-71.70018204170054
 30
0.0
 11
10.90915902695923
 21
-71.58354116288376
 31
0.0
  0
LINE
  5
11925
330
1F
100
AcDbEntity
  8
AM_0
370
    30
100
AcDbLine
 10
12.17928598241491
 20
-71.2681222418023
 30
0.0
 11
15.73865398218339
 21
-70.37901164450892
 31
0.0
  0
ARC
  5
11926
330
1F
100
AcDbEntity
  8
AM_0
370
    30
100
AcDbCircle
 10
18.12268255105909
 20
-71.7254745714655
 30
0.0
 40
2.688796779910678
100
AcDbArc
 50
107.3427577586868
 51
140.647330905309
  0
LINE
  5
11927
330
1F
100
AcDbEntity
  8
AM_0
370
    30
100
AcDbLine
 10
15.73684006000985
 20
-70.37946474997054
 30
0.0
 11
16.04236005060653
 21
-70.01952023813874
 31
0.0
  0
LINE
  5
11933
330
1F
100
AcDbEntity
  8
AM_0
370
    30
100
AcDbLine
 10
31.55316377157232
 20
-59.1977935968722
 30
0.0
 11
29.01985167703373
 21
-59.83270253496539
 31
0.0
  0
LINE
  5
11934
330
1F
100
AcDbEntity
  8
AM_0
370
    30
100
AcDbLine
 10
28.68494794640441
 20
-59.90405815758231
 30
0.0
 11
29.6735983759292
 21
-59.65627858249246
 31
0.0
  0
LINE
  5
11937
330
1F
100
AcDbEntity
  8
AM_0
370
    30
100
AcDbLine
 10
18.67175409925261
 20
-62.4136053571246
 30
0.0
 11
20.10800233713638
 21
-62.05364700634789
 31
0.0
  0
LINE
  5
11938
330
1F
100
AcDbEntity
  8
AM_0
370
    30
100
AcDbLine
 10
28.05602316622566
 20
-60.5920680590815
 30
0.0
 11
26.8903649537653
 21
-60.88421004168532
 31
0.0
  0
LINE
  5
11939
330
1F
100
AcDbEntity
  8
AM_0
370
    30
100
AcDbLine
 10
24.9513683476427
 20
-61.37016922484855
 30
0.0
 11
23.78571013519121
 21
-61.66231120745022
 31
0.0
  0
ARC
  5
1193A
330
1F
100
AcDbEntity
  8
AM_0
370
    30
100
AcDbCircle
 10
22.72957143646244
 20
-66.30064729928529
 30
0.0
 40
4.757056931735583
100
AcDbArc
 50
77.17258004463264
 51
99.94013204058585
  0
SPLINE
  5
1193B
330
1F
100
AcDbEntity
  8
AM_0
370
    30
100
AcDbSpline
210
0.0
220
0.0
230
1.0
 70
     8
 71
     3
 72
     8
 73
     4
 74
     0
 42
0.0000000001
 43
0.0000000001
 40
8.99452670302588
 40
8.99452670302588
 40
8.99452670302588
 40
8.99452670302588
 40
9.204589678217225
 40
9.204589678217225
 40
9.204589678217225
 40
9.204589678217225
 10
20.10800233713775
 20
-62.05364700634755
 30
0.0
 10
20.1354082673551
 20
-62.04666900092082
 30
0.0
 10
20.16474737903053
 20
-62.0419732066033
 30
0.0
 10
20.19591210852167
 20
-62.03929741448769
 30
0.0
  0
ARC
  5
1193C
330
1F
100
AcDbEntity
  8
AM_0
370
    30
100
AcDbCircle
 10
30.31793673913006
 20
-62.47165838348906
 30
0.0
 40
2.940937401389826
100
AcDbArc
 50
116.1922701483656
 51
140.2743154572575
  0
LINE
  5
11940
330
1F
100
AcDbEntity
  8
AM_0
370
    30
100
AcDbLine
 10
29.76087078401241
 20
-59.63446273360648
 30
0.0
 11
31.55316377157232
 21
-59.1977935968722
 31
0.0
  0
LINE
  5
11941
330
1F
100
AcDbEntity
  8
AM_0
370
    30
100
AcDbLine
 10
30.59282069393674
 20
-65.9116890671574
 30
0.0
 11
31.94578060899511
 21
-66.38403909779402
 31
0.0
  0
ELLIPSE
  5
11948
330
1F
100
AcDbEntity
  8
AM_0
370
    30
100
AcDbEllipse
 10
30.12461413977684
 20
-61.08968861066853
 30
0.0
 11
1.525724164690883
 21
0.3816612602850373
 31
0.0
210
0.0
220
0.0
230
1.0
 40
0.9537499509865193
 41
1.564359120868661
 42
1.570621952554088
  0
LINE
  5
11949
330
1F
100
AcDbEntity
  8
AM_0
370
    30
100
AcDbLine
 10
29.76087078401218
 20
-59.63446273360648
 30
0.0
 11
29.6735983759292
 21
-59.65627858249241
 31
0.0
  0
LINE
  5
1194B
330
1F
100
AcDbEntity
  8
AM_0
370
    30
100
AcDbLine
 10
12.25565026781845
 20
-71.24904686229354
 30
0.0
 11
12.2894588733563
 21
-71.38430474911519
 31
0.0
  0
LINE
  5
1194D
330
1F
100
AcDbEntity
  8
AM_0
370
    30
100
AcDbLine
 10
33.37213572660579
 20
-60.28927543773619
 30
0.0
 11
34.78826690209729
 21
-65.9547829974793
 31
0.0
  0
LINE
  5
1194E
330
1F
100
AcDbEntity
  8
AM_0
370
    30
100
AcDbLine
 10
10.23429431281301
 20
-71.21797387820186
 30
0.0
 11
10.35905288870066
 21
-71.71709476973189
 31
0.0
  0
ARC
  5
1194F
330
1F
100
AcDbEntity
  8
AM_0
370
    30
100
AcDbCircle
 10
22.49296830484963
 20
-74.22020405336394
 30
0.0
 40
12.81562962650571
100
AcDbArc
 50
139.4933816080787
 51
162.6476481863669
  0
ARC
  5
11950
330
1F
100
AcDbEntity
  8
AM_0
370
    30
100
AcDbCircle
 10
20.60744184788422
 20
-72.81903494171246
 30
0.0
 40
10.47310847241341
100
AcDbArc
 50
118.2185954796372
 51
138.6215023357655
  0
ARC
  5
11951
330
1F
100
AcDbEntity
  8
AM_0
370
    30
100
AcDbCircle
 10
21.79409819950951
 20
-74.86860322404124
 30
0.0
 40
12.84040834991449
100
AcDbArc
 50
104.0776527738319
 51
118.5600009694563
  0
LINE
  5
11952
330
1F
100
AcDbEntity
  8
AM_0
370
    30
100
AcDbLine
 10
28.68494719422591
 20
-59.90405514834777
 30
0.0
 11
29.66375790824662
 21
-59.65874164261243
 31
0.0
  0
LINE
  5
11953
330
1F
100
AcDbEntity
  8
AM_0
370
    30
100
AcDbLine
 10
18.67083949830379
 20
-62.41383138037031
 30
0.0
 11
20.10960724150272
 21
-62.05324158096641
 31
0.0
  0
LINE
  5
11955
330
1F
100
AcDbEntity
  8
AM_0
370
    30
100
AcDbLine
 10
29.77043360610759
 20
-59.63210259728271
 30
0.0
 11
31.56183779842553
 21
-59.19565000407886
 31
0.0
  0
ELLIPSE
  5
11956
330
1F
100
AcDbEntity
  8
AM_0
370
    30
100
AcDbEllipse
 10
16.67426643608764
 20
-69.30072243019902
 30
0.0
 11
9.701523995126419
 21
2.424960241320757
 31
0.0
210
0.0
220
0.0
230
1.0
 40
0.0019342372875636
 41
4.77863731625324
 42
5.026362598234423
  0
ELLIPSE
  5
11957
330
1F
100
AcDbEntity
  8
AM_0
370
    30
100
AcDbEllipse
 10
12.29302983902034
 20
-71.23670985471694
 30
0.0
 11
1.455228599268966
 21
0.3637440361981013
 31
0.0
210
0.0
220
0.0
230
1.0
 40
0.0019342372875608
 41
3.455566271439514
 42
4.633663516535668
  0
ELLIPSE
  5
11959
330
1F
100
AcDbEntity
  8
AM_0
370
    30
100
AcDbEllipse
 10
11.81428148797016
 20
-71.35335073353366
 30
0.0
 11
1.455228599268966
 21
0.3637440361981013
 31
0.0
210
0.0
220
0.0
230
1.0
 40
0.0019342372875608
 41
3.14159265358973
 42
3.455566271439399
  0
ELLIPSE
  5
11967
330
1F
100
AcDbEntity
  8
AM_0
370
    30
100
AcDbEllipse
 10
16.37220328909774
 20
-64.90828605887054
 30
0.0
 11
-0.7168322135208276
 21
1.317631047622524
 31
0.0
210
0.0
220
0.0
230
1.0
 40
0.2994638540428475
 41
6.2039226187086
 42
6.283185307179577
  0
ELLIPSE
  5
1196A
330
1F
100
AcDbEntity
  8
AM_0
370
    30
100
AcDbEllipse
 10
24.10263673640174
 20
-61.05878520671138
 30
0.0
 11
4.365685797806894
 21
1.091232108594322
 31
0.0
210
0.0
220
0.0
230
1.0
 40
0.0019342372875622
 41
3.603764154369294
 42
4.185293927666535
  0
ELLIPSE
  5
1196C
330
1F
100
AcDbEntity
  8
AM_0
370
    30
100
AcDbEllipse
 10
31.91690712733674
 20
-60.65301947393425
 30
0.0
 11
-0.3550693289109079
 21
1.457369469855451
 31
0.0
210
0.0
220
0.0
230
1.0
 40
0.9511120889506645
 41
0.0000000000002245
 42
0.0062628316855584
  0
ELLIPSE
  5
1196D
330
1F
100
AcDbEntity
  8
AM_0
370
    30
100
AcDbEllipse
 10
30.4511980465449
 20
-66.38432044254307
 30
0.0
 11
-0.1183564429703024
 21
0.4857898232851504
 31
0.0
210
0.0
220
0.0
230
1.0
 40
0.9511120889506646
 41
5.730942778226458
 42
6.28944813886495
  0
ARC
  5
1196E
330
1F
100
AcDbEntity
  8
AM_0
370
    30
100
AcDbCircle
 10
31.91690712733674
 20
-60.65301947393425
 30
0.0
 40
1.5
100
AcDbArc
 50
14.03390468459533
 51
103.6926130716428
  0
ARC
  5
1196F
330
1F
100
AcDbEntity
  8
AM_0
370
    30
100
AcDbCircle
 10
11.68952291208228
 20
-70.85422984200375
 30
0.0
 40
1.5
100
AcDbArc
 50
162.2919447598476
 51
194.0339046845985
  0
LINE
  5
11970
330
1F
100
AcDbEntity
  8
AM_0
370
    30
100
AcDbLine
 10
-66.35452287492717
 20
-0.1421306988619904
 30
0.0
 11
-63.13006575726399
 21
-4.219761017184794
 31
0.0
  0
LINE
  5
11973
330
1F
100
AcDbEntity
  8
AM_0
370
    30
100
AcDbLine
 10
-63.13199492760384
 20
5.688459273304886
 30
0.0
 11
-66.35481997157626
 21
1.383757910383167
 31
0.0
  0
LINE
  5
11974
330
1F
100
AcDbEntity
  8
AM_0
370
    30
100
AcDbLine
 10
-58.54347859381085
 20
5.679310920948808
 30
0.0
 11
-63.13199492760396
 21
5.688459273304886
 31
0.0
  0
LINE
  5
11975
330
1F
100
AcDbEntity
  8
AM_0
370
    30
100
AcDbLine
 10
-58.54328205985826
 20
-4.228905915097869
 30
0.0
 11
-63.13006575726399
 21
-4.219761017184794
 31
0.0
  0
ELLIPSE
  5
11976
330
1F
100
AcDbEntity
  8
AM_0
370
    30
100
AcDbEllipse
 10
-66.29633372681644
 20
0.6228682392226688
 30
0.0
 11
-0.001594996466510954
 21
-0.7999984099898398
 31
0.0
210
0.0
220
0.0
230
1.0
 40
0.2424955705096263
 41
3.456049746835369
 42
5.986777162227242
  0
LINE
  5
11977
330
1F
100
AcDbEntity
  8
AM_0
370
    30
100
AcDbLine
 10
-53.89422453540556
 20
-4.277493290649488
 30
0.0
 11
-52.47187997165361
 21
-2.377679152870257
 31
0.0
  0
LINE
  5
11978
330
1F
100
AcDbEntity
  8
AM_0
370
    30
100
AcDbLine
 10
-57.14893106058662
 20
-0.1616097418739741
 30
0.0
 11
-53.89422453540556
 21
-4.277493290649488
 31
0.0
  0
LINE
  5
11979
330
1F
100
AcDbEntity
  8
AM_0
370
    30
100
AcDbLine
 10
-53.89422453540556
 20
-4.277493290649375
 30
0.0
 11
-58.51214131861582
 21
-4.268286321160588
 31
0.0
  0
LINE
  5
1197A
330
1F
100
AcDbEntity
  8
AM_0
370
    30
100
AcDbLine
 10
-61.76684784379688
 20
-0.1524027723851873
 30
0.0
 11
-58.51214131861582
 21
-4.268286321160701
 31
0.0
  0
LINE
  5
1197C
330
1F
100
AcDbEntity
  8
AM_0
370
    30
100
AcDbLine
 10
-53.89616901662123
 20
5.709363668812614
 30
0.0
 11
-57.14922815723583
 21
1.364278867371411
 31
0.0
  0
LINE
  5
1197E
330
1F
100
AcDbEntity
  8
AM_0
370
    30
100
AcDbLine
 10
-58.51408579983138
 20
5.718570638301401
 30
0.0
 11
-61.76714494044597
 21
1.373485836860198
 31
0.0
  0
LINE
  5
1197F
330
1F
100
AcDbEntity
  8
AM_0
370
    30
100
AcDbLine
 10
-53.26635302586374
 20
4.912901912565474
 30
0.0
 11
-53.89616901662123
 21
5.709363668812614
 31
0.0
  0
LINE
  5
11980
330
1F
100
AcDbEntity
  8
AM_0
370
    30
100
AcDbLine
 10
-53.89616901662123
 20
5.7093636688125
 30
0.0
 11
-58.51408579983138
 21
5.718570638301287
 31
0.0
  0
ELLIPSE
  5
11981
330
1F
100
AcDbEntity
  8
AM_0
370
    30
100
AcDbEllipse
 10
-57.09074191247601
 20
0.6033891962107987
 30
0.0
 11
-0.001594996466510954
 21
-0.7999984099898398
 31
0.0
210
0.0
220
0.0
230
1.0
 40
0.2424955705096263
 41
3.456049746835369
 42
5.986777162227242
  0
ELLIPSE
  5
11982
330
1F
100
AcDbEntity
  8
AM_0
370
    30
100
AcDbEllipse
 10
-61.70865869568615
 20
0.6125961656995855
 30
0.0
 11
-0.001594996466510954
 21
-0.7999984099898398
 31
0.0
210
0.0
220
0.0
230
1.0
 40
0.2424955705096263
 41
3.456049746835369
 42
5.986777162227241
  0
LINE
  5
11984
330
1F
100
AcDbEntity
  8
AM_0
370
    30
100
AcDbLine
 10
-53.81550392990687
 20
5.607355054273
 30
0.0
 11
-53.73789188312981
 21
5.607200315290072
 31
0.0
  0
LINE
  5
11985
330
1F
100
AcDbEntity
  8
AM_0
370
    30
100
AcDbLine
 10
-82.28591858278753
 20
12.50000000000074
 30
0.0
 11
-48.78591858278753
 21
12.50000000000074
 31
0.0
  0
LINE
  5
11986
330
1F
100
AcDbEntity
  8
AM_0
370
    30
100
AcDbLine
 10
-48.78591858278753
 20
-3.956415053397848
 30
0.0
 11
-48.78591858278753
 21
-12.49999999999903
 31
0.0
  0
LINE
  5
11988
330
1F
100
AcDbEntity
  8
AM_0
370
    30
100
AcDbLine
 10
-52.39636134158127
 20
-2.380630051624564
 30
0.0
 11
-53.73598823091652
 21
-4.169958860246254
 31
0.0
  0
LINE
  5
11989
330
1F
100
AcDbEntity
  8
AM_0
370
    30
100
AcDbLine
 10
-53.73789188312981
 20
5.607200315289958
 30
0.0
 11
-53.20864987054301
 21
4.93792384563784
 31
0.0
  0
LINE
  5
1198A
330
1F
100
AcDbEntity
  8
AM_0
370
    30
100
AcDbLine
 10
-50.44040723215801
 20
10.0116239118484
 30
0.0
 11
-53.73789188312981
 21
5.607200315289958
 31
0.0
  0
LINE
  5
1198B
330
1F
100
AcDbEntity
  8
AM_0
370
    30
100
AcDbLine
 10
-50.44040723215801
 20
10.0116239118484
 30
0.0
 11
-49.5537483565079
 21
10.0116239118484
 31
0.0
  0
LINE
  5
1198C
330
1F
100
AcDbEntity
  8
AM_0
370
    30
100
AcDbLine
 10
-48.78591858278753
 20
-3.956415053397848
 30
0.0
 11
-48.90635081275025
 21
-2.389625456461374
 31
0.0
  0
LINE
  5
1198E
330
1F
100
AcDbEntity
  8
AM_0
370
    30
100
AcDbLine
 10
-53.73598823091652
 20
-4.169958860246368
 30
0.0
 11
-53.81360027769279
 21
-4.169804121263326
 31
0.0
  0
LINE
  5
1198F
330
1F
100
AcDbEntity
  8
AM_0
370
    30
100
AcDbLine
 10
-53.73598823091652
 20
-4.169958860246368
 30
0.0
 11
-48.78591858278752
 21
-10.42978906994363
 31
0.0
  0
LINE
  5
11990
330
1F
100
AcDbEntity
  8
AM_0
370
    30
100
AcDbLine
 10
-48.78591858278753
 20
-12.49999999999903
 30
0.0
 11
-82.28591858278753
 21
-12.49999999999903
 31
0.0
  0
LINE
  5
11991
330
1F
100
AcDbEntity
  8
AM_0
370
    30
100
AcDbLine
 10
-82.28591858278753
 20
-12.49999999999903
 30
0.0
 11
-82.28591858278753
 21
12.50000000000074
 31
0.0
  0
LINE
  5
11992
330
1F
100
AcDbEntity
  8
AM_0
370
    30
100
AcDbLine
 10
-82.28591858278752
 20
-0.1054907590171868
 30
0.0
 11
-66.35824977696905
 21
-0.1372465414636395
 31
0.0
  0
LINE
  5
11994
330
1F
100
AcDbEntity
  8
AM_0
370
    30
100
AcDbLine
 10
-66.35117432670688
 20
1.388627368769619
 30
0.0
 11
-82.2859185827875
 21
1.420397257891636
 31
0.0
  0
LINE
  5
11996
330
1F
100
AcDbEntity
  8
AM_0
370
    30
100
AcDbLine
 10
-39.50150898418951
 20
7.231337035734271
 30
0.0
 11
-38.97678028141036
 21
6.441073961677773
 31
0.0
  0
LINE
  5
11998
330
1F
100
AcDbEntity
  8
AM_0
370
    30
100
AcDbLine
 10
-38.97678028141036
 20
6.44107396167766
 30
0.0
 11
-38.88390402199889
 21
4.16668772125189
 31
0.0
  0
LINE
  5
1199A
330
1F
100
AcDbEntity
  8
AM_0
370
    30
100
AcDbLine
 10
-38.88390402199889
 20
4.16668772125189
 30
0.0
 11
-39.3157564653668
 21
2.682564554882731
 31
0.0
  0
LINE
  5
1199B
330
1F
100
AcDbEntity
  8
AM_0
370
    30
100
AcDbLine
 10
-39.3157564653668
 20
2.682564554882731
 30
0.0
 11
-39.84048516814596
 21
3.472827628939228
 31
0.0
  0
LINE
  5
1199C
330
1F
100
AcDbEntity
  8
AM_0
370
    30
100
AcDbLine
 10
-39.84048516814596
 20
3.472827628939228
 30
0.0
 11
-39.93336142755743
 21
5.747213869364998
 31
0.0
  0
LINE
  5
1199D
330
1F
100
AcDbEntity
  8
AM_0
370
    30
100
AcDbLine
 10
-39.93336142755743
 20
5.747213869365112
 30
0.0
 11
-39.50150898418951
 21
7.231337035734271
 31
0.0
  0
ARC
  5
1199E
330
1F
100
AcDbEntity
  8
AM_0
370
    30
100
AcDbCircle
 10
-45.97775329324281
 20
4.970047976457806
 30
0.0
 40
7.226022867451268
100
AcDbArc
 50
333.7031208506658
 51
26.06841258330475
  0
LINE
  5
1199F
330
1F
100
AcDbEntity
  8
AM_0
370
    30
100
AcDbLine
 10
-44.26785906704652
 20
0.7166304286753871
 30
0.0
 11
-41.03164390412167
 21
0.7101782261643734
 31
0.0
  0
LINE
  5
119A0
330
1F
100
AcDbEntity
  8
AM_0
370
    30
100
AcDbLine
 10
-44.25091222958997
 20
9.2166135348171
 30
0.0
 11
-41.01469706666501
 21
9.210161332306086
 31
0.0
  0
LINE
  5
119A1
330
1F
100
AcDbEntity
  8
AM_0
370
    30
100
AcDbLine
 10
-39.486833878879
 20
8.14548048828425
 30
0.0
 11
-40.08967875205235
 21
8.789813227013781
 31
0.0
  0
LINE
  5
119A2
330
1F
100
AcDbEntity
  8
AM_0
370
    30
100
AcDbLine
 10
-39.49954746589106
 20
1.768758277071868
 30
0.0
 11
-40.10495681241912
 21
1.126834494644129
 31
0.0
  0
ARC
  5
119A3
330
1F
100
AcDbEntity
  8
AM_0
370
    30
100
AcDbCircle
 10
-41.03416288449171
 20
7.939352835090006
 30
0.0
 40
1.270957573902753
100
AcDbArc
 50
42.00144255375472
 51
89.12243111978469
  0
ARC
  5
119A4
330
1F
100
AcDbEntity
  8
AM_0
370
    30
100
AcDbCircle
 10
-41.04604223960996
 20
1.981054240022502
 30
0.0
 40
1.270957573904468
100
AcDbArc
 50
270.6491023142218
 51
317.7700908801857
  0
ELLIPSE
  5
119A5
330
1F
100
AcDbEntity
  8
AM_0
370
    30
100
AcDbEllipse
 10
-39.40863272477816
 20
4.956950795308501
 30
0.0
 11
0.005155400288958507
 21
2.585781298343521
 31
0.0
210
0.0
220
0.0
230
1.0
 40
0.2424955705096261
 41
0.0082216125387629
 42
6.291406919718347
  0
ELLIPSE
  5
119A6
330
1F
100
AcDbEntity
  8
AM_0
370
    30
100
AcDbEllipse
 10
-44.25938564831836
 20
4.9666219817463
 30
0.0
 11
-0.008473418728339444
 21
-4.249991553071025
 31
0.0
210
0.0
220
0.0
230
1.0
 40
0.2424955705096262
 41
3.141592653589793
 42
3.954649746515714
  0
ELLIPSE
  5
119A7
330
1F
100
AcDbEntity
  8
AM_0
370
    30
100
AcDbEllipse
 10
-44.25938564831836
 20
4.9666219817463
 30
0.0
 11
-0.008473418728339444
 21
-4.249991553071025
 31
0.0
210
0.0
220
0.0
230
1.0
 40
0.2424955705096262
 41
6.164836722065173
 42
6.283185307179641
  0
ELLIPSE
  5
119A8
330
1F
100
AcDbEntity
  8
AM_0
370
    30
100
AcDbEllipse
 10
-39.69278325226708
 20
4.957517320293562
 30
0.0
 11
-0.006565191310756675
 21
-3.292886674146362
 31
0.0
210
0.0
220
0.0
230
1.0
 40
0.2424955705096262
 41
2.888957703862421
 42
6.535820256906952
  0
ELLIPSE
  5
119A9
330
1F
100
AcDbEntity
  8
AM_0
370
    30
100
AcDbEllipse
 10
-40.33717042817432
 20
4.958802066932833
 30
0.0
 11
0.007889464166998959
 21
3.957098916386566
 31
0.0
210
0.0
220
0.0
230
1.0
 40
0.2424955705096262
 41
6.030550357452122
 42
9.677412910496791
  0
ELLIPSE
  5
119AA
330
1F
100
AcDbEntity
  8
AM_0
370
    30
100
AcDbEllipse
 10
-41.02317048539339
 20
4.960169779235287
 30
0.0
 11
-0.008473418728339444
 21
-4.249991553071025
 31
0.0
210
0.0
220
0.0
230
1.0
 40
0.2424955705096262
 41
3.141592653589793
 42
6.283185307179585
  0
LINE
  5
119AE
330
1F
100
AcDbEntity
  8
AM_0
370
    30
100
AcDbLine
 10
-54.53131762700878
 20
0.5185336482500702
 30
0.0
 11
-54.41467674819205
 21
-0.9989315316612988
 31
0.0
  0
LINE
  5
119AF
330
1F
100
AcDbEntity
  8
AM_0
370
    30
100
AcDbLine
 10
-54.09925782711048
 20
-2.03102308554827
 30
0.0
 11
-53.21014722981715
 21
-2.320443585756436
 31
0.0
  0
LINE
  5
119B0
330
1F
100
AcDbEntity
  8
AM_0
370
    30
100
AcDbLine
 10
-52.85182786787959
 20
-2.35407397724822
 30
0.0
 11
-52.27024928438493
 21
-2.386497539433435
 31
0.0
  0
LINE
  5
119B1
330
1F
100
AcDbEntity
  8
AM_0
370
    30
100
AcDbLine
 10
-53.21013820732696
 20
-2.320338129124082
 30
0.0
 11
-52.85165230408256
 21
-2.351008893561868
 31
0.0
  0
LINE
  5
119B3
330
1F
100
AcDbEntity
  8
AM_0
370
    30
100
AcDbLine
 10
-48.93954831984314
 20
10.83200593658228
 30
0.0
 11
-52.05875020955762
 21
6.665713183274704
 31
0.0
  0
ARC
  5
119B4
330
1F
100
AcDbEntity
  8
AM_0
370
    30
100
AcDbCircle
 10
-54.81083401518174
 20
6.86795358091814
 30
0.0
 40
2.536728278911081
100
AcDbArc
 50
303.8360815714045
 51
330.4813711898231
  0
LINE
  5
119B6
330
1F
100
AcDbEntity
  8
AM_0
370
    30
100
AcDbLine
 10
-53.73533578961531
 20
4.512112551218309
 30
0.0
 11
-54.4185271226786
 21
2.122581070679814
 31
0.0
  0
LINE
  5
119B7
330
1F
100
AcDbEntity
  8
AM_0
370
    30
100
AcDbLine
 10
-53.73488130211729
 20
4.511495742050158
 30
0.0
 11
-53.39767396995717
 21
4.759962406605268
 31
0.0
  0
LINE
  5
119C9
330
1F
100
AcDbEntity
  8
AM_0
370
    30
100
AcDbLine
 10
-44.20793301870469
 20
0.7165109511435617
 30
0.0
 11
-44.3849454806541
 21
0.4800768364116834
 31
0.0
  0
LINE
  5
119CA
330
1F
100
AcDbEntity
  8
AM_0
370
    30
100
AcDbLine
 10
-45.09556765224647
 20
8.168576329609152
 30
0.0
 11
-44.80342566963498
 21
8.55878801456123
 31
0.0
  0
LINE
  5
119CB
330
1F
100
AcDbEntity
  8
AM_0
370
    30
100
AcDbLine
 10
-44.31746648648937
 20
9.207879767749603
 30
0.0
 11
-44.02532450387741
 21
9.598091452702249
 31
0.0
  0
SPLINE
  5
119CC
330
1F
100
AcDbEntity
  8
AM_0
370
    30
100
AcDbSpline
210
0.0
220
0.0
230
1.0
 70
     8
 71
     3
 72
    12
 73
     8
 74
     0
 42
0.0000000001
 43
0.0000000001
 40
2.466761295282204
 40
2.466761295282204
 40
2.466761295282204
 40
2.466761295282204
 40
3.025809340518748
 40
3.025809340518748
 40
3.530110897271872
 40
3.530110897271872
 40
4.034412454024997
 40
4.034412454024997
 40
4.034412454024997
 40
4.034412454024997
 10
-44.42655858179364
 20
0.3919709931198554
 30
0.0
 10
-44.40165411953171
 20
0.425123250511831
 30
0.0
 10
-44.38408696469764
 20
0.4687479774522103
 30
0.0
 10
-44.36865192142977
 20
0.5719397106271913
 30
0.0
 10
-44.3690652344568
 20
0.6294895318018803
 30
0.0
 10
-44.39032253060282
 20
0.7622594562262179
 30
0.0
 10
-44.41106350082282
 20
0.8374597507466319
 30
0.0
 10
-44.44613575595668
 20
0.9220183229218151
 30
0.0
  0
ARC
  5
119CD
330
1F
100
AcDbEntity
  8
AM_0
370
    30
100
AcDbCircle
 10
-48.24733672418154
 20
6.95278160105255
 30
0.0
 40
3.378136336028061
100
AcDbArc
 50
354.4947054643515
 51
21.09411773163395
  0
ARC
  5
119CE
330
1F
100
AcDbEntity
  8
AM_0
370
    30
100
AcDbCircle
 10
-44.15847067480354
 20
8.308698044767027
 30
0.0
 40
1.29624969171029
100
AcDbArc
 50
44.33472224741742
 51
84.10438246006797
  0
LINE
  5
119D9
330
1F
100
AcDbEntity
  8
AM_0
370
    30
100
AcDbLine
 10
-48.88232703340088
 20
-2.38967335386036
 30
0.0
 11
-52.27004978202626
 21
-2.38291908316927
 31
0.0
  0
ARC
  5
119DA
330
1F
100
AcDbEntity
  8
AM_0
370
    30
100
AcDbCircle
 10
-53.48990004594771
 20
5.496134122757042
 30
0.0
 40
0.6248687206874778
100
AcDbArc
 50
269.2293634611862
 51
310.830206749686
  0
LINE
  5
119DB
330
1F
100
AcDbEntity
  8
AM_0
370
    30
100
AcDbLine
 10
-53.1817114931896
 20
-2.324765433473601
 30
0.0
 11
-53.12710907136511
 21
-2.327120538623888
 31
0.0
  0
ARC
  5
119DC
330
1F
100
AcDbEntity
  8
AM_0
370
    30
100
AcDbCircle
 10
-48.77225320491993
 20
1.921697135176544
 30
0.0
 40
4.312775410504785
100
AcDbArc
 50
268.5374961312903
 51
302.1490353108295
  0
ARC
  5
119DD
330
1F
100
AcDbEntity
  8
AM_0
370
    30
100
AcDbCircle
 10
-49.44040369902064
 20
2.987593005151268
 30
0.0
 40
5.570772777743501
100
AcDbArc
 50
302.133738842298
 51
321.8335484824395
  0
LINE
  5
119DE
330
1F
100
AcDbEntity
  8
AM_0
370
    30
100
AcDbLine
 10
-44.42655858179364
 20
0.3919709931197417
 30
0.0
 11
-45.06055709854547
 21
-0.4548557014463199
 31
0.0
  0
ELLIPSE
  5
119E0
330
1F
100
AcDbEntity
  8
AM_0
370
    30
100
AcDbEllipse
 10
-54.06784544002517
 20
-0.5356717565884424
 30
0.0
 11
-0.002990618374705888
 21
-1.49999701873095
 31
0.0
210
0.0
220
0.0
230
1.0
 40
0.2424955705096221
 41
5.026846073630304
 42
6.204943318726443
  0
ELLIPSE
  5
119E1
330
1F
100
AcDbEntity
  8
AM_0
370
    30
100
AcDbEllipse
 10
-53.50129498577871
 20
3.371324903861535
 30
0.0
 11
-0.00299061837470589
 21
-1.499997018730951
 31
0.0
210
0.0
220
0.0
230
1.0
 40
0.2424955705096221
 41
3.141592653589949
 42
3.848748828534304
  0
ELLIPSE
  5
119E2
330
1F
100
AcDbEntity
  8
AM_0
370
    30
100
AcDbEllipse
 10
-53.17873484273184
 20
-0.8250922567964949
 30
0.0
 11
-0.00299061837470589
 21
-1.499997018730951
 31
0.0
210
0.0
220
0.0
230
1.0
 40
0.2424955705096221
 41
6.204943318726289
 42
6.283185307179429
  0
ELLIPSE
  5
119E3
330
1F
100
AcDbEntity
  8
AM_0
370
    30
100
AcDbEllipse
 10
-51.32767215006027
 20
-2.845407706231924
 30
0.0
 11
-0.01993745583140073
 21
-9.999980124872998
 31
0.0
210
0.0
220
0.0
230
1.0
 40
0.2424955705096303
 41
3.456049746835404
 42
3.703775028816534
  0
ELLIPSE
  5
119E4
330
1F
100
AcDbEntity
  8
AM_0
370
    30
100
AcDbEllipse
 10
-54.18448631884189
 20
0.9817934233229266
 30
0.0
 11
-0.002990618374705888
 21
-1.49999701873095
 31
0.0
210
0.0
220
0.0
230
1.0
 40
0.2424955705096221
 41
3.848748828534251
 42
5.026846073630304
  0
ELLIPSE
  5
119F4
330
1F
100
AcDbEntity
  8
AM_0
370
    30
100
AcDbEllipse
 10
-43.88992079201967
 20
4.811234938078144
 30
0.0
 11
0.008971855124123875
 21
4.49999105619285
 31
0.0
210
0.0
220
0.0
230
1.0
 40
0.2424955705096262
 41
1.155525763814974
 42
2.614981076267541
  0
LINE
  5
11D9A
330
1F
100
AcDbEntity
  8
AM_5
100
AcDbLine
 10
0.0
 20
-24.97160314876754
 30
0.0
 11
0.0
 21
0.5921520639412847
 31
0.0
  0
LINE
  5
11DA4
330
1F
100
AcDbEntity
  8
AM_5
100
AcDbLine
 10
0.0
 20
0.0
 30
0.0
 11
0.5494269557380562
 21
-0.1732336537216384
 31
0.0
  0
LINE
  5
11DA6
330
1F
100
AcDbEntity
  8
AM_5
100
AcDbLine
 10
0.0
 20
0.0
 30
0.0
 11
-8.056241553697873
 21
0.0
 31
0.0
  0
DIMENSION
  5
11E71
330
1F
100
AcDbEntity
  8
AM_5
370
    13
100
AcDbDimension
  2
*D10
 10
13.60334182616714
 20
-4.289117202497152
 30
0.0
 11
14.33020976093357
 21
-17.83216141111774
 31
0.0
 70
   162
 71
     5
 42
1.265363707695896
  3
AM_JIS$2
100
AcDb2LineAngularDimension
 13
0.0
 23
-74.45478299747924
 33
0.0
 14
0.0
 24
0.5921520639412847
 34
0.0
 15
0.5494269557381131
 25
-0.1732336537216384
 35
0.0
 16
9.36552269818889
 26
-20.8717003853117
 36
0.0
1001
ACAD
1000
DSTYLE
1002
{
1070
   179
1070
     1
1002
}
  0
ARC
  5
124FF
330
1F
100
AcDbEntity
  8
AM_0
370
    30
100
AcDbCircle
 10
30.07773517723308
 20
9.835635897046984
 30
0.0
 40
1.499999999999989
100
AcDbArc
 50
90.00000000001954
 51
107.510076392146
  0
LINE
  5
12500
330
1F
100
AcDbEntity
  8
AM_0
370
    30
100
AcDbLine
 10
25.18451037935196
 20
9.77941220210738
 30
0.0
 11
29.62635639112222
 21
11.26634910863567
 31
0.0
  0
ARC
  5
12544
330
1F
100
AcDbEntity
  8
AM_0
370
    30
100
AcDbCircle
 10
31.94481401486917
 20
9.850480714713171
 30
0.0
 40
1.500000000000011
100
AcDbArc
 50
17.51007639214467
 51
90.45700332881174
  0
LINE
  5
12545
330
1F
100
AcDbEntity
  8
AM_0
370
    30
100
AcDbLine
 10
33.37531009288057
 20
10.30179099688502
 30
0.0
 11
33.51746557646004
 21
9.851207729094369
 31
0.0
  0
LINE
  5
12546
330
1F
100
AcDbEntity
  8
AM_0
370
    30
100
AcDbLine
 10
30.07773517723308
 20
11.33563589704698
 30
0.0
 11
31.93284982255986
 21
11.35043299998844
 31
0.0
  0
LINE
  5
1258B
330
1F
100
AcDbEntity
  8
AM_0
370
    30
100
AcDbLine
 10
-47.9805974153395
 20
11.35043299998844
 30
0.0
 11
-43.54311507169427
 21
11.35081024184603
 31
0.0
  0
LINE
  5
12599
330
1F
100
AcDbEntity
  8
AM_0
370
    30
100
AcDbLine
 10
-41.64672087826136
 20
9.845425875044725
 30
0.0
 11
-41.59807602390271
 21
9.211324443837071
 31
0.0
  0
ARC
  5
126AC
330
1F
100
AcDbEntity
  8
AM_0
370
    30
100
AcDbCircle
 10
-43.38575646571024
 20
9.60186649981199
 30
0.0
 40
1.75600852608336
100
AcDbArc
 50
8.022234509731476
 51
95.14125894267154
  0
ARC
  5
126AF
330
1F
100
AcDbEntity
  8
AM_0
370
    30
100
AcDbCircle
 10
-47.91168358915797
 20
10.07684650882101
 30
0.0
 40
1.275449593642633
100
AcDbArc
 50
93.06125043435867
 51
142.6616551646669
  0
DIMENSION
  5
129D0
330
1F
100
AcDbEntity
  8
AM_5
370
    13
100
AcDbDimension
  2
*D11
 10
-4.022415051841904
 20
-74.45360239800499
 30
0.0
 11
-12.73114059048117
 21
-67.58335541388112
 31
0.0
 70
   162
  1
-<>
 71
     5
 42
0.245565918394524
  3
AM_JIS$2
100
AcDb2LineAngularDimension
 13
12.28666096904107
 23
-71.37311118998423
 33
0.0
 14
0.5360672926080383
 24
-74.31809257192754
 34
0.0
 15
0.0
 25
-74.45360239800499
 35
0.0
 16
-14.27377119749382
 26
-76.8107089483172
 36
0.0
1001
ACAD
1000
DSTYLE
1002
{
1070
   144
1040
0.3333333333333333
1070
   271
1070
     1
1002
}
  0
TEXT
  5
12AD5
330
1F
100
AcDbEntity
  8
AM_6
  6
Continuous
 62
     0
370
    30
100
AcDbText
 10
57.07377394897043
 20
-113.1093246653135
 30
0.0
 40
3.8
  1
DVVNN2525M16
  7
ACISOTS
100
AcDbText
  0
LINE
  5
12C98
330
1F
100
AcDbEntity
  8
AM_0
370
    30
100
AcDbLine
 10
34.44535785757967
 20
12.50000000000074
 30
0.0
 11
30.98882500877177
 21
11.34290309751902
 31
0.0
  0
LINE
  5
12D2E
330
1F
100
AcDbEntity
  8
AM_0
370
    30
100
AcDbLine
 10
-48.78591858278753
 20
11.00554712895469
 30
0.0
 11
-48.78591858278753
 21
12.50000000000074
 31
0.0
  0
ENDSEC
  0
SECTION
  2
OBJECTS
  0
DICTIONARY
  5
C
330
0
100
AcDbDictionary
281
     1
  3
ACAD_COLOR
350
ED4C
  3
ACAD_GROUP
350
D
  3
ACAD_LAYOUT
350
1A
  3
ACAD_MATERIAL
350
ED4B
  3
ACAD_MLINESTYLE
350
17
  3
ACAD_PLOTSETTINGS
350
19
  3
ACAD_PLOTSTYLENAME
350
E
  3
ACAD_TABLESTYLE
350
ED4D
  3
AcAmCatalogState
350
EDB4
  3
ACDBHEADERROUNDTRIPXREC
350
12D46
  3
AcDbVariableDictionary
350
30
  3
ACDMSYSVARMGR
350
ED67
  3
ACGREF_MASTER
350
ED5F
  3
ACGREFACAD_MASTER
350
ED87
  3
AcmDictionary
350
4D
  3
ACME_BOM_MANAGER_NAME
350
36
  3
ACME_COMMAND_HISTORY
350
2F
  3
ACME_SCOPE_NAME
350
2E
  3
ACMESTATEMGR
350
3B
  3
AcmeSysVarManager
350
32
  3
AcmSystemVariableManager
350
6A
  3
AD_APPL
350
ED92
  3
ADSYSVARMGR
350
ED91
  3
AmdtNamedDwgMgr
350
ED82
  3
AMG
350
3F
  3
AMGSNAPSETTINGS
350
73
  3
AMI_MASTER
350
ED8A
  3
AUTOCAD_ASSEMBLIES_PROJECT
350
ED9A
  3
Designer_Assemblies_SysVars
350
ED95
  3
DWGPROPS
350
12D49
  3
FILENAME
350
217A
  3
GREFAM_MODULE
350
ED8B
  3
ZWKSIZE
350
217C
  0
DICTIONARY
  5
EDC8
330
2
100
AcDbDictionary
280
     1
281
     1
  3
ACAD_LAYERSTATES
360
F5B5
  3
AMLAYER_GROUPCOLORS
360
EDC9
  0
DICTIONARY
  5
165
330
1F
100
AcDbDictionary
280
     1
281
     1
  3
ACAD_SORTENTS
360
F11C
  0
DICTIONARY
  5
ED4C
102
{ACAD_REACTORS
330
C
102
}
330
C
100
AcDbDictionary
281
     1
  0
DICTIONARY
  5
D
102
{ACAD_REACTORS
330
C
102
}
330
C
100
AcDbDictionary
281
     1
  0
DICTIONARY
  5
1A
102
{ACAD_REACTORS
330
C
102
}
330
C
100
AcDbDictionary
281
     1
  3
Model
350
22
  3
ﾚｲｱｳﾄ1
350
1E
  3
ﾚｲｱｳﾄ2
350
26
  0
DICTIONARY
  5
ED4B
102
{ACAD_REACTORS
330
C
102
}
330
C
100
AcDbDictionary
281
     1
  0
DICTIONARY
  5
17
102
{ACAD_REACTORS
330
C
102
}
330
C
100
AcDbDictionary
281
     1
  3
Standard
350
18
  0
DICTIONARY
  5
19
102
{ACAD_REACTORS
330
C
102
}
330
C
100
AcDbDictionary
281
     1
  0
ACDBDICTIONARYWDFLT
  5
E
102
{ACAD_REACTORS
330
C
102
}
330
C
100
AcDbDictionary
281
     1
  3
Normal
350
F
100
AcDbDictionaryWithDefault
340
F
  0
DICTIONARY
  5
ED4D
102
{ACAD_REACTORS
330
C
102
}
330
C
100
AcDbDictionary
281
     1
  3
Standard
350
ED4E
  0
ACAD_PROXY_OBJECT
  5
EDB4
102
{ACAD_REACTORS
330
C
102
}
330
C
100
AcDbProxyObject
 90
      499
 91
      571
 95
       25
 70
     0
 93
      184
310
3FFFFFFFE00A028140285221D2E31B0B2483ECB65400AA
  0
DICTIONARY
  5
12D46
102
{ACAD_REACTORS
330
C
102
}
330
C
100
AcDbDictionary
281
     1
  3
COLORDICT
350
12D47
  3
MATERIALDICT
350
12D48
  0
DICTIONARY
  5
30
102
{ACAD_REACTORS
330
C
102
}
330
C
100
AcDbDictionary
281
     1
  3
CTABLESTYLE
350
EE09
  3
HIDETEXT
350
12D45
  3
INDEXCTL
350
12D44
  0
ACAD_PROXY_OBJECT
  5
ED67
102
{ACAD_REACTORS
330
C
102
}
330
C
100
AcDbProxyObject
 90
      499
 91
      507
 95
       25
 70
     0
 93
      240
310
4C51A47A0000000000000000000000000000000000000000000000000000
330
ED68
330
ED69
330
ED6A
330
ED6B
330
ED6C
330
ED6D
330
ED6E
330
ED6F
330
ED70
330
ED71
330
ED72
330
ED73
330
ED74
330
ED75
330
ED76
330
ED77
330
ED78
330
ED79
330
ED7A
330
ED7B
330
ED7C
330
ED7D
330
ED7E
330
ED7F
330
ED80
330
ED81
 94
        0
  0
ACAD_PROXY_OBJECT
  5
ED5F
102
{ACAD_REACTORS
330
C
102
}
330
C
100
AcDbProxyObject
 90
      499
 91
      535
 95
       25
 70
     0
 93
       34
310
0400004280
  0
ACAD_PROXY_OBJECT
  5
ED87
102
{ACAD_REACTORS
330
C
102
}
330
C
100
AcDbProxyObject
 90
      499
 91
      541
 95
       25
 70
     0
 93
      114
310
04000041C080000000000000000000
  0
DICTIONARY
  5
4D
102
{ACAD_REACTORS
330
C
102
}
330
C
100
AcDbDictionary
281
     1
  3
AcmBOMDATA
350
4E
  3
AcmStdDictionary
350
17E
  3
AMDTSECTSYM_ARROWCOLOR
350
EDA8
  0
ACAD_PROXY_OBJECT
  5
36
102
{ACAD_REACTORS
330
C
102
}
330
C
100
AcDbProxyObject
 90
      499
 91
      510
 95
       25
 70
     0
 93
       50
310
00010040400000
330
0
330
0
330
37
 94
        0
  0
ACAD_PROXY_OBJECT
  5
2F
102
{ACAD_REACTORS
330
C
102
}
330
C
100
AcDbProxyObject
 90
      499
 91
      505
 95
       25
 70
     0
 93
     3242
310
4780505584C494E45805044D4F5645805044D4F5645805044D4F56458050545524153458050C475249505F535452455443488050C475249505F5354524554434880506455854454E44805054552415345805054552415345805045452494D80506455854454E448050A414D504F57455244494D40405184D5347202D20436F
310
6D6D616E642043414E43454C4C45442E014115539113E014193D19194D15510101461354D1C80B4810DBDB5B585B990810D05390D1531311510B8050C475249505F535452455443488050C475249505F53545245544348805045452494D8050C475249505F535452455443488050C475249505F535452455443488050C4752
310
49505F5354524554434880505455241534580506455854454E4480504554E444F80505584C494E45805054552415345805044D4F564580505505552474540405184D5347202D20436F6D6D616E642043414E43454C4C45442E01411693D3D3601415454D05591501014B5354D1C80B481414104E88080819195CDADD1BDC0B
310
985C9E08119A5B1955995C9CDA5BDB8E880E4B8C8B8C0B8D00
  0
ACAD_PROXY_OBJECT
  5
2E
102
{ACAD_REACTORS
330
C
102
}
330
C
100
AcDbProxyObject
 90
      499
 91
      504
 95
       25
 70
     0
 93
      594
310
09000046408000000000000000001354E60000000000000000000000000000000000000000000000000000000000000000000000000000000000000000000000000000000000AAA406AA80
360
33
360
34
360
35
360
37
360
6B
360
6C
360
ED60
360
ED61
360
ED62
360
ED63
360
ED64
360
ED65
360
ED68
360
ED69
360
ED6A
360
ED6B
360
ED6C
360
ED6D
360
ED6E
360
ED6F
360
ED70
360
ED71
360
ED72
360
ED73
360
ED74
360
ED75
360
ED76
360
ED77
360
ED78
360
ED79
360
ED7A
360
ED7B
360
ED7C
360
ED7D
360
ED7E
360
ED7F
360
ED80
360
ED81
360
ED8D
360
ED8E
360
ED8F
360
ED90
360
ED96
360
ED97
360
ED98
360
ED99
360
ED9E
360
ED9F
360
EDA0
360
EDA1
360
EDA2
360
EDA3
360
EDCB
 94
        0
  0
ACAD_PROXY_OBJECT
  5
3B
102
{ACAD_REACTORS
330
C
102
}
330
C
100
AcDbProxyObject
 90
      499
 91
      515
 95
       25
 70
     0
 93
       50
310
09000042641280
  0
ACAD_PROXY_OBJECT
  5
32
102
{ACAD_REACTORS
330
C
102
}
330
C
100
AcDbProxyObject
 90
      499
 91
      507
 95
       25
 70
     0
 93
       48
310
903412000000
330
33
330
34
330
35
 94
        0
  0
ACAD_PROXY_OBJECT
  5
6A
102
{ACAD_REACTORS
330
C
102
}
330
C
100
AcDbProxyObject
 90
      499
 91
      507
 95
       25
 70
     0
 93
       48
310
903412000000
330
6B
330
6C
330
EDCB
 94
        0
  0
ACAD_PROXY_OBJECT
  5
ED92
102
{ACAD_REACTORS
330
C
102
}
330
C
100
AcDbProxyObject
 90
      499
 91
      551
 95
       25
 70
     0
 93
       42
310
000900004040
330
ED8D
 94
        0
  0
ACAD_PROXY_OBJECT
  5
ED91
102
{ACAD_REACTORS
330
C
102
}
330
C
100
AcDbProxyObject
 90
      499
 91
      507
 95
       25
 70
     0
 93
        8
310
AA
  0
ACAD_PROXY_OBJECT
  5
ED82
102
{ACAD_REACTORS
330
C
102
}
330
C
100
AcDbProxyObject
 90
      499
 91
      540
 95
       25
 70
     0
 93
       42
310
000100005E80
330
ED60
 94
        0
  0
DICTIONARY
  5
3F
102
{ACAD_REACTORS
330
C
102
}
330
C
100
AcDbDictionary
281
     1
  3
AcMgSettings
350
40
  3
AMGLAYCFG
350
42
  0
DICTIONARY
  5
73
102
{ACAD_REACTORS
330
C
102
}
330
C
100
AcDbDictionary
281
     1
  3
DIMENSION
350
62F
  3
FEA
350
630
  3
HATCH (1)
350
631
  3
HATCH (2)
350
632
  3
SYMBOLS
350
633
  0
ACAD_PROXY_OBJECT
  5
ED8A
102
{ACAD_REACTORS
330
C
102
}
330
C
100
AcDbProxyObject
 90
      499
 91
      544
 95
       25
 70
     0
 93
       34
310
0500004280
  0
ACAD_PROXY_OBJECT
  5
ED9A
102
{ACAD_REACTORS
330
C
102
}
330
C
100
AcDbProxyObject
 90
      499
 91
      554
 95
       25
 70
     0
 93
       98
310
0900004E400000000000000000
330
EDA1
330
0
330
EDA2
330
0
330
0
330
0
330
0
330
0
 94
        0
  0
ACAD_PROXY_OBJECT
  5
ED95
102
{ACAD_REACTORS
330
C
102
}
330
C
100
AcDbProxyObject
 90
      499
 91
      507
 95
       25
 70
     0
 93
       56
310
90441600000000
330
ED96
330
ED97
330
ED98
330
ED99
 94
        0
  0
XRECORD
  5
12D49
102
{ACAD_REACTORS
330
C
102
}
330
C
100
AcDbXrecord
280
     1
  1
DWGPROPS COOKIE
  2

  3

  4

  6

  7

  8

  9

300
AmdtFileType=84
301
=
302
=
303
=
304
=
305
=
306
=
307
=
308
=
309
=
 40
0.0
 41
2451943.235431667
 42
2455441.106214364
  1

 90
        1
  0
DICTIONARY
  5
217A
102
{ACAD_REACTORS
330
C
102
}
330
C
100
AcDbDictionary
281
     1
  3
FILENAME
350
217B
  0
ACAD_PROXY_OBJECT
  5
ED8B
102
{ACAD_REACTORS
330
C
102
}
330
C
100
AcDbProxyObject
 90
      499
 91
      545
 95
       25
 70
     0
 93
        8
310
05
  0
DICTIONARY
  5
217C
102
{ACAD_REACTORS
330
C
102
}
330
C
100
AcDbDictionary
281
     1
  3
ZWKSIZE
350
217D
  0
DICTIONARY
  5
F5B5
102
{ACAD_REACTORS
330
EDC8
102
}
330
EDC8
100
AcDbDictionary
281
     1
  0
DICTIONARY
  5
EDC9
102
{ACAD_REACTORS
330
EDC8
102
}
330
EDC8
100
AcDbDictionary
280
     1
281
     1
  3
基本画層グループ
360
EDCA
  0
SORTENTSTABLE
  5
F11C
102
{ACAD_REACTORS
330
165
102
}
330
165
100
AcDbSortentsTable
330
1F
331
0
  5
11989
331
D329
  5
D329
331
D81E
  5
D81E
331
EECB
  5
F114
331
EFBF
  5
F288
331
F04E
  5
FC09
331
FE88
  5
10078
331
11851
  5
11853
331
11852
  5
11854
331
11855
  5
11857
331
11856
  5
11858
331
11857
  5
11859
331
11858
  5
1185A
331
11859
  5
1185B
331
1185A
  5
1185C
331
1185C
  5
1185E
331
1185D
  5
1185F
331
1185F
  5
11861
331
11863
  5
11865
331
11865
  5
11867
331
11868
  5
1186A
331
1186A
  5
1186C
331
1186C
  5
1186E
331
1186E
  5
11870
331
11873
  5
11875
331
11879
  5
1187B
331
1187B
  5
1187D
331
11882
  5
11884
331
11883
  5
11885
331
11884
  5
11886
331
11885
  5
11887
331
11886
  5
11888
331
11887
  5
11889
331
11888
  5
1188A
331
11889
  5
1188B
331
1188A
  5
1188C
331
1188B
  5
1188D
331
1188C
  5
1188E
331
1188D
  5
1188F
331
1188E
  5
11890
331
1188F
  5
11891
331
11890
  5
11892
331
11891
  5
11893
331
11892
  5
11894
331
11893
  5
11895
331
11894
  5
11896
331
11896
  5
11898
331
11897
  5
11899
331
118A5
  5
118A7
331
118A6
  5
118A8
331
118A8
  5
118AA
331
118A9
  5
118AB
331
118AA
  5
118AC
331
118AE
  5
118B0
331
118AF
  5
118B1
331
118B0
  5
118B2
331
118B1
  5
118B3
331
118B6
  5
118B8
331
118B7
  5
118B9
331
118B8
  5
118BA
331
118B9
  5
118BB
331
118BA
  5
118BC
331
118BB
  5
118BD
331
118BC
  5
118BE
331
118BD
  5
118BF
331
118BE
  5
118C0
331
118C0
  5
118C2
331
118D0
  5
118D2
331
118D1
  5
118D3
331
118D2
  5
118D4
331
118D5
  5
118D7
331
118D6
  5
118D8
331
118D7
  5
118D9
331
118D8
  5
118DA
331
118DA
  5
118DC
331
118DB
  5
118DD
331
118DC
  5
118DE
331
118DD
  5
118DF
331
118DE
  5
118E0
331
118DF
  5
118E1
331
118E0
  5
118E2
331
118E1
  5
118E3
331
118E2
  5
118E4
331
118E4
  5
118E6
331
118E5
  5
118E7
331
118E6
  5
118E8
331
118E7
  5
118E9
331
118E8
  5
118EA
331
118E9
  5
118EB
331
118EA
  5
118EC
331
118EB
  5
118ED
331
118EC
  5
118EE
331
118EF
  5
118F1
331
118F0
  5
118F2
331
118F1
  5
118F3
331
118F8
  5
118FA
331
118FC
  5
118FE
331
118FD
  5
118FF
331
118FE
  5
11900
331
11900
  5
11902
331
11901
  5
11903
331
11903
  5
11905
331
11904
  5
11906
331
11909
  5
1190B
331
1190A
  5
1190C
331
1190B
  5
1190D
331
1190C
  5
1190E
331
1190D
  5
1190F
331
1190E
  5
11910
331
1190F
  5
11911
331
11910
  5
11912
331
11911
  5
11913
331
11912
  5
11914
331
11913
  5
11915
331
11914
  5
11916
331
11915
  5
11917
331
11916
  5
11918
331
11917
  5
11919
331
11918
  5
1191A
331
11919
  5
1191B
331
1191A
  5
1191C
331
1191B
  5
1191D
331
1191C
  5
1191E
331
1191D
  5
1191F
331
1191E
  5
11920
331
11923
  5
11925
331
11924
  5
11926
331
11925
  5
11927
331
11926
  5
11928
331
11927
  5
11929
331
11933
  5
11935
331
11934
  5
11936
331
11937
  5
11939
331
11938
  5
1193A
331
11939
  5
1193B
331
1193A
  5
1193C
331
1193B
  5
1193D
331
1193C
  5
1193E
331
11940
  5
11942
331
11941
  5
11943
331
11948
  5
1194A
331
11949
  5
1194B
331
1194B
  5
1194D
331
1194D
  5
1194F
331
1194E
  5
11950
331
1194F
  5
11951
331
11950
  5
11952
331
11951
  5
11953
331
11952
  5
11954
331
11953
  5
11955
331
11955
  5
11957
331
11956
  5
11958
331
11957
  5
11959
331
11959
  5
1195B
331
11967
  5
11969
331
1196A
  5
1196C
331
1196C
  5
1196E
331
1196D
  5
1196F
331
1196E
  5
11970
331
1196F
  5
11971
331
11970
  5
11972
331
11973
  5
11975
331
11974
  5
11976
331
11975
  5
11977
331
11976
  5
11978
331
11977
  5
11979
331
11978
  5
1197A
331
11979
  5
1197B
331
1197A
  5
1197C
331
1197C
  5
1197E
331
1197E
  5
11980
331
1197F
  5
11981
331
11980
  5
11982
331
11981
  5
11983
331
11982
  5
11984
331
11984
  5
11986
331
11985
  5
11987
331
11986
  5
11988
331
11988
  5
1198A
331
11989
  5
1198B
331
1198A
  5
1198C
331
1198B
  5
1198D
331
1198C
  5
1198E
331
1198E
  5
11990
331
1198F
  5
11991
331
11990
  5
11992
331
11991
  5
11993
331
11992
  5
11996
331
11994
  5
11998
331
11996
  5
1199A
331
11998
  5
1199C
331
1199A
  5
1199D
331
1199B
  5
1199E
331
1199C
  5
1199F
331
1199D
  5
119A0
331
1199E
  5
119A1
331
1199F
  5
119A2
331
119A0
  5
119A3
331
119A1
  5
119A4
331
119A2
  5
119A5
331
119A3
  5
119A6
331
119A4
  5
119A7
331
119A5
  5
119A8
331
119A6
  5
119A9
331
119A7
  5
119AA
331
119A8
  5
119AB
331
119A9
  5
119AC
331
119AA
  5
119B0
331
119AE
  5
119B1
331
119AF
  5
119B2
331
119B0
  5
119B3
331
119B1
  5
119B5
331
119B3
  5
119B6
331
119B4
  5
119B8
331
119B6
  5
119B9
331
119B7
  5
119CB
331
119C9
  5
119CC
331
119CA
  5
119CD
331
119CB
  5
119CE
331
119CC
  5
119CF
331
119CD
  5
119D0
331
119CE
  5
119DB
331
119D9
  5
119DC
331
119DA
  5
119DD
331
119DB
  5
119DE
331
119DC
  5
119DF
331
119DD
  5
119E0
331
119DE
  5
119E2
331
119E0
  5
119E3
331
119E1
  5
119E4
331
119E2
  5
119E5
331
119E3
  5
119E6
331
119E4
  5
119F6
331
119F4
  5
11DA6
331
11D9A
  5
11E71
331
11DA4
  5
11EBD
331
11DA6
  5
11EBE
331
11E71
  5
124FF
331
124FF
  5
12500
331
12500
  5
12544
331
12544
  5
12545
331
12545
  5
12546
331
12546
  5
1258B
331
1258B
  5
12599
331
12599
  5
126AC
331
126AC
  5
126AF
331
126AF
  5
129D0
331
129D0
  5
12AD5
331
12AD5
  5
12C54
331
12C98
  5
12D2E
331
12D2E
  5
11994
  0
LAYOUT
  5
22
102
{ACAD_REACTORS
330
1A
102
}
330
1A
100
AcDbPlotSettings
  1

  2
Canon LBP9100C
  4
A4
  6
AM_VIEW1
 40
5.789083480834961
 41
5.789072036743164
 42
5.789093017578125
 43
5.789093017578125
 44
209.9733276367188
 45
296.9259948730469
 46
0.0
 47
0.0
 48
0.0
 49
0.0
140
420.0
141
297.0
142
1.0
143
1.497012393175651
 70
 11952
 72
     1
 73
     1
 74
     4
  7
sei_cad.ctb
 75
     0
147
0.6679971418798171
148
0.0
149
0.0
100
AcDbLayout
  1
Model
 70
     1
 71
     0
 10
0.0
 20
0.0
 11
12.0
 21
9.0
 12
0.0
 22
0.0
 32
0.0
 14
0.0
 24
0.0
 34
0.0
 15
0.0
 25
0.0
 35
0.0
146
0.0
 13
0.0
 23
0.0
 33
0.0
 16
1.0
 26
0.0
 36
0.0
 17
0.0
 27
1.0
 37
0.0
 76
     0
330
1F
1001
ACAD_PSEXT
1000
Canon LBP9100C
1000
Canon LBP9100C
1000
IP_10.254.89.242
1000

1070
     0
  0
LAYOUT
  5
1E
102
{ACAD_REACTORS
330
1A
102
}
330
1A
100
AcDbPlotSettings
  1

  2
Canon LASER SHOT LBP-2030
  4

  6

 40
0.0
 41
0.0
 42
0.0
 43
0.0
 44
0.0
 45
0.0
 46
0.0
 47
0.0
 48
0.0
 49
0.0
140
0.0
141
0.0
142
1.0
143
1.0
 70
   688
 72
     0
 73
     0
 74
     5
  7
sei_cad.ctb
 75
    16
147
1.0
148
0.0
149
0.0
100
AcDbLayout
  1
ﾚｲｱｳﾄ1
 70
     1
 71
     1
 10
0.0
 20
0.0
 11
420.0
 21
297.0
 12
0.0
 22
0.0
 32
0.0
 14
1.000000000000000E+20
 24
1.000000000000000E+20
 34
1.000000000000000E+20
 15
-1.000000000000000E+20
 25
-1.000000000000000E+20
 35
-1.000000000000000E+20
146
0.0
 13
0.0
 23
0.0
 33
0.0
 16
1.0
 26
0.0
 36
0.0
 17
0.0
 27
1.0
 37
0.0
 76
     0
330
1B
  0
LAYOUT
  5
26
102
{ACAD_REACTORS
330
1A
102
}
330
1A
100
AcDbPlotSettings
  1

  2
Canon LASER SHOT LBP-2030
  4

  6

 40
0.0
 41
0.0
 42
0.0
 43
0.0
 44
0.0
 45
0.0
 46
0.0
 47
0.0
 48
0.0
 49
0.0
140
0.0
141
0.0
142
1.0
143
1.0
 70
   688
 72
     0
 73
     0
 74
     5
  7
sei_cad.ctb
 75
    16
147
1.0
148
0.0
149
0.0
100
AcDbLayout
  1
ﾚｲｱｳﾄ2
 70
     1
 71
     2
 10
0.0
 20
0.0
 11
12.0
 21
9.0
 12
0.0
 22
0.0
 32
0.0
 14
0.0
 24
0.0
 34
0.0
 15
0.0
 25
0.0
 35
0.0
146
0.0
 13
0.0
 23
0.0
 33
0.0
 16
1.0
 26
0.0
 36
0.0
 17
0.0
 27
1.0
 37
0.0
 76
     0
330
23
  0
MLINESTYLE
  5
18
102
{ACAD_REACTORS
330
17
102
}
330
17
100
AcDbMlineStyle
  2
STANDARD
 70
     0
  3

 62
   256
 51
90.0
 52
90.0
 71
     2
 49
0.5
 62
   256
  6
BYLAYER
 49
-0.5
 62
   256
  6
BYLAYER
  0
ACDBPLACEHOLDER
  5
F
102
{ACAD_REACTORS
330
E
102
}
330
E
  0
TABLESTYLE
  5
ED4E
102
{ACAD_REACTORS
330
ED4D
102
}
330
ED4D
100
AcDbTableStyle
  3
Standard
 70
     0
 71
     8
 40
1.5
 41
1.5
280
     0
281
     0
  7
STANDARD
140
4.5
170
     2
 62
     0
 63
     7
283
     0
274
    -2
284
     1
 64
     0
275
    -2
285
     1
 65
     0
276
    -2
286
     1
 66
     0
277
    -2
287
     1
 67
     0
278
    -2
288
     1
 68
     0
279
    -2
289
     1
 69
     0
  7
STANDARD
140
6.0
170
     5
 62
     0
 63
     7
283
     0
274
    -2
284
     1
 64
     0
275
    -2
285
     1
 65
     0
276
    -2
286
     1
 66
     0
277
    -2
287
     1
 67
     0
278
    -2
288
     1
 68
     0
279
    -2
289
     1
 69
     0
  7
STANDARD
140
4.5
170
     5
 62
     0
 63
     7
283
     0
274
    -2
284
     1
 64
     0
275
    -2
285
     1
 65
     0
276
    -2
286
     1
 66
     0
277
    -2
287
     1
 67
     0
278
    -2
288
     1
 68
     0
279
    -2
289
     1
 69
     0
  0
XRECORD
  5
12D47
102
{ACAD_REACTORS
330
12D46
102
}
330
12D46
100
AcDbXrecord
280
     1
340
ED4C
  0
XRECORD
  5
12D48
102
{ACAD_REACTORS
330
12D46
102
}
330
12D46
100
AcDbXrecord
280
     1
340
ED4B
  0
DICTIONARYVAR
  5
EE09
102
{ACAD_REACTORS
330
30
102
}
330
30
100
DictionaryVariables
280
     0
  1
STANDARD
  0
DICTIONARYVAR
  5
12D45
102
{ACAD_REACTORS
330
30
102
}
330
30
100
DictionaryVariables
280
     0
  1
0
  0
DICTIONARYVAR
  5
12D44
102
{ACAD_REACTORS
330
30
102
}
330
30
100
DictionaryVariables
280
     0
  1
1
  0
ACAD_PROXY_OBJECT
  5
4E
102
{ACAD_REACTORS
330
4D
102
}
330
4D
100
AcDbProxyObject
 90
      499
 91
      520
 95
       25
 70
     0
 93
      118
310
405010040CA904C415CD5B075DD1A8
350
4F
 94
        0
  0
DICTIONARY
  5
17E
102
{ACAD_REACTORS
330
4D
102
}
330
4D
100
AcDbDictionary
281
     1
  3
ISO
350
F94D
  3
JIS
350
17F
  0
XRECORD
  5
EDA8
102
{ACAD_REACTORS
330
4D
102
}
330
4D
100
AcDbXrecord
280
     1
 90
-1023410169
  0
ACAD_PROXY_OBJECT
  5
33
330
2E
100
AcDbProxyObject
 90
      499
 91
      508
 95
       25
 70
     0
 93
      156
310
00010143D050D351505391D5531054925390D490
330
2E
 94
        0
  0
ACAD_PROXY_OBJECT
  5
34
330
2E
100
AcDbProxyObject
 90
      499
 91
      508
 95
       25
 70
     0
 93
      148
310
000101439050D351531253915054925390D490
330
2E
 94
        0
  0
ACAD_PROXY_OBJECT
  5
35
330
2E
100
AcDbProxyObject
 90
      499
 91
      509
 95
       25
 70
     0
 93
      156
310
000101439050D35154D6535093D314D256915080
330
2E
 94
        0
  0
ACAD_PROXY_OBJECT
  5
37
330
2E
100
AcDbProxyObject
 90
      499
 91
      511
 95
       25
 70
     0
 93
       88
310
000101411093D34C402B00
330
2E
330
0
330
0
 94
        0
  0
ACAD_PROXY_OBJECT
  5
6B
330
2E
100
AcDbProxyObject
 90
      499
 91
      509
 95
       25
 70
     0
 93
      108
310
00010142505351D153D35054D4E0
330
2E
 94
        0
  0
ACAD_PROXY_OBJECT
  5
6C
330
2E
100
AcDbProxyObject
 90
      499
 91
      522
 95
       25
 70
     0
 93
      140
310
00010142105350D55494D511005034A49530
330
2E
 94
        0
  0
ACAD_PROXY_OBJECT
  5
ED60
330
2E
100
AcDbProxyObject
 90
      499
 91
      536
 95
       25
 70
     0
 93
      502
310
0001014124FEA55D00507392E312E302E34014124FEA55D00507392E322E302E3240501000041D0548B54D053910182D4454FB21E93F2E07A17AD46E278FD8
330
2E
330
ED61
330
ED67
 94
        0
  0
ACAD_PROXY_OBJECT
  5
ED61
330
2E
100
AcDbProxyObject
 90
      499
 91
      537
 95
       25
 70
     0
 93
       56
310
000190240E0000
330
2E
330
ED62
330
ED64
 94
        0
  0
ACAD_PROXY_OBJECT
  5
ED62
330
2E
100
AcDbProxyObject
 90
      499
 91
      538
 95
       25
 70
     0
 93
       48
310
0001AA000000
330
2E
330
1E
330
ED63
330
0
 94
        0
  0
ACAD_PROXY_OBJECT
  5
ED63
330
2E
100
AcDbProxyObject
 90
      499
 91
      539
 95
       25
 70
     0
 93
       28
310
0001AAA0
330
2E
 94
        0
  0
ACAD_PROXY_OBJECT
  5
ED64
330
2E
100
AcDbProxyObject
 90
      499
 91
      538
 95
       25
 70
     0
 93
       48
310
0001AA000000
330
2E
330
26
330
ED65
330
0
 94
        0
  0
ACAD_PROXY_OBJECT
  5
ED65
330
2E
100
AcDbProxyObject
 90
      499
 91
      539
 95
       25
 70
     0
 93
       28
310
0001AAA0
330
2E
 94
        0
  0
ACAD_PROXY_OBJECT
  5
ED68
330
2E
100
AcDbProxyObject
 90
      499
 91
      509
 95
       25
 70
     0
 93
      108
310
000101421053521310D05310D010
330
2E
 94
        0
  0
ACAD_PROXY_OBJECT
  5
ED69
330
2E
100
AcDbProxyObject
 90
      499
 91
      509
 95
       25
 70
     0
 93
      124
310
00010142905354915554D15112535010
330
2E
 94
        0
  0
ACAD_PROXY_OBJECT
  5
ED6A
330
2E
100
AcDbProxyObject
 90
      499
 91
      509
 95
       25
 70
     0
 93
      132
310
00010143105354D150D51253D391125360
330
2E
 94
        0
  0
ACAD_PROXY_OBJECT
  5
ED6B
330
2E
100
AcDbProxyObject
 90
      499
 91
      509
 95
       25
 70
     0
 93
      124
310
00010142905355941093D49111549010
330
2E
 94
        0
  0
ACAD_PROXY_OBJECT
  5
ED6C
330
2E
100
AcDbProxyObject
 90
      499
 91
      509
 95
       25
 70
     0
 93
      116
310
0001014290535115D1D0D3D313D4A0
330
2E
 94
        0
  0
ACAD_PROXY_OBJECT
  5
ED6D
330
2E
100
AcDbProxyObject
 90
      499
 91
      509
 95
       25
 70
     0
 93
      148
310
00010143505355925155D49151949154D21010
330
2E
 94
        0
  0
ACAD_PROXY_OBJECT
  5
ED6E
330
2E
100
AcDbProxyObject
 90
      499
 91
      509
 95
       25
 70
     0
 93
      172
310
00010144105350539393D51154149154D15495915010
330
2E
 94
        0
  0
ACAD_PROXY_OBJECT
  5
ED6F
330
2E
100
AcDbProxyObject
 90
      499
 91
      509
 95
       25
 70
     0
 93
      172
310
00010144105350555513D11253505494905391D15010
330
2E
 94
        0
  0
ACAD_PROXY_OBJECT
  5
ED70
330
2E
100
AcDbProxyObject
 90
      499
 91
      509
 95
       25
 70
     0
 93
      124
310
00010142D05351561514915191125360
330
2E
 94
        0
  0
ACAD_PROXY_OBJECT
  5
ED71
330
2E
100
AcDbProxyObject
 90
      499
 91
      509
 95
       25
 70
     0
 93
      132
310
00010142D05355105410539393D5115010
330
2E
 94
        0
  0
ACAD_PROXY_OBJECT
  5
ED72
330
2E
100
AcDbProxyObject
 90
      499
 91
      509
 95
       25
 70
     0
 93
      108
310
00010142105350555513D0D31010
330
2E
 94
        0
  0
ACAD_PROXY_OBJECT
  5
ED73
330
2E
100
AcDbProxyObject
 90
      499
 91
      509
 95
       25
 70
     0
 93
      108
310
00010142105350D3119150551050
330
2E
 94
        0
  0
ACAD_PROXY_OBJECT
  5
ED74
330
2E
100
AcDbProxyObject
 90
      499
 91
      509
 95
       25
 70
     0
 93
      108
310
00010142105350D315925155D3F0
330
2E
 94
        0
  0
ACAD_PROXY_OBJECT
  5
ED75
330
2E
100
AcDbProxyObject
 90
      499
 91
      509
 95
       25
 70
     0
 93
      148
310
0001014350535212511156915493D112535010
330
2E
 94
        0
  0
ACAD_PROXY_OBJECT
  5
ED76
330
2E
100
AcDbProxyObject
 90
      499
 91
      509
 95
       25
 70
     0
 93
      124
310
00010142905352105510D21254D3D010
330
2E
 94
        0
  0
ACAD_PROXY_OBJECT
  5
ED77
330
2E
100
AcDbProxyObject
 90
      499
 91
      509
 95
       25
 70
     0
 93
      148
310
00010143905354D25391D31152105513105660
330
2E
 94
        0
  0
ACAD_PROXY_OBJECT
  5
ED78
330
2E
100
AcDbProxyObject
 90
      499
 91
      509
 95
       25
 70
     0
 93
      124
310
00010142D0535115D1D193111254D420
330
2E
 94
        0
  0
ACAD_PROXY_OBJECT
  5
ED79
330
2E
100
AcDbProxyObject
 90
      499
 91
      509
 95
       25
 70
     0
 93
      100
310
00010142105350555513D213A0
330
2E
 94
        0
  0
ACAD_PROXY_OBJECT
  5
ED7A
330
2E
100
AcDbProxyObject
 90
      499
 91
      509
 95
       25
 70
     0
 93
      116
310
000101425053521390D3D553951010
330
2E
 94
        0
  0
ACAD_PROXY_OBJECT
  5
ED7B
330
2E
100
AcDbProxyObject
 90
      499
 91
      509
 95
       25
 70
     0
 93
      108
310
0001014210535213941493D29010
330
2E
 94
        0
  0
ACAD_PROXY_OBJECT
  5
ED7C
330
2E
100
AcDbProxyObject
 90
      499
 91
      509
 95
       25
 70
     0
 93
      108
310
0001014210535213951654115070
330
2E
 94
        0
  0
ACAD_PROXY_OBJECT
  5
ED7D
330
2E
100
AcDbProxyObject
 90
      499
 91
      509
 95
       25
 70
     0
 93
      108
310
000101421053521395925155D0F0
330
2E
 94
        0
  0
ACAD_PROXY_OBJECT
  5
ED7E
330
2E
100
AcDbProxyObject
 90
      499
 91
      509
 95
       25
 70
     0
 93
      140
310
00010143505354D150D51253D390D3D41660
330
2E
 94
        0
  0
ACAD_PROXY_OBJECT
  5
ED7F
330
2E
100
AcDbProxyObject
 90
      499
 91
      509
 95
       25
 70
     0
 93
      108
310
00010142105350D3141493D29030
330
2E
 94
        0
  0
ACAD_PROXY_OBJECT
  5
ED80
330
2E
100
AcDbProxyObject
 90
      499
 91
      508
 95
       25
 70
     0
 93
      212
310
00010143905350555513D2105510D21493D500000000000002E400
330
2E
 94
        0
  0
ACAD_PROXY_OBJECT
  5
ED81
330
2E
100
AcDbProxyObject
 90
      499
 91
      509
 95
       25
 70
     0
 93
      156
310
00010143905350555513D2105510D21111551010
330
2E
 94
        0
  0
ACAD_PROXY_OBJECT
  5
ED8D
330
2E
100
AcDbProxyObject
 90
      499
 91
      547
 95
       25
 70
     0
 93
      698
310
0001000000009AA6A9AA4051E546875204170722032312030303A33303A353620323030352028555443290141CE4B8C4B8C0B8D00518576564205365702030312031313A33323A353620323031300141CE4B8C8B8C0B8C80
330
2E
330
ED8E
330
ED8F
330
ED91
330
0
 94
        0
  0
ACAD_PROXY_OBJECT
  5
ED8E
330
2E
100
AcDbProxyObject
 90
      499
 91
      548
 95
       25
 70
     0
 93
       70
310
0001AAA80820000000
330
2E
330
ED8E
330
ED8E
 94
        0
  0
ACAD_PROXY_OBJECT
  5
ED8F
330
2E
100
AcDbProxyObject
 90
      499
 91
      549
 95
       25
 70
     0
 93
       48
310
000100000000
330
2E
330
0
330
ED90
330
0
330
0
 94
        0
  0
ACAD_PROXY_OBJECT
  5
ED90
330
2E
100
AcDbProxyObject
 90
      499
 91
      550
 95
       25
 70
     0
 93
       40
310
000100AAAA
330
2E
330
0
 94
        0
  0
ACAD_PROXY_OBJECT
  5
ED96
330
2E
100
AcDbProxyObject
 90
      499
 91
      522
 95
       25
 70
     0
 93
      180
310
00010143105050D3D35411119390535140504434F4D500
330
2E
 94
        0
  0
ACAD_PROXY_OBJECT
  5
ED97
330
2E
100
AcDbProxyObject
 90
      499
 91
      522
 95
       25
 70
     0
 93
      212
310
0001014390505193D311115491119390535140506466F6C6465720
330
2E
 94
        0
  0
ACAD_PROXY_OBJECT
  5
ED98
330
2E
100
AcDbProxyObject
 90
      499
 91
      522
 95
       25
 70
     0
 93
      180
310
00010143105050539393D1119390535140504284156290
330
2E
 94
        0
  0
ACAD_PROXY_OBJECT
  5
ED99
330
2E
100
AcDbProxyObject
 90
      499
 91
      522
 95
       25
 70
     0
 93
      436
310
00010143905050D3D35415925155D31254D50052295BD96CA0A90B396CA0A894591A496CA0A8DB691A496CA0A89BA96CA0A95E28F95310
330
2E
 94
        0
  0
ACAD_PROXY_OBJECT
  5
ED9E
330
2E
100
AcDbProxyObject
 90
      499
 91
      555
 95
       25
 70
     0
 93
       32
310
00010000
330
2E
340
ED9B
330
EDA0
330
ED9B
 94
        0
  0
ACAD_PROXY_OBJECT
  5
ED9F
330
2E
100
AcDbProxyObject
 90
      499
 91
      556
 95
       25
 70
     0
 93
       18
310
000180
330
2E
 94
        0
  0
ACAD_PROXY_OBJECT
  5
EDA0
330
2E
100
AcDbProxyObject
 90
      499
 91
      557
 95
       25
 70
     0
 93
      194
310
0001014351159593938C8D4C8D52D34C4D9050055401550000
330
2E
330
ED9E
330
ED9F
 94
        0
  0
ACAD_PROXY_OBJECT
  5
EDA1
330
2E
100
AcDbProxyObject
 90
      499
 91
      558
 95
       25
 70
     0
 93
      178
310
000100AAAAAABAC03B2E67439410EA36E89D743EA29000
330
2E
330
EDA0
 94
        0
  0
ACAD_PROXY_OBJECT
  5
EDA2
330
2E
100
AcDbProxyObject
 90
      499
 91
      559
 95
       25
 70
     0
 93
      108
310
000190140A000000000000AAAAA0
330
2E
330
EDA3
330
EDA3
330
EDA3
330
EDA3
330
EDA3
330
0
 94
        0
  0
ACAD_PROXY_OBJECT
  5
EDA3
330
2E
100
AcDbProxyObject
 90
      499
 91
      560
 95
       25
 70
     0
 93
       51
310
00010000AAAA80
330
2E
330
EDA2
330
EDA0
 94
        0
  0
ACAD_PROXY_OBJECT
  5
EDCB
330
2E
100
AcDbProxyObject
 90
      499
 91
      509
 95
       25
 70
     0
 93
      140
310
0001014350535311D0D3D313D49353D11160
330
2E
 94
        0
  0
DICTIONARY
  5
40
102
{ACAD_REACTORS
330
3F
102
}
330
3F
100
AcDbDictionary
281
     1
  3
DWGSETTINGS
350
41
  3
FEM
350
69
  3
Shaft
350
56
  3
TRANSSETTINGS
350
4C
  0
ACAD_PROXY_OBJECT
  5
42
102
{ACAD_REACTORS
330
3F
102
}
330
3F
100
AcDbProxyObject
 90
      499
 91
      519
 95
       25
 70
     0
 93
    23232
310
41502491013041105357CC201C00030C011E441013141105357CC603800030C011E441013241105357CCA01400030C011E441013341105357CCE01800030C010D9013441105357CD200C00030C010D9013541105357CD600C00030C010D9013641105357CDA00800030C011E9013741105357CDE01000030C010D901384110
310
5357CE200400030C011E9013941105357CE63F400030C0241102324141505357CC4C201C00030C011E902344141505357CC4C600C00030C010D902495041505357CC4CA01C00030C011E40902304E41505357CC13A01C00030C011E902314E41505357CC53A03800030C011E902324E41505357CC93A01400030C011E90233
310
4E41505357CCD3A01800030C010D902344E41505357CD13A00C00030C010D902354E41505357CD53A00C00030C010D902364E41505357CD93A00800030C011E902374E41505357CDD3A01000030C010D902384E41505357CE13A00400030C011E902394E41505357CE53A3F400030C024110332414E41905357CC4C13A01C0
310
0030C011E90334414E41905357CC4C53A00C00030C010D90349504E41905357CC4C93A01C00030C011E409044B4C494E41505357D0D3200400030C011E42504494E464F42105357D410549151A01000030C010D42D055241484D3541905357D093D4A01C00030C011E425045649455742105357D5925155D4E00400030C011
310
E42D06424548494E4441905357D25395A3F400030C0243505545241494C41505357D514A00C00030C010D4250348494441905357D21251201C00030C011E4250356495341905357D59254E01C00030C011E4250650415244494D42505357D41054911253600C00030C010D4250652454644494D42505357D49151911253601
310
000030C010D425774110531514901348070000C300479034110915312501348000000C0003FFFFFFFD034110921395901398000000C0003FFFFFFFE415092139594D06424548494E448000000C0003FFFFFFFE411093125110234418000000C0003FFFFFFFD03411093D05410234418000000C0003FFFFFFFD03411093D48C
310
9055241484D358010000C30047A411093D48CD055241484D358020000C30047A411093D48D5055241484D358000000C0003FFFFFFFE411093D48DD055241484D3581E0000C30047903411094105410234418000000C0003FFFFFFFD03411094115610234418000000C0003FFFFFFFD034110951112501358000000C0003FFF
310
FFFFD034110D0530C901348000000C0003FFFFFFFE4110D0530CD01348020000C30047A4110D0530D501348070000C30047A4110D0530DD013481E0000C30047A4110D15393901378000000C0003FFFFFFFE4110D15395D01378000000C0003FFFFFFFE4110D312539044B4C494E8000000C0003FFFFFFFE4110D3D38C5013
310
08000000C0003FFFFFFFD034110D3D38C901318000000C0003FFFFFFFD034110D3D38CD01328000000C0003FFFFFFFD034110D3D38D101328000000C0003FFFFFFFD034111115494101348000000C0003FFFFFFFD034111115510501348000000C0003FFFFFFFE4111125051D01358000000C0003FFFFFFFE4111125312501
310
358000000C0003FFFFFFFE411112535410650415244494D8000000C0003FFFFFFFE411112535490652454644494D8000000C0003FFFFFFFE411156135410234418000000C0003FFFFFFFD034111915353901388000000C0003FFFFFFFE415191535413901388030000C3004364151915354D410234418000000C0003FFFFFF
310
FE4151915354D510234418030000C300436415191535593901328000000C0003FFFFFFFE415191535595101328030000C3004364111931055101308000000C0003FFFFFFFD03411194905490234418000000C0003FFFFFFFD034111D49312501358000000C0003FFFFFFFD034111D5931250234418000000C0003FFFFFFFD0
310
34112105510D01388000000C0003FFFFFFFD014112125113901338000000C0003FFFFFFFD034112125115D01338000000C0003FFFFFFFD034112131253901348000000C0003FFFFFFFD01411213D0D3901378000000C0003FFFFFFFE411213D0D5D01378000000C0003FFFFFFFE4112539193D04494E464F8000000C0003FF
310
FFFFFE4113105112501348000000C0003FFFFFFFD034113115051101358000000C0003FFFFFFFE419397D0921395902394E8000000C0003FFFFFFFE419397D0D3D38C502304E8000000C0003FFFFFFFD03419397D0D3D38C902314E8000000C0003FFFFFFFD03419397D0D3D38CD02324E8000000C0003FFFFFFFD03419397
310
D0D3D38D102324E8000000C0003FFFFFFFD03419397D0D15393902374E8000000C0003FFFFFFFE419397D0D15395D02374E8000000C0003FFFFFFFE419397D1125312502354E8000000C0003FFFFFFFE419397D2105510D02384E8000000C0003FFFFFFFD01419397D2125113902334E8000000C0003FFFFFFFD03419397D2
310
125115D02334E8000000C0003FFFFFFFD03419397D3115051102354E8000000C0003FFFFFFFE419397D391D25410349504E8000000C0003FFFFFFFE419397D412105390334414E8000000C0003FFFFFFFE419397D510D3D3902304E8000000C0003FFFFFFFD03419397D5121312502344E8000000C0003FFFFFFFD01419397
310
D5131153902304E8000000C0003FFFFFFFD03419397D516150CD02364E8000000C0003FFFFFFFD03419397D594131250332414E8000000C0003FFFFFFFE411391D25410249508000000C0003FFFFFFFE411410530C9055241484D358010000C30047A411410530CD055241484D358020000C30047A411410530D5055241484
310
D358000000C0003FFFFFFFE411410530DD055241484D3581E0000C30047903411412105390234418000000C0003FFFFFFFE411413D4D3901368070000C30047A419413D4D49151901368050000C30047903411413D4D6101368000000C0003FFFFFFFD03411414D150D0234418000000C0003FFFFFFFD03411490D1D390137
310
8000000C0003FFFFFFFE411490D1D5D01378000000C0003FFFFFFFE4114919112501348000000C0003FFFFFFFD034114945514901348070000C30047903411494D093D01348000000C0003FFFFFFFD034114D09492D01348000000C0003FFFFFFFD014114D0D153901378000000C0003FFFFFFFD034114D150D51013480000
310
00C0003FFFFFFFD014114D15313901378000000C0003FFFFFFFD034114D15315D01378000000C0003FFFFFFFD034114D4D654D01308000000C0003FFFFFFFD034114D51312501348070000C300479034114D6508C501358000000C0003FFFFFFFD034114D6508C901358000000C0003FFFFFFFD034114D6508CD0135802000
310
0C30047A4114D6508D501358070000C300479034114D65353901378000000C0003FFFFFFFD034114D65355D01378000000C0003FFFFFFFD03411510D3D3901308000000C0003FFFFFFFD034115121312501348000000C0003FFFFFFFD01411512550C9055241484D358010000C30047A411512550CD055241484D358020000
310
C30047A411512550D5055241484D358000000C0003FFFFFFFE411512550DD055241484D3581E0000C300479034115131153901308000000C0003FFFFFFFD03415514905253105545241494C8000000C0003FFFFFFFE41151492D3901378000000C0003FFFFFFFD0341151492D5D01378000000C0003FFFFFFFD03411514931
310
2501348000000C0003FFFFFFFD01411516150C501368030000C300436411516150C901368030000C300436411516150CD01368000000C0003FFFFFFFE411516150D501368070000C30047A411516150DD013681E0000C30047A4115925155D04564945578000000C0003FFFFFFFE41159151121034849448000000C0003FFF
310
FFFFD0241159151159035649538000000C0003FFFFFFFD02411594131250232418000000C0003FFFFFFFE4116925690501348000000C0003FFFFFFFD01411354D653501358020000C30047AAAA3F400030C01013F90A4051E4091E40D0D4110D4151E4190D41D1E4391E4791E7F6
340
16
340
16
340
16
340
43
340
16
340
16
340
16
340
44
340
16
340
16
340
44
340
45
340
16
340
16
340
16
340
16
340
43
340
16
340
16
340
16
340
44
340
16
340
16
340
44
340
45
340
16
340
46
340
16
340
16
340
16
340
16
340
16
340
43
340
16
340
16
340
16
340
47
340
15
340
15
340
15
340
15
340
15
340
15
340
15
340
15
340
15
340
15
340
15
340
15
340
15
340
15
340
15
340
15
340
48
340
15
340
15
340
15
340
15
340
15
340
15
340
15
340
15
340
15
340
15
340
15
340
15
340
15
340
15
340
15
340
16
340
15
340
15
340
15
340
15
340
15
340
15
340
15
340
15
340
47
340
15
340
15
340
48
340
15
340
15
340
15
340
15
340
15
340
15
340
15
340
15
340
15
340
48
340
15
340
15
340
15
340
47
340
15
340
15
340
15
340
15
340
15
340
15
340
15
340
15
340
15
340
15
340
15
340
15
340
15
340
15
340
15
340
15
340
15
340
15
340
15
340
48
340
15
340
15
340
48
340
15
340
15
340
16
340
15
340
48
340
15
340
15
340
47
340
15
340
15
340
16
340
15
340
48
340
15
340
15
340
15
340
15
340
15
340
15
340
15
340
15
340
15
340
48
340
15
340
15
340
15
340
15
340
15
340
15
340
15
340
15
340
15
340
15
340
15
340
4B
340
16
 94
        0
  0
ACAD_PROXY_OBJECT
  5
62F
102
{ACAD_REACTORS
330
73
102
}
330
73
100
AcDbProxyObject
 90
      499
 91
      523
 95
       25
 70
     0
 93
      253
310
43D1444494D454E53494F4E2C414D44545F2A5F44494D404A9012A404A9012A0
  0
ACAD_PROXY_OBJECT
  5
630
102
{ACAD_REACTORS
330
73
102
}
330
73
100
AcDbProxyObject
 90
      499
 91
      523
 95
       25
 70
     0
 93
      181
310
43D012A42D05357D191504B505357CA9012A404A9012A8
  0
ACAD_PROXY_OBJECT
  5
631
102
{ACAD_REACTORS
330
73
102
}
330
73
100
AcDbProxyObject
 90
      499
 91
      523
 95
       25
 70
     0
 93
      133
310
43D054841544348404A9012A404A9012A8
  0
ACAD_PROXY_OBJECT
  5
632
102
{ACAD_REACTORS
330
73
102
}
330
73
100
AcDbProxyObject
 90
      499
 91
      523
 95
       25
 70
     0
 93
      549
310
43D044C494E4549CE0B0E138B0A8B4E0B0A8B4E138B105357CE0B105357CE138B0A8B505357CE0B0A8B505357CE139012A404A910494E534552542C5354445041525432448
  0
ACAD_PROXY_OBJECT
  5
633
102
{ACAD_REACTORS
330
73
102
}
330
73
100
AcDbProxyObject
 90
      499
 91
      523
 95
       25
 70
     0
 93
      909
310
43D6641434D46434652414D452C41434D444154554D5441524745542C41434D444154554D49442C41434D57454C4453594D2C41434D5355524653594D2C41434D4645415449442C41434D504152545245462C41434D42414C4C4F4F4E2C414D44544544474553594D404A9012A404A9012A8
  0
XRECORD
  5
217B
102
{ACAD_REACTORS
330
217A
102
}
330
217A
100
AcDbXrecord
280
     1
  1
21000753__00___
  0

  0
XRECORD
  5
217D
102
{ACAD_REACTORS
330
217C
102
}
330
217C
100
AcDbXrecord
280
     1
  1
3
  0

  0
XRECORD
  5
EDCA
102
{ACAD_REACTORS
330
EDC9
102
}
330
EDC9
100
AcDbXrecord
280
     1
 90
-1073741824
  0
ACAD_PROXY_OBJECT
  5
4F
102
{ACAD_REACTORS
330
4E
102
}
330
4E
100
AcDbProxyObject
 90
      499
 91
      521
 95
       25
 70
     0
 93
      157
310
057356C1D77406406AA8FFFFFFFF05DD01009010
330
1F
330
0
330
EDA0
 94
        0
  0
ACAD_PROXY_OBJECT
  5
F94D
102
{ACAD_REACTORS
330
17E
102
}
330
17E
100
AcDbProxyObject
 90
      499
 91
      577
 95
       25
 70
     0
 93
     2497
310
5DC0000000000000C408030000C30040D254D3D01640600800030C0200800030C000000000000000C40C88A2085A0B6B23A22B233B2A9BA3220480A1C82C6DAA6EAE4CCA8CAF0E8A6E8C88120284A0B1B6A321A329BA3220480A1A82C6DAAECAD8C8D2DCCEA6E8C8812028420B1B6A4B229BA3220480A1682C6DA88C2E8EAD
310
AA6E8C88120284A0B1B6A127A6A9BA3220480A2082DAC8E888CAE8C2D2D8A6F2DAA6E8C88120288A0B6B23A29B2B1BA34B7B729BCB6A9BA3220480A2282DAC8E886CADCE8CAE498D2DCCAA6E8C88120288A0B6B23A2A343932B0B22634B732A9BA3220480A1682DAC8E89CDEE8CAA6E8C88120285A0B1A0B6B3A630BCA9BA3
310
220480A1682C682DACE88D2DAA6E8C88120288A0B1A0B6B3A437B632A1B430B93A29BA3220480A1A82C682DACEA8D2E8D8CAA6E8C8812032048080
340
F5A9
360
F94E
360
F94F
360
F950
360
F951
360
F952
360
F953
360
F954
360
F955
360
F956
360
F957
360
F958
360
F959
360
F95F
360
F960
360
F961
360
F962
340
0
340
0
 94
        0
  0
ACAD_PROXY_OBJECT
  5
17F
102
{ACAD_REACTORS
330
17E
102
}
330
17E
100
AcDbProxyObject
 90
      499
 91
      526
 95
       25
 70
     0
 93
     2379
310
5DC33333333333309408000000C00040D29254D01640600800030C0200800030C003333333333330940C8121E8720B1B6A9BAB9332A32BC3A29BA3220480A1282C6DA8C868CA6E8C88120286A0B1B6ABB2B63234B733A9BA3220480A1082C6DA92C8A6E8C88120285A0B1B6A230BA3AB6A9BA3220480A1282C6DA849E9AA6E
310
8C88120286A0B1A0B6B3AA34BA3632A9BA3220480A2082DAC8E888CAE8C2D2D8A6F2DAA6E8C88120288A0B6B23A29B2B1BA34B7B729BCB6A9BA3220480A2282DAC8E886CADCE8CAE498D2DCCAA6E8C88120288A0B6B23A2A343932B0B22634B732A9BA3220480A1682DAC8E89CDEE8CAA6E8C88120285A0B1A0B6B3A630BCA
310
9BA3220480A1682C682DACE88D2DAA6E8C88120288A0B1A0B6B3A437B632A1B430B93A29BA3220480C812020
340
180
360
181
360
182
360
183
360
184
360
185
360
186
360
EDA5
360
EDA6
360
EDA7
360
EDA9
360
EDAA
360
EDAB
360
EDB1
360
EDB2
360
EDB3
340
0
340
0
 94
        0
  0
ACAD_PROXY_OBJECT
  5
41
102
{ACAD_REACTORS
330
40
102
}
330
40
100
AcDbProxyObject
 90
      499
 91
      518
 95
       25
 70
     0
 93
     2978
310
4050B44574753455454494E4753A0E8482A68AA6A88882A069492A684A1A0A723A0A92920ACA0A81969A1AA0C868A9C829C8E82A12686AF87260F862666A8321A2A72224A0A50602A2140ECC009A020E868A9C889282A682A106260F86460F8666083A1A2A72224A9AA250000000000000042020C868A9C988A9C940000000
310
00000048808321A2A727A323250000000000000122020E868A9C9E8C8C62940000000000000488083A1A2A727A32319250000000000000122021CC6D0C2DACCCAE4C8D2DADADEC8CA9FC84A1A624A720A92920ACA0A829999971A982108698929C8AA8B2A082A0AB098929C8A84A22BA3AAA9A1A0A622A50A0E9882A6A89E8
310
49482A02608426A0A5A2AB24A2ABA7E8120CA0A68682988A0C00800010652455649534941501304154D0D0531150540CC4E8C5085354414E44415244415034A4953425512535154D510535412801DE73145C8ADCD050756455253494F4E4150531352E3030441ED115D1D4D15515125391D4D153911F40
  0
ACAD_PROXY_OBJECT
  5
69
102
{ACAD_REACTORS
330
40
102
}
330
40
100
AcDbProxyObject
 90
      499
 91
      518
 95
       25
 70
     0
 93
      411
310
4050346454D21092DCC6E486DECACC942842630BCA3B937BAB820A8320A6AFA322A0A20F688AE8EA68AA8A8929C8EA68A9C88FA0
  0
ACAD_PROXY_OBJECT
  5
56
102
{ACAD_REACTORS
330
40
102
}
330
40
100
AcDbProxyObject
 90
      499
 91
      518
 95
       25
 70
     0
 93
      583
310
40505536861667421292DCE8CAE4E4EAE0E89FA0484A634B3B43A2634B732A7F21A98D2CED0E898D2DCCAACD2CAEE9FC8229B4B232A7E80A20F688AE8EA68AA8A8929C8EA68A9C88FA
  0
ACAD_PROXY_OBJECT
  5
4C
102
{ACAD_REACTORS
330
40
102
}
330
40
100
AcDbProxyObject
 90
      499
 91
      518
 95
       25
 70
     0
 93
      852
310
4050D5452414E5353455454494E4753A2488A482AE929C8EA8A4829CA69882A8929E9C0C00800050D4F524947494E414C4C595F4F4E0600400028529A7AAA921A2A620A723A0A81A52827212AAA0A48AA68AA4AC8A0C0080001107B44574753455454494E4753454E447D0
  0
ACAD_PROXY_OBJECT
  5
F94E
330
F94D
100
AcDbProxyObject
 90
      499
 91
      578
 95
       25
 70
     0
 93
       13
310
5DD8
  0
ACAD_PROXY_OBJECT
  5
F94F
330
F94D
100
AcDbProxyObject
 90
      499
 91
      579
 95
       25
 70
     0
 93
       96
310
5DEA0E80A0280A0280A0280F
  0
ACAD_PROXY_OBJECT
  5
F950
330
F94D
100
AcDbProxyObject
 90
      499
 91
      580
 95
       25
 70
     0
 93
      272
310
5DD0E4050140501405014050140501405014050140D01405012C0000000000000040
340
F5AA
 94
        0
  0
ACAD_PROXY_OBJECT
  5
F951
330
F94D
100
AcDbProxyObject
 90
      499
 91
      581
 95
       25
 70
     0
 93
      497
310
5DE8666666666667A67E199999999999E99FD22405014050140501405014050140501405014050140501405014050140501405014050140501405014050100
340
F5A5
 94
        0
  0
ACAD_PROXY_OBJECT
  5
F952
330
F94D
100
AcDbProxyObject
 90
      499
 91
      582
 95
       25
 70
     0
 93
       10
310
5DC0
  0
ACAD_PROXY_OBJECT
  5
F953
330
F94D
100
AcDbProxyObject
 90
      499
 91
      583
 95
       25
 70
     0
 93
      257
310
5DE290EA22A7D90F49F80000000000001081400000000000004204010000618000
340
F5A6
340
F5A7
 94
        0
  0
ACAD_PROXY_OBJECT
  5
F954
330
F94D
100
AcDbProxyObject
 90
      499
 91
      584
 95
       25
 70
     0
 93
    13013
310
5DD0E411255115350141236025B690140501406901000000000000091013347454E545241434F2C4A504E2C302C8D8096DA2C47454E54524154582C25732C2847454E4D53472067656E647767203232322940690120281A8AA2CA0282484A4BE52028120280A0320200000000000012202668E8A9CA8A482869E5894A09C58
310
605921292F94588E8A9CA8A482A8B0584AE658508E8A9C9AA68E40CECADCC8EECE406464665280D202405044E414D454050496BC914F4051C40640A80000000000004E404CD1D15395149050D3CB1294138B0C0B25AF2453CB11D15395149055160B095CCB0A11D1539354D1C819D95B991DD9C80C8C8D8A50192C3D494628
310
4953424C414E4B28504152543A4E414D45292C424C4F434B3A4E414D452C504152543A4E414D452940480A0A888AA686A480A09251B1DBE80A3A80C81D0000000000100A28099A3A2A72A2920A1A7962528271618164946C76F9623A2A72A2920AA2C1612B9961423A2A726A9A39033B2B7323BB39019189B94A0348090142
310
14D51053911054911014122D2E29A50147501904A000000000000125013347454E545241434F2C4A504E2C302C8B4B8A692C47454E54524154582C25732C2847454E4D53472067656E64776720323138294069012028426A0AA22A924A0A62028246EF4BDFA028EA0320B40000000000001CA02668E8A9CA8A482869E5894A
310
09C5860591BBD2F7E588E8A9CA8A482A8B0584AE658508E8A9C9AA68E40CECADCC8EECE406464625280D202405044E4F544540504928D8B4C4051D40641A80000000000003E404CD1D15395149050D3CB1294138B0C0B24A362D30B11D15395149055160B095CCB0A11D1539354D1C819D95B991DD9C80C8C8D4A501240480
310
A0CAC8A9C889EA480A1106F1072706BF02B680A3A80C83D00000000000007C809BA3A2A72A2920A1A79625282716181641BC41C9C1AFC0AD9623A2A72A2920AA2C1612B9961423A2A726A9A39033B2B7323BB39019191A14A0248090141911154D0D48C90141A43825AF880C90147501908A000000000020145013447454E5
310
45241434F2C4A504E2C302C90E096BE20322C47454E54524154582C25732C2847454E4D53472067656E6477672033362940490120284A9AA20A72220A922192028345A5C53490192028EA03213400000000000024A026A8E8A9CA8A482869E5894A09C586059169714D24064588E8A9CA8A482A8B0584AE658508E8A9C9AA6
310
8E40CECADCC8EECE4064646052809202405094D4154455249414C32405068DDE97BF20324051D40642A8713D0AD7A37045404D11D15395149050D3CB1294138B0C0B2377A5EFC80C8B11D15395149055160B095CCB0A11D1539354D1C819D95B991DD9C80D0C0A501240480A089A82A6A680A091D7F2F9480A3A80A0485A06
310
8100000000000007C809923A2A72A2920A1A796252827161816475FCBE51623A2A72A2920AA2C1612B9961423A2A726A9A39033B2B7323BB3901A1914A024809014154149250D150141226FE29A501475014090C409020000000000000F9013247454E545241434F2C4A504E2C302C89BF8A692C47454E54524154582C2573
310
2C2847454E4D53472067656E6477672034332940490120281A224A6A02824850CB202028EA028121A81A040000000000001F202648E8A9CA8A482869E5894A09C58605921432C80588E8A9CA8A482A8B0584AE658508E8A9C9AA68E40CECADCC8EECE406868528092024050E445020000000000000510201C00030C0001018
310
0000000000003E400000000000000F901073D3C4954454D3E4050180000000000003E400000000000000F901073D3C4954454D3E40501800000000000034400000000000000D101073D3C4954454D3E40501800000000000034400000000000000D101073D3C4954454D3E405029010000000000000F9000000000000003E4
310
041CF4F125511534F901418F4F1455164F9014060000000000000F9000000000000003E4041CF4F125511534F9014060000000000000D100000000000000344041CF4F125511534F901901000000000000000F9000000000000003E40A2200000000000008204018000618048220681A048120280C88214844882034852034
310
8452028521485214814000000000000F0BF0000000000003C2FD018020000C3008070000C3003373333333333B0FCCDCCCCCCCCCCEC3F000000000000031012034164050341105901A000000000000062040100006180401000061804008000618008098A02808
340
0
340
0
 94
        0
  0
ACAD_PROXY_OBJECT
  5
F955
330
F94D
100
AcDbProxyObject
 90
      499
 91
      585
 95
       25
 70
     0
 93
      898
310
5DC4000000000000144048CF4F11115510525317D3105091530F880A0F11115510525317D05094D4D0D053114F8A51141C9A9999999999B93F26A666666666724FC000000000000E03F400000000000000400000000000000510000000000000024408070000C300000000000000051000
340
16
340
F5A9
 94
        0
  0
ACAD_PROXY_OBJECT
  5
F956
330
F94D
100
AcDbProxyObject
 90
      499
 91
      586
 95
       25
 70
     0
 93
      823
310
5DC0B00000000000002880959E9E29A2A1AA24A7A72FA620A122A62FA324A929AA1F169E29A2A1AA24A7A72FA620A122A62FA620A9AA1F000000000000048803FFFE01C00030C0088C0380006180000000000000048800000000000000A2000000000000002880
340
652
340
F5A9
 94
        0
  0
ACAD_PROXY_OBJECT
  5
F957
330
F94D
100
AcDbProxyObject
 90
      499
 91
      587
 95
       25
 70
     0
 93
      152
310
5DE80000000000000840A3D0A5723F0BD1F200
  0
ACAD_PROXY_OBJECT
  5
F958
330
F94D
100
AcDbProxyObject
 90
      499
 91
      588
 95
       25
 70
     0
 93
       14
310
5DE0
340
0
 94
        0
  0
ACAD_PROXY_OBJECT
  5
F959
330
F94D
100
AcDbProxyObject
 90
      499
 91
      589
 95
       25
 70
     0
 93
     8619
310
5DD084050BA4050AA405024050E836583938376838C815B836720314043A013D2525633C486F6C653A63746469613E2078203C486F6C653A637464657074683E20555C503C696628657175616C28486F6C653A7461707065642C223022292C22252563222C486F6C653A6E6F6D696E616C202220782022293E3C6966286571
310
75616C28486F6C653A7461707065642C223022292C486F6C653A6469612C486F6C653A706974636864657363293E3C696628657175616C28486F6C653A7461707065642C223122292C22207820222C2222293E3C696628657175616C28486F6C653A7461707065642C223122292C486F6C653A74617064657074682C222229
310
3E203C696628657175616C28486F6C653A7465726D696E6174696F6E2C223022292C22202F20222C2222293E3C696628657175616C28486F6C653A7465726D696E6174696F6E2C223022292C486F6C653A64657074682C2222293E406901405034050E836583938376838C815B836720314043B013D2525633C486F6C653A6
310
3746469613E2078203C486F6C653A6374616E676C653E2525645C503C696628657175616C28486F6C653A7461707065642C223022292C22252563222C486F6C653A6E6F6D696E616C202220782022293E3C696628657175616C28486F6C653A7461707065642C223022292C486F6C653A6469612C486F6C653A70697463686
310
4657363293E3C696628657175616C28486F6C653A7461707065642C223122292C22207820222C2222293E3C696628657175616C28486F6C653A7461707065642C223122292C486F6C653A74617064657074682C2222293E203C696628657175616C28486F6C653A7465726D696E6174696F6E2C223022292C22202F20222C2
310
222293E3C696628657175616C28486F6C653A7465726D696E6174696F6E2C223022292C486F6C653A64657074682C2222293E406901405014050E836583938376838C815B8367203140416013D3C696628657175616C28486F6C653A7461707065642C223022292C22252563222C486F6C653A6E6F6D696E616C2022207820
310
22293E3C696628657175616C28486F6C653A7461707065642C223022292C486F6C653A6469612C486F6C653A706974636864657363293E3C696628657175616C28486F6C653A7461707065642C223122292C22207820222C2222293E3C696628657175616C28486F6C653A7461707065642C223122292C486F6C653A746170
310
64657074682C2222293E203C696628657175616C28486F6C653A7465726D696E6174696F6E2C223022292C22202F20222C2222293E3C696628657175616C28486F6C653A7465726D696E6174696F6E2C223022292C486F6C653A64657074682C2222293E4069014051E4090E836583938376838C815B83672032405173D3C5
310
35444503A444553433E203C535444503A5354443E40690E836583938376838C815B836720314050C3D3C535444503A444553433E40690240515AAABBA120
360
F95A
330
F95A
360
F95B
330
F95B
360
F95C
330
F95C
360
F95D
360
F95E
330
F95D
330
F95E
 94
        0
  0
ACAD_PROXY_OBJECT
  5
F95F
330
F94D
100
AcDbProxyObject
 90
      499
 91
      568
 95
       25
 70
     0
 93
       26
310
5DD02A80
340
0
 94
        0
  0
ACAD_PROXY_OBJECT
  5
F960
330
F94D
100
AcDbProxyObject
 90
      499
 91
      569
 95
       25
 70
     0
 93
      250
310
5DD020000000000000A1000000000000002440408F0F9023C3E409A0DCFFFF80
340
F5AE
340
0
340
0
340
F5AF
340
F5B0
340
F5B1
340
F5B2
340
F5B3
340
F5B4
340
0
 94
        0
  0
ACAD_PROXY_OBJECT
  5
F961
330
F94D
100
AcDbProxyObject
 90
      499
 91
      590
 95
       25
 70
     0
 93
    13889
310
5DD1D003FFFFFFFD030300030000000000000310200800030C01030300030000000000000310200800030C00050C8DC0955782CC838A83588367014ED1D15395149050D3CB1294138B0C0B23702555E0B320E2A0D620D9CB11D15395149055160B095CCB0A11D1539354D1C819D95B991A5B5E880CCC0A78000C0000000000
310
00000000000000000000010000000000000310200800030C010000000000000310200800030C020143CF4F111959985D5B1D151A5D1B194F8050A8C8A8365815B8375838B014E51D15395149050D3CB1294138B0C0B2322A0D96056E0DD60E2CB11D15395149055160B095CCB0A11D1539354D1C819D95B991A5B5E880CCC4
310
A78000C000000000000000000000000000000010000000000000310200800030C010000000000000310200800030C020143CF4F111959985D5B1D151A5D1B194F90D44111409034110541D0C4350F4050E44D03449074510F000141232D24D7C053247454E545241434F2C4A504E2C302C8CB4935F2C47454E54524154582C
310
25732C2847454E4D53472067656E64696D7A20312900010104002214000281464500A608E8A9CA8A482869E5894A09C5860591914588E8A9CA8A482A8B0584AE658508E8A9C9AA68E40CECADCC8D2DAF4406452029E9E9E27B934B3B4B71F1E24A31427A91424A9A12620A7259427B934B3B4B7149624A9A12620A7259424B
310
A32B6949496111116111711149F1E24BA32B69F00808200111A000140560052F47454E545241434F2C4A504E2C302C582C47454E54524154582C25732C2847454E4D53472067656E64696D7A20332900010100002054000280AC80A5E8E8A9CA8A482869E5894A09C586058B2588E8A9CA8A482A8B0584AE658508E8A9C9AA
310
68E40CECADCC8D2DAF4406852000202000040E800050152014BD1D15395149050D3CB1294138B0C0B148B11D15395149055160B095CCB0A11D1539354D1C819D95B991A5B5E880D8A400040400008250000A0507A6029823A2A72A2920A1A79625282716181641E99623A2A72A2920AA2C1612B9961423A2A726A9A39033B2
310
B73234B6BD101B948000808180105A000140A0F4C053047454E545241434F2C4A504E2C302C83D32C47454E54524154582C25732C2847454E4D53472067656E64696D7A203829000101010020F400028248704B5F00A668E8A9CA8A482869E5894A09C58605921C12D7C588E8A9CA8A482A8B0584AE658508E8A9C9AA68E40
310
CECADCC8D2DAF440646052000200080043280005048B4B8A69014CD1D15395149050D3CB1294138B0C0B22D2E29A4B11D15395149055160B095CCB0A11D1539354D1C819D95B991A5B5E880C8C4A4000400100086D0000A09196926BE029923A2A72A2920A1A796252827161816465A49AF9623A2A72A2920AA2C1612B9961
310
423A2A726A9A39033B2B73234B6BD10189480A02620202080043E80005048D8096DA014CD1D15395149050D3CB1294138B0C0B236025B68B11D15395149055160B095CCB0A11D1539354D1C819D95B991A5B5E880C4D0A4000404140280D0000A190687072706CD06C5069D06B0029DA3A2A72A2920A1A7962528271618164
310
1A1C1C9C1B341B141A741AC1623A2A72A2920AA2C1612B9961423A2A726A9A39033B2B73234B6BD10189A94800080828050EA000143A322A0D0E0E4E0D9A0D8A0D3A0D60053D47454E545241434F2C4A504E2C302C8C8A8343839383668362834E83582C47454E54524154582C25732C2847454E4D53472067656E64696D7A
310
2031372900010105002274000281464500A628E8A9CA8A482869E5894A09C5860591914588E8A9CA8A482A8B0584AE658508E8A9C9AA68E40CECADCC8D2DAF440626C52000202080044A8000504909497CA014CD1D15395149050D3CB1294138B0C0B242525F28B11D15395149055160B095CCB0A11D1539354D1C819D95B9
310
91A5B5E880C4E4A400040418008A521E000000000000001CA040C00000000000034408080000000000006881010000000000000D102040000000000001A204080000000000003440818000000000000728103000000000000125020600000000004028A040000000000000034408000000000000004881000000000000000D
310
102000000000000001A204000000000000003440818000000000000508143C0000000000000039408180000000000006881030000000000000D102060000000000001A2040C00000000000034408180000000000006881030000000000000E5020600000000000024A040C0000000000805140800000000000000688100000
310
00000000009102000000000000001A2040000000000000034408180000000000006881030000000000000A10284220000000878000002020000008380000020400000081800000208000000828000002028900000000
340
0
340
0
340
0
340
0
340
F5A9
340
F5A9
 94
        0
  0
ACAD_PROXY_OBJECT
  5
F962
330
F94D
100
AcDbProxyObject
 90
      499
 91
      561
 95
       25
 70
     0
 93
     7018
310
5DD9740D254D3D0649534F5F4133429254D3D7D5125513115051349534F5F42525F5265766973696F6E6C69737446111413478342028323937783834316D6D2920421254D3D7D04D1E0D11141327835202835393478323130326D6D29421254D3D7D04C9E0D51141347839202832393778313839326D6D29421254D3D7D04D
310
1E0E51141337837202834323078323038306D6D29421254D3D7D04CDE0DD1141347838202832393778313638326D6D29421254D3D7D04D1E0E11141327834202835393478313638326D6D29421254D3D7D04C9E0D10E41312028353934783834316D6D29419254D3D7D04C51141347837202832393778313437316D6D29421
310
254D3D7D04D1E0DD1141347836202832393778313236316D6D29421254D3D7D04D1E0D91141347835202832393778313035316D6D29421254D3D7D04D1E0D5104130202838343078313138396D6D2920419254D3D7D04C10E41332028323937783432306D6D29419254D3D7D04CD1141327833202835393478313236316D6D
310
29421254D3D7D04C9E0CD10413478332028323937783633306D6D29421254D3D7D04D1E0CD1141337834202834323078313138396D6D29421254D3D7D04CDE0D11141337836202834323078313738336D6D29421254D3D7D04CDE0D91141337835202834323078313438366D6D29421254D3D7D04CDE0D50E4132202834323
310
0783539346D6D29419254D3D7D04C910413378332028343230783839316D6D29421254D3D7D04CDE0CD0E41342028323937783231306D6D29419254D3D7D04D1124130783220283131383978313638326D6D29421254D3D7D04C1E0C9124130783320283131383978323532336D6D29421254D3D7D04C1E0CD114131783420
310
2838343178323337386D6D29421254D3D7D04C5E0D11141317833202838343178313738336D6D29421254D3D7D04C5E0CD02431254D3C82557247A25E4C81050A49534F5F5449544C4541431254D3C82557247A25E4C81090A49534F5F5449544C45424110E979A97F0838A835883675F42525F44D254D3D7D09497D4995D9
310
A5CDA5BDB9B1A5CDD10E979A97F0838A835883675F54525F44D254D3D7D51497D4995D9A5CDA5BDB9B1A5CDD10E979A97F0838A835883675F424C5F44D254D3D7D09317D4995D9A5CDA5BDB9B1A5CDD10E979A97F0838A835883675F544C5F44D254D3D7D51317D4995D9A5CDA5BDB9B1A5CDD00
  0
ACAD_PROXY_OBJECT
  5
181
330
17F
100
AcDbProxyObject
 90
      499
 91
      527
 95
       25
 70
     0
 93
       86
310
5DEA0C80A0280A0280A034
  0
ACAD_PROXY_OBJECT
  5
182
330
17F
100
AcDbProxyObject
 90
      499
 91
      528
 95
       25
 70
     0
 93
      282
310
5DD0E4050140501405014050140501405014050141101405014041000000000000001000
340
187
 94
        0
  0
ACAD_PROXY_OBJECT
  5
183
330
17F
100
AcDbProxyObject
 90
      499
 91
      529
 95
       25
 70
     0
 93
      323
310
5DCC199999999999E99F91740501405014050140501405014050140501405014050140501405014040
340
0
 94
        0
  0
ACAD_PROXY_OBJECT
  5
184
330
17F
100
AcDbProxyObject
 90
      499
 91
      530
 95
       25
 70
     0
 93
       10
310
5DC0
  0
ACAD_PROXY_OBJECT
  5
185
330
17F
100
AcDbProxyObject
 90
      499
 91
      531
 95
       25
 70
     0
 93
      257
310
5DE0C16A22A7D90F49F80000000000001081400000000000004204010000618000
340
188
340
189
 94
        0
  0
ACAD_PROXY_OBJECT
  5
186
330
17F
100
AcDbProxyObject
 90
      499
 91
      532
 95
       25
 70
     0
 93
     5277
310
5DD06411255115350141236025B6901405014069010000000000000910240690120281A8AA2CA0282484A4BE52028120280A032020000000000001220480D202405044E414D454050496BC914F4051C40640A80000000000004E4090193C3D3C4946284953424C414E4B28504152543A4E414D45292C424C4F434B3A4E414D
310
452C504152543A4E414D45293E3C41435F44455343524950544E3E40480A109A82A88AA492829880A091BBD2F7E80A3A80C81D0E27A15AF46E08A81203480901411393D5115014124A363B7D0147501904A0000000000000F902406428F4F1050D7D393D5114F901202832B22A72227A92028366EF6EE06F582028EA0320B4
310
0000000000001F20480C879E9E20A1AFAB27222FA620A122A61F20240506445020000000000000490201C00030C00010180000000000003E400000000000000F901073D3C4954454D3E4050180000000000003E400000000000000F901073D3C4954454D3E40501800000000000034400000000000000D101073D3C4954454
310
D3E40501800000000000034400000000000000D101073D3C4954454D3E405029010000000000000F9000000000000003E4041CF4F125511534F901418F4F1455164F9014060000000000000F9000000000000003E4041CF4F125511534F901800000000000034400000000000000D101073D3C4954454D3E40640400000000
310
0000003E400000000000000F90288800000000000020810000001800120881A068120480A032208521122080D21480D211480A1485214852050000000000003C2FC000000000000F0BF40600800030C0200400030C00CDCCCCCCCCCCEC3F3373333333333B0FC3333333333330940C80D069014090341504901A1999999999
310
9984A040100006180400800061804010000618008098A02808
340
0
340
0
 94
        0
  0
ACAD_PROXY_OBJECT
  5
EDA5
330
17F
100
AcDbProxyObject
 90
      499
 91
      561
 95
       25
 70
     0
 93
     3042
310
5DD9740D29254D064A49535F413342929254D7D512551311505134A49535F42525F5265766973696F6E6C6973744190F4134522028323937783231306D6D2941D29254D7D04D1490E41312028353934783834316D6D2941929254D7D04C50E41332028323937783432306D6D2941929254D7D04CD0F41344C2028323130783
310
239376D6D2941D29254D7D04D1310E41322028343230783539346D6D2941929254D7D04C90F4130202838343178313138396D6D2941929254D7D04C10243129254C82557247A25E4C81050A4A49535F5449544C454143129254C82557247A25E4C81090A4A49535F5449544C45424110E979A97F0838A835883675F42525F4
310
4D29254D7D09497D4995D9A5CDA5BDB9B1A5CDD10E979A97F0838A835883675F54525F44D29254D7D51497D4995D9A5CDA5BDB9B1A5CDD10E979A97F0838A835883675F424C5F44D29254D7D09317D4995D9A5CDA5BDB9B1A5CDD10E979A97F0838A835883675F544C5F44D29254D7D51317D4995D9A5CDA5BDB9B1A5CDD00
  0
ACAD_PROXY_OBJECT
  5
EDA6
330
17F
100
AcDbProxyObject
 90
      499
 91
      562
 95
       25
 70
     0
 93
      898
310
5DC4000000000000124048CF4F11115510525317D3105091530F880A0F11115510525317D05094D4D0D053114F8A50241C9A9999999999B93F26A666666666724FC000000000000E03F400000000000000400000000000000510000000000000024408070000C300000000000000049000
340
16
340
180
 94
        0
  0
ACAD_PROXY_OBJECT
  5
EDA7
330
17F
100
AcDbProxyObject
 90
      499
 91
      563
 95
       25
 70
     0
 93
      823
310
5DC0B00000000000002480959E9E29A2A1AA24A7A72FA620A122A62FA324A929AA1F169E29A2A1AA24A7A72FA620A122A62FA620A9AA1F000000000000048803FFFE01C00030C008140380006180000000000000048800000000000000A2000000000000002480
340
652
340
180
 94
        0
  0
ACAD_PROXY_OBJECT
  5
EDA9
330
17F
100
AcDbProxyObject
 90
      499
 91
      564
 95
       25
 70
     0
 93
      152
310
5DE8273108AC1C5A0640A3D0A5723F0BD1F200
  0
ACAD_PROXY_OBJECT
  5
EDAA
330
17F
100
AcDbProxyObject
 90
      499
 91
      565
 95
       25
 70
     0
 93
       14
310
5DE0
340
0
 94
        0
  0
ACAD_PROXY_OBJECT
  5
EDAB
330
17F
100
AcDbProxyObject
 90
      499
 91
      566
 95
       25
 70
     0
 93
     6059
310
5DD084050BA4050AA405024050E836583938376838C815B83672031405983D3C486F6C653A6469613E3C696628657175616C28486F6C653A7465726D696E6174696F6E2C223022292C2220905B82B320222C22208368838A838B22293E3C696628657175616C28486F6C653A7465726D696E6174696F6E2C223022292C486F
310
6C653A64657074682C2222293E2C203C486F6C653A63746469613E2082B482AE82E882CC905B82B3203C486F6C653A637464657074683E406901405034050E836583938376838C815B83672031405EF3D3C486F6C653A6374616E676C653E252564202525633C486F6C653A63746469613E208E4D8C8A2C203C69662865717
310
5616C28486F6C653A7461707065642C223022292C22252563222C486F6C653A6E6F6D696E616C202220782022293E3C696628657175616C28486F6C653A7461707065642C223022292C486F6C653A6469612C486F6C653A706974636864657363293E203C696628657175616C28486F6C653A7465726D696E6174696F6E2C2
310
23022292C22905B82B320222C222022293E3C696628657175616C28486F6C653A7465726D696E6174696F6E2C223022292C486F6C653A64657074682C2222293E406901405014050E836583938376838C815B83672031405C73D3C696628657175616C28486F6C653A7461707065642C223022292C22252563222C486F6C65
310
3A6E6F6D696E616C202220782022293E3C696628657175616C28486F6C653A7461707065642C223022292C486F6C653A6469612C486F6C653A706974636864657363293E203C696628657175616C28486F6C653A7465726D696E6174696F6E2C223022292C22905B82B320222C222022293E3C696628657175616C28486F6C
310
653A7465726D696E6174696F6E2C223022292C486F6C653A64657074682C2222293E4069014051E4090E836583938376838C815B83672032405173D3C535444503A444553433E203C535444503A5354443E40690E836583938376838C815B836720314050C3D3C535444503A444553433E40690240515AAABBA120
360
EDAF
330
EDAF
360
EDB0
330
EDB0
360
EDAE
330
EDAE
360
EDAD
360
EDAC
330
EDAD
330
EDAC
 94
        0
  0
ACAD_PROXY_OBJECT
  5
EDB1
330
17F
100
AcDbProxyObject
 90
      499
 91
      568
 95
       25
 70
     0
 93
       26
310
5DD02A80
340
42
 94
        0
  0
ACAD_PROXY_OBJECT
  5
EDB2
330
17F
100
AcDbProxyObject
 90
      499
 91
      569
 95
       25
 70
     0
 93
      250
310
5DD020000000000000A1000000000000002440408F0F9023C3E409A0DCFFFF80
340
58
340
18A8
340
18A9
340
5F
340
60
340
61
340
62
340
63
340
68
340
0
 94
        0
  0
ACAD_PROXY_OBJECT
  5
EDB3
330
17F
100
AcDbProxyObject
 90
      499
 91
      570
 95
       25
 70
     0
 93
    13889
310
5DD1D003FFFFFFFD030300030CCCCCCCCCCCC250200800030C01030300030CCCCCCCCCCCC250200800030C00050C8DC0955782CC838A83588367014ED1D15395149050D3CB1294138B0C0B23702555E0B320E2A0D620D9CB11D15395149055160B095CCB0A11D1539354D1C819D95B991A5B5E880CCC0A78000C0000000000
310
00000000000000000000010CCCCCCCCCCCC250200800030C010CCCCCCCCCCCC250200800030C020143CF4F111959985D5B1D151A5D1B194F8050A8C8A8365815B8375838B014E51D15395149050D3CB1294138B0C0B2322A0D96056E0DD60E2CB11D15395149055160B095CCB0A11D1539354D1C819D95B991A5B5E880CCC4
310
A78000C000000000000000000000000000000010CCCCCCCCCCCC250200800030C010CCCCCCCCCCCC250200800030C020143CF4F111959985D5B1D151A5D1B194F90D44111409034110541D0C4350F4050E44D03449074510F000141232D24D7C053247454E545241434F2C4A504E2C302C8CB4935F2C47454E54524154582C
310
25732C2847454E4D53472067656E64696D7A20312900010104002214000281464500A608E8A9CA8A482869E5894A09C5860591914588E8A9CA8A482A8B0584AE658508E8A9C9AA68E40CECADCC8D2DAF4406452029E9E9E27B934B3B4B71F1E24A31427A91424A9A12620A7259427B934B3B4B7149624A9A12620A7259424B
310
A32B6949496111116111711149F1E24BA32B69F00808200111A000140560052F47454E545241434F2C4A504E2C302C582C47454E54524154582C25732C2847454E4D53472067656E64696D7A20332900010100002054000280AC80A5E8E8A9CA8A482869E5894A09C586058B2588E8A9CA8A482A8B0584AE658508E8A9C9AA
310
68E40CECADCC8D2DAF4406852000202000040E800050152014BD1D15395149050D3CB1294138B0C0B148B11D15395149055160B095CCB0A11D1539354D1C819D95B991A5B5E880D8A400040400008250000A0507A6029823A2A72A2920A1A79625282716181641E99623A2A72A2920AA2C1612B9961423A2A726A9A39033B2
310
B73234B6BD101B948000808180105A000140A0F4C053047454E545241434F2C4A504E2C302C83D32C47454E54524154582C25732C2847454E4D53472067656E64696D7A203829000101010020F400028248704B5F00A668E8A9CA8A482869E5894A09C58605921C12D7C588E8A9CA8A482A8B0584AE658508E8A9C9AA68E40
310
CECADCC8D2DAF440646052000200080043280005048B4B8A69014CD1D15395149050D3CB1294138B0C0B22D2E29A4B11D15395149055160B095CCB0A11D1539354D1C819D95B991A5B5E880C8C4A4000400100086D0000A09196926BE029923A2A72A2920A1A796252827161816465A49AF9623A2A72A2920AA2C1612B9961
310
423A2A726A9A39033B2B73234B6BD10189480A02620202080043E80005048D8096DA014CD1D15395149050D3CB1294138B0C0B236025B68B11D15395149055160B095CCB0A11D1539354D1C819D95B991A5B5E880C4D0A4000404140280D0000A190687072706CD06C5069D06B0029DA3A2A72A2920A1A7962528271618164
310
1A1C1C9C1B341B141A741AC1623A2A72A2920AA2C1612B9961423A2A726A9A39033B2B73234B6BD10189A94800080820050EA000143A322A0D0E0E4E0D9A0D8A0D3A0D60053D47454E545241434F2C4A504E2C302C8C8A8343839383668362834E83582C47454E54524154582C25732C2847454E4D53472067656E64696D7A
310
2031372900010105002274000281464500A628E8A9CA8A482869E5894A09C5860591914588E8A9CA8A482A8B0584AE658508E8A9C9AA68E40CECADCC8D2DAF440626C52000202080044A8000504909497CA014CD1D15395149050D3CB1294138B0C0B242525F28B11D15395149055160B095CCB0A11D1539354D1C819D95B9
310
91A5B5E880C4E4A400040418008A521E000000000000001CA040C00000000000034408080000000000006881010000000000000D102040000000000001A204080000000000003440818000000000000728103000000000000125020600000000004028A040000000000000034408000000000000004881000000000000000D
310
102000000000000001A204000000000000003440818000000000000508143C0000000000000039408180000000000006881030000000000000D102060000000000001A2040C00000000000034408180000000000006881030000000000000E5020600000000000024A040C0000000000805140800000000000000688100000
310
00000000009102000000000000001A2040000000000000034408180000000000006881030000000000000A10284220000000878000002020000008380000020400000081800000208000000828000002028900000000
340
0
340
0
340
0
340
0
340
180
340
180
 94
        0
  0
ACAD_PROXY_OBJECT
  5
F95A
330
F959
100
AcDbProxyObject
 90
      499
 91
      567
 95
       25
 70
     0
 93
     2680
310
5DE0143A0D960E4E0DDA0E32056E0D9C80C4043A013D2525633C486F6C653A63746469613E2078203C486F6C653A637464657074683E20555C503C696628657175616C28486F6C653A7461707065642C223022292C22252563222C486F6C653A6E6F6D696E616C202220782022293E3C696628657175616C28486F6C653A74
310
61707065642C223022292C486F6C653A6469612C486F6C653A706974636864657363293E3C696628657175616C28486F6C653A7461707065642C223122292C22207820222C2222293E3C696628657175616C28486F6C653A7461707065642C223122292C486F6C653A74617064657074682C2222293E203C69662865717561
310
6C28486F6C653A7465726D696E6174696F6E2C223022292C22202F20222C2222293E3C696628657175616C28486F6C653A7465726D696E6174696F6E2C223022292C486F6C653A64657074682C2222293E
  0
ACAD_PROXY_OBJECT
  5
F95B
330
F959
100
AcDbProxyObject
 90
      499
 91
      567
 95
       25
 70
     0
 93
     2688
310
5DE0143A0D960E4E0DDA0E32056E0D9C80C4043B013D2525633C486F6C653A63746469613E2078203C486F6C653A6374616E676C653E2525645C503C696628657175616C28486F6C653A7461707065642C223022292C22252563222C486F6C653A6E6F6D696E616C202220782022293E3C696628657175616C28486F6C653A
310
7461707065642C223022292C486F6C653A6469612C486F6C653A706974636864657363293E3C696628657175616C28486F6C653A7461707065642C223122292C22207820222C2222293E3C696628657175616C28486F6C653A7461707065642C223122292C486F6C653A74617064657074682C2222293E203C696628657175
310
616C28486F6C653A7465726D696E6174696F6E2C223022292C22202F20222C2222293E3C696628657175616C28486F6C653A7465726D696E6174696F6E2C223022292C486F6C653A64657074682C2222293E
  0
ACAD_PROXY_OBJECT
  5
F95C
330
F959
100
AcDbProxyObject
 90
      499
 91
      567
 95
       25
 70
     0
 93
     2392
310
5DE0143A0D960E4E0DDA0E32056E0D9C80C40416013D3C696628657175616C28486F6C653A7461707065642C223022292C22252563222C486F6C653A6E6F6D696E616C202220782022293E3C696628657175616C28486F6C653A7461707065642C223022292C486F6C653A6469612C486F6C653A706974636864657363293E
310
3C696628657175616C28486F6C653A7461707065642C223122292C22207820222C2222293E3C696628657175616C28486F6C653A7461707065642C223122292C486F6C653A74617064657074682C2222293E203C696628657175616C28486F6C653A7465726D696E6174696F6E2C223022292C22202F20222C2222293E3C69
310
6628657175616C28486F6C653A7465726D696E6174696F6E2C223022292C486F6C653A64657074682C2222293E
  0
ACAD_PROXY_OBJECT
  5
F95D
330
F959
100
AcDbProxyObject
 90
      499
 91
      567
 95
       25
 70
     0
 93
      344
310
5DE0143A0D960E4E0DDA0E32056E0D9C80C805173D3C535444503A444553433E203C535444503A5354443E
  0
ACAD_PROXY_OBJECT
  5
F95E
330
F959
100
AcDbProxyObject
 90
      499
 91
      567
 95
       25
 70
     0
 93
      256
310
5DE0143A0D960E4E0DDA0E32056E0D9C80C4050C3D3C535444503A444553433E
  0
ACAD_PROXY_OBJECT
  5
EDAF
330
EDAB
100
AcDbProxyObject
 90
      499
 91
      567
 95
       25
 70
     0
 93
     1376
310
5DE0143A0D960E4E0DDA0E32056E0D9C80C405983D3C486F6C653A6469613E3C696628657175616C28486F6C653A7465726D696E6174696F6E2C223022292C2220905B82B320222C22208368838A838B22293E3C696628657175616C28486F6C653A7465726D696E6174696F6E2C223022292C486F6C653A64657074682C22
310
22293E2C203C486F6C653A63746469613E2082B482AE82E882CC905B82B3203C486F6C653A637464657074683E
  0
ACAD_PROXY_OBJECT
  5
EDB0
330
EDAB
100
AcDbProxyObject
 90
      499
 91
      567
 95
       25
 70
     0
 93
     2072
310
5DE0143A0D960E4E0DDA0E32056E0D9C80C405EF3D3C486F6C653A6374616E676C653E252564202525633C486F6C653A63746469613E208E4D8C8A2C203C696628657175616C28486F6C653A7461707065642C223022292C22252563222C486F6C653A6E6F6D696E616C202220782022293E3C696628657175616C28486F6C
310
653A7461707065642C223022292C486F6C653A6469612C486F6C653A706974636864657363293E203C696628657175616C28486F6C653A7465726D696E6174696F6E2C223022292C22905B82B320222C222022293E3C696628657175616C28486F6C653A7465726D696E6174696F6E2C223022292C486F6C653A6465707468
310
2C2222293E
  0
ACAD_PROXY_OBJECT
  5
EDAE
330
EDAB
100
AcDbProxyObject
 90
      499
 91
      567
 95
       25
 70
     0
 93
     1752
310
5DE0143A0D960E4E0DDA0E32056E0D9C80C405C73D3C696628657175616C28486F6C653A7461707065642C223022292C22252563222C486F6C653A6E6F6D696E616C202220782022293E3C696628657175616C28486F6C653A7461707065642C223022292C486F6C653A6469612C486F6C653A706974636864657363293E20
310
3C696628657175616C28486F6C653A7465726D696E6174696F6E2C223022292C22905B82B320222C222022293E3C696628657175616C28486F6C653A7465726D696E6174696F6E2C223022292C486F6C653A64657074682C2222293E
  0
ACAD_PROXY_OBJECT
  5
EDAD
330
EDAB
100
AcDbProxyObject
 90
      499
 91
      567
 95
       25
 70
     0
 93
      344
310
5DE0143A0D960E4E0DDA0E32056E0D9C80C805173D3C535444503A444553433E203C535444503A5354443E
  0
ACAD_PROXY_OBJECT
  5
EDAC
330
EDAB
100
AcDbProxyObject
 90
      499
 91
      567
 95
       25
 70
     0
 93
      256
310
5DE0143A0D960E4E0DDA0E32056E0D9C80C4050C3D3C535444503A444553433E
  0
ENDSEC
  0
EOF
