  0
SECTION
  2
HEADER
  9
$ACADVER
  1
AC1014
  9
$ACADMAINTVER
 70
     9
  9
$DWGCODEPAGE
  3
ANSI_932
  9
$INSBASE
 10
0.0
 20
0.0
 30
0.0
  9
$EXTMIN
 10
-98.8912411586574
 20
-42.49999999909539
 30
0.0
  9
$EXTMAX
 10
45.39361319872109
 20
48.17179799648016
 30
0.0
  9
$LIMMIN
 10
-106.3648606854098
 20
-60.57287285068418
  9
$LIMMAX
 10
60.1787804676436
 20
56.17791209520118
  9
$ORTHOMODE
 70
     0
  9
$REGENMODE
 70
     1
  9
$FILLMODE
 70
     1
  9
$QTEXTMODE
 70
     0
  9
$MIRRTEXT
 70
     0
  9
$DRAGMODE
 70
     2
  9
$LTSCALE
 40
0.5
  9
$OSMODE
 70
  2103
  9
$ATTMODE
 70
     1
  9
$TEXTSIZE
 40
2.5
  9
$TRACEWID
 40
1.0
  9
$TEXTSTYLE
  7
STANDARD
  9
$CLAYER
  8
AM_0
  9
$CELTYPE
  6
BYLAYER
  9
$CECOLOR
 62
   256
  9
$CELTSCALE
 40
1.0
  9
$DELOBJ
 70
     1
  9
$DISPSILH
 70
     0
  9
$DIMSCALE
 40
1.0
  9
$DIMASZ
 40
2.5
  9
$DIMEXO
 40
1.0
  9
$DIMDLI
 40
12.0
  9
$DIMRND
 40
0.0
  9
$DIMDLE
 40
0.0
  9
$DIMEXE
 40
1.0
  9
$DIMTP
 40
0.1
  9
$DIMTM
 40
0.1
  9
$DIMTXT
 40
3.2
  9
$DIMCEN
 40
0.0
  9
$DIMTSZ
 40
0.0
  9
$DIMTOL
 70
     0
  9
$DIMLIM
 70
     0
  9
$DIMTIH
 70
     0
  9
$DIMTOH
 70
     0
  9
$DIMSE1
 70
     0
  9
$DIMSE2
 70
     0
  9
$DIMTAD
 70
     3
  9
$DIMZIN
 70
     8
  9
$DIMBLK
  1
OPEN30
  9
$DIMASO
 70
     1
  9
$DIMSHO
 70
     1
  9
$DIMPOST
  1

  9
$DIMAPOST
  1
"
  9
$DIMALT
 70
     0
  9
$DIMALTD
 70
     2
  9
$DIMALTF
 40
0.0393701
  9
$DIMLFAC
 40
1.0
  9
$DIMTOFL
 70
     1
  9
$DIMTVP
 40
0.0
  9
$DIMTIX
 70
     0
  9
$DIMSOXD
 70
     0
  9
$DIMSAH
 70
     0
  9
$DIMBLK1
  1

  9
$DIMBLK2
  1

  9
$DIMSTYLE
  2
AM_JIS
  9
$DIMCLRD
 70
     3
  9
$DIMCLRE
 70
     3
  9
$DIMCLRT
 70
     2
  9
$DIMTFAC
 40
0.71
  9
$DIMGAP
 40
1.5
  9
$DIMJUST
 70
     0
  9
$DIMSD1
 70
     0
  9
$DIMSD2
 70
     0
  9
$DIMTOLJ
 70
     0
  9
$DIMTZIN
 70
     0
  9
$DIMALTZ
 70
     0
  9
$DIMALTTZ
 70
     0
  9
$DIMFIT
 70
     3
  9
$DIMUPT
 70
     0
  9
$DIMUNIT
 70
     2
  9
$DIMDEC
 70
     3
  9
$DIMTDEC
 70
     3
  9
$DIMALTU
 70
     2
  9
$DIMALTTD
 70
     2
  9
$DIMTXSTY
  7
ASAMI
  9
$DIMAUNIT
 70
     0
  9
$LUNITS
 70
     2
  9
$LUPREC
 70
     2
  9
$SKETCHINC
 40
1.0
  9
$FILLETRAD
 40
0.8
  9
$AUNITS
 70
     0
  9
$AUPREC
 70
     0
  9
$MENU
  1
.
  9
$ELEVATION
 40
0.0
  9
$PELEVATION
 40
0.0
  9
$THICKNESS
 40
0.0
  9
$LIMCHECK
 70
     0
  9
$BLIPMODE
 70
     0
  9
$CHAMFERA
 40
0.0
  9
$CHAMFERB
 40
0.0
  9
$CHAMFERC
 40
20.0
  9
$CHAMFERD
 40
0.0
  9
$SKPOLY
 70
     0
  9
$TDCREATE
 40
2452838.620506898
  9
$TDUPDATE
 40
2452941.590900961
  9
$TDINDWG
 40
1.9567821644
  9
$TDUSRTIMER
 40
1.9567821644
  9
$USRTIMER
 70
     1
  9
$ANGBASE
 50
0.0
  9
$ANGDIR
 70
     0
  9
$PDMODE
 70
     0
  9
$PDSIZE
 40
0.0
  9
$PLINEWID
 40
0.0
  9
$COORDS
 70
     0
  9
$SPLFRAME
 70
     0
  9
$SPLINETYPE
 70
     6
  9
$SPLINESEGS
 70
     8
  9
$ATTDIA
 70
     1
  9
$ATTREQ
 70
     1
  9
$HANDLING
 70
 12289
  9
$HANDSEED
  5
98DD
  9
$SURFTAB1
 70
     6
  9
$SURFTAB2
 70
     6
  9
$SURFTYPE
 70
     6
  9
$SURFU
 70
     6
  9
$SURFV
 70
     6
  9
$UCSNAME
  2

  9
$UCSORG
 10
0.0
 20
0.0
 30
0.0
  9
$UCSXDIR
 10
1.0
 20
0.0
 30
0.0
  9
$UCSYDIR
 10
0.0
 20
1.0
 30
0.0
  9
$PUCSNAME
  2

  9
$PUCSORG
 10
0.0
 20
0.0
 30
0.0
  9
$PUCSXDIR
 10
1.0
 20
0.0
 30
0.0
  9
$PUCSYDIR
 10
0.0
 20
1.0
 30
0.0
  9
$USERI1
 70
     0
  9
$USERI2
 70
     0
  9
$USERI3
 70
     0
  9
$USERI4
 70
     0
  9
$USERI5
 70
     0
  9
$USERR1
 40
0.0
  9
$USERR2
 40
0.0
  9
$USERR3
 40
0.0
  9
$USERR4
 40
0.0
  9
$USERR5
 40
0.0
  9
$WORLDVIEW
 70
     1
  9
$SHADEDGE
 70
     3
  9
$SHADEDIF
 70
    70
  9
$TILEMODE
 70
     1
  9
$MAXACTVP
 70
    64
  9
$PINSBASE
 10
0.0
 20
0.0
 30
0.0
  9
$PLIMCHECK
 70
     0
  9
$PEXTMIN
 10
1.000000000000000E+20
 20
1.000000000000000E+20
 30
1.000000000000000E+20
  9
$PEXTMAX
 10
-1.000000000000000E+20
 20
-1.000000000000000E+20
 30
-1.000000000000000E+20
  9
$PLIMMIN
 10
0.0
 20
0.0
  9
$PLIMMAX
 10
841.0
 20
594.0
  9
$UNITMODE
 70
     0
  9
$VISRETAIN
 70
     1
  9
$PLINEGEN
 70
     0
  9
$PSLTSCALE
 70
     0
  9
$TREEDEPTH
 70
  3020
  9
$PICKSTYLE
 70
     0
  9
$CMLSTYLE
  2
STANDARD
  9
$CMLJUST
 70
     0
  9
$CMLSCALE
 40
20.0
  9
$PROXYGRAPHICS
 70
     1
  9
$MEASUREMENT
 70
     1
  0
ENDSEC
  0
SECTION
  2
CLASSES
  0
CLASS
  1
ACDBDICTIONARYWDFLT
  2
AcDbDictionaryWithDefault
  3
AutoCAD 2000
 90
        0
280
     0
281
     0
  0
CLASS
  1
ACDBPLACEHOLDER
  2
AcDbPlaceHolder
  3
AutoCAD 2000
 90
        0
280
     0
281
     0
  0
CLASS
  1
LAYOUT
  2
AcDbLayout
  3
AutoCAD 2000
 90
        0
280
     0
281
     0
  0
CLASS
  1
AMGSETTINGSOBJ
  2
AmgSettingsObj
  3
"AcadM|Product Description: AutoCAD Mechanical 2000|Company: Autodesk"
 90
        0
280
     0
281
     0
  0
CLASS
  1
ACME_DOCUMENT
  2
AcMeDbDoc
  3
AcMeServices
 90
        0
280
     0
281
     0
  0
CLASS
  1
ACMESCOPE
  2
AcMeScope
  3
AcMeServices
 90
        0
280
     0
281
     0
  0
CLASS
  1
ACMECOMMANDHISTORY
  2
AcMeCommandHistory
  3
AcMeServices
 90
        0
280
     0
281
     0
  0
CLASS
  1
DICTIONARYVAR
  2
AcDbDictionaryVar
  3
AutoCAD 2000
 90
        0
280
     0
281
     0
  0
CLASS
  1
ACIMSYSVARMAN
  2
AcImSysVarManager
  3
AcMeServices
 90
        0
280
     0
281
     0
  0
CLASS
  1
ACIMREALSYSVAR
  2
AcImRealSysVar
  3
AcMeServices
 90
        0
280
     0
281
     0
  0
CLASS
  1
ACIMINTSYSVAR
  2
AcImIntSysVar
  3
AcMeServices
 90
        0
280
     0
281
     0
  0
CLASS
  1
ACMEDRAWINGMAN
  2
AcMeDrawingMan
  3
AcMeServices
 90
        0
280
     0
281
     0
  0
CLASS
  1
ACMEVIEW
  2
AcMeView
  3
AcMeServices
 90
        0
280
     0
281
     0
  0
CLASS
  1
ACDBENTITYCACHE
  2
AcMeEntityCache
  3
AcMeServices
 90
        0
280
     0
281
     0
  0
CLASS
  1
GSMANAGER
  2
AcMeGSManager
  3
AcMeServices
 90
        0
280
     0
281
     0
  0
CLASS
  1
AmdtInternalReactor
  2
AmdtInternalReactor
  3
AcMeServices
 90
        0
280
     0
281
     0
  0
CLASS
  1
ACMESTATEMGR
  2
AcMeStateMgr
  3
AcMeServices
 90
        0
280
     0
281
     0
  0
CLASS
  1
ACME_DATABASE
  2
AcMeDbDatabase
  3
AcMeServices
 90
        0
280
     0
281
     0
  0
CLASS
  1
ACRFINSADJUSTERMGR
  2
AcRfInsAdjusterMgr
  3
AcMeServices
 90
        0
280
     0
281
     0
  0
CLASS
  1
ACMDATADICTIONARY
  2
AcmDataDictionary
  3
"AcmSymBB|Product Description: AutoCAD Mechanical 2000|Company: Autodesk"
 90
        0
280
     0
281
     0
  0
CLASS
  1
ACMDATAENTRYBLOCK
  2
AcmDataEntryBlock
  3
"AcmSymBB|Product Description: AutoCAD Mechanical 2000|Company: Autodesk"
 90
        0
280
     0
281
     0
  0
CLASS
  1
AMGOBJPROPCFG
  2
AmgObjPropCfg
  3
"AmgLay|Product Description: AutoCAD Mechanical 2000|Company: Autodesk"
 90
        1
280
     0
281
     0
  0
CLASS
  1
ACAMGFILTERDAT
  2
AcAmgFilterDat
  3
"AcadM|Product Description: AutoCAD Mechanical 2000|Company: Autodesk"
 90
        0
280
     0
281
     0
  0
CLASS
  1
LAYER_INDEX
  2
AcDbLayerIndex
  3
AutoCAD 2000
 90
        0
280
     0
281
     0
  0
CLASS
  1
IDBUFFER
  2
AcDbIdBuffer
  3
AutoCAD 2000
 90
        0
280
     0
281
     0
  0
CLASS
  1
ACIMSTRSYSVAR
  2
AcImStrSysVar
  3
AcMeServices
 90
        0
280
     0
281
     0
  0
CLASS
  1
ACMSTANDARDJIS
  2
AcmStandardJIS
  3
"AcmSymBB|Product Description: AutoCAD Mechanical 2000|Company: Autodesk"
 90
        0
280
     0
281
     0
  0
CLASS
  1
ACMSURFSTANDARDJIS
  2
AcmSurfTextStdJIS
  3
"AcmSymBB|Product Description: AutoCAD Mechanical 2000|Company: Autodesk"
 90
        0
280
     0
281
     0
  0
CLASS
  1
ACMFCFSTANDARDJIS
  2
AcmFCFStdJIS
  3
"AcmSymBB|Product Description: AutoCAD Mechanical 2000|Company: Autodesk"
 90
        0
280
     0
281
     0
  0
CLASS
  1
ACMWELDSTANDARDJIS
  2
AcmWeldingStdJIS
  3
"AcmSymBB|Product Description: AutoCAD Mechanical 2000|Company: Autodesk"
 90
        0
280
     0
281
     0
  0
CLASS
  1
ACMIDSTANDARDJIS
  2
AcmIdStdJIS
  3
"AcmSymBB|Product Description: AutoCAD Mechanical 2000|Company: Autodesk"
 90
        0
280
     0
281
     0
  0
CLASS
  1
ACMDATUMSTANDARDJIS
  2
AcmDatumStdJIS
  3
"AcmSymBB|Product Description: AutoCAD Mechanical 2000|Company: Autodesk"
 90
        0
280
     0
281
     0
  0
CLASS
  1
ACMBOMSTANDARDJIS
  2
AcmBOMStdJIS
  3
"AcmSymBB|Product Description: AutoCAD Mechanical 2000|Company: Autodesk"
 90
        0
280
     0
281
     0
  0
CLASS
  1
ACMSTANDARDANSI
  2
AcmStandardANSI
  3
"AcmSymBB|Product Description: AutoCAD Mechanical 2000|Company: Autodesk"
 90
        0
280
     0
281
     0
  0
CLASS
  1
ACMSURFSTANDARDANSI
  2
AcmSurfTextStdANSI
  3
"AcmSymBB|Product Description: AutoCAD Mechanical 2000|Company: Autodesk"
 90
        0
280
     0
281
     0
  0
CLASS
  1
ACMFCFSTANDARDANSI
  2
AcmFCFStdANSI
  3
"AcmSymBB|Product Description: AutoCAD Mechanical 2000|Company: Autodesk"
 90
        0
280
     0
281
     0
  0
CLASS
  1
ACMWELDSTANDARDANSI
  2
AcmWeldingStdANSI
  3
"AcmSymBB|Product Description: AutoCAD Mechanical 2000|Company: Autodesk"
 90
        0
280
     0
281
     0
  0
CLASS
  1
ACMIDSTANDARDANSI
  2
AcmIdStdANSI
  3
"AcmSymBB|Product Description: AutoCAD Mechanical 2000|Company: Autodesk"
 90
        0
280
     0
281
     0
  0
CLASS
  1
ACMDATUMSTANDARDANSI
  2
AcmDatumStdANSI
  3
"AcmSymBB|Product Description: AutoCAD Mechanical 2000|Company: Autodesk"
 90
        0
280
     0
281
     0
  0
CLASS
  1
ACMBOMSTANDARDANSI
  2
AcmBOMStdANSI
  3
"AcmSymBB|Product Description: AutoCAD Mechanical 2000|Company: Autodesk"
 90
        0
280
     0
281
     0
  0
CLASS
  1
ACMSTANDARDBSI
  2
AcmStandardBSI
  3
"AcmSymBB|Product Description: AutoCAD Mechanical 2000|Company: Autodesk"
 90
        0
280
     0
281
     0
  0
CLASS
  1
ACMSURFSTANDARDBSI
  2
AcmSurfTextStdBSI
  3
"AcmSymBB|Product Description: AutoCAD Mechanical 2000|Company: Autodesk"
 90
        0
280
     0
281
     0
  0
CLASS
  1
ACMFCFSTANDARDBSI
  2
AcmFCFStdBSI
  3
"AcmSymBB|Product Description: AutoCAD Mechanical 2000|Company: Autodesk"
 90
        0
280
     0
281
     0
  0
CLASS
  1
ACMWELDSTANDARDBSI
  2
AcmWeldingStdBSI
  3
"AcmSymBB|Product Description: AutoCAD Mechanical 2000|Company: Autodesk"
 90
        0
280
     0
281
     0
  0
CLASS
  1
ACMIDSTANDARDBSI
  2
AcmIdStdBSI
  3
"AcmSymBB|Product Description: AutoCAD Mechanical 2000|Company: Autodesk"
 90
        0
280
     0
281
     0
  0
CLASS
  1
ACMDATUMSTANDARDBSI
  2
AcmDatumStdBSI
  3
"AcmSymBB|Product Description: AutoCAD Mechanical 2000|Company: Autodesk"
 90
        0
280
     0
281
     0
  0
CLASS
  1
ACMBOMSTANDARDBSI
  2
AcmBOMStdBSI
  3
"AcmSymBB|Product Description: AutoCAD Mechanical 2000|Company: Autodesk"
 90
        0
280
     0
281
     0
  0
CLASS
  1
STDPART2D
  2
AmgStdPart
  3
"AmgStdPart|Product Description: AutoCAD Mechanical 2000|Company: Autodesk"
 90
     1023
280
     0
281
     1
  0
CLASS
  1
ACMDATAENTRYPART
  2
AcmDataEntryPart
  3
"AcmSymBB|Product Description: AutoCAD Mechanical 2000|Company: Autodesk"
 90
        0
280
     0
281
     0
  0
CLASS
  1
ACMPARTREF
  2
AcmPartRef
  3
"AcmSymBB|Product Description: AutoCAD Mechanical 2000|Company: Autodesk"
 90
     1023
280
     0
281
     1
  0
CLASS
  1
LONG_TRANSACTION
  2
AcDbLongTransaction
  3
AutoCAD 2000
 90
        0
280
     0
281
     0
  0
CLASS
  1
LWPOLYLINE
  2
AcDbPolyline
  3
AutoCAD 2000
 90
        0
280
     0
281
     1
  0
CLASS
  1
HATCH
  2
AcDbHatch
  3
AutoCAD 2000
 90
        0
280
     0
281
     1
  0
CLASS
  1
XRECORD
  2
AcDbXrecord
  3
AutoCAD 2000
 90
        0
280
     0
281
     0
  0
ENDSEC
  0
SECTION
  2
TABLES
  0
TABLE
  2
VPORT
  5
8
330
0
100
AcDbSymbolTable
 70
     3
  0
VPORT
  5
98A5
330
8
100
AcDbSymbolTableRecord
100
AcDbViewportTableRecord
  2
*ACTIVE
 70
     0
 10
0.0
 20
0.0
 11
1.0
 21
1.0
 12
-26.74790425798789
 22
2.837457409410518
 13
0.0
 23
0.0
 14
2.5
 24
2.5
 15
10.0
 25
10.0
 16
0.0
 26
0.0
 36
1.0
 17
0.0
 27
0.0
 37
0.0
 40
92.53461747968497
 41
1.56570841889117
 42
50.0
 43
0.0
 44
0.0
 50
0.0
 51
0.0
 71
     0
 72
   100
 73
     1
 74
     3
 75
     0
 76
     0
 77
     0
 78
     0
  0
ENDTAB
  0
TABLE
  2
LTYPE
  5
5
330
0
100
AcDbSymbolTable
 70
    10
  0
LTYPE
  5
14
330
5
100
AcDbSymbolTableRecord
100
AcDbLinetypeTableRecord
  2
BYBLOCK
 70
     0
  3

 72
    65
 73
     0
 40
0.0
  0
LTYPE
  5
15
330
5
100
AcDbSymbolTableRecord
100
AcDbLinetypeTableRecord
  2
BYLAYER
 70
     0
  3

 72
    65
 73
     0
 40
0.0
  0
LTYPE
  5
16
330
5
100
AcDbSymbolTableRecord
100
AcDbLinetypeTableRecord
  2
CONTINUOUS
 70
     0
  3
Solid line
 72
    65
 73
     0
 40
0.0
  0
LTYPE
  5
4B
330
5
100
AcDbSymbolTableRecord
100
AcDbLinetypeTableRecord
  2
AM_ISO02W050
 70
     0
  3
__ __ __ __ __ __ __ __ __ __ __ __ __ __ __
 72
    65
 73
     2
 40
7.5
 49
6.0
 74
     0
 49
-1.5
 74
     0
  0
LTYPE
  5
4C
330
5
100
AcDbSymbolTableRecord
100
AcDbLinetypeTableRecord
  2
AM_ISO08W050
 70
     0
  3
____ . ____ . ____ . ____ . ____ . ____ . ____
 72
    65
 73
     4
 40
18.0
 49
12.0
 74
     0
 49
-1.5
 74
     0
 49
3.0
 74
     0
 49
-1.5
 74
     0
  0
LTYPE
  5
4D
330
5
100
AcDbSymbolTableRecord
100
AcDbLinetypeTableRecord
  2
AM_ISO09W050
 70
     0
  3
_____ . . _____ . . _____ . . ____ .. ____
 72
    65
 73
     6
 40
22.5
 49
12.0
 74
     0
 49
-1.5
 74
     0
 49
3.0
 74
     0
 49
-1.5
 74
     0
 49
3.0
 74
     0
 49
-1.5
 74
     0
  0
LTYPE
  5
4E
330
5
100
AcDbSymbolTableRecord
100
AcDbLinetypeTableRecord
  2
AMCONSTR
 70
     0
  3
_______________________
 72
    65
 73
     2
 40
9999.0
 49
9999.0
 74
     0
 49
0.0
 74
     0
  0
LTYPE
  5
4F
330
5
100
AcDbSymbolTableRecord
100
AcDbLinetypeTableRecord
  2
AM_ISO02W050X2
 70
     0
  3
 _ _ _ _ _ _ _ _ _ _ _ _
 72
    65
 73
     2
 40
3.75
 49
3.0
 74
     0
 49
-0.75
 74
     0
  0
LTYPE
  5
50
330
5
100
AcDbSymbolTableRecord
100
AcDbLinetypeTableRecord
  2
AM_ISO08W050X2
 70
     0
  3
__ . __ . __ . __ . __ . __
 72
    65
 73
     4
 40
9.0
 49
6.0
 74
     0
 49
-0.75
 74
     0
 49
1.5
 74
     0
 49
-0.75
 74
     0
  0
LTYPE
  5
53
330
5
100
AcDbSymbolTableRecord
100
AcDbLinetypeTableRecord
  2
AMZIGZAG
 70
     0
  3
/\/-/\/-/\/-/\/-/\/-/\/
 72
    65
 73
     2
 40
11.00009999999999
 49
0.0001
 74
     4
 75
   135
340
52
 46
0.04
 50
0.0
 44
0.0
 45
0.0
 49
-11.0
 74
     0
  0
LTYPE
  5
166
330
5
100
AcDbSymbolTableRecord
100
AcDbLinetypeTableRecord
  2
ACJISTGL
 70
     0
  3
_ _ _ _ _
 72
    65
 73
     2
 40
3.0
 49
2.0
 74
     0
 49
-1.0
 74
     0
  0
LTYPE
  5
26A
330
5
100
AcDbSymbolTableRecord
100
AcDbLinetypeTableRecord
  2
ACJISTGB
 70
     0
  3
__ . . __ . .
 72
    65
 73
     6
 40
9.0
 49
4.0
 74
     0
 49
-1.0
 74
     0
 49
1.0
 74
     0
 49
-1.0
 74
     0
 49
1.0
 74
     0
 49
-1.0
 74
     0
  0
ENDTAB
  0
TABLE
  2
LAYER
  5
2
330
0
100
AcDbSymbolTable
 70
     7
  0
LAYER
  5
10
330
2
100
AcDbSymbolTableRecord
100
AcDbLayerTableRecord
  2
0
 70
     0
 62
     7
  6
CONTINUOUS
  0
LAYER
  5
3F9
330
2
100
AcDbSymbolTableRecord
100
AcDbLayerTableRecord
  2
AM_0
 70
     0
 62
     7
  6
CONTINUOUS
  0
LAYER
  5
BD6
330
2
100
AcDbSymbolTableRecord
100
AcDbLayerTableRecord
  2
AM_11
 70
     0
 62
     3
  6
AM_ISO09W050
  0
LAYER
  5
BD7
330
2
100
AcDbSymbolTableRecord
100
AcDbLayerTableRecord
  2
AM_7
 70
     0
 62
     4
  6
AM_ISO08W050
  0
LAYER
  5
BD8
330
2
100
AcDbSymbolTableRecord
100
AcDbLayerTableRecord
  2
AM_5
 70
     0
 62
     3
  6
CONTINUOUS
  0
LAYER
  5
BD9
330
2
100
AcDbSymbolTableRecord
100
AcDbLayerTableRecord
  2
DEFPOINTS
 70
     0
 62
     7
  6
CONTINUOUS
  0
LAYER
  5
BDA
330
2
100
AcDbSymbolTableRecord
100
AcDbLayerTableRecord
  2
AM_6
 70
     0
 62
     2
  6
CONTINUOUS
  0
ENDTAB
  0
TABLE
  2
STYLE
  5
3
330
0
100
AcDbSymbolTable
 70
     5
  0
STYLE
  5
11
330
3
100
AcDbSymbolTableRecord
100
AcDbTextStyleTableRecord
  2
STANDARD
 70
     0
 40
0.0
 41
1.0
 50
0.0
 71
     0
 42
2.5
  3
simplex.shx
  4
EXTFONT.SHX
  0
STYLE
  5
52
330
3
100
AcDbSymbolTableRecord
100
AcDbTextStyleTableRecord
  2

 70
     1
 40
0.0
 41
1.0
 50
0.0
 71
     0
 42
2.5
  3
ltypeshp.shx
  4

  0
STYLE
  5
6B
330
3
100
AcDbSymbolTableRecord
100
AcDbTextStyleTableRecord
  2
ASAMI
 70
     0
 40
0.0
 41
1.0
 50
0.0
 71
     0
 42
2.5
  3
simplex.shx
  4
EXTFONT.SHX
  0
STYLE
  5
262
330
3
100
AcDbSymbolTableRecord
100
AcDbTextStyleTableRecord
  2
ACJISTS
 70
     0
 40
1.0
 41
1.0
 50
0.0
 71
     0
 42
2.5
  3
simplex.shx
  4
bigfont.shx
  0
STYLE
  5
269
330
3
100
AcDbSymbolTableRecord
100
AcDbTextStyleTableRecord
  2
ACJISGDT
 70
     0
 40
0.0
 41
1.0
 50
0.0
 71
     0
 42
2.5
  3
amgdtans.shx
  4

  0
ENDTAB
  0
TABLE
  2
VIEW
  5
6
330
0
100
AcDbSymbolTable
 70
     0
  0
ENDTAB
  0
TABLE
  2
UCS
  5
7
330
0
100
AcDbSymbolTable
 70
     0
  0
ENDTAB
  0
TABLE
  2
APPID
  5
9
330
0
100
AcDbSymbolTable
 70
    21
  0
APPID
  5
12
330
9
100
AcDbSymbolTableRecord
100
AcDbRegAppTableRecord
  2
ACAD
 70
     0
  0
APPID
  5
30
330
9
100
AcDbSymbolTableRecord
100
AcDbRegAppTableRecord
  2
MCAD_NO_VIS
 70
     0
  0
APPID
  5
31
330
9
100
AcDbSymbolTableRecord
100
AcDbRegAppTableRecord
  2
ACAD_TEMP_GRAPHIC
 70
     0
  0
APPID
  5
2C2
330
9
100
AcDbSymbolTableRecord
100
AcDbRegAppTableRecord
  2
GENIUS_GENDTOL_13
 70
     0
  0
APPID
  5
339
330
9
100
AcDbSymbolTableRecord
100
AcDbRegAppTableRecord
  2
GENIUS_GENODEF_13
 70
     0
  0
APPID
  5
33A
330
9
100
AcDbSymbolTableRecord
100
AcDbRegAppTableRecord
  2
GENIUS_GENOBJ-N-RSBK_13
 70
     0
  0
APPID
  5
33B
330
9
100
AcDbSymbolTableRecord
100
AcDbRegAppTableRecord
  2
GENIUS_GENOBJ-N-LIB_13
 70
     0
  0
APPID
  5
33C
330
9
100
AcDbSymbolTableRecord
100
AcDbRegAppTableRecord
  2
GENIUS_GENSCALE_13
 70
     0
  0
APPID
  5
378
330
9
100
AcDbSymbolTableRecord
100
AcDbRegAppTableRecord
  2
GENIUS_GENDIMSH_14
 70
     0
  0
APPID
  5
BDB
330
9
100
AcDbSymbolTableRecord
100
AcDbRegAppTableRecord
  2
GENIUS_GENOBJ-N-CEN_13
 70
     0
  0
APPID
  5
BDC
330
9
100
AcDbSymbolTableRecord
100
AcDbRegAppTableRecord
  2
GENIUS_GENFIL_13
 70
     0
  0
APPID
  5
BDD
330
9
100
AcDbSymbolTableRecord
100
AcDbRegAppTableRecord
  2
GENIUS_GENOBJ-N-FIL_13
 70
     0
  0
APPID
  5
12AD
330
9
100
AcDbSymbolTableRecord
100
AcDbRegAppTableRecord
  2
GENIUS_GENOREF_13
 70
     0
  0
APPID
  5
68E9
330
9
100
AcDbSymbolTableRecord
100
AcDbRegAppTableRecord
  2
GEVID1060695448
 70
     0
  0
APPID
  5
68EA
330
9
100
AcDbSymbolTableRecord
100
AcDbRegAppTableRecord
  2
GEVDC
 70
     0
  0
APPID
  5
68ED
330
9
100
AcDbSymbolTableRecord
100
AcDbRegAppTableRecord
  2
GENIUS_GENBH_13
 70
     0
  0
APPID
  5
68EF
330
9
100
AcDbSymbolTableRecord
100
AcDbRegAppTableRecord
  2
GENIUS_GENOBJ-NBEHI-BHF_13
 70
     0
  0
APPID
  5
68F0
330
9
100
AcDbSymbolTableRecord
100
AcDbRegAppTableRecord
  2
GENIUS_GENOENT_13
 70
     0
  0
APPID
  5
68F1
330
9
100
AcDbSymbolTableRecord
100
AcDbRegAppTableRecord
  2
GENIUS_GENOLIS_13
 70
     0
  0
APPID
  5
68F3
330
9
100
AcDbSymbolTableRecord
100
AcDbRegAppTableRecord
  2
GENIUS_GENOBJ-NBEHI-BHB_13
 70
     0
  0
APPID
  5
6B27
330
9
100
AcDbSymbolTableRecord
100
AcDbRegAppTableRecord
  2
GENIUS_GENOBJ-N-CHA_13
 70
     0
  0
ENDTAB
  0
TABLE
  2
DIMSTYLE
  5
A
330
0
100
AcDbSymbolTable
 70
     8
  0
DIMSTYLE
105
58
102
{ACAD_REACTORS
330
8E9B
330
8EA8
330
904E
330
91A6
330
951C
102
}
330
A
100
AcDbSymbolTableRecord
100
AcDbDimStyleTableRecord
  2
AM_JIS
 70
     0
  3

  4
"
  5
OPEN30
  6

  7

 40
1.0
 41
2.5
 42
1.0
 43
12.0
 44
1.0
 45
0.0
 46
0.0
 47
0.1
 48
0.1
140
3.2
141
0.0
142
0.0
143
0.0393701
144
1.0
145
0.0
146
0.71
147
1.5
 71
     0
 72
     0
 73
     0
 74
     0
 75
     0
 76
     0
 77
     3
 78
     8
170
     0
171
     2
172
     1
173
     0
174
     0
175
     0
176
     3
177
     3
178
     2
270
     2
271
     3
272
     3
273
     2
274
     2
340
6B
275
     0
280
     0
281
     0
282
     0
283
     0
284
     0
285
     0
286
     0
287
     3
288
     0
  0
DIMSTYLE
105
5F
330
A
100
AcDbSymbolTableRecord
100
AcDbDimStyleTableRecord
  2
AM_JIS$3
 70
     0
  3

  4
"
  5
OPEN30
  6

  7

 40
1.0
 41
2.5
 42
1.0
 43
10.0
 44
1.0
 45
0.0
 46
0.0
 47
0.1
 48
0.1
140
3.2
141
0.0
142
0.0
143
0.0393701
144
1.0
145
0.0
146
0.71
147
1.5
 71
     0
 72
     0
 73
     0
 74
     1
 75
     0
 76
     0
 77
     3
 78
     8
170
     0
171
     2
172
     0
173
     0
174
     0
175
     0
176
     3
177
     3
178
     2
270
     2
271
     2
272
     3
273
     2
274
     2
340
6B
275
     0
280
     0
281
     0
282
     0
283
     0
284
     0
285
     0
286
     0
287
     0
288
     1
  0
DIMSTYLE
105
60
330
A
100
AcDbSymbolTableRecord
100
AcDbDimStyleTableRecord
  2
AM_JIS$4
 70
     0
  3

  4
"
  5
OPEN30
  6

  7

 40
1.0
 41
2.5
 42
1.0
 43
10.0
 44
1.0
 45
0.0
 46
0.0
 47
0.1
 48
0.1
140
3.2
141
0.0
142
0.0
143
0.0393701
144
1.0
145
0.0
146
0.71
147
1.5
 71
     0
 72
     0
 73
     0
 74
     1
 75
     0
 76
     0
 77
     3
 78
     8
170
     0
171
     2
172
     0
173
     0
174
     0
175
     0
176
     3
177
     3
178
     2
270
     2
271
     2
272
     3
273
     2
274
     2
340
6B
275
     0
280
     0
281
     0
282
     0
283
     0
284
     0
285
     0
286
     0
287
     0
288
     1
  0
DIMSTYLE
105
61
330
A
100
AcDbSymbolTableRecord
100
AcDbDimStyleTableRecord
  2
AM_JIS$6
 70
     0
  3

  4
"
  5
OPEN30
  6

  7

 40
1.0
 41
2.5
 42
1.0
 43
10.0
 44
1.0
 45
0.0
 46
0.0
 47
0.1
 48
0.1
140
3.2
141
0.0
142
0.0
143
0.0393701
144
1.0
145
0.0
146
0.71
147
1.5
 71
     0
 72
     0
 73
     0
 74
     0
 75
     0
 76
     0
 77
     0
 78
     8
170
     0
171
     2
172
     1
173
     0
174
     0
175
     0
176
     3
177
     3
178
     2
270
     2
271
     2
272
     2
273
     2
274
     2
340
6B
275
     0
280
     0
281
     0
282
     0
283
     0
284
     0
285
     0
286
     0
287
     3
288
     0
  0
DIMSTYLE
105
62
330
A
100
AcDbSymbolTableRecord
100
AcDbDimStyleTableRecord
  2
AM_JIS$7
 70
     0
  3

  4
"
  5
OPEN30
  6

  7

 40
1.0
 41
2.5
 42
1.0
 43
10.0
 44
1.0
 45
0.0
 46
0.0
 47
0.1
 48
0.1
140
3.2
141
0.0
142
0.0
143
0.0393701
144
1.0
145
0.0
146
0.71
147
1.5
 71
     0
 72
     0
 73
     0
 74
     0
 75
     0
 76
     0
 77
     3
 78
     8
170
     0
171
     2
172
     1
173
     0
174
     0
175
     0
176
     3
177
     3
178
     2
270
     2
271
     2
272
     3
273
     2
274
     2
340
6B
275
     0
280
     0
281
     0
282
     0
283
     0
284
     0
285
     0
286
     0
287
     3
288
     0
  0
DIMSTYLE
105
63
330
A
100
AcDbSymbolTableRecord
100
AcDbDimStyleTableRecord
  2
AM_JIS$SF
 70
     0
  3

  4
"
  5
OPEN30
  6

  7

 40
1.0
 41
2.5
 42
1.0
 43
10.0
 44
1.0
 45
0.0
 46
0.0
 47
0.1
 48
0.1
140
3.2
141
0.0
142
0.0
143
0.0393701
144
1.0
145
0.0
146
0.71
147
1.5
 71
     0
 72
     0
 73
     0
 74
     0
 75
     1
 76
     1
 77
     3
 78
     8
170
     0
171
     2
172
     1
173
     0
174
     0
175
     0
176
   256
177
   256
178
     2
270
     2
271
     2
272
     2
273
     2
274
     2
340
6B
275
     0
280
     0
281
     0
282
     0
283
     0
284
     0
285
     0
286
     0
287
     3
288
     0
  0
DIMSTYLE
105
68
330
A
100
AcDbSymbolTableRecord
100
AcDbDimStyleTableRecord
  2
AM_JIS$SH
 70
     0
  3

  4
"
  5

  6
GENAXEH
  7
OPEN30
 40
1.0
 41
2.5
 42
1.0
 43
10.0
 44
1.0
 45
0.0
 46
0.0
 47
0.1
 48
0.1
140
3.2
141
0.0
142
0.0
143
0.0393701
144
2.0
145
0.0
146
0.71
147
1.5
 71
     0
 72
     0
 73
     0
 74
     0
 75
     1
 76
     1
 77
     3
 78
     8
170
     0
171
     2
172
     1
173
     1
174
     0
175
     0
176
   256
177
   256
178
     2
270
     2
271
     2
272
     2
273
     2
274
     2
340
6B
275
     0
280
     0
281
     0
282
     0
283
     0
284
     0
285
     0
286
     0
287
     3
288
     0
  0
DIMSTYLE
105
B34
102
{ACAD_REACTORS
330
911B
330
95AE
330
96C4
102
}
330
A
100
AcDbSymbolTableRecord
100
AcDbDimStyleTableRecord
  2
AM_JIS$2
 70
     0
  3

  4
"
  5
OPEN30
  6

  7

 40
1.0
 41
2.5
 42
1.0
 43
12.0
 44
1.0
 45
0.0
 46
0.0
 47
0.1
 48
0.1
140
3.2
141
0.0
142
0.0
143
0.0393701
144
1.0
145
0.0
146
0.71
147
1.5
 71
     0
 72
     0
 73
     0
 74
     0
 75
     0
 76
     0
 77
     3
 78
     8
170
     0
171
     2
172
     1
173
     0
174
     0
175
     0
176
     3
177
     3
178
     2
270
     2
271
     3
272
     3
273
     2
274
     2
340
6B
275
     0
280
     0
281
     0
282
     0
283
     0
284
     0
285
     0
286
     0
287
     3
288
     0
  0
ENDTAB
  0
TABLE
  2
BLOCK_RECORD
  5
1
330
0
100
AcDbSymbolTable
 70
    13
  0
BLOCK_RECORD
  5
1F
102
{ACAD_XDICTIONARY
360
74
102
}
330
1
100
AcDbSymbolTableRecord
100
AcDbBlockTableRecord
  2
*MODEL_SPACE
  0
BLOCK_RECORD
  5
101
102
{ACAD_XDICTIONARY
360
98CE
102
}
330
1
100
AcDbSymbolTableRecord
100
AcDbBlockTableRecord
  2
*PAPER_SPACE
  0
BLOCK_RECORD
  5
59
330
1
100
AcDbSymbolTableRecord
100
AcDbBlockTableRecord
  2
_OPEN30
  0
BLOCK_RECORD
  5
64
330
1
100
AcDbSymbolTableRecord
100
AcDbBlockTableRecord
  2
GENAXEH
  0
BLOCK_RECORD
  5
8E9C
330
1
100
AcDbSymbolTableRecord
100
AcDbBlockTableRecord
  2
*D5
  0
BLOCK_RECORD
  5
8EA9
330
1
100
AcDbSymbolTableRecord
100
AcDbBlockTableRecord
  2
*D6
  0
BLOCK_RECORD
  5
904F
330
1
100
AcDbSymbolTableRecord
100
AcDbBlockTableRecord
  2
*D7
  0
BLOCK_RECORD
  5
911C
330
1
100
AcDbSymbolTableRecord
100
AcDbBlockTableRecord
  2
*D8
  0
BLOCK_RECORD
  5
91A7
330
1
100
AcDbSymbolTableRecord
100
AcDbBlockTableRecord
  2
*D9
  0
BLOCK_RECORD
  5
951D
330
1
100
AcDbSymbolTableRecord
100
AcDbBlockTableRecord
  2
*D10
  0
BLOCK_RECORD
  5
95AF
330
1
100
AcDbSymbolTableRecord
100
AcDbBlockTableRecord
  2
*D11
  0
BLOCK_RECORD
  5
96C5
330
1
100
AcDbSymbolTableRecord
100
AcDbBlockTableRecord
  2
*D12
  0
ENDTAB
  0
ENDSEC
  0
SECTION
  2
BLOCKS
  0
BLOCK
  5
20
330
1F
100
AcDbEntity
  8
0
100
AcDbBlockBegin
  2
*MODEL_SPACE
 70
     0
 10
0.0
 20
0.0
 30
0.0
  3
*MODEL_SPACE
  1

  0
ENDBLK
  5
21
330
1F
100
AcDbEntity
  8
0
100
AcDbBlockEnd
  0
BLOCK
  5
103
330
101
100
AcDbEntity
 67
     1
  8
0
100
AcDbBlockBegin
  2
*PAPER_SPACE
 70
     0
 10
0.0
 20
0.0
 30
0.0
  3
*PAPER_SPACE
  1

  0
ENDBLK
  5
104
330
101
100
AcDbEntity
 67
     1
  8
0
100
AcDbBlockEnd
  0
BLOCK
  5
5D
330
59
100
AcDbEntity
  8
0
100
AcDbBlockBegin
  2
_OPEN30
 70
     0
 10
0.0
 20
0.0
 30
0.0
  3
_OPEN30
  1

  0
LINE
  5
5A
330
59
100
AcDbEntity
  8
0
 62
     0
100
AcDbLine
 10
-1.0
 20
0.26794919
 30
0.0
 11
0.0
 21
0.0
 31
0.0
  0
LINE
  5
5B
330
59
100
AcDbEntity
  8
0
 62
     0
100
AcDbLine
 10
0.0
 20
0.0
 30
0.0
 11
-1.0
 21
-0.26794919
 31
0.0
  0
LINE
  5
5C
330
59
100
AcDbEntity
  8
0
 62
     0
100
AcDbLine
 10
0.0
 20
0.0
 30
0.0
 11
-1.0
 21
0.0
 31
0.0
  0
ENDBLK
  5
5E
330
59
100
AcDbEntity
  8
0
100
AcDbBlockEnd
  0
BLOCK
  5
66
330
64
100
AcDbEntity
  8
0
100
AcDbBlockBegin
  2
GENAXEH
 70
     0
 10
0.0
 20
0.0
 30
0.0
  3
GENAXEH
  1

  0
LINE
  5
65
330
64
100
AcDbEntity
  8
0
100
AcDbLine
 10
-1.0
 20
0.0
 30
0.0
 11
1.0
 21
0.0
 31
0.0
  0
ENDBLK
  5
67
330
64
100
AcDbEntity
  8
0
100
AcDbBlockEnd
  0
BLOCK
  5
8EA6
330
8E9C
100
AcDbEntity
  8
0
100
AcDbBlockBegin
  2
*D5
 70
     1
 10
0.0
 20
0.0
 30
0.0
  3
*D5
  1

  0
LINE
  5
94F3
330
8E9C
100
AcDbEntity
  8
AM_5
 62
     3
100
AcDbLine
 10
-0.0000000000000041
 20
-1.032474792076486
 30
0.0
 11
-0.0000000000000053
 21
-20.99999999909532
 31
0.0
  0
LINE
  5
94F4
330
8E9C
100
AcDbEntity
  8
AM_5
 62
     3
100
AcDbLine
 10
-80.0
 20
-6.999999999095328
 30
0.0
 11
-80.0
 21
-20.99999999909532
 31
0.0
  0
LINE
  5
94F5
330
8E9C
100
AcDbEntity
  8
AM_5
 62
     3
100
AcDbLine
 10
-2.500000000000005
 20
-19.99999999909531
 30
0.0
 11
-77.5
 21
-19.99999999909531
 31
0.0
  0
INSERT
  5
94F6
330
8E9C
100
AcDbEntity
  8
AM_5
 62
     3
100
AcDbBlockReference
  2
_OPEN30
 10
-0.0000000000000053
 20
-19.99999999909531
 30
0.0
 41
2.5
 42
2.5
 43
2.5
  0
INSERT
  5
94F7
330
8E9C
100
AcDbEntity
  8
AM_5
 62
     3
100
AcDbBlockReference
  2
_OPEN30
 10
-80.0
 20
-19.99999999909531
 30
0.0
 41
2.5
 42
2.5
 43
2.5
 50
180.0
  0
MTEXT
  5
94F8
330
8E9C
100
AcDbEntity
  8
AM_5
 62
     2
100
AcDbMText
 10
-40.0
 20
-16.89999999909531
 30
0.0
 40
3.2
 41
0.0
 71
     5
 72
     1
  1
80
  7
ASAMI
1001
ACAD
1000
MTEXTBEGIN
1070
    73
1070
     1
1070
    44
1040
1.0
1070
    74
1070
     0
1000
MTEXTEND
  0
POINT
  5
94F9
330
8E9C
100
AcDbEntity
  8
DEFPOINTS
 62
     0
100
AcDbPoint
 10
-0.000000000000004
 20
-0.0324747920764865
 30
0.0
  0
POINT
  5
94FA
330
8E9C
100
AcDbEntity
  8
DEFPOINTS
 62
     0
100
AcDbPoint
 10
-80.0
 20
-5.999999999095328
 30
0.0
  0
POINT
  5
94FB
330
8E9C
100
AcDbEntity
  8
DEFPOINTS
 62
     0
100
AcDbPoint
 10
-80.0
 20
-19.99999999909531
 30
0.0
  0
ENDBLK
  5
8EA7
330
8E9C
100
AcDbEntity
  8
0
100
AcDbBlockEnd
  0
BLOCK
  5
8EB5
330
8EA9
100
AcDbEntity
  8
0
100
AcDbBlockBegin
  2
*D6
 70
     1
 10
0.0
 20
0.0
 30
0.0
  3
*D6
  1

  0
LINE
  5
94C8
330
8EA9
100
AcDbEntity
  8
AM_5
 62
     3
100
AcDbLine
 10
0.9293053223057757
 20
0.0000000009046753
 30
0.0
 11
11.08835680995578
 21
0.0000000009046724
 31
0.0
  0
LINE
  5
94C9
330
8EA9
100
AcDbEntity
  8
AM_5
 62
     3
100
AcDbLine
 10
-8.936056854004601
 20
-5.999999999095322
 30
0.0
 11
11.08835680995577
 21
-5.999999999095328
 31
0.0
  0
LINE
  5
94CA
330
8EA9
100
AcDbEntity
  8
AM_5
 62
     3
100
AcDbLine
 10
10.08835680995578
 20
2.500000000904672
 30
0.0
 11
10.08835680995578
 21
5.000000000904671
 31
0.0
  0
LINE
  5
94CB
330
8EA9
100
AcDbEntity
  8
AM_5
 62
     3
100
AcDbLine
 10
10.08835680995578
 20
-8.499999999095328
 30
0.0
 11
10.08835680995578
 21
-10.99999999909532
 31
0.0
  0
LINE
  5
94CC
330
8EA9
100
AcDbEntity
  8
AM_5
 62
     3
100
AcDbLine
 10
10.08835680995578
 20
0.0000000009046727
 30
0.0
 11
10.08835680995578
 21
-5.999999999095328
 31
0.0
  0
INSERT
  5
94CD
330
8EA9
100
AcDbEntity
  8
AM_5
 62
     3
100
AcDbBlockReference
  2
_OPEN30
 10
10.08835680995578
 20
0.0000000009046727
 30
0.0
 41
2.5
 42
2.5
 43
2.5
 50
270.0
  0
INSERT
  5
94CE
330
8EA9
100
AcDbEntity
  8
AM_5
 62
     3
100
AcDbBlockReference
  2
_OPEN30
 10
10.08835680995578
 20
-5.999999999095328
 30
0.0
 41
2.5
 42
2.5
 43
2.5
 50
90.0
  0
MTEXT
  5
94CF
330
8EA9
100
AcDbEntity
  8
AM_5
 62
     2
100
AcDbMText
 10
6.988356809955782
 20
-2.999999999095325
 30
0.0
 40
3.2
 41
0.0
 71
     5
 72
     1
  1
6
  7
ASAMI
 11
0.0000000000000001
 21
1.0
 31
0.0
1001
ACAD
1000
MTEXTBEGIN
1070
    73
1070
     1
1070
    44
1040
1.0
1070
    74
1070
     0
1000
MTEXTEND
  0
POINT
  5
94D0
330
8EA9
100
AcDbEntity
  8
DEFPOINTS
 62
     0
100
AcDbPoint
 10
-0.0706946776942244
 20
0.0000000009046756
 30
0.0
  0
POINT
  5
94D1
330
8EA9
100
AcDbEntity
  8
DEFPOINTS
 62
     0
100
AcDbPoint
 10
-9.936056854004601
 20
-5.999999999095322
 30
0.0
  0
POINT
  5
94D2
330
8EA9
100
AcDbEntity
  8
DEFPOINTS
 62
     0
100
AcDbPoint
 10
10.08835680995578
 20
-5.999999999095328
 30
0.0
  0
ENDBLK
  5
8EB6
330
8EA9
100
AcDbEntity
  8
0
100
AcDbBlockEnd
  0
BLOCK
  5
9059
330
904F
100
AcDbEntity
  8
0
100
AcDbBlockBegin
  2
*D7
 70
     1
 10
0.0
 20
0.0
 30
0.0
  3
*D7
  1

  0
LINE
  5
949F
330
904F
100
AcDbEntity
  8
AM_5
 62
     3
100
AcDbLine
 10
-81.0
 20
6.000000000904675
 30
0.0
 11
-95.19124115865741
 21
6.000000000904679
 31
0.0
  0
LINE
  5
94A0
330
904F
100
AcDbEntity
  8
AM_5
 62
     3
100
AcDbLine
 10
-81.0
 20
-5.999999999095322
 30
0.0
 11
-95.19124115865741
 21
-5.999999999095318
 31
0.0
  0
LINE
  5
94A1
330
904F
100
AcDbEntity
  8
AM_5
 62
     3
100
AcDbLine
 10
-94.1912411586574
 20
3.500000000904679
 30
0.0
 11
-94.1912411586574
 21
-3.499999999095318
 31
0.0
  0
INSERT
  5
94A2
330
904F
100
AcDbEntity
  8
AM_5
 62
     3
100
AcDbBlockReference
  2
_OPEN30
 10
-94.1912411586574
 20
6.000000000904679
 30
0.0
 41
2.5
 42
2.5
 43
2.5
 50
90.0
  0
INSERT
  5
94A3
330
904F
100
AcDbEntity
  8
AM_5
 62
     3
100
AcDbBlockReference
  2
_OPEN30
 10
-94.1912411586574
 20
-5.999999999095318
 30
0.0
 41
2.5
 42
2.5
 43
2.5
 50
270.0
  0
MTEXT
  5
94A4
330
904F
100
AcDbEntity
  8
AM_5
 62
     2
100
AcDbMText
 10
-97.2912411586574
 20
0.0000000009046656
 30
0.0
 40
3.2
 41
0.0
 71
     5
 72
     1
  1
12
  7
ASAMI
 11
0.0000000000000001
 21
1.0
 31
0.0
1001
ACAD
1000
MTEXTBEGIN
1070
    73
1070
     1
1070
    44
1040
1.0
1070
    74
1070
     0
1000
MTEXTEND
  0
POINT
  5
94A5
330
904F
100
AcDbEntity
  8
DEFPOINTS
 62
     0
100
AcDbPoint
 10
-80.0
 20
6.000000000904675
 30
0.0
  0
POINT
  5
94A6
330
904F
100
AcDbEntity
  8
DEFPOINTS
 62
     0
100
AcDbPoint
 10
-80.0
 20
-5.999999999095322
 30
0.0
  0
POINT
  5
94A7
330
904F
100
AcDbEntity
  8
DEFPOINTS
 62
     0
100
AcDbPoint
 10
-94.1912411586574
 20
-5.999999999095318
 30
0.0
  0
ENDBLK
  5
905A
330
904F
100
AcDbEntity
  8
0
100
AcDbBlockEnd
  0
BLOCK
  5
9129
330
911C
100
AcDbEntity
  8
0
100
AcDbBlockBegin
  2
*D8
 70
     1
 10
0.0
 20
0.0
 30
0.0
  3
*D8
  1

  0
LINE
  5
98D0
330
911C
100
AcDbEntity
  8
AM_0
 62
     3
100
AcDbLine
 10
-0.0000000000000059
 20
1.33137085080315
 30
0.0
 11
-0.0000000000000515
 21
20.86972494990042
 31
0.0
  0
LINE
  5
98D1
330
911C
100
AcDbEntity
  8
AM_0
 62
     3
100
AcDbLine
 10
-6.545242597140697
 20
6.876613447943843
 30
0.0
 11
-14.5228094578822
 21
14.85418030868535
 31
0.0
  0
ARC
  5
98D2
330
911C
100
AcDbEntity
  8
AM_0
 62
     3
100
AcDbCircle
 10
-0.0000000000000035
 20
0.3313708508031501
 30
0.0
 40
19.53835409909727
100
AcDbArc
 50
75.32759287996538
 51
82.66379643998275
  0
ARC
  5
98D3
330
911C
100
AcDbEntity
  8
AM_0
 62
     3
100
AcDbCircle
 10
-0.0000000000000035
 20
0.3313708508031501
 30
0.0
 40
19.53835409909727
100
AcDbArc
 50
142.3362035600173
 51
149.6724071200347
  0
ARC
  5
98D4
330
911C
100
AcDbEntity
  8
AM_0
 62
     3
100
AcDbCircle
 10
-0.0000000000000035
 20
0.3313708508031501
 30
0.0
 40
19.53835409909727
100
AcDbArc
 50
90.00000000000014
 51
135.0
  0
INSERT
  5
98D5
330
911C
100
AcDbEntity
  8
AM_0
 62
     3
100
AcDbBlockReference
  2
_OPEN30
 10
-0.0000000000000497
 20
19.86972494990041
 30
0.0
 41
2.5
 42
2.5
 43
2.5
 50
176.3318982199914
  0
INSERT
  5
98D6
330
911C
100
AcDbEntity
  8
AM_0
 62
     3
100
AcDbBlockReference
  2
_OPEN30
 10
-13.81570267669565
 20
14.1470735274988
 30
0.0
 41
2.5
 42
2.5
 43
2.5
 50
48.66810178000869
  0
MTEXT
  5
98D7
330
911C
100
AcDbEntity
  8
AM_0
 62
     2
100
AcDbMText
 10
-8.663323049738869
 20
21.24648285270209
 30
0.0
 40
3.2
 41
0.0
 71
     5
 72
     1
  1
45°
  7
ASAMI
 11
0.9238795325112867
 21
0.3826834323650898
 31
0.0
  0
POINT
  5
98D8
330
911C
100
AcDbEntity
  8
DEFPOINTS
 62
     0
100
AcDbPoint
 10
-5.056898150803307
 20
19.20397167830207
 30
0.0
  0
POINT
  5
98D9
330
911C
100
AcDbEntity
  8
DEFPOINTS
 62
     0
100
AcDbPoint
 10
-0.000000000000002
 20
-0.3313708489938132
 30
0.0
  0
POINT
  5
98DA
330
911C
100
AcDbEntity
  8
DEFPOINTS
 62
     0
100
AcDbPoint
 10
-0.2343145750507643
 20
0.5656854258539107
 30
0.0
  0
POINT
  5
98DB
330
911C
100
AcDbEntity
  8
DEFPOINTS
 62
     0
100
AcDbPoint
 10
-5.83813581595415
 20
6.169506666757296
 30
0.0
  0
POINT
  5
98DC
330
911C
100
AcDbEntity
  8
DEFPOINTS
 62
     0
100
AcDbPoint
 10
-0.0000000000000035
 20
0.3313708508031502
 30
0.0
  0
ENDBLK
  5
912A
330
911C
100
AcDbEntity
  8
0
100
AcDbBlockEnd
  0
BLOCK
  5
91B2
330
91A7
100
AcDbEntity
  8
0
100
AcDbBlockBegin
  2
*D9
 70
     1
 10
0.0
 20
0.0
 30
0.0
  3
*D9
  1

  0
LINE
  5
94B4
330
91A7
100
AcDbEntity
  8
AM_5
 62
     3
100
AcDbLine
 10
31.06091944925273
 20
30.73820306477654
 30
0.0
 11
45.39361319872109
 21
16.4055093153082
 31
0.0
  0
LINE
  5
94B5
330
91A7
100
AcDbEntity
  8
AM_5
 62
     3
100
AcDbLine
 10
23.64062547905289
 20
21.89504106768578
 30
0.0
 11
37.2618852150758
 21
8.273781331662894
 31
0.0
  0
LINE
  5
94B6
330
91A7
100
AcDbEntity
  8
AM_5
 62
     3
100
AcDbLine
 10
42.91873946456818
 20
15.34484914352837
 30
0.0
 11
38.32254538685563
 21
10.74865506581581
 31
0.0
  0
INSERT
  5
94B7
330
91A7
100
AcDbEntity
  8
AM_5
 62
     3
100
AcDbBlockReference
  2
_OPEN30
 10
44.68650641753455
 20
17.11261609649474
 30
0.0
 41
2.5
 42
2.5
 43
2.5
 50
45.00000000000008
  0
INSERT
  5
94B8
330
91A7
100
AcDbEntity
  8
AM_5
 62
     3
100
AcDbBlockReference
  2
_OPEN30
 10
36.55477843388926
 20
8.980888112849441
 30
0.0
 41
2.5
 42
2.5
 43
2.5
 50
225.0
  0
MTEXT
  5
94B9
330
91A7
100
AcDbEntity
  8
AM_5
 62
     2
100
AcDbMText
 10
38.42861140403361
 20
15.23878312635038
 30
0.0
 40
3.2
 41
0.0
 71
     5
 72
     1
  1
11.5
  7
ASAMI
 11
0.707106781186547
 21
0.7071067811865481
 31
0.0
1001
ACAD
1000
MTEXTBEGIN
1070
    73
1070
     1
1070
    44
1040
1.0
1070
    74
1070
     0
1000
MTEXTEND
  0
POINT
  5
94BA
330
91A7
100
AcDbEntity
  8
DEFPOINTS
 62
     0
100
AcDbPoint
 10
30.35381266806619
 20
31.44530984596308
 30
0.0
  0
POINT
  5
94BB
330
91A7
100
AcDbEntity
  8
DEFPOINTS
 62
     0
100
AcDbPoint
 10
22.93351869786634
 20
22.60214784887233
 30
0.0
  0
POINT
  5
94BC
330
91A7
100
AcDbEntity
  8
DEFPOINTS
 62
     0
100
AcDbPoint
 10
36.55477843388926
 20
8.980888112849433
 30
0.0
  0
ENDBLK
  5
91B3
330
91A7
100
AcDbEntity
  8
0
100
AcDbBlockEnd
  0
BLOCK
  5
9527
330
951D
100
AcDbEntity
  8
0
100
AcDbBlockBegin
  2
*D10
 70
     1
 10
0.0
 20
0.0
 30
0.0
  3
*D10
  1

  0
LINE
  5
9595
330
951D
100
AcDbEntity
  8
AM_5
 62
     3
100
AcDbLine
 10
7.468066391310355
 20
37.36049337424177
 30
0.0
 11
5.142043143310527
 21
39.68651662224161
 31
0.0
  0
LINE
  5
9596
330
951D
100
AcDbEntity
  8
AM_5
 62
     3
100
AcDbLine
 10
15.39674066089173
 20
46.40238185313753
 30
0.0
 11
13.6273245175491
 21
48.17179799648016
 31
0.0
  0
LINE
  5
9597
330
951D
100
AcDbEntity
  8
AM_5
 62
     3
100
AcDbLine
 10
7.616916877463445
 20
40.74717679402143
 30
0.0
 11
12.56666434576928
 21
45.69692426232726
 31
0.0
  0
INSERT
  5
9598
330
951D
100
AcDbEntity
  8
AM_5
 62
     3
100
AcDbBlockReference
  2
_OPEN30
 10
5.849149924497073
 20
38.97940984105506
 30
0.0
 41
2.5
 42
2.5
 43
2.5
 50
224.9999999999999
  0
INSERT
  5
9599
330
951D
100
AcDbEntity
  8
AM_5
 62
     3
100
AcDbBlockReference
  2
_OPEN30
 10
14.33443129873564
 20
47.46469121529361
 30
0.0
 41
2.5
 42
2.5
 43
2.5
 50
44.99999999999995
  0
MTEXT
  5
959A
330
951D
100
AcDbEntity
  8
AM_5
 62
     2
100
AcDbMText
 10
7.899759589938067
 20
45.41408154985264
 30
0.0
 40
3.2
 41
0.0
 71
     5
 72
     1
  1
12
  7
ASAMI
 11
0.7071067811865481
 21
0.707106781186547
 31
0.0
1001
ACAD
1000
MTEXTBEGIN
1070
    73
1070
     1
1070
    44
1040
1.0
1070
    74
1070
     0
1000
MTEXTEND
  0
POINT
  5
959B
330
951D
100
AcDbEntity
  8
DEFPOINTS
 62
     0
100
AcDbPoint
 10
8.175173172496901
 20
36.65338659305523
 30
0.0
  0
POINT
  5
959C
330
951D
100
AcDbEntity
  8
DEFPOINTS
 62
     0
100
AcDbPoint
 10
16.10384744207828
 20
45.69527507195098
 30
0.0
  0
POINT
  5
959D
330
951D
100
AcDbEntity
  8
DEFPOINTS
 62
     0
100
AcDbPoint
 10
14.33443129873564
 20
47.46469121529361
 30
0.0
  0
ENDBLK
  5
9528
330
951D
100
AcDbEntity
  8
0
100
AcDbBlockEnd
  0
BLOCK
  5
95BF
330
95AF
100
AcDbEntity
  8
0
100
AcDbBlockBegin
  2
*D11
 70
     1
 10
0.0
 20
0.0
 30
0.0
  3
*D11
  1

  0
LINE
  5
9873
330
95AF
100
AcDbEntity
  8
AM_5
 62
     3
100
AcDbLine
 10
22.15990630557878
 20
-20.42206910226856
 30
0.0
 11
31.96788653144446
 21
-12.4797233174699
 31
0.0
  0
LINE
  5
9874
330
95AF
100
AcDbEntity
  8
AM_5
 62
     3
100
AcDbLine
 10
22.32143390737034
 20
-20.11271593006989
 30
0.0
 11
31.01391700964565
 21
-11.42023282779453
 31
0.0
  0
ARC
  5
9875
330
95AF
100
AcDbEntity
  8
AM_5
 62
     3
100
AcDbCircle
 10
21.38276034412182
 20
-21.05138949331841
 30
0.0
 40
12.62051237772386
100
AcDbArc
 50
16.14939574328424
 51
39.00000000000096
  0
LINE
  5
9876
330
95AF
100
AcDbEntity
  8
AM_5
 62
     3
100
AcDbLine
 10
33.50526375813444
 20
-17.54108414284908
 30
0.0
 11
37.35740985767274
 21
-30.84410185231556
 31
0.0
  0
ARC
  5
9877
330
95AF
100
AcDbEntity
  8
AM_5
 62
     3
100
AcDbCircle
 10
21.38276034412182
 20
-21.05138949331841
 30
0.0
 40
12.62051237772386
100
AcDbArc
 50
16.26325535487013
 51
27.63162767743554
  0
ARC
  5
9878
330
95AF
100
AcDbEntity
  8
AM_5
 62
     3
100
AcDbCircle
 10
21.38276034412182
 20
-21.05138949331841
 30
0.0
 40
12.62051237772386
100
AcDbArc
 50
56.36837232256556
 51
67.73674464513099
  0
ARC
  5
9879
330
95AF
100
AcDbEntity
  8
AM_5
 62
     3
100
AcDbCircle
 10
21.38276034412182
 20
-21.05138949331841
 30
0.0
 40
12.62051237772386
100
AcDbArc
 50
39.00000000000096
 51
45.00000000000016
  0
INSERT
  5
987A
330
95AF
100
AcDbEntity
  8
AM_5
 62
     3
100
AcDbBlockReference
  2
_OPEN30
 10
31.19074056998751
 20
-13.10904370851975
 30
0.0
 41
2.5
 42
2.5
 43
2.5
 50
123.3158138387182
  0
INSERT
  5
987B
330
95AF
100
AcDbEntity
  8
AM_5
 62
     3
100
AcDbBlockReference
  2
_OPEN30
 10
30.3068102284591
 20
-12.12733960898108
 30
0.0
 41
2.5
 42
2.5
 43
2.5
 50
320.6841861612828
  0
MTEXT
  5
987C
330
95AF
100
AcDbEntity
  8
AM_5
 62
     2
100
AcDbMText
 10
38.40900993706831
 20
-23.33035014556767
 30
0.0
 40
3.2
 41
0.0
 71
     5
 72
     1
  1
-6°
  7
ASAMI
 11
0.2781428554885982
 21
-0.9605397190853945
 31
0.0
1001
ACAD
1000
MTEXTBEGIN
1070
    73
1070
     1
1070
    44
1040
1.0
1070
    74
1070
     0
1000
MTEXTEND
  0
POINT
  5
987D
330
95AF
100
AcDbEntity
  8
DEFPOINTS
 62
     0
100
AcDbPoint
 10
30.61281878790067
 20
-12.4442207485622
 30
0.0
  0
POINT
  5
987E
330
95AF
100
AcDbEntity
  8
DEFPOINTS
 62
     0
100
AcDbPoint
 10
13.98044506124451
 20
-27.04566621806804
 30
0.0
  0
POINT
  5
987F
330
95AF
100
AcDbEntity
  8
DEFPOINTS
 62
     0
100
AcDbPoint
 10
21.38276034412168
 20
-21.05138949331855
 30
0.0
  0
POINT
  5
9880
330
95AF
100
AcDbEntity
  8
DEFPOINTS
 62
     0
100
AcDbPoint
 10
21.61432712618379
 20
-20.81982271125644
 30
0.0
  0
POINT
  5
9881
330
95AF
100
AcDbEntity
  8
DEFPOINTS
 62
     0
100
AcDbPoint
 10
21.38276034412155
 20
-21.05138949331863
 30
0.0
  0
ENDBLK
  5
95C0
330
95AF
100
AcDbEntity
  8
0
100
AcDbBlockEnd
  0
BLOCK
  5
96D5
330
96C5
100
AcDbEntity
  8
0
100
AcDbBlockBegin
  2
*D12
 70
     1
 10
0.0
 20
0.0
 30
0.0
  3
*D12
  1

  0
LINE
  5
9827
330
96C5
100
AcDbEntity
  8
AM_5
 62
     3
100
AcDbLine
 10
23.99417886964553
 20
21.54148767709198
 30
0.0
 11
31.93723581266108
 21
13.59843073405046
 31
0.0
  0
LINE
  5
9828
330
96C5
100
AcDbEntity
  8
AM_5
 62
     3
100
AcDbLine
 10
23.6995631409997
 20
21.95936023917372
 30
0.0
 11
32.68769960338726
 21
14.41741824861325
 31
0.0
  0
ARC
  5
9829
330
96C5
100
AcDbEntity
  8
AM_5
 62
     3
100
AcDbCircle
 10
22.93351869788073
 20
22.60214784886026
 30
0.0
 40
11.73317885551395
100
AcDbArc
 50
290.3952381673807
 51
314.9999999999063
  0
LINE
  5
982A
330
96C5
100
AcDbEntity
  8
AM_5
 62
     3
100
AcDbLine
 10
27.02246287740961
 20
11.60451075936796
 30
0.0
 11
14.04115247593666
 21
6.77803274624315
 31
0.0
  0
ARC
  5
982B
330
96C5
100
AcDbEntity
  8
AM_5
 62
     3
100
AcDbCircle
 10
22.93351869788073
 20
22.60214784886026
 30
0.0
 40
11.73317885551395
100
AcDbArc
 50
290.5374394869254
 51
302.7687197434159
  0
ARC
  5
982C
330
96C5
100
AcDbEntity
  8
AM_5
 62
     3
100
AcDbCircle
 10
22.93351869788073
 20
22.60214784886026
 30
0.0
 40
11.73317885551395
100
AcDbArc
 50
332.2312802564904
 51
344.4625605129808
  0
ARC
  5
982D
330
96C5
100
AcDbEntity
  8
AM_5
 62
     3
100
AcDbCircle
 10
22.93351869788073
 20
22.60214784886026
 30
0.0
 40
11.73317885551395
100
AcDbArc
 50
314.9999999999063
 51
319.9999999999999
  0
INSERT
  5
982E
330
96C5
100
AcDbEntity
  8
AM_5
 62
     3
100
AcDbBlockReference
  2
_OPEN30
 10
31.2301290314757
 20
14.30553751523816
 30
0.0
 41
2.5
 42
2.5
 43
2.5
 50
38.8843598716611
  0
INSERT
  5
982F
330
96C5
100
AcDbEntity
  8
AM_5
 62
     3
100
AcDbBlockReference
  2
_OPEN30
 10
31.92165516026828
 20
15.06020585829979
 30
0.0
 41
2.5
 42
2.5
 43
2.5
 50
236.1156401282451
  0
MTEXT
  5
9830
330
96C5
100
AcDbEntity
  8
AM_5
 62
     2
100
AcDbMText
 10
19.45147581498139
 20
12.09693571627649
 30
0.0
 40
3.2
 41
0.0
 71
     5
 72
     1
  1
-5°
  7
ASAMI
 11
0.9373109559583681
 21
0.3484941489328195
 31
0.0
1001
ACAD
1000
MTEXTBEGIN
1070
    73
1070
     1
1070
    44
1040
1.0
1070
    74
1070
     0
1000
MTEXTEND
  0
POINT
  5
9831
330
96C5
100
AcDbEntity
  8
DEFPOINTS
 62
     0
100
AcDbPoint
 10
31.69849746830013
 20
14.80197905520092
 30
0.0
  0
POINT
  5
9832
330
96C5
100
AcDbEntity
  8
DEFPOINTS
 62
     0
100
AcDbPoint
 10
15.63694537715795
 20
28.72469983113674
 30
0.0
  0
POINT
  5
9833
330
96C5
100
AcDbEntity
  8
DEFPOINTS
 62
     0
100
AcDbPoint
 10
22.9335186978674
 20
22.60214784887359
 30
0.0
  0
POINT
  5
9834
330
96C5
100
AcDbEntity
  8
DEFPOINTS
 62
     0
100
AcDbPoint
 10
23.28707208846014
 20
22.24859445827969
 30
0.0
  0
POINT
  5
9835
330
96C5
100
AcDbEntity
  8
DEFPOINTS
 62
     0
100
AcDbPoint
 10
22.93351869786634
 20
22.60214784887233
 30
0.0
  0
ENDBLK
  5
96D6
330
96C5
100
AcDbEntity
  8
0
100
AcDbBlockEnd
  0
ENDSEC
  0
SECTION
  2
ENTITIES
  0
TEXT
  5
C58
330
1F
100
AcDbEntity
  8
AM_6
100
AcDbText
 10
-60.1190476190476
 20
-42.49999999909539
 30
0.0
 40
5.0
  1
ESDNR1212
 50
0.0000000000002036
 72
     4
 11
-39.99999999999998
 21
-39.99999999909532
 31
0.0
100
AcDbText
  0
POINT
  5
68EE
330
1F
100
AcDbEntity
  8
0
 60
     1
100
AcDbPoint
 10
0.0
 20
0.0
 30
0.0
1001
GENIUS_GENOBJ-NBEHI-BHF_13
1002
{
1000
OWNER
1000
GENBEHI
1002
}
1001
GENIUS_GENOENT_13
1002
{
1000
MYREF
1005
68EE
1002
}
1002
{
1000
GRP
1005
0
1002
}
1001
GENIUS_GENOLIS_13
1002
{
1000
ENT
1005
68EB
1002
}
1001
GENIUS_GENBH_13
1002
{
1000
OIUMAP
1000
OIU
1002
}
1002
{
1000
FLAGS
1070
    32
1002
}
1002
{
1000
BGO
1005
68F2
1002
}
1001
GENIUS_GENODEF_13
1002
{
1000
HIER
1070
     1
1002
}
1002
{
1000
MANEDIT
1070
     1
1002
}
1002
{
1000
NOSEL
1070
     1
1002
}
1002
{
1000
BEHIND
1070
     0
1002
}
1002
{
1000
REACTOR
1002
}
  0
POINT
  5
68F2
330
1F
100
AcDbEntity
  8
0
 60
     1
100
AcDbPoint
 10
0.0
 20
0.0
 30
0.0
1001
GENIUS_GENOBJ-NBEHI-BHB_13
1002
{
1000
OWNER
1000
GENBEHI
1002
}
1001
GENIUS_GENOENT_13
1002
{
1000
MYREF
1005
68F2
1002
}
1002
{
1000
GRP
1005
0
1002
}
1001
GENIUS_GENOLIS_13
1002
{
1000
ENT
1002
}
1001
GENIUS_GENODEF_13
1002
{
1000
HIER
1070
     1
1002
}
1002
{
1000
MANEDIT
1070
     0
1002
}
1002
{
1000
NOSEL
1070
     1
1002
}
1002
{
1000
BEHIND
1070
     0
1002
}
1002
{
1000
REACTOR
1002
}
1002
{
1000
OTHER
1070
     1
1002
}
1001
GENIUS_GENBH_13
1002
{
1000
FGO
1005
68EE
1002
}
  0
LINE
  5
8E6C
330
1F
100
AcDbEntity
  8
AM_0
100
AcDbLine
 10
-80.0
 20
-5.999999999095322
 30
0.0
 11
-7.13901333170529
 21
-5.999999999095322
 31
0.0
  0
LINE
  5
8E6D
330
1F
100
AcDbEntity
  8
AM_0
100
AcDbLine
 10
-80.0
 20
6.000000000904675
 30
0.0
 11
-7.139013331705242
 21
6.000000000904675
 31
0.0
  0
LINE
  5
8E7A
330
1F
100
AcDbEntity
  8
AM_0
100
AcDbLine
 10
-80.0
 20
6.000000000904675
 30
0.0
 11
-80.0
 21
-5.999999999095322
 31
0.0
  0
DIMENSION
  5
8E9B
330
1F
100
AcDbEntity
  8
AM_5
100
AcDbDimension
  2
*D5
 10
-80.0
 20
-19.99999999909531
 30
0.0
 11
-40.0
 21
-16.89999999909531
 31
0.0
 70
    32
  3
AM_JIS
100
AcDbAlignedDimension
 13
-0.000000000000004
 23
-0.0324747920764865
 33
0.0
 14
-80.0
 24
-5.999999999095328
 34
0.0
 50
180.0
100
AcDbRotatedDimension
  0
DIMENSION
  5
8EA8
330
1F
100
AcDbEntity
  8
AM_5
100
AcDbDimension
  2
*D6
 10
10.08835680995578
 20
-5.999999999095328
 30
0.0
 11
6.988356809955782
 21
-2.999999999095325
 31
0.0
 70
    32
  3
AM_JIS
100
AcDbAlignedDimension
 13
-0.0706946776942244
 23
0.0000000009046756
 33
0.0
 14
-9.936056854004601
 24
-5.999999999095322
 34
0.0
 50
270.0
100
AcDbRotatedDimension
  0
DIMENSION
  5
904E
330
1F
100
AcDbEntity
  8
AM_5
100
AcDbDimension
  2
*D7
 10
-94.1912411586574
 20
-5.999999999095318
 30
0.0
 11
-97.2912411586574
 21
0.0000000009046656
 31
0.0
 70
    32
  3
AM_JIS
100
AcDbAlignedDimension
 13
-80.0
 23
6.000000000904675
 33
0.0
 14
-80.0
 24
-5.999999999095322
 34
0.0
 50
270.0
100
AcDbRotatedDimension
  0
POLYLINE
  5
90D0
330
1F
100
AcDbEntity
  8
AM_0
100
AcDb2dPolyline
 66
     1
 10
0.0
 20
0.0
 30
0.0
 70
     1
  0
VERTEX
  5
90D1
330
90D0
100
AcDbEntity
  8
AM_0
100
AcDbVertex
100
AcDb2dVertex
 10
-0.2343145750507643
 20
0.5656854258539107
 30
0.0
  0
VERTEX
  5
90D2
330
90D0
100
AcDbEntity
  8
AM_0
100
AcDbVertex
100
AcDb2dVertex
 10
-5.83813581595415
 20
6.169506666757296
 30
0.0
 42
0.4142135623730951
  0
VERTEX
  5
90D3
330
90D0
100
AcDbEntity
  8
AM_0
100
AcDbVertex
100
AcDb2dVertex
 10
-6.969506665852624
 20
6.169506666757296
 30
0.0
  0
VERTEX
  5
90D4
330
90D0
100
AcDbEntity
  8
AM_0
100
AcDbVertex
100
AcDb2dVertex
 10
-12.57332790675603
 20
0.5656854258538894
 30
0.0
 42
0.4142135623730951
  0
VERTEX
  5
90D5
330
90D0
100
AcDbEntity
  8
AM_0
100
AcDbVertex
100
AcDb2dVertex
 10
-12.57332790675603
 20
-0.5656854240445845
 30
0.0
  0
VERTEX
  5
90D6
330
90D0
100
AcDbEntity
  8
AM_0
100
AcDbVertex
100
AcDb2dVertex
 10
-6.969506665852635
 20
-6.169506664947984
 30
0.0
 42
0.4142135623730946
  0
VERTEX
  5
90D7
330
90D0
100
AcDbEntity
  8
AM_0
100
AcDbVertex
100
AcDb2dVertex
 10
-5.838135815954161
 20
-6.169506664947984
 30
0.0
  0
VERTEX
  5
90D8
330
90D0
100
AcDbEntity
  8
AM_0
100
AcDbVertex
100
AcDb2dVertex
 10
-0.2343145750507643
 20
-0.5656854240445632
 30
0.0
 42
0.4142135623730951
  0
SEQEND
  5
90D9
330
90D0
100
AcDbEntity
  8
AM_0
  0
LINE
  5
90DD
330
1F
100
AcDbEntity
  8
AM_0
100
AcDbLine
 10
-19.13901333170528
 20
6.000000000904675
 30
0.0
 11
-7.139013331705299
 21
-5.999999999095321
 31
0.0
  0
LINE
  5
90F3
330
1F
100
AcDbEntity
  8
AM_0
100
AcDbLine
 10
8.175173172496901
 20
36.65338659305523
 30
0.0
 11
15.84477321647108
 21
28.98378654908103
 31
0.0
  0
LINE
  5
90F4
330
1F
100
AcDbEntity
  8
AM_0
100
AcDbLine
 10
30.35381266806619
 20
31.44530984596308
 30
0.0
 11
22.93351869786634
 21
22.60214784887233
 31
0.0
  0
LINE
  5
90F7
330
1F
100
AcDbEntity
  8
AM_0
100
AcDbLine
 10
16.10384744207828
 20
45.69527507195098
 30
0.0
 11
30.35381266806619
 21
31.44530984596308
 31
0.0
  0
LINE
  5
90F8
330
1F
100
AcDbEntity
  8
AM_0
100
AcDbLine
 10
28.65980451756787
 20
-30.03779065108718
 30
0.0
 11
21.38276034412168
 21
-21.05138949331853
 31
0.0
  0
LINE
  5
90FA
330
1F
100
AcDbEntity
  8
AM_0
100
AcDbLine
 10
17.13186504405861
 20
-41.5657407606726
 30
0.0
 11
28.65986043335651
 21
-30.03774537137432
 31
0.0
  0
LINE
  5
90FB
330
1F
100
AcDbEntity
  8
AM_0
100
AcDbLine
 10
14.29401486272707
 20
-27.43302819352681
 30
0.0
 11
6.535315864619399
 21
-35.19172719163472
 31
0.0
  0
LINE
  5
90FC
330
1F
100
AcDbEntity
  8
AM_0
100
AcDbLine
 10
15.63694537715794
 20
28.72469983113673
 30
0.0
 11
22.93351869786634
 21
22.60214784887233
 31
0.0
  0
LINE
  5
90FE
330
1F
100
AcDbEntity
  8
AM_0
100
AcDbLine
 10
17.68100997596115
 20
31.16072116025508
 30
0.0
 11
15.63694537715794
 21
28.72469983113673
 31
0.0
  0
LINE
  5
90FF
330
1F
100
AcDbEntity
  8
AM_0
100
AcDbLine
 10
17.68100997596115
 20
31.16072116025508
 30
0.0
 11
24.97758329666957
 21
25.03816917799065
 31
0.0
  0
LINE
  5
9101
330
1F
100
AcDbEntity
  8
AM_0
100
AcDbLine
 10
18.62227601937665
 20
30.37090517038544
 30
0.0
 11
24.46505933568404
 21
37.33406317834522
 31
0.0
  0
LINE
  5
9107
330
1F
100
AcDbEntity
  8
AM_0
100
AcDbLine
 10
17.62192328826581
 20
31.09095690803749
 30
0.0
 11
10.27869718115202
 21
36.37659521736345
 31
0.0
  0
LINE
  5
9108
330
1F
100
AcDbEntity
  8
AM_0
100
AcDbLine
 10
10.84121575799003
 20
35.9802290905999
 30
0.0
 11
17.32067513498601
 21
30.7332663433729
 31
0.0
  0
LINE
  5
9109
330
1F
100
AcDbEntity
  8
AM_0
100
AcDbLine
 10
9.834988144524082
 20
35.89432444961932
 30
0.0
 11
16.88015086125112
 21
30.18926417035302
 31
0.0
  0
LINE
  5
910A
330
1F
100
AcDbEntity
  8
AM_0
100
AcDbLine
 10
9.844773216471018
 20
34.98378654908111
 30
0.0
 11
10.34435028803837
 21
35.48336362064847
 31
0.0
  0
LINE
  5
910C
330
1F
100
AcDbEntity
  8
AM_0
100
AcDbLine
 10
9.834988144524086
 20
35.89432444961933
 30
0.0
 11
10.27869718115203
 21
36.37659521736345
 31
0.0
  0
LINE
  5
910D
330
1F
100
AcDbEntity
  8
AM_0
100
AcDbLine
 10
13.98044506124452
 20
-27.04566621806804
 30
0.0
 11
21.38276034412155
 21
-21.05138949331863
 31
0.0
  0
LINE
  5
9110
330
1F
100
AcDbEntity
  8
AM_0
100
AcDbLine
 10
15.981683904783
 20
-29.5169903755012
 30
0.0
 11
13.98044506124452
 21
-27.04566621806804
 31
0.0
  0
LINE
  5
9111
330
1F
100
AcDbEntity
  8
AM_0
100
AcDbLine
 10
15.43768173176313
 20
-29.9575146492361
 30
0.0
 11
23.38399918766007
 21
-23.52271365075177
 31
0.0
  0
LINE
  5
9112
330
1F
100
AcDbEntity
  8
AM_0
100
AcDbLine
 10
22.80018734775948
 20
-35.82830829635336
 30
0.0
 11
17.01305867523426
 21
-28.68179955414958
 31
0.0
  0
CIRCLE
  5
9114
330
1F
100
AcDbEntity
  8
AM_0
100
AcDbCircle
 10
-6.403821240903391
 20
0.0000000009046724
 30
0.0
 40
1.5
  0
LINE
  5
9117
330
1F
100
AcDbEntity
  8
AM_0
100
AcDbLine
 10
15.43768173176312
 20
-29.95751464923609
 30
0.0
 11
14.99715745802824
 21
-29.41351247621622
 31
0.0
  0
LINE
  5
9118
330
1F
100
AcDbEntity
  8
AM_0
100
AcDbLine
 10
14.99715745802824
 20
-29.41351247621622
 30
0.0
 11
15.54115963104812
 21
-28.97298820248133
 31
0.0
  0
DIMENSION
  5
911B
330
1F
100
AcDbEntity
  8
AM_0
100
AcDbDimension
  2
*D8
 10
-0.0000000000000036
 20
0.3313708508031503
 30
0.0
 11
-8.663323049738869
 21
21.24648285270209
 31
0.0
 70
    34
  3
AM_JIS$2
100
AcDb2LineAngularDimension
 13
-0.2343145750507643
 23
0.5656854258539107
 33
0.0
 14
-5.83813581595415
 24
6.169506666757296
 34
0.0
 15
-0.000000000000002
 25
-0.3313708489938132
 35
0.0
 16
-5.056898150803307
 26
19.20397167830207
 36
0.0
1001
ACAD
1000
DSTYLE
1002
{
1070
   287
1070
     4
1070
   271
1070
     0
1070
   279
1070
     1
1002
}
  0
DIMENSION
  5
91A6
330
1F
100
AcDbEntity
  8
AM_5
100
AcDbDimension
  2
*D9
 10
36.55477843388926
 20
8.980888112849433
 30
0.0
 11
40.62064242571191
 21
13.04675210467209
 31
0.0
 70
   160
 51
44.99999999999995
  3
AM_JIS
100
AcDbAlignedDimension
 13
30.35381266806619
 23
31.44530984596308
 33
0.0
 14
22.93351869786634
 24
22.60214784887232
 34
0.0
 50
225.0000000000001
100
AcDbRotatedDimension
  0
LINE
  5
927D
330
1F
100
AcDbEntity
  8
AM_7
100
AcDbLine
 10
17.87669741279892
 20
24.01299163521868
 30
0.0
 11
32.14436486000582
 21
41.01653557336709
 31
0.0
  0
LINE
  5
927E
330
1F
100
AcDbEntity
  8
AM_7
100
AcDbLine
 10
16.22853906260553
 20
-22.29560028174798
 30
0.0
 11
29.79371250268329
 21
-39.04719439080491
 31
0.0
  0
LINE
  5
927F
330
1F
100
AcDbEntity
  8
AM_0
100
AcDbLine
 10
28.02520100437961
 20
33.77392150964966
 30
0.0
 11
31.99059284435762
 21
38.49969148098725
 31
0.0
  0
LINE
  5
9280
330
1F
100
AcDbEntity
  8
AM_0
100
AcDbLine
 10
25.89577756173017
 20
35.9033449522991
 30
0.0
 11
29.69245951500068
 21
40.42805431004686
 31
0.0
  0
LINE
  5
9281
330
1F
100
AcDbEntity
  8
AM_0
100
AcDbLine
 10
29.69245951500067
 20
40.42805431004686
 30
0.0
 11
31.9905928443576
 21
38.49969148098725
 31
0.0
  0
LINE
  5
9282
330
1F
100
AcDbEntity
  8
AM_0
100
AcDbLine
 10
24.18662489944399
 20
-34.50654144672034
 30
0.0
 11
27.82337547057613
 21
-38.99755438603862
 31
0.0
  0
LINE
  5
9284
330
1F
100
AcDbEntity
  8
AM_0
100
AcDbLine
 10
26.32360292116873
 20
-32.37844234212886
 30
0.0
 11
30.15481335494701
 21
-37.10959321288908
 31
0.0
  0
LINE
  5
9346
330
1F
100
AcDbEntity
  8
AM_5
100
AcDbLine
 10
-5.838135815954151
 20
6.169506666757296
 30
0.0
 11
21.38276034412168
 21
-21.05138949331853
 31
0.0
  0
LINE
  5
9347
330
1F
100
AcDbEntity
  8
AM_5
100
AcDbLine
 10
-5.838135815954165
 20
-6.169506664947977
 30
0.0
 11
22.93351869786623
 21
22.60214784887242
 31
0.0
  0
LINE
  5
934A
330
1F
100
AcDbEntity
  8
AM_0
100
AcDbLine
 10
27.82337547057613
 20
-38.99755438603863
 30
0.0
 11
30.15481335494701
 21
-37.10959321288908
 31
0.0
  0
LINE
  5
94FC
330
1F
100
AcDbEntity
  8
AM_11
100
AcDbLine
 10
-0.000000000000002
 20
-0.3313708489938131
 30
0.0
 11
-0.0000000000000036
 21
0.3313708508031485
 31
0.0
  0
DIMENSION
  5
951C
330
1F
100
AcDbEntity
  8
AM_5
100
AcDbDimension
  2
*D10
 10
14.33443129873564
 20
47.46469121529361
 30
0.0
 11
7.899759589938067
 21
45.41408154985264
 31
0.0
 70
    32
  1
<>
  3
AM_JIS
100
AcDbAlignedDimension
 13
8.175173172496903
 23
36.65338659305523
 33
0.0
 14
16.10384744207828
 24
45.69527507195098
 34
0.0
 50
224.9999999999999
100
AcDbRotatedDimension
1001
GENIUS_GENDTOL_13
1000

1000
h7
1000

1040
0.0
  0
DIMENSION
  5
95AE
330
1F
100
AcDbEntity
  8
AM_5
100
AcDbDimension
  2
*D11
 10
21.38276034412155
 20
-21.05138949331863
 30
0.0
 11
38.40900993706831
 21
-23.33035014556767
 31
0.0
 70
    34
  1
-<>
  3
AM_JIS$2
100
AcDb2LineAngularDimension
 13
21.38276034412168
 23
-21.05138949331855
 33
0.0
 14
21.61432712618379
 24
-20.81982271125644
 34
0.0
 15
13.98044506124452
 25
-27.04566621806804
 35
0.0
 16
30.61281878790067
 26
-12.4442207485622
 36
0.0
1001
ACAD
1000
DSTYLE
1002
{
1070
   179
1070
     3
1002
}
1001
GENIUS_GENDTOL_13
1000

1000
h7
1000

1040
0.0
  0
DIMENSION
  5
96C4
330
1F
100
AcDbEntity
  8
AM_5
100
AcDbDimension
  2
*D12
 10
22.93351869786634
 20
22.60214784887233
 30
0.0
 11
19.45147581498139
 21
12.0969357162765
 31
0.0
 70
    34
  1
-<>
  3
AM_JIS$2
100
AcDb2LineAngularDimension
 13
22.93351869786739
 23
22.60214784887359
 33
0.0
 14
23.28707208846014
 24
22.24859445827969
 34
0.0
 15
15.63694537715794
 25
28.72469983113673
 35
0.0
 16
31.69849746830013
 26
14.80197905520092
 36
0.0
1001
ACAD
1000
DSTYLE
1002
{
1070
   179
1070
     3
1002
}
1001
GENIUS_GENDTOL_13
1000

1000
h7
1000

1040
0.0
  0
VIEWPORT
  5
110
330
101
100
AcDbEntity
 67
     1
  8
0
100
AcDbViewport
 10
420.5
 20
297.0
 30
0.0
 40
948.9782706766916
 41
628.452
 68
     1
 69
     1
1001
ACAD
1000
MVIEW
1002
{
1070
    16
1010
0.0
1020
0.0
1030
0.0
1010
0.0
1020
0.0
1030
1.0
1040
0.0
1040
628.452
1040
420.5
1040
297.0
1040
50.0
1040
0.0
1040
0.0
1070
     0
1070
   100
1070
     1
1070
     1
1070
     0
1070
     0
1070
     0
1070
     0
1040
0.0
1040
0.0
1040
0.0
1040
10.0
1040
10.0
1040
10.0
1040
10.0
1070
     0
1002
{
1002
}
1002
}
  0
ENDSEC
  0
SECTION
  2
OBJECTS
  0
DICTIONARY
  5
C
330
0
100
AcDbDictionary
  3
ACAD_GROUP
350
D
  3
ACAD_LAYOUT
350
1A
  3
ACAD_MLINESTYLE
350
17
  3
ACAD_PLOTSETTINGS
350
19
  3
ACAD_PLOTSTYLENAME
350
E
  3
ACDBVARIABLEDICTIONARY
350
34
  3
ACMDICTIONARY
350
43
  3
AMG
350
2B
  3
AMGSNAPSETTINGS
350
6E
  3
DWGPROPS
350
989A
  3
ACDBHEADERROUNDTRIPXREC
350
98A6
  0
DICTIONARY
  5
74
330
1F
100
AcDbDictionary
280
     1
  3
ACAD_INDEX
360
989C
  3
ACAD_LAYOUTSELFREF
360
98C9
  0
DICTIONARY
  5
98CE
330
101
100
AcDbDictionary
280
     1
  3
ACAD_LAYOUTSELFREF
360
98CF
  0
DICTIONARY
  5
D
102
{ACAD_REACTORS
330
C
102
}
330
C
100
AcDbDictionary
  3
*A1
350
8AC5
  3
*A2
350
8B73
  3
*A3
350
8D58
  0
DICTIONARY
  5
1A
102
{ACAD_REACTORS
330
C
102
}
330
C
100
AcDbDictionary
  0
DICTIONARY
  5
17
102
{ACAD_REACTORS
330
C
102
}
330
C
100
AcDbDictionary
  3
STANDARD
350
18
  0
DICTIONARY
  5
19
102
{ACAD_REACTORS
330
C
102
}
330
C
100
AcDbDictionary
  0
ACDBDICTIONARYWDFLT
  5
E
102
{ACAD_REACTORS
330
C
102
}
330
C
100
AcDbDictionary
281
     1
  3
Normal
350
F
100
AcDbDictionaryWithDefault
340
F
  0
DICTIONARY
  5
34
102
{ACAD_REACTORS
330
C
102
}
330
C
100
AcDbDictionary
  3
INDEXCTL
350
35
  3
SORTENTS
350
B5E
  0
DICTIONARY
  5
43
102
{ACAD_REACTORS
330
C
102
}
330
C
100
AcDbDictionary
  3
ACMSTDDICTIONARY
350
260
  0
DICTIONARY
  5
2B
102
{ACAD_REACTORS
330
C
102
}
330
C
100
AcDbDictionary
  3
ACMGSETTINGS
350
2C
  0
DICTIONARY
  5
6E
102
{ACAD_REACTORS
330
C
102
}
330
C
100
AcDbDictionary
  0
XRECORD
  5
989A
102
{ACAD_REACTORS
330
C
102
}
330
C
100
AcDbXrecord
  1
DWGPROPS COOKIE
  2

  3

  4

  6

  7

  8

  9

300
AmdtFileType=82
301
=
302
=
303
=
304
=
305
=
306
=
307
=
308
=
309
=
 40
1.956735509259259
 41
2452838.620506898
 42
2452909.48295155
  1

 90
        1
  0
DICTIONARY
  5
98A6
102
{ACAD_REACTORS
330
C
102
}
330
C
100
AcDbDictionary
  3
TSTACKALIGN
350
98A7
  3
TSTACKSIZE
350
98A8
  3
HYPERLINKBASE
350
98A9
  3
STYLESHEET
350
98AA
  3
LAYOUTDICT
350
98AB
  3
PLOTSETDICT
350
98AC
  3
PLOTSTYLNAMDICT
350
98AD
  3
LWETCUNION
350
98AE
  3
INSUNITS
350
98AF
  3
CEPSNTYPE
350
98B0
  3
FINGERPRINTGUID
350
98B1
  3
VERSIONGUID
350
98B2
  3
PSVPSCALE
350
98B3
  3
DIMSTYLEDATA
350
98B4
  3
PUCSORTHOREF
350
98B5
  3
PUCSORTHOVIEW
350
98B6
  3
PUCSBASE
350
98B7
  3
PUCSORGTOP
350
98B8
  3
PUCSORGBOTTOM
350
98B9
  3
PUCSORGLEFT
350
98BA
  3
PUCSORGRIGHT
350
98BB
  3
PUCSORGFRONT
350
98BC
  3
PUCSORGBACK
350
98BD
  3
UCSORTHOREF
350
98BE
  3
UCSORTHOVIEW
350
98BF
  3
UCSBASE
350
98C0
  3
UCSORGTOP
350
98C1
  3
UCSORGBOTTOM
350
98C2
  3
UCSORGLEFT
350
98C3
  3
UCSORGRIGHT
350
98C4
  3
UCSORGFRONT
350
98C5
  3
UCSORGBACK
350
98C6
  0
DICTIONARY
  5
989C
102
{ACAD_REACTORS
330
74
102
}
330
74
100
AcDbDictionary
  3
*A1
350
989D
  0
XRECORD
  5
98C9
102
{ACAD_REACTORS
330
74
102
}
330
74
100
AcDbXrecord
340
1F
  0
XRECORD
  5
98CF
102
{ACAD_REACTORS
330
98CE
102
}
330
98CE
100
AcDbXrecord
340
101
  0
GROUP
  5
8AC5
102
{ACAD_REACTORS
330
D
102
}
330
D
100
AcDbGroup
300

 70
     1
 71
     1
  0
GROUP
  5
8B73
102
{ACAD_REACTORS
330
D
102
}
330
D
100
AcDbGroup
300

 70
     1
 71
     1
  0
GROUP
  5
8D58
102
{ACAD_REACTORS
330
D
102
}
330
D
100
AcDbGroup
300

 70
     1
 71
     1
  0
MLINESTYLE
  5
18
102
{ACAD_REACTORS
330
17
102
}
330
17
100
AcDbMlineStyle
  2
STANDARD
 70
     0
  3

 62
   256
 51
90.0
 52
90.0
 71
     2
 49
0.5
 62
   256
  6
BYLAYER
 49
-0.5
 62
   256
  6
BYLAYER
  0
ACDBPLACEHOLDER
  5
F
102
{ACAD_REACTORS
330
E
102
}
330
E
100
AcDbPlaceHolder
280
     0
  0
DICTIONARYVAR
  5
35
102
{ACAD_REACTORS
330
34
102
}
330
34
100
DictionaryVariables
280
     0
  1
1
  0
DICTIONARYVAR
  5
B5E
102
{ACAD_REACTORS
330
34
102
}
330
34
100
DictionaryVariables
280
     0
  1
96
  0
DICTIONARY
  5
260
102
{ACAD_REACTORS
330
43
102
}
330
43
100
AcDbDictionary
  0
DICTIONARY
  5
2C
102
{ACAD_REACTORS
330
2B
102
}
330
2B
100
AcDbDictionary
  3
DWGSETTINGS
350
2D
  0
XRECORD
  5
98A7
102
{ACAD_REACTORS
330
98A6
102
}
330
98A6
100
AcDbXrecord
 90
        1
  0
XRECORD
  5
98A8
102
{ACAD_REACTORS
330
98A6
102
}
330
98A6
100
AcDbXrecord
 90
       70
  0
XRECORD
  5
98A9
102
{ACAD_REACTORS
330
98A6
102
}
330
98A6
100
AcDbXrecord
  1

  0
XRECORD
  5
98AA
102
{ACAD_REACTORS
330
98A6
102
}
330
98A6
100
AcDbXrecord
  1
ASAMI.ctb
  0
XRECORD
  5
98AB
102
{ACAD_REACTORS
330
98A6
102
}
330
98A6
100
AcDbXrecord
340
1A
  0
XRECORD
  5
98AC
102
{ACAD_REACTORS
330
98A6
102
}
330
98A6
100
AcDbXrecord
340
19
  0
XRECORD
  5
98AD
102
{ACAD_REACTORS
330
98A6
102
}
330
98A6
100
AcDbXrecord
340
E
  0
XRECORD
  5
98AE
102
{ACAD_REACTORS
330
98A6
102
}
330
98A6
100
AcDbXrecord
 90
    10781
  0
XRECORD
  5
98AF
102
{ACAD_REACTORS
330
98A6
102
}
330
98A6
100
AcDbXrecord
 90
        4
  0
XRECORD
  5
98B0
102
{ACAD_REACTORS
330
98A6
102
}
330
98A6
100
AcDbXrecord
 90
        0
  0
XRECORD
  5
98B1
102
{ACAD_REACTORS
330
98A6
102
}
330
98A6
100
AcDbXrecord
  1
{AFB28963-8C59-40AE-9337-C84526B81ACE}
  0
XRECORD
  5
98B2
102
{ACAD_REACTORS
330
98A6
102
}
330
98A6
100
AcDbXrecord
  1
{FCDD69D5-37BD-4CFD-B802-0F37A7AC40D3}
  0
XRECORD
  5
98B3
102
{ACAD_REACTORS
330
98A6
102
}
330
98A6
100
AcDbXrecord
 40
0.0
  0
XRECORD
  5
98B4
102
{ACAD_REACTORS
330
98A6
102
}
330
98A6
100
AcDbXrecord
1000
DSTYLE
1002
{
1070
    79
 70
     2
1070
   341
340
59
1070
   342
340
59
1070
   371
 70
    -1
1070
   372
 70
    -1
1002
}
  0
XRECORD
  5
98B5
102
{ACAD_REACTORS
330
98A6
102
}
330
98A6
100
AcDbXrecord
340
0
  0
XRECORD
  5
98B6
102
{ACAD_REACTORS
330
98A6
102
}
330
98A6
100
AcDbXrecord
 70
     0
  0
XRECORD
  5
98B7
102
{ACAD_REACTORS
330
98A6
102
}
330
98A6
100
AcDbXrecord
340
0
  0
XRECORD
  5
98B8
102
{ACAD_REACTORS
330
98A6
102
}
330
98A6
100
AcDbXrecord
 10
0.0
 20
0.0
 30
0.0
  0
XRECORD
  5
98B9
102
{ACAD_REACTORS
330
98A6
102
}
330
98A6
100
AcDbXrecord
 10
0.0
 20
0.0
 30
0.0
  0
XRECORD
  5
98BA
102
{ACAD_REACTORS
330
98A6
102
}
330
98A6
100
AcDbXrecord
 10
0.0
 20
0.0
 30
0.0
  0
XRECORD
  5
98BB
102
{ACAD_REACTORS
330
98A6
102
}
330
98A6
100
AcDbXrecord
 10
0.0
 20
0.0
 30
0.0
  0
XRECORD
  5
98BC
102
{ACAD_REACTORS
330
98A6
102
}
330
98A6
100
AcDbXrecord
 10
0.0
 20
0.0
 30
0.0
  0
XRECORD
  5
98BD
102
{ACAD_REACTORS
330
98A6
102
}
330
98A6
100
AcDbXrecord
 10
0.0
 20
0.0
 30
0.0
  0
XRECORD
  5
98BE
102
{ACAD_REACTORS
330
98A6
102
}
330
98A6
100
AcDbXrecord
340
0
  0
XRECORD
  5
98BF
102
{ACAD_REACTORS
330
98A6
102
}
330
98A6
100
AcDbXrecord
 70
     0
  0
XRECORD
  5
98C0
102
{ACAD_REACTORS
330
98A6
102
}
330
98A6
100
AcDbXrecord
340
0
  0
XRECORD
  5
98C1
102
{ACAD_REACTORS
330
98A6
102
}
330
98A6
100
AcDbXrecord
 10
0.0
 20
0.0
 30
0.0
  0
XRECORD
  5
98C2
102
{ACAD_REACTORS
330
98A6
102
}
330
98A6
100
AcDbXrecord
 10
0.0
 20
0.0
 30
0.0
  0
XRECORD
  5
98C3
102
{ACAD_REACTORS
330
98A6
102
}
330
98A6
100
AcDbXrecord
 10
0.0
 20
0.0
 30
0.0
  0
XRECORD
  5
98C4
102
{ACAD_REACTORS
330
98A6
102
}
330
98A6
100
AcDbXrecord
 10
0.0
 20
0.0
 30
0.0
  0
XRECORD
  5
98C5
102
{ACAD_REACTORS
330
98A6
102
}
330
98A6
100
AcDbXrecord
 10
0.0
 20
0.0
 30
0.0
  0
XRECORD
  5
98C6
102
{ACAD_REACTORS
330
98A6
102
}
330
98A6
100
AcDbXrecord
 10
0.0
 20
0.0
 30
0.0
  0
LAYER_INDEX
  5
989D
102
{ACAD_REACTORS
330
989C
102
}
330
989C
100
AcDbIndex
 40
2452941.590900961
100
AcDbLayerIndex
  8
0
360
989E
 90
        2
  8
AM_0
360
989F
 90
       34
  8
AM_11
360
98A0
 90
        1
  8
AM_7
360
98A1
 90
        2
  8
AM_5
360
98A2
 90
        9
  8
Defpoints
360
98A3
 90
        0
  8
AM_6
360
98A4
 90
        1
  0
XRECORD
  5
2D
102
{ACAD_REACTORS
330
2C
102
}
330
2C
100
AcDbXrecord
  1
VERSION
140
15.0
  1
PRODUCT
  2
AutoCAD Mechanical 2000
  0
IDBUFFER
  5
989E
330
0
100
AcDbIdBuffer
330
68EE
330
68F2
  0
IDBUFFER
  5
989F
330
0
100
AcDbIdBuffer
330
9108
330
9109
330
910A
330
910C
330
910D
330
9110
330
9111
330
9112
330
9114
330
9117
330
9118
330
911B
330
927F
330
9280
330
9281
330
9282
330
9284
330
934A
330
8E6C
330
8E6D
330
8E7A
330
90D0
330
90DD
330
90F3
330
90F4
330
90F7
330
90F8
330
90FA
330
90FB
330
90FC
330
90FE
330
90FF
330
9101
330
9107
  0
IDBUFFER
  5
98A0
330
0
100
AcDbIdBuffer
330
94FC
  0
IDBUFFER
  5
98A1
330
0
100
AcDbIdBuffer
330
927D
330
927E
  0
IDBUFFER
  5
98A2
330
0
100
AcDbIdBuffer
330
8E9B
330
8EA8
330
904E
330
91A6
330
9346
330
9347
330
951C
330
95AE
330
96C4
  0
IDBUFFER
  5
98A3
330
0
100
AcDbIdBuffer
  0
IDBUFFER
  5
98A4
330
0
100
AcDbIdBuffer
330
C58
  0
ENDSEC
  0
EOF
