  0
SECTION
  2
HEADER
  9
$ACADVER
  1
AC1014
  9
$ACADMAINTVER
 70
     9
  9
$DWGCODEPAGE
  3
ANSI_932
  9
$INSBASE
 10
0.0
 20
0.0
 30
0.0
  9
$EXTMIN
 10
-140.4456397580835
 20
-61.50000000000006
 30
0.0
  9
$EXTMAX
 10
13.34388432018044
 20
51.64049042013422
 30
0.0
  9
$LIMMIN
 10
-150.6459124249752
 20
-77.20769523329909
  9
$LIMMAX
 10
27.3291731713241
 20
60.07651794706453
  9
$ORTHOMODE
 70
     0
  9
$REGENMODE
 70
     1
  9
$FILLMODE
 70
     1
  9
$QTEXTMODE
 70
     0
  9
$MIRRTEXT
 70
     0
  9
$DRAGMODE
 70
     2
  9
$LTSCALE
 40
0.5
  9
$OSMODE
 70
  2103
  9
$ATTMODE
 70
     1
  9
$TEXTSIZE
 40
2.5
  9
$TRACEWID
 40
1.0
  9
$TEXTSTYLE
  7
STANDARD
  9
$CLAYER
  8
AM_0
  9
$CELTYPE
  6
BYLAYER
  9
$CECOLOR
 62
   256
  9
$CELTSCALE
 40
1.0
  9
$DELOBJ
 70
     1
  9
$DISPSILH
 70
     0
  9
$DIMSCALE
 40
1.0
  9
$DIMASZ
 40
2.5
  9
$DIMEXO
 40
1.0
  9
$DIMDLI
 40
12.0
  9
$DIMRND
 40
0.0
  9
$DIMDLE
 40
0.0
  9
$DIMEXE
 40
1.0
  9
$DIMTP
 40
0.1
  9
$DIMTM
 40
0.1
  9
$DIMTXT
 40
3.2
  9
$DIMCEN
 40
0.0
  9
$DIMTSZ
 40
0.0
  9
$DIMTOL
 70
     0
  9
$DIMLIM
 70
     0
  9
$DIMTIH
 70
     0
  9
$DIMTOH
 70
     0
  9
$DIMSE1
 70
     0
  9
$DIMSE2
 70
     0
  9
$DIMTAD
 70
     3
  9
$DIMZIN
 70
     8
  9
$DIMBLK
  1
OPEN30
  9
$DIMASO
 70
     1
  9
$DIMSHO
 70
     1
  9
$DIMPOST
  1

  9
$DIMAPOST
  1
"
  9
$DIMALT
 70
     0
  9
$DIMALTD
 70
     2
  9
$DIMALTF
 40
0.0393701
  9
$DIMLFAC
 40
1.0
  9
$DIMTOFL
 70
     1
  9
$DIMTVP
 40
0.0
  9
$DIMTIX
 70
     0
  9
$DIMSOXD
 70
     0
  9
$DIMSAH
 70
     0
  9
$DIMBLK1
  1

  9
$DIMBLK2
  1

  9
$DIMSTYLE
  2
AM_JIS
  9
$DIMCLRD
 70
     3
  9
$DIMCLRE
 70
     3
  9
$DIMCLRT
 70
     2
  9
$DIMTFAC
 40
0.71
  9
$DIMGAP
 40
1.5
  9
$DIMJUST
 70
     0
  9
$DIMSD1
 70
     0
  9
$DIMSD2
 70
     0
  9
$DIMTOLJ
 70
     0
  9
$DIMTZIN
 70
     0
  9
$DIMALTZ
 70
     0
  9
$DIMALTTZ
 70
     0
  9
$DIMFIT
 70
     3
  9
$DIMUPT
 70
     0
  9
$DIMUNIT
 70
     2
  9
$DIMDEC
 70
     3
  9
$DIMTDEC
 70
     3
  9
$DIMALTU
 70
     2
  9
$DIMALTTD
 70
     2
  9
$DIMTXSTY
  7
ASAMI
  9
$DIMAUNIT
 70
     0
  9
$LUNITS
 70
     2
  9
$LUPREC
 70
     2
  9
$SKETCHINC
 40
1.0
  9
$FILLETRAD
 40
0.8
  9
$AUNITS
 70
     0
  9
$AUPREC
 70
     0
  9
$MENU
  1
.
  9
$ELEVATION
 40
0.0
  9
$PELEVATION
 40
0.0
  9
$THICKNESS
 40
0.0
  9
$LIMCHECK
 70
     0
  9
$BLIPMODE
 70
     0
  9
$CHAMFERA
 40
2.5
  9
$CHAMFERB
 40
2.5
  9
$CHAMFERC
 40
20.0
  9
$CHAMFERD
 40
0.0
  9
$SKPOLY
 70
     0
  9
$TDCREATE
 40
2452838.620506898
  9
$TDUPDATE
 40
2452941.591731759
  9
$TDINDWG
 40
1.2722388889
  9
$TDUSRTIMER
 40
1.2722388889
  9
$USRTIMER
 70
     1
  9
$ANGBASE
 50
0.0
  9
$ANGDIR
 70
     0
  9
$PDMODE
 70
     0
  9
$PDSIZE
 40
0.0
  9
$PLINEWID
 40
0.0
  9
$COORDS
 70
     0
  9
$SPLFRAME
 70
     0
  9
$SPLINETYPE
 70
     6
  9
$SPLINESEGS
 70
     8
  9
$ATTDIA
 70
     1
  9
$ATTREQ
 70
     1
  9
$HANDLING
 70
 12289
  9
$HANDSEED
  5
8F5A
  9
$SURFTAB1
 70
     6
  9
$SURFTAB2
 70
     6
  9
$SURFTYPE
 70
     6
  9
$SURFU
 70
     6
  9
$SURFV
 70
     6
  9
$UCSNAME
  2

  9
$UCSORG
 10
0.0
 20
0.0
 30
0.0
  9
$UCSXDIR
 10
1.0
 20
0.0
 30
0.0
  9
$UCSYDIR
 10
0.0
 20
1.0
 30
0.0
  9
$PUCSNAME
  2

  9
$PUCSORG
 10
0.0
 20
0.0
 30
0.0
  9
$PUCSXDIR
 10
1.0
 20
0.0
 30
0.0
  9
$PUCSYDIR
 10
0.0
 20
1.0
 30
0.0
  9
$USERI1
 70
     0
  9
$USERI2
 70
     0
  9
$USERI3
 70
     0
  9
$USERI4
 70
     0
  9
$USERI5
 70
     0
  9
$USERR1
 40
0.0
  9
$USERR2
 40
0.0
  9
$USERR3
 40
0.0
  9
$USERR4
 40
0.0
  9
$USERR5
 40
0.0
  9
$WORLDVIEW
 70
     1
  9
$SHADEDGE
 70
     3
  9
$SHADEDIF
 70
    70
  9
$TILEMODE
 70
     1
  9
$MAXACTVP
 70
    64
  9
$PINSBASE
 10
0.0
 20
0.0
 30
0.0
  9
$PLIMCHECK
 70
     0
  9
$PEXTMIN
 10
1.000000000000000E+20
 20
1.000000000000000E+20
 30
1.000000000000000E+20
  9
$PEXTMAX
 10
-1.000000000000000E+20
 20
-1.000000000000000E+20
 30
-1.000000000000000E+20
  9
$PLIMMIN
 10
0.0
 20
0.0
  9
$PLIMMAX
 10
841.0
 20
594.0
  9
$UNITMODE
 70
     0
  9
$VISRETAIN
 70
     1
  9
$PLINEGEN
 70
     0
  9
$PSLTSCALE
 70
     0
  9
$TREEDEPTH
 70
  3020
  9
$PICKSTYLE
 70
     0
  9
$CMLSTYLE
  2
STANDARD
  9
$CMLJUST
 70
     0
  9
$CMLSCALE
 40
20.0
  9
$PROXYGRAPHICS
 70
     1
  9
$MEASUREMENT
 70
     1
  0
ENDSEC
  0
SECTION
  2
CLASSES
  0
CLASS
  1
ACDBDICTIONARYWDFLT
  2
AcDbDictionaryWithDefault
  3
AutoCAD 2000
 90
        0
280
     0
281
     0
  0
CLASS
  1
ACDBPLACEHOLDER
  2
AcDbPlaceHolder
  3
AutoCAD 2000
 90
        0
280
     0
281
     0
  0
CLASS
  1
LAYOUT
  2
AcDbLayout
  3
AutoCAD 2000
 90
        0
280
     0
281
     0
  0
CLASS
  1
AMGSETTINGSOBJ
  2
AmgSettingsObj
  3
"AcadM|Product Description: AutoCAD Mechanical 2000|Company: Autodesk"
 90
        0
280
     0
281
     0
  0
CLASS
  1
ACME_DOCUMENT
  2
AcMeDbDoc
  3
AcMeServices
 90
        0
280
     0
281
     0
  0
CLASS
  1
ACMESCOPE
  2
AcMeScope
  3
AcMeServices
 90
        0
280
     0
281
     0
  0
CLASS
  1
ACMECOMMANDHISTORY
  2
AcMeCommandHistory
  3
AcMeServices
 90
        0
280
     0
281
     0
  0
CLASS
  1
DICTIONARYVAR
  2
AcDbDictionaryVar
  3
AutoCAD 2000
 90
        0
280
     0
281
     0
  0
CLASS
  1
ACIMSYSVARMAN
  2
AcImSysVarManager
  3
AcMeServices
 90
        0
280
     0
281
     0
  0
CLASS
  1
ACIMREALSYSVAR
  2
AcImRealSysVar
  3
AcMeServices
 90
        0
280
     0
281
     0
  0
CLASS
  1
ACIMINTSYSVAR
  2
AcImIntSysVar
  3
AcMeServices
 90
        0
280
     0
281
     0
  0
CLASS
  1
ACMEDRAWINGMAN
  2
AcMeDrawingMan
  3
AcMeServices
 90
        0
280
     0
281
     0
  0
CLASS
  1
ACMEVIEW
  2
AcMeView
  3
AcMeServices
 90
        0
280
     0
281
     0
  0
CLASS
  1
ACDBENTITYCACHE
  2
AcMeEntityCache
  3
AcMeServices
 90
        0
280
     0
281
     0
  0
CLASS
  1
GSMANAGER
  2
AcMeGSManager
  3
AcMeServices
 90
        0
280
     0
281
     0
  0
CLASS
  1
AmdtInternalReactor
  2
AmdtInternalReactor
  3
AcMeServices
 90
        0
280
     0
281
     0
  0
CLASS
  1
ACMESTATEMGR
  2
AcMeStateMgr
  3
AcMeServices
 90
        0
280
     0
281
     0
  0
CLASS
  1
ACME_DATABASE
  2
AcMeDbDatabase
  3
AcMeServices
 90
        0
280
     0
281
     0
  0
CLASS
  1
ACRFINSADJUSTERMGR
  2
AcRfInsAdjusterMgr
  3
AcMeServices
 90
        0
280
     0
281
     0
  0
CLASS
  1
ACMDATADICTIONARY
  2
AcmDataDictionary
  3
"AcmSymBB|Product Description: AutoCAD Mechanical 2000|Company: Autodesk"
 90
        0
280
     0
281
     0
  0
CLASS
  1
ACMDATAENTRYBLOCK
  2
AcmDataEntryBlock
  3
"AcmSymBB|Product Description: AutoCAD Mechanical 2000|Company: Autodesk"
 90
        0
280
     0
281
     0
  0
CLASS
  1
AMGOBJPROPCFG
  2
AmgObjPropCfg
  3
"AmgLay|Product Description: AutoCAD Mechanical 2000|Company: Autodesk"
 90
        1
280
     0
281
     0
  0
CLASS
  1
ACAMGFILTERDAT
  2
AcAmgFilterDat
  3
"AcadM|Product Description: AutoCAD Mechanical 2000|Company: Autodesk"
 90
        0
280
     0
281
     0
  0
CLASS
  1
LAYER_INDEX
  2
AcDbLayerIndex
  3
AutoCAD 2000
 90
        0
280
     0
281
     0
  0
CLASS
  1
IDBUFFER
  2
AcDbIdBuffer
  3
AutoCAD 2000
 90
        0
280
     0
281
     0
  0
CLASS
  1
ACIMSTRSYSVAR
  2
AcImStrSysVar
  3
AcMeServices
 90
        0
280
     0
281
     0
  0
CLASS
  1
ACMSTANDARDJIS
  2
AcmStandardJIS
  3
"AcmSymBB|Product Description: AutoCAD Mechanical 2000|Company: Autodesk"
 90
        0
280
     0
281
     0
  0
CLASS
  1
ACMSURFSTANDARDJIS
  2
AcmSurfTextStdJIS
  3
"AcmSymBB|Product Description: AutoCAD Mechanical 2000|Company: Autodesk"
 90
        0
280
     0
281
     0
  0
CLASS
  1
ACMFCFSTANDARDJIS
  2
AcmFCFStdJIS
  3
"AcmSymBB|Product Description: AutoCAD Mechanical 2000|Company: Autodesk"
 90
        0
280
     0
281
     0
  0
CLASS
  1
ACMWELDSTANDARDJIS
  2
AcmWeldingStdJIS
  3
"AcmSymBB|Product Description: AutoCAD Mechanical 2000|Company: Autodesk"
 90
        0
280
     0
281
     0
  0
CLASS
  1
ACMIDSTANDARDJIS
  2
AcmIdStdJIS
  3
"AcmSymBB|Product Description: AutoCAD Mechanical 2000|Company: Autodesk"
 90
        0
280
     0
281
     0
  0
CLASS
  1
ACMDATUMSTANDARDJIS
  2
AcmDatumStdJIS
  3
"AcmSymBB|Product Description: AutoCAD Mechanical 2000|Company: Autodesk"
 90
        0
280
     0
281
     0
  0
CLASS
  1
ACMBOMSTANDARDJIS
  2
AcmBOMStdJIS
  3
"AcmSymBB|Product Description: AutoCAD Mechanical 2000|Company: Autodesk"
 90
        0
280
     0
281
     0
  0
CLASS
  1
ACMSTANDARDANSI
  2
AcmStandardANSI
  3
"AcmSymBB|Product Description: AutoCAD Mechanical 2000|Company: Autodesk"
 90
        0
280
     0
281
     0
  0
CLASS
  1
ACMSURFSTANDARDANSI
  2
AcmSurfTextStdANSI
  3
"AcmSymBB|Product Description: AutoCAD Mechanical 2000|Company: Autodesk"
 90
        0
280
     0
281
     0
  0
CLASS
  1
ACMFCFSTANDARDANSI
  2
AcmFCFStdANSI
  3
"AcmSymBB|Product Description: AutoCAD Mechanical 2000|Company: Autodesk"
 90
        0
280
     0
281
     0
  0
CLASS
  1
ACMWELDSTANDARDANSI
  2
AcmWeldingStdANSI
  3
"AcmSymBB|Product Description: AutoCAD Mechanical 2000|Company: Autodesk"
 90
        0
280
     0
281
     0
  0
CLASS
  1
ACMIDSTANDARDANSI
  2
AcmIdStdANSI
  3
"AcmSymBB|Product Description: AutoCAD Mechanical 2000|Company: Autodesk"
 90
        0
280
     0
281
     0
  0
CLASS
  1
ACMDATUMSTANDARDANSI
  2
AcmDatumStdANSI
  3
"AcmSymBB|Product Description: AutoCAD Mechanical 2000|Company: Autodesk"
 90
        0
280
     0
281
     0
  0
CLASS
  1
ACMBOMSTANDARDANSI
  2
AcmBOMStdANSI
  3
"AcmSymBB|Product Description: AutoCAD Mechanical 2000|Company: Autodesk"
 90
        0
280
     0
281
     0
  0
CLASS
  1
ACMSTANDARDBSI
  2
AcmStandardBSI
  3
"AcmSymBB|Product Description: AutoCAD Mechanical 2000|Company: Autodesk"
 90
        0
280
     0
281
     0
  0
CLASS
  1
ACMSURFSTANDARDBSI
  2
AcmSurfTextStdBSI
  3
"AcmSymBB|Product Description: AutoCAD Mechanical 2000|Company: Autodesk"
 90
        0
280
     0
281
     0
  0
CLASS
  1
ACMFCFSTANDARDBSI
  2
AcmFCFStdBSI
  3
"AcmSymBB|Product Description: AutoCAD Mechanical 2000|Company: Autodesk"
 90
        0
280
     0
281
     0
  0
CLASS
  1
ACMWELDSTANDARDBSI
  2
AcmWeldingStdBSI
  3
"AcmSymBB|Product Description: AutoCAD Mechanical 2000|Company: Autodesk"
 90
        0
280
     0
281
     0
  0
CLASS
  1
ACMIDSTANDARDBSI
  2
AcmIdStdBSI
  3
"AcmSymBB|Product Description: AutoCAD Mechanical 2000|Company: Autodesk"
 90
        0
280
     0
281
     0
  0
CLASS
  1
ACMDATUMSTANDARDBSI
  2
AcmDatumStdBSI
  3
"AcmSymBB|Product Description: AutoCAD Mechanical 2000|Company: Autodesk"
 90
        0
280
     0
281
     0
  0
CLASS
  1
ACMBOMSTANDARDBSI
  2
AcmBOMStdBSI
  3
"AcmSymBB|Product Description: AutoCAD Mechanical 2000|Company: Autodesk"
 90
        0
280
     0
281
     0
  0
CLASS
  1
LONG_TRANSACTION
  2
AcDbLongTransaction
  3
AutoCAD 2000
 90
        0
280
     0
281
     0
  0
CLASS
  1
LWPOLYLINE
  2
AcDbPolyline
  3
AutoCAD 2000
 90
        0
280
     0
281
     1
  0
CLASS
  1
HATCH
  2
AcDbHatch
  3
AutoCAD 2000
 90
        0
280
     0
281
     1
  0
CLASS
  1
XRECORD
  2
AcDbXrecord
  3
AutoCAD 2000
 90
        0
280
     0
281
     0
  0
ENDSEC
  0
SECTION
  2
TABLES
  0
TABLE
  2
VPORT
  5
8
330
0
100
AcDbSymbolTable
 70
     3
  0
VPORT
  5
8F18
330
8
100
AcDbSymbolTableRecord
100
AcDbViewportTableRecord
  2
*ACTIVE
 70
     0
 10
0.0
 20
0.0
 11
1.0
 21
1.0
 12
-53.00233391575932
 22
1.805780948018629
 13
0.0
 23
0.0
 14
2.5
 24
2.5
 15
10.0
 25
10.0
 16
0.0
 26
0.0
 36
1.0
 17
0.0
 27
0.0
 37
0.0
 40
127.3425553456248
 41
1.56570841889117
 42
50.0
 43
0.0
 44
0.0
 50
0.0
 51
0.0
 71
     0
 72
   100
 73
     1
 74
     3
 75
     0
 76
     0
 77
     0
 78
     0
  0
ENDTAB
  0
TABLE
  2
LTYPE
  5
5
330
0
100
AcDbSymbolTable
 70
    10
  0
LTYPE
  5
14
330
5
100
AcDbSymbolTableRecord
100
AcDbLinetypeTableRecord
  2
BYBLOCK
 70
     0
  3

 72
    65
 73
     0
 40
0.0
  0
LTYPE
  5
15
330
5
100
AcDbSymbolTableRecord
100
AcDbLinetypeTableRecord
  2
BYLAYER
 70
     0
  3

 72
    65
 73
     0
 40
0.0
  0
LTYPE
  5
16
330
5
100
AcDbSymbolTableRecord
100
AcDbLinetypeTableRecord
  2
CONTINUOUS
 70
     0
  3
Solid line
 72
    65
 73
     0
 40
0.0
  0
LTYPE
  5
4B
330
5
100
AcDbSymbolTableRecord
100
AcDbLinetypeTableRecord
  2
AM_ISO02W050
 70
     0
  3
__ __ __ __ __ __ __ __ __ __ __ __ __ __ __
 72
    65
 73
     2
 40
7.5
 49
6.0
 74
     0
 49
-1.5
 74
     0
  0
LTYPE
  5
4C
330
5
100
AcDbSymbolTableRecord
100
AcDbLinetypeTableRecord
  2
AM_ISO08W050
 70
     0
  3
____ . ____ . ____ . ____ . ____ . ____ . ____
 72
    65
 73
     4
 40
18.0
 49
12.0
 74
     0
 49
-1.5
 74
     0
 49
3.0
 74
     0
 49
-1.5
 74
     0
  0
LTYPE
  5
4D
330
5
100
AcDbSymbolTableRecord
100
AcDbLinetypeTableRecord
  2
AM_ISO09W050
 70
     0
  3
_____ . . _____ . . _____ . . ____ .. ____
 72
    65
 73
     6
 40
22.5
 49
12.0
 74
     0
 49
-1.5
 74
     0
 49
3.0
 74
     0
 49
-1.5
 74
     0
 49
3.0
 74
     0
 49
-1.5
 74
     0
  0
LTYPE
  5
4E
330
5
100
AcDbSymbolTableRecord
100
AcDbLinetypeTableRecord
  2
AMCONSTR
 70
     0
  3
_______________________
 72
    65
 73
     2
 40
9999.0
 49
9999.0
 74
     0
 49
0.0
 74
     0
  0
LTYPE
  5
4F
330
5
100
AcDbSymbolTableRecord
100
AcDbLinetypeTableRecord
  2
AM_ISO02W050X2
 70
     0
  3
 _ _ _ _ _ _ _ _ _ _ _ _
 72
    65
 73
     2
 40
3.75
 49
3.0
 74
     0
 49
-0.75
 74
     0
  0
LTYPE
  5
50
330
5
100
AcDbSymbolTableRecord
100
AcDbLinetypeTableRecord
  2
AM_ISO08W050X2
 70
     0
  3
__ . __ . __ . __ . __ . __
 72
    65
 73
     4
 40
9.0
 49
6.0
 74
     0
 49
-0.75
 74
     0
 49
1.5
 74
     0
 49
-0.75
 74
     0
  0
LTYPE
  5
53
330
5
100
AcDbSymbolTableRecord
100
AcDbLinetypeTableRecord
  2
AMZIGZAG
 70
     0
  3
/\/-/\/-/\/-/\/-/\/-/\/
 72
    65
 73
     2
 40
11.00009999999999
 49
0.0001
 74
     4
 75
   135
340
52
 46
0.04
 50
0.0
 44
0.0
 45
0.0
 49
-11.0
 74
     0
  0
LTYPE
  5
166
330
5
100
AcDbSymbolTableRecord
100
AcDbLinetypeTableRecord
  2
ACJISTGL
 70
     0
  3
_ _ _ _ _
 72
    65
 73
     2
 40
3.0
 49
2.0
 74
     0
 49
-1.0
 74
     0
  0
LTYPE
  5
26A
330
5
100
AcDbSymbolTableRecord
100
AcDbLinetypeTableRecord
  2
ACJISTGB
 70
     0
  3
__ . . __ . .
 72
    65
 73
     6
 40
9.0
 49
4.0
 74
     0
 49
-1.0
 74
     0
 49
1.0
 74
     0
 49
-1.0
 74
     0
 49
1.0
 74
     0
 49
-1.0
 74
     0
  0
ENDTAB
  0
TABLE
  2
LAYER
  5
2
330
0
100
AcDbSymbolTable
 70
     7
  0
LAYER
  5
10
330
2
100
AcDbSymbolTableRecord
100
AcDbLayerTableRecord
  2
0
 70
     0
 62
     7
  6
CONTINUOUS
  0
LAYER
  5
3F9
330
2
100
AcDbSymbolTableRecord
100
AcDbLayerTableRecord
  2
AM_0
 70
     0
 62
     7
  6
CONTINUOUS
  0
LAYER
  5
BD6
330
2
100
AcDbSymbolTableRecord
100
AcDbLayerTableRecord
  2
AM_11
 70
     0
 62
     3
  6
AM_ISO09W050
  0
LAYER
  5
BD7
330
2
100
AcDbSymbolTableRecord
100
AcDbLayerTableRecord
  2
AM_7
 70
     0
 62
     4
  6
AM_ISO08W050
  0
LAYER
  5
BD8
330
2
100
AcDbSymbolTableRecord
100
AcDbLayerTableRecord
  2
AM_5
 70
     0
 62
     3
  6
CONTINUOUS
  0
LAYER
  5
BD9
330
2
100
AcDbSymbolTableRecord
100
AcDbLayerTableRecord
  2
DEFPOINTS
 70
     0
 62
     7
  6
CONTINUOUS
  0
LAYER
  5
BDA
330
2
100
AcDbSymbolTableRecord
100
AcDbLayerTableRecord
  2
AM_6
 70
     0
 62
     2
  6
CONTINUOUS
  0
ENDTAB
  0
TABLE
  2
STYLE
  5
3
330
0
100
AcDbSymbolTable
 70
     5
  0
STYLE
  5
11
330
3
100
AcDbSymbolTableRecord
100
AcDbTextStyleTableRecord
  2
STANDARD
 70
     0
 40
0.0
 41
1.0
 50
0.0
 71
     0
 42
2.5
  3
simplex.shx
  4
EXTFONT.SHX
  0
STYLE
  5
52
330
3
100
AcDbSymbolTableRecord
100
AcDbTextStyleTableRecord
  2

 70
     1
 40
0.0
 41
1.0
 50
0.0
 71
     0
 42
2.5
  3
ltypeshp.shx
  4

  0
STYLE
  5
6B
330
3
100
AcDbSymbolTableRecord
100
AcDbTextStyleTableRecord
  2
ASAMI
 70
     0
 40
0.0
 41
1.0
 50
0.0
 71
     0
 42
2.5
  3
simplex.shx
  4
EXTFONT.SHX
  0
STYLE
  5
262
330
3
100
AcDbSymbolTableRecord
100
AcDbTextStyleTableRecord
  2
ACJISTS
 70
     0
 40
1.0
 41
1.0
 50
0.0
 71
     0
 42
2.5
  3
simplex.shx
  4
bigfont.shx
  0
STYLE
  5
269
330
3
100
AcDbSymbolTableRecord
100
AcDbTextStyleTableRecord
  2
ACJISGDT
 70
     0
 40
0.0
 41
1.0
 50
0.0
 71
     0
 42
2.5
  3
amgdtans.shx
  4

  0
ENDTAB
  0
TABLE
  2
VIEW
  5
6
330
0
100
AcDbSymbolTable
 70
     0
  0
ENDTAB
  0
TABLE
  2
UCS
  5
7
330
0
100
AcDbSymbolTable
 70
     0
  0
ENDTAB
  0
TABLE
  2
APPID
  5
9
330
0
100
AcDbSymbolTable
 70
    13
  0
APPID
  5
12
330
9
100
AcDbSymbolTableRecord
100
AcDbRegAppTableRecord
  2
ACAD
 70
     0
  0
APPID
  5
30
330
9
100
AcDbSymbolTableRecord
100
AcDbRegAppTableRecord
  2
MCAD_NO_VIS
 70
     0
  0
APPID
  5
31
330
9
100
AcDbSymbolTableRecord
100
AcDbRegAppTableRecord
  2
ACAD_TEMP_GRAPHIC
 70
     0
  0
APPID
  5
2C2
330
9
100
AcDbSymbolTableRecord
100
AcDbRegAppTableRecord
  2
GENIUS_GENDTOL_13
 70
     0
  0
APPID
  5
339
330
9
100
AcDbSymbolTableRecord
100
AcDbRegAppTableRecord
  2
GENIUS_GENODEF_13
 70
     0
  0
APPID
  5
33A
330
9
100
AcDbSymbolTableRecord
100
AcDbRegAppTableRecord
  2
GENIUS_GENOBJ-N-RSBK_13
 70
     0
  0
APPID
  5
33B
330
9
100
AcDbSymbolTableRecord
100
AcDbRegAppTableRecord
  2
GENIUS_GENOBJ-N-LIB_13
 70
     0
  0
APPID
  5
33C
330
9
100
AcDbSymbolTableRecord
100
AcDbRegAppTableRecord
  2
GENIUS_GENSCALE_13
 70
     0
  0
APPID
  5
378
330
9
100
AcDbSymbolTableRecord
100
AcDbRegAppTableRecord
  2
GENIUS_GENDIMSH_14
 70
     0
  0
APPID
  5
BDB
330
9
100
AcDbSymbolTableRecord
100
AcDbRegAppTableRecord
  2
GENIUS_GENOBJ-N-CEN_13
 70
     0
  0
APPID
  5
BDC
330
9
100
AcDbSymbolTableRecord
100
AcDbRegAppTableRecord
  2
GENIUS_GENFIL_13
 70
     0
  0
APPID
  5
BDD
330
9
100
AcDbSymbolTableRecord
100
AcDbRegAppTableRecord
  2
GENIUS_GENOBJ-N-FIL_13
 70
     0
  0
APPID
  5
12AD
330
9
100
AcDbSymbolTableRecord
100
AcDbRegAppTableRecord
  2
GENIUS_GENOREF_13
 70
     0
  0
ENDTAB
  0
TABLE
  2
DIMSTYLE
  5
A
330
0
100
AcDbSymbolTable
 70
     8
  0
DIMSTYLE
105
58
102
{ACAD_REACTORS
330
8BB0
330
8BC6
330
8BD3
330
8E0A
330
8E3D
102
}
330
A
100
AcDbSymbolTableRecord
100
AcDbDimStyleTableRecord
  2
AM_JIS
 70
     0
  3

  4
"
  5
OPEN30
  6

  7

 40
1.0
 41
2.5
 42
1.0
 43
12.0
 44
1.0
 45
0.0
 46
0.0
 47
0.1
 48
0.1
140
3.2
141
0.0
142
0.0
143
0.0393701
144
1.0
145
0.0
146
0.71
147
1.5
 71
     0
 72
     0
 73
     0
 74
     0
 75
     0
 76
     0
 77
     3
 78
     8
170
     0
171
     2
172
     1
173
     0
174
     0
175
     0
176
     3
177
     3
178
     2
270
     2
271
     3
272
     3
273
     2
274
     2
340
6B
275
     0
280
     0
281
     0
282
     0
283
     0
284
     0
285
     0
286
     0
287
     3
288
     0
  0
DIMSTYLE
105
5F
330
A
100
AcDbSymbolTableRecord
100
AcDbDimStyleTableRecord
  2
AM_JIS$3
 70
     0
  3

  4
"
  5
OPEN30
  6

  7

 40
1.0
 41
2.5
 42
1.0
 43
10.0
 44
1.0
 45
0.0
 46
0.0
 47
0.1
 48
0.1
140
3.2
141
0.0
142
0.0
143
0.0393701
144
1.0
145
0.0
146
0.71
147
1.5
 71
     0
 72
     0
 73
     0
 74
     1
 75
     0
 76
     0
 77
     3
 78
     8
170
     0
171
     2
172
     0
173
     0
174
     0
175
     0
176
     3
177
     3
178
     2
270
     2
271
     2
272
     3
273
     2
274
     2
340
6B
275
     0
280
     0
281
     0
282
     0
283
     0
284
     0
285
     0
286
     0
287
     0
288
     1
  0
DIMSTYLE
105
60
330
A
100
AcDbSymbolTableRecord
100
AcDbDimStyleTableRecord
  2
AM_JIS$4
 70
     0
  3

  4
"
  5
OPEN30
  6

  7

 40
1.0
 41
2.5
 42
1.0
 43
10.0
 44
1.0
 45
0.0
 46
0.0
 47
0.1
 48
0.1
140
3.2
141
0.0
142
0.0
143
0.0393701
144
1.0
145
0.0
146
0.71
147
1.5
 71
     0
 72
     0
 73
     0
 74
     1
 75
     0
 76
     0
 77
     3
 78
     8
170
     0
171
     2
172
     0
173
     0
174
     0
175
     0
176
     3
177
     3
178
     2
270
     2
271
     2
272
     3
273
     2
274
     2
340
6B
275
     0
280
     0
281
     0
282
     0
283
     0
284
     0
285
     0
286
     0
287
     0
288
     1
  0
DIMSTYLE
105
61
330
A
100
AcDbSymbolTableRecord
100
AcDbDimStyleTableRecord
  2
AM_JIS$6
 70
     0
  3

  4
"
  5
OPEN30
  6

  7

 40
1.0
 41
2.5
 42
1.0
 43
10.0
 44
1.0
 45
0.0
 46
0.0
 47
0.1
 48
0.1
140
3.2
141
0.0
142
0.0
143
0.0393701
144
1.0
145
0.0
146
0.71
147
1.5
 71
     0
 72
     0
 73
     0
 74
     0
 75
     0
 76
     0
 77
     0
 78
     8
170
     0
171
     2
172
     1
173
     0
174
     0
175
     0
176
     3
177
     3
178
     2
270
     2
271
     2
272
     2
273
     2
274
     2
340
6B
275
     0
280
     0
281
     0
282
     0
283
     0
284
     0
285
     0
286
     0
287
     3
288
     0
  0
DIMSTYLE
105
62
330
A
100
AcDbSymbolTableRecord
100
AcDbDimStyleTableRecord
  2
AM_JIS$7
 70
     0
  3

  4
"
  5
OPEN30
  6

  7

 40
1.0
 41
2.5
 42
1.0
 43
10.0
 44
1.0
 45
0.0
 46
0.0
 47
0.1
 48
0.1
140
3.2
141
0.0
142
0.0
143
0.0393701
144
1.0
145
0.0
146
0.71
147
1.5
 71
     0
 72
     0
 73
     0
 74
     0
 75
     0
 76
     0
 77
     3
 78
     8
170
     0
171
     2
172
     1
173
     0
174
     0
175
     0
176
     3
177
     3
178
     2
270
     2
271
     2
272
     3
273
     2
274
     2
340
6B
275
     0
280
     0
281
     0
282
     0
283
     0
284
     0
285
     0
286
     0
287
     3
288
     0
  0
DIMSTYLE
105
63
330
A
100
AcDbSymbolTableRecord
100
AcDbDimStyleTableRecord
  2
AM_JIS$SF
 70
     0
  3

  4
"
  5
OPEN30
  6

  7

 40
1.0
 41
2.5
 42
1.0
 43
10.0
 44
1.0
 45
0.0
 46
0.0
 47
0.1
 48
0.1
140
3.2
141
0.0
142
0.0
143
0.0393701
144
1.0
145
0.0
146
0.71
147
1.5
 71
     0
 72
     0
 73
     0
 74
     0
 75
     1
 76
     1
 77
     3
 78
     8
170
     0
171
     2
172
     1
173
     0
174
     0
175
     0
176
   256
177
   256
178
     2
270
     2
271
     2
272
     2
273
     2
274
     2
340
6B
275
     0
280
     0
281
     0
282
     0
283
     0
284
     0
285
     0
286
     0
287
     3
288
     0
  0
DIMSTYLE
105
68
330
A
100
AcDbSymbolTableRecord
100
AcDbDimStyleTableRecord
  2
AM_JIS$SH
 70
     0
  3

  4
"
  5

  6
GENAXEH
  7
OPEN30
 40
1.0
 41
2.5
 42
1.0
 43
10.0
 44
1.0
 45
0.0
 46
0.0
 47
0.1
 48
0.1
140
3.2
141
0.0
142
0.0
143
0.0393701
144
2.0
145
0.0
146
0.71
147
1.5
 71
     0
 72
     0
 73
     0
 74
     0
 75
     1
 76
     1
 77
     3
 78
     8
170
     0
171
     2
172
     1
173
     1
174
     0
175
     0
176
   256
177
   256
178
     2
270
     2
271
     2
272
     2
273
     2
274
     2
340
6B
275
     0
280
     0
281
     0
282
     0
283
     0
284
     0
285
     0
286
     0
287
     3
288
     0
  0
DIMSTYLE
105
B34
102
{ACAD_REACTORS
330
8D83
330
8DF8
102
}
330
A
100
AcDbSymbolTableRecord
100
AcDbDimStyleTableRecord
  2
AM_JIS$2
 70
     0
  3

  4
"
  5
OPEN30
  6

  7

 40
1.0
 41
2.5
 42
1.0
 43
12.0
 44
1.0
 45
0.0
 46
0.0
 47
0.1
 48
0.1
140
3.2
141
0.0
142
0.0
143
0.0393701
144
1.0
145
0.0
146
0.71
147
1.5
 71
     0
 72
     0
 73
     0
 74
     0
 75
     0
 76
     0
 77
     3
 78
     8
170
     0
171
     2
172
     1
173
     0
174
     0
175
     0
176
     3
177
     3
178
     2
270
     2
271
     3
272
     3
273
     2
274
     2
340
6B
275
     0
280
     0
281
     0
282
     0
283
     0
284
     0
285
     0
286
     0
287
     3
288
     0
  0
ENDTAB
  0
TABLE
  2
BLOCK_RECORD
  5
1
330
0
100
AcDbSymbolTable
 70
    12
  0
BLOCK_RECORD
  5
1F
102
{ACAD_XDICTIONARY
360
74
102
}
330
1
100
AcDbSymbolTableRecord
100
AcDbBlockTableRecord
  2
*MODEL_SPACE
  0
BLOCK_RECORD
  5
101
102
{ACAD_XDICTIONARY
360
8F41
102
}
330
1
100
AcDbSymbolTableRecord
100
AcDbBlockTableRecord
  2
*PAPER_SPACE
  0
BLOCK_RECORD
  5
59
330
1
100
AcDbSymbolTableRecord
100
AcDbBlockTableRecord
  2
_OPEN30
  0
BLOCK_RECORD
  5
64
330
1
100
AcDbSymbolTableRecord
100
AcDbBlockTableRecord
  2
GENAXEH
  0
BLOCK_RECORD
  5
8BB1
330
1
100
AcDbSymbolTableRecord
100
AcDbBlockTableRecord
  2
*D5
  0
BLOCK_RECORD
  5
8BC7
330
1
100
AcDbSymbolTableRecord
100
AcDbBlockTableRecord
  2
*D6
  0
BLOCK_RECORD
  5
8BD4
330
1
100
AcDbSymbolTableRecord
100
AcDbBlockTableRecord
  2
*D7
  0
BLOCK_RECORD
  5
8D84
330
1
100
AcDbSymbolTableRecord
100
AcDbBlockTableRecord
  2
*D8
  0
BLOCK_RECORD
  5
8DF9
330
1
100
AcDbSymbolTableRecord
100
AcDbBlockTableRecord
  2
*D9
  0
BLOCK_RECORD
  5
8E0B
330
1
100
AcDbSymbolTableRecord
100
AcDbBlockTableRecord
  2
*D10
  0
BLOCK_RECORD
  5
8E3E
330
1
100
AcDbSymbolTableRecord
100
AcDbBlockTableRecord
  2
*D11
  0
ENDTAB
  0
ENDSEC
  0
SECTION
  2
BLOCKS
  0
BLOCK
  5
20
330
1F
100
AcDbEntity
  8
0
100
AcDbBlockBegin
  2
*MODEL_SPACE
 70
     0
 10
0.0
 20
0.0
 30
0.0
  3
*MODEL_SPACE
  1

  0
ENDBLK
  5
21
330
1F
100
AcDbEntity
  8
0
100
AcDbBlockEnd
  0
BLOCK
  5
103
330
101
100
AcDbEntity
 67
     1
  8
0
100
AcDbBlockBegin
  2
*PAPER_SPACE
 70
     0
 10
0.0
 20
0.0
 30
0.0
  3
*PAPER_SPACE
  1

  0
ENDBLK
  5
104
330
101
100
AcDbEntity
 67
     1
  8
0
100
AcDbBlockEnd
  0
BLOCK
  5
5D
330
59
100
AcDbEntity
  8
0
100
AcDbBlockBegin
  2
_OPEN30
 70
     0
 10
0.0
 20
0.0
 30
0.0
  3
_OPEN30
  1

  0
LINE
  5
5A
330
59
100
AcDbEntity
  8
0
 62
     0
100
AcDbLine
 10
-1.0
 20
0.26794919
 30
0.0
 11
0.0
 21
0.0
 31
0.0
  0
LINE
  5
5B
330
59
100
AcDbEntity
  8
0
 62
     0
100
AcDbLine
 10
0.0
 20
0.0
 30
0.0
 11
-1.0
 21
-0.26794919
 31
0.0
  0
LINE
  5
5C
330
59
100
AcDbEntity
  8
0
 62
     0
100
AcDbLine
 10
0.0
 20
0.0
 30
0.0
 11
-1.0
 21
0.0
 31
0.0
  0
ENDBLK
  5
5E
330
59
100
AcDbEntity
  8
0
100
AcDbBlockEnd
  0
BLOCK
  5
66
330
64
100
AcDbEntity
  8
0
100
AcDbBlockBegin
  2
GENAXEH
 70
     0
 10
0.0
 20
0.0
 30
0.0
  3
GENAXEH
  1

  0
LINE
  5
65
330
64
100
AcDbEntity
  8
0
100
AcDbLine
 10
-1.0
 20
0.0
 30
0.0
 11
1.0
 21
0.0
 31
0.0
  0
ENDBLK
  5
67
330
64
100
AcDbEntity
  8
0
100
AcDbBlockEnd
  0
BLOCK
  5
8BBB
330
8BB1
100
AcDbEntity
  8
0
100
AcDbBlockBegin
  2
*D5
 70
     1
 10
0.0
 20
0.0
 30
0.0
  3
*D5
  1

  0
LINE
  5
8EB5
330
8BB1
100
AcDbEntity
  8
AM_5
 62
     3
100
AcDbLine
 10
-0.0000000000000009
 20
-9.648885271170669
 30
0.0
 11
-0.0000000000000028
 21
-39.99999999999999
 31
0.0
  0
LINE
  5
8EB6
330
8BB1
100
AcDbEntity
  8
AM_5
 62
     3
100
AcDbLine
 10
-124.9999999999999
 20
-26.0
 30
0.0
 11
-124.9999999999999
 21
-39.99999999999999
 31
0.0
  0
LINE
  5
8EB7
330
8BB1
100
AcDbEntity
  8
AM_5
 62
     3
100
AcDbLine
 10
-2.500000000000002
 20
-38.99999999999999
 30
0.0
 11
-122.4999999999999
 21
-38.99999999999999
 31
0.0
  0
INSERT
  5
8EB8
330
8BB1
100
AcDbEntity
  8
AM_5
 62
     3
100
AcDbBlockReference
  2
_OPEN30
 10
-0.0000000000000027
 20
-38.99999999999999
 30
0.0
 41
2.5
 42
2.5
 43
2.5
  0
INSERT
  5
8EB9
330
8BB1
100
AcDbEntity
  8
AM_5
 62
     3
100
AcDbBlockReference
  2
_OPEN30
 10
-124.9999999999999
 20
-38.99999999999999
 30
0.0
 41
2.5
 42
2.5
 43
2.5
 50
180.0
  0
MTEXT
  5
8EBA
330
8BB1
100
AcDbEntity
  8
AM_5
 62
     2
100
AcDbMText
 10
-62.5
 20
-35.89999999999999
 30
0.0
 40
3.2
 41
0.0
 71
     5
 72
     1
  1
125
  7
ASAMI
1001
ACAD
1000
MTEXTBEGIN
1070
    73
1070
     1
1070
    44
1040
1.0
1070
    74
1070
     0
1000
MTEXTEND
  0
POINT
  5
8EBB
330
8BB1
100
AcDbEntity
  8
DEFPOINTS
 62
     0
100
AcDbPoint
 10
-0.0000000000000008
 20
-8.648885271170669
 30
0.0
  0
POINT
  5
8EBC
330
8BB1
100
AcDbEntity
  8
DEFPOINTS
 62
     0
100
AcDbPoint
 10
-124.9999999999999
 20
-25.0
 30
0.0
  0
POINT
  5
8EBD
330
8BB1
100
AcDbEntity
  8
DEFPOINTS
 62
     0
100
AcDbPoint
 10
-124.9999999999999
 20
-38.99999999999999
 30
0.0
  0
ENDBLK
  5
8BBC
330
8BB1
100
AcDbEntity
  8
0
100
AcDbBlockEnd
  0
BLOCK
  5
8BD1
330
8BC7
100
AcDbEntity
  8
0
100
AcDbBlockBegin
  2
*D6
 70
     1
 10
0.0
 20
0.0
 30
0.0
  3
*D6
  1

  0
LINE
  5
8E8E
330
8BC7
100
AcDbEntity
  8
AM_5
 62
     3
100
AcDbLine
 10
0.999999999999993
 20
-0.0000000000000008
 30
0.0
 11
13.34388432018044
 21
-0.0000000000000043
 31
0.0
  0
LINE
  5
8E8F
330
8BC7
100
AcDbEntity
  8
AM_5
 62
     3
100
AcDbLine
 10
-12.53999999513859
 20
-25.0
 30
0.0
 11
13.34388432018044
 21
-25.0
 31
0.0
  0
LINE
  5
8E90
330
8BC7
100
AcDbEntity
  8
AM_5
 62
     3
100
AcDbLine
 10
12.34388432018044
 20
-2.500000000000003
 30
0.0
 11
12.34388432018044
 21
-22.5
 31
0.0
  0
INSERT
  5
8E91
330
8BC7
100
AcDbEntity
  8
AM_5
 62
     3
100
AcDbBlockReference
  2
_OPEN30
 10
12.34388432018044
 20
-0.0000000000000041
 30
0.0
 41
2.5
 42
2.5
 43
2.5
 50
90.0
  0
INSERT
  5
8E92
330
8BC7
100
AcDbEntity
  8
AM_5
 62
     3
100
AcDbBlockReference
  2
_OPEN30
 10
12.34388432018044
 20
-25.0
 30
0.0
 41
2.5
 42
2.5
 43
2.5
 50
270.0
  0
MTEXT
  5
8E93
330
8BC7
100
AcDbEntity
  8
AM_5
 62
     2
100
AcDbMText
 10
9.243884320180445
 20
-12.5
 30
0.0
 40
3.2
 41
0.0
 71
     5
 72
     1
  1
25
  7
ASAMI
 11
0.0000000000000001
 21
1.0
 31
0.0
1001
ACAD
1000
MTEXTBEGIN
1070
    73
1070
     1
1070
    44
1040
1.0
1070
    74
1070
     0
1000
MTEXTEND
  0
POINT
  5
8E94
330
8BC7
100
AcDbEntity
  8
DEFPOINTS
 62
     0
100
AcDbPoint
 10
-0.0000000000000069
 20
-0.0000000000000006
 30
0.0
  0
POINT
  5
8E95
330
8BC7
100
AcDbEntity
  8
DEFPOINTS
 62
     0
100
AcDbPoint
 10
-13.53999999513859
 20
-25.0
 30
0.0
  0
POINT
  5
8E96
330
8BC7
100
AcDbEntity
  8
DEFPOINTS
 62
     0
100
AcDbPoint
 10
12.34388432018044
 20
-25.0
 30
0.0
  0
ENDBLK
  5
8BD2
330
8BC7
100
AcDbEntity
  8
0
100
AcDbBlockEnd
  0
BLOCK
  5
8BDE
330
8BD4
100
AcDbEntity
  8
0
100
AcDbBlockBegin
  2
*D7
 70
     1
 10
0.0
 20
0.0
 30
0.0
  3
*D7
  1

  0
LINE
  5
8E70
330
8BD4
100
AcDbEntity
  8
AM_5
 62
     3
100
AcDbLine
 10
-126.0
 20
-5.0
 30
0.0
 11
-136.7456397580836
 21
-4.999999999999997
 31
0.0
  0
LINE
  5
8E71
330
8BD4
100
AcDbEntity
  8
AM_5
 62
     3
100
AcDbLine
 10
-126.0
 20
-25.0
 30
0.0
 11
-136.7456397580836
 21
-25.0
 31
0.0
  0
LINE
  5
8E72
330
8BD4
100
AcDbEntity
  8
AM_5
 62
     3
100
AcDbLine
 10
-135.7456397580836
 20
-7.499999999999997
 30
0.0
 11
-135.7456397580836
 21
-22.5
 31
0.0
  0
INSERT
  5
8E73
330
8BD4
100
AcDbEntity
  8
AM_5
 62
     3
100
AcDbBlockReference
  2
_OPEN30
 10
-135.7456397580836
 20
-4.999999999999997
 30
0.0
 41
2.5
 42
2.5
 43
2.5
 50
90.0
  0
INSERT
  5
8E74
330
8BD4
100
AcDbEntity
  8
AM_5
 62
     3
100
AcDbBlockReference
  2
_OPEN30
 10
-135.7456397580836
 20
-25.0
 30
0.0
 41
2.5
 42
2.5
 43
2.5
 50
270.0
  0
MTEXT
  5
8E75
330
8BD4
100
AcDbEntity
  8
AM_5
 62
     2
100
AcDbMText
 10
-138.8456397580835
 20
-15.00000000000001
 30
0.0
 40
3.2
 41
0.0
 71
     5
 72
     1
  1
20
  7
ASAMI
 11
0.0000000000000001
 21
1.0
 31
0.0
1001
ACAD
1000
MTEXTBEGIN
1070
    73
1070
     1
1070
    44
1040
1.0
1070
    74
1070
     0
1000
MTEXTEND
  0
POINT
  5
8E76
330
8BD4
100
AcDbEntity
  8
DEFPOINTS
 62
     0
100
AcDbPoint
 10
-125.0
 20
-5.0
 30
0.0
  0
POINT
  5
8E77
330
8BD4
100
AcDbEntity
  8
DEFPOINTS
 62
     0
100
AcDbPoint
 10
-125.0
 20
-25.0
 30
0.0
  0
POINT
  5
8E78
330
8BD4
100
AcDbEntity
  8
DEFPOINTS
 62
     0
100
AcDbPoint
 10
-135.7456397580836
 20
-25.0
 30
0.0
  0
ENDBLK
  5
8BDF
330
8BD4
100
AcDbEntity
  8
0
100
AcDbBlockEnd
  0
BLOCK
  5
8D90
330
8D84
100
AcDbEntity
  8
0
100
AcDbBlockBegin
  2
*D8
 70
     1
 10
0.0
 20
0.0
 30
0.0
  3
*D8
  1

  0
LINE
  5
8F43
330
8D84
100
AcDbEntity
  8
AM_0
 62
     3
100
AcDbLine
 10
-0.0000000000000057
 20
0.9999999999999992
 30
0.0
 11
-0.0000000000000018
 21
18.89194832827407
 31
0.0
  0
LINE
  5
8F44
330
8D84
100
AcDbEntity
  8
AM_0
 62
     3
100
AcDbLine
 10
-8.790306627407991
 20
0.4727922061357806
 30
0.0
 11
-19.23999562264693
 21
10.92248120137474
 31
0.0
  0
ARC
  5
8F45
330
8D84
100
AcDbEntity
  8
AM_0
 62
     3
100
AcDbCircle
 10
-0.0000000000000053
 20
-8.317514421272191
 30
0.0
 40
26.20946274954627
100
AcDbArc
 50
95.46725462205147
 51
129.5327453779485
  0
INSERT
  5
8F46
330
8D84
100
AcDbEntity
  8
AM_0
 62
     3
100
AcDbBlockReference
  2
_OPEN30
 10
-0.0000000000000027
 20
17.89194832827407
 30
0.0
 41
2.5
 42
2.5
 43
2.5
 50
2.733627311025716
  0
INSERT
  5
8F47
330
8D84
100
AcDbEntity
  8
AM_0
 62
     3
100
AcDbBlockReference
  2
_OPEN30
 10
-18.53288884146038
 20
10.21537442018819
 30
0.0
 41
2.5
 42
2.5
 43
2.5
 50
222.2663726889742
  0
MTEXT
  5
8F48
330
8D84
100
AcDbEntity
  8
AM_0
 62
     2
100
AcDbMText
 10
-11.21624580577311
 20
18.76089832193559
 30
0.0
 40
3.2
 41
0.0
 71
     5
 72
     1
  1
45°
  7
ASAMI
 11
0.9238795325112867
 21
0.3826834323650898
 31
0.0
  0
POINT
  5
8F49
330
8D84
100
AcDbEntity
  8
DEFPOINTS
 62
     0
100
AcDbPoint
 10
-6.783508121487649
 20
16.99888254167584
 30
0.0
  0
POINT
  5
8F4A
330
8D84
100
AcDbEntity
  8
DEFPOINTS
 62
     0
100
AcDbPoint
 10
-0.2343145750507656
 20
-8.083199846221431
 30
0.0
  0
POINT
  5
8F4B
330
8D84
100
AcDbEntity
  8
DEFPOINTS
 62
     0
100
AcDbPoint
 10
-0.000000000000006
 20
-0.0000000000000006
 30
0.0
  0
POINT
  5
8F4C
330
8D84
100
AcDbEntity
  8
DEFPOINTS
 62
     0
100
AcDbPoint
 10
-0.0000000000000071
 20
-8.87
 30
0.0
  0
POINT
  5
8F4D
330
8D84
100
AcDbEntity
  8
DEFPOINTS
 62
     0
100
AcDbPoint
 10
-8.083199846221445
 20
-0.234314575050766
 30
0.0
  0
ENDBLK
  5
8D91
330
8D84
100
AcDbEntity
  8
0
100
AcDbBlockEnd
  0
BLOCK
  5
8E08
330
8DF9
100
AcDbEntity
  8
0
100
AcDbBlockBegin
  2
*D9
 70
     1
 10
0.0
 20
0.0
 30
0.0
  3
*D9
  1

  0
LINE
  5
8F4E
330
8DF9
100
AcDbEntity
  8
AM_5
 62
     3
100
AcDbLine
 10
-29.81722172281668
 20
22.90015783474412
 30
0.0
 11
-22.46432258106954
 21
32.65778456469679
 31
0.0
  0
ARC
  5
8F4F
330
8DF9
100
AcDbEntity
  8
AM_5
 62
     3
100
AcDbCircle
 10
-30.41903674596873
 20
22.10152232469682
 30
0.0
 40
12.21787236755208
100
AcDbArc
 50
21.51137384622188
 51
33.25568692311097
  0
ARC
  5
8F50
330
8DF9
100
AcDbEntity
  8
AM_5
 62
     3
100
AcDbCircle
 10
-30.41903674596873
 20
22.10152232469682
 30
0.0
 40
12.21787236755208
100
AcDbArc
 50
64.74431307688904
 51
76.48862615377814
  0
ARC
  5
8F51
330
8DF9
100
AcDbEntity
  8
AM_5
 62
     3
100
AcDbCircle
 10
-30.41903674596873
 20
22.10152232469682
 30
0.0
 40
12.21787236755208
100
AcDbArc
 50
45.00000000000008
 51
52.99999999999996
  0
INSERT
  5
8F52
330
8DF9
100
AcDbEntity
  8
AM_5
 62
     3
100
AcDbBlockReference
  2
_OPEN30
 10
-21.77969634320092
 20
30.74086272746465
 30
0.0
 41
2.5
 42
2.5
 43
2.5
 50
129.1278434615555
  0
INSERT
  5
8F53
330
8DF9
100
AcDbEntity
  8
AM_5
 62
     3
100
AcDbBlockReference
  2
_OPEN30
 10
-23.06613760422159
 20
31.8591490546495
 30
0.0
 41
2.5
 42
2.5
 43
2.5
 50
328.8721565384444
  0
MTEXT
  5
8F54
330
8DF9
100
AcDbEntity
  8
AM_5
 62
     2
100
AcDbMText
 10
-26.66600340727717
 20
36.95251402987548
 30
0.0
 40
3.2
 41
0.0
 71
     5
 72
     1
  1
-8°
  7
ASAMI
 11
0.9695205279708151
 21
-0.2450100933496248
 31
0.0
  0
POINT
  5
8F55
330
8DF9
100
AcDbEntity
  8
DEFPOINTS
 62
     0
100
AcDbPoint
 10
-22.19099979638708
 20
31.13345529312125
 30
0.0
  0
POINT
  5
8F56
330
8DF9
100
AcDbEntity
  8
DEFPOINTS
 62
     0
100
AcDbPoint
 10
-29.71192996478227
 20
22.80862910588329
 30
0.0
  0
POINT
  5
8F57
330
8DF9
100
AcDbEntity
  8
DEFPOINTS
 62
     0
100
AcDbPoint
 10
-38.13720017594171
 20
11.85917351253118
 30
0.0
  0
POINT
  5
8F58
330
8DF9
100
AcDbEntity
  8
DEFPOINTS
 62
     0
100
AcDbPoint
 10
-30.41903674596881
 20
22.10152232469673
 30
0.0
  0
POINT
  5
8F59
330
8DF9
100
AcDbEntity
  8
DEFPOINTS
 62
     0
100
AcDbPoint
 10
-15.0487309815139
 20
37.47182808915169
 30
0.0
  0
ENDBLK
  5
8E09
330
8DF9
100
AcDbEntity
  8
0
100
AcDbBlockEnd
  0
BLOCK
  5
8E15
330
8E0B
100
AcDbEntity
  8
0
100
AcDbBlockBegin
  2
*D10
 70
     1
 10
0.0
 20
0.0
 30
0.0
  3
*D10
  1

  0
LINE
  5
8E79
330
8E0B
100
AcDbEntity
  8
AM_5
 62
     3
100
AcDbLine
 10
-29.71192996478225
 20
22.80862910588327
 30
0.0
 11
-14.66865088366899
 21
37.85190818699652
 31
0.0
  0
LINE
  5
8E7A
330
8E0B
100
AcDbEntity
  8
AM_5
 62
     3
100
AcDbLine
 10
-45.72007011563698
 20
34.37765342130392
 30
0.0
 11
-28.45723311680668
 21
51.64049042013422
 31
0.0
  0
LINE
  5
8E7B
330
8E0B
100
AcDbEntity
  8
AM_5
 62
     3
100
AcDbLine
 10
-17.14352461782191
 20
38.91256835877635
 30
0.0
 11
-27.39657294502686
 21
49.16561668598131
 31
0.0
  0
INSERT
  5
8E7C
330
8E0B
100
AcDbEntity
  8
AM_5
 62
     3
100
AcDbBlockReference
  2
_OPEN30
 10
-15.37575766485554
 20
37.14480140580998
 30
0.0
 41
2.5
 42
2.5
 43
2.5
 50
315.0
  0
INSERT
  5
8E7D
330
8E0B
100
AcDbEntity
  8
AM_5
 62
     3
100
AcDbBlockReference
  2
_OPEN30
 10
-29.16433989799323
 20
50.93338363894767
 30
0.0
 41
2.5
 42
2.5
 43
2.5
 50
135.0
  0
MTEXT
  5
8E7E
330
8E0B
100
AcDbEntity
  8
AM_5
 62
     2
100
AcDbMText
 10
-20.07801775974609
 20
46.23112354405711
 30
0.0
 40
3.2
 41
0.0
 71
     5
 72
     1
  1
19.5
  7
ASAMI
 11
0.7071067811865476
 21
-0.7071067811865475
 31
0.0
1001
ACAD
1000
MTEXTBEGIN
1070
    73
1070
     1
1070
    44
1040
1.0
1070
    74
1070
     0
1000
MTEXTEND
  0
POINT
  5
8E7F
330
8E0B
100
AcDbEntity
  8
DEFPOINTS
 62
     0
100
AcDbPoint
 10
-30.41903674596879
 20
22.10152232469672
 30
0.0
  0
POINT
  5
8E80
330
8E0B
100
AcDbEntity
  8
DEFPOINTS
 62
     0
100
AcDbPoint
 10
-46.42717689682353
 20
33.67054664011737
 30
0.0
  0
POINT
  5
8E81
330
8E0B
100
AcDbEntity
  8
DEFPOINTS
 62
     0
100
AcDbPoint
 10
-29.16433989799323
 20
50.93338363894767
 30
0.0
  0
ENDBLK
  5
8E16
330
8E0B
100
AcDbEntity
  8
0
100
AcDbBlockEnd
  0
BLOCK
  5
8E48
330
8E3E
100
AcDbEntity
  8
0
100
AcDbBlockBegin
  2
*D11
 70
     1
 10
0.0
 20
0.0
 30
0.0
  3
*D11
  1

  0
LINE
  5
8E67
330
8E3E
100
AcDbEntity
  8
AM_5
 62
     3
100
AcDbLine
 10
-44.63784237285014
 20
7.1756099166288
 30
0.0
 11
-50.09712632926124
 21
1.716325960217702
 31
0.0
  0
LINE
  5
8E68
330
8E3E
100
AcDbEntity
  8
AM_5
 62
     3
100
AcDbLine
 10
-58.77997799658112
 20
21.31774554035978
 30
0.0
 11
-64.23926195299222
 21
15.85846158394868
 31
0.0
  0
LINE
  5
8E69
330
8E3E
100
AcDbEntity
  8
AM_5
 62
     3
100
AcDbLine
 10
-51.15778650104106
 20
4.19119969437062
 30
0.0
 11
-61.7643882188393
 21
14.79780141216886
 31
0.0
  0
INSERT
  5
8E6A
330
8E3E
100
AcDbEntity
  8
AM_5
 62
     3
100
AcDbBlockReference
  2
_OPEN30
 10
-49.39001954807469
 20
2.423432741404251
 30
0.0
 41
2.5
 42
2.5
 43
2.5
 50
315.0
  0
INSERT
  5
8E6B
330
8E3E
100
AcDbEntity
  8
AM_5
 62
     3
100
AcDbBlockReference
  2
_OPEN30
 10
-63.53215517180568
 20
16.56556836513523
 30
0.0
 41
2.5
 42
2.5
 43
2.5
 50
135.0
  0
MTEXT
  5
8E6C
330
8E3E
100
AcDbEntity
  8
AM_5
 62
     2
100
AcDbMText
 10
-54.26905633826188
 20
11.68653157494803
 30
0.0
 40
3.2
 41
0.0
 71
     5
 72
     1
  1
20
  7
ASAMI
 11
0.7071067811865476
 21
-0.7071067811865475
 31
0.0
1001
ACAD
1000
MTEXTBEGIN
1070
    73
1070
     1
1070
    44
1040
1.0
1070
    74
1070
     0
1000
MTEXTEND
  0
POINT
  5
8E6D
330
8E3E
100
AcDbEntity
  8
DEFPOINTS
 62
     0
100
AcDbPoint
 10
-43.93073559166359
 20
7.882716697815347
 30
0.0
  0
POINT
  5
8E6E
330
8E3E
100
AcDbEntity
  8
DEFPOINTS
 62
     0
100
AcDbPoint
 10
-58.07287121539459
 20
22.02485232154632
 30
0.0
  0
POINT
  5
8E6F
330
8E3E
100
AcDbEntity
  8
DEFPOINTS
 62
     0
100
AcDbPoint
 10
-63.53215517180568
 20
16.56556836513523
 30
0.0
  0
ENDBLK
  5
8E49
330
8E3E
100
AcDbEntity
  8
0
100
AcDbBlockEnd
  0
ENDSEC
  0
SECTION
  2
ENTITIES
  0
TEXT
  5
C58
330
1F
100
AcDbEntity
  8
AM_6
100
AcDbText
 10
-83.45238095238094
 20
-61.50000000000006
 30
0.0
 40
5.0
  1
ESSNR2020
 50
0.0000000000002036
 72
     4
 11
-62.5
 21
-58.99999999999999
 31
0.0
100
AcDbText
  0
LINE
  5
8B2A
330
1F
100
AcDbEntity
  8
AM_0
100
AcDbLine
 10
-13.98025612106912
 20
-5.0
 30
0.0
 11
-125.0
 21
-5.0
 31
0.0
  0
LINE
  5
8B2C
330
1F
100
AcDbEntity
  8
AM_11
 48
0.5
100
AcDbLine
 10
-0.0000000000000069
 20
-0.0000000000000006
 30
0.0
 11
-0.0000000000000069
 21
-8.87
 31
0.0
  0
LINE
  5
8B31
330
1F
100
AcDbEntity
  8
AM_0
100
AcDbLine
 10
-16.13000000000001
 20
-25.0
 30
0.0
 11
-125.0
 21
-25.0
 31
0.0
  0
LINE
  5
8B37
330
1F
100
AcDbEntity
  8
AM_11
 48
0.5
100
AcDbLine
 10
-0.0000000000000069
 20
-0.0000000000000006
 30
0.0
 11
-8.648885271170691
 21
-0.0000000000000006
 31
0.0
  0
LINE
  5
8B3A
330
1F
100
AcDbEntity
  8
AM_0
100
AcDbLine
 10
-125.0
 20
-5.0
 30
0.0
 11
-125.0
 21
-25.0
 31
0.0
  0
LINE
  5
8B3C
330
1F
100
AcDbEntity
  8
AM_0
100
AcDbLine
 10
-30.41903674596881
 20
22.10152232469673
 30
0.0
 11
-34.22054177379392
 21
24.9661618349005
 31
0.0
  0
LINE
  5
8B3D
330
1F
100
AcDbEntity
  8
AM_0
100
AcDbLine
 10
-39.17342634809737
 20
12.64002594138158
 30
0.0
 11
-43.93073559166359
 21
7.882716697815356
 31
0.0
  0
LINE
  5
8B3F
330
1F
100
AcDbEntity
  8
AM_0
100
AcDbLine
 10
-38.13720017594171
 20
11.85917351253118
 30
0.0
 11
-30.41903674596881
 21
22.10152232469673
 31
0.0
  0
LINE
  5
8B45
330
1F
100
AcDbEntity
  8
AM_7
100
AcDbLine
 10
-55.87870772266868
 20
33.05986189338514
 30
0.0
 11
-32.46011943515689
 21
15.41268984163906
 31
0.0
  0
DIMENSION
  5
8BB0
330
1F
100
AcDbEntity
  8
AM_5
100
AcDbDimension
  2
*D5
 10
-124.9999999999999
 20
-38.99999999999999
 30
0.0
 11
-62.5
 21
-35.89999999999999
 31
0.0
 70
    32
  3
AM_JIS
100
AcDbAlignedDimension
 13
-0.0000000000000008
 23
-8.648885271170669
 33
0.0
 14
-124.9999999999999
 24
-25.0
 34
0.0
 50
180.0
100
AcDbRotatedDimension
  0
DIMENSION
  5
8BC6
330
1F
100
AcDbEntity
  8
AM_5
100
AcDbDimension
  2
*D6
 10
12.34388432018044
 20
-25.0
 30
0.0
 11
9.243884320180445
 21
-12.5
 31
0.0
 70
    32
  3
AM_JIS
100
AcDbAlignedDimension
 13
-0.0000000000000069
 23
-0.0000000000000006
 33
0.0
 14
-13.53999999513859
 24
-25.0
 34
0.0
 50
270.0
100
AcDbRotatedDimension
  0
DIMENSION
  5
8BD3
330
1F
100
AcDbEntity
  8
AM_5
100
AcDbDimension
  2
*D7
 10
-135.7456397580836
 20
-25.0
 30
0.0
 11
-138.8456397580835
 21
-15.00000000000001
 31
0.0
 70
    32
  3
AM_JIS
100
AcDbAlignedDimension
 13
-125.0
 23
-5.0
 33
0.0
 14
-125.0
 24
-25.0
 34
0.0
 50
270.0
100
AcDbRotatedDimension
  0
LINE
  5
8CA7
330
1F
100
AcDbEntity
  8
AM_0
100
AcDbLine
 10
-46.42717689682354
 20
33.67054664011737
 30
0.0
 11
-58.07287121539458
 21
22.02485232154633
 31
0.0
  0
POLYLINE
  5
8CF0
330
1F
100
AcDbEntity
  8
AM_0
100
AcDb2dPolyline
 66
     1
 10
0.0
 20
0.0
 30
0.0
 70
     1
  0
VERTEX
  5
8CF1
330
8CF0
100
AcDbEntity
  8
AM_0
100
AcDbVertex
100
AcDb2dVertex
 10
-0.2343145750507672
 20
-8.083199846221432
 30
0.0
  0
VERTEX
  5
8CF2
330
8CF0
100
AcDbEntity
  8
AM_0
100
AcDbVertex
100
AcDb2dVertex
 10
-8.083199846221447
 20
-0.234314575050767
 30
0.0
 42
0.4142135623730951
  0
VERTEX
  5
8CF3
330
8CF0
100
AcDbEntity
  8
AM_0
100
AcDbVertex
100
AcDb2dVertex
 10
-9.214570696119928
 20
-0.2343145750507599
 30
0.0
  0
VERTEX
  5
8CF4
330
8CF0
100
AcDbEntity
  8
AM_0
100
AcDbVertex
100
AcDb2dVertex
 10
-17.06345596729057
 20
-8.083199846221482
 30
0.0
 42
0.4142135623730946
  0
VERTEX
  5
8CF5
330
8CF0
100
AcDbEntity
  8
AM_0
100
AcDbVertex
100
AcDb2dVertex
 10
-17.06345596729056
 20
-9.214570696119963
 30
0.0
  0
VERTEX
  5
8CF6
330
8CF0
100
AcDbEntity
  8
AM_0
100
AcDbVertex
100
AcDb2dVertex
 10
-9.214570696119913
 20
-17.06345596729062
 30
0.0
 42
0.4142135623730948
  0
VERTEX
  5
8CF7
330
8CF0
100
AcDbEntity
  8
AM_0
100
AcDbVertex
100
AcDb2dVertex
 10
-8.08319984622144
 20
-17.06345596729062
 30
0.0
  0
VERTEX
  5
8CF8
330
8CF0
100
AcDbEntity
  8
AM_0
100
AcDbVertex
100
AcDb2dVertex
 10
-0.2343145750507672
 20
-9.214570696119906
 30
0.0
 42
0.4142135623730947
  0
SEQEND
  5
8CF9
330
8CF0
100
AcDbEntity
  8
AM_0
  0
CIRCLE
  5
8CFA
330
1F
100
AcDbEntity
  8
AM_0
100
AcDbCircle
 10
-8.648885271170662
 20
-8.870000000000004
 30
0.0
 40
2.5125
  0
LINE
  5
8CFB
330
1F
100
AcDbEntity
  8
AM_0
100
AcDbLine
 10
-0.0000000000000069
 20
-8.87
 30
0.0
 11
-0.0458627151445317
 21
-8.915862715144525
 31
0.0
  0
LINE
  5
8D1E
330
1F
100
AcDbEntity
  8
AM_0
100
AcDbLine
 10
-34.45796117096009
 20
24.65109565333888
 30
0.0
 11
-46.42717689682354
 21
33.67054664011737
 31
0.0
  0
LINE
  5
8D3E
330
1F
100
AcDbEntity
  8
AM_0
100
AcDbLine
 10
-42.54052022691888
 20
13.92517751268764
 30
0.0
 11
-34.22054177379392
 21
24.96616183490048
 31
0.0
  0
LINE
  5
8D3F
330
1F
100
AcDbEntity
  8
AM_0
100
AcDbLine
 10
-38.13720017594172
 20
11.85917351253118
 30
0.0
 11
-41.93870520376683
 21
14.72381302273492
 31
0.0
  0
LINE
  5
8D40
330
1F
100
AcDbEntity
  8
AM_0
100
AcDbLine
 10
-41.74188471687159
 20
13.32336248953559
 30
0.0
 11
-42.54052022691888
 21
13.92517751268763
 31
0.0
  0
LINE
  5
8D41
330
1F
100
AcDbEntity
  8
AM_0
100
AcDbLine
 10
-41.74188471687158
 20
13.32336248953558
 30
0.0
 11
-41.14006969371954
 21
14.12199799958288
 31
0.0
  0
LINE
  5
8D7B
330
1F
100
AcDbEntity
  8
AM_0
100
AcDbLine
 10
-54.74402028853106
 20
29.70054226547738
 30
0.0
 11
-52.33676019592287
 21
32.89508430566655
 31
0.0
  0
LINE
  5
8D7C
330
1F
100
AcDbEntity
  8
AM_0
100
AcDbLine
 10
-52.3367601959229
 20
32.89508430566655
 30
0.0
 11
-49.40892289068138
 21
30.68880064625954
 31
0.0
  0
LINE
  5
8D7D
330
1F
100
AcDbEntity
  8
AM_0
100
AcDbLine
 10
-54.74402028853108
 20
29.70054226547738
 30
0.0
 11
-52.26514658810961
 21
27.83257694883131
 31
0.0
  0
LINE
  5
8D7E
330
1F
100
AcDbEntity
  8
AM_0
100
AcDbLine
 10
-49.45269653330231
 20
30.64502700363862
 30
0.0
 11
-38.32587292255879
 21
19.5182033928951
 31
0.0
  0
LINE
  5
8D7F
330
1F
100
AcDbEntity
  8
AM_0
100
AcDbLine
 10
-8.38190782719689
 20
-17.25190782719688
 30
0.0
 11
-16.13000000000001
 21
-25.0
 31
0.0
  0
LINE
  5
8D81
330
1F
100
AcDbEntity
  8
AM_0
100
AcDbLine
 10
-9.214570696119912
 20
-17.06345596729062
 30
0.0
 11
-8.704013331705271
 21
-17.57401333170526
 31
0.0
  0
LINE
  5
8D82
330
1F
100
AcDbEntity
  8
AM_0
100
AcDbLine
 10
-17.06345596729056
 20
-9.214570696119963
 30
0.0
 11
-21.27802666341052
 21
-5.0
 31
0.0
  0
DIMENSION
  5
8D83
330
1F
100
AcDbEntity
  8
AM_0
100
AcDbDimension
  2
*D8
 10
-8.083199846221447
 20
-0.2343145750507661
 30
0.0
 11
-11.21624580577311
 21
18.76089832193559
 31
0.0
 70
    34
 51
45.0
  3
AM_JIS$2
100
AcDb2LineAngularDimension
 13
-0.000000000000006
 23
-0.0000000000000006
 33
0.0
 14
-0.0000000000000064
 24
-8.870000000000002
 34
0.0
 15
-0.2343145750507664
 25
-8.083199846221432
 35
0.0
 16
-6.783508121487649
 26
16.99888254167584
 36
0.0
1001
ACAD
1000
DSTYLE
1002
{
1070
   271
1070
     0
1002
}
  0
LINE
  5
8DF7
330
1F
100
AcDbEntity
  8
AM_5
100
AcDbLine
 10
-29.71192996478228
 20
22.80862910588329
 30
0.0
 11
-15.04873098151391
 21
37.47182808915168
 31
0.0
  0
DIMENSION
  5
8DF8
330
1F
100
AcDbEntity
  8
AM_5
100
AcDbDimension
  2
*D9
 10
-15.04873098151391
 20
37.47182808915168
 30
0.0
 11
-27.425534696661
 21
33.94700039316596
 31
0.0
 70
   162
  1
-<>
  3
AM_JIS$2
100
AcDb2LineAngularDimension
 13
-38.13720017594171
 23
11.85917351253118
 33
0.0
 14
-30.41903674596881
 24
22.10152232469673
 34
0.0
 15
-29.71192996478228
 25
22.80862910588329
 35
0.0
 16
-22.19099979638708
 26
31.13345529312125
 36
0.0
1001
ACAD
1000
DSTYLE
1002
{
1070
   271
1070
     0
1002
}
  0
DIMENSION
  5
8E0A
330
1F
100
AcDbEntity
  8
AM_5
100
AcDbDimension
  2
*D10
 10
-29.16433989799323
 20
50.93338363894767
 30
0.0
 11
-20.07801775974608
 21
46.23112354405712
 31
0.0
 70
    32
 51
45.0
  3
AM_JIS
100
AcDbAlignedDimension
 13
-30.41903674596879
 23
22.10152232469672
 33
0.0
 14
-46.42717689682353
 24
33.67054664011738
 34
0.0
 50
315.0
100
AcDbRotatedDimension
  0
DIMENSION
  5
8E3D
330
1F
100
AcDbEntity
  8
AM_5
100
AcDbDimension
  2
*D11
 10
-63.53215517180568
 20
16.56556836513523
 30
0.0
 11
-54.26905633826187
 21
11.68653157494804
 31
0.0
 70
    32
 51
45.0
  3
AM_JIS
100
AcDbAlignedDimension
 13
-43.93073559166359
 23
7.882716697815346
 33
0.0
 14
-58.07287121539458
 24
22.02485232154633
 34
0.0
 50
315.0
100
AcDbRotatedDimension
  0
LINE
  5
8E4A
330
1F
100
AcDbEntity
  8
AM_5
100
AcDbLine
 10
-8.317514421272068
 20
-0.0000000000000041
 30
0.0
 11
-30.41903674596881
 21
22.10152232469674
 31
0.0
  0
MTEXT
  5
8EF1
330
1F
100
AcDbEntity
  8
AM_6
100
AcDbMText
 10
11.68969082580585
 20
29.8065642375172
 30
0.0
 40
4.0
 41
0.0
 71
     5
 72
     5
  1
\T1.40;\W0.59;０°
  7
ASAMI
1001
ACAD
1000
MTEXTBEGIN
1070
    73
1070
     1
1070
    44
1040
1.0
1070
    74
1070
     0
1000
MTEXTEND
  0
MTEXT
  5
8EF2
330
1F
100
AcDbEntity
  8
AM_6
100
AcDbMText
 10
-6.787106451051901
 20
28.63986444231042
 30
0.0
 40
4.0
 41
0.0
 71
     5
 72
     5
  1
\T1.4;\W0.59;-8°
  7
ASAMI
1001
ACAD
1000
MTEXTBEGIN
1070
    73
1070
     1
1070
    44
1040
1.0
1070
    74
1070
     0
1000
MTEXTEND
  0
LEADER
  5
8EF3
330
1F
100
AcDbEntity
  8
AM_5
  6
CONTINUOUS
 48
0.5
100
AcDbLeader
  3
AM_JIS$7
 76
     2
 10
-6.450322622629069
 20
32.87730087851412
 30
0.0
 10
0.6207451892363452
 20
39.94836869037965
 30
0.0
211
-0.7071067811865421
221
-0.7071067811865531
231
0.0
1001
ACAD
1000
DSTYLE
1002
{
1070
     6
1000
OPEN30
1070
   173
1070
     1
1070
   176
1070
     0
1070
   341
1005
59
1002
}
  0
LEADER
  5
8EF4
330
1F
100
AcDbEntity
  8
AM_5
  6
CONTINUOUS
 48
0.5
100
AcDbLeader
  3
AM_JIS$7
 76
     2
 10
7.691813001101873
 20
32.87730087851422
 30
0.0
 10
0.6207451892363452
 20
39.94836869037965
 30
0.0
211
-0.7071067811865421
221
-0.7071067811865531
231
0.0
1001
ACAD
1000
DSTYLE
1002
{
1070
     6
1000
OPEN30
1070
   173
1070
     1
1070
   176
1070
     0
1070
   341
1005
59
1002
}
  0
VIEWPORT
  5
110
330
101
100
AcDbEntity
 67
     1
  8
0
100
AcDbViewport
 10
420.5
 20
297.0
 30
0.0
 40
948.9782706766916
 41
628.452
 68
     1
 69
     1
1001
ACAD
1000
MVIEW
1002
{
1070
    16
1010
0.0
1020
0.0
1030
0.0
1010
0.0
1020
0.0
1030
1.0
1040
0.0
1040
628.452
1040
420.5
1040
297.0
1040
50.0
1040
0.0
1040
0.0
1070
     0
1070
   100
1070
     1
1070
     1
1070
     0
1070
     0
1070
     0
1070
     0
1040
0.0
1040
0.0
1040
0.0
1040
10.0
1040
10.0
1040
10.0
1040
10.0
1070
     0
1002
{
1002
}
1002
}
  0
ENDSEC
  0
SECTION
  2
OBJECTS
  0
DICTIONARY
  5
C
330
0
100
AcDbDictionary
  3
ACAD_GROUP
350
D
  3
ACAD_LAYOUT
350
1A
  3
ACAD_MLINESTYLE
350
17
  3
ACAD_PLOTSETTINGS
350
19
  3
ACAD_PLOTSTYLENAME
350
E
  3
ACDBVARIABLEDICTIONARY
350
34
  3
ACMDICTIONARY
350
43
  3
AMG
350
2B
  3
AMGSNAPSETTINGS
350
6E
  3
DWGPROPS
350
8F0D
  3
ACDBHEADERROUNDTRIPXREC
350
8F19
  0
DICTIONARY
  5
74
330
1F
100
AcDbDictionary
280
     1
  3
ACAD_INDEX
360
8F0F
  3
ACAD_LAYOUTSELFREF
360
8F3C
  0
DICTIONARY
  5
8F41
330
101
100
AcDbDictionary
280
     1
  3
ACAD_LAYOUTSELFREF
360
8F42
  0
DICTIONARY
  5
D
102
{ACAD_REACTORS
330
C
102
}
330
C
100
AcDbDictionary
  0
DICTIONARY
  5
1A
102
{ACAD_REACTORS
330
C
102
}
330
C
100
AcDbDictionary
  0
DICTIONARY
  5
17
102
{ACAD_REACTORS
330
C
102
}
330
C
100
AcDbDictionary
  3
STANDARD
350
18
  0
DICTIONARY
  5
19
102
{ACAD_REACTORS
330
C
102
}
330
C
100
AcDbDictionary
  0
ACDBDICTIONARYWDFLT
  5
E
102
{ACAD_REACTORS
330
C
102
}
330
C
100
AcDbDictionary
281
     1
  3
Normal
350
F
100
AcDbDictionaryWithDefault
340
F
  0
DICTIONARY
  5
34
102
{ACAD_REACTORS
330
C
102
}
330
C
100
AcDbDictionary
  3
INDEXCTL
350
35
  3
SORTENTS
350
B5E
  0
DICTIONARY
  5
43
102
{ACAD_REACTORS
330
C
102
}
330
C
100
AcDbDictionary
  3
ACMSTDDICTIONARY
350
260
  0
DICTIONARY
  5
2B
102
{ACAD_REACTORS
330
C
102
}
330
C
100
AcDbDictionary
  3
ACMGSETTINGS
350
2C
  0
DICTIONARY
  5
6E
102
{ACAD_REACTORS
330
C
102
}
330
C
100
AcDbDictionary
  0
XRECORD
  5
8F0D
102
{ACAD_REACTORS
330
C
102
}
330
C
100
AcDbXrecord
  1
DWGPROPS COOKIE
  2

  3

  4

  6

  7

  8

  9

300
AmdtFileType=82
301
=
302
=
303
=
304
=
305
=
306
=
307
=
308
=
309
=
 40
1.272190416666666
 41
2452838.620506898
 42
2452938.600081493
  1

 90
        1
  0
DICTIONARY
  5
8F19
102
{ACAD_REACTORS
330
C
102
}
330
C
100
AcDbDictionary
  3
TSTACKALIGN
350
8F1A
  3
TSTACKSIZE
350
8F1B
  3
HYPERLINKBASE
350
8F1C
  3
STYLESHEET
350
8F1D
  3
LAYOUTDICT
350
8F1E
  3
PLOTSETDICT
350
8F1F
  3
PLOTSTYLNAMDICT
350
8F20
  3
LWETCUNION
350
8F21
  3
INSUNITS
350
8F22
  3
CEPSNTYPE
350
8F23
  3
FINGERPRINTGUID
350
8F24
  3
VERSIONGUID
350
8F25
  3
PSVPSCALE
350
8F26
  3
DIMSTYLEDATA
350
8F27
  3
PUCSORTHOREF
350
8F28
  3
PUCSORTHOVIEW
350
8F29
  3
PUCSBASE
350
8F2A
  3
PUCSORGTOP
350
8F2B
  3
PUCSORGBOTTOM
350
8F2C
  3
PUCSORGLEFT
350
8F2D
  3
PUCSORGRIGHT
350
8F2E
  3
PUCSORGFRONT
350
8F2F
  3
PUCSORGBACK
350
8F30
  3
UCSORTHOREF
350
8F31
  3
UCSORTHOVIEW
350
8F32
  3
UCSBASE
350
8F33
  3
UCSORGTOP
350
8F34
  3
UCSORGBOTTOM
350
8F35
  3
UCSORGLEFT
350
8F36
  3
UCSORGRIGHT
350
8F37
  3
UCSORGFRONT
350
8F38
  3
UCSORGBACK
350
8F39
  0
DICTIONARY
  5
8F0F
102
{ACAD_REACTORS
330
74
102
}
330
74
100
AcDbDictionary
  3
*A1
350
8F10
  0
XRECORD
  5
8F3C
102
{ACAD_REACTORS
330
74
102
}
330
74
100
AcDbXrecord
340
1F
  0
XRECORD
  5
8F42
102
{ACAD_REACTORS
330
8F41
102
}
330
8F41
100
AcDbXrecord
340
101
  0
MLINESTYLE
  5
18
102
{ACAD_REACTORS
330
17
102
}
330
17
100
AcDbMlineStyle
  2
STANDARD
 70
     0
  3

 62
   256
 51
90.0
 52
90.0
 71
     2
 49
0.5
 62
   256
  6
BYLAYER
 49
-0.5
 62
   256
  6
BYLAYER
  0
ACDBPLACEHOLDER
  5
F
102
{ACAD_REACTORS
330
E
102
}
330
E
100
AcDbPlaceHolder
280
     0
  0
DICTIONARYVAR
  5
35
102
{ACAD_REACTORS
330
34
102
}
330
34
100
DictionaryVariables
280
     0
  1
1
  0
DICTIONARYVAR
  5
B5E
102
{ACAD_REACTORS
330
34
102
}
330
34
100
DictionaryVariables
280
     0
  1
96
  0
DICTIONARY
  5
260
102
{ACAD_REACTORS
330
43
102
}
330
43
100
AcDbDictionary
  0
DICTIONARY
  5
2C
102
{ACAD_REACTORS
330
2B
102
}
330
2B
100
AcDbDictionary
  3
DWGSETTINGS
350
2D
  0
XRECORD
  5
8F1A
102
{ACAD_REACTORS
330
8F19
102
}
330
8F19
100
AcDbXrecord
 90
        1
  0
XRECORD
  5
8F1B
102
{ACAD_REACTORS
330
8F19
102
}
330
8F19
100
AcDbXrecord
 90
       70
  0
XRECORD
  5
8F1C
102
{ACAD_REACTORS
330
8F19
102
}
330
8F19
100
AcDbXrecord
  1

  0
XRECORD
  5
8F1D
102
{ACAD_REACTORS
330
8F19
102
}
330
8F19
100
AcDbXrecord
  1
ASAMI.ctb
  0
XRECORD
  5
8F1E
102
{ACAD_REACTORS
330
8F19
102
}
330
8F19
100
AcDbXrecord
340
1A
  0
XRECORD
  5
8F1F
102
{ACAD_REACTORS
330
8F19
102
}
330
8F19
100
AcDbXrecord
340
19
  0
XRECORD
  5
8F20
102
{ACAD_REACTORS
330
8F19
102
}
330
8F19
100
AcDbXrecord
340
E
  0
XRECORD
  5
8F21
102
{ACAD_REACTORS
330
8F19
102
}
330
8F19
100
AcDbXrecord
 90
    10781
  0
XRECORD
  5
8F22
102
{ACAD_REACTORS
330
8F19
102
}
330
8F19
100
AcDbXrecord
 90
        4
  0
XRECORD
  5
8F23
102
{ACAD_REACTORS
330
8F19
102
}
330
8F19
100
AcDbXrecord
 90
        0
  0
XRECORD
  5
8F24
102
{ACAD_REACTORS
330
8F19
102
}
330
8F19
100
AcDbXrecord
  1
{AFB28963-8C59-40AE-9337-C84526B81ACE}
  0
XRECORD
  5
8F25
102
{ACAD_REACTORS
330
8F19
102
}
330
8F19
100
AcDbXrecord
  1
{11870693-CFC8-4301-A85D-C8820490DD1C}
  0
XRECORD
  5
8F26
102
{ACAD_REACTORS
330
8F19
102
}
330
8F19
100
AcDbXrecord
 40
0.0
  0
XRECORD
  5
8F27
102
{ACAD_REACTORS
330
8F19
102
}
330
8F19
100
AcDbXrecord
1000
DSTYLE
1002
{
1070
    79
 70
     2
1070
   341
340
59
1070
   342
340
59
1070
   371
 70
    -1
1070
   372
 70
    -1
1002
}
  0
XRECORD
  5
8F28
102
{ACAD_REACTORS
330
8F19
102
}
330
8F19
100
AcDbXrecord
340
0
  0
XRECORD
  5
8F29
102
{ACAD_REACTORS
330
8F19
102
}
330
8F19
100
AcDbXrecord
 70
     0
  0
XRECORD
  5
8F2A
102
{ACAD_REACTORS
330
8F19
102
}
330
8F19
100
AcDbXrecord
340
0
  0
XRECORD
  5
8F2B
102
{ACAD_REACTORS
330
8F19
102
}
330
8F19
100
AcDbXrecord
 10
0.0
 20
0.0
 30
0.0
  0
XRECORD
  5
8F2C
102
{ACAD_REACTORS
330
8F19
102
}
330
8F19
100
AcDbXrecord
 10
0.0
 20
0.0
 30
0.0
  0
XRECORD
  5
8F2D
102
{ACAD_REACTORS
330
8F19
102
}
330
8F19
100
AcDbXrecord
 10
0.0
 20
0.0
 30
0.0
  0
XRECORD
  5
8F2E
102
{ACAD_REACTORS
330
8F19
102
}
330
8F19
100
AcDbXrecord
 10
0.0
 20
0.0
 30
0.0
  0
XRECORD
  5
8F2F
102
{ACAD_REACTORS
330
8F19
102
}
330
8F19
100
AcDbXrecord
 10
0.0
 20
0.0
 30
0.0
  0
XRECORD
  5
8F30
102
{ACAD_REACTORS
330
8F19
102
}
330
8F19
100
AcDbXrecord
 10
0.0
 20
0.0
 30
0.0
  0
XRECORD
  5
8F31
102
{ACAD_REACTORS
330
8F19
102
}
330
8F19
100
AcDbXrecord
340
0
  0
XRECORD
  5
8F32
102
{ACAD_REACTORS
330
8F19
102
}
330
8F19
100
AcDbXrecord
 70
     0
  0
XRECORD
  5
8F33
102
{ACAD_REACTORS
330
8F19
102
}
330
8F19
100
AcDbXrecord
340
0
  0
XRECORD
  5
8F34
102
{ACAD_REACTORS
330
8F19
102
}
330
8F19
100
AcDbXrecord
 10
0.0
 20
0.0
 30
0.0
  0
XRECORD
  5
8F35
102
{ACAD_REACTORS
330
8F19
102
}
330
8F19
100
AcDbXrecord
 10
0.0
 20
0.0
 30
0.0
  0
XRECORD
  5
8F36
102
{ACAD_REACTORS
330
8F19
102
}
330
8F19
100
AcDbXrecord
 10
0.0
 20
0.0
 30
0.0
  0
XRECORD
  5
8F37
102
{ACAD_REACTORS
330
8F19
102
}
330
8F19
100
AcDbXrecord
 10
0.0
 20
0.0
 30
0.0
  0
XRECORD
  5
8F38
102
{ACAD_REACTORS
330
8F19
102
}
330
8F19
100
AcDbXrecord
 10
0.0
 20
0.0
 30
0.0
  0
XRECORD
  5
8F39
102
{ACAD_REACTORS
330
8F19
102
}
330
8F19
100
AcDbXrecord
 10
0.0
 20
0.0
 30
0.0
  0
LAYER_INDEX
  5
8F10
102
{ACAD_REACTORS
330
8F0F
102
}
330
8F0F
100
AcDbIndex
 40
2452941.591731759
100
AcDbLayerIndex
  8
0
360
8F11
 90
        0
  8
AM_0
360
8F12
 90
       23
  8
AM_11
360
8F13
 90
        2
  8
AM_7
360
8F14
 90
        1
  8
AM_5
360
8F15
 90
       10
  8
Defpoints
360
8F16
 90
        0
  8
AM_6
360
8F17
 90
        3
  0
XRECORD
  5
2D
102
{ACAD_REACTORS
330
2C
102
}
330
2C
100
AcDbXrecord
  1
VERSION
140
15.0
  1
PRODUCT
  2
AutoCAD Mechanical 2000
  0
IDBUFFER
  5
8F11
330
0
100
AcDbIdBuffer
  0
IDBUFFER
  5
8F12
330
0
100
AcDbIdBuffer
330
8D7C
330
8D7D
330
8D7E
330
8D7F
330
8D81
330
8D82
330
8D83
330
8B2A
330
8B31
330
8B3A
330
8B3C
330
8B3D
330
8B3F
330
8CA7
330
8CF0
330
8CFA
330
8CFB
330
8D1E
330
8D3E
330
8D3F
330
8D40
330
8D41
330
8D7B
  0
IDBUFFER
  5
8F13
330
0
100
AcDbIdBuffer
330
8B2C
330
8B37
  0
IDBUFFER
  5
8F14
330
0
100
AcDbIdBuffer
330
8B45
  0
IDBUFFER
  5
8F15
330
0
100
AcDbIdBuffer
330
8BB0
330
8BC6
330
8BD3
330
8DF7
330
8DF8
330
8E0A
330
8E3D
330
8E4A
330
8EF3
330
8EF4
  0
IDBUFFER
  5
8F16
330
0
100
AcDbIdBuffer
  0
IDBUFFER
  5
8F17
330
0
100
AcDbIdBuffer
330
C58
330
8EF1
330
8EF2
  0
ENDSEC
  0
EOF
