  0
SECTION
  2
HEADER
  9
$ACADVER
  1
AC1014
  9
$ACADMAINTVER
 70
     9
  9
$DWGCODEPAGE
  3
ANSI_932
  9
$INSBASE
 10
0.0
 20
0.0
 30
0.0
  9
$EXTMIN
 10
-169.6772136541441
 20
-70.50000000000008
 30
0.0
  9
$EXTMAX
 10
15.02508625823447
 20
49.51034108002058
 30
0.0
  9
$LIMMIN
 10
-182.7219634311356
 20
-83.22979503237366
  9
$LIMMAX
 10
26.15137303040251
 20
53.1191514381519
  9
$ORTHOMODE
 70
     0
  9
$REGENMODE
 70
     1
  9
$FILLMODE
 70
     1
  9
$QTEXTMODE
 70
     0
  9
$MIRRTEXT
 70
     0
  9
$DRAGMODE
 70
     2
  9
$LTSCALE
 40
0.5
  9
$OSMODE
 70
  2103
  9
$ATTMODE
 70
     1
  9
$TEXTSIZE
 40
2.5
  9
$TRACEWID
 40
1.0
  9
$TEXTSTYLE
  7
STANDARD
  9
$CLAYER
  8
AM_0
  9
$CELTYPE
  6
BYLAYER
  9
$CECOLOR
 62
   256
  9
$CELTSCALE
 40
1.0
  9
$DELOBJ
 70
     1
  9
$DISPSILH
 70
     0
  9
$DIMSCALE
 40
1.0
  9
$DIMASZ
 40
2.5
  9
$DIMEXO
 40
1.0
  9
$DIMDLI
 40
12.0
  9
$DIMRND
 40
0.0
  9
$DIMDLE
 40
0.0
  9
$DIMEXE
 40
1.0
  9
$DIMTP
 40
0.1
  9
$DIMTM
 40
0.1
  9
$DIMTXT
 40
3.2
  9
$DIMCEN
 40
0.0
  9
$DIMTSZ
 40
0.0
  9
$DIMTOL
 70
     0
  9
$DIMLIM
 70
     0
  9
$DIMTIH
 70
     0
  9
$DIMTOH
 70
     0
  9
$DIMSE1
 70
     0
  9
$DIMSE2
 70
     0
  9
$DIMTAD
 70
     3
  9
$DIMZIN
 70
     8
  9
$DIMBLK
  1
OPEN30
  9
$DIMASO
 70
     1
  9
$DIMSHO
 70
     1
  9
$DIMPOST
  1

  9
$DIMAPOST
  1
"
  9
$DIMALT
 70
     0
  9
$DIMALTD
 70
     2
  9
$DIMALTF
 40
0.0393701
  9
$DIMLFAC
 40
1.0
  9
$DIMTOFL
 70
     1
  9
$DIMTVP
 40
0.0
  9
$DIMTIX
 70
     0
  9
$DIMSOXD
 70
     0
  9
$DIMSAH
 70
     0
  9
$DIMBLK1
  1

  9
$DIMBLK2
  1

  9
$DIMSTYLE
  2
AM_JIS
  9
$DIMCLRD
 70
     3
  9
$DIMCLRE
 70
     3
  9
$DIMCLRT
 70
     2
  9
$DIMTFAC
 40
0.71
  9
$DIMGAP
 40
1.5
  9
$DIMJUST
 70
     0
  9
$DIMSD1
 70
     0
  9
$DIMSD2
 70
     0
  9
$DIMTOLJ
 70
     0
  9
$DIMTZIN
 70
     0
  9
$DIMALTZ
 70
     0
  9
$DIMALTTZ
 70
     0
  9
$DIMFIT
 70
     3
  9
$DIMUPT
 70
     0
  9
$DIMUNIT
 70
     2
  9
$DIMDEC
 70
     3
  9
$DIMTDEC
 70
     3
  9
$DIMALTU
 70
     2
  9
$DIMALTTD
 70
     2
  9
$DIMTXSTY
  7
ASAMI
  9
$DIMAUNIT
 70
     0
  9
$LUNITS
 70
     2
  9
$LUPREC
 70
     2
  9
$SKETCHINC
 40
1.0
  9
$FILLETRAD
 40
0.8
  9
$AUNITS
 70
     0
  9
$AUPREC
 70
     0
  9
$MENU
  1
.
  9
$ELEVATION
 40
0.0
  9
$PELEVATION
 40
0.0
  9
$THICKNESS
 40
0.0
  9
$LIMCHECK
 70
     0
  9
$BLIPMODE
 70
     0
  9
$CHAMFERA
 40
0.0
  9
$CHAMFERB
 40
0.0
  9
$CHAMFERC
 40
20.0
  9
$CHAMFERD
 40
0.0
  9
$SKPOLY
 70
     0
  9
$TDCREATE
 40
2452838.620506898
  9
$TDUPDATE
 40
2452941.591895428
  9
$TDINDWG
 40
1.2871283449
  9
$TDUSRTIMER
 40
1.2871283449
  9
$USRTIMER
 70
     1
  9
$ANGBASE
 50
0.0
  9
$ANGDIR
 70
     0
  9
$PDMODE
 70
     0
  9
$PDSIZE
 40
0.0
  9
$PLINEWID
 40
0.0
  9
$COORDS
 70
     0
  9
$SPLFRAME
 70
     0
  9
$SPLINETYPE
 70
     6
  9
$SPLINESEGS
 70
     8
  9
$ATTDIA
 70
     1
  9
$ATTREQ
 70
     1
  9
$HANDLING
 70
 12289
  9
$HANDSEED
  5
908B
  9
$SURFTAB1
 70
     6
  9
$SURFTAB2
 70
     6
  9
$SURFTYPE
 70
     6
  9
$SURFU
 70
     6
  9
$SURFV
 70
     6
  9
$UCSNAME
  2

  9
$UCSORG
 10
0.0
 20
0.0
 30
0.0
  9
$UCSXDIR
 10
1.0
 20
0.0
 30
0.0
  9
$UCSYDIR
 10
0.0
 20
1.0
 30
0.0
  9
$PUCSNAME
  2

  9
$PUCSORG
 10
0.0
 20
0.0
 30
0.0
  9
$PUCSXDIR
 10
1.0
 20
0.0
 30
0.0
  9
$PUCSYDIR
 10
0.0
 20
1.0
 30
0.0
  9
$USERI1
 70
     0
  9
$USERI2
 70
     0
  9
$USERI3
 70
     0
  9
$USERI4
 70
     0
  9
$USERI5
 70
     0
  9
$USERR1
 40
0.0
  9
$USERR2
 40
0.0
  9
$USERR3
 40
0.0
  9
$USERR4
 40
0.0
  9
$USERR5
 40
0.0
  9
$WORLDVIEW
 70
     1
  9
$SHADEDGE
 70
     3
  9
$SHADEDIF
 70
    70
  9
$TILEMODE
 70
     1
  9
$MAXACTVP
 70
    64
  9
$PINSBASE
 10
0.0
 20
0.0
 30
0.0
  9
$PLIMCHECK
 70
     0
  9
$PEXTMIN
 10
1.000000000000000E+20
 20
1.000000000000000E+20
 30
1.000000000000000E+20
  9
$PEXTMAX
 10
-1.000000000000000E+20
 20
-1.000000000000000E+20
 30
-1.000000000000000E+20
  9
$PLIMMIN
 10
0.0
 20
0.0
  9
$PLIMMAX
 10
841.0
 20
594.0
  9
$UNITMODE
 70
     0
  9
$VISRETAIN
 70
     1
  9
$PLINEGEN
 70
     0
  9
$PSLTSCALE
 70
     0
  9
$TREEDEPTH
 70
  3020
  9
$PICKSTYLE
 70
     0
  9
$CMLSTYLE
  2
STANDARD
  9
$CMLJUST
 70
     0
  9
$CMLSCALE
 40
20.0
  9
$PROXYGRAPHICS
 70
     1
  9
$MEASUREMENT
 70
     1
  0
ENDSEC
  0
SECTION
  2
CLASSES
  0
CLASS
  1
ACDBDICTIONARYWDFLT
  2
AcDbDictionaryWithDefault
  3
AutoCAD 2000
 90
        0
280
     0
281
     0
  0
CLASS
  1
ACDBPLACEHOLDER
  2
AcDbPlaceHolder
  3
AutoCAD 2000
 90
        0
280
     0
281
     0
  0
CLASS
  1
LAYOUT
  2
AcDbLayout
  3
AutoCAD 2000
 90
        0
280
     0
281
     0
  0
CLASS
  1
AMGSETTINGSOBJ
  2
AmgSettingsObj
  3
"AcadM|Product Description: AutoCAD Mechanical 2000|Company: Autodesk"
 90
        0
280
     0
281
     0
  0
CLASS
  1
ACME_DOCUMENT
  2
AcMeDbDoc
  3
AcMeServices
 90
        0
280
     0
281
     0
  0
CLASS
  1
ACMESCOPE
  2
AcMeScope
  3
AcMeServices
 90
        0
280
     0
281
     0
  0
CLASS
  1
ACMECOMMANDHISTORY
  2
AcMeCommandHistory
  3
AcMeServices
 90
        0
280
     0
281
     0
  0
CLASS
  1
DICTIONARYVAR
  2
AcDbDictionaryVar
  3
AutoCAD 2000
 90
        0
280
     0
281
     0
  0
CLASS
  1
ACIMSYSVARMAN
  2
AcImSysVarManager
  3
AcMeServices
 90
        0
280
     0
281
     0
  0
CLASS
  1
ACIMREALSYSVAR
  2
AcImRealSysVar
  3
AcMeServices
 90
        0
280
     0
281
     0
  0
CLASS
  1
ACIMINTSYSVAR
  2
AcImIntSysVar
  3
AcMeServices
 90
        0
280
     0
281
     0
  0
CLASS
  1
ACMEDRAWINGMAN
  2
AcMeDrawingMan
  3
AcMeServices
 90
        0
280
     0
281
     0
  0
CLASS
  1
ACMEVIEW
  2
AcMeView
  3
AcMeServices
 90
        0
280
     0
281
     0
  0
CLASS
  1
ACDBENTITYCACHE
  2
AcMeEntityCache
  3
AcMeServices
 90
        0
280
     0
281
     0
  0
CLASS
  1
GSMANAGER
  2
AcMeGSManager
  3
AcMeServices
 90
        0
280
     0
281
     0
  0
CLASS
  1
AmdtInternalReactor
  2
AmdtInternalReactor
  3
AcMeServices
 90
        0
280
     0
281
     0
  0
CLASS
  1
ACMESTATEMGR
  2
AcMeStateMgr
  3
AcMeServices
 90
        0
280
     0
281
     0
  0
CLASS
  1
ACME_DATABASE
  2
AcMeDbDatabase
  3
AcMeServices
 90
        0
280
     0
281
     0
  0
CLASS
  1
ACRFINSADJUSTERMGR
  2
AcRfInsAdjusterMgr
  3
AcMeServices
 90
        0
280
     0
281
     0
  0
CLASS
  1
ACMDATADICTIONARY
  2
AcmDataDictionary
  3
"AcmSymBB|Product Description: AutoCAD Mechanical 2000|Company: Autodesk"
 90
        0
280
     0
281
     0
  0
CLASS
  1
ACMDATAENTRYBLOCK
  2
AcmDataEntryBlock
  3
"AcmSymBB|Product Description: AutoCAD Mechanical 2000|Company: Autodesk"
 90
        0
280
     0
281
     0
  0
CLASS
  1
AMGOBJPROPCFG
  2
AmgObjPropCfg
  3
"AmgLay|Product Description: AutoCAD Mechanical 2000|Company: Autodesk"
 90
        1
280
     0
281
     0
  0
CLASS
  1
ACAMGFILTERDAT
  2
AcAmgFilterDat
  3
"AcadM|Product Description: AutoCAD Mechanical 2000|Company: Autodesk"
 90
        0
280
     0
281
     0
  0
CLASS
  1
LAYER_INDEX
  2
AcDbLayerIndex
  3
AutoCAD 2000
 90
        0
280
     0
281
     0
  0
CLASS
  1
IDBUFFER
  2
AcDbIdBuffer
  3
AutoCAD 2000
 90
        0
280
     0
281
     0
  0
CLASS
  1
ACIMSTRSYSVAR
  2
AcImStrSysVar
  3
AcMeServices
 90
        0
280
     0
281
     0
  0
CLASS
  1
ACMSTANDARDJIS
  2
AcmStandardJIS
  3
"AcmSymBB|Product Description: AutoCAD Mechanical 2000|Company: Autodesk"
 90
        0
280
     0
281
     0
  0
CLASS
  1
ACMSURFSTANDARDJIS
  2
AcmSurfTextStdJIS
  3
"AcmSymBB|Product Description: AutoCAD Mechanical 2000|Company: Autodesk"
 90
        0
280
     0
281
     0
  0
CLASS
  1
ACMFCFSTANDARDJIS
  2
AcmFCFStdJIS
  3
"AcmSymBB|Product Description: AutoCAD Mechanical 2000|Company: Autodesk"
 90
        0
280
     0
281
     0
  0
CLASS
  1
ACMWELDSTANDARDJIS
  2
AcmWeldingStdJIS
  3
"AcmSymBB|Product Description: AutoCAD Mechanical 2000|Company: Autodesk"
 90
        0
280
     0
281
     0
  0
CLASS
  1
ACMIDSTANDARDJIS
  2
AcmIdStdJIS
  3
"AcmSymBB|Product Description: AutoCAD Mechanical 2000|Company: Autodesk"
 90
        0
280
     0
281
     0
  0
CLASS
  1
ACMDATUMSTANDARDJIS
  2
AcmDatumStdJIS
  3
"AcmSymBB|Product Description: AutoCAD Mechanical 2000|Company: Autodesk"
 90
        0
280
     0
281
     0
  0
CLASS
  1
ACMBOMSTANDARDJIS
  2
AcmBOMStdJIS
  3
"AcmSymBB|Product Description: AutoCAD Mechanical 2000|Company: Autodesk"
 90
        0
280
     0
281
     0
  0
CLASS
  1
ACMSTANDARDANSI
  2
AcmStandardANSI
  3
"AcmSymBB|Product Description: AutoCAD Mechanical 2000|Company: Autodesk"
 90
        0
280
     0
281
     0
  0
CLASS
  1
ACMSURFSTANDARDANSI
  2
AcmSurfTextStdANSI
  3
"AcmSymBB|Product Description: AutoCAD Mechanical 2000|Company: Autodesk"
 90
        0
280
     0
281
     0
  0
CLASS
  1
ACMFCFSTANDARDANSI
  2
AcmFCFStdANSI
  3
"AcmSymBB|Product Description: AutoCAD Mechanical 2000|Company: Autodesk"
 90
        0
280
     0
281
     0
  0
CLASS
  1
ACMWELDSTANDARDANSI
  2
AcmWeldingStdANSI
  3
"AcmSymBB|Product Description: AutoCAD Mechanical 2000|Company: Autodesk"
 90
        0
280
     0
281
     0
  0
CLASS
  1
ACMIDSTANDARDANSI
  2
AcmIdStdANSI
  3
"AcmSymBB|Product Description: AutoCAD Mechanical 2000|Company: Autodesk"
 90
        0
280
     0
281
     0
  0
CLASS
  1
ACMDATUMSTANDARDANSI
  2
AcmDatumStdANSI
  3
"AcmSymBB|Product Description: AutoCAD Mechanical 2000|Company: Autodesk"
 90
        0
280
     0
281
     0
  0
CLASS
  1
ACMBOMSTANDARDANSI
  2
AcmBOMStdANSI
  3
"AcmSymBB|Product Description: AutoCAD Mechanical 2000|Company: Autodesk"
 90
        0
280
     0
281
     0
  0
CLASS
  1
ACMSTANDARDBSI
  2
AcmStandardBSI
  3
"AcmSymBB|Product Description: AutoCAD Mechanical 2000|Company: Autodesk"
 90
        0
280
     0
281
     0
  0
CLASS
  1
ACMSURFSTANDARDBSI
  2
AcmSurfTextStdBSI
  3
"AcmSymBB|Product Description: AutoCAD Mechanical 2000|Company: Autodesk"
 90
        0
280
     0
281
     0
  0
CLASS
  1
ACMFCFSTANDARDBSI
  2
AcmFCFStdBSI
  3
"AcmSymBB|Product Description: AutoCAD Mechanical 2000|Company: Autodesk"
 90
        0
280
     0
281
     0
  0
CLASS
  1
ACMWELDSTANDARDBSI
  2
AcmWeldingStdBSI
  3
"AcmSymBB|Product Description: AutoCAD Mechanical 2000|Company: Autodesk"
 90
        0
280
     0
281
     0
  0
CLASS
  1
ACMIDSTANDARDBSI
  2
AcmIdStdBSI
  3
"AcmSymBB|Product Description: AutoCAD Mechanical 2000|Company: Autodesk"
 90
        0
280
     0
281
     0
  0
CLASS
  1
ACMDATUMSTANDARDBSI
  2
AcmDatumStdBSI
  3
"AcmSymBB|Product Description: AutoCAD Mechanical 2000|Company: Autodesk"
 90
        0
280
     0
281
     0
  0
CLASS
  1
ACMBOMSTANDARDBSI
  2
AcmBOMStdBSI
  3
"AcmSymBB|Product Description: AutoCAD Mechanical 2000|Company: Autodesk"
 90
        0
280
     0
281
     0
  0
CLASS
  1
LONG_TRANSACTION
  2
AcDbLongTransaction
  3
AutoCAD 2000
 90
        0
280
     0
281
     0
  0
CLASS
  1
LWPOLYLINE
  2
AcDbPolyline
  3
AutoCAD 2000
 90
        0
280
     0
281
     1
  0
CLASS
  1
HATCH
  2
AcDbHatch
  3
AutoCAD 2000
 90
        0
280
     0
281
     1
  0
CLASS
  1
XRECORD
  2
AcDbXrecord
  3
AutoCAD 2000
 90
        0
280
     0
281
     0
  0
ENDSEC
  0
SECTION
  2
TABLES
  0
TABLE
  2
VPORT
  5
8
330
0
100
AcDbSymbolTable
 70
     3
  0
VPORT
  5
9049
330
8
100
AcDbSymbolTableRecord
100
AcDbViewportTableRecord
  2
*ACTIVE
 70
     0
 10
0.0
 20
0.0
 11
1.0
 21
1.0
 12
-66.99113449831646
 22
-3.351577217628943
 13
0.0
 23
0.0
 14
2.5
 24
2.5
 15
10.0
 25
10.0
 16
0.0
 26
0.0
 36
1.0
 17
0.0
 27
0.0
 37
0.0
 40
135.0377470575181
 41
1.56570841889117
 42
50.0
 43
0.0
 44
0.0
 50
0.0
 51
0.0
 71
     0
 72
   100
 73
     1
 74
     3
 75
     0
 76
     0
 77
     0
 78
     0
  0
ENDTAB
  0
TABLE
  2
LTYPE
  5
5
330
0
100
AcDbSymbolTable
 70
    10
  0
LTYPE
  5
14
330
5
100
AcDbSymbolTableRecord
100
AcDbLinetypeTableRecord
  2
BYBLOCK
 70
     0
  3

 72
    65
 73
     0
 40
0.0
  0
LTYPE
  5
15
330
5
100
AcDbSymbolTableRecord
100
AcDbLinetypeTableRecord
  2
BYLAYER
 70
     0
  3

 72
    65
 73
     0
 40
0.0
  0
LTYPE
  5
16
330
5
100
AcDbSymbolTableRecord
100
AcDbLinetypeTableRecord
  2
CONTINUOUS
 70
     0
  3
Solid line
 72
    65
 73
     0
 40
0.0
  0
LTYPE
  5
4B
330
5
100
AcDbSymbolTableRecord
100
AcDbLinetypeTableRecord
  2
AM_ISO02W050
 70
     0
  3
__ __ __ __ __ __ __ __ __ __ __ __ __ __ __
 72
    65
 73
     2
 40
7.5
 49
6.0
 74
     0
 49
-1.5
 74
     0
  0
LTYPE
  5
4C
330
5
100
AcDbSymbolTableRecord
100
AcDbLinetypeTableRecord
  2
AM_ISO08W050
 70
     0
  3
____ . ____ . ____ . ____ . ____ . ____ . ____
 72
    65
 73
     4
 40
18.0
 49
12.0
 74
     0
 49
-1.5
 74
     0
 49
3.0
 74
     0
 49
-1.5
 74
     0
  0
LTYPE
  5
4D
330
5
100
AcDbSymbolTableRecord
100
AcDbLinetypeTableRecord
  2
AM_ISO09W050
 70
     0
  3
_____ . . _____ . . _____ . . ____ .. ____
 72
    65
 73
     6
 40
22.5
 49
12.0
 74
     0
 49
-1.5
 74
     0
 49
3.0
 74
     0
 49
-1.5
 74
     0
 49
3.0
 74
     0
 49
-1.5
 74
     0
  0
LTYPE
  5
4E
330
5
100
AcDbSymbolTableRecord
100
AcDbLinetypeTableRecord
  2
AMCONSTR
 70
     0
  3
_______________________
 72
    65
 73
     2
 40
9999.0
 49
9999.0
 74
     0
 49
0.0
 74
     0
  0
LTYPE
  5
4F
330
5
100
AcDbSymbolTableRecord
100
AcDbLinetypeTableRecord
  2
AM_ISO02W050X2
 70
     0
  3
 _ _ _ _ _ _ _ _ _ _ _ _
 72
    65
 73
     2
 40
3.75
 49
3.0
 74
     0
 49
-0.75
 74
     0
  0
LTYPE
  5
50
330
5
100
AcDbSymbolTableRecord
100
AcDbLinetypeTableRecord
  2
AM_ISO08W050X2
 70
     0
  3
__ . __ . __ . __ . __ . __
 72
    65
 73
     4
 40
9.0
 49
6.0
 74
     0
 49
-0.75
 74
     0
 49
1.5
 74
     0
 49
-0.75
 74
     0
  0
LTYPE
  5
53
330
5
100
AcDbSymbolTableRecord
100
AcDbLinetypeTableRecord
  2
AMZIGZAG
 70
     0
  3
/\/-/\/-/\/-/\/-/\/-/\/
 72
    65
 73
     2
 40
11.00009999999999
 49
0.0001
 74
     4
 75
   135
340
52
 46
0.04
 50
0.0
 44
0.0
 45
0.0
 49
-11.0
 74
     0
  0
LTYPE
  5
166
330
5
100
AcDbSymbolTableRecord
100
AcDbLinetypeTableRecord
  2
ACJISTGL
 70
     0
  3
_ _ _ _ _
 72
    65
 73
     2
 40
3.0
 49
2.0
 74
     0
 49
-1.0
 74
     0
  0
LTYPE
  5
26A
330
5
100
AcDbSymbolTableRecord
100
AcDbLinetypeTableRecord
  2
ACJISTGB
 70
     0
  3
__ . . __ . .
 72
    65
 73
     6
 40
9.0
 49
4.0
 74
     0
 49
-1.0
 74
     0
 49
1.0
 74
     0
 49
-1.0
 74
     0
 49
1.0
 74
     0
 49
-1.0
 74
     0
  0
ENDTAB
  0
TABLE
  2
LAYER
  5
2
330
0
100
AcDbSymbolTable
 70
     7
  0
LAYER
  5
10
330
2
100
AcDbSymbolTableRecord
100
AcDbLayerTableRecord
  2
0
 70
     0
 62
     7
  6
CONTINUOUS
  0
LAYER
  5
3F9
330
2
100
AcDbSymbolTableRecord
100
AcDbLayerTableRecord
  2
AM_0
 70
     0
 62
     7
  6
CONTINUOUS
  0
LAYER
  5
BD6
330
2
100
AcDbSymbolTableRecord
100
AcDbLayerTableRecord
  2
AM_11
 70
     0
 62
     3
  6
AM_ISO09W050
  0
LAYER
  5
BD7
330
2
100
AcDbSymbolTableRecord
100
AcDbLayerTableRecord
  2
AM_7
 70
     0
 62
     4
  6
AM_ISO08W050
  0
LAYER
  5
BD8
330
2
100
AcDbSymbolTableRecord
100
AcDbLayerTableRecord
  2
AM_5
 70
     0
 62
     3
  6
CONTINUOUS
  0
LAYER
  5
BD9
330
2
100
AcDbSymbolTableRecord
100
AcDbLayerTableRecord
  2
DEFPOINTS
 70
     0
 62
     7
  6
CONTINUOUS
  0
LAYER
  5
BDA
330
2
100
AcDbSymbolTableRecord
100
AcDbLayerTableRecord
  2
AM_6
 70
     0
 62
     2
  6
CONTINUOUS
  0
ENDTAB
  0
TABLE
  2
STYLE
  5
3
330
0
100
AcDbSymbolTable
 70
     5
  0
STYLE
  5
11
330
3
100
AcDbSymbolTableRecord
100
AcDbTextStyleTableRecord
  2
STANDARD
 70
     0
 40
0.0
 41
1.0
 50
0.0
 71
     0
 42
2.5
  3
simplex.shx
  4
EXTFONT.SHX
  0
STYLE
  5
52
330
3
100
AcDbSymbolTableRecord
100
AcDbTextStyleTableRecord
  2

 70
     1
 40
0.0
 41
1.0
 50
0.0
 71
     0
 42
2.5
  3
ltypeshp.shx
  4

  0
STYLE
  5
6B
330
3
100
AcDbSymbolTableRecord
100
AcDbTextStyleTableRecord
  2
ASAMI
 70
     0
 40
0.0
 41
1.0
 50
0.0
 71
     0
 42
2.5
  3
simplex.shx
  4
EXTFONT.SHX
  0
STYLE
  5
262
330
3
100
AcDbSymbolTableRecord
100
AcDbTextStyleTableRecord
  2
ACJISTS
 70
     0
 40
1.0
 41
1.0
 50
0.0
 71
     0
 42
2.5
  3
simplex.shx
  4
bigfont.shx
  0
STYLE
  5
269
330
3
100
AcDbSymbolTableRecord
100
AcDbTextStyleTableRecord
  2
ACJISGDT
 70
     0
 40
0.0
 41
1.0
 50
0.0
 71
     0
 42
2.5
  3
amgdtans.shx
  4

  0
ENDTAB
  0
TABLE
  2
VIEW
  5
6
330
0
100
AcDbSymbolTable
 70
     0
  0
ENDTAB
  0
TABLE
  2
UCS
  5
7
330
0
100
AcDbSymbolTable
 70
     0
  0
ENDTAB
  0
TABLE
  2
APPID
  5
9
330
0
100
AcDbSymbolTable
 70
    13
  0
APPID
  5
12
330
9
100
AcDbSymbolTableRecord
100
AcDbRegAppTableRecord
  2
ACAD
 70
     0
  0
APPID
  5
30
330
9
100
AcDbSymbolTableRecord
100
AcDbRegAppTableRecord
  2
MCAD_NO_VIS
 70
     0
  0
APPID
  5
31
330
9
100
AcDbSymbolTableRecord
100
AcDbRegAppTableRecord
  2
ACAD_TEMP_GRAPHIC
 70
     0
  0
APPID
  5
2C2
330
9
100
AcDbSymbolTableRecord
100
AcDbRegAppTableRecord
  2
GENIUS_GENDTOL_13
 70
     0
  0
APPID
  5
339
330
9
100
AcDbSymbolTableRecord
100
AcDbRegAppTableRecord
  2
GENIUS_GENODEF_13
 70
     0
  0
APPID
  5
33A
330
9
100
AcDbSymbolTableRecord
100
AcDbRegAppTableRecord
  2
GENIUS_GENOBJ-N-RSBK_13
 70
     0
  0
APPID
  5
33B
330
9
100
AcDbSymbolTableRecord
100
AcDbRegAppTableRecord
  2
GENIUS_GENOBJ-N-LIB_13
 70
     0
  0
APPID
  5
33C
330
9
100
AcDbSymbolTableRecord
100
AcDbRegAppTableRecord
  2
GENIUS_GENSCALE_13
 70
     0
  0
APPID
  5
378
330
9
100
AcDbSymbolTableRecord
100
AcDbRegAppTableRecord
  2
GENIUS_GENDIMSH_14
 70
     0
  0
APPID
  5
BDB
330
9
100
AcDbSymbolTableRecord
100
AcDbRegAppTableRecord
  2
GENIUS_GENOBJ-N-CEN_13
 70
     0
  0
APPID
  5
BDC
330
9
100
AcDbSymbolTableRecord
100
AcDbRegAppTableRecord
  2
GENIUS_GENFIL_13
 70
     0
  0
APPID
  5
BDD
330
9
100
AcDbSymbolTableRecord
100
AcDbRegAppTableRecord
  2
GENIUS_GENOBJ-N-FIL_13
 70
     0
  0
APPID
  5
12AD
330
9
100
AcDbSymbolTableRecord
100
AcDbRegAppTableRecord
  2
GENIUS_GENOREF_13
 70
     0
  0
ENDTAB
  0
TABLE
  2
DIMSTYLE
  5
A
330
0
100
AcDbSymbolTable
 70
     8
  0
DIMSTYLE
105
58
102
{ACAD_REACTORS
330
8BB0
330
8BC6
330
8BD3
330
8EB7
330
8EC4
102
}
330
A
100
AcDbSymbolTableRecord
100
AcDbDimStyleTableRecord
  2
AM_JIS
 70
     0
  3

  4
"
  5
OPEN30
  6

  7

 40
1.0
 41
2.5
 42
1.0
 43
12.0
 44
1.0
 45
0.0
 46
0.0
 47
0.1
 48
0.1
140
3.2
141
0.0
142
0.0
143
0.0393701
144
1.0
145
0.0
146
0.71
147
1.5
 71
     0
 72
     0
 73
     0
 74
     0
 75
     0
 76
     0
 77
     3
 78
     8
170
     0
171
     2
172
     1
173
     0
174
     0
175
     0
176
     3
177
     3
178
     2
270
     2
271
     3
272
     3
273
     2
274
     2
340
6B
275
     0
280
     0
281
     0
282
     0
283
     0
284
     0
285
     0
286
     0
287
     3
288
     0
  0
DIMSTYLE
105
5F
330
A
100
AcDbSymbolTableRecord
100
AcDbDimStyleTableRecord
  2
AM_JIS$3
 70
     0
  3

  4
"
  5
OPEN30
  6

  7

 40
1.0
 41
2.5
 42
1.0
 43
10.0
 44
1.0
 45
0.0
 46
0.0
 47
0.1
 48
0.1
140
3.2
141
0.0
142
0.0
143
0.0393701
144
1.0
145
0.0
146
0.71
147
1.5
 71
     0
 72
     0
 73
     0
 74
     1
 75
     0
 76
     0
 77
     3
 78
     8
170
     0
171
     2
172
     0
173
     0
174
     0
175
     0
176
     3
177
     3
178
     2
270
     2
271
     2
272
     3
273
     2
274
     2
340
6B
275
     0
280
     0
281
     0
282
     0
283
     0
284
     0
285
     0
286
     0
287
     0
288
     1
  0
DIMSTYLE
105
60
330
A
100
AcDbSymbolTableRecord
100
AcDbDimStyleTableRecord
  2
AM_JIS$4
 70
     0
  3

  4
"
  5
OPEN30
  6

  7

 40
1.0
 41
2.5
 42
1.0
 43
10.0
 44
1.0
 45
0.0
 46
0.0
 47
0.1
 48
0.1
140
3.2
141
0.0
142
0.0
143
0.0393701
144
1.0
145
0.0
146
0.71
147
1.5
 71
     0
 72
     0
 73
     0
 74
     1
 75
     0
 76
     0
 77
     3
 78
     8
170
     0
171
     2
172
     0
173
     0
174
     0
175
     0
176
     3
177
     3
178
     2
270
     2
271
     2
272
     3
273
     2
274
     2
340
6B
275
     0
280
     0
281
     0
282
     0
283
     0
284
     0
285
     0
286
     0
287
     0
288
     1
  0
DIMSTYLE
105
61
330
A
100
AcDbSymbolTableRecord
100
AcDbDimStyleTableRecord
  2
AM_JIS$6
 70
     0
  3

  4
"
  5
OPEN30
  6

  7

 40
1.0
 41
2.5
 42
1.0
 43
10.0
 44
1.0
 45
0.0
 46
0.0
 47
0.1
 48
0.1
140
3.2
141
0.0
142
0.0
143
0.0393701
144
1.0
145
0.0
146
0.71
147
1.5
 71
     0
 72
     0
 73
     0
 74
     0
 75
     0
 76
     0
 77
     0
 78
     8
170
     0
171
     2
172
     1
173
     0
174
     0
175
     0
176
     3
177
     3
178
     2
270
     2
271
     2
272
     2
273
     2
274
     2
340
6B
275
     0
280
     0
281
     0
282
     0
283
     0
284
     0
285
     0
286
     0
287
     3
288
     0
  0
DIMSTYLE
105
62
330
A
100
AcDbSymbolTableRecord
100
AcDbDimStyleTableRecord
  2
AM_JIS$7
 70
     0
  3

  4
"
  5
OPEN30
  6

  7

 40
1.0
 41
2.5
 42
1.0
 43
10.0
 44
1.0
 45
0.0
 46
0.0
 47
0.1
 48
0.1
140
3.2
141
0.0
142
0.0
143
0.0393701
144
1.0
145
0.0
146
0.71
147
1.5
 71
     0
 72
     0
 73
     0
 74
     0
 75
     0
 76
     0
 77
     3
 78
     8
170
     0
171
     2
172
     1
173
     0
174
     0
175
     0
176
     3
177
     3
178
     2
270
     2
271
     2
272
     3
273
     2
274
     2
340
6B
275
     0
280
     0
281
     0
282
     0
283
     0
284
     0
285
     0
286
     0
287
     3
288
     0
  0
DIMSTYLE
105
63
330
A
100
AcDbSymbolTableRecord
100
AcDbDimStyleTableRecord
  2
AM_JIS$SF
 70
     0
  3

  4
"
  5
OPEN30
  6

  7

 40
1.0
 41
2.5
 42
1.0
 43
10.0
 44
1.0
 45
0.0
 46
0.0
 47
0.1
 48
0.1
140
3.2
141
0.0
142
0.0
143
0.0393701
144
1.0
145
0.0
146
0.71
147
1.5
 71
     0
 72
     0
 73
     0
 74
     0
 75
     1
 76
     1
 77
     3
 78
     8
170
     0
171
     2
172
     1
173
     0
174
     0
175
     0
176
   256
177
   256
178
     2
270
     2
271
     2
272
     2
273
     2
274
     2
340
6B
275
     0
280
     0
281
     0
282
     0
283
     0
284
     0
285
     0
286
     0
287
     3
288
     0
  0
DIMSTYLE
105
68
330
A
100
AcDbSymbolTableRecord
100
AcDbDimStyleTableRecord
  2
AM_JIS$SH
 70
     0
  3

  4
"
  5

  6
GENAXEH
  7
OPEN30
 40
1.0
 41
2.5
 42
1.0
 43
10.0
 44
1.0
 45
0.0
 46
0.0
 47
0.1
 48
0.1
140
3.2
141
0.0
142
0.0
143
0.0393701
144
2.0
145
0.0
146
0.71
147
1.5
 71
     0
 72
     0
 73
     0
 74
     0
 75
     1
 76
     1
 77
     3
 78
     8
170
     0
171
     2
172
     1
173
     1
174
     0
175
     0
176
   256
177
   256
178
     2
270
     2
271
     2
272
     2
273
     2
274
     2
340
6B
275
     0
280
     0
281
     0
282
     0
283
     0
284
     0
285
     0
286
     0
287
     3
288
     0
  0
DIMSTYLE
105
B34
102
{ACAD_REACTORS
330
8DE1
330
8EA5
102
}
330
A
100
AcDbSymbolTableRecord
100
AcDbDimStyleTableRecord
  2
AM_JIS$2
 70
     0
  3

  4
"
  5
OPEN30
  6

  7

 40
1.0
 41
2.5
 42
1.0
 43
12.0
 44
1.0
 45
0.0
 46
0.0
 47
0.1
 48
0.1
140
3.2
141
0.0
142
0.0
143
0.0393701
144
1.0
145
0.0
146
0.71
147
1.5
 71
     0
 72
     0
 73
     0
 74
     0
 75
     0
 76
     0
 77
     3
 78
     8
170
     0
171
     2
172
     1
173
     0
174
     0
175
     0
176
     3
177
     3
178
     2
270
     2
271
     3
272
     3
273
     2
274
     2
340
6B
275
     0
280
     0
281
     0
282
     0
283
     0
284
     0
285
     0
286
     0
287
     3
288
     0
  0
ENDTAB
  0
TABLE
  2
BLOCK_RECORD
  5
1
330
0
100
AcDbSymbolTable
 70
    12
  0
BLOCK_RECORD
  5
1F
102
{ACAD_XDICTIONARY
360
74
102
}
330
1
100
AcDbSymbolTableRecord
100
AcDbBlockTableRecord
  2
*MODEL_SPACE
  0
BLOCK_RECORD
  5
101
102
{ACAD_XDICTIONARY
360
9072
102
}
330
1
100
AcDbSymbolTableRecord
100
AcDbBlockTableRecord
  2
*PAPER_SPACE
  0
BLOCK_RECORD
  5
59
330
1
100
AcDbSymbolTableRecord
100
AcDbBlockTableRecord
  2
_OPEN30
  0
BLOCK_RECORD
  5
64
330
1
100
AcDbSymbolTableRecord
100
AcDbBlockTableRecord
  2
GENAXEH
  0
BLOCK_RECORD
  5
8BB1
330
1
100
AcDbSymbolTableRecord
100
AcDbBlockTableRecord
  2
*D5
  0
BLOCK_RECORD
  5
8BC7
330
1
100
AcDbSymbolTableRecord
100
AcDbBlockTableRecord
  2
*D6
  0
BLOCK_RECORD
  5
8BD4
330
1
100
AcDbSymbolTableRecord
100
AcDbBlockTableRecord
  2
*D7
  0
BLOCK_RECORD
  5
8DE2
330
1
100
AcDbSymbolTableRecord
100
AcDbBlockTableRecord
  2
*D8
  0
BLOCK_RECORD
  5
8EA6
330
1
100
AcDbSymbolTableRecord
100
AcDbBlockTableRecord
  2
*D9
  0
BLOCK_RECORD
  5
8EB8
330
1
100
AcDbSymbolTableRecord
100
AcDbBlockTableRecord
  2
*D10
  0
BLOCK_RECORD
  5
8EC5
330
1
100
AcDbSymbolTableRecord
100
AcDbBlockTableRecord
  2
*D11
  0
ENDTAB
  0
ENDSEC
  0
SECTION
  2
BLOCKS
  0
BLOCK
  5
20
330
1F
100
AcDbEntity
  8
0
100
AcDbBlockBegin
  2
*MODEL_SPACE
 70
     0
 10
0.0
 20
0.0
 30
0.0
  3
*MODEL_SPACE
  1

  0
ENDBLK
  5
21
330
1F
100
AcDbEntity
  8
0
100
AcDbBlockEnd
  0
BLOCK
  5
103
330
101
100
AcDbEntity
 67
     1
  8
0
100
AcDbBlockBegin
  2
*PAPER_SPACE
 70
     0
 10
0.0
 20
0.0
 30
0.0
  3
*PAPER_SPACE
  1

  0
ENDBLK
  5
104
330
101
100
AcDbEntity
 67
     1
  8
0
100
AcDbBlockEnd
  0
BLOCK
  5
5D
330
59
100
AcDbEntity
  8
0
100
AcDbBlockBegin
  2
_OPEN30
 70
     0
 10
0.0
 20
0.0
 30
0.0
  3
_OPEN30
  1

  0
LINE
  5
5A
330
59
100
AcDbEntity
  8
0
 62
     0
100
AcDbLine
 10
-1.0
 20
0.26794919
 30
0.0
 11
0.0
 21
0.0
 31
0.0
  0
LINE
  5
5B
330
59
100
AcDbEntity
  8
0
 62
     0
100
AcDbLine
 10
0.0
 20
0.0
 30
0.0
 11
-1.0
 21
-0.26794919
 31
0.0
  0
LINE
  5
5C
330
59
100
AcDbEntity
  8
0
 62
     0
100
AcDbLine
 10
0.0
 20
0.0
 30
0.0
 11
-1.0
 21
0.0
 31
0.0
  0
ENDBLK
  5
5E
330
59
100
AcDbEntity
  8
0
100
AcDbBlockEnd
  0
BLOCK
  5
66
330
64
100
AcDbEntity
  8
0
100
AcDbBlockBegin
  2
GENAXEH
 70
     0
 10
0.0
 20
0.0
 30
0.0
  3
GENAXEH
  1

  0
LINE
  5
65
330
64
100
AcDbEntity
  8
0
100
AcDbLine
 10
-1.0
 20
0.0
 30
0.0
 11
1.0
 21
0.0
 31
0.0
  0
ENDBLK
  5
67
330
64
100
AcDbEntity
  8
0
100
AcDbBlockEnd
  0
BLOCK
  5
8BBB
330
8BB1
100
AcDbEntity
  8
0
100
AcDbBlockBegin
  2
*D5
 70
     1
 10
0.0
 20
0.0
 30
0.0
  3
*D5
  1

  0
LINE
  5
8FD9
330
8BB1
100
AcDbEntity
  8
AM_5
 62
     3
100
AcDbLine
 10
0.0
 20
-11.64888527117067
 30
0.0
 11
-0.0000000000000023
 21
-48.99999999999998
 31
0.0
  0
LINE
  5
8FDA
330
8BB1
100
AcDbEntity
  8
AM_5
 62
     3
100
AcDbLine
 10
-150.0
 20
-35.0
 30
0.0
 11
-150.0
 21
-48.99999999999998
 31
0.0
  0
LINE
  5
8FDB
330
8BB1
100
AcDbEntity
  8
AM_5
 62
     3
100
AcDbLine
 10
-2.500000000000002
 20
-47.99999999999998
 30
0.0
 11
-147.5
 21
-47.99999999999998
 31
0.0
  0
INSERT
  5
8FDC
330
8BB1
100
AcDbEntity
  8
AM_5
 62
     3
100
AcDbBlockReference
  2
_OPEN30
 10
-0.0000000000000022
 20
-47.99999999999998
 30
0.0
 41
2.5
 42
2.5
 43
2.5
  0
INSERT
  5
8FDD
330
8BB1
100
AcDbEntity
  8
AM_5
 62
     3
100
AcDbBlockReference
  2
_OPEN30
 10
-150.0
 20
-47.99999999999998
 30
0.0
 41
2.5
 42
2.5
 43
2.5
 50
180.0
  0
MTEXT
  5
8FDE
330
8BB1
100
AcDbEntity
  8
AM_5
 62
     2
100
AcDbMText
 10
-75.0
 20
-44.89999999999998
 30
0.0
 40
3.2
 41
0.0
 71
     5
 72
     1
  1
150
  7
ASAMI
1001
ACAD
1000
MTEXTBEGIN
1070
    73
1070
     1
1070
    44
1040
1.0
1070
    74
1070
     0
1000
MTEXTEND
  0
POINT
  5
8FDF
330
8BB1
100
AcDbEntity
  8
DEFPOINTS
 62
     0
100
AcDbPoint
 10
0.0000000000000001
 20
-10.64888527117066
 30
0.0
  0
POINT
  5
8FE0
330
8BB1
100
AcDbEntity
  8
DEFPOINTS
 62
     0
100
AcDbPoint
 10
-150.0
 20
-34.0
 30
0.0
  0
POINT
  5
8FE1
330
8BB1
100
AcDbEntity
  8
DEFPOINTS
 62
     0
100
AcDbPoint
 10
-150.0
 20
-47.99999999999998
 30
0.0
  0
ENDBLK
  5
8BBC
330
8BB1
100
AcDbEntity
  8
0
100
AcDbBlockEnd
  0
BLOCK
  5
8BD1
330
8BC7
100
AcDbEntity
  8
0
100
AcDbBlockBegin
  2
*D6
 70
     1
 10
0.0
 20
0.0
 30
0.0
  3
*D6
  1

  0
LINE
  5
8FA9
330
8BC7
100
AcDbEntity
  8
AM_5
 62
     3
100
AcDbLine
 10
0.9999999999999925
 20
-2.0
 30
0.0
 11
13.34388432018044
 21
-2.000000000000003
 31
0.0
  0
LINE
  5
8FAA
330
8BC7
100
AcDbEntity
  8
AM_5
 62
     3
100
AcDbLine
 10
-22.13000000000001
 20
-34.0
 30
0.0
 11
13.34388432018044
 21
-34.0
 31
0.0
  0
LINE
  5
8FAB
330
8BC7
100
AcDbEntity
  8
AM_5
 62
     3
100
AcDbLine
 10
12.34388432018044
 20
-4.500000000000003
 30
0.0
 11
12.34388432018043
 21
-31.50000000000001
 31
0.0
  0
INSERT
  5
8FAC
330
8BC7
100
AcDbEntity
  8
AM_5
 62
     3
100
AcDbBlockReference
  2
_OPEN30
 10
12.34388432018044
 20
-2.000000000000003
 30
0.0
 41
2.5
 42
2.5
 43
2.5
 50
90.0
  0
INSERT
  5
8FAD
330
8BC7
100
AcDbEntity
  8
AM_5
 62
     3
100
AcDbBlockReference
  2
_OPEN30
 10
12.34388432018043
 20
-34.0
 30
0.0
 41
2.5
 42
2.5
 43
2.5
 50
270.0
  0
MTEXT
  5
8FAE
330
8BC7
100
AcDbEntity
  8
AM_5
 62
     2
100
AcDbMText
 10
9.243884320180443
 20
-18.0
 30
0.0
 40
3.2
 41
0.0
 71
     5
 72
     1
  1
32
  7
ASAMI
 11
0.0000000000000001
 21
1.0
 31
0.0
1001
ACAD
1000
MTEXTBEGIN
1070
    73
1070
     1
1070
    44
1040
1.0
1070
    74
1070
     0
1000
MTEXTEND
  0
POINT
  5
8FAF
330
8BC7
100
AcDbEntity
  8
DEFPOINTS
 62
     0
100
AcDbPoint
 10
-0.0000000000000074
 20
-2.0
 30
0.0
  0
POINT
  5
8FB0
330
8BC7
100
AcDbEntity
  8
DEFPOINTS
 62
     0
100
AcDbPoint
 10
-23.13000000000001
 20
-34.0
 30
0.0
  0
POINT
  5
8FB1
330
8BC7
100
AcDbEntity
  8
DEFPOINTS
 62
     0
100
AcDbPoint
 10
12.34388432018043
 20
-34.0
 30
0.0
  0
ENDBLK
  5
8BD2
330
8BC7
100
AcDbEntity
  8
0
100
AcDbBlockEnd
  0
BLOCK
  5
8BDE
330
8BD4
100
AcDbEntity
  8
0
100
AcDbBlockBegin
  2
*D7
 70
     1
 10
0.0
 20
0.0
 30
0.0
  3
*D7
  1

  0
LINE
  5
8F8B
330
8BD4
100
AcDbEntity
  8
AM_5
 62
     3
100
AcDbLine
 10
-151.0
 20
-9.0
 30
0.0
 11
-165.9772136541441
 21
-8.999999999999994
 31
0.0
  0
LINE
  5
8F8C
330
8BD4
100
AcDbEntity
  8
AM_5
 62
     3
100
AcDbLine
 10
-151.0
 20
-34.0
 30
0.0
 11
-165.9772136541441
 21
-34.0
 31
0.0
  0
LINE
  5
8F8D
330
8BD4
100
AcDbEntity
  8
AM_5
 62
     3
100
AcDbLine
 10
-164.9772136541441
 20
-11.49999999999999
 30
0.0
 11
-164.9772136541441
 21
-31.5
 31
0.0
  0
INSERT
  5
8F8E
330
8BD4
100
AcDbEntity
  8
AM_5
 62
     3
100
AcDbBlockReference
  2
_OPEN30
 10
-164.9772136541441
 20
-8.999999999999994
 30
0.0
 41
2.5
 42
2.5
 43
2.5
 50
90.0
  0
INSERT
  5
8F8F
330
8BD4
100
AcDbEntity
  8
AM_5
 62
     3
100
AcDbBlockReference
  2
_OPEN30
 10
-164.9772136541441
 20
-34.0
 30
0.0
 41
2.5
 42
2.5
 43
2.5
 50
270.0
  0
MTEXT
  5
8F90
330
8BD4
100
AcDbEntity
  8
AM_5
 62
     2
100
AcDbMText
 10
-168.0772136541441
 20
-21.50000000000002
 30
0.0
 40
3.2
 41
0.0
 71
     5
 72
     1
  1
25
  7
ASAMI
 11
0.0000000000000001
 21
1.0
 31
0.0
1001
ACAD
1000
MTEXTBEGIN
1070
    73
1070
     1
1070
    44
1040
1.0
1070
    74
1070
     0
1000
MTEXTEND
  0
POINT
  5
8F91
330
8BD4
100
AcDbEntity
  8
DEFPOINTS
 62
     0
100
AcDbPoint
 10
-150.0
 20
-9.0
 30
0.0
  0
POINT
  5
8F92
330
8BD4
100
AcDbEntity
  8
DEFPOINTS
 62
     0
100
AcDbPoint
 10
-150.0
 20
-34.0
 30
0.0
  0
POINT
  5
8F93
330
8BD4
100
AcDbEntity
  8
DEFPOINTS
 62
     0
100
AcDbPoint
 10
-164.9772136541441
 20
-34.0
 30
0.0
  0
ENDBLK
  5
8BDF
330
8BD4
100
AcDbEntity
  8
0
100
AcDbBlockEnd
  0
BLOCK
  5
8DEE
330
8DE2
100
AcDbEntity
  8
0
100
AcDbBlockBegin
  2
*D8
 70
     1
 10
0.0
 20
0.0
 30
0.0
  3
*D8
  1

  0
LINE
  5
9074
330
8DE2
100
AcDbEntity
  8
AM_0
 62
     3
100
AcDbLine
 10
-0.0000000000000071
 20
-1.0
 30
0.0
 11
-0.0000000000000071
 21
14.17709752409085
 31
0.0
  0
LINE
  5
9075
330
8DE2
100
AcDbEntity
  8
AM_0
 62
     3
100
AcDbLine
 10
-8.790306627407993
 20
-1.527207793864218
 30
0.0
 11
-17.32030620909922
 21
7.002791787827033
 31
0.0
  0
ARC
  5
9076
330
8DE2
100
AcDbEntity
  8
AM_0
 62
     3
100
AcDbCircle
 10
-0.0000000000000084
 20
-10.31751442127219
 30
0.0
 40
23.49461194536304
100
AcDbArc
 50
96.0995734558123
 51
128.9004265441876
  0
INSERT
  5
9077
330
8DE2
100
AcDbEntity
  8
AM_0
 62
     3
100
AcDbBlockReference
  2
_OPEN30
 10
-0.0000000000000062
 20
13.17709752409085
 30
0.0
 41
2.5
 42
2.5
 43
2.5
 50
3.049786727906153
  0
INSERT
  5
9078
330
8DE2
100
AcDbEntity
  8
AM_0
 62
     3
100
AcDbBlockReference
  2
_OPEN30
 10
-16.61319942791267
 20
6.295685006640484
 30
0.0
 41
2.5
 42
2.5
 43
2.5
 50
221.9502132720938
  0
MTEXT
  5
9079
330
8DE2
100
AcDbEntity
  8
AM_0
 62
     2
100
AcDbMText
 10
-10.17731738166915
 20
14.2527032301289
 30
0.0
 40
3.2
 41
0.0
 71
     5
 72
     1
  1
45°
  7
ASAMI
 11
0.9238795325112867
 21
0.3826834323650898
 31
0.0
  0
POINT
  5
907A
330
8DE2
100
AcDbEntity
  8
DEFPOINTS
 62
     0
100
AcDbPoint
 10
-6.080853028753146
 20
12.37653803539362
 30
0.0
  0
POINT
  5
907B
330
8DE2
100
AcDbEntity
  8
DEFPOINTS
 62
     0
100
AcDbPoint
 10
-0.0000000000000071
 20
-2.0
 30
0.0
  0
POINT
  5
907C
330
8DE2
100
AcDbEntity
  8
DEFPOINTS
 62
     0
100
AcDbPoint
 10
-0.2343145750507669
 20
-10.08319984622143
 30
0.0
  0
POINT
  5
907D
330
8DE2
100
AcDbEntity
  8
DEFPOINTS
 62
     0
100
AcDbPoint
 10
-8.083199846221447
 20
-2.234314575050766
 30
0.0
  0
POINT
  5
907E
330
8DE2
100
AcDbEntity
  8
DEFPOINTS
 62
     0
100
AcDbPoint
 10
-0.0000000000000084
 20
-10.64888527117066
 30
0.0
  0
ENDBLK
  5
8DEF
330
8DE2
100
AcDbEntity
  8
0
100
AcDbBlockEnd
  0
BLOCK
  5
8EB5
330
8EA6
100
AcDbEntity
  8
0
100
AcDbBlockBegin
  2
*D9
 70
     1
 10
0.0
 20
0.0
 30
0.0
  3
*D9
  1

  0
LINE
  5
907F
330
8EA6
100
AcDbEntity
  8
AM_5
 62
     3
100
AcDbLine
 10
-26.69922107846784
 20
17.782157190395
 30
0.0
 11
-19.06089897798066
 21
27.91855297971523
 31
0.0
  0
ARC
  5
9080
330
8EA6
100
AcDbEntity
  8
AM_5
 62
     3
100
AcDbCircle
 10
-27.30103610161989
 20
16.98352168034771
 30
0.0
 40
12.69214261299248
100
AcDbArc
 50
22.39199303634152
 51
33.69599651817077
  0
ARC
  5
9081
330
8EA6
100
AcDbEntity
  8
AM_5
 62
     3
100
AcDbCircle
 10
-27.30103610161989
 20
16.98352168034771
 30
0.0
 40
12.69214261299248
100
AcDbArc
 50
64.30400348182924
 51
75.60800696365849
  0
ARC
  5
9082
330
8EA6
100
AcDbEntity
  8
AM_5
 62
     3
100
AcDbCircle
 10
-27.30103610161989
 20
16.98352168034771
 30
0.0
 40
12.69214261299248
100
AcDbArc
 50
45.00000000000003
 51
52.99999999999998
  0
INSERT
  5
9083
330
8EA6
100
AcDbEntity
  8
AM_5
 62
     3
100
AcDbBlockReference
  2
_OPEN30
 10
-18.32633599218616
 20
25.95822178978145
 30
0.0
 41
2.5
 42
2.5
 43
2.5
 50
129.3479982590854
  0
INSERT
  5
9084
330
8EA6
100
AcDbEntity
  8
AM_5
 62
     3
100
AcDbBlockReference
  2
_OPEN30
 10
-19.66271400113271
 20
27.11991746966794
 30
0.0
 41
2.5
 42
2.5
 43
2.5
 50
328.6520017409146
  0
MTEXT
  5
9085
330
8EA6
100
AcDbEntity
  8
AM_5
 62
     2
100
AcDbMText
 10
-23.40571332704797
 20
32.28771159000952
 30
0.0
 40
3.2
 41
0.0
 71
     5
 72
     1
  1
-8°
  7
ASAMI
 11
0.9691015516204101
 21
-0.2466620818993336
 31
0.0
  0
POINT
  5
9086
330
8EA6
100
AcDbEntity
  8
DEFPOINTS
 62
     0
100
AcDbPoint
 10
-18.75360531764735
 20
26.36605391326536
 30
0.0
  0
POINT
  5
9087
330
8EA6
100
AcDbEntity
  8
DEFPOINTS
 62
     0
100
AcDbPoint
 10
-26.59392932043341
 20
17.69062846153419
 30
0.0
  0
POINT
  5
9088
330
8EA6
100
AcDbEntity
  8
DEFPOINTS
 62
     0
100
AcDbPoint
 10
-35.01919953159285
 20
6.741172868182079
 30
0.0
  0
POINT
  5
9089
330
8EA6
100
AcDbEntity
  8
DEFPOINTS
 62
     0
100
AcDbPoint
 10
-27.30103610161995
 20
16.98352168034763
 30
0.0
  0
POINT
  5
908A
330
8EA6
100
AcDbEntity
  8
DEFPOINTS
 62
     0
100
AcDbPoint
 10
-11.93073033716504
 20
32.35382744480259
 30
0.0
  0
ENDBLK
  5
8EB6
330
8EA6
100
AcDbEntity
  8
0
100
AcDbBlockEnd
  0
BLOCK
  5
8EC2
330
8EB8
100
AcDbEntity
  8
0
100
AcDbBlockBegin
  2
*D10
 70
     1
 10
0.0
 20
0.0
 30
0.0
  3
*D10
  1

  0
LINE
  5
8F94
330
8EB8
100
AcDbEntity
  8
AM_5
 62
     3
100
AcDbLine
 10
-26.59392932043338
 20
17.69062846153418
 30
0.0
 11
-12.0983328410174
 21
32.18622494095016
 31
0.0
  0
LINE
  5
8F95
330
8EB8
100
AcDbEntity
  8
AM_5
 62
     3
100
AcDbLine
 10
-46.6343038493824
 20
32.298486210726
 30
0.0
 11
-29.42244898008782
 21
49.51034108002058
 31
0.0
  0
LINE
  5
8F96
330
8EB8
100
AcDbEntity
  8
AM_5
 62
     3
100
AcDbLine
 10
-14.57320657517032
 20
33.24688511272998
 30
0.0
 11
-28.361788808308
 21
47.03546734586767
 31
0.0
  0
INSERT
  5
8F97
330
8EB8
100
AcDbEntity
  8
AM_5
 62
     3
100
AcDbBlockReference
  2
_OPEN30
 10
-12.80543962220395
 20
31.47911815976361
 30
0.0
 41
2.5
 42
2.5
 43
2.5
 50
315.0
  0
INSERT
  5
8F98
330
8EB8
100
AcDbEntity
  8
AM_5
 62
     3
100
AcDbBlockReference
  2
_OPEN30
 10
-30.12955576127437
 20
48.80323429883404
 30
0.0
 41
2.5
 42
2.5
 43
2.5
 50
135.0
  0
MTEXT
  5
8F99
330
8EB8
100
AcDbEntity
  8
AM_5
 62
     2
100
AcDbMText
 10
-19.27546667006086
 20
42.33320725097711
 30
0.0
 40
3.2
 41
0.0
 71
     5
 72
     1
  1
24.5
  7
ASAMI
 11
0.7071067811865476
 21
-0.7071067811865475
 31
0.0
1001
ACAD
1000
MTEXTBEGIN
1070
    73
1070
     1
1070
    44
1040
1.0
1070
    74
1070
     0
1000
MTEXTEND
  0
POINT
  5
8F9A
330
8EB8
100
AcDbEntity
  8
DEFPOINTS
 62
     0
100
AcDbPoint
 10
-27.30103610161993
 20
16.98352168034763
 30
0.0
  0
POINT
  5
8F9B
330
8EB8
100
AcDbEntity
  8
DEFPOINTS
 62
     0
100
AcDbPoint
 10
-47.34141063056895
 20
31.59137942953945
 30
0.0
  0
POINT
  5
8F9C
330
8EB8
100
AcDbEntity
  8
DEFPOINTS
 62
     0
100
AcDbPoint
 10
-30.12955576127437
 20
48.80323429883404
 30
0.0
  0
ENDBLK
  5
8EC3
330
8EB8
100
AcDbEntity
  8
0
100
AcDbBlockEnd
  0
BLOCK
  5
8ECF
330
8EC5
100
AcDbEntity
  8
0
100
AcDbBlockBegin
  2
*D11
 70
     1
 10
0.0
 20
0.0
 30
0.0
  3
*D11
  1

  0
LINE
  5
8FB2
330
8EC5
100
AcDbEntity
  8
AM_5
 62
     3
100
AcDbLine
 10
-41.51984172850126
 20
2.057609272279705
 30
0.0
 11
-46.93660560595445
 21
-3.359154605173468
 31
0.0
  0
LINE
  5
8FB3
330
8EC5
100
AcDbEntity
  8
AM_5
 62
     3
100
AcDbLine
 10
-59.19751125816499
 20
19.73527880194341
 30
0.0
 11
-64.61427513561815
 21
14.31851492449024
 31
0.0
  0
LINE
  5
8FB4
330
8EC5
100
AcDbEntity
  8
AM_5
 62
     3
100
AcDbLine
 10
-47.99726577773427
 20
-0.8842808710205538
 30
0.0
 11
-62.13940140146523
 21
13.25785475271042
 31
0.0
  0
INSERT
  5
8FB5
330
8EC5
100
AcDbEntity
  8
AM_5
 62
     3
100
AcDbBlockReference
  2
_OPEN30
 10
-46.2294988247679
 20
-2.652047823986922
 30
0.0
 41
2.5
 42
2.5
 43
2.5
 50
315.0
  0
INSERT
  5
8FB6
330
8EC5
100
AcDbEntity
  8
AM_5
 62
     3
100
AcDbBlockReference
  2
_OPEN30
 10
-63.90716835443161
 20
15.02562170567679
 30
0.0
 41
2.5
 42
2.5
 43
2.5
 50
135.0
  0
MTEXT
  5
8FB7
330
8EC5
100
AcDbEntity
  8
AM_5
 62
     2
100
AcDbMText
 10
-52.87630256792145
 20
8.378817962523225
 30
0.0
 40
3.2
 41
0.0
 71
     5
 72
     1
  1
25
  7
ASAMI
 11
0.7071067811865476
 21
-0.7071067811865475
 31
0.0
1001
ACAD
1000
MTEXTBEGIN
1070
    73
1070
     1
1070
    44
1040
1.0
1070
    74
1070
     0
1000
MTEXTEND
  0
POINT
  5
8FB8
330
8EC5
100
AcDbEntity
  8
DEFPOINTS
 62
     0
100
AcDbPoint
 10
-40.81273494731472
 20
2.764716053466251
 30
0.0
  0
POINT
  5
8FB9
330
8EC5
100
AcDbEntity
  8
DEFPOINTS
 62
     0
100
AcDbPoint
 10
-58.49040447697844
 20
20.44238558312996
 30
0.0
  0
POINT
  5
8FBA
330
8EC5
100
AcDbEntity
  8
DEFPOINTS
 62
     0
100
AcDbPoint
 10
-63.90716835443161
 20
15.02562170567679
 30
0.0
  0
ENDBLK
  5
8ED0
330
8EC5
100
AcDbEntity
  8
0
100
AcDbBlockEnd
  0
ENDSEC
  0
SECTION
  2
ENTITIES
  0
TEXT
  5
C58
330
1F
100
AcDbEntity
  8
AM_6
100
AcDbText
 10
-99.04761904761903
 20
-70.50000000000007
 30
0.0
 40
5.0
  1
ESSNR2525W
 50
0.0000000000002036
 72
     4
 11
-75.0
 21
-67.99999999999998
 31
0.0
100
AcDbText
  0
LINE
  5
8B2A
330
1F
100
AcDbEntity
  8
AM_0
100
AcDbLine
 10
-15.9802561210691
 20
-9.0
 30
0.0
 11
-150.0
 21
-9.0
 31
0.0
  0
LINE
  5
8B2C
330
1F
100
AcDbEntity
  8
AM_11
 48
0.5
100
AcDbLine
 10
-0.0000000000000074
 20
-2.0
 30
0.0
 11
-0.0000000000000074
 21
-10.64888527117066
 31
0.0
  0
LINE
  5
8B31
330
1F
100
AcDbEntity
  8
AM_0
100
AcDbLine
 10
-23.13000000000001
 20
-34.0
 30
0.0
 11
-150.0
 21
-34.0
 31
0.0
  0
LINE
  5
8B37
330
1F
100
AcDbEntity
  8
AM_11
 48
0.5
100
AcDbLine
 10
-0.0000000000000074
 20
-2.0
 30
0.0
 11
-8.648885271170691
 21
-2.0
 31
0.0
  0
LINE
  5
8B3A
330
1F
100
AcDbEntity
  8
AM_0
100
AcDbLine
 10
-150.0
 20
-9.0
 30
0.0
 11
-150.0
 21
-34.0
 31
0.0
  0
LINE
  5
8B3C
330
1F
100
AcDbEntity
  8
AM_0
100
AcDbLine
 10
-27.30103610161995
 20
16.98352168034763
 30
0.0
 11
-33.64220205139544
 21
21.76193296417492
 31
0.0
  0
LINE
  5
8B3D
330
1F
100
AcDbEntity
  8
AM_0
100
AcDbLine
 10
-36.05542570374851
 20
7.522025297032492
 30
0.0
 11
-40.81273494731473
 21
2.764716053466258
 31
0.0
  0
LINE
  5
8B3F
330
1F
100
AcDbEntity
  8
AM_0
100
AcDbLine
 10
-35.01919953159285
 20
6.741172868182083
 30
0.0
 11
-27.30103610161995
 21
16.98352168034763
 31
0.0
  0
LINE
  5
8B45
330
1F
100
AcDbEntity
  8
AM_7
100
AcDbLine
 10
-56.3616926492515
 20
30.65539851037359
 30
0.0
 11
-29.34211879080803
 21
10.29468919728996
 31
0.0
  0
DIMENSION
  5
8BB0
330
1F
100
AcDbEntity
  8
AM_5
100
AcDbDimension
  2
*D5
 10
-150.0
 20
-47.99999999999998
 30
0.0
 11
-75.0
 21
-44.89999999999998
 31
0.0
 70
    32
  3
AM_JIS
100
AcDbAlignedDimension
 13
0.0000000000000001
 23
-10.64888527117066
 33
0.0
 14
-150.0
 24
-34.0
 34
0.0
 50
180.0
100
AcDbRotatedDimension
  0
DIMENSION
  5
8BC6
330
1F
100
AcDbEntity
  8
AM_5
100
AcDbDimension
  2
*D6
 10
12.34388432018043
 20
-34.0
 30
0.0
 11
9.243884320180443
 21
-18.0
 31
0.0
 70
    32
  3
AM_JIS
100
AcDbAlignedDimension
 13
-0.0000000000000074
 23
-2.0
 33
0.0
 14
-23.13000000000001
 24
-34.0
 34
0.0
 50
270.0
100
AcDbRotatedDimension
  0
DIMENSION
  5
8BD3
330
1F
100
AcDbEntity
  8
AM_5
100
AcDbDimension
  2
*D7
 10
-164.9772136541441
 20
-34.0
 30
0.0
 11
-168.0772136541441
 21
-21.50000000000002
 31
0.0
 70
    32
  3
AM_JIS
100
AcDbAlignedDimension
 13
-150.0
 23
-9.0
 33
0.0
 14
-150.0
 24
-34.0
 34
0.0
 50
270.0
100
AcDbRotatedDimension
  0
POLYLINE
  5
8CF0
330
1F
100
AcDbEntity
  8
AM_0
100
AcDb2dPolyline
 66
     1
 10
0.0
 20
0.0
 30
0.0
 70
     1
  0
VERTEX
  5
8CF1
330
8CF0
100
AcDbEntity
  8
AM_0
100
AcDbVertex
100
AcDb2dVertex
 10
-0.2343145750507677
 20
-10.08319984622143
 30
0.0
  0
VERTEX
  5
8CF2
330
8CF0
100
AcDbEntity
  8
AM_0
100
AcDbVertex
100
AcDb2dVertex
 10
-8.083199846221447
 20
-2.234314575050766
 30
0.0
 42
0.4142135623730951
  0
VERTEX
  5
8CF3
330
8CF0
100
AcDbEntity
  8
AM_0
100
AcDbVertex
100
AcDb2dVertex
 10
-9.214570696119928
 20
-2.234314575050759
 30
0.0
  0
VERTEX
  5
8CF4
330
8CF0
100
AcDbEntity
  8
AM_0
100
AcDbVertex
100
AcDb2dVertex
 10
-17.06345596729057
 20
-10.08319984622148
 30
0.0
 42
0.4142135623730946
  0
VERTEX
  5
8CF5
330
8CF0
100
AcDbEntity
  8
AM_0
100
AcDbVertex
100
AcDb2dVertex
 10
-17.06345596729056
 20
-11.21457069611996
 30
0.0
  0
VERTEX
  5
8CF6
330
8CF0
100
AcDbEntity
  8
AM_0
100
AcDbVertex
100
AcDb2dVertex
 10
-9.214570696119913
 20
-19.06345596729062
 30
0.0
 42
0.4142135623730948
  0
VERTEX
  5
8CF7
330
8CF0
100
AcDbEntity
  8
AM_0
100
AcDbVertex
100
AcDb2dVertex
 10
-8.08319984622144
 20
-19.06345596729062
 30
0.0
  0
VERTEX
  5
8CF8
330
8CF0
100
AcDbEntity
  8
AM_0
100
AcDbVertex
100
AcDb2dVertex
 10
-0.2343145750507677
 20
-11.2145706961199
 30
0.0
 42
0.4142135623730947
  0
SEQEND
  5
8CF9
330
8CF0
100
AcDbEntity
  8
AM_0
  0
CIRCLE
  5
8CFA
330
1F
100
AcDbEntity
  8
AM_0
100
AcDbCircle
 10
-8.648885271170662
 20
-10.87
 30
0.0
 40
2.5125
  0
LINE
  5
8D1E
330
1F
100
AcDbEntity
  8
AM_0
100
AcDbLine
 10
-33.87962144856162
 20
21.4468667826133
 30
0.0
 11
-47.34156774263843
 21
31.59117093478124
 31
0.0
  0
LINE
  5
8D3E
330
1F
100
AcDbEntity
  8
AM_0
100
AcDbLine
 10
-38.82070455941796
 20
9.605812378385834
 30
0.0
 11
-31.10254112944506
 21
19.84816119055138
 31
0.0
  0
LINE
  5
8D3F
330
1F
100
AcDbEntity
  8
AM_0
100
AcDbLine
 10
-35.01919953159286
 20
6.741172868182083
 30
0.0
 11
-41.36036548136836
 21
11.51958415200934
 31
0.0
  0
LINE
  5
8D7B
330
1F
100
AcDbEntity
  8
AM_0
100
AcDbLine
 10
-57.01964772761801
 20
27.39479624999329
 30
0.0
 11
-53.40875758870574
 21
32.18660931027705
 31
0.0
  0
LINE
  5
8D7E
330
1F
100
AcDbEntity
  8
AM_0
100
AcDbLine
 10
-50.95652309058891
 20
27.9762669695195
 30
0.0
 11
-38.56486341336813
 21
15.58460729229872
 31
0.0
  0
LINE
  5
8D7F
330
1F
100
AcDbEntity
  8
AM_0
100
AcDbLine
 10
-8.38190782719689
 20
-19.25190782719688
 30
0.0
 11
-23.13000000000001
 21
-34.0
 31
0.0
  0
LINE
  5
8D81
330
1F
100
AcDbEntity
  8
AM_0
100
AcDbLine
 10
-9.214570696119912
 20
-19.06345596729062
 30
0.0
 11
-8.704013331705271
 21
-19.57401333170526
 31
0.0
  0
LINE
  5
8D82
330
1F
100
AcDbEntity
  8
AM_0
100
AcDbLine
 10
-17.06345596729056
 20
-11.21457069611996
 30
0.0
 11
-19.27802666341053
 21
-9.0
 31
0.0
  0
LINE
  5
8DAB
330
1F
100
AcDbEntity
  8
AM_0
100
AcDbLine
 10
-41.78163599757477
 20
10.96053929497623
 30
0.0
 11
-33.64220205139545
 21
21.7619329641749
 31
0.0
  0
LINE
  5
8DAC
330
1F
100
AcDbEntity
  8
AM_0
100
AcDbLine
 10
-41.22259114054167
 20
10.5392687787698
 30
0.0
 11
-41.78163599757479
 21
10.96053929497624
 31
0.0
  0
LINE
  5
8DAD
330
1F
100
AcDbEntity
  8
AM_0
100
AcDbLine
 10
-41.22259114054167
 20
10.5392687787698
 30
0.0
 11
-40.80132062433523
 21
11.0983136358029
 31
0.0
  0
LINE
  5
8DAE
330
1F
100
AcDbEntity
  8
AM_0
100
AcDbLine
 10
-38.74568570314846
 20
9.173640917962984
 30
0.0
 11
-38.56514119620284
 21
9.413231570977174
 31
0.0
  0
LINE
  5
8DAF
330
1F
100
AcDbEntity
  8
AM_0
100
AcDbLine
 10
-38.74568570314845
 20
9.173640917962991
 30
0.0
 11
-40.98186513128086
 21
10.85872298278872
 31
0.0
  0
DIMENSION
  5
8DE1
330
1F
100
AcDbEntity
  8
AM_0
100
AcDbDimension
  2
*D8
 10
-0.0000000000000074
 20
-10.64888527117066
 30
0.0
 11
-10.17731738166915
 21
14.2527032301289
 31
0.0
 70
    34
  3
AM_JIS$2
100
AcDb2LineAngularDimension
 13
-0.2343145750507677
 23
-10.08319984622143
 33
0.0
 14
-8.083199846221447
 24
-2.234314575050766
 34
0.0
 15
-0.0000000000000072
 25
-2.0
 35
0.0
 16
-6.080853028753146
 26
12.37653803539362
 36
0.0
1001
ACAD
1000
DSTYLE
1002
{
1070
   271
1070
     0
1002
}
  0
LINE
  5
8E0C
330
1F
100
AcDbEntity
  8
AM_0
100
AcDbLine
 10
-53.40875758870573
 20
32.18660931027703
 30
0.0
 11
-49.60928711416659
 21
29.32350294594182
 31
0.0
  0
LINE
  5
8E0D
330
1F
100
AcDbEntity
  8
AM_0
100
AcDbLine
 10
-57.01964772761807
 20
27.39479624999333
 30
0.0
 11
-53.89362266030896
 21
25.03916739979946
 31
0.0
  0
LINE
  5
8E0F
330
1F
100
AcDbEntity
  8
AM_0
100
AcDbLine
 10
-47.34141063056896
 20
31.59137942953945
 30
0.0
 11
-58.49040447697846
 21
20.44238558312997
 31
0.0
  0
LINE
  5
8EA4
330
1F
100
AcDbEntity
  8
AM_5
100
AcDbLine
 10
-26.59392932043342
 20
17.69062846153419
 30
0.0
 11
-11.93073033716505
 21
32.35382744480259
 31
0.0
  0
DIMENSION
  5
8EA5
330
1F
100
AcDbEntity
  8
AM_5
100
AcDbDimension
  2
*D9
 10
-11.93073033716504
 20
32.35382744480259
 30
0.0
 11
-24.1703657809359
 21
29.28349677998625
 31
0.0
 70
   162
  1
-<>
  3
AM_JIS$2
100
AcDb2LineAngularDimension
 13
-35.01919953159285
 23
6.741172868182081
 33
0.0
 14
-27.30103610161995
 24
16.98352168034763
 34
0.0
 15
-26.59392932043342
 25
17.69062846153419
 35
0.0
 16
-18.75360531764735
 26
26.36605391326536
 36
0.0
1001
ACAD
1000
DSTYLE
1002
{
1070
   271
1070
     0
1002
}
  0
DIMENSION
  5
8EB7
330
1F
100
AcDbEntity
  8
AM_5
100
AcDbDimension
  2
*D10
 10
-30.12955576127437
 20
48.80323429883404
 30
0.0
 11
-19.27546667006085
 21
42.33320725097712
 31
0.0
 70
    32
 51
45.0
  3
AM_JIS
100
AcDbAlignedDimension
 13
-27.30103610161993
 23
16.98352168034763
 33
0.0
 14
-47.34141063056895
 24
31.59137942953945
 34
0.0
 50
315.0
100
AcDbRotatedDimension
  0
DIMENSION
  5
8EC4
330
1F
100
AcDbEntity
  8
AM_5
100
AcDbDimension
  2
*D11
 10
-63.90716835443161
 20
15.02562170567679
 30
0.0
 11
-52.87630256792145
 21
8.378817962523232
 31
0.0
 70
    32
 51
45.0
  3
AM_JIS
100
AcDbAlignedDimension
 13
-40.81273494731472
 23
2.764716053466251
 33
0.0
 14
-58.49040447697844
 24
20.44238558312996
 34
0.0
 50
315.0
100
AcDbRotatedDimension
  0
LINE
  5
8EEB
330
1F
100
AcDbEntity
  8
AM_5
100
AcDbLine
 10
-8.083199846221418
 20
-2.234314575050778
 30
0.0
 11
-27.30103610161993
 21
16.98352168034761
 31
0.0
  0
MTEXT
  5
9022
330
1F
100
AcDbEntity
  8
AM_6
100
AcDbMText
 10
13.62706721061542
 20
24.95269058232669
 30
0.0
 40
4.0
 41
0.0
 71
     5
 72
     5
  1
\T1.40;\W0.59;０°
  7
ASAMI
1001
ACAD
1000
MTEXTBEGIN
1070
    73
1070
     1
1070
    44
1040
1.0
1070
    74
1070
     0
1000
MTEXTEND
  0
MTEXT
  5
9023
330
1F
100
AcDbEntity
  8
AM_6
100
AcDbMText
 10
-4.849730066242333
 20
23.78599078711991
 30
0.0
 40
4.0
 41
0.0
 71
     5
 72
     5
  1
\T1.4;\W0.59;-8°
  7
ASAMI
1001
ACAD
1000
MTEXTBEGIN
1070
    73
1070
     1
1070
    44
1040
1.0
1070
    74
1070
     0
1000
MTEXTEND
  0
LEADER
  5
9024
330
1F
100
AcDbEntity
  8
AM_5
  6
CONTINUOUS
 48
0.5
100
AcDbLeader
  3
AM_JIS$7
 76
     2
 10
-4.512946237819502
 20
28.0234272233236
 30
0.0
 10
2.558121574045912
 20
35.09449503518914
 30
0.0
211
-0.7071067811865421
221
-0.7071067811865531
231
0.0
1001
ACAD
1000
DSTYLE
1002
{
1070
     6
1000
OPEN30
1070
   173
1070
     1
1070
   176
1070
     0
1070
   341
1005
59
1002
}
  0
LEADER
  5
9025
330
1F
100
AcDbEntity
  8
AM_5
  6
CONTINUOUS
 48
0.5
100
AcDbLeader
  3
AM_JIS$7
 76
     2
 10
9.629189385911441
 20
28.02342722332371
 30
0.0
 10
2.558121574045912
 20
35.09449503518914
 30
0.0
211
-0.7071067811865421
221
-0.7071067811865531
231
0.0
1001
ACAD
1000
DSTYLE
1002
{
1070
     6
1000
OPEN30
1070
   173
1070
     1
1070
   176
1070
     0
1070
   341
1005
59
1002
}
  0
VIEWPORT
  5
110
330
101
100
AcDbEntity
 67
     1
  8
0
100
AcDbViewport
 10
420.5
 20
297.0
 30
0.0
 40
948.9782706766916
 41
628.452
 68
     1
 69
     1
1001
ACAD
1000
MVIEW
1002
{
1070
    16
1010
0.0
1020
0.0
1030
0.0
1010
0.0
1020
0.0
1030
1.0
1040
0.0
1040
628.452
1040
420.5
1040
297.0
1040
50.0
1040
0.0
1040
0.0
1070
     0
1070
   100
1070
     1
1070
     1
1070
     0
1070
     0
1070
     0
1070
     0
1040
0.0
1040
0.0
1040
0.0
1040
10.0
1040
10.0
1040
10.0
1040
10.0
1070
     0
1002
{
1002
}
1002
}
  0
ENDSEC
  0
SECTION
  2
OBJECTS
  0
DICTIONARY
  5
C
330
0
100
AcDbDictionary
  3
ACAD_GROUP
350
D
  3
ACAD_LAYOUT
350
1A
  3
ACAD_MLINESTYLE
350
17
  3
ACAD_PLOTSETTINGS
350
19
  3
ACAD_PLOTSTYLENAME
350
E
  3
ACDBVARIABLEDICTIONARY
350
34
  3
ACMDICTIONARY
350
43
  3
AMG
350
2B
  3
AMGSNAPSETTINGS
350
6E
  3
DWGPROPS
350
903E
  3
ACDBHEADERROUNDTRIPXREC
350
904A
  0
DICTIONARY
  5
74
330
1F
100
AcDbDictionary
280
     1
  3
ACAD_INDEX
360
9040
  3
ACAD_LAYOUTSELFREF
360
906D
  0
DICTIONARY
  5
9072
330
101
100
AcDbDictionary
280
     1
  3
ACAD_LAYOUTSELFREF
360
9073
  0
DICTIONARY
  5
D
102
{ACAD_REACTORS
330
C
102
}
330
C
100
AcDbDictionary
  0
DICTIONARY
  5
1A
102
{ACAD_REACTORS
330
C
102
}
330
C
100
AcDbDictionary
  0
DICTIONARY
  5
17
102
{ACAD_REACTORS
330
C
102
}
330
C
100
AcDbDictionary
  3
STANDARD
350
18
  0
DICTIONARY
  5
19
102
{ACAD_REACTORS
330
C
102
}
330
C
100
AcDbDictionary
  0
ACDBDICTIONARYWDFLT
  5
E
102
{ACAD_REACTORS
330
C
102
}
330
C
100
AcDbDictionary
281
     1
  3
Normal
350
F
100
AcDbDictionaryWithDefault
340
F
  0
DICTIONARY
  5
34
102
{ACAD_REACTORS
330
C
102
}
330
C
100
AcDbDictionary
  3
INDEXCTL
350
35
  3
SORTENTS
350
B5E
  0
DICTIONARY
  5
43
102
{ACAD_REACTORS
330
C
102
}
330
C
100
AcDbDictionary
  3
ACMSTDDICTIONARY
350
260
  0
DICTIONARY
  5
2B
102
{ACAD_REACTORS
330
C
102
}
330
C
100
AcDbDictionary
  3
ACMGSETTINGS
350
2C
  0
DICTIONARY
  5
6E
102
{ACAD_REACTORS
330
C
102
}
330
C
100
AcDbDictionary
  0
XRECORD
  5
903E
102
{ACAD_REACTORS
330
C
102
}
330
C
100
AcDbXrecord
  1
DWGPROPS COOKIE
  2

  3

  4

  6

  7

  8

  9

300
AmdtFileType=82
301
=
302
=
303
=
304
=
305
=
306
=
307
=
308
=
309
=
 40
1.287079155092592
 41
2452838.620506898
 42
2452938.600982905
  1

 90
        1
  0
DICTIONARY
  5
904A
102
{ACAD_REACTORS
330
C
102
}
330
C
100
AcDbDictionary
  3
TSTACKALIGN
350
904B
  3
TSTACKSIZE
350
904C
  3
HYPERLINKBASE
350
904D
  3
STYLESHEET
350
904E
  3
LAYOUTDICT
350
904F
  3
PLOTSETDICT
350
9050
  3
PLOTSTYLNAMDICT
350
9051
  3
LWETCUNION
350
9052
  3
INSUNITS
350
9053
  3
CEPSNTYPE
350
9054
  3
FINGERPRINTGUID
350
9055
  3
VERSIONGUID
350
9056
  3
PSVPSCALE
350
9057
  3
DIMSTYLEDATA
350
9058
  3
PUCSORTHOREF
350
9059
  3
PUCSORTHOVIEW
350
905A
  3
PUCSBASE
350
905B
  3
PUCSORGTOP
350
905C
  3
PUCSORGBOTTOM
350
905D
  3
PUCSORGLEFT
350
905E
  3
PUCSORGRIGHT
350
905F
  3
PUCSORGFRONT
350
9060
  3
PUCSORGBACK
350
9061
  3
UCSORTHOREF
350
9062
  3
UCSORTHOVIEW
350
9063
  3
UCSBASE
350
9064
  3
UCSORGTOP
350
9065
  3
UCSORGBOTTOM
350
9066
  3
UCSORGLEFT
350
9067
  3
UCSORGRIGHT
350
9068
  3
UCSORGFRONT
350
9069
  3
UCSORGBACK
350
906A
  0
DICTIONARY
  5
9040
102
{ACAD_REACTORS
330
74
102
}
330
74
100
AcDbDictionary
  3
*A1
350
9041
  0
XRECORD
  5
906D
102
{ACAD_REACTORS
330
74
102
}
330
74
100
AcDbXrecord
340
1F
  0
XRECORD
  5
9073
102
{ACAD_REACTORS
330
9072
102
}
330
9072
100
AcDbXrecord
340
101
  0
MLINESTYLE
  5
18
102
{ACAD_REACTORS
330
17
102
}
330
17
100
AcDbMlineStyle
  2
STANDARD
 70
     0
  3

 62
   256
 51
90.0
 52
90.0
 71
     2
 49
0.5
 62
   256
  6
BYLAYER
 49
-0.5
 62
   256
  6
BYLAYER
  0
ACDBPLACEHOLDER
  5
F
102
{ACAD_REACTORS
330
E
102
}
330
E
100
AcDbPlaceHolder
280
     0
  0
DICTIONARYVAR
  5
35
102
{ACAD_REACTORS
330
34
102
}
330
34
100
DictionaryVariables
280
     0
  1
1
  0
DICTIONARYVAR
  5
B5E
102
{ACAD_REACTORS
330
34
102
}
330
34
100
DictionaryVariables
280
     0
  1
96
  0
DICTIONARY
  5
260
102
{ACAD_REACTORS
330
43
102
}
330
43
100
AcDbDictionary
  0
DICTIONARY
  5
2C
102
{ACAD_REACTORS
330
2B
102
}
330
2B
100
AcDbDictionary
  3
DWGSETTINGS
350
2D
  0
XRECORD
  5
904B
102
{ACAD_REACTORS
330
904A
102
}
330
904A
100
AcDbXrecord
 90
        1
  0
XRECORD
  5
904C
102
{ACAD_REACTORS
330
904A
102
}
330
904A
100
AcDbXrecord
 90
       70
  0
XRECORD
  5
904D
102
{ACAD_REACTORS
330
904A
102
}
330
904A
100
AcDbXrecord
  1

  0
XRECORD
  5
904E
102
{ACAD_REACTORS
330
904A
102
}
330
904A
100
AcDbXrecord
  1
ASAMI.ctb
  0
XRECORD
  5
904F
102
{ACAD_REACTORS
330
904A
102
}
330
904A
100
AcDbXrecord
340
1A
  0
XRECORD
  5
9050
102
{ACAD_REACTORS
330
904A
102
}
330
904A
100
AcDbXrecord
340
19
  0
XRECORD
  5
9051
102
{ACAD_REACTORS
330
904A
102
}
330
904A
100
AcDbXrecord
340
E
  0
XRECORD
  5
9052
102
{ACAD_REACTORS
330
904A
102
}
330
904A
100
AcDbXrecord
 90
    10781
  0
XRECORD
  5
9053
102
{ACAD_REACTORS
330
904A
102
}
330
904A
100
AcDbXrecord
 90
        4
  0
XRECORD
  5
9054
102
{ACAD_REACTORS
330
904A
102
}
330
904A
100
AcDbXrecord
 90
        0
  0
XRECORD
  5
9055
102
{ACAD_REACTORS
330
904A
102
}
330
904A
100
AcDbXrecord
  1
{AFB28963-8C59-40AE-9337-C84526B81ACE}
  0
XRECORD
  5
9056
102
{ACAD_REACTORS
330
904A
102
}
330
904A
100
AcDbXrecord
  1
{5ECBD5E2-A949-4537-87D1-E8546E193CE2}
  0
XRECORD
  5
9057
102
{ACAD_REACTORS
330
904A
102
}
330
904A
100
AcDbXrecord
 40
0.0
  0
XRECORD
  5
9058
102
{ACAD_REACTORS
330
904A
102
}
330
904A
100
AcDbXrecord
1000
DSTYLE
1002
{
1070
    79
 70
     2
1070
   341
340
59
1070
   342
340
59
1070
   371
 70
    -1
1070
   372
 70
    -1
1002
}
  0
XRECORD
  5
9059
102
{ACAD_REACTORS
330
904A
102
}
330
904A
100
AcDbXrecord
340
0
  0
XRECORD
  5
905A
102
{ACAD_REACTORS
330
904A
102
}
330
904A
100
AcDbXrecord
 70
     0
  0
XRECORD
  5
905B
102
{ACAD_REACTORS
330
904A
102
}
330
904A
100
AcDbXrecord
340
0
  0
XRECORD
  5
905C
102
{ACAD_REACTORS
330
904A
102
}
330
904A
100
AcDbXrecord
 10
0.0
 20
0.0
 30
0.0
  0
XRECORD
  5
905D
102
{ACAD_REACTORS
330
904A
102
}
330
904A
100
AcDbXrecord
 10
0.0
 20
0.0
 30
0.0
  0
XRECORD
  5
905E
102
{ACAD_REACTORS
330
904A
102
}
330
904A
100
AcDbXrecord
 10
0.0
 20
0.0
 30
0.0
  0
XRECORD
  5
905F
102
{ACAD_REACTORS
330
904A
102
}
330
904A
100
AcDbXrecord
 10
0.0
 20
0.0
 30
0.0
  0
XRECORD
  5
9060
102
{ACAD_REACTORS
330
904A
102
}
330
904A
100
AcDbXrecord
 10
0.0
 20
0.0
 30
0.0
  0
XRECORD
  5
9061
102
{ACAD_REACTORS
330
904A
102
}
330
904A
100
AcDbXrecord
 10
0.0
 20
0.0
 30
0.0
  0
XRECORD
  5
9062
102
{ACAD_REACTORS
330
904A
102
}
330
904A
100
AcDbXrecord
340
0
  0
XRECORD
  5
9063
102
{ACAD_REACTORS
330
904A
102
}
330
904A
100
AcDbXrecord
 70
     0
  0
XRECORD
  5
9064
102
{ACAD_REACTORS
330
904A
102
}
330
904A
100
AcDbXrecord
340
0
  0
XRECORD
  5
9065
102
{ACAD_REACTORS
330
904A
102
}
330
904A
100
AcDbXrecord
 10
0.0
 20
0.0
 30
0.0
  0
XRECORD
  5
9066
102
{ACAD_REACTORS
330
904A
102
}
330
904A
100
AcDbXrecord
 10
0.0
 20
0.0
 30
0.0
  0
XRECORD
  5
9067
102
{ACAD_REACTORS
330
904A
102
}
330
904A
100
AcDbXrecord
 10
0.0
 20
0.0
 30
0.0
  0
XRECORD
  5
9068
102
{ACAD_REACTORS
330
904A
102
}
330
904A
100
AcDbXrecord
 10
0.0
 20
0.0
 30
0.0
  0
XRECORD
  5
9069
102
{ACAD_REACTORS
330
904A
102
}
330
904A
100
AcDbXrecord
 10
0.0
 20
0.0
 30
0.0
  0
XRECORD
  5
906A
102
{ACAD_REACTORS
330
904A
102
}
330
904A
100
AcDbXrecord
 10
0.0
 20
0.0
 30
0.0
  0
LAYER_INDEX
  5
9041
102
{ACAD_REACTORS
330
9040
102
}
330
9040
100
AcDbIndex
 40
2452941.591895428
100
AcDbLayerIndex
  8
0
360
9042
 90
        0
  8
AM_0
360
9043
 90
       25
  8
AM_11
360
9044
 90
        2
  8
AM_7
360
9045
 90
        1
  8
AM_5
360
9046
 90
       10
  8
Defpoints
360
9047
 90
        0
  8
AM_6
360
9048
 90
        3
  0
XRECORD
  5
2D
102
{ACAD_REACTORS
330
2C
102
}
330
2C
100
AcDbXrecord
  1
VERSION
140
15.0
  1
PRODUCT
  2
AutoCAD Mechanical 2000
  0
IDBUFFER
  5
9042
330
0
100
AcDbIdBuffer
  0
IDBUFFER
  5
9043
330
0
100
AcDbIdBuffer
330
8DAB
330
8DAC
330
8DAD
330
8DAE
330
8DAF
330
8DE1
330
8E0C
330
8E0D
330
8E0F
330
8B2A
330
8B31
330
8B3A
330
8B3C
330
8B3D
330
8B3F
330
8CF0
330
8CFA
330
8D1E
330
8D3E
330
8D3F
330
8D7B
330
8D7E
330
8D7F
330
8D81
330
8D82
  0
IDBUFFER
  5
9044
330
0
100
AcDbIdBuffer
330
8B2C
330
8B37
  0
IDBUFFER
  5
9045
330
0
100
AcDbIdBuffer
330
8B45
  0
IDBUFFER
  5
9046
330
0
100
AcDbIdBuffer
330
8BB0
330
8BC6
330
8BD3
330
8EA4
330
8EA5
330
8EB7
330
8EC4
330
8EEB
330
9024
330
9025
  0
IDBUFFER
  5
9047
330
0
100
AcDbIdBuffer
  0
IDBUFFER
  5
9048
330
0
100
AcDbIdBuffer
330
C58
330
9022
330
9023
  0
ENDSEC
  0
EOF
