  0
SECTION
  2
HEADER
  9
$ACADVER
  1
AC1014
  9
$ACADMAINTVER
 70
     9
  9
$DWGCODEPAGE
  3
ANSI_932
  9
$INSBASE
 10
0.0
 20
0.0
 30
0.0
  9
$EXTMIN
 10
-174.8607945173979
 20
-47.50000000000012
 30
0.0
  9
$EXTMAX
 10
80.21364477343837
 20
70.76222320732572
 30
0.0
  9
$LIMMIN
 10
-187.8938652443462
 20
-78.47335447374303
  9
$LIMMAX
 10
102.1448414954811
 20
78.17004450500395
  9
$ORTHOMODE
 70
     0
  9
$REGENMODE
 70
     1
  9
$FILLMODE
 70
     1
  9
$QTEXTMODE
 70
     0
  9
$MIRRTEXT
 70
     0
  9
$DRAGMODE
 70
     2
  9
$LTSCALE
 40
0.5
  9
$OSMODE
 70
  2103
  9
$ATTMODE
 70
     1
  9
$TEXTSIZE
 40
2.5
  9
$TRACEWID
 40
1.0
  9
$TEXTSTYLE
  7
STANDARD
  9
$CLAYER
  8
AM_0
  9
$CELTYPE
  6
BYLAYER
  9
$CECOLOR
 62
   256
  9
$CELTSCALE
 40
1.0
  9
$DELOBJ
 70
     1
  9
$DISPSILH
 70
     0
  9
$DIMSCALE
 40
1.0
  9
$DIMASZ
 40
2.5
  9
$DIMEXO
 40
1.0
  9
$DIMDLI
 40
12.0
  9
$DIMRND
 40
0.0
  9
$DIMDLE
 40
0.0
  9
$DIMEXE
 40
1.0
  9
$DIMTP
 40
0.1
  9
$DIMTM
 40
0.1
  9
$DIMTXT
 40
3.2
  9
$DIMCEN
 40
0.0
  9
$DIMTSZ
 40
0.0
  9
$DIMTOL
 70
     0
  9
$DIMLIM
 70
     0
  9
$DIMTIH
 70
     0
  9
$DIMTOH
 70
     0
  9
$DIMSE1
 70
     0
  9
$DIMSE2
 70
     0
  9
$DIMTAD
 70
     3
  9
$DIMZIN
 70
     8
  9
$DIMBLK
  1
OPEN30
  9
$DIMASO
 70
     1
  9
$DIMSHO
 70
     1
  9
$DIMPOST
  1

  9
$DIMAPOST
  1
"
  9
$DIMALT
 70
     0
  9
$DIMALTD
 70
     2
  9
$DIMALTF
 40
0.0393701
  9
$DIMLFAC
 40
1.0
  9
$DIMTOFL
 70
     1
  9
$DIMTVP
 40
0.0
  9
$DIMTIX
 70
     0
  9
$DIMSOXD
 70
     0
  9
$DIMSAH
 70
     0
  9
$DIMBLK1
  1

  9
$DIMBLK2
  1

  9
$DIMSTYLE
  2
AM_JIS
  9
$DIMCLRD
 70
     3
  9
$DIMCLRE
 70
     3
  9
$DIMCLRT
 70
     2
  9
$DIMTFAC
 40
0.71
  9
$DIMGAP
 40
1.5
  9
$DIMJUST
 70
     0
  9
$DIMSD1
 70
     0
  9
$DIMSD2
 70
     0
  9
$DIMTOLJ
 70
     0
  9
$DIMTZIN
 70
     0
  9
$DIMALTZ
 70
     0
  9
$DIMALTTZ
 70
     0
  9
$DIMFIT
 70
     3
  9
$DIMUPT
 70
     0
  9
$DIMUNIT
 70
     2
  9
$DIMDEC
 70
     3
  9
$DIMTDEC
 70
     3
  9
$DIMALTU
 70
     2
  9
$DIMALTTD
 70
     2
  9
$DIMTXSTY
  7
ASAMI
  9
$DIMAUNIT
 70
     0
  9
$LUNITS
 70
     2
  9
$LUPREC
 70
     2
  9
$SKETCHINC
 40
1.0
  9
$FILLETRAD
 40
1.199999999999999
  9
$AUNITS
 70
     0
  9
$AUPREC
 70
     0
  9
$MENU
  1
.
  9
$ELEVATION
 40
0.0
  9
$PELEVATION
 40
0.0
  9
$THICKNESS
 40
0.0
  9
$LIMCHECK
 70
     0
  9
$BLIPMODE
 70
     0
  9
$CHAMFERA
 40
1.0
  9
$CHAMFERB
 40
1.0
  9
$CHAMFERC
 40
20.0
  9
$CHAMFERD
 40
0.0
  9
$SKPOLY
 70
     0
  9
$TDCREATE
 40
2452838.620506898
  9
$TDUPDATE
 40
2452941.592305764
  9
$TDINDWG
 40
1.8618667361
  9
$TDUSRTIMER
 40
1.8618667361
  9
$USRTIMER
 70
     1
  9
$ANGBASE
 50
0.0
  9
$ANGDIR
 70
     0
  9
$PDMODE
 70
     0
  9
$PDSIZE
 40
0.0
  9
$PLINEWID
 40
0.0
  9
$COORDS
 70
     0
  9
$SPLFRAME
 70
     0
  9
$SPLINETYPE
 70
     6
  9
$SPLINESEGS
 70
     8
  9
$ATTDIA
 70
     1
  9
$ATTREQ
 70
     1
  9
$HANDLING
 70
 12289
  9
$HANDSEED
  5
968C
  9
$SURFTAB1
 70
     6
  9
$SURFTAB2
 70
     6
  9
$SURFTYPE
 70
     6
  9
$SURFU
 70
     6
  9
$SURFV
 70
     6
  9
$UCSNAME
  2

  9
$UCSORG
 10
0.0
 20
0.0
 30
0.0
  9
$UCSXDIR
 10
1.0
 20
0.0
 30
0.0
  9
$UCSYDIR
 10
0.0
 20
1.0
 30
0.0
  9
$PUCSNAME
  2

  9
$PUCSORG
 10
0.0
 20
0.0
 30
0.0
  9
$PUCSXDIR
 10
1.0
 20
0.0
 30
0.0
  9
$PUCSYDIR
 10
0.0
 20
1.0
 30
0.0
  9
$USERI1
 70
     0
  9
$USERI2
 70
     0
  9
$USERI3
 70
     0
  9
$USERI4
 70
     0
  9
$USERI5
 70
     0
  9
$USERR1
 40
0.0
  9
$USERR2
 40
0.0
  9
$USERR3
 40
0.0
  9
$USERR4
 40
0.0
  9
$USERR5
 40
0.0
  9
$WORLDVIEW
 70
     1
  9
$SHADEDGE
 70
     3
  9
$SHADEDIF
 70
    70
  9
$TILEMODE
 70
     1
  9
$MAXACTVP
 70
    64
  9
$PINSBASE
 10
0.0
 20
0.0
 30
0.0
  9
$PLIMCHECK
 70
     0
  9
$PEXTMIN
 10
1.000000000000000E+20
 20
1.000000000000000E+20
 30
1.000000000000000E+20
  9
$PEXTMAX
 10
-1.000000000000000E+20
 20
-1.000000000000000E+20
 30
-1.000000000000000E+20
  9
$PLIMMIN
 10
0.0
 20
0.0
  9
$PLIMMAX
 10
841.0
 20
594.0
  9
$UNITMODE
 70
     0
  9
$VISRETAIN
 70
     1
  9
$PLINEGEN
 70
     0
  9
$PSLTSCALE
 70
     0
  9
$TREEDEPTH
 70
  3020
  9
$PICKSTYLE
 70
     0
  9
$CMLSTYLE
  2
STANDARD
  9
$CMLJUST
 70
     0
  9
$CMLSCALE
 40
20.0
  9
$PROXYGRAPHICS
 70
     1
  9
$MEASUREMENT
 70
     1
  0
ENDSEC
  0
SECTION
  2
CLASSES
  0
CLASS
  1
ACDBDICTIONARYWDFLT
  2
AcDbDictionaryWithDefault
  3
AutoCAD 2000
 90
        0
280
     0
281
     0
  0
CLASS
  1
ACDBPLACEHOLDER
  2
AcDbPlaceHolder
  3
AutoCAD 2000
 90
        0
280
     0
281
     0
  0
CLASS
  1
LAYOUT
  2
AcDbLayout
  3
AutoCAD 2000
 90
        0
280
     0
281
     0
  0
CLASS
  1
AMGSETTINGSOBJ
  2
AmgSettingsObj
  3
"AcadM|Product Description: AutoCAD Mechanical 2000|Company: Autodesk"
 90
        0
280
     0
281
     0
  0
CLASS
  1
ACME_DOCUMENT
  2
AcMeDbDoc
  3
AcMeServices
 90
        0
280
     0
281
     0
  0
CLASS
  1
ACMESCOPE
  2
AcMeScope
  3
AcMeServices
 90
        0
280
     0
281
     0
  0
CLASS
  1
ACMECOMMANDHISTORY
  2
AcMeCommandHistory
  3
AcMeServices
 90
        0
280
     0
281
     0
  0
CLASS
  1
DICTIONARYVAR
  2
AcDbDictionaryVar
  3
AutoCAD 2000
 90
        0
280
     0
281
     0
  0
CLASS
  1
ACIMSYSVARMAN
  2
AcImSysVarManager
  3
AcMeServices
 90
        0
280
     0
281
     0
  0
CLASS
  1
ACIMREALSYSVAR
  2
AcImRealSysVar
  3
AcMeServices
 90
        0
280
     0
281
     0
  0
CLASS
  1
ACIMINTSYSVAR
  2
AcImIntSysVar
  3
AcMeServices
 90
        0
280
     0
281
     0
  0
CLASS
  1
ACMEDRAWINGMAN
  2
AcMeDrawingMan
  3
AcMeServices
 90
        0
280
     0
281
     0
  0
CLASS
  1
ACMEVIEW
  2
AcMeView
  3
AcMeServices
 90
        0
280
     0
281
     0
  0
CLASS
  1
ACDBENTITYCACHE
  2
AcMeEntityCache
  3
AcMeServices
 90
        0
280
     0
281
     0
  0
CLASS
  1
GSMANAGER
  2
AcMeGSManager
  3
AcMeServices
 90
        0
280
     0
281
     0
  0
CLASS
  1
AmdtInternalReactor
  2
AmdtInternalReactor
  3
AcMeServices
 90
        0
280
     0
281
     0
  0
CLASS
  1
ACMESTATEMGR
  2
AcMeStateMgr
  3
AcMeServices
 90
        0
280
     0
281
     0
  0
CLASS
  1
ACME_DATABASE
  2
AcMeDbDatabase
  3
AcMeServices
 90
        0
280
     0
281
     0
  0
CLASS
  1
ACRFINSADJUSTERMGR
  2
AcRfInsAdjusterMgr
  3
AcMeServices
 90
        0
280
     0
281
     0
  0
CLASS
  1
ACMDATADICTIONARY
  2
AcmDataDictionary
  3
"AcmSymBB|Product Description: AutoCAD Mechanical 2000|Company: Autodesk"
 90
        0
280
     0
281
     0
  0
CLASS
  1
ACMDATAENTRYBLOCK
  2
AcmDataEntryBlock
  3
"AcmSymBB|Product Description: AutoCAD Mechanical 2000|Company: Autodesk"
 90
        0
280
     0
281
     0
  0
CLASS
  1
AMGOBJPROPCFG
  2
AmgObjPropCfg
  3
"AmgLay|Product Description: AutoCAD Mechanical 2000|Company: Autodesk"
 90
        1
280
     0
281
     0
  0
CLASS
  1
ACAMGFILTERDAT
  2
AcAmgFilterDat
  3
"AcadM|Product Description: AutoCAD Mechanical 2000|Company: Autodesk"
 90
        0
280
     0
281
     0
  0
CLASS
  1
LAYER_INDEX
  2
AcDbLayerIndex
  3
AutoCAD 2000
 90
        0
280
     0
281
     0
  0
CLASS
  1
IDBUFFER
  2
AcDbIdBuffer
  3
AutoCAD 2000
 90
        0
280
     0
281
     0
  0
CLASS
  1
ACIMSTRSYSVAR
  2
AcImStrSysVar
  3
AcMeServices
 90
        0
280
     0
281
     0
  0
CLASS
  1
ACMSTANDARDJIS
  2
AcmStandardJIS
  3
"AcmSymBB|Product Description: AutoCAD Mechanical 2000|Company: Autodesk"
 90
        0
280
     0
281
     0
  0
CLASS
  1
ACMSURFSTANDARDJIS
  2
AcmSurfTextStdJIS
  3
"AcmSymBB|Product Description: AutoCAD Mechanical 2000|Company: Autodesk"
 90
        0
280
     0
281
     0
  0
CLASS
  1
ACMFCFSTANDARDJIS
  2
AcmFCFStdJIS
  3
"AcmSymBB|Product Description: AutoCAD Mechanical 2000|Company: Autodesk"
 90
        0
280
     0
281
     0
  0
CLASS
  1
ACMWELDSTANDARDJIS
  2
AcmWeldingStdJIS
  3
"AcmSymBB|Product Description: AutoCAD Mechanical 2000|Company: Autodesk"
 90
        0
280
     0
281
     0
  0
CLASS
  1
ACMIDSTANDARDJIS
  2
AcmIdStdJIS
  3
"AcmSymBB|Product Description: AutoCAD Mechanical 2000|Company: Autodesk"
 90
        0
280
     0
281
     0
  0
CLASS
  1
ACMDATUMSTANDARDJIS
  2
AcmDatumStdJIS
  3
"AcmSymBB|Product Description: AutoCAD Mechanical 2000|Company: Autodesk"
 90
        0
280
     0
281
     0
  0
CLASS
  1
ACMBOMSTANDARDJIS
  2
AcmBOMStdJIS
  3
"AcmSymBB|Product Description: AutoCAD Mechanical 2000|Company: Autodesk"
 90
        0
280
     0
281
     0
  0
CLASS
  1
ACMSTANDARDANSI
  2
AcmStandardANSI
  3
"AcmSymBB|Product Description: AutoCAD Mechanical 2000|Company: Autodesk"
 90
        0
280
     0
281
     0
  0
CLASS
  1
ACMSURFSTANDARDANSI
  2
AcmSurfTextStdANSI
  3
"AcmSymBB|Product Description: AutoCAD Mechanical 2000|Company: Autodesk"
 90
        0
280
     0
281
     0
  0
CLASS
  1
ACMFCFSTANDARDANSI
  2
AcmFCFStdANSI
  3
"AcmSymBB|Product Description: AutoCAD Mechanical 2000|Company: Autodesk"
 90
        0
280
     0
281
     0
  0
CLASS
  1
ACMWELDSTANDARDANSI
  2
AcmWeldingStdANSI
  3
"AcmSymBB|Product Description: AutoCAD Mechanical 2000|Company: Autodesk"
 90
        0
280
     0
281
     0
  0
CLASS
  1
ACMIDSTANDARDANSI
  2
AcmIdStdANSI
  3
"AcmSymBB|Product Description: AutoCAD Mechanical 2000|Company: Autodesk"
 90
        0
280
     0
281
     0
  0
CLASS
  1
ACMDATUMSTANDARDANSI
  2
AcmDatumStdANSI
  3
"AcmSymBB|Product Description: AutoCAD Mechanical 2000|Company: Autodesk"
 90
        0
280
     0
281
     0
  0
CLASS
  1
ACMBOMSTANDARDANSI
  2
AcmBOMStdANSI
  3
"AcmSymBB|Product Description: AutoCAD Mechanical 2000|Company: Autodesk"
 90
        0
280
     0
281
     0
  0
CLASS
  1
ACMSTANDARDBSI
  2
AcmStandardBSI
  3
"AcmSymBB|Product Description: AutoCAD Mechanical 2000|Company: Autodesk"
 90
        0
280
     0
281
     0
  0
CLASS
  1
ACMSURFSTANDARDBSI
  2
AcmSurfTextStdBSI
  3
"AcmSymBB|Product Description: AutoCAD Mechanical 2000|Company: Autodesk"
 90
        0
280
     0
281
     0
  0
CLASS
  1
ACMFCFSTANDARDBSI
  2
AcmFCFStdBSI
  3
"AcmSymBB|Product Description: AutoCAD Mechanical 2000|Company: Autodesk"
 90
        0
280
     0
281
     0
  0
CLASS
  1
ACMWELDSTANDARDBSI
  2
AcmWeldingStdBSI
  3
"AcmSymBB|Product Description: AutoCAD Mechanical 2000|Company: Autodesk"
 90
        0
280
     0
281
     0
  0
CLASS
  1
ACMIDSTANDARDBSI
  2
AcmIdStdBSI
  3
"AcmSymBB|Product Description: AutoCAD Mechanical 2000|Company: Autodesk"
 90
        0
280
     0
281
     0
  0
CLASS
  1
ACMDATUMSTANDARDBSI
  2
AcmDatumStdBSI
  3
"AcmSymBB|Product Description: AutoCAD Mechanical 2000|Company: Autodesk"
 90
        0
280
     0
281
     0
  0
CLASS
  1
ACMBOMSTANDARDBSI
  2
AcmBOMStdBSI
  3
"AcmSymBB|Product Description: AutoCAD Mechanical 2000|Company: Autodesk"
 90
        0
280
     0
281
     0
  0
CLASS
  1
STDPART2D
  2
AmgStdPart
  3
"AmgStdPart|Product Description: AutoCAD Mechanical 2000|Company: Autodesk"
 90
     1023
280
     0
281
     1
  0
CLASS
  1
ACMDATAENTRYPART
  2
AcmDataEntryPart
  3
"AcmSymBB|Product Description: AutoCAD Mechanical 2000|Company: Autodesk"
 90
        0
280
     0
281
     0
  0
CLASS
  1
ACMPARTREF
  2
AcmPartRef
  3
"AcmSymBB|Product Description: AutoCAD Mechanical 2000|Company: Autodesk"
 90
     1023
280
     0
281
     1
  0
CLASS
  1
LONG_TRANSACTION
  2
AcDbLongTransaction
  3
AutoCAD 2000
 90
        0
280
     0
281
     0
  0
CLASS
  1
LWPOLYLINE
  2
AcDbPolyline
  3
AutoCAD 2000
 90
        0
280
     0
281
     1
  0
CLASS
  1
HATCH
  2
AcDbHatch
  3
AutoCAD 2000
 90
        0
280
     0
281
     1
  0
CLASS
  1
XRECORD
  2
AcDbXrecord
  3
AutoCAD 2000
 90
        0
280
     0
281
     0
  0
ENDSEC
  0
SECTION
  2
TABLES
  0
TABLE
  2
VPORT
  5
8
330
0
100
AcDbSymbolTable
 70
     3
  0
VPORT
  5
9656
330
8
100
AcDbSymbolTableRecord
100
AcDbViewportTableRecord
  2
*ACTIVE
 70
     0
 10
0.0
 20
0.0
 11
1.0
 21
1.0
 12
-47.32227884764518
 22
4.628722552008866
 13
0.0
 23
0.0
 14
2.5
 24
2.5
 15
10.0
 25
10.0
 16
0.0
 26
0.0
 36
1.0
 17
0.0
 27
0.0
 37
0.0
 40
163.5658805462705
 41
1.56570841889117
 42
50.0
 43
0.0
 44
0.0
 50
0.0
 51
0.0
 71
     0
 72
   100
 73
     1
 74
     2
 75
     0
 76
     0
 77
     0
 78
     0
  0
ENDTAB
  0
TABLE
  2
LTYPE
  5
5
330
0
100
AcDbSymbolTable
 70
    10
  0
LTYPE
  5
14
330
5
100
AcDbSymbolTableRecord
100
AcDbLinetypeTableRecord
  2
BYBLOCK
 70
     0
  3

 72
    65
 73
     0
 40
0.0
  0
LTYPE
  5
15
330
5
100
AcDbSymbolTableRecord
100
AcDbLinetypeTableRecord
  2
BYLAYER
 70
     0
  3

 72
    65
 73
     0
 40
0.0
  0
LTYPE
  5
16
330
5
100
AcDbSymbolTableRecord
100
AcDbLinetypeTableRecord
  2
CONTINUOUS
 70
     0
  3
Solid line
 72
    65
 73
     0
 40
0.0
  0
LTYPE
  5
4B
330
5
100
AcDbSymbolTableRecord
100
AcDbLinetypeTableRecord
  2
AM_ISO02W050
 70
     0
  3
__ __ __ __ __ __ __ __ __ __ __ __ __ __ __
 72
    65
 73
     2
 40
7.5
 49
6.0
 74
     0
 49
-1.5
 74
     0
  0
LTYPE
  5
4C
330
5
100
AcDbSymbolTableRecord
100
AcDbLinetypeTableRecord
  2
AM_ISO08W050
 70
     0
  3
____ . ____ . ____ . ____ . ____ . ____ . ____
 72
    65
 73
     4
 40
18.0
 49
12.0
 74
     0
 49
-1.5
 74
     0
 49
3.0
 74
     0
 49
-1.5
 74
     0
  0
LTYPE
  5
4D
330
5
100
AcDbSymbolTableRecord
100
AcDbLinetypeTableRecord
  2
AM_ISO09W050
 70
     0
  3
_____ . . _____ . . _____ . . ____ .. ____
 72
    65
 73
     6
 40
22.5
 49
12.0
 74
     0
 49
-1.5
 74
     0
 49
3.0
 74
     0
 49
-1.5
 74
     0
 49
3.0
 74
     0
 49
-1.5
 74
     0
  0
LTYPE
  5
4E
330
5
100
AcDbSymbolTableRecord
100
AcDbLinetypeTableRecord
  2
AMCONSTR
 70
     0
  3
_______________________
 72
    65
 73
     2
 40
9999.0
 49
9999.0
 74
     0
 49
0.0
 74
     0
  0
LTYPE
  5
4F
330
5
100
AcDbSymbolTableRecord
100
AcDbLinetypeTableRecord
  2
AM_ISO02W050X2
 70
     0
  3
 _ _ _ _ _ _ _ _ _ _ _ _
 72
    65
 73
     2
 40
3.75
 49
3.0
 74
     0
 49
-0.75
 74
     0
  0
LTYPE
  5
50
330
5
100
AcDbSymbolTableRecord
100
AcDbLinetypeTableRecord
  2
AM_ISO08W050X2
 70
     0
  3
__ . __ . __ . __ . __ . __
 72
    65
 73
     4
 40
9.0
 49
6.0
 74
     0
 49
-0.75
 74
     0
 49
1.5
 74
     0
 49
-0.75
 74
     0
  0
LTYPE
  5
53
330
5
100
AcDbSymbolTableRecord
100
AcDbLinetypeTableRecord
  2
AMZIGZAG
 70
     0
  3
/\/-/\/-/\/-/\/-/\/-/\/
 72
    65
 73
     2
 40
11.00009999999999
 49
0.0001
 74
     4
 75
   135
340
52
 46
0.04
 50
0.0
 44
0.0
 45
0.0
 49
-11.0
 74
     0
  0
LTYPE
  5
166
330
5
100
AcDbSymbolTableRecord
100
AcDbLinetypeTableRecord
  2
ACJISTGL
 70
     0
  3
_ _ _ _ _
 72
    65
 73
     2
 40
3.0
 49
2.0
 74
     0
 49
-1.0
 74
     0
  0
LTYPE
  5
26A
330
5
100
AcDbSymbolTableRecord
100
AcDbLinetypeTableRecord
  2
ACJISTGB
 70
     0
  3
__ . . __ . .
 72
    65
 73
     6
 40
9.0
 49
4.0
 74
     0
 49
-1.0
 74
     0
 49
1.0
 74
     0
 49
-1.0
 74
     0
 49
1.0
 74
     0
 49
-1.0
 74
     0
  0
ENDTAB
  0
TABLE
  2
LAYER
  5
2
330
0
100
AcDbSymbolTable
 70
     7
  0
LAYER
  5
10
330
2
100
AcDbSymbolTableRecord
100
AcDbLayerTableRecord
  2
0
 70
     0
 62
     7
  6
CONTINUOUS
  0
LAYER
  5
3F9
330
2
100
AcDbSymbolTableRecord
100
AcDbLayerTableRecord
  2
AM_0
 70
     0
 62
     7
  6
CONTINUOUS
  0
LAYER
  5
BD6
330
2
100
AcDbSymbolTableRecord
100
AcDbLayerTableRecord
  2
AM_11
 70
     0
 62
     3
  6
AM_ISO09W050
  0
LAYER
  5
BD7
330
2
100
AcDbSymbolTableRecord
100
AcDbLayerTableRecord
  2
AM_7
 70
     0
 62
     4
  6
AM_ISO08W050
  0
LAYER
  5
BD8
330
2
100
AcDbSymbolTableRecord
100
AcDbLayerTableRecord
  2
AM_5
 70
     0
 62
     3
  6
CONTINUOUS
  0
LAYER
  5
BD9
330
2
100
AcDbSymbolTableRecord
100
AcDbLayerTableRecord
  2
DEFPOINTS
 70
     0
 62
     7
  6
CONTINUOUS
  0
LAYER
  5
BDA
330
2
100
AcDbSymbolTableRecord
100
AcDbLayerTableRecord
  2
AM_6
 70
     0
 62
     2
  6
CONTINUOUS
  0
ENDTAB
  0
TABLE
  2
STYLE
  5
3
330
0
100
AcDbSymbolTable
 70
     5
  0
STYLE
  5
11
330
3
100
AcDbSymbolTableRecord
100
AcDbTextStyleTableRecord
  2
STANDARD
 70
     0
 40
0.0
 41
1.0
 50
0.0
 71
     0
 42
2.5
  3
simplex.shx
  4
EXTFONT.SHX
  0
STYLE
  5
52
330
3
100
AcDbSymbolTableRecord
100
AcDbTextStyleTableRecord
  2

 70
     1
 40
0.0
 41
1.0
 50
0.0
 71
     0
 42
2.5
  3
ltypeshp.shx
  4

  0
STYLE
  5
6B
330
3
100
AcDbSymbolTableRecord
100
AcDbTextStyleTableRecord
  2
ASAMI
 70
     0
 40
0.0
 41
1.0
 50
0.0
 71
     0
 42
2.5
  3
simplex.shx
  4
EXTFONT.SHX
  0
STYLE
  5
262
330
3
100
AcDbSymbolTableRecord
100
AcDbTextStyleTableRecord
  2
ACJISTS
 70
     0
 40
1.0
 41
1.0
 50
0.0
 71
     0
 42
2.5
  3
simplex.shx
  4
bigfont.shx
  0
STYLE
  5
269
330
3
100
AcDbSymbolTableRecord
100
AcDbTextStyleTableRecord
  2
ACJISGDT
 70
     0
 40
0.0
 41
1.0
 50
0.0
 71
     0
 42
2.5
  3
amgdtans.shx
  4

  0
ENDTAB
  0
TABLE
  2
VIEW
  5
6
330
0
100
AcDbSymbolTable
 70
     0
  0
ENDTAB
  0
TABLE
  2
UCS
  5
7
330
0
100
AcDbSymbolTable
 70
     0
  0
ENDTAB
  0
TABLE
  2
APPID
  5
9
330
0
100
AcDbSymbolTable
 70
    21
  0
APPID
  5
12
330
9
100
AcDbSymbolTableRecord
100
AcDbRegAppTableRecord
  2
ACAD
 70
     0
  0
APPID
  5
30
330
9
100
AcDbSymbolTableRecord
100
AcDbRegAppTableRecord
  2
MCAD_NO_VIS
 70
     0
  0
APPID
  5
31
330
9
100
AcDbSymbolTableRecord
100
AcDbRegAppTableRecord
  2
ACAD_TEMP_GRAPHIC
 70
     0
  0
APPID
  5
2C2
330
9
100
AcDbSymbolTableRecord
100
AcDbRegAppTableRecord
  2
GENIUS_GENDTOL_13
 70
     0
  0
APPID
  5
339
330
9
100
AcDbSymbolTableRecord
100
AcDbRegAppTableRecord
  2
GENIUS_GENODEF_13
 70
     0
  0
APPID
  5
33A
330
9
100
AcDbSymbolTableRecord
100
AcDbRegAppTableRecord
  2
GENIUS_GENOBJ-N-RSBK_13
 70
     0
  0
APPID
  5
33B
330
9
100
AcDbSymbolTableRecord
100
AcDbRegAppTableRecord
  2
GENIUS_GENOBJ-N-LIB_13
 70
     0
  0
APPID
  5
33C
330
9
100
AcDbSymbolTableRecord
100
AcDbRegAppTableRecord
  2
GENIUS_GENSCALE_13
 70
     0
  0
APPID
  5
378
330
9
100
AcDbSymbolTableRecord
100
AcDbRegAppTableRecord
  2
GENIUS_GENDIMSH_14
 70
     0
  0
APPID
  5
BDB
330
9
100
AcDbSymbolTableRecord
100
AcDbRegAppTableRecord
  2
GENIUS_GENOBJ-N-CEN_13
 70
     0
  0
APPID
  5
BDC
330
9
100
AcDbSymbolTableRecord
100
AcDbRegAppTableRecord
  2
GENIUS_GENFIL_13
 70
     0
  0
APPID
  5
BDD
330
9
100
AcDbSymbolTableRecord
100
AcDbRegAppTableRecord
  2
GENIUS_GENOBJ-N-FIL_13
 70
     0
  0
APPID
  5
12AD
330
9
100
AcDbSymbolTableRecord
100
AcDbRegAppTableRecord
  2
GENIUS_GENOREF_13
 70
     0
  0
APPID
  5
68E9
330
9
100
AcDbSymbolTableRecord
100
AcDbRegAppTableRecord
  2
GEVID1060695448
 70
     0
  0
APPID
  5
68EA
330
9
100
AcDbSymbolTableRecord
100
AcDbRegAppTableRecord
  2
GEVDC
 70
     0
  0
APPID
  5
68ED
330
9
100
AcDbSymbolTableRecord
100
AcDbRegAppTableRecord
  2
GENIUS_GENBH_13
 70
     0
  0
APPID
  5
68EF
330
9
100
AcDbSymbolTableRecord
100
AcDbRegAppTableRecord
  2
GENIUS_GENOBJ-NBEHI-BHF_13
 70
     0
  0
APPID
  5
68F0
330
9
100
AcDbSymbolTableRecord
100
AcDbRegAppTableRecord
  2
GENIUS_GENOENT_13
 70
     0
  0
APPID
  5
68F1
330
9
100
AcDbSymbolTableRecord
100
AcDbRegAppTableRecord
  2
GENIUS_GENOLIS_13
 70
     0
  0
APPID
  5
68F3
330
9
100
AcDbSymbolTableRecord
100
AcDbRegAppTableRecord
  2
GENIUS_GENOBJ-NBEHI-BHB_13
 70
     0
  0
APPID
  5
6B27
330
9
100
AcDbSymbolTableRecord
100
AcDbRegAppTableRecord
  2
GENIUS_GENOBJ-N-CHA_13
 70
     0
  0
ENDTAB
  0
TABLE
  2
DIMSTYLE
  5
A
330
0
100
AcDbSymbolTable
 70
     8
  0
DIMSTYLE
105
58
102
{ACAD_REACTORS
330
8F4A
330
8F57
330
8F64
330
8F71
330
95AD
102
}
330
A
100
AcDbSymbolTableRecord
100
AcDbDimStyleTableRecord
  2
AM_JIS
 70
     0
  3

  4
"
  5
OPEN30
  6

  7

 40
1.0
 41
2.5
 42
1.0
 43
12.0
 44
1.0
 45
0.0
 46
0.0
 47
0.1
 48
0.1
140
3.2
141
0.0
142
0.0
143
0.0393701
144
1.0
145
0.0
146
0.71
147
1.5
 71
     0
 72
     0
 73
     0
 74
     0
 75
     0
 76
     0
 77
     3
 78
     8
170
     0
171
     2
172
     1
173
     0
174
     0
175
     0
176
     3
177
     3
178
     2
270
     2
271
     3
272
     3
273
     2
274
     2
340
6B
275
     0
280
     0
281
     0
282
     0
283
     0
284
     0
285
     0
286
     0
287
     3
288
     0
  0
DIMSTYLE
105
5F
330
A
100
AcDbSymbolTableRecord
100
AcDbDimStyleTableRecord
  2
AM_JIS$3
 70
     0
  3

  4
"
  5
OPEN30
  6

  7

 40
1.0
 41
2.5
 42
1.0
 43
10.0
 44
1.0
 45
0.0
 46
0.0
 47
0.1
 48
0.1
140
3.2
141
0.0
142
0.0
143
0.0393701
144
1.0
145
0.0
146
0.71
147
1.5
 71
     0
 72
     0
 73
     0
 74
     1
 75
     0
 76
     0
 77
     3
 78
     8
170
     0
171
     2
172
     0
173
     0
174
     0
175
     0
176
     3
177
     3
178
     2
270
     2
271
     2
272
     3
273
     2
274
     2
340
6B
275
     0
280
     0
281
     0
282
     0
283
     0
284
     0
285
     0
286
     0
287
     0
288
     1
  0
DIMSTYLE
105
60
330
A
100
AcDbSymbolTableRecord
100
AcDbDimStyleTableRecord
  2
AM_JIS$4
 70
     0
  3

  4
"
  5
OPEN30
  6

  7

 40
1.0
 41
2.5
 42
1.0
 43
10.0
 44
1.0
 45
0.0
 46
0.0
 47
0.1
 48
0.1
140
3.2
141
0.0
142
0.0
143
0.0393701
144
1.0
145
0.0
146
0.71
147
1.5
 71
     0
 72
     0
 73
     0
 74
     1
 75
     0
 76
     0
 77
     3
 78
     8
170
     0
171
     2
172
     0
173
     0
174
     0
175
     0
176
     3
177
     3
178
     2
270
     2
271
     2
272
     3
273
     2
274
     2
340
6B
275
     0
280
     0
281
     0
282
     0
283
     0
284
     0
285
     0
286
     0
287
     0
288
     1
  0
DIMSTYLE
105
61
330
A
100
AcDbSymbolTableRecord
100
AcDbDimStyleTableRecord
  2
AM_JIS$6
 70
     0
  3

  4
"
  5
OPEN30
  6

  7

 40
1.0
 41
2.5
 42
1.0
 43
10.0
 44
1.0
 45
0.0
 46
0.0
 47
0.1
 48
0.1
140
3.2
141
0.0
142
0.0
143
0.0393701
144
1.0
145
0.0
146
0.71
147
1.5
 71
     0
 72
     0
 73
     0
 74
     0
 75
     0
 76
     0
 77
     0
 78
     8
170
     0
171
     2
172
     1
173
     0
174
     0
175
     0
176
     3
177
     3
178
     2
270
     2
271
     2
272
     2
273
     2
274
     2
340
6B
275
     0
280
     0
281
     0
282
     0
283
     0
284
     0
285
     0
286
     0
287
     3
288
     0
  0
DIMSTYLE
105
62
330
A
100
AcDbSymbolTableRecord
100
AcDbDimStyleTableRecord
  2
AM_JIS$7
 70
     0
  3

  4
"
  5
OPEN30
  6

  7

 40
1.0
 41
2.5
 42
1.0
 43
10.0
 44
1.0
 45
0.0
 46
0.0
 47
0.1
 48
0.1
140
3.2
141
0.0
142
0.0
143
0.0393701
144
1.0
145
0.0
146
0.71
147
1.5
 71
     0
 72
     0
 73
     0
 74
     0
 75
     0
 76
     0
 77
     3
 78
     8
170
     0
171
     2
172
     1
173
     0
174
     0
175
     0
176
     3
177
     3
178
     2
270
     2
271
     2
272
     3
273
     2
274
     2
340
6B
275
     0
280
     0
281
     0
282
     0
283
     0
284
     0
285
     0
286
     0
287
     3
288
     0
  0
DIMSTYLE
105
63
330
A
100
AcDbSymbolTableRecord
100
AcDbDimStyleTableRecord
  2
AM_JIS$SF
 70
     0
  3

  4
"
  5
OPEN30
  6

  7

 40
1.0
 41
2.5
 42
1.0
 43
10.0
 44
1.0
 45
0.0
 46
0.0
 47
0.1
 48
0.1
140
3.2
141
0.0
142
0.0
143
0.0393701
144
1.0
145
0.0
146
0.71
147
1.5
 71
     0
 72
     0
 73
     0
 74
     0
 75
     1
 76
     1
 77
     3
 78
     8
170
     0
171
     2
172
     1
173
     0
174
     0
175
     0
176
   256
177
   256
178
     2
270
     2
271
     2
272
     2
273
     2
274
     2
340
6B
275
     0
280
     0
281
     0
282
     0
283
     0
284
     0
285
     0
286
     0
287
     3
288
     0
  0
DIMSTYLE
105
68
330
A
100
AcDbSymbolTableRecord
100
AcDbDimStyleTableRecord
  2
AM_JIS$SH
 70
     0
  3

  4
"
  5

  6
GENAXEH
  7
OPEN30
 40
1.0
 41
2.5
 42
1.0
 43
10.0
 44
1.0
 45
0.0
 46
0.0
 47
0.1
 48
0.1
140
3.2
141
0.0
142
0.0
143
0.0393701
144
2.0
145
0.0
146
0.71
147
1.5
 71
     0
 72
     0
 73
     0
 74
     0
 75
     1
 76
     1
 77
     3
 78
     8
170
     0
171
     2
172
     1
173
     1
174
     0
175
     0
176
   256
177
   256
178
     2
270
     2
271
     2
272
     2
273
     2
274
     2
340
6B
275
     0
280
     0
281
     0
282
     0
283
     0
284
     0
285
     0
286
     0
287
     3
288
     0
  0
DIMSTYLE
105
B34
102
{ACAD_REACTORS
330
8EFB
330
9281
330
93AD
102
}
330
A
100
AcDbSymbolTableRecord
100
AcDbDimStyleTableRecord
  2
AM_JIS$2
 70
     0
  3

  4
"
  5
OPEN30
  6

  7

 40
1.0
 41
2.5
 42
1.0
 43
12.0
 44
1.0
 45
0.0
 46
0.0
 47
0.1
 48
0.1
140
3.2
141
0.0
142
0.0
143
0.0393701
144
1.0
145
0.0
146
0.71
147
1.5
 71
     0
 72
     0
 73
     0
 74
     0
 75
     0
 76
     0
 77
     3
 78
     8
170
     0
171
     2
172
     1
173
     0
174
     0
175
     0
176
     3
177
     3
178
     2
270
     2
271
     3
272
     3
273
     2
274
     2
340
6B
275
     0
280
     0
281
     0
282
     0
283
     0
284
     0
285
     0
286
     0
287
     3
288
     0
  0
ENDTAB
  0
TABLE
  2
BLOCK_RECORD
  5
1
330
0
100
AcDbSymbolTable
 70
    14
  0
BLOCK_RECORD
  5
1F
102
{ACAD_XDICTIONARY
360
74
102
}
330
1
100
AcDbSymbolTableRecord
100
AcDbBlockTableRecord
  2
*MODEL_SPACE
  0
BLOCK_RECORD
  5
101
102
{ACAD_XDICTIONARY
360
967F
102
}
330
1
100
AcDbSymbolTableRecord
100
AcDbBlockTableRecord
  2
*PAPER_SPACE
  0
BLOCK_RECORD
  5
59
330
1
100
AcDbSymbolTableRecord
100
AcDbBlockTableRecord
  2
_OPEN30
  0
BLOCK_RECORD
  5
64
330
1
100
AcDbSymbolTableRecord
100
AcDbBlockTableRecord
  2
GENAXEH
  0
BLOCK_RECORD
  5
8EFC
330
1
100
AcDbSymbolTableRecord
100
AcDbBlockTableRecord
  2
*D5
  0
BLOCK_RECORD
  5
8F4B
330
1
100
AcDbSymbolTableRecord
100
AcDbBlockTableRecord
  2
*D6
  0
BLOCK_RECORD
  5
8F58
330
1
100
AcDbSymbolTableRecord
100
AcDbBlockTableRecord
  2
*D7
  0
BLOCK_RECORD
  5
8F65
330
1
100
AcDbSymbolTableRecord
100
AcDbBlockTableRecord
  2
*D8
  0
BLOCK_RECORD
  5
8F72
330
1
100
AcDbSymbolTableRecord
100
AcDbBlockTableRecord
  2
*D9
  0
BLOCK_RECORD
  5
9282
330
1
100
AcDbSymbolTableRecord
100
AcDbBlockTableRecord
  2
*D11
  0
BLOCK_RECORD
  5
93AE
330
1
100
AcDbSymbolTableRecord
100
AcDbBlockTableRecord
  2
*D12
  0
BLOCK_RECORD
  5
95AE
330
1
100
AcDbSymbolTableRecord
100
AcDbBlockTableRecord
  2
*D13
  0
ENDTAB
  0
ENDSEC
  0
SECTION
  2
BLOCKS
  0
BLOCK
  5
20
330
1F
100
AcDbEntity
  8
0
100
AcDbBlockBegin
  2
*MODEL_SPACE
 70
     0
 10
0.0
 20
0.0
 30
0.0
  3
*MODEL_SPACE
  1

  0
ENDBLK
  5
21
330
1F
100
AcDbEntity
  8
0
100
AcDbBlockEnd
  0
BLOCK
  5
103
330
101
100
AcDbEntity
 67
     1
  8
0
100
AcDbBlockBegin
  2
*PAPER_SPACE
 70
     0
 10
0.0
 20
0.0
 30
0.0
  3
*PAPER_SPACE
  1

  0
ENDBLK
  5
104
330
101
100
AcDbEntity
 67
     1
  8
0
100
AcDbBlockEnd
  0
BLOCK
  5
5D
330
59
100
AcDbEntity
  8
0
100
AcDbBlockBegin
  2
_OPEN30
 70
     0
 10
0.0
 20
0.0
 30
0.0
  3
_OPEN30
  1

  0
LINE
  5
5A
330
59
100
AcDbEntity
  8
0
 62
     0
100
AcDbLine
 10
-1.0
 20
0.26794919
 30
0.0
 11
0.0
 21
0.0
 31
0.0
  0
LINE
  5
5B
330
59
100
AcDbEntity
  8
0
 62
     0
100
AcDbLine
 10
0.0
 20
0.0
 30
0.0
 11
-1.0
 21
-0.26794919
 31
0.0
  0
LINE
  5
5C
330
59
100
AcDbEntity
  8
0
 62
     0
100
AcDbLine
 10
0.0
 20
0.0
 30
0.0
 11
-1.0
 21
0.0
 31
0.0
  0
ENDBLK
  5
5E
330
59
100
AcDbEntity
  8
0
100
AcDbBlockEnd
  0
BLOCK
  5
66
330
64
100
AcDbEntity
  8
0
100
AcDbBlockBegin
  2
GENAXEH
 70
     0
 10
0.0
 20
0.0
 30
0.0
  3
GENAXEH
  1

  0
LINE
  5
65
330
64
100
AcDbEntity
  8
0
100
AcDbLine
 10
-1.0
 20
0.0
 30
0.0
 11
1.0
 21
0.0
 31
0.0
  0
ENDBLK
  5
67
330
64
100
AcDbEntity
  8
0
100
AcDbBlockEnd
  0
BLOCK
  5
8F07
330
8EFC
100
AcDbEntity
  8
0
100
AcDbBlockBegin
  2
*D5
 70
     1
 10
0.0
 20
0.0
 30
0.0
  3
*D5
  1

  0
LINE
  5
9681
330
8EFC
100
AcDbEntity
  8
AM_5
 62
     3
100
AcDbLine
 10
-0.0000000000000032
 20
0.9999999999999944
 30
0.0
 11
-0.0000000000000036
 21
13.93826596514531
 31
0.0
  0
LINE
  5
9682
330
8EFC
100
AcDbEntity
  8
AM_5
 62
     3
100
AcDbLine
 10
-11.0128819819093
 20
0.0000000000000009
 30
0.0
 11
-13.93826596514532
 21
0.0000000000000187
 31
0.0
  0
ARC
  5
9683
330
8EFC
100
AcDbEntity
  8
AM_5
 62
     3
100
AcDbCircle
 10
-0.0000000000000031
 20
-0.0000000000000054
 30
0.0
 40
12.93826596514532
100
AcDbArc
 50
101.0882882795023
 51
168.9117117204976
  0
INSERT
  5
9684
330
8EFC
100
AcDbEntity
  8
AM_5
 62
     3
100
AcDbBlockReference
  2
_OPEN30
 10
-0.0000000000000036
 20
12.93826596514531
 30
0.0
 41
2.5
 42
2.5
 43
2.5
 50
5.544144139751153
  0
INSERT
  5
9685
330
8EFC
100
AcDbEntity
  8
AM_5
 62
     3
100
AcDbBlockReference
  2
_OPEN30
 10
-12.93826596514532
 20
0.0000000000000124
 30
0.0
 41
2.5
 42
2.5
 43
2.5
 50
264.4558558602487
  0
MTEXT
  5
9686
330
8EFC
100
AcDbEntity
  8
AM_5
 62
     2
100
AcDbMText
 10
-11.34076662242766
 20
11.34076662242766
 30
0.0
 40
3.2
 41
0.0
 71
     5
 72
     1
  1
90°
  7
ASAMI
 11
0.7071067811865476
 21
0.7071067811865475
 31
0.0
  0
POINT
  5
9687
330
8EFC
100
AcDbEntity
  8
DEFPOINTS
 62
     0
100
AcDbPoint
 10
-6.469132982572658
 20
11.20486700673543
 30
0.0
  0
POINT
  5
9688
330
8EFC
100
AcDbEntity
  8
DEFPOINTS
 62
     0
100
AcDbPoint
 10
-0.0000000000000031
 20
-0.4000000000000111
 30
0.0
  0
POINT
  5
9689
330
8EFC
100
AcDbEntity
  8
DEFPOINTS
 62
     0
100
AcDbPoint
 10
-0.3999999999999946
 20
-0.0000000000000054
 30
0.0
  0
POINT
  5
968A
330
8EFC
100
AcDbEntity
  8
DEFPOINTS
 62
     0
100
AcDbPoint
 10
-10.0128819819093
 20
-0.0000000000000053
 30
0.0
  0
POINT
  5
968B
330
8EFC
100
AcDbEntity
  8
DEFPOINTS
 62
     0
100
AcDbPoint
 10
-0.0000000000000031
 20
-4.809002337427051
 30
0.0
  0
ENDBLK
  5
8F08
330
8EFC
100
AcDbEntity
  8
0
100
AcDbBlockEnd
  0
BLOCK
  5
8F55
330
8F4B
100
AcDbEntity
  8
0
100
AcDbBlockBegin
  2
*D6
 70
     1
 10
0.0
 20
0.0
 30
0.0
  3
*D6
  1

  0
LINE
  5
9198
330
8F4B
100
AcDbEntity
  8
AM_5
 62
     3
100
AcDbLine
 10
-151.0
 20
-0.0000000000000052
 30
0.0
 11
-168.571991295091
 21
-0.0000000000000002
 31
0.0
  0
LINE
  5
9199
330
8F4B
100
AcDbEntity
  8
AM_5
 62
     3
100
AcDbLine
 10
-151.0
 20
-25.0
 30
0.0
 11
-168.571991295091
 21
-25.0
 31
0.0
  0
LINE
  5
919A
330
8F4B
100
AcDbEntity
  8
AM_5
 62
     3
100
AcDbLine
 10
-167.571991295091
 20
-2.5
 30
0.0
 11
-167.571991295091
 21
-22.5
 31
0.0
  0
INSERT
  5
919B
330
8F4B
100
AcDbEntity
  8
AM_5
 62
     3
100
AcDbBlockReference
  2
_OPEN30
 10
-167.571991295091
 20
-0.0000000000000005
 30
0.0
 41
2.5
 42
2.5
 43
2.5
 50
90.0
  0
INSERT
  5
919C
330
8F4B
100
AcDbEntity
  8
AM_5
 62
     3
100
AcDbBlockReference
  2
_OPEN30
 10
-167.571991295091
 20
-25.0
 30
0.0
 41
2.5
 42
2.5
 43
2.5
 50
270.0
  0
MTEXT
  5
919D
330
8F4B
100
AcDbEntity
  8
AM_5
 62
     2
100
AcDbMText
 10
-170.671991295091
 20
-12.50000000000002
 30
0.0
 40
3.2
 41
0.0
 71
     5
 72
     1
  1
25
  7
ASAMI
 11
0.0000000000000001
 21
1.0
 31
0.0
1001
ACAD
1000
MTEXTBEGIN
1070
    73
1070
     1
1070
    44
1040
1.0
1070
    74
1070
     0
1000
MTEXTEND
  0
POINT
  5
919E
330
8F4B
100
AcDbEntity
  8
DEFPOINTS
 62
     0
100
AcDbPoint
 10
-150.0
 20
-0.0000000000000055
 30
0.0
  0
POINT
  5
919F
330
8F4B
100
AcDbEntity
  8
DEFPOINTS
 62
     0
100
AcDbPoint
 10
-150.0
 20
-25.0
 30
0.0
  0
POINT
  5
91A0
330
8F4B
100
AcDbEntity
  8
DEFPOINTS
 62
     0
100
AcDbPoint
 10
-167.571991295091
 20
-25.0
 30
0.0
  0
ENDBLK
  5
8F56
330
8F4B
100
AcDbEntity
  8
0
100
AcDbBlockEnd
  0
BLOCK
  5
8F62
330
8F58
100
AcDbEntity
  8
0
100
AcDbBlockBegin
  2
*D7
 70
     1
 10
0.0
 20
0.0
 30
0.0
  3
*D7
  1

  0
LINE
  5
9573
330
8F58
100
AcDbEntity
  8
AM_5
 62
     3
100
AcDbLine
 10
-151.0
 20
61.99756425207169
 30
0.0
 11
-171.160794517398
 21
61.99756425207169
 31
0.0
  0
LINE
  5
9574
330
8F58
100
AcDbEntity
  8
AM_5
 62
     3
100
AcDbLine
 10
-151.0
 20
36.99756425207169
 30
0.0
 11
-171.160794517398
 21
36.99756425207169
 31
0.0
  0
LINE
  5
9575
330
8F58
100
AcDbEntity
  8
AM_5
 62
     3
100
AcDbLine
 10
-170.160794517398
 20
59.49756425207169
 30
0.0
 11
-170.160794517398
 21
39.49756425207169
 31
0.0
  0
INSERT
  5
9576
330
8F58
100
AcDbEntity
  8
AM_5
 62
     3
100
AcDbBlockReference
  2
_OPEN30
 10
-170.160794517398
 20
61.99756425207169
 30
0.0
 41
2.5
 42
2.5
 43
2.5
 50
90.0
  0
INSERT
  5
9577
330
8F58
100
AcDbEntity
  8
AM_5
 62
     3
100
AcDbBlockReference
  2
_OPEN30
 10
-170.160794517398
 20
36.99756425207169
 30
0.0
 41
2.5
 42
2.5
 43
2.5
 50
270.0
  0
MTEXT
  5
9578
330
8F58
100
AcDbEntity
  8
AM_5
 62
     2
100
AcDbMText
 10
-173.260794517398
 20
49.49756425207166
 30
0.0
 40
3.2
 41
0.0
 71
     5
 72
     1
  1
25
  7
ASAMI
 11
0.0000000000000001
 21
1.0
 31
0.0
1001
ACAD
1000
MTEXTBEGIN
1070
    73
1070
     1
1070
    44
1040
1.0
1070
    74
1070
     0
1000
MTEXTEND
  0
POINT
  5
9579
330
8F58
100
AcDbEntity
  8
DEFPOINTS
 62
     0
100
AcDbPoint
 10
-150.0
 20
61.99756425207169
 30
0.0
  0
POINT
  5
957A
330
8F58
100
AcDbEntity
  8
DEFPOINTS
 62
     0
100
AcDbPoint
 10
-150.0
 20
36.99756425207169
 30
0.0
  0
POINT
  5
957B
330
8F58
100
AcDbEntity
  8
DEFPOINTS
 62
     0
100
AcDbPoint
 10
-170.160794517398
 20
36.99756425207169
 30
0.0
  0
ENDBLK
  5
8F63
330
8F58
100
AcDbEntity
  8
0
100
AcDbBlockEnd
  0
BLOCK
  5
8F6F
330
8F65
100
AcDbEntity
  8
0
100
AcDbBlockBegin
  2
*D8
 70
     1
 10
0.0
 20
0.0
 30
0.0
  3
*D8
  1

  0
LINE
  5
91BF
330
8F65
100
AcDbEntity
  8
AM_5
 62
     3
100
AcDbLine
 10
0.9999999999999968
 20
-0.0000000000000057
 30
0.0
 11
18.24706365887027
 21
-0.0000000000000106
 31
0.0
  0
LINE
  5
91C0
330
8F65
100
AcDbEntity
  8
AM_5
 62
     3
100
AcDbLine
 10
-12.79124311358573
 20
-25.0
 30
0.0
 11
18.24706365887026
 21
-25.00000000000001
 31
0.0
  0
LINE
  5
91C1
330
8F65
100
AcDbEntity
  8
AM_5
 62
     3
100
AcDbLine
 10
17.24706365887027
 20
-2.50000000000001
 30
0.0
 11
17.24706365887027
 21
-22.50000000000001
 31
0.0
  0
INSERT
  5
91C2
330
8F65
100
AcDbEntity
  8
AM_5
 62
     3
100
AcDbBlockReference
  2
_OPEN30
 10
17.24706365887027
 20
-0.0000000000000103
 30
0.0
 41
2.5
 42
2.5
 43
2.5
 50
90.0
  0
INSERT
  5
91C3
330
8F65
100
AcDbEntity
  8
AM_5
 62
     3
100
AcDbBlockReference
  2
_OPEN30
 10
17.24706365887026
 20
-25.00000000000001
 30
0.0
 41
2.5
 42
2.5
 43
2.5
 50
270.0
  0
MTEXT
  5
91C4
330
8F65
100
AcDbEntity
  8
AM_5
 62
     2
100
AcDbMText
 10
14.14706365887027
 20
-12.50000000000001
 30
0.0
 40
3.2
 41
0.0
 71
     5
 72
     1
  1
25
  7
ASAMI
 11
0.0000000000000001
 21
1.0
 31
0.0
1001
ACAD
1000
MTEXTBEGIN
1070
    73
1070
     1
1070
    44
1040
1.0
1070
    74
1070
     0
1000
MTEXTEND
  0
POINT
  5
91C5
330
8F65
100
AcDbEntity
  8
DEFPOINTS
 62
     0
100
AcDbPoint
 10
-0.0000000000000032
 20
-0.0000000000000055
 30
0.0
  0
POINT
  5
91C6
330
8F65
100
AcDbEntity
  8
DEFPOINTS
 62
     0
100
AcDbPoint
 10
-13.79124311358574
 20
-25.0
 30
0.0
  0
POINT
  5
91C7
330
8F65
100
AcDbEntity
  8
DEFPOINTS
 62
     0
100
AcDbPoint
 10
17.24706365887026
 20
-25.00000000000001
 30
0.0
  0
ENDBLK
  5
8F70
330
8F65
100
AcDbEntity
  8
0
100
AcDbBlockEnd
  0
BLOCK
  5
8F7C
330
8F72
100
AcDbEntity
  8
0
100
AcDbBlockBegin
  2
*D9
 70
     1
 10
0.0
 20
0.0
 30
0.0
  3
*D9
  1

  0
LINE
  5
958B
330
8F72
100
AcDbEntity
  8
AM_5
 62
     3
100
AcDbLine
 10
-1.323773690530936
 20
61.99756425207169
 30
0.0
 11
36.16987854317586
 21
61.99756425207169
 31
0.0
  0
LINE
  5
958C
330
8F72
100
AcDbEntity
  8
AM_5
 62
     3
100
AcDbLine
 10
0.9999999999999968
 20
37.49756425207169
 30
0.0
 11
36.16987854317585
 21
37.49756425207168
 31
0.0
  0
LINE
  5
958D
330
8F72
100
AcDbEntity
  8
AM_5
 62
     3
100
AcDbLine
 10
35.16987854317586
 20
59.49756425207169
 30
0.0
 11
35.16987854317585
 21
39.99756425207168
 31
0.0
  0
INSERT
  5
958E
330
8F72
100
AcDbEntity
  8
AM_5
 62
     3
100
AcDbBlockReference
  2
_OPEN30
 10
35.16987854317586
 20
61.99756425207169
 30
0.0
 41
2.5
 42
2.5
 43
2.5
 50
90.0
  0
INSERT
  5
958F
330
8F72
100
AcDbEntity
  8
AM_5
 62
     3
100
AcDbBlockReference
  2
_OPEN30
 10
35.16987854317585
 20
37.49756425207168
 30
0.0
 41
2.5
 42
2.5
 43
2.5
 50
270.0
  0
MTEXT
  5
9590
330
8F72
100
AcDbEntity
  8
AM_5
 62
     2
100
AcDbMText
 10
32.06987854317584
 20
49.7475642520717
 30
0.0
 40
3.2
 41
0.0
 71
     5
 72
     1
  1
24.5
  7
ASAMI
 11
0.0000000000000001
 21
1.0
 31
0.0
1001
ACAD
1000
MTEXTBEGIN
1070
    73
1070
     1
1070
    44
1040
1.0
1070
    74
1070
     0
1000
MTEXTEND
  0
POINT
  5
9591
330
8F72
100
AcDbEntity
  8
DEFPOINTS
 62
     0
100
AcDbPoint
 10
-2.323773690530936
 20
61.99756425207169
 30
0.0
  0
POINT
  5
9592
330
8F72
100
AcDbEntity
  8
DEFPOINTS
 62
     0
100
AcDbPoint
 10
-0.0000000000000032
 20
37.49756425207169
 30
0.0
  0
POINT
  5
9593
330
8F72
100
AcDbEntity
  8
DEFPOINTS
 62
     0
100
AcDbPoint
 10
35.16987854317585
 20
37.49756425207168
 30
0.0
  0
ENDBLK
  5
8F7D
330
8F72
100
AcDbEntity
  8
0
100
AcDbBlockEnd
  0
BLOCK
  5
9292
330
9282
100
AcDbEntity
  8
0
100
AcDbBlockBegin
  2
*D11
 70
     1
 10
0.0
 20
0.0
 30
0.0
  3
*D11
  1

  0
LINE
  5
94EE
330
9282
100
AcDbEntity
  8
AM_5
 62
     3
100
AcDbLine
 10
48.46331323074313
 20
0.996194698092065
 30
0.0
 11
49.68443177437467
 21
14.95364351967253
 31
0.0
  0
LINE
  5
94EF
330
9282
100
AcDbEntity
  8
AM_5
 62
     3
100
AcDbLine
 10
48.37615748799548
 20
1.598523043400518
 30
0.0
 11
48.37615748799554
 21
15.0107640085988
 31
0.0
  0
ARC
  5
94F0
330
9282
100
AcDbEntity
  8
AM_5
 62
     3
100
AcDbCircle
 10
48.37615748799547
 20
0.0000000000003189
 30
0.0
 40
14.01076400859848
100
AcDbArc
 50
64.44285626390689
 51
85.00000000000008
  0
LINE
  5
94F1
330
9282
100
AcDbEntity
  8
AM_5
 62
     3
100
AcDbLine
 10
54.42055621795347
 20
12.63988734514389
 30
0.0
 11
66.91497983602538
 21
6.665049422427173
 31
0.0
  0
ARC
  5
94F2
330
9282
100
AcDbEntity
  8
AM_5
 62
     3
100
AcDbCircle
 10
48.37615748799547
 20
0.0000000000003189
 30
0.0
 40
14.01076400859848
100
AcDbArc
 50
64.52571947105458
 51
74.76285973552734
  0
ARC
  5
94F3
330
9282
100
AcDbEntity
  8
AM_5
 62
     3
100
AcDbCircle
 10
48.37615748799547
 20
0.0000000000003189
 30
0.0
 40
14.01076400859848
100
AcDbArc
 50
100.2371402644724
 51
110.4742805289452
  0
ARC
  5
94F4
330
9282
100
AcDbEntity
  8
AM_5
 62
     3
100
AcDbCircle
 10
48.37615748799547
 20
0.0000000000003189
 30
0.0
 40
14.01076400859848
100
AcDbArc
 50
85.00000000000008
 51
89.99999999999971
  0
INSERT
  5
94F5
330
9282
100
AcDbEntity
  8
AM_5
 62
     3
100
AcDbBlockReference
  2
_OPEN30
 10
49.59727603162701
 20
13.95744882158078
 30
0.0
 41
2.5
 42
2.5
 43
2.5
 50
169.8814298677637
  0
INSERT
  5
94F6
330
9282
100
AcDbEntity
  8
AM_5
 62
     3
100
AcDbBlockReference
  2
_OPEN30
 10
48.37615748799554
 20
14.0107640085988
 30
0.0
 41
2.5
 42
2.5
 43
2.5
 50
5.118570132236096
  0
MTEXT
  5
94F7
330
9282
100
AcDbEntity
  8
AM_5
 62
     2
100
AcDbMText
 10
62.00514235228463
 20
12.44915033102966
 30
0.0
 40
3.2
 41
0.0
 71
     5
 72
     1
  1
-5°
  7
ASAMI
 11
0.9021554668529439
 21
-0.4314110726758724
 31
0.0
1001
ACAD
1000
MTEXTBEGIN
1070
    73
1070
     1
1070
    44
1040
1.0
1070
    74
1070
     0
1000
MTEXTEND
  0
POINT
  5
94F8
330
9282
100
AcDbEntity
  8
DEFPOINTS
 62
     0
100
AcDbPoint
 10
48.7836566185617
 20
14.00483675603665
 30
0.0
  0
POINT
  5
94F9
330
9282
100
AcDbEntity
  8
DEFPOINTS
 62
     0
100
AcDbPoint
 10
46.78265441562018
 20
-18.21382346186032
 30
0.0
  0
POINT
  5
94FA
330
9282
100
AcDbEntity
  8
DEFPOINTS
 62
     0
100
AcDbPoint
 10
48.37615748799547
 20
-0.0000000000000053
 30
0.0
  0
POINT
  5
94FB
330
9282
100
AcDbEntity
  8
DEFPOINTS
 62
     0
100
AcDbPoint
 10
48.37615748799547
 20
0.5985230434005189
 30
0.0
  0
POINT
  5
94FC
330
9282
100
AcDbEntity
  8
DEFPOINTS
 62
     0
100
AcDbPoint
 10
48.37615748799544
 20
-0.0000000000000071
 30
0.0
  0
ENDBLK
  5
9293
330
9282
100
AcDbEntity
  8
0
100
AcDbBlockEnd
  0
BLOCK
  5
93BD
330
93AE
100
AcDbEntity
  8
0
100
AcDbBlockBegin
  2
*D12
 70
     1
 10
0.0
 20
0.0
 30
0.0
  3
*D12
  1

  0
LINE
  5
957C
330
93AE
100
AcDbEntity
  8
AM_5
 62
     3
100
AcDbLine
 10
1.999999999999996
 20
37.4975642520717
 30
0.0
 11
21.73438984677325
 21
37.49756425207174
 31
0.0
  0
LINE
  5
957D
330
93AE
100
AcDbEntity
  8
AM_5
 62
     3
100
AcDbLine
 10
0.9961946980917421
 20
37.58471999481935
 30
0.0
 11
21.65168393161458
 21
39.39184114233437
 31
0.0
  0
ARC
  5
957E
330
93AE
100
AcDbEntity
  8
AM_5
 62
     3
100
AcDbCircle
 10
-0.0000000000000031
 20
37.4975642520717
 30
0.0
 40
20.73438984677325
100
AcDbArc
 50
346.1496958790527
 51
0.0000000000001654
  0
LINE
  5
957F
330
93AE
100
AcDbEntity
  8
AM_5
 62
     3
100
AcDbLine
 10
20.13152667634121
 20
32.53404171281229
 30
0.0
 11
16.81614464221403
 21
19.08720001231051
 31
0.0
  0
ARC
  5
9580
330
93AE
100
AcDbEntity
  8
AM_5
 62
     3
100
AcDbCircle
 10
-0.0000000000000031
 20
37.4975642520717
 30
0.0
 40
20.73438984677325
100
AcDbArc
 50
346.1750108954948
 51
353.0875054477474
  0
ARC
  5
9581
330
93AE
100
AcDbEntity
  8
AM_5
 62
     3
100
AcDbCircle
 10
-0.0000000000000031
 20
37.4975642520717
 30
0.0
 40
20.73438984677325
100
AcDbArc
 50
11.91249455225269
 51
18.82498910450537
  0
ARC
  5
9582
330
93AE
100
AcDbEntity
  8
AM_5
 62
     3
100
AcDbCircle
 10
-0.0000000000000031
 20
37.4975642520717
 30
0.0
 40
20.73438984677325
100
AcDbArc
 50
0.0000000000001654
 51
5.000000000000007
  0
INSERT
  5
9583
330
93AE
100
AcDbEntity
  8
AM_5
 62
     3
100
AcDbBlockReference
  2
_OPEN30
 10
20.73438984677325
 20
37.49756425207174
 30
0.0
 41
2.5
 42
2.5
 43
2.5
 50
86.54375272387381
  0
INSERT
  5
9584
330
93AE
100
AcDbEntity
  8
AM_5
 62
     3
100
AcDbBlockReference
  2
_OPEN30
 10
20.65548923352283
 20
39.30468539958671
 30
0.0
 41
2.5
 42
2.5
 43
2.5
 50
278.4562472761263
  0
MTEXT
  5
9585
330
93AE
100
AcDbEntity
  8
AM_5
 62
     2
100
AcDbMText
 10
21.48370154671629
 20
25.06852427879824
 30
0.0
 40
3.2
 41
0.0
 71
     5
 72
     1
  1
-5°
  7
ASAMI
 11
-0.2393859947623134
 21
-0.9709244798189288
 31
0.0
1001
ACAD
1000
MTEXTBEGIN
1070
    73
1070
     1
1070
    44
1040
1.0
1070
    74
1070
     0
1000
MTEXTEND
  0
POINT
  5
9586
330
93AE
100
AcDbEntity
  8
DEFPOINTS
 62
     0
100
AcDbPoint
 10
20.69931054081068
 20
38.70316180227544
 30
0.0
  0
POINT
  5
9587
330
93AE
100
AcDbEntity
  8
DEFPOINTS
 62
     0
100
AcDbPoint
 10
-0.0000000000000031
 20
37.4975642520717
 30
0.0
  0
POINT
  5
9588
330
93AE
100
AcDbEntity
  8
DEFPOINTS
 62
     0
100
AcDbPoint
 10
0.9999999999999962
 20
37.4975642520717
 30
0.0
  0
POINT
  5
9589
330
93AE
100
AcDbEntity
  8
DEFPOINTS
 62
     0
100
AcDbPoint
 10
-0.0000000000000031
 20
37.4975642520717
 30
0.0
  0
POINT
  5
958A
330
93AE
100
AcDbEntity
  8
DEFPOINTS
 62
     0
100
AcDbPoint
 10
-20.82576396401452
 20
35.67554599595371
 30
0.0
  0
ENDBLK
  5
93BE
330
93AE
100
AcDbEntity
  8
0
100
AcDbBlockEnd
  0
BLOCK
  5
95B8
330
95AE
100
AcDbEntity
  8
0
100
AcDbBlockBegin
  2
*D13
 70
     1
 10
0.0
 20
0.0
 30
0.0
  3
*D13
  1

  0
LINE
  5
9626
330
95AE
100
AcDbEntity
  8
AM_5
 62
     3
100
AcDbLine
 10
-150.0
 20
0.9999999999999944
 30
0.0
 11
-150.0
 21
23.02583524271177
 31
0.0
  0
LINE
  5
9627
330
95AE
100
AcDbEntity
  8
AM_5
 62
     3
100
AcDbLine
 10
-0.0000000000000022
 20
0.9999999999999944
 30
0.0
 11
-0.0000000000000204
 21
23.02583524271191
 31
0.0
  0
LINE
  5
9628
330
95AE
100
AcDbEntity
  8
AM_5
 62
     3
100
AcDbLine
 10
-147.5
 20
22.02583524271178
 30
0.0
 11
-2.500000000000019
 21
22.02583524271191
 31
0.0
  0
INSERT
  5
9629
330
95AE
100
AcDbEntity
  8
AM_5
 62
     3
100
AcDbBlockReference
  2
_OPEN30
 10
-150.0
 20
22.02583524271177
 30
0.0
 41
2.5
 42
2.5
 43
2.5
 50
180.0
  0
INSERT
  5
962A
330
95AE
100
AcDbEntity
  8
AM_5
 62
     3
100
AcDbBlockReference
  2
_OPEN30
 10
-0.0000000000000196
 20
22.02583524271191
 30
0.0
 41
2.5
 42
2.5
 43
2.5
 50
0.0000000000000509
  0
MTEXT
  5
962B
330
95AE
100
AcDbEntity
  8
AM_5
 62
     2
100
AcDbMText
 10
-75.00000000000003
 20
25.12583524271184
 30
0.0
 40
3.2
 41
0.0
 71
     5
 72
     1
  1
150
  7
ASAMI
1001
ACAD
1000
MTEXTBEGIN
1070
    73
1070
     1
1070
    44
1040
1.0
1070
    74
1070
     0
1000
MTEXTEND
  0
POINT
  5
962C
330
95AE
100
AcDbEntity
  8
DEFPOINTS
 62
     0
100
AcDbPoint
 10
-150.0
 20
-0.0000000000000055
 30
0.0
  0
POINT
  5
962D
330
95AE
100
AcDbEntity
  8
DEFPOINTS
 62
     0
100
AcDbPoint
 10
-0.0000000000000014
 20
-0.0000000000000055
 30
0.0
  0
POINT
  5
962E
330
95AE
100
AcDbEntity
  8
DEFPOINTS
 62
     0
100
AcDbPoint
 10
-0.0000000000000196
 20
22.02583524271191
 30
0.0
  0
ENDBLK
  5
95B9
330
95AE
100
AcDbEntity
  8
0
100
AcDbBlockEnd
  0
ENDSEC
  0
SECTION
  2
ENTITIES
  0
TEXT
  5
C58
330
1F
100
AcDbEntity
  8
AM_6
100
AcDbText
 10
-106.6666666666666
 20
-47.50000000000012
 30
0.0
 40
5.0
  1
ETANR2525M43W
 50
0.0000000000002036
 72
     4
 11
-75.0
 21
-45.0
 31
0.0
100
AcDbText
  0
POINT
  5
68EE
330
1F
100
AcDbEntity
  8
0
 60
     1
100
AcDbPoint
 10
0.0
 20
0.0
 30
0.0
1001
GENIUS_GENOBJ-NBEHI-BHF_13
1002
{
1000
OWNER
1000
GENBEHI
1002
}
1001
GENIUS_GENOENT_13
1002
{
1000
MYREF
1005
68EE
1002
}
1002
{
1000
GRP
1005
0
1002
}
1001
GENIUS_GENOLIS_13
1002
{
1000
ENT
1005
68EB
1002
}
1001
GENIUS_GENBH_13
1002
{
1000
OIUMAP
1000
OIU
1002
}
1002
{
1000
FLAGS
1070
    32
1002
}
1002
{
1000
BGO
1005
68F2
1002
}
1001
GENIUS_GENODEF_13
1002
{
1000
HIER
1070
     1
1002
}
1002
{
1000
MANEDIT
1070
     1
1002
}
1002
{
1000
NOSEL
1070
     1
1002
}
1002
{
1000
BEHIND
1070
     0
1002
}
1002
{
1000
REACTOR
1002
}
  0
POINT
  5
68F2
330
1F
100
AcDbEntity
  8
0
 60
     1
100
AcDbPoint
 10
0.0
 20
0.0
 30
0.0
1001
GENIUS_GENOBJ-NBEHI-BHB_13
1002
{
1000
OWNER
1000
GENBEHI
1002
}
1001
GENIUS_GENOENT_13
1002
{
1000
MYREF
1005
68F2
1002
}
1002
{
1000
GRP
1005
0
1002
}
1001
GENIUS_GENOLIS_13
1002
{
1000
ENT
1002
}
1001
GENIUS_GENODEF_13
1002
{
1000
HIER
1070
     1
1002
}
1002
{
1000
MANEDIT
1070
     0
1002
}
1002
{
1000
NOSEL
1070
     1
1002
}
1002
{
1000
BEHIND
1070
     0
1002
}
1002
{
1000
REACTOR
1002
}
1002
{
1000
OTHER
1070
     1
1002
}
1001
GENIUS_GENBH_13
1002
{
1000
FGO
1005
68EE
1002
}
  0
LINE
  5
8E64
330
1F
100
AcDbEntity
  8
AM_0
100
AcDbLine
 10
72.87615748799544
 20
-25.0
 30
0.0
 11
45.37615748799544
 21
-25.0
 31
0.0
  0
LINE
  5
8E65
330
1F
100
AcDbEntity
  8
AM_0
100
AcDbLine
 10
72.87615748799544
 20
-0.0000000000000055
 30
0.0
 11
45.37615748799544
 21
-0.0000000000000055
 31
0.0
  0
LINE
  5
8E66
330
1F
100
AcDbEntity
  8
AM_0
100
AcDbLine
 10
0.0
 20
37.49756425207169
 30
0.0
 11
-0.8297226709576932
 21
46.98133777790511
 31
0.0
  0
LINE
  5
8E67
330
1F
100
AcDbEntity
  8
AM_0
100
AcDbLine
 10
-31.28999999999999
 20
36.99756425207169
 30
0.0
 11
-150.0
 21
36.99756425207169
 31
0.0
  0
LINE
  5
8E68
330
1F
100
AcDbEntity
  8
AM_0
100
AcDbLine
 10
-2.32045081706866
 20
61.99756425207169
 30
0.0
 11
-150.0
 21
61.99756425207169
 31
0.0
  0
LINE
  5
8E6A
330
1F
100
AcDbEntity
  8
AM_0
100
AcDbLine
 10
72.87615748799544
 20
-25.0
 30
0.0
 11
72.87615748799544
 21
-0.0000000000000055
 31
0.0
  0
LINE
  5
8E6B
330
1F
100
AcDbEntity
  8
AM_0
100
AcDbLine
 10
-13.79124311358574
 20
-25.0
 30
0.0
 11
-150.0
 21
-25.0
 31
0.0
  0
LINE
  5
8E6C
330
1F
100
AcDbEntity
  8
AM_0
100
AcDbLine
 10
-15.91214328928431
 20
-0.0000000000000055
 30
0.0
 11
-150.0
 21
-0.0000000000000055
 31
0.0
  0
LINE
  5
8E6D
330
1F
100
AcDbEntity
  8
AM_0
100
AcDbLine
 10
-20.79198847419414
 20
-0.5700000000000057
 30
0.0
 11
-21.08231495663152
 21
-0.5700000000000057
 31
0.0
  0
LINE
  5
8E71
330
1F
100
AcDbEntity
  8
AM_0
100
AcDbLine
 10
-21.41140461006961
 20
-0.0000000000000051
 30
0.0
 11
-10.38444549695735
 21
-19.09925343689509
 31
0.0
  0
LINE
  5
8E76
330
1F
100
AcDbEntity
  8
AM_0
100
AcDbLine
 10
-10.38444549695735
 20
-19.09925343689509
 30
0.0
 11
-13.79124311358573
 21
-25.0
 31
0.0
  0
LINE
  5
8E77
330
1F
100
AcDbEntity
  8
AM_0
100
AcDbLine
 10
-10.54115747831577
 20
-18.82782032302752
 30
0.0
 11
-10.18911712468517
 21
-18.21806854422481
 31
0.0
  0
LINE
  5
8E7C
330
1F
100
AcDbEntity
  8
AM_7
100
AcDbLine
 10
-13.40286550772188
 20
70.76222320732572
 30
0.0
 11
-9.91574115417805
 21
30.9042094600868
 31
0.0
  0
LINE
  5
8E7E
330
1F
100
AcDbEntity
  8
AM_0
100
AcDbLine
 10
-1.008654513143596
 20
46.96568327017003
 30
0.0
 11
-2.323773690530941
 21
61.99756425207169
 31
0.0
  0
LINE
  5
8E80
330
1F
100
AcDbEntity
  8
AM_0
100
AcDbLine
 10
72.87615748799544
 20
-2.18721658814811
 30
0.0
 11
56.28214532909694
 21
-0.7354286418331438
 31
0.0
  0
LINE
  5
8E81
330
1F
100
AcDbEntity
  8
AM_0
100
AcDbLine
 10
54.56237286439933
 20
-20.39251786217631
 30
0.0
 11
56.2859433908439
 21
-0.6920165974164033
 31
0.0
  0
LINE
  5
8E82
330
1F
100
AcDbEntity
  8
AM_0
100
AcDbLine
 10
51.09827000930369
 20
-19.38677424678731
 30
0.0
 11
45.39200680176906
 21
-18.88754090503295
 31
0.0
  0
LINE
  5
8E84
330
1F
100
AcDbEntity
  8
AM_0
100
AcDbLine
 10
53.56261003170878
 20
-19.90352201308399
 30
0.0
 11
51.07212328647939
 21
-19.68563265621482
 31
0.0
  0
LINE
  5
8E85
330
1F
100
AcDbEntity
  8
AM_0
100
AcDbLine
 10
54.56237286439932
 20
-20.39251786217631
 30
0.0
 11
53.52774773460974
 21
-20.3019998923207
 31
0.0
  0
LINE
  5
8E86
330
1F
100
AcDbEntity
  8
AM_0
100
AcDbLine
 10
53.52774773460971
 20
-20.3019998923207
 30
0.0
 11
53.56261003170875
 21
-19.90352201308396
 31
0.0
  0
LINE
  5
8E87
330
1F
100
AcDbEntity
  8
AM_0
100
AcDbLine
 10
51.07212328647939
 20
-19.68563265621482
 30
0.0
 11
51.09827000930369
 21
-19.3867742467873
 31
0.0
  0
LINE
  5
8E8A
330
1F
100
AcDbEntity
  8
AM_7
100
AcDbLine
 10
44.05387252754024
 20
-6.020453656090827
 30
0.0
 11
80.21364477343837
 21
-9.184023803286256
 31
0.0
  0
LINE
  5
8E8C
330
1F
100
AcDbEntity
  8
AM_0
100
AcDbLine
 10
-22.11117100493282
 20
35.01626839065227
 30
0.0
 11
-22.51093930964583
 21
39.58564102250814
 31
0.0
  0
LINE
  5
8E8E
330
1F
100
AcDbEntity
  8
AM_0
100
AcDbLine
 10
-21.65548663497222
 20
45.04270727257264
 30
0.0
 11
-22.98837074263639
 21
45.04270727257264
 31
0.0
  0
LINE
  5
8E8F
330
1F
100
AcDbEntity
  8
AM_0
100
AcDbLine
 10
-21.55510146766195
 20
44.01656054974834
 30
0.0
 11
-23.19974048853799
 21
44.01656054974834
 31
0.0
  0
LINE
  5
8E90
330
1F
100
AcDbEntity
  8
AM_0
100
AcDbLine
 10
-21.16719009625899
 20
39.58270994569
 30
0.0
 11
-22.50901415752429
 21
39.58270994569
 31
0.0
  0
LINE
  5
8E91
330
1F
100
AcDbEntity
  8
AM_0
100
AcDbLine
 10
-22.80787256695177
 20
39.53748971024374
 30
0.0
 11
-23.19869445619752
 21
44.00460434538628
 31
0.0
  0
LINE
  5
8E92
330
1F
100
AcDbEntity
  8
AM_0
100
AcDbLine
 10
-23.59821836777467
 20
43.98169825264928
 30
0.0
 11
-23.6857070313006
 21
44.98169825264929
 31
0.0
  0
LINE
  5
8E93
330
1F
100
AcDbEntity
  8
AM_0
100
AcDbLine
 10
-23.19974048853799
 20
44.01656054974834
 30
0.0
 11
-23.59821836777467
 21
43.98169825264928
 31
0.0
  0
LINE
  5
8E94
330
1F
100
AcDbEntity
  8
AM_0
100
AcDbLine
 10
-22.50901415752429
 20
39.56363643306805
 30
0.0
 11
-22.8078725669518
 21
39.53748971024376
 31
0.0
  0
LINE
  5
8EBC
330
1F
100
AcDbEntity
  8
AM_0
100
AcDbLine
 10
-150.0
 20
-25.0
 30
0.0
 11
-150.0
 21
-0.0000000000000055
 31
0.0
  0
LINE
  5
8EBD
330
1F
100
AcDbEntity
  8
AM_0
100
AcDbLine
 10
-150.0
 20
36.99756425207169
 30
0.0
 11
-150.0
 21
61.99756425207171
 31
0.0
  0
LINE
  5
8EC0
330
1F
100
AcDbEntity
  8
AM_0
100
AcDbLine
 10
0.0
 20
37.49756425207169
 30
0.0
 11
-20.82576396401452
 21
35.67554599595371
 31
0.0
  0
LINE
  5
8EC1
330
1F
100
AcDbEntity
  8
AM_0
100
AcDbLine
 10
-20.82576396401452
 20
35.67554599595371
 30
0.0
 11
-21.65548663497222
 21
45.1593195217871
 31
0.0
  0
LINE
  5
8EC2
330
1F
100
AcDbEntity
  8
AM_0
100
AcDbLine
 10
-0.4148613354788609
 20
42.2394510149884
 30
0.0
 11
-21.24062529949338
 21
40.41743275887042
 31
0.0
  0
LINE
  5
8EC4
330
1F
100
AcDbEntity
  8
AM_0
100
AcDbLine
 10
46.78265441562019
 20
-18.21382346186032
 30
0.0
 11
48.37615748799544
 21
-0.0000000000000055
 31
0.0
  0
LINE
  5
8EC6
330
1F
100
AcDbEntity
  8
AM_0
100
AcDbLine
 10
46.78265441562019
 20
-18.21382346186032
 30
0.0
 11
54.69244031846868
 21
-18.90584005927674
 31
0.0
  0
LINE
  5
8EC7
330
1F
100
AcDbEntity
  8
AM_0
100
AcDbLine
 10
51.5245411785369
 20
-18.62868479733918
 30
0.0
 11
53.11804425091219
 21
-0.4148613354788663
 31
0.0
  0
LINE
  5
8EC9
330
1F
100
AcDbEntity
  8
AM_0
100
AcDbLine
 10
48.37615748799547
 20
-0.0000000000000055
 30
0.0
 11
56.28594339084395
 21
-0.6920165974164175
 31
0.0
  0
LINE
  5
8ECF
330
1F
100
AcDbEntity
  8
AM_0
100
AcDbLine
 10
-27.18721658814811
 20
61.99756425207169
 30
0.0
 11
-24.80603189032348
 21
34.78049861340117
 31
0.0
  0
LINE
  5
8ED0
330
1F
100
AcDbEntity
  8
AM_0
100
AcDbLine
 10
53.56261003170878
 20
-19.90352201308399
 30
0.0
 11
53.56261003170878
 21
-18.80339609712643
 31
0.0
  0
LINE
  5
8ED1
330
1F
100
AcDbEntity
  8
AM_0
100
AcDbLine
 10
51.09827000930369
 20
-19.38677424678731
 30
0.0
 11
51.09827000930369
 21
-18.58730152046256
 31
0.0
  0
LINE
  5
8ED2
330
1F
100
AcDbEntity
  8
AM_0
100
AcDbLine
 10
54.56237286439932
 20
-20.39251786217631
 30
0.0
 11
54.56237286439932
 21
-18.88938017351673
 31
0.0
  0
DIMENSION
  5
8EFB
330
1F
100
AcDbEntity
  8
AM_5
100
AcDbDimension
  2
*D5
 10
-0.0000000000000032
 20
-4.809002337427051
 30
0.0
 11
-11.34076662242766
 21
11.34076662242766
 31
0.0
 70
    34
  3
AM_JIS$2
100
AcDb2LineAngularDimension
 13
-0.3999999999999946
 23
-0.0000000000000055
 33
0.0
 14
-10.0128819819093
 24
-0.0000000000000055
 34
0.0
 15
-0.0000000000000032
 25
-0.4000000000000111
 35
0.0
 16
-6.469132982572658
 26
11.20486700673543
 36
0.0
1001
ACAD
1000
DSTYLE
1002
{
1070
   271
1070
     0
1002
}
  0
DIMENSION
  5
8F4A
330
1F
100
AcDbEntity
  8
AM_5
100
AcDbDimension
  2
*D6
 10
-167.571991295091
 20
-25.0
 30
0.0
 11
-170.671991295091
 21
-12.50000000000002
 31
0.0
 70
    32
  3
AM_JIS
100
AcDbAlignedDimension
 13
-150.0
 23
-0.0000000000000055
 33
0.0
 14
-150.0
 24
-25.0
 34
0.0
 50
270.0
100
AcDbRotatedDimension
  0
DIMENSION
  5
8F57
330
1F
100
AcDbEntity
  8
AM_5
100
AcDbDimension
  2
*D7
 10
-170.160794517398
 20
36.99756425207169
 30
0.0
 11
-173.260794517398
 21
49.49756425207166
 31
0.0
 70
    32
  3
AM_JIS
100
AcDbAlignedDimension
 13
-150.0
 23
61.99756425207169
 33
0.0
 14
-150.0
 24
36.99756425207169
 34
0.0
 50
270.0
100
AcDbRotatedDimension
  0
DIMENSION
  5
8F64
330
1F
100
AcDbEntity
  8
AM_5
100
AcDbDimension
  2
*D8
 10
17.24706365887026
 20
-25.00000000000001
 30
0.0
 11
14.14706365887027
 21
-12.50000000000001
 31
0.0
 70
    32
  3
AM_JIS
100
AcDbAlignedDimension
 13
-0.0000000000000032
 23
-0.0000000000000055
 33
0.0
 14
-13.79124311358574
 24
-25.0
 34
0.0
 50
270.0
100
AcDbRotatedDimension
  0
DIMENSION
  5
8F71
330
1F
100
AcDbEntity
  8
AM_5
100
AcDbDimension
  2
*D9
 10
35.16987854317585
 20
37.49756425207168
 30
0.0
 11
32.06987854317584
 21
49.7475642520717
 31
0.0
 70
    32
  3
AM_JIS
100
AcDbAlignedDimension
 13
-2.323773690530936
 23
61.99756425207169
 33
0.0
 14
-0.0000000000000032
 24
37.49756425207169
 34
0.0
 50
270.0
100
AcDbRotatedDimension
  0
POLYLINE
  5
906E
330
1F
100
AcDbEntity
  8
AM_0
100
AcDb2dPolyline
 66
     1
 10
0.0
 20
0.0
 30
0.0
 70
     1
  0
VERTEX
  5
906F
330
906E
100
AcDbEntity
  8
AM_0
100
AcDbVertex
100
AcDb2dVertex
 10
-9.720061658979705
 20
-17.85
 30
0.0
  0
VERTEX
  5
9070
330
906E
100
AcDbEntity
  8
AM_0
100
AcDbVertex
100
AcDb2dVertex
 10
-0.1071796769724532
 20
-1.200000000000008
 30
0.0
 42
0.5773502691896255
  0
VERTEX
  5
9071
330
906E
100
AcDbEntity
  8
AM_0
100
AcDbVertex
100
AcDb2dVertex
 10
-0.8000000000000003
 20
-0.0000000000000055
 30
0.0
  0
VERTEX
  5
9072
330
906E
100
AcDbEntity
  8
AM_0
100
AcDbVertex
100
AcDb2dVertex
 10
-20.02576396401452
 20
-0.0000000000000055
 30
0.0
 42
0.5773502691896255
  0
VERTEX
  5
9073
330
906E
100
AcDbEntity
  8
AM_0
100
AcDbVertex
100
AcDb2dVertex
 10
-20.71858428704206
 20
-1.200000000000008
 30
0.0
  0
VERTEX
  5
9074
330
906E
100
AcDbEntity
  8
AM_0
100
AcDbVertex
100
AcDb2dVertex
 10
-11.1057023050348
 20
-17.85
 30
0.0
 42
0.5773502691896262
  0
SEQEND
  5
9075
330
906E
100
AcDbEntity
  8
AM_0
  0
CIRCLE
  5
9076
330
1F
100
AcDbEntity
  8
AM_0
100
AcDbCircle
 10
-10.41288198200725
 20
-6.349999999999999
 30
0.0
 40
2.5125
  0
LINE
  5
9078
330
1F
100
AcDbEntity
  8
AM_11
100
AcDbLine
 10
-0.8000000000000003
 20
-0.0000000000000055
 30
0.0
 11
-0.0000000000000014
 21
-0.0000000000000055
 31
0.0
  0
LINE
  5
9079
330
1F
100
AcDbEntity
  8
AM_11
100
AcDbLine
 10
-0.0000000000000014
 20
-0.8000000000000026
 30
0.0
 11
-0.0000000000000014
 21
-0.0000000000000055
 31
0.0
  0
LINE
  5
907A
330
1F
100
AcDbEntity
  8
AM_0
100
AcDbLine
 10
-10.69673015642319
 20
34.49756425207169
 30
0.0
 11
-30.28999999999999
 21
34.49756425207169
 31
0.0
  0
LINE
  5
907F
330
1F
100
AcDbEntity
  8
AM_0
100
AcDbLine
 10
-30.28999999999999
 20
-0.0000000000000391
 30
0.0
 11
-30.28999999999999
 21
-25.00000000000003
 31
0.0
  0
LINE
  5
9080
330
1F
100
AcDbEntity
  8
AM_0
100
AcDbLine
 10
-30.28999999999999
 20
34.49756425207169
 30
0.0
 11
-30.28999999999999
 21
35.9975642520717
 31
0.0
  0
LINE
  5
9081
330
1F
100
AcDbEntity
  8
AM_0
100
AcDbLine
 10
-30.28999999999999
 20
35.9975642520717
 30
0.0
 11
-31.28999999999999
 21
36.99756425207169
 31
0.0
  0
LINE
  5
9084
330
1F
100
AcDbEntity
  8
AM_0
100
AcDbLine
 10
-10.69673015642321
 20
-19.64014633351429
 30
0.0
 11
-28.04113334107001
 21
-0.0000000000000055
 31
0.0
  0
LINE
  5
9093
330
1F
100
AcDbEntity
  8
AM_0
100
AcDbLine
 10
-0.8297226709577216
 20
46.98133777790511
 30
0.0
 11
-23.6857070313006
 21
44.9816982526493
 31
0.0
  0
LINE
  5
9098
330
1F
100
AcDbEntity
  8
AM_0
100
AcDbLine
 10
-22.11117100493282
 20
35.01626839065227
 30
0.0
 11
-28.04112462905698
 21
34.49746467330694
 31
0.0
  0
LINE
  5
909B
330
1F
100
AcDbEntity
  8
AM_0
100
AcDbLine
 10
-10.38444549695736
 20
34.52488561956799
 30
0.0
 11
-10.69673015642305
 21
34.49756425207169
 31
0.0
  0
LINE
  5
909C
330
1F
100
AcDbEntity
  8
AM_0
100
AcDbLine
 10
-10.38444549695736
 20
34.52488561956799
 30
0.0
 11
-22.11117100493282
 21
35.01626839065227
 31
0.0
  0
LINE
  5
90A7
330
1F
100
AcDbEntity
  8
AM_0
100
AcDbLine
 10
-10.38444549695736
 20
34.52488561956799
 30
0.0
 11
-10.56366408020866
 21
36.57336339975742
 31
0.0
  0
LINE
  5
90AA
330
1F
100
AcDbEntity
  8
AM_0
100
AcDbLine
 10
45.37615748799544
 20
-25.0
 30
0.0
 11
45.37615748799544
 21
-0.0000000000000055
 31
0.0
  0
LINE
  5
90AC
330
1F
100
AcDbEntity
  8
AM_0
100
AcDbLine
 10
-10.0396803874101
 20
66.74198111530252
 30
0.0
 11
-9.624488497605824
 21
61.99631609915751
 31
0.0
  0
LINE
  5
90AD
330
1F
100
AcDbEntity
  8
AM_0
100
AcDbLine
 10
-16.01684857596055
 20
66.21904665881655
 30
0.0
 11
-15.64729167986402
 21
61.99499200758729
 31
0.0
  0
LINE
  5
90AE
330
1F
100
AcDbEntity
  8
AM_0
100
AcDbLine
 10
-10.0396803874101
 20
66.74198111530253
 30
0.0
 11
-16.01684857596055
 21
66.21904665881655
 31
0.0
  0
LINE
  5
90AF
330
1F
100
AcDbEntity
  8
AM_0
100
AcDbLine
 10
77.10162165057464
 20
-11.91071706587273
 30
0.0
 11
72.87615748799544
 21
-11.54103685351195
 31
0.0
  0
LINE
  5
90B0
330
1F
100
AcDbEntity
  8
AM_0
100
AcDbLine
 10
77.10162165057465
 20
-11.91071706587273
 30
0.0
 11
77.62455610706062
 21
-5.933548877322287
 31
0.0
  0
LINE
  5
90B1
330
1F
100
AcDbEntity
  8
AM_0
100
AcDbLine
 10
77.62455610706062
 20
-5.933548877322287
 30
0.0
 11
72.88409197945373
 21
-5.518812006305292
 31
0.0
  0
LINE
  5
90B2
330
1F
100
AcDbEntity
  8
AM_0
100
AcDbLine
 10
45.37615748799544
 20
-25.0
 30
0.0
 11
45.47615748799544
 21
-18.89490313610568
 31
0.0
  0
LINE
  5
90B4
330
1F
100
AcDbEntity
  8
AM_0
100
AcDbLine
 10
45.47615748799544
 20
-18.89490313610568
 30
0.0
 11
47.12924731082509
 21
-0.0000000000000055
 31
0.0
  0
DIMENSION
  5
9281
330
1F
100
AcDbEntity
  8
AM_5
100
AcDbDimension
  2
*D11
 10
48.37615748799544
 20
-0.0000000000000071
 30
0.0
 11
62.00514235228462
 21
12.44915033102966
 31
0.0
 70
    34
  1
-<>
  3
AM_JIS$2
100
AcDb2LineAngularDimension
 13
48.37615748799547
 23
-0.0000000000000055
 33
0.0
 14
48.37615748799547
 24
0.5985230434005189
 34
0.0
 15
46.78265441562019
 25
-18.21382346186032
 35
0.0
 16
48.7836566185617
 26
14.00483675603665
 36
0.0
1001
ACAD
1000
DSTYLE
1002
{
1070
   179
1070
     3
1002
}
1001
GENIUS_GENDTOL_13
1000

1000
h7
1000

1040
0.0
  0
DIMENSION
  5
93AD
330
1F
100
AcDbEntity
  8
AM_5
100
AcDbDimension
  2
*D12
 10
-20.82576396401452
 20
35.67554599595371
 30
0.0
 11
21.4837015467163
 21
25.06852427879824
 31
0.0
 70
    34
  1
-<>
  3
AM_JIS$2
100
AcDb2LineAngularDimension
 13
0.9999999999999968
 23
37.49756425207169
 33
0.0
 14
-0.0000000000000032
 24
37.49756425207169
 34
0.0
 15
-0.0000000000000032
 25
37.49756425207169
 35
0.0
 16
20.69931054081068
 26
38.70316180227544
 36
0.0
1001
ACAD
1000
DSTYLE
1002
{
1070
   179
1070
     3
1002
}
1001
GENIUS_GENDTOL_13
1000

1000
h7
1000

1040
0.0
  0
DIMENSION
  5
95AD
330
1F
100
AcDbEntity
  8
AM_5
100
AcDbDimension
  2
*D13
 10
-0.0000000000000196
 20
22.02583524271191
 30
0.0
 11
-75.00000000000003
 21
25.12583524271184
 31
0.0
 70
    32
  1
<>
  3
AM_JIS
100
AcDbAlignedDimension
 13
-150.0
 23
-0.0000000000000055
 33
0.0
 14
-0.0000000000000014
 24
-0.0000000000000055
 34
0.0
 50
180.0
100
AcDbRotatedDimension
1001
GENIUS_GENDTOL_13
1000

1000
h7
1000

1040
0.0
  0
VIEWPORT
  5
110
330
101
100
AcDbEntity
 67
     1
  8
0
100
AcDbViewport
 10
420.5
 20
297.0
 30
0.0
 40
948.9782706766916
 41
628.452
 68
     1
 69
     1
1001
ACAD
1000
MVIEW
1002
{
1070
    16
1010
0.0
1020
0.0
1030
0.0
1010
0.0
1020
0.0
1030
1.0
1040
0.0
1040
628.452
1040
420.5
1040
297.0
1040
50.0
1040
0.0
1040
0.0
1070
     0
1070
   100
1070
     1
1070
     1
1070
     0
1070
     0
1070
     0
1070
     0
1040
0.0
1040
0.0
1040
0.0
1040
10.0
1040
10.0
1040
10.0
1040
10.0
1070
     0
1002
{
1002
}
1002
}
  0
ENDSEC
  0
SECTION
  2
OBJECTS
  0
DICTIONARY
  5
C
330
0
100
AcDbDictionary
  3
ACAD_GROUP
350
D
  3
ACAD_LAYOUT
350
1A
  3
ACAD_MLINESTYLE
350
17
  3
ACAD_PLOTSETTINGS
350
19
  3
ACAD_PLOTSTYLENAME
350
E
  3
ACDBVARIABLEDICTIONARY
350
34
  3
ACMDICTIONARY
350
43
  3
AMG
350
2B
  3
AMGSNAPSETTINGS
350
6E
  3
DWGPROPS
350
964B
  3
ACDBHEADERROUNDTRIPXREC
350
9657
  0
DICTIONARY
  5
74
330
1F
100
AcDbDictionary
280
     1
  3
ACAD_INDEX
360
964D
  3
ACAD_LAYOUTSELFREF
360
967A
  0
DICTIONARY
  5
967F
330
101
100
AcDbDictionary
280
     1
  3
ACAD_LAYOUTSELFREF
360
9680
  0
DICTIONARY
  5
D
102
{ACAD_REACTORS
330
C
102
}
330
C
100
AcDbDictionary
  3
*A1
350
8AC5
  3
*A2
350
8B73
  3
*A3
350
8D58
  0
DICTIONARY
  5
1A
102
{ACAD_REACTORS
330
C
102
}
330
C
100
AcDbDictionary
  0
DICTIONARY
  5
17
102
{ACAD_REACTORS
330
C
102
}
330
C
100
AcDbDictionary
  3
STANDARD
350
18
  0
DICTIONARY
  5
19
102
{ACAD_REACTORS
330
C
102
}
330
C
100
AcDbDictionary
  0
ACDBDICTIONARYWDFLT
  5
E
102
{ACAD_REACTORS
330
C
102
}
330
C
100
AcDbDictionary
281
     1
  3
Normal
350
F
100
AcDbDictionaryWithDefault
340
F
  0
DICTIONARY
  5
34
102
{ACAD_REACTORS
330
C
102
}
330
C
100
AcDbDictionary
  3
INDEXCTL
350
35
  3
SORTENTS
350
B5E
  0
DICTIONARY
  5
43
102
{ACAD_REACTORS
330
C
102
}
330
C
100
AcDbDictionary
  3
ACMSTDDICTIONARY
350
260
  0
DICTIONARY
  5
2B
102
{ACAD_REACTORS
330
C
102
}
330
C
100
AcDbDictionary
  3
ACMGSETTINGS
350
2C
  0
DICTIONARY
  5
6E
102
{ACAD_REACTORS
330
C
102
}
330
C
100
AcDbDictionary
  0
XRECORD
  5
964B
102
{ACAD_REACTORS
330
C
102
}
330
C
100
AcDbXrecord
  1
DWGPROPS COOKIE
  2

  3

  4

  6

  7

  8

  9

300
AmdtFileType=82
301
=
302
=
303
=
304
=
305
=
306
=
307
=
308
=
309
=
 40
1.86181917824074
 41
2452838.620506898
 42
2452909.498020995
  1

 90
        1
  0
DICTIONARY
  5
9657
102
{ACAD_REACTORS
330
C
102
}
330
C
100
AcDbDictionary
  3
TSTACKALIGN
350
9658
  3
TSTACKSIZE
350
9659
  3
HYPERLINKBASE
350
965A
  3
STYLESHEET
350
965B
  3
LAYOUTDICT
350
965C
  3
PLOTSETDICT
350
965D
  3
PLOTSTYLNAMDICT
350
965E
  3
LWETCUNION
350
965F
  3
INSUNITS
350
9660
  3
CEPSNTYPE
350
9661
  3
FINGERPRINTGUID
350
9662
  3
VERSIONGUID
350
9663
  3
PSVPSCALE
350
9664
  3
DIMSTYLEDATA
350
9665
  3
PUCSORTHOREF
350
9666
  3
PUCSORTHOVIEW
350
9667
  3
PUCSBASE
350
9668
  3
PUCSORGTOP
350
9669
  3
PUCSORGBOTTOM
350
966A
  3
PUCSORGLEFT
350
966B
  3
PUCSORGRIGHT
350
966C
  3
PUCSORGFRONT
350
966D
  3
PUCSORGBACK
350
966E
  3
UCSORTHOREF
350
966F
  3
UCSORTHOVIEW
350
9670
  3
UCSBASE
350
9671
  3
UCSORGTOP
350
9672
  3
UCSORGBOTTOM
350
9673
  3
UCSORGLEFT
350
9674
  3
UCSORGRIGHT
350
9675
  3
UCSORGFRONT
350
9676
  3
UCSORGBACK
350
9677
  0
DICTIONARY
  5
964D
102
{ACAD_REACTORS
330
74
102
}
330
74
100
AcDbDictionary
  3
*A1
350
964E
  0
XRECORD
  5
967A
102
{ACAD_REACTORS
330
74
102
}
330
74
100
AcDbXrecord
340
1F
  0
XRECORD
  5
9680
102
{ACAD_REACTORS
330
967F
102
}
330
967F
100
AcDbXrecord
340
101
  0
GROUP
  5
8AC5
102
{ACAD_REACTORS
330
D
102
}
330
D
100
AcDbGroup
300

 70
     1
 71
     1
  0
GROUP
  5
8B73
102
{ACAD_REACTORS
330
D
102
}
330
D
100
AcDbGroup
300

 70
     1
 71
     1
  0
GROUP
  5
8D58
102
{ACAD_REACTORS
330
D
102
}
330
D
100
AcDbGroup
300

 70
     1
 71
     1
  0
MLINESTYLE
  5
18
102
{ACAD_REACTORS
330
17
102
}
330
17
100
AcDbMlineStyle
  2
STANDARD
 70
     0
  3

 62
   256
 51
90.0
 52
90.0
 71
     2
 49
0.5
 62
   256
  6
BYLAYER
 49
-0.5
 62
   256
  6
BYLAYER
  0
ACDBPLACEHOLDER
  5
F
102
{ACAD_REACTORS
330
E
102
}
330
E
100
AcDbPlaceHolder
280
     0
  0
DICTIONARYVAR
  5
35
102
{ACAD_REACTORS
330
34
102
}
330
34
100
DictionaryVariables
280
     0
  1
1
  0
DICTIONARYVAR
  5
B5E
102
{ACAD_REACTORS
330
34
102
}
330
34
100
DictionaryVariables
280
     0
  1
96
  0
DICTIONARY
  5
260
102
{ACAD_REACTORS
330
43
102
}
330
43
100
AcDbDictionary
  0
DICTIONARY
  5
2C
102
{ACAD_REACTORS
330
2B
102
}
330
2B
100
AcDbDictionary
  3
DWGSETTINGS
350
2D
  0
XRECORD
  5
9658
102
{ACAD_REACTORS
330
9657
102
}
330
9657
100
AcDbXrecord
 90
        1
  0
XRECORD
  5
9659
102
{ACAD_REACTORS
330
9657
102
}
330
9657
100
AcDbXrecord
 90
       70
  0
XRECORD
  5
965A
102
{ACAD_REACTORS
330
9657
102
}
330
9657
100
AcDbXrecord
  1

  0
XRECORD
  5
965B
102
{ACAD_REACTORS
330
9657
102
}
330
9657
100
AcDbXrecord
  1
ASAMI.ctb
  0
XRECORD
  5
965C
102
{ACAD_REACTORS
330
9657
102
}
330
9657
100
AcDbXrecord
340
1A
  0
XRECORD
  5
965D
102
{ACAD_REACTORS
330
9657
102
}
330
9657
100
AcDbXrecord
340
19
  0
XRECORD
  5
965E
102
{ACAD_REACTORS
330
9657
102
}
330
9657
100
AcDbXrecord
340
E
  0
XRECORD
  5
965F
102
{ACAD_REACTORS
330
9657
102
}
330
9657
100
AcDbXrecord
 90
    10781
  0
XRECORD
  5
9660
102
{ACAD_REACTORS
330
9657
102
}
330
9657
100
AcDbXrecord
 90
        4
  0
XRECORD
  5
9661
102
{ACAD_REACTORS
330
9657
102
}
330
9657
100
AcDbXrecord
 90
        0
  0
XRECORD
  5
9662
102
{ACAD_REACTORS
330
9657
102
}
330
9657
100
AcDbXrecord
  1
{AFB28963-8C59-40AE-9337-C84526B81ACE}
  0
XRECORD
  5
9663
102
{ACAD_REACTORS
330
9657
102
}
330
9657
100
AcDbXrecord
  1
{E0BDE73B-A05D-44F8-AA0A-0B742D058CE6}
  0
XRECORD
  5
9664
102
{ACAD_REACTORS
330
9657
102
}
330
9657
100
AcDbXrecord
 40
0.0
  0
XRECORD
  5
9665
102
{ACAD_REACTORS
330
9657
102
}
330
9657
100
AcDbXrecord
1000
DSTYLE
1002
{
1070
    79
 70
     2
1070
   341
340
59
1070
   342
340
59
1070
   371
 70
    -1
1070
   372
 70
    -1
1002
}
  0
XRECORD
  5
9666
102
{ACAD_REACTORS
330
9657
102
}
330
9657
100
AcDbXrecord
340
0
  0
XRECORD
  5
9667
102
{ACAD_REACTORS
330
9657
102
}
330
9657
100
AcDbXrecord
 70
     0
  0
XRECORD
  5
9668
102
{ACAD_REACTORS
330
9657
102
}
330
9657
100
AcDbXrecord
340
0
  0
XRECORD
  5
9669
102
{ACAD_REACTORS
330
9657
102
}
330
9657
100
AcDbXrecord
 10
0.0
 20
0.0
 30
0.0
  0
XRECORD
  5
966A
102
{ACAD_REACTORS
330
9657
102
}
330
9657
100
AcDbXrecord
 10
0.0
 20
0.0
 30
0.0
  0
XRECORD
  5
966B
102
{ACAD_REACTORS
330
9657
102
}
330
9657
100
AcDbXrecord
 10
0.0
 20
0.0
 30
0.0
  0
XRECORD
  5
966C
102
{ACAD_REACTORS
330
9657
102
}
330
9657
100
AcDbXrecord
 10
0.0
 20
0.0
 30
0.0
  0
XRECORD
  5
966D
102
{ACAD_REACTORS
330
9657
102
}
330
9657
100
AcDbXrecord
 10
0.0
 20
0.0
 30
0.0
  0
XRECORD
  5
966E
102
{ACAD_REACTORS
330
9657
102
}
330
9657
100
AcDbXrecord
 10
0.0
 20
0.0
 30
0.0
  0
XRECORD
  5
966F
102
{ACAD_REACTORS
330
9657
102
}
330
9657
100
AcDbXrecord
340
0
  0
XRECORD
  5
9670
102
{ACAD_REACTORS
330
9657
102
}
330
9657
100
AcDbXrecord
 70
     0
  0
XRECORD
  5
9671
102
{ACAD_REACTORS
330
9657
102
}
330
9657
100
AcDbXrecord
340
0
  0
XRECORD
  5
9672
102
{ACAD_REACTORS
330
9657
102
}
330
9657
100
AcDbXrecord
 10
0.0
 20
0.0
 30
0.0
  0
XRECORD
  5
9673
102
{ACAD_REACTORS
330
9657
102
}
330
9657
100
AcDbXrecord
 10
0.0
 20
0.0
 30
0.0
  0
XRECORD
  5
9674
102
{ACAD_REACTORS
330
9657
102
}
330
9657
100
AcDbXrecord
 10
0.0
 20
0.0
 30
0.0
  0
XRECORD
  5
9675
102
{ACAD_REACTORS
330
9657
102
}
330
9657
100
AcDbXrecord
 10
0.0
 20
0.0
 30
0.0
  0
XRECORD
  5
9676
102
{ACAD_REACTORS
330
9657
102
}
330
9657
100
AcDbXrecord
 10
0.0
 20
0.0
 30
0.0
  0
XRECORD
  5
9677
102
{ACAD_REACTORS
330
9657
102
}
330
9657
100
AcDbXrecord
 10
0.0
 20
0.0
 30
0.0
  0
LAYER_INDEX
  5
964E
102
{ACAD_REACTORS
330
964D
102
}
330
964D
100
AcDbIndex
 40
2452941.592305764
100
AcDbLayerIndex
  8
0
360
964F
 90
        2
  8
AM_0
360
9650
 90
       62
  8
AM_11
360
9651
 90
        2
  8
AM_7
360
9652
 90
        2
  8
AM_5
360
9653
 90
        8
  8
Defpoints
360
9654
 90
        0
  8
AM_6
360
9655
 90
        1
  0
XRECORD
  5
2D
102
{ACAD_REACTORS
330
2C
102
}
330
2C
100
AcDbXrecord
  1
VERSION
140
15.0
  1
PRODUCT
  2
AutoCAD Mechanical 2000
  0
IDBUFFER
  5
964F
330
0
100
AcDbIdBuffer
330
68EE
330
68F2
  0
IDBUFFER
  5
9650
330
0
100
AcDbIdBuffer
330
9093
330
9098
330
909B
330
909C
330
90A7
330
90AA
330
90AC
330
90AD
330
90AE
330
90AF
330
90B0
330
90B1
330
90B2
330
90B4
330
8E64
330
8E65
330
8E66
330
8E67
330
8E68
330
8E6A
330
8E6B
330
8E6C
330
8E6D
330
8E71
330
8E76
330
8E77
330
8E7E
330
8E80
330
8E81
330
8E82
330
8E84
330
8E85
330
8E86
330
8E87
330
8E8C
330
8E8E
330
8E8F
330
8E90
330
8E91
330
8E92
330
8E93
330
8E94
330
8EBC
330
8EBD
330
8EC0
330
8EC1
330
8EC2
330
8EC4
330
8EC6
330
8EC7
330
8EC9
330
8ECF
330
8ED0
330
8ED1
330
8ED2
330
906E
330
9076
330
907A
330
907F
330
9080
330
9081
330
9084
  0
IDBUFFER
  5
9651
330
0
100
AcDbIdBuffer
330
9078
330
9079
  0
IDBUFFER
  5
9652
330
0
100
AcDbIdBuffer
330
8E7C
330
8E8A
  0
IDBUFFER
  5
9653
330
0
100
AcDbIdBuffer
330
8EFB
330
8F4A
330
8F57
330
8F64
330
8F71
330
9281
330
93AD
330
95AD
  0
IDBUFFER
  5
9654
330
0
100
AcDbIdBuffer
  0
IDBUFFER
  5
9655
330
0
100
AcDbIdBuffer
330
C58
  0
ENDSEC
  0
EOF
