  0
SECTION
  2
HEADER
  9
$ACADVER
  1
AC1014
  9
$ACADMAINTVER
 70
     9
  9
$DWGCODEPAGE
  3
ANSI_932
  9
$INSBASE
 10
0.0
 20
0.0
 30
0.0
  9
$EXTMIN
 10
-144.6914627361151
 20
-32.49999999909543
 30
0.0
  9
$EXTMAX
 10
31.7977030890682
 20
67.4360798206058
 30
0.0
  9
$LIMMIN
 10
-156.8136589153691
 20
-44.41846109832567
  9
$LIMMAX
 10
42.98775544547879
 20
73.9524185537507
  9
$ORTHOMODE
 70
     0
  9
$REGENMODE
 70
     1
  9
$FILLMODE
 70
     1
  9
$QTEXTMODE
 70
     0
  9
$MIRRTEXT
 70
     0
  9
$DRAGMODE
 70
     2
  9
$LTSCALE
 40
0.5
  9
$OSMODE
 70
  2103
  9
$ATTMODE
 70
     1
  9
$TEXTSIZE
 40
2.5
  9
$TRACEWID
 40
1.0
  9
$TEXTSTYLE
  7
STANDARD
  9
$CLAYER
  8
AM_0
  9
$CELTYPE
  6
BYLAYER
  9
$CECOLOR
 62
   256
  9
$CELTSCALE
 40
1.0
  9
$DELOBJ
 70
     1
  9
$DISPSILH
 70
     0
  9
$DIMSCALE
 40
1.0
  9
$DIMASZ
 40
2.5
  9
$DIMEXO
 40
1.0
  9
$DIMDLI
 40
12.0
  9
$DIMRND
 40
0.0
  9
$DIMDLE
 40
0.0
  9
$DIMEXE
 40
1.0
  9
$DIMTP
 40
0.1
  9
$DIMTM
 40
0.1
  9
$DIMTXT
 40
3.2
  9
$DIMCEN
 40
0.0
  9
$DIMTSZ
 40
0.0
  9
$DIMTOL
 70
     0
  9
$DIMLIM
 70
     0
  9
$DIMTIH
 70
     0
  9
$DIMTOH
 70
     0
  9
$DIMSE1
 70
     0
  9
$DIMSE2
 70
     0
  9
$DIMTAD
 70
     3
  9
$DIMZIN
 70
     8
  9
$DIMBLK
  1
OPEN30
  9
$DIMASO
 70
     1
  9
$DIMSHO
 70
     1
  9
$DIMPOST
  1

  9
$DIMAPOST
  1
"
  9
$DIMALT
 70
     0
  9
$DIMALTD
 70
     2
  9
$DIMALTF
 40
0.0393701
  9
$DIMLFAC
 40
1.0
  9
$DIMTOFL
 70
     1
  9
$DIMTVP
 40
0.0
  9
$DIMTIX
 70
     0
  9
$DIMSOXD
 70
     0
  9
$DIMSAH
 70
     0
  9
$DIMBLK1
  1

  9
$DIMBLK2
  1

  9
$DIMSTYLE
  2
AM_JIS
  9
$DIMCLRD
 70
     3
  9
$DIMCLRE
 70
     3
  9
$DIMCLRT
 70
     2
  9
$DIMTFAC
 40
0.71
  9
$DIMGAP
 40
1.5
  9
$DIMJUST
 70
     0
  9
$DIMSD1
 70
     0
  9
$DIMSD2
 70
     0
  9
$DIMTOLJ
 70
     0
  9
$DIMTZIN
 70
     0
  9
$DIMALTZ
 70
     0
  9
$DIMALTTZ
 70
     0
  9
$DIMFIT
 70
     3
  9
$DIMUPT
 70
     0
  9
$DIMUNIT
 70
     2
  9
$DIMDEC
 70
     3
  9
$DIMTDEC
 70
     3
  9
$DIMALTU
 70
     2
  9
$DIMALTTD
 70
     2
  9
$DIMTXSTY
  7
ASAMI
  9
$DIMAUNIT
 70
     0
  9
$LUNITS
 70
     2
  9
$LUPREC
 70
     2
  9
$SKETCHINC
 40
1.0
  9
$FILLETRAD
 40
0.8
  9
$AUNITS
 70
     0
  9
$AUPREC
 70
     0
  9
$MENU
  1
.
  9
$ELEVATION
 40
0.0
  9
$PELEVATION
 40
0.0
  9
$THICKNESS
 40
0.0
  9
$LIMCHECK
 70
     0
  9
$BLIPMODE
 70
     0
  9
$CHAMFERA
 40
1.5
  9
$CHAMFERB
 40
1.5
  9
$CHAMFERC
 40
20.0
  9
$CHAMFERD
 40
0.0
  9
$SKPOLY
 70
     0
  9
$TDCREATE
 40
2452838.620506898
  9
$TDUPDATE
 40
2452941.592640509
  9
$TDINDWG
 40
1.8190063426
  9
$TDUSRTIMER
 40
1.8190063426
  9
$USRTIMER
 70
     1
  9
$ANGBASE
 50
0.0
  9
$ANGDIR
 70
     0
  9
$PDMODE
 70
     0
  9
$PDSIZE
 40
0.0
  9
$PLINEWID
 40
0.0
  9
$COORDS
 70
     0
  9
$SPLFRAME
 70
     0
  9
$SPLINETYPE
 70
     6
  9
$SPLINESEGS
 70
     8
  9
$ATTDIA
 70
     1
  9
$ATTREQ
 70
     1
  9
$HANDLING
 70
 12289
  9
$HANDSEED
  5
9438
  9
$SURFTAB1
 70
     6
  9
$SURFTAB2
 70
     6
  9
$SURFTYPE
 70
     6
  9
$SURFU
 70
     6
  9
$SURFV
 70
     6
  9
$UCSNAME
  2

  9
$UCSORG
 10
0.0
 20
0.0
 30
0.0
  9
$UCSXDIR
 10
1.0
 20
0.0
 30
0.0
  9
$UCSYDIR
 10
0.0
 20
1.0
 30
0.0
  9
$PUCSNAME
  2

  9
$PUCSORG
 10
0.0
 20
0.0
 30
0.0
  9
$PUCSXDIR
 10
1.0
 20
0.0
 30
0.0
  9
$PUCSYDIR
 10
0.0
 20
1.0
 30
0.0
  9
$USERI1
 70
     0
  9
$USERI2
 70
     0
  9
$USERI3
 70
     0
  9
$USERI4
 70
     0
  9
$USERI5
 70
     0
  9
$USERR1
 40
0.0
  9
$USERR2
 40
0.0
  9
$USERR3
 40
0.0
  9
$USERR4
 40
0.0
  9
$USERR5
 40
0.0
  9
$WORLDVIEW
 70
     1
  9
$SHADEDGE
 70
     3
  9
$SHADEDIF
 70
    70
  9
$TILEMODE
 70
     1
  9
$MAXACTVP
 70
    64
  9
$PINSBASE
 10
0.0
 20
0.0
 30
0.0
  9
$PLIMCHECK
 70
     0
  9
$PEXTMIN
 10
1.000000000000000E+20
 20
1.000000000000000E+20
 30
1.000000000000000E+20
  9
$PEXTMAX
 10
-1.000000000000000E+20
 20
-1.000000000000000E+20
 30
-1.000000000000000E+20
  9
$PLIMMIN
 10
0.0
 20
0.0
  9
$PLIMMAX
 10
841.0
 20
594.0
  9
$UNITMODE
 70
     0
  9
$VISRETAIN
 70
     1
  9
$PLINEGEN
 70
     0
  9
$PSLTSCALE
 70
     0
  9
$TREEDEPTH
 70
  3020
  9
$PICKSTYLE
 70
     0
  9
$CMLSTYLE
  2
STANDARD
  9
$CMLJUST
 70
     0
  9
$CMLSCALE
 40
20.0
  9
$PROXYGRAPHICS
 70
     1
  9
$MEASUREMENT
 70
     1
  0
ENDSEC
  0
SECTION
  2
CLASSES
  0
CLASS
  1
ACDBDICTIONARYWDFLT
  2
AcDbDictionaryWithDefault
  3
AutoCAD 2000
 90
        0
280
     0
281
     0
  0
CLASS
  1
ACDBPLACEHOLDER
  2
AcDbPlaceHolder
  3
AutoCAD 2000
 90
        0
280
     0
281
     0
  0
CLASS
  1
LAYOUT
  2
AcDbLayout
  3
AutoCAD 2000
 90
        0
280
     0
281
     0
  0
CLASS
  1
AMGSETTINGSOBJ
  2
AmgSettingsObj
  3
"AcadM|Product Description: AutoCAD Mechanical 2000|Company: Autodesk"
 90
        0
280
     0
281
     0
  0
CLASS
  1
ACME_DOCUMENT
  2
AcMeDbDoc
  3
AcMeServices
 90
        0
280
     0
281
     0
  0
CLASS
  1
ACMESCOPE
  2
AcMeScope
  3
AcMeServices
 90
        0
280
     0
281
     0
  0
CLASS
  1
ACMECOMMANDHISTORY
  2
AcMeCommandHistory
  3
AcMeServices
 90
        0
280
     0
281
     0
  0
CLASS
  1
DICTIONARYVAR
  2
AcDbDictionaryVar
  3
AutoCAD 2000
 90
        0
280
     0
281
     0
  0
CLASS
  1
ACIMSYSVARMAN
  2
AcImSysVarManager
  3
AcMeServices
 90
        0
280
     0
281
     0
  0
CLASS
  1
ACIMREALSYSVAR
  2
AcImRealSysVar
  3
AcMeServices
 90
        0
280
     0
281
     0
  0
CLASS
  1
ACIMINTSYSVAR
  2
AcImIntSysVar
  3
AcMeServices
 90
        0
280
     0
281
     0
  0
CLASS
  1
ACMEDRAWINGMAN
  2
AcMeDrawingMan
  3
AcMeServices
 90
        0
280
     0
281
     0
  0
CLASS
  1
ACMEVIEW
  2
AcMeView
  3
AcMeServices
 90
        0
280
     0
281
     0
  0
CLASS
  1
ACDBENTITYCACHE
  2
AcMeEntityCache
  3
AcMeServices
 90
        0
280
     0
281
     0
  0
CLASS
  1
GSMANAGER
  2
AcMeGSManager
  3
AcMeServices
 90
        0
280
     0
281
     0
  0
CLASS
  1
AmdtInternalReactor
  2
AmdtInternalReactor
  3
AcMeServices
 90
        0
280
     0
281
     0
  0
CLASS
  1
ACMESTATEMGR
  2
AcMeStateMgr
  3
AcMeServices
 90
        0
280
     0
281
     0
  0
CLASS
  1
ACME_DATABASE
  2
AcMeDbDatabase
  3
AcMeServices
 90
        0
280
     0
281
     0
  0
CLASS
  1
ACRFINSADJUSTERMGR
  2
AcRfInsAdjusterMgr
  3
AcMeServices
 90
        0
280
     0
281
     0
  0
CLASS
  1
ACMDATADICTIONARY
  2
AcmDataDictionary
  3
"AcmSymBB|Product Description: AutoCAD Mechanical 2000|Company: Autodesk"
 90
        0
280
     0
281
     0
  0
CLASS
  1
ACMDATAENTRYBLOCK
  2
AcmDataEntryBlock
  3
"AcmSymBB|Product Description: AutoCAD Mechanical 2000|Company: Autodesk"
 90
        0
280
     0
281
     0
  0
CLASS
  1
AMGOBJPROPCFG
  2
AmgObjPropCfg
  3
"AmgLay|Product Description: AutoCAD Mechanical 2000|Company: Autodesk"
 90
        1
280
     0
281
     0
  0
CLASS
  1
ACAMGFILTERDAT
  2
AcAmgFilterDat
  3
"AcadM|Product Description: AutoCAD Mechanical 2000|Company: Autodesk"
 90
        0
280
     0
281
     0
  0
CLASS
  1
LAYER_INDEX
  2
AcDbLayerIndex
  3
AutoCAD 2000
 90
        0
280
     0
281
     0
  0
CLASS
  1
IDBUFFER
  2
AcDbIdBuffer
  3
AutoCAD 2000
 90
        0
280
     0
281
     0
  0
CLASS
  1
ACIMSTRSYSVAR
  2
AcImStrSysVar
  3
AcMeServices
 90
        0
280
     0
281
     0
  0
CLASS
  1
ACMSTANDARDJIS
  2
AcmStandardJIS
  3
"AcmSymBB|Product Description: AutoCAD Mechanical 2000|Company: Autodesk"
 90
        0
280
     0
281
     0
  0
CLASS
  1
ACMSURFSTANDARDJIS
  2
AcmSurfTextStdJIS
  3
"AcmSymBB|Product Description: AutoCAD Mechanical 2000|Company: Autodesk"
 90
        0
280
     0
281
     0
  0
CLASS
  1
ACMFCFSTANDARDJIS
  2
AcmFCFStdJIS
  3
"AcmSymBB|Product Description: AutoCAD Mechanical 2000|Company: Autodesk"
 90
        0
280
     0
281
     0
  0
CLASS
  1
ACMWELDSTANDARDJIS
  2
AcmWeldingStdJIS
  3
"AcmSymBB|Product Description: AutoCAD Mechanical 2000|Company: Autodesk"
 90
        0
280
     0
281
     0
  0
CLASS
  1
ACMIDSTANDARDJIS
  2
AcmIdStdJIS
  3
"AcmSymBB|Product Description: AutoCAD Mechanical 2000|Company: Autodesk"
 90
        0
280
     0
281
     0
  0
CLASS
  1
ACMDATUMSTANDARDJIS
  2
AcmDatumStdJIS
  3
"AcmSymBB|Product Description: AutoCAD Mechanical 2000|Company: Autodesk"
 90
        0
280
     0
281
     0
  0
CLASS
  1
ACMBOMSTANDARDJIS
  2
AcmBOMStdJIS
  3
"AcmSymBB|Product Description: AutoCAD Mechanical 2000|Company: Autodesk"
 90
        0
280
     0
281
     0
  0
CLASS
  1
ACMSTANDARDANSI
  2
AcmStandardANSI
  3
"AcmSymBB|Product Description: AutoCAD Mechanical 2000|Company: Autodesk"
 90
        0
280
     0
281
     0
  0
CLASS
  1
ACMSURFSTANDARDANSI
  2
AcmSurfTextStdANSI
  3
"AcmSymBB|Product Description: AutoCAD Mechanical 2000|Company: Autodesk"
 90
        0
280
     0
281
     0
  0
CLASS
  1
ACMFCFSTANDARDANSI
  2
AcmFCFStdANSI
  3
"AcmSymBB|Product Description: AutoCAD Mechanical 2000|Company: Autodesk"
 90
        0
280
     0
281
     0
  0
CLASS
  1
ACMWELDSTANDARDANSI
  2
AcmWeldingStdANSI
  3
"AcmSymBB|Product Description: AutoCAD Mechanical 2000|Company: Autodesk"
 90
        0
280
     0
281
     0
  0
CLASS
  1
ACMIDSTANDARDANSI
  2
AcmIdStdANSI
  3
"AcmSymBB|Product Description: AutoCAD Mechanical 2000|Company: Autodesk"
 90
        0
280
     0
281
     0
  0
CLASS
  1
ACMDATUMSTANDARDANSI
  2
AcmDatumStdANSI
  3
"AcmSymBB|Product Description: AutoCAD Mechanical 2000|Company: Autodesk"
 90
        0
280
     0
281
     0
  0
CLASS
  1
ACMBOMSTANDARDANSI
  2
AcmBOMStdANSI
  3
"AcmSymBB|Product Description: AutoCAD Mechanical 2000|Company: Autodesk"
 90
        0
280
     0
281
     0
  0
CLASS
  1
ACMSTANDARDBSI
  2
AcmStandardBSI
  3
"AcmSymBB|Product Description: AutoCAD Mechanical 2000|Company: Autodesk"
 90
        0
280
     0
281
     0
  0
CLASS
  1
ACMSURFSTANDARDBSI
  2
AcmSurfTextStdBSI
  3
"AcmSymBB|Product Description: AutoCAD Mechanical 2000|Company: Autodesk"
 90
        0
280
     0
281
     0
  0
CLASS
  1
ACMFCFSTANDARDBSI
  2
AcmFCFStdBSI
  3
"AcmSymBB|Product Description: AutoCAD Mechanical 2000|Company: Autodesk"
 90
        0
280
     0
281
     0
  0
CLASS
  1
ACMWELDSTANDARDBSI
  2
AcmWeldingStdBSI
  3
"AcmSymBB|Product Description: AutoCAD Mechanical 2000|Company: Autodesk"
 90
        0
280
     0
281
     0
  0
CLASS
  1
ACMIDSTANDARDBSI
  2
AcmIdStdBSI
  3
"AcmSymBB|Product Description: AutoCAD Mechanical 2000|Company: Autodesk"
 90
        0
280
     0
281
     0
  0
CLASS
  1
ACMDATUMSTANDARDBSI
  2
AcmDatumStdBSI
  3
"AcmSymBB|Product Description: AutoCAD Mechanical 2000|Company: Autodesk"
 90
        0
280
     0
281
     0
  0
CLASS
  1
ACMBOMSTANDARDBSI
  2
AcmBOMStdBSI
  3
"AcmSymBB|Product Description: AutoCAD Mechanical 2000|Company: Autodesk"
 90
        0
280
     0
281
     0
  0
CLASS
  1
STDPART2D
  2
AmgStdPart
  3
"AmgStdPart|Product Description: AutoCAD Mechanical 2000|Company: Autodesk"
 90
     1023
280
     0
281
     1
  0
CLASS
  1
ACMDATAENTRYPART
  2
AcmDataEntryPart
  3
"AcmSymBB|Product Description: AutoCAD Mechanical 2000|Company: Autodesk"
 90
        0
280
     0
281
     0
  0
CLASS
  1
ACMPARTREF
  2
AcmPartRef
  3
"AcmSymBB|Product Description: AutoCAD Mechanical 2000|Company: Autodesk"
 90
     1023
280
     0
281
     1
  0
CLASS
  1
LONG_TRANSACTION
  2
AcDbLongTransaction
  3
AutoCAD 2000
 90
        0
280
     0
281
     0
  0
CLASS
  1
LWPOLYLINE
  2
AcDbPolyline
  3
AutoCAD 2000
 90
        0
280
     0
281
     1
  0
CLASS
  1
HATCH
  2
AcDbHatch
  3
AutoCAD 2000
 90
        0
280
     0
281
     1
  0
CLASS
  1
XRECORD
  2
AcDbXrecord
  3
AutoCAD 2000
 90
        0
280
     0
281
     0
  0
ENDSEC
  0
SECTION
  2
TABLES
  0
TABLE
  2
VPORT
  5
8
330
0
100
AcDbSymbolTable
 70
     3
  0
VPORT
  5
93F9
330
8
100
AcDbSymbolTableRecord
100
AcDbViewportTableRecord
  2
*ACTIVE
 70
     0
 10
0.0
 20
0.0
 11
1.0
 21
1.0
 12
-46.28467350885758
 22
24.1420380779152
 13
0.0
 23
0.0
 14
2.5
 24
2.5
 15
10.0
 25
10.0
 16
0.0
 26
0.0
 36
1.0
 17
0.0
 27
0.0
 37
0.0
 40
126.1789495729805
 41
1.56570841889117
 42
50.0
 43
0.0
 44
0.0
 50
0.0
 51
0.0
 71
     0
 72
   100
 73
     1
 74
     2
 75
     0
 76
     0
 77
     0
 78
     0
  0
ENDTAB
  0
TABLE
  2
LTYPE
  5
5
330
0
100
AcDbSymbolTable
 70
    10
  0
LTYPE
  5
14
330
5
100
AcDbSymbolTableRecord
100
AcDbLinetypeTableRecord
  2
BYBLOCK
 70
     0
  3

 72
    65
 73
     0
 40
0.0
  0
LTYPE
  5
15
330
5
100
AcDbSymbolTableRecord
100
AcDbLinetypeTableRecord
  2
BYLAYER
 70
     0
  3

 72
    65
 73
     0
 40
0.0
  0
LTYPE
  5
16
330
5
100
AcDbSymbolTableRecord
100
AcDbLinetypeTableRecord
  2
CONTINUOUS
 70
     0
  3
Solid line
 72
    65
 73
     0
 40
0.0
  0
LTYPE
  5
4B
330
5
100
AcDbSymbolTableRecord
100
AcDbLinetypeTableRecord
  2
AM_ISO02W050
 70
     0
  3
__ __ __ __ __ __ __ __ __ __ __ __ __ __ __
 72
    65
 73
     2
 40
7.5
 49
6.0
 74
     0
 49
-1.5
 74
     0
  0
LTYPE
  5
4C
330
5
100
AcDbSymbolTableRecord
100
AcDbLinetypeTableRecord
  2
AM_ISO08W050
 70
     0
  3
____ . ____ . ____ . ____ . ____ . ____ . ____
 72
    65
 73
     4
 40
18.0
 49
12.0
 74
     0
 49
-1.5
 74
     0
 49
3.0
 74
     0
 49
-1.5
 74
     0
  0
LTYPE
  5
4D
330
5
100
AcDbSymbolTableRecord
100
AcDbLinetypeTableRecord
  2
AM_ISO09W050
 70
     0
  3
_____ . . _____ . . _____ . . ____ .. ____
 72
    65
 73
     6
 40
22.5
 49
12.0
 74
     0
 49
-1.5
 74
     0
 49
3.0
 74
     0
 49
-1.5
 74
     0
 49
3.0
 74
     0
 49
-1.5
 74
     0
  0
LTYPE
  5
4E
330
5
100
AcDbSymbolTableRecord
100
AcDbLinetypeTableRecord
  2
AMCONSTR
 70
     0
  3
_______________________
 72
    65
 73
     2
 40
9999.0
 49
9999.0
 74
     0
 49
0.0
 74
     0
  0
LTYPE
  5
4F
330
5
100
AcDbSymbolTableRecord
100
AcDbLinetypeTableRecord
  2
AM_ISO02W050X2
 70
     0
  3
 _ _ _ _ _ _ _ _ _ _ _ _
 72
    65
 73
     2
 40
3.75
 49
3.0
 74
     0
 49
-0.75
 74
     0
  0
LTYPE
  5
50
330
5
100
AcDbSymbolTableRecord
100
AcDbLinetypeTableRecord
  2
AM_ISO08W050X2
 70
     0
  3
__ . __ . __ . __ . __ . __
 72
    65
 73
     4
 40
9.0
 49
6.0
 74
     0
 49
-0.75
 74
     0
 49
1.5
 74
     0
 49
-0.75
 74
     0
  0
LTYPE
  5
53
330
5
100
AcDbSymbolTableRecord
100
AcDbLinetypeTableRecord
  2
AMZIGZAG
 70
     0
  3
/\/-/\/-/\/-/\/-/\/-/\/
 72
    65
 73
     2
 40
11.00009999999999
 49
0.0001
 74
     4
 75
   135
340
52
 46
0.04
 50
0.0
 44
0.0
 45
0.0
 49
-11.0
 74
     0
  0
LTYPE
  5
166
330
5
100
AcDbSymbolTableRecord
100
AcDbLinetypeTableRecord
  2
ACJISTGL
 70
     0
  3
_ _ _ _ _
 72
    65
 73
     2
 40
3.0
 49
2.0
 74
     0
 49
-1.0
 74
     0
  0
LTYPE
  5
26A
330
5
100
AcDbSymbolTableRecord
100
AcDbLinetypeTableRecord
  2
ACJISTGB
 70
     0
  3
__ . . __ . .
 72
    65
 73
     6
 40
9.0
 49
4.0
 74
     0
 49
-1.0
 74
     0
 49
1.0
 74
     0
 49
-1.0
 74
     0
 49
1.0
 74
     0
 49
-1.0
 74
     0
  0
ENDTAB
  0
TABLE
  2
LAYER
  5
2
330
0
100
AcDbSymbolTable
 70
     7
  0
LAYER
  5
10
330
2
100
AcDbSymbolTableRecord
100
AcDbLayerTableRecord
  2
0
 70
     0
 62
     7
  6
CONTINUOUS
  0
LAYER
  5
3F9
330
2
100
AcDbSymbolTableRecord
100
AcDbLayerTableRecord
  2
AM_0
 70
     0
 62
     7
  6
CONTINUOUS
  0
LAYER
  5
BD7
330
2
100
AcDbSymbolTableRecord
100
AcDbLayerTableRecord
  2
AM_7
 70
     0
 62
     4
  6
AM_ISO08W050
  0
LAYER
  5
BD8
330
2
100
AcDbSymbolTableRecord
100
AcDbLayerTableRecord
  2
AM_5
 70
     0
 62
     3
  6
CONTINUOUS
  0
LAYER
  5
BD9
330
2
100
AcDbSymbolTableRecord
100
AcDbLayerTableRecord
  2
DEFPOINTS
 70
     0
 62
     7
  6
CONTINUOUS
  0
LAYER
  5
BDA
330
2
100
AcDbSymbolTableRecord
100
AcDbLayerTableRecord
  2
AM_6
 70
     0
 62
     2
  6
CONTINUOUS
  0
LAYER
  5
9350
330
2
100
AcDbSymbolTableRecord
100
AcDbLayerTableRecord
  2
AM_11
 70
     0
 62
     3
  6
AM_ISO09W050
  0
ENDTAB
  0
TABLE
  2
STYLE
  5
3
330
0
100
AcDbSymbolTable
 70
     5
  0
STYLE
  5
11
330
3
100
AcDbSymbolTableRecord
100
AcDbTextStyleTableRecord
  2
STANDARD
 70
     0
 40
0.0
 41
1.0
 50
0.0
 71
     0
 42
2.5
  3
simplex.shx
  4
EXTFONT.SHX
  0
STYLE
  5
52
330
3
100
AcDbSymbolTableRecord
100
AcDbTextStyleTableRecord
  2

 70
     1
 40
0.0
 41
1.0
 50
0.0
 71
     0
 42
2.5
  3
ltypeshp.shx
  4

  0
STYLE
  5
6B
330
3
100
AcDbSymbolTableRecord
100
AcDbTextStyleTableRecord
  2
ASAMI
 70
     0
 40
0.0
 41
1.0
 50
0.0
 71
     0
 42
2.5
  3
simplex.shx
  4
EXTFONT.SHX
  0
STYLE
  5
262
330
3
100
AcDbSymbolTableRecord
100
AcDbTextStyleTableRecord
  2
ACJISTS
 70
     0
 40
1.0
 41
1.0
 50
0.0
 71
     0
 42
2.5
  3
simplex.shx
  4
bigfont.shx
  0
STYLE
  5
269
330
3
100
AcDbSymbolTableRecord
100
AcDbTextStyleTableRecord
  2
ACJISGDT
 70
     0
 40
0.0
 41
1.0
 50
0.0
 71
     0
 42
2.5
  3
amgdtans.shx
  4

  0
ENDTAB
  0
TABLE
  2
VIEW
  5
6
330
0
100
AcDbSymbolTable
 70
     0
  0
ENDTAB
  0
TABLE
  2
UCS
  5
7
330
0
100
AcDbSymbolTable
 70
     0
  0
ENDTAB
  0
TABLE
  2
APPID
  5
9
330
0
100
AcDbSymbolTable
 70
    21
  0
APPID
  5
12
330
9
100
AcDbSymbolTableRecord
100
AcDbRegAppTableRecord
  2
ACAD
 70
     0
  0
APPID
  5
30
330
9
100
AcDbSymbolTableRecord
100
AcDbRegAppTableRecord
  2
MCAD_NO_VIS
 70
     0
  0
APPID
  5
31
330
9
100
AcDbSymbolTableRecord
100
AcDbRegAppTableRecord
  2
ACAD_TEMP_GRAPHIC
 70
     0
  0
APPID
  5
2C2
330
9
100
AcDbSymbolTableRecord
100
AcDbRegAppTableRecord
  2
GENIUS_GENDTOL_13
 70
     0
  0
APPID
  5
339
330
9
100
AcDbSymbolTableRecord
100
AcDbRegAppTableRecord
  2
GENIUS_GENODEF_13
 70
     0
  0
APPID
  5
33A
330
9
100
AcDbSymbolTableRecord
100
AcDbRegAppTableRecord
  2
GENIUS_GENOBJ-N-RSBK_13
 70
     0
  0
APPID
  5
33B
330
9
100
AcDbSymbolTableRecord
100
AcDbRegAppTableRecord
  2
GENIUS_GENOBJ-N-LIB_13
 70
     0
  0
APPID
  5
33C
330
9
100
AcDbSymbolTableRecord
100
AcDbRegAppTableRecord
  2
GENIUS_GENSCALE_13
 70
     0
  0
APPID
  5
378
330
9
100
AcDbSymbolTableRecord
100
AcDbRegAppTableRecord
  2
GENIUS_GENDIMSH_14
 70
     0
  0
APPID
  5
BDB
330
9
100
AcDbSymbolTableRecord
100
AcDbRegAppTableRecord
  2
GENIUS_GENOBJ-N-CEN_13
 70
     0
  0
APPID
  5
BDC
330
9
100
AcDbSymbolTableRecord
100
AcDbRegAppTableRecord
  2
GENIUS_GENFIL_13
 70
     0
  0
APPID
  5
BDD
330
9
100
AcDbSymbolTableRecord
100
AcDbRegAppTableRecord
  2
GENIUS_GENOBJ-N-FIL_13
 70
     0
  0
APPID
  5
12AD
330
9
100
AcDbSymbolTableRecord
100
AcDbRegAppTableRecord
  2
GENIUS_GENOREF_13
 70
     0
  0
APPID
  5
68E9
330
9
100
AcDbSymbolTableRecord
100
AcDbRegAppTableRecord
  2
GEVID1060695448
 70
     0
  0
APPID
  5
68EA
330
9
100
AcDbSymbolTableRecord
100
AcDbRegAppTableRecord
  2
GEVDC
 70
     0
  0
APPID
  5
68ED
330
9
100
AcDbSymbolTableRecord
100
AcDbRegAppTableRecord
  2
GENIUS_GENBH_13
 70
     0
  0
APPID
  5
68EF
330
9
100
AcDbSymbolTableRecord
100
AcDbRegAppTableRecord
  2
GENIUS_GENOBJ-NBEHI-BHF_13
 70
     0
  0
APPID
  5
68F0
330
9
100
AcDbSymbolTableRecord
100
AcDbRegAppTableRecord
  2
GENIUS_GENOENT_13
 70
     0
  0
APPID
  5
68F1
330
9
100
AcDbSymbolTableRecord
100
AcDbRegAppTableRecord
  2
GENIUS_GENOLIS_13
 70
     0
  0
APPID
  5
68F3
330
9
100
AcDbSymbolTableRecord
100
AcDbRegAppTableRecord
  2
GENIUS_GENOBJ-NBEHI-BHB_13
 70
     0
  0
APPID
  5
6B27
330
9
100
AcDbSymbolTableRecord
100
AcDbRegAppTableRecord
  2
GENIUS_GENOBJ-N-CHA_13
 70
     0
  0
ENDTAB
  0
TABLE
  2
DIMSTYLE
  5
A
330
0
100
AcDbSymbolTable
 70
     8
  0
DIMSTYLE
105
58
102
{ACAD_REACTORS
330
8E9B
330
8EA8
330
8FCF
330
904E
330
905B
102
}
330
A
100
AcDbSymbolTableRecord
100
AcDbDimStyleTableRecord
  2
AM_JIS
 70
     0
  3

  4
"
  5
OPEN30
  6

  7

 40
1.0
 41
2.5
 42
1.0
 43
12.0
 44
1.0
 45
0.0
 46
0.0
 47
0.1
 48
0.1
140
3.2
141
0.0
142
0.0
143
0.0393701
144
1.0
145
0.0
146
0.71
147
1.5
 71
     0
 72
     0
 73
     0
 74
     0
 75
     0
 76
     0
 77
     3
 78
     8
170
     0
171
     2
172
     1
173
     0
174
     0
175
     0
176
     3
177
     3
178
     2
270
     2
271
     3
272
     3
273
     2
274
     2
340
6B
275
     0
280
     0
281
     0
282
     0
283
     0
284
     0
285
     0
286
     0
287
     3
288
     0
  0
DIMSTYLE
105
5F
330
A
100
AcDbSymbolTableRecord
100
AcDbDimStyleTableRecord
  2
AM_JIS$3
 70
     0
  3

  4
"
  5
OPEN30
  6

  7

 40
1.0
 41
2.5
 42
1.0
 43
10.0
 44
1.0
 45
0.0
 46
0.0
 47
0.1
 48
0.1
140
3.2
141
0.0
142
0.0
143
0.0393701
144
1.0
145
0.0
146
0.71
147
1.5
 71
     0
 72
     0
 73
     0
 74
     1
 75
     0
 76
     0
 77
     3
 78
     8
170
     0
171
     2
172
     0
173
     0
174
     0
175
     0
176
     3
177
     3
178
     2
270
     2
271
     2
272
     3
273
     2
274
     2
340
6B
275
     0
280
     0
281
     0
282
     0
283
     0
284
     0
285
     0
286
     0
287
     0
288
     1
  0
DIMSTYLE
105
60
330
A
100
AcDbSymbolTableRecord
100
AcDbDimStyleTableRecord
  2
AM_JIS$4
 70
     0
  3

  4
"
  5
OPEN30
  6

  7

 40
1.0
 41
2.5
 42
1.0
 43
10.0
 44
1.0
 45
0.0
 46
0.0
 47
0.1
 48
0.1
140
3.2
141
0.0
142
0.0
143
0.0393701
144
1.0
145
0.0
146
0.71
147
1.5
 71
     0
 72
     0
 73
     0
 74
     1
 75
     0
 76
     0
 77
     3
 78
     8
170
     0
171
     2
172
     0
173
     0
174
     0
175
     0
176
     3
177
     3
178
     2
270
     2
271
     2
272
     3
273
     2
274
     2
340
6B
275
     0
280
     0
281
     0
282
     0
283
     0
284
     0
285
     0
286
     0
287
     0
288
     1
  0
DIMSTYLE
105
61
330
A
100
AcDbSymbolTableRecord
100
AcDbDimStyleTableRecord
  2
AM_JIS$6
 70
     0
  3

  4
"
  5
OPEN30
  6

  7

 40
1.0
 41
2.5
 42
1.0
 43
10.0
 44
1.0
 45
0.0
 46
0.0
 47
0.1
 48
0.1
140
3.2
141
0.0
142
0.0
143
0.0393701
144
1.0
145
0.0
146
0.71
147
1.5
 71
     0
 72
     0
 73
     0
 74
     0
 75
     0
 76
     0
 77
     0
 78
     8
170
     0
171
     2
172
     1
173
     0
174
     0
175
     0
176
     3
177
     3
178
     2
270
     2
271
     2
272
     2
273
     2
274
     2
340
6B
275
     0
280
     0
281
     0
282
     0
283
     0
284
     0
285
     0
286
     0
287
     3
288
     0
  0
DIMSTYLE
105
62
330
A
100
AcDbSymbolTableRecord
100
AcDbDimStyleTableRecord
  2
AM_JIS$7
 70
     0
  3

  4
"
  5
OPEN30
  6

  7

 40
1.0
 41
2.5
 42
1.0
 43
10.0
 44
1.0
 45
0.0
 46
0.0
 47
0.1
 48
0.1
140
3.2
141
0.0
142
0.0
143
0.0393701
144
1.0
145
0.0
146
0.71
147
1.5
 71
     0
 72
     0
 73
     0
 74
     0
 75
     0
 76
     0
 77
     3
 78
     8
170
     0
171
     2
172
     1
173
     0
174
     0
175
     0
176
     3
177
     3
178
     2
270
     2
271
     2
272
     3
273
     2
274
     2
340
6B
275
     0
280
     0
281
     0
282
     0
283
     0
284
     0
285
     0
286
     0
287
     3
288
     0
  0
DIMSTYLE
105
63
330
A
100
AcDbSymbolTableRecord
100
AcDbDimStyleTableRecord
  2
AM_JIS$SF
 70
     0
  3

  4
"
  5
OPEN30
  6

  7

 40
1.0
 41
2.5
 42
1.0
 43
10.0
 44
1.0
 45
0.0
 46
0.0
 47
0.1
 48
0.1
140
3.2
141
0.0
142
0.0
143
0.0393701
144
1.0
145
0.0
146
0.71
147
1.5
 71
     0
 72
     0
 73
     0
 74
     0
 75
     1
 76
     1
 77
     3
 78
     8
170
     0
171
     2
172
     1
173
     0
174
     0
175
     0
176
   256
177
   256
178
     2
270
     2
271
     2
272
     2
273
     2
274
     2
340
6B
275
     0
280
     0
281
     0
282
     0
283
     0
284
     0
285
     0
286
     0
287
     3
288
     0
  0
DIMSTYLE
105
68
330
A
100
AcDbSymbolTableRecord
100
AcDbDimStyleTableRecord
  2
AM_JIS$SH
 70
     0
  3

  4
"
  5

  6
GENAXEH
  7
OPEN30
 40
1.0
 41
2.5
 42
1.0
 43
10.0
 44
1.0
 45
0.0
 46
0.0
 47
0.1
 48
0.1
140
3.2
141
0.0
142
0.0
143
0.0393701
144
2.0
145
0.0
146
0.71
147
1.5
 71
     0
 72
     0
 73
     0
 74
     0
 75
     1
 76
     1
 77
     3
 78
     8
170
     0
171
     2
172
     1
173
     1
174
     0
175
     0
176
   256
177
   256
178
     2
270
     2
271
     2
272
     2
273
     2
274
     2
340
6B
275
     0
280
     0
281
     0
282
     0
283
     0
284
     0
285
     0
286
     0
287
     3
288
     0
  0
DIMSTYLE
105
B34
102
{ACAD_REACTORS
330
8EE8
330
9313
102
}
330
A
100
AcDbSymbolTableRecord
100
AcDbDimStyleTableRecord
  2
AM_JIS$2
 70
     0
  3

  4
"
  5
OPEN30
  6

  7

 40
1.0
 41
2.5
 42
1.0
 43
12.0
 44
1.0
 45
0.0
 46
0.0
 47
0.1
 48
0.1
140
3.2
141
0.0
142
0.0
143
0.0393701
144
1.0
145
0.0
146
0.71
147
1.5
 71
     0
 72
     0
 73
     0
 74
     0
 75
     0
 76
     0
 77
     3
 78
     8
170
     0
171
     2
172
     1
173
     0
174
     0
175
     0
176
     3
177
     3
178
     2
270
     2
271
     3
272
     3
273
     2
274
     2
340
6B
275
     0
280
     0
281
     0
282
     0
283
     0
284
     0
285
     0
286
     0
287
     3
288
     0
  0
ENDTAB
  0
TABLE
  2
BLOCK_RECORD
  5
1
330
0
100
AcDbSymbolTable
 70
    12
  0
BLOCK_RECORD
  5
1F
102
{ACAD_XDICTIONARY
360
74
102
}
330
1
100
AcDbSymbolTableRecord
100
AcDbBlockTableRecord
  2
*MODEL_SPACE
  0
BLOCK_RECORD
  5
101
102
{ACAD_XDICTIONARY
360
9422
102
}
330
1
100
AcDbSymbolTableRecord
100
AcDbBlockTableRecord
  2
*PAPER_SPACE
  0
BLOCK_RECORD
  5
59
330
1
100
AcDbSymbolTableRecord
100
AcDbBlockTableRecord
  2
_OPEN30
  0
BLOCK_RECORD
  5
64
330
1
100
AcDbSymbolTableRecord
100
AcDbBlockTableRecord
  2
GENAXEH
  0
BLOCK_RECORD
  5
8E9C
330
1
100
AcDbSymbolTableRecord
100
AcDbBlockTableRecord
  2
*D5
  0
BLOCK_RECORD
  5
8EA9
330
1
100
AcDbSymbolTableRecord
100
AcDbBlockTableRecord
  2
*D6
  0
BLOCK_RECORD
  5
8EE9
330
1
100
AcDbSymbolTableRecord
100
AcDbBlockTableRecord
  2
*D7
  0
BLOCK_RECORD
  5
8FD0
330
1
100
AcDbSymbolTableRecord
100
AcDbBlockTableRecord
  2
*D8
  0
BLOCK_RECORD
  5
904F
330
1
100
AcDbSymbolTableRecord
100
AcDbBlockTableRecord
  2
*D9
  0
BLOCK_RECORD
  5
905C
330
1
100
AcDbSymbolTableRecord
100
AcDbBlockTableRecord
  2
*D10
  0
BLOCK_RECORD
  5
9314
330
1
100
AcDbSymbolTableRecord
100
AcDbBlockTableRecord
  2
*D11
  0
ENDTAB
  0
ENDSEC
  0
SECTION
  2
BLOCKS
  0
BLOCK
  5
20
330
1F
100
AcDbEntity
  8
0
100
AcDbBlockBegin
  2
*MODEL_SPACE
 70
     0
 10
0.0
 20
0.0
 30
0.0
  3
*MODEL_SPACE
  1

  0
ENDBLK
  5
21
330
1F
100
AcDbEntity
  8
0
100
AcDbBlockEnd
  0
BLOCK
  5
103
330
101
100
AcDbEntity
 67
     1
  8
0
100
AcDbBlockBegin
  2
*PAPER_SPACE
 70
     0
 10
0.0
 20
0.0
 30
0.0
  3
*PAPER_SPACE
  1

  0
ENDBLK
  5
104
330
101
100
AcDbEntity
 67
     1
  8
0
100
AcDbBlockEnd
  0
BLOCK
  5
5D
330
59
100
AcDbEntity
  8
0
100
AcDbBlockBegin
  2
_OPEN30
 70
     0
 10
0.0
 20
0.0
 30
0.0
  3
_OPEN30
  1

  0
LINE
  5
5A
330
59
100
AcDbEntity
  8
0
 62
     0
100
AcDbLine
 10
-1.0
 20
0.26794919
 30
0.0
 11
0.0
 21
0.0
 31
0.0
  0
LINE
  5
5B
330
59
100
AcDbEntity
  8
0
 62
     0
100
AcDbLine
 10
0.0
 20
0.0
 30
0.0
 11
-1.0
 21
-0.26794919
 31
0.0
  0
LINE
  5
5C
330
59
100
AcDbEntity
  8
0
 62
     0
100
AcDbLine
 10
0.0
 20
0.0
 30
0.0
 11
-1.0
 21
0.0
 31
0.0
  0
ENDBLK
  5
5E
330
59
100
AcDbEntity
  8
0
100
AcDbBlockEnd
  0
BLOCK
  5
66
330
64
100
AcDbEntity
  8
0
100
AcDbBlockBegin
  2
GENAXEH
 70
     0
 10
0.0
 20
0.0
 30
0.0
  3
GENAXEH
  1

  0
LINE
  5
65
330
64
100
AcDbEntity
  8
0
100
AcDbLine
 10
-1.0
 20
0.0
 30
0.0
 11
1.0
 21
0.0
 31
0.0
  0
ENDBLK
  5
67
330
64
100
AcDbEntity
  8
0
100
AcDbBlockEnd
  0
BLOCK
  5
8EA6
330
8E9C
100
AcDbEntity
  8
0
100
AcDbBlockBegin
  2
*D5
 70
     1
 10
0.0
 20
0.0
 30
0.0
  3
*D5
  1

  0
LINE
  5
92B7
330
8E9C
100
AcDbEntity
  8
AM_5
 62
     3
100
AcDbLine
 10
-0.0000000000000034
 20
1.032474793885834
 30
0.0
 11
-0.0000000000000017
 21
28.49228116728996
 31
0.0
  0
LINE
  5
92B8
330
8E9C
100
AcDbEntity
  8
AM_5
 62
     3
100
AcDbLine
 10
-125.0
 20
11.00000000090467
 30
0.0
 11
-125.0
 21
28.49228116728996
 31
0.0
  0
LINE
  5
92B9
330
8E9C
100
AcDbEntity
  8
AM_5
 62
     3
100
AcDbLine
 10
-2.500000000000001
 20
27.49228116728996
 30
0.0
 11
-122.5
 21
27.49228116728996
 31
0.0
  0
INSERT
  5
92BA
330
8E9C
100
AcDbEntity
  8
AM_5
 62
     3
100
AcDbBlockReference
  2
_OPEN30
 10
-0.0000000000000018
 20
27.49228116728996
 30
0.0
 41
2.5
 42
2.5
 43
2.5
  0
INSERT
  5
92BB
330
8E9C
100
AcDbEntity
  8
AM_5
 62
     3
100
AcDbBlockReference
  2
_OPEN30
 10
-125.0
 20
27.49228116728996
 30
0.0
 41
2.5
 42
2.5
 43
2.5
 50
180.0
  0
MTEXT
  5
92BC
330
8E9C
100
AcDbEntity
  8
AM_5
 62
     2
100
AcDbMText
 10
-62.5
 20
30.59228116728996
 30
0.0
 40
3.2
 41
0.0
 71
     5
 72
     1
  1
125
  7
ASAMI
1001
ACAD
1000
MTEXTBEGIN
1070
    73
1070
     1
1070
    44
1040
1.0
1070
    74
1070
     0
1000
MTEXTEND
  0
POINT
  5
92BD
330
8E9C
100
AcDbEntity
  8
DEFPOINTS
 62
     0
100
AcDbPoint
 10
-0.0000000000000035
 20
0.0324747938858342
 30
0.0
  0
POINT
  5
92BE
330
8E9C
100
AcDbEntity
  8
DEFPOINTS
 62
     0
100
AcDbPoint
 10
-125.0
 20
10.00000000090467
 30
0.0
  0
POINT
  5
92BF
330
8E9C
100
AcDbEntity
  8
DEFPOINTS
 62
     0
100
AcDbPoint
 10
-125.0
 20
27.49228116728996
 30
0.0
  0
ENDBLK
  5
8EA7
330
8E9C
100
AcDbEntity
  8
0
100
AcDbBlockEnd
  0
BLOCK
  5
8EB5
330
8EA9
100
AcDbEntity
  8
0
100
AcDbBlockBegin
  2
*D6
 70
     1
 10
0.0
 20
0.0
 30
0.0
  3
*D6
  1

  0
LINE
  5
92E7
330
8EA9
100
AcDbEntity
  8
AM_5
 62
     3
100
AcDbLine
 10
0.9293053223057762
 20
0.0000000009046753
 30
0.0
 11
11.08835680995578
 21
0.0000000009046724
 31
0.0
  0
LINE
  5
92E8
330
8EA9
100
AcDbEntity
  8
AM_5
 62
     3
100
AcDbLine
 10
-15.52050805476622
 20
-9.999999999095322
 30
0.0
 11
11.08835680995578
 21
-9.999999999095329
 31
0.0
  0
LINE
  5
92E9
330
8EA9
100
AcDbEntity
  8
AM_5
 62
     3
100
AcDbLine
 10
10.08835680995578
 20
-2.499999999095327
 30
0.0
 11
10.08835680995578
 21
-7.49999999909533
 31
0.0
  0
INSERT
  5
92EA
330
8EA9
100
AcDbEntity
  8
AM_5
 62
     3
100
AcDbBlockReference
  2
_OPEN30
 10
10.08835680995578
 20
0.0000000009046727
 30
0.0
 41
2.5
 42
2.5
 43
2.5
 50
90.0
  0
INSERT
  5
92EB
330
8EA9
100
AcDbEntity
  8
AM_5
 62
     3
100
AcDbBlockReference
  2
_OPEN30
 10
10.08835680995578
 20
-9.999999999095329
 30
0.0
 41
2.5
 42
2.5
 43
2.5
 50
270.0
  0
MTEXT
  5
92EC
330
8EA9
100
AcDbEntity
  8
AM_5
 62
     2
100
AcDbMText
 10
6.988356809955782
 20
-4.999999999095326
 30
0.0
 40
3.2
 41
0.0
 71
     5
 72
     1
  1
10
  7
ASAMI
 11
0.0000000000000001
 21
1.0
 31
0.0
1001
ACAD
1000
MTEXTBEGIN
1070
    73
1070
     1
1070
    44
1040
1.0
1070
    74
1070
     0
1000
MTEXTEND
  0
POINT
  5
92ED
330
8EA9
100
AcDbEntity
  8
DEFPOINTS
 62
     0
100
AcDbPoint
 10
-0.0706946776942238
 20
0.0000000009046756
 30
0.0
  0
POINT
  5
92EE
330
8EA9
100
AcDbEntity
  8
DEFPOINTS
 62
     0
100
AcDbPoint
 10
-16.52050805476623
 20
-9.999999999095322
 30
0.0
  0
POINT
  5
92EF
330
8EA9
100
AcDbEntity
  8
DEFPOINTS
 62
     0
100
AcDbPoint
 10
10.08835680995578
 20
-9.999999999095329
 30
0.0
  0
ENDBLK
  5
8EB6
330
8EA9
100
AcDbEntity
  8
0
100
AcDbBlockEnd
  0
BLOCK
  5
8EF7
330
8EE9
100
AcDbEntity
  8
0
100
AcDbBlockBegin
  2
*D7
 70
     1
 10
0.0
 20
0.0
 30
0.0
  3
*D7
  1

  0
LINE
  5
9424
330
8EE9
100
AcDbEntity
  8
AM_5
 62
     3
100
AcDbLine
 10
-0.0000000000000036
 20
15.33877800063233
 30
0.0
 11
-0.0000000000000018
 21
19.50570785634917
 31
0.0
  0
LINE
  5
9425
330
8EE9
100
AcDbEntity
  8
AM_5
 62
     3
100
AcDbLine
 10
-13.15352540282523
 20
8.056071648370117
 30
0.0
 11
-16.49243852161261
 21
9.983794036302789
 31
0.0
  0
ARC
  5
9426
330
8EE9
100
AcDbEntity
  8
AM_5
 62
     3
100
AcDbCircle
 10
-0.0000000000000039
 20
0.461880216256371
 30
0.0
 40
18.0438276400928
100
AcDbArc
 50
97.94478148506428
 51
142.0552185149356
  0
INSERT
  5
9427
330
8EE9
100
AcDbEntity
  8
AM_5
 62
     3
100
AcDbBlockReference
  2
_OPEN30
 10
-0.0000000000000018
 20
18.50570785634917
 30
0.0
 41
2.5
 42
2.5
 43
2.5
 50
3.972390742532135
  0
INSERT
  5
9428
330
8EE9
100
AcDbEntity
  8
AM_5
 62
     3
100
AcDbBlockReference
  2
_OPEN30
 10
-15.62641311782817
 20
9.483794036302789
 30
0.0
 41
2.5
 42
2.5
 43
2.5
 50
236.0276092574677
  0
MTEXT
  5
9429
330
8EE9
100
AcDbEntity
  8
AM_5
 62
     2
100
AcDbMText
 10
-10.57191382004639
 20
18.77297208581632
 30
0.0
 40
3.2
 41
0.0
 71
     5
 72
     1
  1
60°
  7
ASAMI
 11
0.8660254037844389
 21
0.4999999999999997
 31
0.0
  0
POINT
  5
942A
330
8EE9
100
AcDbEntity
  8
DEFPOINTS
 62
     0
100
AcDbPoint
 10
-6.1713525156082
 20
17.41753190038439
 30
0.0
  0
POINT
  5
942B
330
8EE9
100
AcDbEntity
  8
DEFPOINTS
 62
     0
100
AcDbPoint
 10
-0.4000000000000021
 20
0.6928203239322209
 30
0.0
  0
POINT
  5
942C
330
8EE9
100
AcDbEntity
  8
DEFPOINTS
 62
     0
100
AcDbPoint
 10
-0.0000000000000027
 20
14.33877800063233
 30
0.0
  0
POINT
  5
942D
330
8EE9
100
AcDbEntity
  8
DEFPOINTS
 62
     0
100
AcDbPoint
 10
-0.0000000000000036
 20
1.032474793885832
 30
0.0
  0
POINT
  5
942E
330
8EE9
100
AcDbEntity
  8
DEFPOINTS
 62
     0
100
AcDbPoint
 10
-12.28749999904079
 20
7.556071648370116
 30
0.0
  0
ENDBLK
  5
8EF8
330
8EE9
100
AcDbEntity
  8
0
100
AcDbBlockEnd
  0
BLOCK
  5
8FDB
330
8FD0
100
AcDbEntity
  8
0
100
AcDbBlockBegin
  2
*D8
 70
     1
 10
0.0
 20
0.0
 30
0.0
  3
*D8
  1

  0
LINE
  5
942F
330
8FD0
100
AcDbEntity
  8
AM_5
 62
     3
100
AcDbLine
 10
-1.400317098087146
 20
60.92739666694042
 30
0.0
 11
31.23074453872607
 21
60.92739666694042
 31
0.0
  0
LINE
  5
9430
330
8FD0
100
AcDbEntity
  8
AM_5
 62
     3
100
AcDbLine
 10
0.9999999999999966
 20
41.42739666694042
 30
0.0
 11
31.23074453872607
 21
41.42739666694041
 31
0.0
  0
LINE
  5
9431
330
8FD0
100
AcDbEntity
  8
AM_5
 62
     3
100
AcDbLine
 10
30.23074453872607
 20
58.42739666694042
 30
0.0
 11
30.23074453872607
 21
43.92739666694041
 31
0.0
  0
MTEXT
  5
9432
330
8FD0
100
AcDbEntity
  8
AM_5
 62
     2
100
AcDbMText
 10
27.13074453872607
 20
51.17739666694043
 30
0.0
 40
3.2
 41
0.0
 71
     5
 72
     1
  1
19.5
  7
ASAMI
 11
0.0000000000000001
 21
1.0
 31
0.0
  0
INSERT
  5
9433
330
8FD0
100
AcDbEntity
  8
AM_5
 62
     3
100
AcDbBlockReference
  2
_OPEN30
 10
30.23074453872607
 20
60.92739666694042
 30
0.0
 41
2.5
 42
2.5
 43
2.5
 50
90.0
  0
INSERT
  5
9434
330
8FD0
100
AcDbEntity
  8
AM_5
 62
     3
100
AcDbBlockReference
  2
_OPEN30
 10
30.23074453872607
 20
41.42739666694041
 30
0.0
 41
2.5
 42
2.5
 43
2.5
 50
270.0
  0
POINT
  5
9435
330
8FD0
100
AcDbEntity
  8
DEFPOINTS
 62
     0
100
AcDbPoint
 10
-2.400317098087146
 20
60.92739666694042
 30
0.0
  0
POINT
  5
9436
330
8FD0
100
AcDbEntity
  8
DEFPOINTS
 62
     0
100
AcDbPoint
 10
-0.0000000000000035
 20
41.42739666694042
 30
0.0
  0
POINT
  5
9437
330
8FD0
100
AcDbEntity
  8
DEFPOINTS
 62
     0
100
AcDbPoint
 10
30.23074453872607
 20
41.42739666694041
 30
0.0
  0
ENDBLK
  5
8FDC
330
8FD0
100
AcDbEntity
  8
0
100
AcDbBlockEnd
  0
BLOCK
  5
9059
330
904F
100
AcDbEntity
  8
0
100
AcDbBlockBegin
  2
*D9
 70
     1
 10
0.0
 20
0.0
 30
0.0
  3
*D9
  1

  0
LINE
  5
92C9
330
904F
100
AcDbEntity
  8
AM_5
 62
     3
100
AcDbLine
 10
-126.0
 20
10.00000000090467
 30
0.0
 11
-140.1912411586574
 21
10.00000000090468
 31
0.0
  0
LINE
  5
92CA
330
904F
100
AcDbEntity
  8
AM_5
 62
     3
100
AcDbLine
 10
-126.0
 20
-9.999999999095324
 30
0.0
 11
-140.1912411586574
 21
-9.999999999095319
 31
0.0
  0
LINE
  5
92CB
330
904F
100
AcDbEntity
  8
AM_5
 62
     3
100
AcDbLine
 10
-139.1912411586574
 20
7.500000000904678
 30
0.0
 11
-139.1912411586574
 21
-7.499999999095321
 31
0.0
  0
INSERT
  5
92CC
330
904F
100
AcDbEntity
  8
AM_5
 62
     3
100
AcDbBlockReference
  2
_OPEN30
 10
-139.1912411586574
 20
10.00000000090467
 30
0.0
 41
2.5
 42
2.5
 43
2.5
 50
90.0
  0
INSERT
  5
92CD
330
904F
100
AcDbEntity
  8
AM_5
 62
     3
100
AcDbBlockReference
  2
_OPEN30
 10
-139.1912411586574
 20
-9.999999999095322
 30
0.0
 41
2.5
 42
2.5
 43
2.5
 50
270.0
  0
MTEXT
  5
92CE
330
904F
100
AcDbEntity
  8
AM_5
 62
     2
100
AcDbMText
 10
-142.2912411586574
 20
0.0000000009046559
 30
0.0
 40
3.2
 41
0.0
 71
     5
 72
     1
  1
20
  7
ASAMI
 11
0.0000000000000001
 21
1.0
 31
0.0
1001
ACAD
1000
MTEXTBEGIN
1070
    73
1070
     1
1070
    44
1040
1.0
1070
    74
1070
     0
1000
MTEXTEND
  0
POINT
  5
92CF
330
904F
100
AcDbEntity
  8
DEFPOINTS
 62
     0
100
AcDbPoint
 10
-125.0
 20
10.00000000090467
 30
0.0
  0
POINT
  5
92D0
330
904F
100
AcDbEntity
  8
DEFPOINTS
 62
     0
100
AcDbPoint
 10
-125.0
 20
-9.999999999095324
 30
0.0
  0
POINT
  5
92D1
330
904F
100
AcDbEntity
  8
DEFPOINTS
 62
     0
100
AcDbPoint
 10
-139.1912411586574
 20
-9.999999999095322
 30
0.0
  0
ENDBLK
  5
905A
330
904F
100
AcDbEntity
  8
0
100
AcDbBlockEnd
  0
BLOCK
  5
9066
330
905C
100
AcDbEntity
  8
0
100
AcDbBlockBegin
  2
*D10
 70
     1
 10
0.0
 20
0.0
 30
0.0
  3
*D10
  1

  0
LINE
  5
92C0
330
905C
100
AcDbEntity
  8
AM_5
 62
     3
100
AcDbLine
 10
-126.0
 20
60.92739666694042
 30
0.0
 11
-140.9914627361151
 21
60.92739666694042
 31
0.0
  0
LINE
  5
92C1
330
905C
100
AcDbEntity
  8
AM_5
 62
     3
100
AcDbLine
 10
-126.0
 20
40.92739666694042
 30
0.0
 11
-140.9914627361151
 21
40.92739666694042
 31
0.0
  0
LINE
  5
92C2
330
905C
100
AcDbEntity
  8
AM_5
 62
     3
100
AcDbLine
 10
-139.9914627361151
 20
58.42739666694042
 30
0.0
 11
-139.9914627361151
 21
43.42739666694042
 31
0.0
  0
INSERT
  5
92C3
330
905C
100
AcDbEntity
  8
AM_5
 62
     3
100
AcDbBlockReference
  2
_OPEN30
 10
-139.9914627361151
 20
60.92739666694042
 30
0.0
 41
2.5
 42
2.5
 43
2.5
 50
90.0
  0
INSERT
  5
92C4
330
905C
100
AcDbEntity
  8
AM_5
 62
     3
100
AcDbBlockReference
  2
_OPEN30
 10
-139.9914627361151
 20
40.92739666694042
 30
0.0
 41
2.5
 42
2.5
 43
2.5
 50
270.0
  0
MTEXT
  5
92C5
330
905C
100
AcDbEntity
  8
AM_5
 62
     2
100
AcDbMText
 10
-143.0914627361151
 20
50.9273966669404
 30
0.0
 40
3.2
 41
0.0
 71
     5
 72
     1
  1
20
  7
ASAMI
 11
0.0000000000000001
 21
1.0
 31
0.0
1001
ACAD
1000
MTEXTBEGIN
1070
    73
1070
     1
1070
    44
1040
1.0
1070
    74
1070
     0
1000
MTEXTEND
  0
POINT
  5
92C6
330
905C
100
AcDbEntity
  8
DEFPOINTS
 62
     0
100
AcDbPoint
 10
-125.0
 20
60.92739666694042
 30
0.0
  0
POINT
  5
92C7
330
905C
100
AcDbEntity
  8
DEFPOINTS
 62
     0
100
AcDbPoint
 10
-125.0
 20
40.92739666694042
 30
0.0
  0
POINT
  5
92C8
330
905C
100
AcDbEntity
  8
DEFPOINTS
 62
     0
100
AcDbPoint
 10
-139.9914627361151
 20
40.92739666694042
 30
0.0
  0
ENDBLK
  5
9067
330
905C
100
AcDbEntity
  8
0
100
AcDbBlockEnd
  0
BLOCK
  5
9324
330
9314
100
AcDbEntity
  8
0
100
AcDbBlockBegin
  2
*D11
 70
     1
 10
0.0
 20
0.0
 30
0.0
  3
*D11
  1

  0
LINE
  5
93A0
330
9314
100
AcDbEntity
  8
AM_5
 62
     3
100
AcDbLine
 10
0.9999999999999968
 20
41.42739666694043
 30
0.0
 11
17.81905880969905
 21
41.42739666694047
 31
0.0
  0
LINE
  5
93A1
330
9314
100
AcDbEntity
  8
AM_5
 62
     3
100
AcDbLine
 10
1.488819227461979
 20
41.61020068204813
 30
0.0
 11
17.68623824743721
 21
43.59899366417599
 31
0.0
  0
ARC
  5
93A2
330
9314
100
AcDbEntity
  8
AM_5
 62
     3
100
AcDbCircle
 10
-0.0000000000000031
 20
41.42739666694043
 30
0.0
 40
16.81905880969906
100
AcDbArc
 50
342.9036543859415
 51
0.0000000000001399
  0
LINE
  5
93A3
330
9314
100
AcDbEntity
  8
AM_5
 62
     3
100
AcDbLine
 10
16.07585432118205
 20
36.4829404695161
 30
0.0
 11
12.00438013191967
 21
23.24540264419764
 31
0.0
  0
ARC
  5
93A4
330
9314
100
AcDbEntity
  8
AM_5
 62
     3
100
AcDbCircle
 10
-0.0000000000000031
 20
41.42739666694043
 30
0.0
 40
16.81905880969906
100
AcDbArc
 50
342.9512883221493
 51
351.4756441610747
  0
ARC
  5
93A5
330
9314
100
AcDbEntity
  8
AM_5
 62
     3
100
AcDbCircle
 10
-0.0000000000000031
 20
41.42739666694043
 30
0.0
 40
16.81905880969906
100
AcDbArc
 50
15.52435583892487
 51
24.04871167785028
  0
ARC
  5
93A6
330
9314
100
AcDbEntity
  8
AM_5
 62
     3
100
AcDbCircle
 10
-0.0000000000000031
 20
41.42739666694043
 30
0.0
 40
16.81905880969906
100
AcDbArc
 50
0.0000000000001399
 51
6.999999999999475
  0
INSERT
  5
93A7
330
9314
100
AcDbEntity
  8
AM_5
 62
     3
100
AcDbBlockReference
  2
_OPEN30
 10
16.81905880969905
 20
41.42739666694047
 30
0.0
 41
2.5
 42
2.5
 43
2.5
 50
85.73782208053742
  0
INSERT
  5
93A8
330
9314
100
AcDbEntity
  8
AM_5
 62
     3
100
AcDbBlockReference
  2
_OPEN30
 10
16.69369209579589
 20
43.47712432077086
 30
0.0
 41
2.5
 42
2.5
 43
2.5
 50
281.2621779194621
  0
MTEXT
  5
93A9
330
9314
100
AcDbEntity
  8
AM_5
 62
     2
100
AcDbMText
 10
17.0031337044364
 20
28.95283553113489
 30
0.0
 40
3.2
 41
0.0
 71
     5
 72
     1
  1
-7°
  7
ASAMI
 11
-0.2939793631361235
 21
-0.9558117670598532
 31
0.0
1001
ACAD
1000
MTEXTBEGIN
1070
    73
1070
     1
1070
    44
1040
1.0
1070
    74
1070
     0
1000
MTEXTEND
  0
POINT
  5
93AA
330
9314
100
AcDbEntity
  8
DEFPOINTS
 62
     0
100
AcDbPoint
 10
16.76330174675887
 20
42.79577300085821
 30
0.0
  0
POINT
  5
93AB
330
9314
100
AcDbEntity
  8
DEFPOINTS
 62
     0
100
AcDbPoint
 10
-0.0000000000000031
 20
41.42739666694043
 30
0.0
  0
POINT
  5
93AC
330
9314
100
AcDbEntity
  8
DEFPOINTS
 62
     0
100
AcDbPoint
 10
-0.0000000000000031
 20
41.42739666694043
 30
0.0
  0
POINT
  5
93AD
330
9314
100
AcDbEntity
  8
DEFPOINTS
 62
     0
100
AcDbPoint
 10
-0.6249269564826819
 20
41.42739666694043
 30
0.0
  0
POINT
  5
93AE
330
9314
100
AcDbEntity
  8
DEFPOINTS
 62
     0
100
AcDbPoint
 10
0.4962730758206555
 20
41.48833133864299
 30
0.0
  0
ENDBLK
  5
9325
330
9314
100
AcDbEntity
  8
0
100
AcDbBlockEnd
  0
ENDSEC
  0
SECTION
  2
ENTITIES
  0
TEXT
  5
C58
330
1F
100
AcDbEntity
  8
AM_6
100
AcDbText
 10
-93.57142857142854
 20
-32.49999999909543
 30
0.0
 40
5.0
  1
ETENN2020K33W
 50
0.0000000000002036
 72
     4
 11
-62.49999999999999
 21
-29.99999999909532
 31
0.0
100
AcDbText
  0
POINT
  5
68EE
330
1F
100
AcDbEntity
  8
0
 60
     1
100
AcDbPoint
 10
0.0
 20
0.0
 30
0.0
1001
GENIUS_GENOBJ-NBEHI-BHF_13
1002
{
1000
OWNER
1000
GENBEHI
1002
}
1001
GENIUS_GENOENT_13
1002
{
1000
MYREF
1005
68EE
1002
}
1002
{
1000
GRP
1005
0
1002
}
1001
GENIUS_GENOLIS_13
1002
{
1000
ENT
1005
68EB
1002
}
1001
GENIUS_GENBH_13
1002
{
1000
OIUMAP
1000
OIU
1002
}
1002
{
1000
FLAGS
1070
    32
1002
}
1002
{
1000
BGO
1005
68F2
1002
}
1001
GENIUS_GENODEF_13
1002
{
1000
HIER
1070
     1
1002
}
1002
{
1000
MANEDIT
1070
     1
1002
}
1002
{
1000
NOSEL
1070
     1
1002
}
1002
{
1000
BEHIND
1070
     0
1002
}
1002
{
1000
REACTOR
1002
}
  0
POINT
  5
68F2
330
1F
100
AcDbEntity
  8
0
 60
     1
100
AcDbPoint
 10
0.0
 20
0.0
 30
0.0
1001
GENIUS_GENOBJ-NBEHI-BHB_13
1002
{
1000
OWNER
1000
GENBEHI
1002
}
1001
GENIUS_GENOENT_13
1002
{
1000
MYREF
1005
68F2
1002
}
1002
{
1000
GRP
1005
0
1002
}
1001
GENIUS_GENOLIS_13
1002
{
1000
ENT
1002
}
1001
GENIUS_GENODEF_13
1002
{
1000
HIER
1070
     1
1002
}
1002
{
1000
MANEDIT
1070
     0
1002
}
1002
{
1000
NOSEL
1070
     1
1002
}
1002
{
1000
BEHIND
1070
     0
1002
}
1002
{
1000
REACTOR
1002
}
1002
{
1000
OTHER
1070
     1
1002
}
1001
GENIUS_GENBH_13
1002
{
1000
FGO
1005
68EE
1002
}
  0
LINE
  5
8E6F
330
1F
100
AcDbEntity
  8
AM_0
100
AcDbLine
 10
-125.0
 20
60.92739666694042
 30
0.0
 11
-125.0
 21
40.92739666694042
 31
0.0
  0
LINE
  5
8E77
330
1F
100
AcDbEntity
  8
AM_0
100
AcDbLine
 10
-125.0
 20
40.92739666694042
 30
0.0
 11
-13.62944591167219
 21
40.92739666694042
 31
0.0
  0
LINE
  5
8E78
330
1F
100
AcDbEntity
  8
AM_0
100
AcDbLine
 10
-125.0
 20
60.92739666694042
 30
0.0
 11
-2.400317098087146
 21
60.92739666694042
 31
0.0
  0
LINE
  5
8E79
330
1F
100
AcDbEntity
  8
AM_0
100
AcDbLine
 10
-0.0000000000000035
 20
41.42739666694042
 30
0.0
 11
-0.967642586636877
 21
49.30821311097252
 31
0.0
  0
LINE
  5
8E7A
330
1F
100
AcDbEntity
  8
AM_0
100
AcDbLine
 10
-125.0
 20
10.00000000090467
 30
0.0
 11
-125.0
 21
-9.999999999095324
 31
0.0
  0
LINE
  5
8E7C
330
1F
100
AcDbEntity
  8
AM_0
100
AcDbLine
 10
-16.52050805476623
 20
-9.999999999095322
 30
0.0
 11
-13.48749998953872
 21
-8.248891976181916
 31
0.0
  0
LINE
  5
8E80
330
1F
100
AcDbEntity
  8
AM_0
100
AcDbLine
 10
-13.48749998953872
 20
39.77133990304698
 30
0.0
 11
-0.0000000000000035
 21
41.42739666694042
 31
0.0
  0
LINE
  5
8E82
330
1F
100
AcDbEntity
  8
AM_0
100
AcDbLine
 10
-0.9807574787809892
 20
49.30660280469931
 30
0.0
 11
-2.40031709808715
 21
60.86798811949241
 31
0.0
  0
LINE
  5
8E84
330
1F
100
AcDbEntity
  8
AM_0
100
AcDbLine
 10
-14.45514257617558
 20
47.65215634707907
 30
0.0
 11
-13.4874999895387
 21
39.77133990304698
 31
0.0
  0
LINE
  5
8E89
330
1F
100
AcDbEntity
  8
AM_0
100
AcDbLine
 10
-13.48749998953872
 20
-6.863251330126813
 30
0.0
 11
-13.48749998953872
 21
-8.248891976181917
 31
0.0
  0
LINE
  5
8E8F
330
1F
100
AcDbEntity
  8
AM_7
100
AcDbLine
 10
-8.276312492033607
 20
36.70183491616536
 30
0.0
 11
-12.05000325730766
 21
67.4360798206058
 31
0.0
  0
DIMENSION
  5
8E9B
330
1F
100
AcDbEntity
  8
AM_5
100
AcDbDimension
  2
*D5
 10
-125.0
 20
27.49228116728996
 30
0.0
 11
-62.5
 21
30.59228116728996
 31
0.0
 70
    32
  3
AM_JIS
100
AcDbAlignedDimension
 13
-0.0000000000000035
 23
0.0324747938858342
 33
0.0
 14
-125.0
 24
10.00000000090467
 34
0.0
 50
180.0
100
AcDbRotatedDimension
  0
DIMENSION
  5
8EA8
330
1F
100
AcDbEntity
  8
AM_5
100
AcDbDimension
  2
*D6
 10
10.08835680995578
 20
-9.999999999095329
 30
0.0
 11
6.988356809955782
 21
-4.999999999095326
 31
0.0
 70
    32
  3
AM_JIS
100
AcDbAlignedDimension
 13
-0.0706946776942238
 23
0.0000000009046756
 33
0.0
 14
-16.52050805476623
 24
-9.999999999095322
 34
0.0
 50
270.0
100
AcDbRotatedDimension
  0
DIMENSION
  5
8EE8
330
1F
100
AcDbEntity
  8
AM_5
100
AcDbDimension
  2
*D7
 10
-12.28749999904079
 20
7.556071648370117
 30
0.0
 11
-10.57191382004639
 21
18.77297208581632
 31
0.0
 70
    34
  3
AM_JIS$2
100
AcDb2LineAngularDimension
 13
-0.0000000000000035
 23
14.33877800063233
 33
0.0
 14
-0.0000000000000035
 24
1.032474793885832
 34
0.0
 15
-0.4000000000000021
 25
0.6928203239322209
 35
0.0
 16
-6.1713525156082
 26
17.41753190038439
 36
0.0
1001
ACAD
1000
DSTYLE
1002
{
1070
   271
1070
     0
1002
}
  0
DIMENSION
  5
8FCF
330
1F
100
AcDbEntity
  8
AM_5
100
AcDbDimension
  2
*D8
 10
30.23074453872607
 20
41.42739666694041
 30
0.0
 11
30.23074453872607
 21
51.17739666694043
 31
0.0
 70
   160
  3
AM_JIS
100
AcDbAlignedDimension
 13
-2.400317098087146
 23
60.92739666694042
 33
0.0
 14
-0.0000000000000035
 24
41.42739666694042
 34
0.0
 50
270.0
100
AcDbRotatedDimension
1001
ACAD
1000
DSTYLE
1002
{
1070
   287
1070
     4
1070
   279
1070
     1
1002
}
  0
DIMENSION
  5
904E
330
1F
100
AcDbEntity
  8
AM_5
100
AcDbDimension
  2
*D9
 10
-139.1912411586574
 20
-9.999999999095322
 30
0.0
 11
-142.2912411586574
 21
0.0000000009046559
 31
0.0
 70
    32
  3
AM_JIS
100
AcDbAlignedDimension
 13
-125.0
 23
10.00000000090467
 33
0.0
 14
-125.0
 24
-9.999999999095324
 34
0.0
 50
270.0
100
AcDbRotatedDimension
  0
DIMENSION
  5
905B
330
1F
100
AcDbEntity
  8
AM_5
100
AcDbDimension
  2
*D10
 10
-139.9914627361151
 20
40.92739666694042
 30
0.0
 11
-143.0914627361151
 21
50.9273966669404
 31
0.0
 70
    32
  3
AM_JIS
100
AcDbAlignedDimension
 13
-125.0
 23
60.92739666694042
 33
0.0
 14
-125.0
 24
40.92739666694042
 34
0.0
 50
270.0
100
AcDbRotatedDimension
  0
CIRCLE
  5
90BA
330
1F
100
AcDbEntity
  8
AM_0
100
AcDbCircle
 10
-8.724999994449623
 20
-0.0000000021152252
 30
0.0
 40
2.0
  0
LINE
  5
9104
330
1F
100
AcDbEntity
  8
AM_0
100
AcDbLine
 10
-14.06759806414721
 20
44.49585958485967
 30
0.0
 11
-0.5800980746085069
 21
46.15191634875311
 31
0.0
  0
LINE
  5
9105
330
1F
100
AcDbEntity
  8
AM_0
100
AcDbLine
 10
-18.82452377839872
 20
60.92739666694043
 30
0.0
 11
-16.36883256034064
 21
40.92739666694042
 31
0.0
  0
LINE
  5
9132
330
1F
100
AcDbEntity
  8
AM_0
100
AcDbLine
 10
-125.0
 20
-9.999999999095322
 30
0.0
 11
-16.52050805476623
 21
-9.999999999095322
 31
0.0
  0
LINE
  5
9133
330
1F
100
AcDbEntity
  8
AM_0
100
AcDbLine
 10
-125.0
 20
10.00000000090467
 30
0.0
 11
-16.36883256034064
 21
10.00000000090467
 31
0.0
  0
LINE
  5
9134
330
1F
100
AcDbEntity
  8
AM_0
100
AcDbLine
 10
-13.48749998953872
 20
6.863251331936158
 30
0.0
 11
-13.48749998953872
 21
8.248891977991261
 31
0.0
  0
LINE
  5
9135
330
1F
100
AcDbEntity
  8
AM_0
100
AcDbLine
 10
-16.52050805476623
 20
10.00000000090466
 30
0.0
 11
-13.48749998953872
 21
8.248891977991261
 31
0.0
  0
LINE
  5
917D
330
1F
100
AcDbEntity
  8
AM_0
100
AcDbLine
 10
-9.664771932890527
 20
64.4209476999461
 30
0.0
 11
-9.244699532900435
 21
60.99973254959615
 31
0.0
  0
LINE
  5
917E
330
1F
100
AcDbEntity
  8
AM_0
100
AcDbLine
 10
-13.6349565394558
 20
63.93347032632552
 30
0.0
 11
-13.26573347266551
 21
60.92638976118621
 31
0.0
  0
LINE
  5
91A8
330
1F
100
AcDbEntity
  8
AM_0
100
AcDbLine
 10
-15.14992488232451
 20
47.56684780669547
 30
0.0
 11
-0.9676425866368763
 21
49.30821311097252
 31
0.0
  0
LINE
  5
91A9
330
1F
100
AcDbEntity
  8
AM_0
100
AcDbLine
 10
-15.02805553891935
 20
46.57430165505416
 30
0.0
 11
-14.33327323277043
 21
46.65961019543777
 31
0.0
  0
LINE
  5
91AA
330
1F
100
AcDbEntity
  8
AM_0
100
AcDbLine
 10
-14.32636371974995
 20
44.1416840133129
 30
0.0
 11
-14.02859987425756
 21
44.17824481633443
 31
0.0
  0
LINE
  5
91AB
330
1F
100
AcDbEntity
  8
AM_0
100
AcDbLine
 10
-14.63103707826283
 20
46.62304939241621
 30
0.0
 11
-14.32636371974995
 21
44.14168401331289
 31
0.0
  0
LINE
  5
91AC
330
1F
100
AcDbEntity
  8
AM_0
100
AcDbLine
 10
-15.1499248823245
 20
47.56684780669547
 30
0.0
 11
-15.02805553891936
 21
46.57430165505416
 31
0.0
  0
LINE
  5
91C1
330
1F
100
AcDbEntity
  8
AM_0
100
AcDbLine
 10
-13.22062232809521
 20
7.459724780127932
 30
0.0
 11
-13.48749998953872
 21
7.613806669803044
 31
0.0
  0
LINE
  5
91C3
330
1F
100
AcDbEntity
  8
AM_0
100
AcDbLine
 10
-13.22062232809521
 20
-7.459724784358383
 30
0.0
 11
-13.48749998953872
 21
-7.613806674033495
 31
0.0
  0
LINE
  5
9293
330
1F
100
AcDbEntity
  8
AM_0
100
AcDbLine
 10
-13.6349565394558
 20
63.93347032632551
 30
0.0
 11
-9.664771932890527
 21
64.4209476999461
 31
0.0
  0
DIMENSION
  5
9313
330
1F
100
AcDbEntity
  8
AM_5
100
AcDbDimension
  2
*D11
 10
0.4962730758206561
 20
41.48833133864299
 30
0.0
 11
17.0031337044364
 21
28.95283553113489
 31
0.0
 70
    34
  1
-<>
  3
AM_JIS$2
100
AcDb2LineAngularDimension
 13
-0.0000000000000036
 23
41.42739666694042
 33
0.0
 14
-0.6249269564826819
 24
41.42739666694042
 34
0.0
 15
-0.0000000000000035
 25
41.42739666694042
 35
0.0
 16
16.76330174675887
 26
42.79577300085821
 36
0.0
1001
ACAD
1000
DSTYLE
1002
{
1070
   179
1070
     3
1002
}
1001
GENIUS_GENDTOL_13
1000

1000
h7
1000

1040
0.0
  0
LINE
  5
9336
330
1F
100
AcDbEntity
  8
AM_0
100
AcDbLine
 10
-12.28749998953873
 20
-7.556071653154365
 30
0.0
 11
-0.3999999994719883
 21
-0.6928203218180248
 31
0.0
  0
ARC
  5
9337
330
1F
100
AcDbEntity
  8
AM_0
100
AcDbCircle
 10
-0.7999999999999998
 20
0.0000000009046738
 30
0.0
 40
0.7999999999999956
100
AcDbArc
 50
299.9999999999999
 51
300.0000000436664
  0
LINE
  5
9338
330
1F
100
AcDbEntity
  8
AM_11
100
AcDbLine
 10
0.7999999989439625
 20
0.0000000015143702
 30
0.0
 11
-0.4000000000000012
 21
0.6928203239322204
 31
0.0
  0
ARC
  5
9339
330
1F
100
AcDbEntity
  8
AM_0
100
AcDbCircle
 10
-12.68749999904079
 20
6.863251325342567
 30
0.0
 40
0.7999999999999994
100
AcDbArc
 50
59.99999999999979
 51
180.0000000396623
  0
LINE
  5
933A
330
1F
100
AcDbEntity
  8
AM_0
100
AcDbLine
 10
-13.48749999904079
 20
6.863251324788775
 30
0.0
 11
-13.48749998953872
 21
-6.863251330126811
 31
0.0
  0
ARC
  5
933B
330
1F
100
AcDbEntity
  8
AM_0
100
AcDbCircle
 10
-12.68749998953872
 20
-6.863251330126813
 30
0.0
 40
0.799999999999999
100
AcDbArc
 50
179.9999999999998
 51
299.9999999999997
  0
LINE
  5
9341
330
1F
100
AcDbEntity
  8
AM_0
100
AcDbLine
 10
-0.4000000000000012
 20
0.6928203239322204
 30
0.0
 11
-12.28749999904078
 21
7.556071648370116
 31
0.0
  0
ARC
  5
9342
330
1F
100
AcDbEntity
  8
AM_0
100
AcDbCircle
 10
-0.7999999999999998
 20
0.0000000009046738
 30
0.0
 40
0.7999999999999956
100
AcDbArc
 50
59.99999999999992
 51
60.00000000000003
  0
LINE
  5
9346
330
1F
100
AcDbEntity
  8
AM_11
100
AcDbLine
 10
-0.3999999994719883
 20
-0.6928203218180248
 30
0.0
 11
0.7999999989439625
 21
0.0000000015143702
 31
0.0
  0
ARC
  5
9347
330
1F
100
AcDbEntity
  8
AM_0
100
AcDbCircle
 10
-0.7999999999999998
 20
0.0000000009046738
 30
0.0
 40
0.7999999999999956
100
AcDbArc
 50
300.0000000436664
 51
59.99999999999992
  0
LEADER
  5
93D2
330
1F
100
AcDbEntity
  8
AM_5
  6
CONTINUOUS
 48
0.5
100
AcDbLeader
  3
AM_JIS$7
 76
     2
 10
27.85210745455056
 20
1.65017330517054
 30
0.0
 10
27.85210745455049
 20
11.65017330517054
 30
0.0
211
-1.0
221
-0.0000000000000078
231
0.0
1001
ACAD
1000
DSTYLE
1002
{
1070
     6
1000
OPEN30
1070
   173
1070
     1
1070
   176
1070
     0
1070
   341
1005
59
1002
}
  0
MTEXT
  5
93D3
330
1F
100
AcDbEntity
  8
AM_6
100
AcDbMText
 10
14.85210745455049
 20
11.65017330517045
 30
0.0
 40
4.0
 41
0.0
 71
     5
 72
     5
  1
\T1.4;\W0.59;-7°
  7
ASAMI
1001
ACAD
1000
MTEXTBEGIN
1070
    73
1070
     1
1070
    44
1040
1.0
1070
    74
1070
     0
1000
MTEXTEND
  0
MTEXT
  5
93D4
330
1F
100
AcDbEntity
  8
AM_6
100
AcDbMText
 10
30.39968404144914
 20
-2.349826694829445
 30
0.0
 40
4.0
 41
0.0
 71
     5
 72
     5
  1
\T1.40;\W0.59;０°
  7
ASAMI
1001
ACAD
1000
MTEXTBEGIN
1070
    73
1070
     1
1070
    44
1040
1.0
1070
    74
1070
     0
1000
MTEXTEND
  0
LEADER
  5
93D5
330
1F
100
AcDbEntity
  8
AM_5
  6
CONTINUOUS
 48
0.5
100
AcDbLeader
  3
AM_JIS$7
 76
     2
 10
17.85210745455049
 20
11.65017330517046
 30
0.0
 10
27.85210745455049
 20
11.65017330517054
 30
0.0
211
-1.0
221
-0.0000000000000078
231
0.0
1001
ACAD
1000
DSTYLE
1002
{
1070
     6
1000
OPEN30
1070
   173
1070
     1
1070
   176
1070
     0
1070
   341
1005
59
1002
}
  0
VIEWPORT
  5
110
330
101
100
AcDbEntity
 67
     1
  8
0
100
AcDbViewport
 10
420.5
 20
297.0
 30
0.0
 40
948.9782706766916
 41
628.452
 68
     1
 69
     1
1001
ACAD
1000
MVIEW
1002
{
1070
    16
1010
0.0
1020
0.0
1030
0.0
1010
0.0
1020
0.0
1030
1.0
1040
0.0
1040
628.452
1040
420.5
1040
297.0
1040
50.0
1040
0.0
1040
0.0
1070
     0
1070
   100
1070
     1
1070
     1
1070
     0
1070
     0
1070
     0
1070
     0
1040
0.0
1040
0.0
1040
0.0
1040
10.0
1040
10.0
1040
10.0
1040
10.0
1070
     0
1002
{
1002
}
1002
}
  0
ENDSEC
  0
SECTION
  2
OBJECTS
  0
DICTIONARY
  5
C
330
0
100
AcDbDictionary
  3
ACAD_GROUP
350
D
  3
ACAD_LAYOUT
350
1A
  3
ACAD_MLINESTYLE
350
17
  3
ACAD_PLOTSETTINGS
350
19
  3
ACAD_PLOTSTYLENAME
350
E
  3
ACDBVARIABLEDICTIONARY
350
34
  3
ACMDICTIONARY
350
43
  3
AMG
350
2B
  3
AMGSNAPSETTINGS
350
6E
  3
DWGPROPS
350
93EE
  3
ACDBHEADERROUNDTRIPXREC
350
93FA
  0
DICTIONARY
  5
74
330
1F
100
AcDbDictionary
280
     1
  3
ACAD_INDEX
360
93F0
  3
ACAD_LAYOUTSELFREF
360
941D
  0
DICTIONARY
  5
9422
330
101
100
AcDbDictionary
280
     1
  3
ACAD_LAYOUTSELFREF
360
9423
  0
DICTIONARY
  5
D
102
{ACAD_REACTORS
330
C
102
}
330
C
100
AcDbDictionary
  3
*A1
350
8AC5
  3
*A2
350
8B73
  3
*A3
350
8D58
  0
DICTIONARY
  5
1A
102
{ACAD_REACTORS
330
C
102
}
330
C
100
AcDbDictionary
  0
DICTIONARY
  5
17
102
{ACAD_REACTORS
330
C
102
}
330
C
100
AcDbDictionary
  3
STANDARD
350
18
  0
DICTIONARY
  5
19
102
{ACAD_REACTORS
330
C
102
}
330
C
100
AcDbDictionary
  0
ACDBDICTIONARYWDFLT
  5
E
102
{ACAD_REACTORS
330
C
102
}
330
C
100
AcDbDictionary
281
     1
  3
Normal
350
F
100
AcDbDictionaryWithDefault
340
F
  0
DICTIONARY
  5
34
102
{ACAD_REACTORS
330
C
102
}
330
C
100
AcDbDictionary
  3
INDEXCTL
350
35
  3
SORTENTS
350
B5E
  0
DICTIONARY
  5
43
102
{ACAD_REACTORS
330
C
102
}
330
C
100
AcDbDictionary
  3
ACMSTDDICTIONARY
350
260
  0
DICTIONARY
  5
2B
102
{ACAD_REACTORS
330
C
102
}
330
C
100
AcDbDictionary
  3
ACMGSETTINGS
350
2C
  0
DICTIONARY
  5
6E
102
{ACAD_REACTORS
330
C
102
}
330
C
100
AcDbDictionary
  0
XRECORD
  5
93EE
102
{ACAD_REACTORS
330
C
102
}
330
C
100
AcDbXrecord
  1
DWGPROPS COOKIE
  2

  3

  4

  6

  7

  8

  9

300
AmdtFileType=82
301
=
302
=
303
=
304
=
305
=
306
=
307
=
308
=
309
=
 40
1.818956435185185
 41
2452838.620506898
 42
2452938.60290059
  1

 90
        1
  0
DICTIONARY
  5
93FA
102
{ACAD_REACTORS
330
C
102
}
330
C
100
AcDbDictionary
  3
TSTACKALIGN
350
93FB
  3
TSTACKSIZE
350
93FC
  3
HYPERLINKBASE
350
93FD
  3
STYLESHEET
350
93FE
  3
LAYOUTDICT
350
93FF
  3
PLOTSETDICT
350
9400
  3
PLOTSTYLNAMDICT
350
9401
  3
LWETCUNION
350
9402
  3
INSUNITS
350
9403
  3
CEPSNTYPE
350
9404
  3
FINGERPRINTGUID
350
9405
  3
VERSIONGUID
350
9406
  3
PSVPSCALE
350
9407
  3
DIMSTYLEDATA
350
9408
  3
PUCSORTHOREF
350
9409
  3
PUCSORTHOVIEW
350
940A
  3
PUCSBASE
350
940B
  3
PUCSORGTOP
350
940C
  3
PUCSORGBOTTOM
350
940D
  3
PUCSORGLEFT
350
940E
  3
PUCSORGRIGHT
350
940F
  3
PUCSORGFRONT
350
9410
  3
PUCSORGBACK
350
9411
  3
UCSORTHOREF
350
9412
  3
UCSORTHOVIEW
350
9413
  3
UCSBASE
350
9414
  3
UCSORGTOP
350
9415
  3
UCSORGBOTTOM
350
9416
  3
UCSORGLEFT
350
9417
  3
UCSORGRIGHT
350
9418
  3
UCSORGFRONT
350
9419
  3
UCSORGBACK
350
941A
  0
DICTIONARY
  5
93F0
102
{ACAD_REACTORS
330
74
102
}
330
74
100
AcDbDictionary
  3
*A1
350
93F1
  0
XRECORD
  5
941D
102
{ACAD_REACTORS
330
74
102
}
330
74
100
AcDbXrecord
340
1F
  0
XRECORD
  5
9423
102
{ACAD_REACTORS
330
9422
102
}
330
9422
100
AcDbXrecord
340
101
  0
GROUP
  5
8AC5
102
{ACAD_REACTORS
330
D
102
}
330
D
100
AcDbGroup
300

 70
     1
 71
     1
  0
GROUP
  5
8B73
102
{ACAD_REACTORS
330
D
102
}
330
D
100
AcDbGroup
300

 70
     1
 71
     1
  0
GROUP
  5
8D58
102
{ACAD_REACTORS
330
D
102
}
330
D
100
AcDbGroup
300

 70
     1
 71
     1
  0
MLINESTYLE
  5
18
102
{ACAD_REACTORS
330
17
102
}
330
17
100
AcDbMlineStyle
  2
STANDARD
 70
     0
  3

 62
   256
 51
90.0
 52
90.0
 71
     2
 49
0.5
 62
   256
  6
BYLAYER
 49
-0.5
 62
   256
  6
BYLAYER
  0
ACDBPLACEHOLDER
  5
F
102
{ACAD_REACTORS
330
E
102
}
330
E
100
AcDbPlaceHolder
280
     0
  0
DICTIONARYVAR
  5
35
102
{ACAD_REACTORS
330
34
102
}
330
34
100
DictionaryVariables
280
     0
  1
1
  0
DICTIONARYVAR
  5
B5E
102
{ACAD_REACTORS
330
34
102
}
330
34
100
DictionaryVariables
280
     0
  1
96
  0
DICTIONARY
  5
260
102
{ACAD_REACTORS
330
43
102
}
330
43
100
AcDbDictionary
  0
DICTIONARY
  5
2C
102
{ACAD_REACTORS
330
2B
102
}
330
2B
100
AcDbDictionary
  3
DWGSETTINGS
350
2D
  0
XRECORD
  5
93FB
102
{ACAD_REACTORS
330
93FA
102
}
330
93FA
100
AcDbXrecord
 90
        1
  0
XRECORD
  5
93FC
102
{ACAD_REACTORS
330
93FA
102
}
330
93FA
100
AcDbXrecord
 90
       70
  0
XRECORD
  5
93FD
102
{ACAD_REACTORS
330
93FA
102
}
330
93FA
100
AcDbXrecord
  1

  0
XRECORD
  5
93FE
102
{ACAD_REACTORS
330
93FA
102
}
330
93FA
100
AcDbXrecord
  1
ASAMI.ctb
  0
XRECORD
  5
93FF
102
{ACAD_REACTORS
330
93FA
102
}
330
93FA
100
AcDbXrecord
340
1A
  0
XRECORD
  5
9400
102
{ACAD_REACTORS
330
93FA
102
}
330
93FA
100
AcDbXrecord
340
19
  0
XRECORD
  5
9401
102
{ACAD_REACTORS
330
93FA
102
}
330
93FA
100
AcDbXrecord
340
E
  0
XRECORD
  5
9402
102
{ACAD_REACTORS
330
93FA
102
}
330
93FA
100
AcDbXrecord
 90
    10781
  0
XRECORD
  5
9403
102
{ACAD_REACTORS
330
93FA
102
}
330
93FA
100
AcDbXrecord
 90
        4
  0
XRECORD
  5
9404
102
{ACAD_REACTORS
330
93FA
102
}
330
93FA
100
AcDbXrecord
 90
        0
  0
XRECORD
  5
9405
102
{ACAD_REACTORS
330
93FA
102
}
330
93FA
100
AcDbXrecord
  1
{AFB28963-8C59-40AE-9337-C84526B81ACE}
  0
XRECORD
  5
9406
102
{ACAD_REACTORS
330
93FA
102
}
330
93FA
100
AcDbXrecord
  1
{6B5E359A-0D20-4E25-B7D4-610B62F29EDC}
  0
XRECORD
  5
9407
102
{ACAD_REACTORS
330
93FA
102
}
330
93FA
100
AcDbXrecord
 40
0.0
  0
XRECORD
  5
9408
102
{ACAD_REACTORS
330
93FA
102
}
330
93FA
100
AcDbXrecord
1000
DSTYLE
1002
{
1070
    79
 70
     2
1070
   341
340
59
1070
   342
340
59
1070
   371
 70
    -1
1070
   372
 70
    -1
1002
}
  0
XRECORD
  5
9409
102
{ACAD_REACTORS
330
93FA
102
}
330
93FA
100
AcDbXrecord
340
0
  0
XRECORD
  5
940A
102
{ACAD_REACTORS
330
93FA
102
}
330
93FA
100
AcDbXrecord
 70
     0
  0
XRECORD
  5
940B
102
{ACAD_REACTORS
330
93FA
102
}
330
93FA
100
AcDbXrecord
340
0
  0
XRECORD
  5
940C
102
{ACAD_REACTORS
330
93FA
102
}
330
93FA
100
AcDbXrecord
 10
0.0
 20
0.0
 30
0.0
  0
XRECORD
  5
940D
102
{ACAD_REACTORS
330
93FA
102
}
330
93FA
100
AcDbXrecord
 10
0.0
 20
0.0
 30
0.0
  0
XRECORD
  5
940E
102
{ACAD_REACTORS
330
93FA
102
}
330
93FA
100
AcDbXrecord
 10
0.0
 20
0.0
 30
0.0
  0
XRECORD
  5
940F
102
{ACAD_REACTORS
330
93FA
102
}
330
93FA
100
AcDbXrecord
 10
0.0
 20
0.0
 30
0.0
  0
XRECORD
  5
9410
102
{ACAD_REACTORS
330
93FA
102
}
330
93FA
100
AcDbXrecord
 10
0.0
 20
0.0
 30
0.0
  0
XRECORD
  5
9411
102
{ACAD_REACTORS
330
93FA
102
}
330
93FA
100
AcDbXrecord
 10
0.0
 20
0.0
 30
0.0
  0
XRECORD
  5
9412
102
{ACAD_REACTORS
330
93FA
102
}
330
93FA
100
AcDbXrecord
340
0
  0
XRECORD
  5
9413
102
{ACAD_REACTORS
330
93FA
102
}
330
93FA
100
AcDbXrecord
 70
     0
  0
XRECORD
  5
9414
102
{ACAD_REACTORS
330
93FA
102
}
330
93FA
100
AcDbXrecord
340
0
  0
XRECORD
  5
9415
102
{ACAD_REACTORS
330
93FA
102
}
330
93FA
100
AcDbXrecord
 10
0.0
 20
0.0
 30
0.0
  0
XRECORD
  5
9416
102
{ACAD_REACTORS
330
93FA
102
}
330
93FA
100
AcDbXrecord
 10
0.0
 20
0.0
 30
0.0
  0
XRECORD
  5
9417
102
{ACAD_REACTORS
330
93FA
102
}
330
93FA
100
AcDbXrecord
 10
0.0
 20
0.0
 30
0.0
  0
XRECORD
  5
9418
102
{ACAD_REACTORS
330
93FA
102
}
330
93FA
100
AcDbXrecord
 10
0.0
 20
0.0
 30
0.0
  0
XRECORD
  5
9419
102
{ACAD_REACTORS
330
93FA
102
}
330
93FA
100
AcDbXrecord
 10
0.0
 20
0.0
 30
0.0
  0
XRECORD
  5
941A
102
{ACAD_REACTORS
330
93FA
102
}
330
93FA
100
AcDbXrecord
 10
0.0
 20
0.0
 30
0.0
  0
LAYER_INDEX
  5
93F1
102
{ACAD_REACTORS
330
93F0
102
}
330
93F0
100
AcDbIndex
 40
2452941.592640509
100
AcDbLayerIndex
  8
0
360
93F2
 90
        2
  8
AM_0
360
93F3
 90
       35
  8
AM_7
360
93F4
 90
        1
  8
AM_5
360
93F5
 90
        9
  8
Defpoints
360
93F6
 90
        0
  8
AM_6
360
93F7
 90
        3
  8
AM_11
360
93F8
 90
        2
  0
XRECORD
  5
2D
102
{ACAD_REACTORS
330
2C
102
}
330
2C
100
AcDbXrecord
  1
VERSION
140
15.0
  1
PRODUCT
  2
AutoCAD Mechanical 2000
  0
IDBUFFER
  5
93F2
330
0
100
AcDbIdBuffer
330
68EE
330
68F2
  0
IDBUFFER
  5
93F3
330
0
100
AcDbIdBuffer
330
9135
330
917D
330
917E
330
91A8
330
91A9
330
91AA
330
91AB
330
91AC
330
91C1
330
91C3
330
9293
330
9336
330
9337
330
9339
330
933A
330
933B
330
9341
330
9342
330
9347
330
8E6F
330
8E77
330
8E78
330
8E79
330
8E7A
330
8E7C
330
8E80
330
8E82
330
8E84
330
8E89
330
90BA
330
9104
330
9105
330
9132
330
9133
330
9134
  0
IDBUFFER
  5
93F4
330
0
100
AcDbIdBuffer
330
8E8F
  0
IDBUFFER
  5
93F5
330
0
100
AcDbIdBuffer
330
8E9B
330
8EA8
330
8EE8
330
8FCF
330
904E
330
905B
330
9313
330
93D2
330
93D5
  0
IDBUFFER
  5
93F6
330
0
100
AcDbIdBuffer
  0
IDBUFFER
  5
93F7
330
0
100
AcDbIdBuffer
330
C58
330
93D3
330
93D4
  0
IDBUFFER
  5
93F8
330
0
100
AcDbIdBuffer
330
9338
330
9346
  0
ENDSEC
  0
EOF
