  0
SECTION
  2
HEADER
  9
$ACADVER
  1
AC1014
  9
$ACADMAINTVER
 70
     9
  9
$DWGCODEPAGE
  3
ANSI_932
  9
$INSBASE
 10
0.0
 20
0.0
 30
0.0
  9
$EXTMIN
 10
-168.7109511419837
 20
-54.5077083837503
 30
-0.0000000349181948
  9
$EXTMAX
 10
64.4244439363116
 20
73.95623750298546
 30
0.0000000814935746
  9
$LIMMIN
 10
-185.3054014237305
 20
-66.13095662061851
  9
$LIMMAX
 10
77.19371813801558
 20
80.41409401493575
  9
$ORTHOMODE
 70
     0
  9
$REGENMODE
 70
     1
  9
$FILLMODE
 70
     1
  9
$QTEXTMODE
 70
     0
  9
$MIRRTEXT
 70
     0
  9
$DRAGMODE
 70
     2
  9
$LTSCALE
 40
1.0
  9
$OSMODE
 70
    55
  9
$ATTMODE
 70
     1
  9
$TEXTSIZE
 40
2.5
  9
$TRACEWID
 40
1.0
  9
$TEXTSTYLE
  7
ACJISGDT
  9
$CLAYER
  8
AM_0
  9
$CELTYPE
  6
BYLAYER
  9
$CECOLOR
 62
   256
  9
$CELTSCALE
 40
1.0
  9
$DELOBJ
 70
     1
  9
$DISPSILH
 70
     0
  9
$DIMSCALE
 40
0.5
  9
$DIMASZ
 40
2.5
  9
$DIMEXO
 40
1.0
  9
$DIMDLI
 40
12.0
  9
$DIMRND
 40
0.0
  9
$DIMDLE
 40
0.0
  9
$DIMEXE
 40
1.0
  9
$DIMTP
 40
0.1
  9
$DIMTM
 40
0.1
  9
$DIMTXT
 40
3.2
  9
$DIMCEN
 40
0.0
  9
$DIMTSZ
 40
0.0
  9
$DIMTOL
 70
     0
  9
$DIMLIM
 70
     0
  9
$DIMTIH
 70
     0
  9
$DIMTOH
 70
     0
  9
$DIMSE1
 70
     0
  9
$DIMSE2
 70
     0
  9
$DIMTAD
 70
     3
  9
$DIMZIN
 70
     8
  9
$DIMBLK
  1
OPEN30
  9
$DIMASO
 70
     1
  9
$DIMSHO
 70
     1
  9
$DIMPOST
  1

  9
$DIMAPOST
  1
"
  9
$DIMALT
 70
     0
  9
$DIMALTD
 70
     2
  9
$DIMALTF
 40
0.0393701
  9
$DIMLFAC
 40
1.0
  9
$DIMTOFL
 70
     1
  9
$DIMTVP
 40
0.0
  9
$DIMTIX
 70
     0
  9
$DIMSOXD
 70
     0
  9
$DIMSAH
 70
     0
  9
$DIMBLK1
  1

  9
$DIMBLK2
  1

  9
$DIMSTYLE
  2
AM_JIS
  9
$DIMCLRD
 70
   256
  9
$DIMCLRE
 70
   256
  9
$DIMCLRT
 70
     2
  9
$DIMTFAC
 40
0.71
  9
$DIMGAP
 40
1.5
  9
$DIMJUST
 70
     0
  9
$DIMSD1
 70
     0
  9
$DIMSD2
 70
     0
  9
$DIMTOLJ
 70
     0
  9
$DIMTZIN
 70
     0
  9
$DIMALTZ
 70
     0
  9
$DIMALTTZ
 70
     0
  9
$DIMFIT
 70
     3
  9
$DIMUPT
 70
     0
  9
$DIMUNIT
 70
     2
  9
$DIMDEC
 70
     3
  9
$DIMTDEC
 70
     3
  9
$DIMALTU
 70
     2
  9
$DIMALTTD
 70
     2
  9
$DIMTXSTY
  7
ASAMI
  9
$DIMAUNIT
 70
     0
  9
$LUNITS
 70
     2
  9
$LUPREC
 70
     2
  9
$SKETCHINC
 40
1.0
  9
$FILLETRAD
 40
1.0
  9
$AUNITS
 70
     0
  9
$AUPREC
 70
     0
  9
$MENU
  1
.
  9
$ELEVATION
 40
0.0
  9
$PELEVATION
 40
0.0
  9
$THICKNESS
 40
0.0
  9
$LIMCHECK
 70
     0
  9
$BLIPMODE
 70
     0
  9
$CHAMFERA
 40
2.5
  9
$CHAMFERB
 40
2.5
  9
$CHAMFERC
 40
20.0
  9
$CHAMFERD
 40
0.0
  9
$SKPOLY
 70
     0
  9
$TDCREATE
 40
2452902.573994131
  9
$TDUPDATE
 40
2453180.398010335
  9
$TDINDWG
 40
0.0429938773
  9
$TDUSRTIMER
 40
0.0429936921
  9
$USRTIMER
 70
     1
  9
$ANGBASE
 50
0.0
  9
$ANGDIR
 70
     0
  9
$PDMODE
 70
     0
  9
$PDSIZE
 40
0.0
  9
$PLINEWID
 40
0.0
  9
$COORDS
 70
     1
  9
$SPLFRAME
 70
     0
  9
$SPLINETYPE
 70
     6
  9
$SPLINESEGS
 70
     8
  9
$ATTDIA
 70
     1
  9
$ATTREQ
 70
     1
  9
$HANDLING
 70
 12289
  9
$HANDSEED
  5
147D
  9
$SURFTAB1
 70
     6
  9
$SURFTAB2
 70
     6
  9
$SURFTYPE
 70
     6
  9
$SURFU
 70
     6
  9
$SURFV
 70
     6
  9
$UCSNAME
  2

  9
$UCSORG
 10
0.0
 20
0.0
 30
0.0
  9
$UCSXDIR
 10
1.0
 20
0.0
 30
0.0
  9
$UCSYDIR
 10
0.0
 20
1.0
 30
0.0
  9
$PUCSNAME
  2

  9
$PUCSORG
 10
0.0
 20
0.0
 30
0.0
  9
$PUCSXDIR
 10
1.0
 20
0.0
 30
0.0
  9
$PUCSYDIR
 10
0.0
 20
1.0
 30
0.0
  9
$USERI1
 70
     0
  9
$USERI2
 70
     0
  9
$USERI3
 70
     0
  9
$USERI4
 70
     0
  9
$USERI5
 70
     0
  9
$USERR1
 40
0.0
  9
$USERR2
 40
0.0
  9
$USERR3
 40
0.0
  9
$USERR4
 40
0.0
  9
$USERR5
 40
0.0
  9
$WORLDVIEW
 70
     1
  9
$SHADEDGE
 70
     3
  9
$SHADEDIF
 70
    70
  9
$TILEMODE
 70
     1
  9
$MAXACTVP
 70
    64
  9
$PINSBASE
 10
0.0
 20
0.0
 30
0.0
  9
$PLIMCHECK
 70
     0
  9
$PEXTMIN
 10
1.000000000000000E+20
 20
1.000000000000000E+20
 30
1.000000000000000E+20
  9
$PEXTMAX
 10
-1.000000000000000E+20
 20
-1.000000000000000E+20
 30
-1.000000000000000E+20
  9
$PLIMMIN
 10
0.00006103515625
 20
0.0
  9
$PLIMMAX
 10
840.9940185546874
 20
593.97900390625
  9
$UNITMODE
 70
     0
  9
$VISRETAIN
 70
     1
  9
$PLINEGEN
 70
     0
  9
$PSLTSCALE
 70
     0
  9
$TREEDEPTH
 70
  3020
  9
$PICKSTYLE
 70
     0
  9
$CMLSTYLE
  2
STANDARD
  9
$CMLJUST
 70
     0
  9
$CMLSCALE
 40
20.0
  9
$PROXYGRAPHICS
 70
     1
  9
$MEASUREMENT
 70
     1
  0
ENDSEC
  0
SECTION
  2
CLASSES
  0
CLASS
  1
ACDBDICTIONARYWDFLT
  2
AcDbDictionaryWithDefault
  3
AutoCAD 2000
 90
        0
280
     0
281
     0
  0
CLASS
  1
ACDBPLACEHOLDER
  2
AcDbPlaceHolder
  3
AutoCAD 2000
 90
        0
280
     0
281
     0
  0
CLASS
  1
LAYOUT
  2
AcDbLayout
  3
AutoCAD 2000
 90
        0
280
     0
281
     0
  0
CLASS
  1
AMGSETTINGSOBJ
  2
AmgSettingsObj
  3
"AcadM|Product Description: AutoCAD Mechanical 2000|Company: Autodesk"
 90
        0
280
     0
281
     0
  0
CLASS
  1
ACME_DOCUMENT
  2
AcMeDbDoc
  3
AcMeServices
 90
        0
280
     0
281
     0
  0
CLASS
  1
ACMESCOPE
  2
AcMeScope
  3
AcMeServices
 90
        0
280
     0
281
     0
  0
CLASS
  1
ACMECOMMANDHISTORY
  2
AcMeCommandHistory
  3
AcMeServices
 90
        0
280
     0
281
     0
  0
CLASS
  1
DICTIONARYVAR
  2
AcDbDictionaryVar
  3
AutoCAD 2000
 90
        0
280
     0
281
     0
  0
CLASS
  1
ACIMSYSVARMAN
  2
AcImSysVarManager
  3
AcMeServices
 90
        0
280
     0
281
     0
  0
CLASS
  1
ACIMREALSYSVAR
  2
AcImRealSysVar
  3
AcMeServices
 90
        0
280
     0
281
     0
  0
CLASS
  1
ACIMINTSYSVAR
  2
AcImIntSysVar
  3
AcMeServices
 90
        0
280
     0
281
     0
  0
CLASS
  1
ACMEDRAWINGMAN
  2
AcMeDrawingMan
  3
AcMeServices
 90
        0
280
     0
281
     0
  0
CLASS
  1
ACMEVIEW
  2
AcMeView
  3
AcMeServices
 90
        0
280
     0
281
     0
  0
CLASS
  1
ACDBENTITYCACHE
  2
AcMeEntityCache
  3
AcMeServices
 90
        0
280
     0
281
     0
  0
CLASS
  1
GSMANAGER
  2
AcMeGSManager
  3
AcMeServices
 90
        0
280
     0
281
     0
  0
CLASS
  1
AmdtInternalReactor
  2
AmdtInternalReactor
  3
AcMeServices
 90
        0
280
     0
281
     0
  0
CLASS
  1
ACMESTATEMGR
  2
AcMeStateMgr
  3
AcMeServices
 90
        0
280
     0
281
     0
  0
CLASS
  1
ACME_DATABASE
  2
AcMeDbDatabase
  3
AcMeServices
 90
        0
280
     0
281
     0
  0
CLASS
  1
ACRFINSADJUSTERMGR
  2
AcRfInsAdjusterMgr
  3
AcMeServices
 90
        0
280
     0
281
     0
  0
CLASS
  1
ACMDATADICTIONARY
  2
AcmDataDictionary
  3
"AcmSymBB|Product Description: AutoCAD Mechanical 2000|Company: Autodesk"
 90
        0
280
     0
281
     0
  0
CLASS
  1
ACMDATAENTRYBLOCK
  2
AcmDataEntryBlock
  3
"AcmSymBB|Product Description: AutoCAD Mechanical 2000|Company: Autodesk"
 90
        0
280
     0
281
     0
  0
CLASS
  1
AMGOBJPROPCFG
  2
AmgObjPropCfg
  3
"AmgLay|Product Description: AutoCAD Mechanical 2000|Company: Autodesk"
 90
        1
280
     0
281
     0
  0
CLASS
  1
ACAMGFILTERDAT
  2
AcAmgFilterDat
  3
"AcadM|Product Description: AutoCAD Mechanical 2000|Company: Autodesk"
 90
        0
280
     0
281
     0
  0
CLASS
  1
LAYER_INDEX
  2
AcDbLayerIndex
  3
AutoCAD 2000
 90
        0
280
     0
281
     0
  0
CLASS
  1
IDBUFFER
  2
AcDbIdBuffer
  3
AutoCAD 2000
 90
        0
280
     0
281
     0
  0
CLASS
  1
ACIMSTRSYSVAR
  2
AcImStrSysVar
  3
AcMeServices
 90
        0
280
     0
281
     0
  0
CLASS
  1
ACMSTANDARDJIS
  2
AcmStandardJIS
  3
"AcmSymBB|Product Description: AutoCAD Mechanical 2000|Company: Autodesk"
 90
        0
280
     0
281
     0
  0
CLASS
  1
ACMSURFSTANDARDJIS
  2
AcmSurfTextStdJIS
  3
"AcmSymBB|Product Description: AutoCAD Mechanical 2000|Company: Autodesk"
 90
        0
280
     0
281
     0
  0
CLASS
  1
ACMFCFSTANDARDJIS
  2
AcmFCFStdJIS
  3
"AcmSymBB|Product Description: AutoCAD Mechanical 2000|Company: Autodesk"
 90
        0
280
     0
281
     0
  0
CLASS
  1
ACMWELDSTANDARDJIS
  2
AcmWeldingStdJIS
  3
"AcmSymBB|Product Description: AutoCAD Mechanical 2000|Company: Autodesk"
 90
        0
280
     0
281
     0
  0
CLASS
  1
ACMIDSTANDARDJIS
  2
AcmIdStdJIS
  3
"AcmSymBB|Product Description: AutoCAD Mechanical 2000|Company: Autodesk"
 90
        0
280
     0
281
     0
  0
CLASS
  1
ACMDATUMSTANDARDJIS
  2
AcmDatumStdJIS
  3
"AcmSymBB|Product Description: AutoCAD Mechanical 2000|Company: Autodesk"
 90
        0
280
     0
281
     0
  0
CLASS
  1
ACMBOMSTANDARDJIS
  2
AcmBOMStdJIS
  3
"AcmSymBB|Product Description: AutoCAD Mechanical 2000|Company: Autodesk"
 90
        0
280
     0
281
     0
  0
CLASS
  1
ACMSTANDARDANSI
  2
AcmStandardANSI
  3
"AcmSymBB|Product Description: AutoCAD Mechanical 2000|Company: Autodesk"
 90
        0
280
     0
281
     0
  0
CLASS
  1
ACMSURFSTANDARDANSI
  2
AcmSurfTextStdANSI
  3
"AcmSymBB|Product Description: AutoCAD Mechanical 2000|Company: Autodesk"
 90
        0
280
     0
281
     0
  0
CLASS
  1
ACMFCFSTANDARDANSI
  2
AcmFCFStdANSI
  3
"AcmSymBB|Product Description: AutoCAD Mechanical 2000|Company: Autodesk"
 90
        0
280
     0
281
     0
  0
CLASS
  1
ACMWELDSTANDARDANSI
  2
AcmWeldingStdANSI
  3
"AcmSymBB|Product Description: AutoCAD Mechanical 2000|Company: Autodesk"
 90
        0
280
     0
281
     0
  0
CLASS
  1
ACMIDSTANDARDANSI
  2
AcmIdStdANSI
  3
"AcmSymBB|Product Description: AutoCAD Mechanical 2000|Company: Autodesk"
 90
        0
280
     0
281
     0
  0
CLASS
  1
ACMDATUMSTANDARDANSI
  2
AcmDatumStdANSI
  3
"AcmSymBB|Product Description: AutoCAD Mechanical 2000|Company: Autodesk"
 90
        0
280
     0
281
     0
  0
CLASS
  1
ACMBOMSTANDARDANSI
  2
AcmBOMStdANSI
  3
"AcmSymBB|Product Description: AutoCAD Mechanical 2000|Company: Autodesk"
 90
        0
280
     0
281
     0
  0
CLASS
  1
ACMSTANDARDBSI
  2
AcmStandardBSI
  3
"AcmSymBB|Product Description: AutoCAD Mechanical 2000|Company: Autodesk"
 90
        0
280
     0
281
     0
  0
CLASS
  1
ACMSURFSTANDARDBSI
  2
AcmSurfTextStdBSI
  3
"AcmSymBB|Product Description: AutoCAD Mechanical 2000|Company: Autodesk"
 90
        0
280
     0
281
     0
  0
CLASS
  1
ACMFCFSTANDARDBSI
  2
AcmFCFStdBSI
  3
"AcmSymBB|Product Description: AutoCAD Mechanical 2000|Company: Autodesk"
 90
        0
280
     0
281
     0
  0
CLASS
  1
ACMWELDSTANDARDBSI
  2
AcmWeldingStdBSI
  3
"AcmSymBB|Product Description: AutoCAD Mechanical 2000|Company: Autodesk"
 90
        0
280
     0
281
     0
  0
CLASS
  1
ACMIDSTANDARDBSI
  2
AcmIdStdBSI
  3
"AcmSymBB|Product Description: AutoCAD Mechanical 2000|Company: Autodesk"
 90
        0
280
     0
281
     0
  0
CLASS
  1
ACMDATUMSTANDARDBSI
  2
AcmDatumStdBSI
  3
"AcmSymBB|Product Description: AutoCAD Mechanical 2000|Company: Autodesk"
 90
        0
280
     0
281
     0
  0
CLASS
  1
ACMBOMSTANDARDBSI
  2
AcmBOMStdBSI
  3
"AcmSymBB|Product Description: AutoCAD Mechanical 2000|Company: Autodesk"
 90
        0
280
     0
281
     0
  0
CLASS
  1
LONG_TRANSACTION
  2
AcDbLongTransaction
  3
AutoCAD 2000
 90
        0
280
     0
281
     0
  0
CLASS
  1
LWPOLYLINE
  2
AcDbPolyline
  3
AutoCAD 2000
 90
        0
280
     0
281
     1
  0
CLASS
  1
HATCH
  2
AcDbHatch
  3
AutoCAD 2000
 90
        0
280
     0
281
     1
  0
CLASS
  1
XRECORD
  2
AcDbXrecord
  3
AutoCAD 2000
 90
        0
280
     0
281
     0
  0
ENDSEC
  0
SECTION
  2
TABLES
  0
TABLE
  2
VPORT
  5
8
330
0
100
AcDbSymbolTable
 70
     4
  0
VPORT
  5
1452
330
8
100
AcDbSymbolTableRecord
100
AcDbViewportTableRecord
  2
*ACTIVE
 70
     0
 10
0.0
 20
0.0
 11
1.0
 21
1.0
 12
-52.14325360283607
 22
9.724264559617587
 13
0.0
 23
0.0
 14
2.5
 24
2.5
 15
10.0
 25
10.0
 16
0.0
 26
0.0
 36
1.0
 17
0.0
 27
0.0
 37
0.0
 40
149.4861402636677
 41
1.56570841889117
 42
50.0
 43
0.0
 44
0.0
 50
0.0
 51
0.0
 71
     0
 72
   100
 73
     1
 74
     3
 75
     0
 76
     0
 77
     0
 78
     0
  0
ENDTAB
  0
TABLE
  2
LTYPE
  5
5
330
0
100
AcDbSymbolTable
 70
    10
  0
LTYPE
  5
14
330
5
100
AcDbSymbolTableRecord
100
AcDbLinetypeTableRecord
  2
BYBLOCK
 70
     0
  3

 72
    65
 73
     0
 40
0.0
  0
LTYPE
  5
15
330
5
100
AcDbSymbolTableRecord
100
AcDbLinetypeTableRecord
  2
BYLAYER
 70
     0
  3

 72
    65
 73
     0
 40
0.0
  0
LTYPE
  5
16
330
5
100
AcDbSymbolTableRecord
100
AcDbLinetypeTableRecord
  2
CONTINUOUS
 70
     0
  3
Solid line
 72
    65
 73
     0
 40
0.0
  0
LTYPE
  5
4B
330
5
100
AcDbSymbolTableRecord
100
AcDbLinetypeTableRecord
  2
AM_ISO02W050
 70
     0
  3
__ __ __ __ __ __ __ __ __ __ __ __ __ __ __
 72
    65
 73
     2
 40
7.5
 49
6.0
 74
     0
 49
-1.5
 74
     0
  0
LTYPE
  5
4C
330
5
100
AcDbSymbolTableRecord
100
AcDbLinetypeTableRecord
  2
AM_ISO08W050
 70
     0
  3
____ . ____ . ____ . ____ . ____ . ____ . ____
 72
    65
 73
     4
 40
18.0
 49
12.0
 74
     0
 49
-1.5
 74
     0
 49
3.0
 74
     0
 49
-1.5
 74
     0
  0
LTYPE
  5
4D
330
5
100
AcDbSymbolTableRecord
100
AcDbLinetypeTableRecord
  2
AM_ISO09W050
 70
     0
  3
_____ . . _____ . . _____ . . ____ .. ____
 72
    65
 73
     6
 40
22.5
 49
12.0
 74
     0
 49
-1.5
 74
     0
 49
3.0
 74
     0
 49
-1.5
 74
     0
 49
3.0
 74
     0
 49
-1.5
 74
     0
  0
LTYPE
  5
4E
330
5
100
AcDbSymbolTableRecord
100
AcDbLinetypeTableRecord
  2
AMCONSTR
 70
     0
  3
_______________________
 72
    65
 73
     2
 40
9999.0
 49
9999.0
 74
     0
 49
0.0
 74
     0
  0
LTYPE
  5
4F
330
5
100
AcDbSymbolTableRecord
100
AcDbLinetypeTableRecord
  2
AM_ISO02W050X2
 70
     0
  3
 _ _ _ _ _ _ _ _ _ _ _ _
 72
    65
 73
     2
 40
3.75
 49
3.0
 74
     0
 49
-0.75
 74
     0
  0
LTYPE
  5
50
330
5
100
AcDbSymbolTableRecord
100
AcDbLinetypeTableRecord
  2
AM_ISO08W050X2
 70
     0
  3
__ . __ . __ . __ . __ . __
 72
    65
 73
     4
 40
9.0
 49
6.0
 74
     0
 49
-0.75
 74
     0
 49
1.5
 74
     0
 49
-0.75
 74
     0
  0
LTYPE
  5
53
330
5
100
AcDbSymbolTableRecord
100
AcDbLinetypeTableRecord
  2
AMZIGZAG
 70
     0
  3
/\/-/\/-/\/-/\/-/\/-/\/
 72
    65
 73
     2
 40
11.00009999999999
 49
0.0001
 74
     4
 75
   135
340
52
 46
0.04
 50
0.0
 44
0.0
 45
0.0
 49
-11.0
 74
     0
  0
LTYPE
  5
166
330
5
100
AcDbSymbolTableRecord
100
AcDbLinetypeTableRecord
  2
ACJISTGL
 70
     0
  3
_ _ _ _ _
 72
    65
 73
     2
 40
3.0
 49
2.0
 74
     0
 49
-1.0
 74
     0
  0
LTYPE
  5
26A
330
5
100
AcDbSymbolTableRecord
100
AcDbLinetypeTableRecord
  2
ACJISTGB
 70
     0
  3
__ . . __ . .
 72
    65
 73
     6
 40
9.0
 49
4.0
 74
     0
 49
-1.0
 74
     0
 49
1.0
 74
     0
 49
-1.0
 74
     0
 49
1.0
 74
     0
 49
-1.0
 74
     0
  0
ENDTAB
  0
TABLE
  2
LAYER
  5
2
330
0
100
AcDbSymbolTable
 70
     8
  0
LAYER
  5
10
330
2
100
AcDbSymbolTableRecord
100
AcDbLayerTableRecord
  2
0
 70
     0
 62
     7
  6
CONTINUOUS
  0
LAYER
  5
3F9
330
2
100
AcDbSymbolTableRecord
100
AcDbLayerTableRecord
  2
AM_0
 70
     0
 62
     7
  6
CONTINUOUS
  0
LAYER
  5
C16
330
2
100
AcDbSymbolTableRecord
100
AcDbLayerTableRecord
  2
AM_11
 70
     0
 62
     3
  6
AM_ISO09W050
  0
LAYER
  5
C70
330
2
100
AcDbSymbolTableRecord
100
AcDbLayerTableRecord
  2
AM_5
 70
     0
 62
     3
  6
CONTINUOUS
  0
LAYER
  5
D94
330
2
100
AcDbSymbolTableRecord
100
AcDbLayerTableRecord
  2
AM_7
 70
     0
 62
     4
  6
AM_ISO08W050
  0
LAYER
  5
F4B
330
2
100
AcDbSymbolTableRecord
100
AcDbLayerTableRecord
  2
DEFPOINTS
 70
     0
 62
     7
  6
CONTINUOUS
  0
LAYER
  5
11A3
330
2
100
AcDbSymbolTableRecord
100
AcDbLayerTableRecord
  2
AM_6
 70
     0
 62
     2
  6
CONTINUOUS
  0
LAYER
  5
12AD
330
2
100
AcDbSymbolTableRecord
100
AcDbLayerTableRecord
  2
AM_CL
 70
     0
 62
     1
  6
AMCONSTR
  0
ENDTAB
  0
TABLE
  2
STYLE
  5
3
330
0
100
AcDbSymbolTable
 70
     5
  0
STYLE
  5
11
330
3
100
AcDbSymbolTableRecord
100
AcDbTextStyleTableRecord
  2
STANDARD
 70
     0
 40
0.0
 41
1.0
 50
0.0
 71
     0
 42
2.5
  3
simplex.shx
  4
EXTFONT.SHX
  0
STYLE
  5
52
330
3
100
AcDbSymbolTableRecord
100
AcDbTextStyleTableRecord
  2

 70
     1
 40
0.0
 41
1.0
 50
0.0
 71
     0
 42
2.5
  3
ltypeshp.shx
  4

  0
STYLE
  5
6B
330
3
100
AcDbSymbolTableRecord
100
AcDbTextStyleTableRecord
  2
ASAMI
 70
     0
 40
0.0
 41
1.0
 50
0.0
 71
     0
 42
2.5
  3
simplex.shx
  4
EXTFONT.SHX
  0
STYLE
  5
262
330
3
100
AcDbSymbolTableRecord
100
AcDbTextStyleTableRecord
  2
ACJISTS
 70
     0
 40
1.0
 41
1.0
 50
0.0
 71
     0
 42
2.5
  3
simplex.shx
  4
bigfont.shx
  0
STYLE
  5
269
330
3
100
AcDbSymbolTableRecord
100
AcDbTextStyleTableRecord
  2
ACJISGDT
 70
     0
 40
0.0
 41
1.0
 50
0.0
 71
     0
 42
2.5
  3
amgdtans.shx
  4

  0
ENDTAB
  0
TABLE
  2
VIEW
  5
6
330
0
100
AcDbSymbolTable
 70
     0
  0
ENDTAB
  0
TABLE
  2
UCS
  5
7
330
0
100
AcDbSymbolTable
 70
     0
  0
ENDTAB
  0
TABLE
  2
APPID
  5
9
330
0
100
AcDbSymbolTable
 70
    16
  0
APPID
  5
12
330
9
100
AcDbSymbolTableRecord
100
AcDbRegAppTableRecord
  2
ACAD
 70
     0
  0
APPID
  5
30
330
9
100
AcDbSymbolTableRecord
100
AcDbRegAppTableRecord
  2
MCAD_NO_VIS
 70
     0
  0
APPID
  5
31
330
9
100
AcDbSymbolTableRecord
100
AcDbRegAppTableRecord
  2
ACAD_TEMP_GRAPHIC
 70
     0
  0
APPID
  5
2C2
330
9
100
AcDbSymbolTableRecord
100
AcDbRegAppTableRecord
  2
GENIUS_GENDTOL_13
 70
     0
  0
APPID
  5
339
330
9
100
AcDbSymbolTableRecord
100
AcDbRegAppTableRecord
  2
GENIUS_GENODEF_13
 70
     0
  0
APPID
  5
33A
330
9
100
AcDbSymbolTableRecord
100
AcDbRegAppTableRecord
  2
GENIUS_GENOBJ-N-RSBK_13
 70
     0
  0
APPID
  5
33B
330
9
100
AcDbSymbolTableRecord
100
AcDbRegAppTableRecord
  2
GENIUS_GENOBJ-N-LIB_13
 70
     0
  0
APPID
  5
33C
330
9
100
AcDbSymbolTableRecord
100
AcDbRegAppTableRecord
  2
GENIUS_GENSCALE_13
 70
     0
  0
APPID
  5
378
330
9
100
AcDbSymbolTableRecord
100
AcDbRegAppTableRecord
  2
GENIUS_GENDIMSH_14
 70
     0
  0
APPID
  5
C01
330
9
100
AcDbSymbolTableRecord
100
AcDbRegAppTableRecord
  2
GENIUS_GENOBJ-N-FIL_13
 70
     0
  0
APPID
  5
D96
330
9
100
AcDbSymbolTableRecord
100
AcDbRegAppTableRecord
  2
GENIUS_GENOBJ-N-CEN_13
 70
     0
  0
APPID
  5
1449
330
9
100
AcDbSymbolTableRecord
100
AcDbRegAppTableRecord
  2
GENIUS_GENSCREG_15
 70
     0
  0
APPID
  5
144B
330
9
100
AcDbSymbolTableRecord
100
AcDbRegAppTableRecord
  2
GENIUS_GENOBJ-N-SDF_13
 70
     0
  0
APPID
  5
144C
330
9
100
AcDbSymbolTableRecord
100
AcDbRegAppTableRecord
  2
GENIUS_GENOENT_13
 70
     0
  0
APPID
  5
144D
330
9
100
AcDbSymbolTableRecord
100
AcDbRegAppTableRecord
  2
GENIUS_GENOREF_13
 70
     0
  0
APPID
  5
144E
330
9
100
AcDbSymbolTableRecord
100
AcDbRegAppTableRecord
  2
GENIUS_GENOLIS_13
 70
     0
  0
ENDTAB
  0
TABLE
  2
DIMSTYLE
  5
A
330
0
100
AcDbSymbolTable
 70
     8
  0
DIMSTYLE
105
58
102
{ACAD_REACTORS
330
F52
330
100C
330
100D
330
1093
330
111B
102
}
330
A
100
AcDbSymbolTableRecord
100
AcDbDimStyleTableRecord
  2
AM_JIS
 70
     0
  3

  4
"
  5
OPEN30
  6

  7

 40
1.0
 41
2.5
 42
1.0
 43
12.0
 44
1.0
 45
0.0
 46
0.0
 47
0.1
 48
0.1
140
3.2
141
0.0
142
0.0
143
0.0393701
144
1.0
145
0.0
146
0.71
147
1.5
 71
     0
 72
     0
 73
     0
 74
     0
 75
     0
 76
     0
 77
     3
 78
     8
170
     0
171
     2
172
     1
173
     0
174
     0
175
     0
176
   256
177
   256
178
     2
270
     2
271
     3
272
     3
273
     2
274
     2
340
6B
275
     0
280
     0
281
     0
282
     0
283
     0
284
     0
285
     0
286
     0
287
     3
288
     0
  0
DIMSTYLE
105
5F
330
A
100
AcDbSymbolTableRecord
100
AcDbDimStyleTableRecord
  2
AM_JIS$3
 70
     0
  3

  4
"
  5
OPEN30
  6

  7

 40
1.0
 41
2.5
 42
1.0
 43
10.0
 44
1.0
 45
0.0
 46
0.0
 47
0.1
 48
0.1
140
3.2
141
0.0
142
0.0
143
0.0393701
144
1.0
145
0.0
146
0.71
147
1.5
 71
     0
 72
     0
 73
     0
 74
     1
 75
     0
 76
     0
 77
     3
 78
     8
170
     0
171
     2
172
     0
173
     0
174
     0
175
     0
176
   256
177
   256
178
     2
270
     2
271
     2
272
     3
273
     2
274
     2
340
6B
275
     0
280
     0
281
     0
282
     0
283
     0
284
     0
285
     0
286
     0
287
     0
288
     1
  0
DIMSTYLE
105
60
330
A
100
AcDbSymbolTableRecord
100
AcDbDimStyleTableRecord
  2
AM_JIS$4
 70
     0
  3

  4
"
  5
OPEN30
  6

  7

 40
1.0
 41
2.5
 42
1.0
 43
10.0
 44
1.0
 45
0.0
 46
0.0
 47
0.1
 48
0.1
140
3.2
141
0.0
142
0.0
143
0.0393701
144
1.0
145
0.0
146
0.71
147
1.5
 71
     0
 72
     0
 73
     0
 74
     1
 75
     0
 76
     0
 77
     3
 78
     8
170
     0
171
     2
172
     0
173
     0
174
     0
175
     0
176
   256
177
   256
178
     2
270
     2
271
     2
272
     3
273
     2
274
     2
340
6B
275
     0
280
     0
281
     0
282
     0
283
     0
284
     0
285
     0
286
     0
287
     0
288
     1
  0
DIMSTYLE
105
61
330
A
100
AcDbSymbolTableRecord
100
AcDbDimStyleTableRecord
  2
AM_JIS$6
 70
     0
  3

  4
"
  5
OPEN30
  6

  7

 40
1.0
 41
2.5
 42
1.0
 43
10.0
 44
1.0
 45
0.0
 46
0.0
 47
0.1
 48
0.1
140
3.2
141
0.0
142
0.0
143
0.0393701
144
1.0
145
0.0
146
0.71
147
1.5
 71
     0
 72
     0
 73
     0
 74
     0
 75
     0
 76
     0
 77
     0
 78
     8
170
     0
171
     2
172
     1
173
     0
174
     0
175
     0
176
   256
177
   256
178
     2
270
     2
271
     2
272
     2
273
     2
274
     2
340
6B
275
     0
280
     0
281
     0
282
     0
283
     0
284
     0
285
     0
286
     0
287
     3
288
     0
  0
DIMSTYLE
105
62
330
A
100
AcDbSymbolTableRecord
100
AcDbDimStyleTableRecord
  2
AM_JIS$7
 70
     0
  3

  4
"
  5
OPEN30
  6

  7

 40
1.0
 41
2.5
 42
1.0
 43
10.0
 44
1.0
 45
0.0
 46
0.0
 47
0.1
 48
0.1
140
3.2
141
0.0
142
0.0
143
0.0393701
144
1.0
145
0.0
146
0.71
147
1.5
 71
     0
 72
     0
 73
     0
 74
     0
 75
     0
 76
     0
 77
     3
 78
     8
170
     0
171
     2
172
     1
173
     0
174
     0
175
     0
176
   256
177
   256
178
     2
270
     2
271
     2
272
     3
273
     2
274
     2
340
6B
275
     0
280
     0
281
     0
282
     0
283
     0
284
     0
285
     0
286
     0
287
     3
288
     0
  0
DIMSTYLE
105
63
330
A
100
AcDbSymbolTableRecord
100
AcDbDimStyleTableRecord
  2
AM_JIS$SF
 70
     0
  3

  4
"
  5
OPEN30
  6

  7

 40
1.0
 41
2.5
 42
1.0
 43
10.0
 44
1.0
 45
0.0
 46
0.0
 47
0.1
 48
0.1
140
3.2
141
0.0
142
0.0
143
0.0393701
144
1.0
145
0.0
146
0.71
147
1.5
 71
     0
 72
     0
 73
     0
 74
     0
 75
     1
 76
     1
 77
     3
 78
     8
170
     0
171
     2
172
     1
173
     0
174
     0
175
     0
176
   256
177
   256
178
     2
270
     2
271
     2
272
     2
273
     2
274
     2
340
6B
275
     0
280
     0
281
     0
282
     0
283
     0
284
     0
285
     0
286
     0
287
     3
288
     0
  0
DIMSTYLE
105
68
330
A
100
AcDbSymbolTableRecord
100
AcDbDimStyleTableRecord
  2
AM_JIS$SH
 70
     0
  3

  4
"
  5

  6
GENAXEH
  7
OPEN30
 40
1.0
 41
2.5
 42
1.0
 43
10.0
 44
1.0
 45
0.0
 46
0.0
 47
0.1
 48
0.1
140
3.2
141
0.0
142
0.0
143
0.0393701
144
2.0
145
0.0
146
0.71
147
1.5
 71
     0
 72
     0
 73
     0
 74
     0
 75
     1
 76
     1
 77
     3
 78
     8
170
     0
171
     2
172
     1
173
     1
174
     0
175
     0
176
   256
177
   256
178
     2
270
     2
271
     2
272
     2
273
     2
274
     2
340
6B
275
     0
280
     0
281
     0
282
     0
283
     0
284
     0
285
     0
286
     0
287
     3
288
     0
  0
DIMSTYLE
105
B34
102
{ACAD_REACTORS
330
F53
330
FB8
330
100B
102
}
330
A
100
AcDbSymbolTableRecord
100
AcDbDimStyleTableRecord
  2
AM_JIS$2
 70
     0
  3

  4
"
  5
OPEN30
  6

  7

 40
1.0
 41
2.5
 42
1.0
 43
12.0
 44
1.0
 45
0.0
 46
0.0
 47
0.1
 48
0.1
140
3.2
141
0.0
142
0.0
143
0.0393701
144
1.0
145
0.0
146
0.71
147
1.5
 71
     0
 72
     0
 73
     0
 74
     0
 75
     0
 76
     0
 77
     3
 78
     8
170
     0
171
     2
172
     1
173
     0
174
     0
175
     0
176
   256
177
   256
178
     2
270
     2
271
     3
272
     3
273
     2
274
     2
340
6B
275
     0
280
     0
281
     0
282
     0
283
     0
284
     0
285
     0
286
     0
287
     3
288
     0
  0
ENDTAB
  0
TABLE
  2
BLOCK_RECORD
  5
1
330
0
100
AcDbSymbolTable
 70
    13
  0
BLOCK_RECORD
  5
1F
102
{ACAD_XDICTIONARY
360
74
102
}
330
1
100
AcDbSymbolTableRecord
100
AcDbBlockTableRecord
  2
*MODEL_SPACE
  0
BLOCK_RECORD
  5
101
102
{ACAD_XDICTIONARY
360
147B
102
}
330
1
100
AcDbSymbolTableRecord
100
AcDbBlockTableRecord
  2
*PAPER_SPACE
  0
BLOCK_RECORD
  5
59
330
1
100
AcDbSymbolTableRecord
100
AcDbBlockTableRecord
  2
_OPEN30
  0
BLOCK_RECORD
  5
64
330
1
100
AcDbSymbolTableRecord
100
AcDbBlockTableRecord
  2
GENAXEH
  0
BLOCK_RECORD
  5
F54
330
1
100
AcDbSymbolTableRecord
100
AcDbBlockTableRecord
  2
*D5
  0
BLOCK_RECORD
  5
F60
330
1
100
AcDbSymbolTableRecord
100
AcDbBlockTableRecord
  2
*D6
  0
BLOCK_RECORD
  5
FB9
330
1
100
AcDbSymbolTableRecord
100
AcDbBlockTableRecord
  2
*D7
  0
BLOCK_RECORD
  5
100E
330
1
100
AcDbSymbolTableRecord
100
AcDbBlockTableRecord
  2
*D8
  0
BLOCK_RECORD
  5
1020
330
1
100
AcDbSymbolTableRecord
100
AcDbBlockTableRecord
  2
*D9
  0
BLOCK_RECORD
  5
102C
330
1
100
AcDbSymbolTableRecord
100
AcDbBlockTableRecord
  2
*D10
  0
BLOCK_RECORD
  5
1094
330
1
100
AcDbSymbolTableRecord
100
AcDbBlockTableRecord
  2
*D11
  0
BLOCK_RECORD
  5
111C
330
1
100
AcDbSymbolTableRecord
100
AcDbBlockTableRecord
  2
*D12
  0
ENDTAB
  0
ENDSEC
  0
SECTION
  2
BLOCKS
  0
BLOCK
  5
20
330
1F
100
AcDbEntity
  8
0
100
AcDbBlockBegin
  2
*MODEL_SPACE
 70
     0
 10
0.0
 20
0.0
 30
0.0
  3
*MODEL_SPACE
  1

  0
ENDBLK
  5
21
330
1F
100
AcDbEntity
  8
0
100
AcDbBlockEnd
  0
BLOCK
  5
103
330
101
100
AcDbEntity
 67
     1
  8
0
100
AcDbBlockBegin
  2
*PAPER_SPACE
 70
     0
 10
0.0
 20
0.0
 30
0.0
  3
*PAPER_SPACE
  1

  0
ENDBLK
  5
104
330
101
100
AcDbEntity
 67
     1
  8
0
100
AcDbBlockEnd
  0
BLOCK
  5
5D
330
59
100
AcDbEntity
  8
0
100
AcDbBlockBegin
  2
_OPEN30
 70
     0
 10
0.0
 20
0.0
 30
0.0
  3
_OPEN30
  1

  0
LINE
  5
5A
330
59
100
AcDbEntity
  8
0
 62
     0
100
AcDbLine
 10
-1.0
 20
0.26794919
 30
0.0
 11
0.0
 21
0.0
 31
0.0
  0
LINE
  5
5B
330
59
100
AcDbEntity
  8
0
 62
     0
100
AcDbLine
 10
0.0
 20
0.0
 30
0.0
 11
-1.0
 21
-0.26794919
 31
0.0
  0
LINE
  5
5C
330
59
100
AcDbEntity
  8
0
 62
     0
100
AcDbLine
 10
0.0
 20
0.0
 30
0.0
 11
-1.0
 21
0.0
 31
0.0
  0
ENDBLK
  5
5E
330
59
100
AcDbEntity
  8
0
100
AcDbBlockEnd
  0
BLOCK
  5
66
330
64
100
AcDbEntity
  8
0
100
AcDbBlockBegin
  2
GENAXEH
 70
     0
 10
0.0
 20
0.0
 30
0.0
  3
GENAXEH
  1

  0
LINE
  5
65
330
64
100
AcDbEntity
  8
0
100
AcDbLine
 10
-1.0
 20
0.0
 30
0.0
 11
1.0
 21
0.0
 31
0.0
  0
ENDBLK
  5
67
330
64
100
AcDbEntity
  8
0
100
AcDbBlockEnd
  0
BLOCK
  5
F5E
330
F54
100
AcDbEntity
  8
0
100
AcDbBlockBegin
  2
*D5
 70
     1
 10
0.0
 20
0.0
 30
0.0
  3
*D5
  1

  0
LINE
  5
1376
330
F54
100
AcDbEntity
  8
AM_5
100
AcDbLine
 10
1.0
 20
-0.0000000000000003
 30
0.0
 11
15.0
 21
-0.0000000000000042
 31
0.0
  0
LINE
  5
1377
330
F54
100
AcDbEntity
  8
AM_5
100
AcDbLine
 10
-24.07584342240847
 20
-31.99999999999999
 30
0.0
 11
14.99999999999999
 21
-32.0
 31
0.0
  0
LINE
  5
1378
330
F54
100
AcDbEntity
  8
AM_5
100
AcDbLine
 10
13.99999999999999
 20
-2.500000000000003
 30
0.0
 11
13.99999999999999
 21
-29.5
 31
0.0
  0
INSERT
  5
1379
330
F54
100
AcDbEntity
  8
AM_5
100
AcDbBlockReference
  2
_OPEN30
 10
13.99999999999999
 20
-0.000000000000004
 30
0.0
 41
2.5
 42
2.5
 43
2.5
 50
90.0
  0
INSERT
  5
137A
330
F54
100
AcDbEntity
  8
AM_5
100
AcDbBlockReference
  2
_OPEN30
 10
13.99999999999999
 20
-32.0
 30
0.0
 41
2.5
 42
2.5
 43
2.5
 50
270.0
  0
MTEXT
  5
137B
330
F54
100
AcDbEntity
  8
AM_5
 62
     2
100
AcDbMText
 10
10.89999999999999
 20
-16.0
 30
0.0
 40
3.2
 41
0.0
 71
     5
 72
     1
  1
32
  7
ASAMI
 11
0.0000000000000001
 21
1.0
 31
0.0
1001
ACAD
1000
MTEXTBEGIN
1070
    73
1070
     1
1070
    44
1040
1.0
1070
    74
1070
     0
1000
MTEXTEND
  0
POINT
  5
137C
330
F54
100
AcDbEntity
  8
DEFPOINTS
 62
     0
100
AcDbPoint
 10
0.0
 20
0.0
 30
0.0
  0
POINT
  5
137D
330
F54
100
AcDbEntity
  8
DEFPOINTS
 62
     0
100
AcDbPoint
 10
-25.07584342240847
 20
-31.99999999999999
 30
0.0
  0
POINT
  5
137E
330
F54
100
AcDbEntity
  8
DEFPOINTS
 62
     0
100
AcDbPoint
 10
13.99999999999999
 20
-32.0
 30
0.0
  0
ENDBLK
  5
F5F
330
F54
100
AcDbEntity
  8
0
100
AcDbBlockEnd
  0
BLOCK
  5
F6D
330
F60
100
AcDbEntity
  8
0
100
AcDbBlockBegin
  2
*D6
 70
     1
 10
0.0
 20
0.0
 30
0.0
  3
*D6
  1

  0
LINE
  5
137F
330
F60
100
AcDbEntity
  8
AM_5
100
AcDbLine
 10
0.0
 20
1.0
 30
0.0
 11
0.0
 21
13.81842043230387
 31
0.0
  0
ARC
  5
1380
330
F60
100
AcDbEntity
  8
AM_5
100
AcDbCircle
 10
-0.0000000000000002
 20
0.0
 30
0.0
 40
12.81842043230387
100
AcDbArc
 50
101.1922873519964
 51
168.8077126480035
  0
INSERT
  5
1381
330
F60
100
AcDbEntity
  8
AM_5
100
AcDbBlockReference
  2
_OPEN30
 10
0.0
 20
12.81842043230387
 30
0.0
 41
2.5
 42
2.5
 43
2.5
 50
5.596143675998207
  0
INSERT
  5
1382
330
F60
100
AcDbEntity
  8
AM_5
100
AcDbBlockReference
  2
_OPEN30
 10
-12.81842043230387
 20
0.0000000000000178
 30
0.0
 41
2.5
 42
2.5
 43
2.5
 50
264.4038563240016
  0
MTEXT
  5
1383
330
F60
100
AcDbEntity
  8
AM_5
 62
     2
100
AcDbMText
 10
-11.25602303346055
 20
11.25602303346057
 30
0.0
 40
3.2
 41
0.0
 71
     5
 72
     1
  1
90°
  7
ASAMI
 11
0.7071067811865476
 21
0.7071067811865475
 31
0.0
1001
ACAD
1000
MTEXTBEGIN
1070
    73
1070
     1
1070
    44
1040
1.0
1070
    74
1070
     0
1000
MTEXTEND
  0
POINT
  5
1384
330
F60
100
AcDbEntity
  8
DEFPOINTS
 62
     0
100
AcDbPoint
 10
-6.409210216151931
 20
11.10107773076466
 30
0.0
  0
POINT
  5
1385
330
F60
100
AcDbEntity
  8
DEFPOINTS
 62
     0
100
AcDbPoint
 10
-0.8000000000000113
 20
0.0000000000000002
 30
0.0
  0
POINT
  5
1386
330
F60
100
AcDbEntity
  8
DEFPOINTS
 62
     0
100
AcDbPoint
 10
-0.0000000000000002
 20
-0.8000000000000113
 30
0.0
  0
POINT
  5
1387
330
F60
100
AcDbEntity
  8
DEFPOINTS
 62
     0
100
AcDbPoint
 10
0.0
 20
0.0
 30
0.0
  0
POINT
  5
1388
330
F60
100
AcDbEntity
  8
DEFPOINTS
 62
     0
100
AcDbPoint
 10
-14.52650264998337
 20
0.0000000000000027
 30
0.0
  0
ENDBLK
  5
F6E
330
F60
100
AcDbEntity
  8
0
100
AcDbBlockEnd
  0
BLOCK
  5
FC9
330
FB9
100
AcDbEntity
  8
0
100
AcDbBlockBegin
  2
*D7
 70
     1
 10
0.0
 20
0.0
 30
0.0
  3
*D7
  1

  0
LINE
  5
13E3
330
FB9
100
AcDbEntity
  8
AM_5
100
AcDbLine
 10
32.18681511270117
 20
0.9961946980917273
 30
0.0
 11
33.3618997564368
 21
14.42747363616161
 31
0.0
  0
LINE
  5
13E4
330
FB9
100
AcDbEntity
  8
AM_5
100
AcDbLine
 10
32.09965936995351
 20
0.9999999999999818
 30
0.0
 11
32.09965936995355
 21
14.48258424161268
 31
0.0
  0
ARC
  5
13E5
330
FB9
100
AcDbEntity
  8
AM_5
100
AcDbCircle
 10
32.09965936995351
 20
-0.0000000000000184
 30
0.0
 40
13.4825842416127
100
AcDbArc
 50
63.62824712530879
 51
85.0
  0
LINE
  5
13E6
330
FB9
100
AcDbEntity
  8
AM_5
100
AcDbLine
 10
38.08853611823946
 20
12.07946327971663
 30
0.0
 11
50.4967518801974
 21
5.927594347817521
 31
0.0
  0
ARC
  5
13E7
330
FB9
100
AcDbEntity
  8
AM_5
100
AcDbCircle
 10
32.09965936995351
 20
-0.0000000000000184
 30
0.0
 40
13.4825842416127
100
AcDbArc
 50
63.72137155633826
 51
74.36068577816913
  0
ARC
  5
13E8
330
FB9
100
AcDbEntity
  8
AM_5
100
AcDbCircle
 10
32.09965936995351
 20
-0.0000000000000184
 30
0.0
 40
13.4825842416127
100
AcDbArc
 50
100.6393142218307
 51
111.2786284436616
  0
ARC
  5
13E9
330
FB9
100
AcDbEntity
  8
AM_5
100
AcDbCircle
 10
32.09965936995351
 20
-0.0000000000000184
 30
0.0
 40
13.4825842416127
100
AcDbArc
 50
85.0
 51
89.99999999999985
  0
INSERT
  5
13EA
330
FB9
100
AcDbEntity
  8
AM_5
100
AcDbBlockReference
  2
_OPEN30
 10
33.27474401368913
 20
13.43127893806987
 30
0.0
 41
2.5
 42
2.5
 43
2.5
 50
169.6803428890845
  0
INSERT
  5
13EB
330
FB9
100
AcDbEntity
  8
AM_5
100
AcDbBlockReference
  2
_OPEN30
 10
32.09965936995355
 20
13.48258424161268
 30
0.0
 41
2.5
 42
2.5
 43
2.5
 50
5.319657110915297
  0
MTEXT
  5
13EC
330
FB9
100
AcDbEntity
  8
AM_5
 62
     2
100
AcDbMText
 10
45.66964395612473
 20
11.78091447634259
 30
0.0
 40
3.2
 41
0.0
 71
     5
 72
     1
  1
-5°
  7
ASAMI
 11
0.8959308588953268
 21
-0.4441935344859063
 31
0.0
1001
ACAD
1000
MTEXTBEGIN
1070
    73
1070
     1
1070
    44
1040
1.0
1070
    74
1070
     0
1000
MTEXTEND
  0
POINT
  5
13ED
330
FB9
100
AcDbEntity
  8
DEFPOINTS
 62
     0
100
AcDbPoint
 10
32.49179654055115
 20
13.47688043545754
 30
0.0
  0
POINT
  5
13EE
330
FB9
100
AcDbEntity
  8
DEFPOINTS
 62
     0
100
AcDbPoint
 10
32.09965936995351
 20
-0.0000000000000184
 30
0.0
  0
POINT
  5
13EF
330
FB9
100
AcDbEntity
  8
DEFPOINTS
 62
     0
100
AcDbPoint
 10
32.09965936995351
 20
-0.0000000000000184
 30
0.0
  0
POINT
  5
13F0
330
FB9
100
AcDbEntity
  8
DEFPOINTS
 62
     0
100
AcDbPoint
 10
32.09965936995351
 20
-1.038100066472811
 30
0.0
  0
POINT
  5
13F1
330
FB9
100
AcDbEntity
  8
DEFPOINTS
 62
     0
100
AcDbPoint
 10
30.76386664777026
 20
-15.26818068020255
 30
0.0
  0
ENDBLK
  5
FCA
330
FB9
100
AcDbEntity
  8
0
100
AcDbBlockEnd
  0
BLOCK
  5
101E
330
100E
100
AcDbEntity
  8
0
100
AcDbBlockBegin
  2
*D8
 70
     1
 10
0.0
 20
0.0
 30
0.0
  3
*D8
  1

  0
LINE
  5
13D4
330
100E
100
AcDbEntity
  8
AM_5
100
AcDbLine
 10
1.000000000000085
 20
40.69285493292322
 30
0.0
 11
13.63876052676377
 21
40.69285493292315
 31
0.0
  0
LINE
  5
13D5
330
100E
100
AcDbEntity
  8
AM_5
100
AcDbLine
 10
0.9961946980918314
 20
40.78001067567088
 30
0.0
 11
13.58686092530505
 21
41.88155123679074
 31
0.0
  0
ARC
  5
13D6
330
100E
100
AcDbEntity
  8
AM_5
100
AcDbCircle
 10
0.0000000000000855
 20
40.69285493292323
 30
0.0
 40
12.63876052676368
100
AcDbArc
 50
337.1828313854334
 51
359.9999999999997
  0
LINE
  5
13D7
330
100E
100
AcDbEntity
  8
AM_5
100
AcDbLine
 10
11.6497394931323
 20
35.79164718431316
 30
0.0
 11
6.279007666537681
 21
23.0258902777537
 31
0.0
  0
ARC
  5
13D8
330
100E
100
AcDbEntity
  8
AM_5
100
AcDbCircle
 10
0.0000000000000855
 20
40.69285493292323
 30
0.0
 40
12.63876052676368
100
AcDbArc
 50
337.2961911078375
 51
348.6480955539186
  0
ARC
  5
13D9
330
100E
100
AcDbEntity
  8
AM_5
100
AcDbCircle
 10
0.0000000000000855
 20
40.69285493292323
 30
0.0
 40
12.63876052676368
100
AcDbArc
 50
16.35190444608099
 51
27.70380889216204
  0
ARC
  5
13DA
330
100E
100
AcDbEntity
  8
AM_5
100
AcDbCircle
 10
0.0000000000000855
 20
40.69285493292323
 30
0.0
 40
12.63876052676368
100
AcDbArc
 50
359.9999999999997
 51
4.999999999999943
  0
INSERT
  5
13DB
330
100E
100
AcDbEntity
  8
AM_5
100
AcDbBlockReference
  2
_OPEN30
 10
12.63876052676377
 20
40.69285493292315
 30
0.0
 41
2.5
 42
2.5
 43
2.5
 50
84.32404777695913
  0
INSERT
  5
13DC
330
100E
100
AcDbEntity
  8
AM_5
100
AcDbBlockReference
  2
_OPEN30
 10
12.5906662272133
 20
41.79439549404309
 30
0.0
 41
2.5
 42
2.5
 43
2.5
 50
280.6759522230404
  0
MTEXT
  5
13DD
330
100E
100
AcDbEntity
  8
AM_5
 62
     2
100
AcDbMText
 10
11.82178925380356
 20
28.20661413774741
 30
0.0
 40
3.2
 41
0.0
 71
     5
 72
     1
  1
-5°
  7
ASAMI
 11
-0.3877918042858148
 21
-0.9217469916027674
 31
0.0
1001
ACAD
1000
MTEXTBEGIN
1070
    73
1070
     1
1070
    44
1040
1.0
1070
    74
1070
     0
1000
MTEXTEND
  0
POINT
  5
13DE
330
100E
100
AcDbEntity
  8
DEFPOINTS
 62
     0
100
AcDbPoint
 10
12.61737774430514
 20
41.42773350139234
 30
0.0
  0
POINT
  5
13DF
330
100E
100
AcDbEntity
  8
DEFPOINTS
 62
     0
100
AcDbPoint
 10
-15.26818068020245
 20
39.35706221073998
 30
0.0
  0
POINT
  5
13E0
330
100E
100
AcDbEntity
  8
DEFPOINTS
 62
     0
100
AcDbPoint
 10
0.0000000000000855
 20
40.69285493292323
 30
0.0
  0
POINT
  5
13E1
330
100E
100
AcDbEntity
  8
DEFPOINTS
 62
     0
100
AcDbPoint
 10
-1.116910577223038
 20
40.69285493292323
 30
0.0
  0
POINT
  5
13E2
330
100E
100
AcDbEntity
  8
DEFPOINTS
 62
     0
100
AcDbPoint
 10
0.0000000000000855
 20
40.69285493292323
 30
0.0
  0
ENDBLK
  5
101F
330
100E
100
AcDbEntity
  8
0
100
AcDbBlockEnd
  0
BLOCK
  5
102A
330
1020
100
AcDbEntity
  8
0
100
AcDbBlockBegin
  2
*D9
 70
     1
 10
0.0
 20
0.0
 30
0.0
  3
*D9
  1

  0
LINE
  5
13CB
330
1020
100
AcDbEntity
  8
AM_5
100
AcDbLine
 10
-0.8419196630078431
 20
65.19285493292324
 30
0.0
 11
22.96869664251221
 21
65.19285493292324
 31
0.0
  0
LINE
  5
13CC
330
1020
100
AcDbEntity
  8
AM_5
100
AcDbLine
 10
1.000000000000085
 20
40.69285493292322
 30
0.0
 11
22.96869664251221
 21
40.69285493292322
 31
0.0
  0
LINE
  5
13CD
330
1020
100
AcDbEntity
  8
AM_5
100
AcDbLine
 10
21.96869664251221
 20
62.69285493292323
 30
0.0
 11
21.96869664251221
 21
43.19285493292322
 31
0.0
  0
INSERT
  5
13CE
330
1020
100
AcDbEntity
  8
AM_5
100
AcDbBlockReference
  2
_OPEN30
 10
21.96869664251221
 20
65.19285493292324
 30
0.0
 41
2.5
 42
2.5
 43
2.5
 50
90.0
  0
INSERT
  5
13CF
330
1020
100
AcDbEntity
  8
AM_5
100
AcDbBlockReference
  2
_OPEN30
 10
21.96869664251221
 20
40.69285493292322
 30
0.0
 41
2.5
 42
2.5
 43
2.5
 50
270.0
  0
MTEXT
  5
13D0
330
1020
100
AcDbEntity
  8
AM_5
 62
     2
100
AcDbMText
 10
18.8686966425122
 20
52.94285493292323
 30
0.0
 40
3.2
 41
0.0
 71
     5
 72
     1
  1
24.5
  7
ASAMI
 11
0.0000000000000001
 21
1.0
 31
0.0
1001
ACAD
1000
MTEXTBEGIN
1070
    73
1070
     1
1070
    44
1040
1.0
1070
    74
1070
     0
1000
MTEXTEND
  0
POINT
  5
13D1
330
1020
100
AcDbEntity
  8
DEFPOINTS
 62
     0
100
AcDbPoint
 10
-1.841919663007843
 20
65.19285493292324
 30
0.0
  0
POINT
  5
13D2
330
1020
100
AcDbEntity
  8
DEFPOINTS
 62
     0
100
AcDbPoint
 10
0.0000000000000853
 20
40.69285493292322
 30
0.0
  0
POINT
  5
13D3
330
1020
100
AcDbEntity
  8
DEFPOINTS
 62
     0
100
AcDbPoint
 10
21.96869664251221
 20
40.69285493292322
 30
0.0
  0
ENDBLK
  5
102B
330
1020
100
AcDbEntity
  8
0
100
AcDbBlockEnd
  0
BLOCK
  5
1036
330
102C
100
AcDbEntity
  8
0
100
AcDbBlockBegin
  2
*D10
 70
     1
 10
0.0
 20
0.0
 30
0.0
  3
*D10
  1

  0
LINE
  5
13B9
330
102C
100
AcDbEntity
  8
AM_5
100
AcDbLine
 10
-149.9999999999999
 20
39.19285493292325
 30
0.0
 11
-149.9999999999999
 21
25.19285493292325
 31
0.0
  0
LINE
  5
13BA
330
102C
100
AcDbEntity
  8
AM_5
100
AcDbLine
 10
0.0000000000000852
 20
39.69285493292322
 30
0.0
 11
0.0000000000000843
 21
25.19285493292325
 31
0.0
  0
LINE
  5
13BB
330
102C
100
AcDbEntity
  8
AM_5
100
AcDbLine
 10
-147.4999999999999
 20
26.19285493292325
 30
0.0
 11
-2.499999999999915
 21
26.19285493292325
 31
0.0
  0
INSERT
  5
13BC
330
102C
100
AcDbEntity
  8
AM_5
100
AcDbBlockReference
  2
_OPEN30
 10
-149.9999999999999
 20
26.19285493292325
 30
0.0
 41
2.5
 42
2.5
 43
2.5
 50
180.0
  0
INSERT
  5
13BD
330
102C
100
AcDbEntity
  8
AM_5
100
AcDbBlockReference
  2
_OPEN30
 10
0.0000000000000844
 20
26.19285493292325
 30
0.0
 41
2.5
 42
2.5
 43
2.5
  0
MTEXT
  5
13BE
330
102C
100
AcDbEntity
  8
AM_5
 62
     2
100
AcDbMText
 10
-74.99999999999992
 20
29.29285493292325
 30
0.0
 40
3.2
 41
0.0
 71
     5
 72
     1
  1
150
  7
ASAMI
1001
ACAD
1000
MTEXTBEGIN
1070
    73
1070
     1
1070
    44
1040
1.0
1070
    74
1070
     0
1000
MTEXTEND
  0
POINT
  5
13BF
330
102C
100
AcDbEntity
  8
DEFPOINTS
 62
     0
100
AcDbPoint
 10
-149.9999999999999
 20
40.19285493292325
 30
0.0
  0
POINT
  5
13C0
330
102C
100
AcDbEntity
  8
DEFPOINTS
 62
     0
100
AcDbPoint
 10
0.0000000000000853
 20
40.69285493292322
 30
0.0
  0
POINT
  5
13C1
330
102C
100
AcDbEntity
  8
DEFPOINTS
 62
     0
100
AcDbPoint
 10
0.0000000000000844
 20
26.19285493292325
 30
0.0
  0
ENDBLK
  5
1037
330
102C
100
AcDbEntity
  8
0
100
AcDbBlockEnd
  0
BLOCK
  5
109E
330
1094
100
AcDbEntity
  8
0
100
AcDbBlockBegin
  2
*D11
 70
     1
 10
0.0
 20
0.0
 30
0.0
  3
*D11
  1

  0
LINE
  5
13C2
330
1094
100
AcDbEntity
  8
AM_5
100
AcDbLine
 10
-150.9999999999999
 20
40.19285493292325
 30
0.0
 11
-165.0
 21
40.19285493292325
 31
0.0
  0
LINE
  5
13C3
330
1094
100
AcDbEntity
  8
AM_5
100
AcDbLine
 10
-150.9999999999999
 20
65.19285493292326
 30
0.0
 11
-164.9999999999999
 21
65.19285493292328
 31
0.0
  0
LINE
  5
13C4
330
1094
100
AcDbEntity
  8
AM_5
100
AcDbLine
 10
-164.0
 20
42.69285493292325
 30
0.0
 11
-164.0
 21
62.69285493292327
 31
0.0
  0
INSERT
  5
13C5
330
1094
100
AcDbEntity
  8
AM_5
100
AcDbBlockReference
  2
_OPEN30
 10
-164.0
 20
40.19285493292325
 30
0.0
 41
2.5
 42
2.5
 43
2.5
 50
270.0
  0
INSERT
  5
13C6
330
1094
100
AcDbEntity
  8
AM_5
100
AcDbBlockReference
  2
_OPEN30
 10
-163.9999999999999
 20
65.19285493292328
 30
0.0
 41
2.5
 42
2.5
 43
2.5
 50
90.0
  0
MTEXT
  5
13C7
330
1094
100
AcDbEntity
  8
AM_5
 62
     2
100
AcDbMText
 10
-167.1
 20
52.69285493292323
 30
0.0
 40
3.2
 41
0.0
 71
     5
 72
     1
  1
25
  7
ASAMI
 11
0.0000000000000001
 21
1.0
 31
0.0
1001
ACAD
1000
MTEXTBEGIN
1070
    73
1070
     1
1070
    44
1040
1.0
1070
    74
1070
     0
1000
MTEXTEND
  0
POINT
  5
13C8
330
1094
100
AcDbEntity
  8
DEFPOINTS
 62
     0
100
AcDbPoint
 10
-149.9999999999999
 20
40.19285493292325
 30
0.0
  0
POINT
  5
13C9
330
1094
100
AcDbEntity
  8
DEFPOINTS
 62
     0
100
AcDbPoint
 10
-149.9999999999999
 20
65.19285493292326
 30
0.0
  0
POINT
  5
13CA
330
1094
100
AcDbEntity
  8
DEFPOINTS
 62
     0
100
AcDbPoint
 10
-163.9999999999999
 20
65.19285493292328
 30
0.0
  0
ENDBLK
  5
109F
330
1094
100
AcDbEntity
  8
0
100
AcDbBlockEnd
  0
BLOCK
  5
1126
330
111C
100
AcDbEntity
  8
0
100
AcDbBlockBegin
  2
*D12
 70
     1
 10
0.0
 20
0.0
 30
0.0
  3
*D12
  1

  0
LINE
  5
136C
330
111C
100
AcDbEntity
  8
AM_5
100
AcDbLine
 10
-150.9999999999999
 20
-31.99999999999998
 30
0.0
 11
-164.9999999999999
 21
-31.99999999999997
 31
0.0
  0
LINE
  5
136D
330
111C
100
AcDbEntity
  8
AM_5
100
AcDbLine
 10
-150.9999999999999
 20
-6.999999999999981
 30
0.0
 11
-164.9999999999999
 21
-6.999999999999977
 31
0.0
  0
LINE
  5
136E
330
111C
100
AcDbEntity
  8
AM_5
100
AcDbLine
 10
-163.9999999999999
 20
-29.49999999999997
 30
0.0
 11
-163.9999999999999
 21
-9.499999999999978
 31
0.0
  0
INSERT
  5
136F
330
111C
100
AcDbEntity
  8
AM_5
100
AcDbBlockReference
  2
_OPEN30
 10
-163.9999999999999
 20
-31.99999999999997
 30
0.0
 41
2.5
 42
2.5
 43
2.5
 50
270.0
  0
INSERT
  5
1370
330
111C
100
AcDbEntity
  8
AM_5
100
AcDbBlockReference
  2
_OPEN30
 10
-163.9999999999999
 20
-6.999999999999977
 30
0.0
 41
2.5
 42
2.5
 43
2.5
 50
90.0
  0
MTEXT
  5
1371
330
111C
100
AcDbEntity
  8
AM_5
 62
     2
100
AcDbMText
 10
-167.0999999999999
 20
-19.5
 30
0.0
 40
3.2
 41
0.0
 71
     5
 72
     1
  1
25
  7
ASAMI
 11
0.0000000000000001
 21
1.0
 31
0.0
1001
ACAD
1000
MTEXTBEGIN
1070
    73
1070
     1
1070
    44
1040
1.0
1070
    74
1070
     0
1000
MTEXTEND
  0
POINT
  5
1372
330
111C
100
AcDbEntity
  8
DEFPOINTS
 62
     0
100
AcDbPoint
 10
-149.9999999999999
 20
-31.99999999999998
 30
0.0
  0
POINT
  5
1373
330
111C
100
AcDbEntity
  8
DEFPOINTS
 62
     0
100
AcDbPoint
 10
-149.9999999999999
 20
-6.999999999999982
 30
0.0
  0
POINT
  5
1374
330
111C
100
AcDbEntity
  8
DEFPOINTS
 62
     0
100
AcDbPoint
 10
-163.9999999999999
 20
-6.999999999999977
 30
0.0
  0
ENDBLK
  5
1127
330
111C
100
AcDbEntity
  8
0
100
AcDbBlockEnd
  0
ENDSEC
  0
SECTION
  2
ENTITIES
  0
LINE
  5
BD8
330
1F
100
AcDbEntity
  8
AM_0
100
AcDbLine
 10
-25.07584342240841
 20
-31.99999999999997
 30
0.0
 11
-149.9999999999999
 21
-31.99999999999998
 31
0.0
  0
LINE
  5
BD9
330
1F
100
AcDbEntity
  8
AM_0
100
AcDbLine
 10
-149.9999999999999
 20
-31.99999999999998
 30
0.0
 11
-149.9999999999999
 21
-6.999999999999982
 31
0.0
  0
LINE
  5
C3A
330
1F
100
AcDbEntity
  8
AM_0
100
AcDbLine
 10
40.00564721105499
 20
-0.7354286418331313
 30
0.0
 11
56.59965936995354
 21
-2.187216588148132
 31
0.0
  0
LINE
  5
C3B
330
1F
100
AcDbEntity
  8
AM_0
100
AcDbLine
 10
56.59965936995352
 20
-2.187216588148132
 30
0.0
 11
56.59965936995353
 21
-32.00000000000001
 31
0.0
  0
LINE
  5
C3C
330
1F
100
AcDbEntity
  8
AM_0
100
AcDbLine
 10
56.59965936995353
 20
-32.00000000000001
 30
0.0
 11
31.59965936995354
 21
-32.00000000000001
 31
0.0
  0
LINE
  5
C3D
330
1F
100
AcDbEntity
  8
AM_0
100
AcDbLine
 10
31.59965936995354
 20
-32.00000000000001
 30
0.0
 11
31.59965936995357
 21
-13.49527572710287
 31
0.0
  0
LINE
  5
D38
330
1F
100
AcDbEntity
  8
AM_0
100
AcDbLine
 10
-16.24815780649905
 20
0.000000000000002
 30
0.0
 11
-20.46354811567302
 21
-0.000000000000012
 31
0.0
  0
LINE
  5
D45
330
1F
100
AcDbEntity
  8
AM_11
100
AcDbLine
 10
-24.50500000000039
 20
-6.999999999999968
 30
0.0
 11
-25.08235026919001
 21
-6.999999999999968
 31
0.0
  0
LINE
  5
D4A
330
1F
100
AcDbEntity
  8
AM_11
100
AcDbLine
 10
-24.50500000000039
 20
-6.999999999999968
 30
0.0
 11
-24.21632486540558
 21
-6.499999999999966
 31
0.0
  0
LINE
  5
D61
330
1F
100
AcDbEntity
  8
AM_0
100
AcDbLine
 10
40.07965936995353
 20
-0.7419038666998361
 30
0.0
 11
38.74647548591573
 21
-15.98026539045106
 31
0.0
  0
LINE
  5
D84
330
1F
100
AcDbEntity
  8
AM_0
100
AcDbLine
 10
-7.382944423092427
 20
-15.35499999999996
 30
0.0
 11
-12.95148776942633
 21
-25.0
 31
0.0
  0
LINE
  5
D8D
330
1F
100
AcDbEntity
  8
AM_0
100
AcDbLine
 10
-12.95148776942636
 20
-25.0
 30
0.0
 11
-25.07584342240847
 21
-31.99999999999999
 31
0.0
  0
LINE
  5
DA0
330
1F
100
AcDbEntity
  8
AM_0
100
AcDbLine
 10
-16.24815780649908
 20
0.000000000000002
 30
0.0
 11
-7.382944423092427
 21
-15.35499999999998
 31
0.0
  0
ARC
  5
DAC
330
1F
100
AcDbEntity
  8
AM_0
100
AcDbCircle
 10
-1.583460969082637
 20
-1.77000000000001
 30
0.0
 40
1.199999999999999
100
AcDbArc
 50
330.0
 51
330.0000000000001
1001
GENIUS_GENODEF_13
1002
{
1000
HIER
1070
     0
1002
}
1002
{
1000
MANEDIT
1070
     0
1002
}
1002
{
1000
NOSEL
1070
     0
1002
}
1002
{
1000
BEHIND
1070
     0
1002
}
1002
{
1000
REACTOR
1002
}
1001
GENIUS_GENOBJ-N-FIL_13
1002
{
1000
OWNER
1000
GEN
1002
}
  0
LINE
  5
DB1
330
1F
100
AcDbEntity
  8
AM_0
100
AcDbLine
 10
-0.5442304845413169
 20
-2.370000000000005
 30
0.0
 11
-7.712034076530501
 21
-14.78499999999999
 31
0.0
  0
ARC
  5
DB2
330
1F
100
AcDbEntity
  8
AM_0
100
AcDbCircle
 10
-1.583460969082637
 20
-1.77000000000001
 30
0.0
 40
1.199999999999999
100
AcDbArc
 50
330.0000000000001
 51
4.11492640058066
1001
GENIUS_GENODEF_13
1002
{
1000
HIER
1070
     0
1002
}
1002
{
1000
MANEDIT
1070
     0
1002
}
1002
{
1000
NOSEL
1070
     0
1002
}
1002
{
1000
BEHIND
1070
     0
1002
}
1002
{
1000
REACTOR
1002
}
1001
GENIUS_GENOBJ-N-FIL_13
1002
{
1000
OWNER
1000
GEN
1002
}
  0
LINE
  5
DB6
330
1F
100
AcDbEntity
  8
AM_0
100
AcDbLine
 10
-15.292727160163
 20
-0.5699999999999914
 30
0.0
 11
-15.91906815306094
 21
-0.5699999999999628
 31
0.0
  0
LINE
  5
DE4
330
1F
100
AcDbEntity
  8
AM_0
100
AcDbLine
 10
-15.34130306845094
 20
40.19285493292325
 30
0.0
 11
-149.9999999999999
 21
40.19285493292325
 31
0.0
  0
LINE
  5
DE5
330
1F
100
AcDbEntity
  8
AM_0
100
AcDbLine
 10
-149.9999999999999
 20
40.19285493292325
 30
0.0
 11
-149.9999999999999
 21
65.19285493292326
 31
0.0
  0
LINE
  5
DE6
330
1F
100
AcDbEntity
  8
AM_0
100
AcDbLine
 10
-149.9999999999999
 20
65.19285493292326
 30
0.0
 11
-1.828773690530965
 21
65.19285493292324
 31
0.0
  0
LINE
  5
DE7
330
1F
100
AcDbEntity
  8
AM_0
100
AcDbLine
 10
-1.828773690530965
 20
65.19285493292324
 30
0.0
 11
-0.3834609690826767
 21
48.67285493292321
 31
0.0
  0
LINE
  5
DEC
330
1F
100
AcDbEntity
  8
AM_0
100
AcDbLine
 10
-20.46354811567303
 20
40.19285493292324
 30
0.0
 11
-22.65076470382118
 21
65.19285493292324
 31
0.0
  0
LINE
  5
DF5
330
1F
100
AcDbEntity
  8
AM_0
100
AcDbLine
 10
-16.86391588343662
 20
47.23100195816715
 30
0.0
 11
-0.3834609690826767
 21
48.67285493292323
 31
0.0
  0
LINE
  5
E16
330
1F
100
AcDbEntity
  8
AM_0
100
AcDbLine
 10
-16.24815780649908
 20
40.19285493292324
 30
0.0
 11
-16.86391588343662
 21
47.23100195816715
 31
0.0
  0
LINE
  5
E41
330
1F
100
AcDbEntity
  8
AM_0
100
AcDbLine
 10
-0.8000000000000113
 20
0.0000000000000001
 30
0.0
 11
-14.52650264998337
 21
0.0000000000000018
 31
0.0
  0
LINE
  5
E42
330
1F
100
AcDbEntity
  8
AM_0
100
AcDbLine
 10
-6.970431001964216
 20
-13.08749999999997
 30
0.0
 11
-0.1071796769724644
 21
-1.199999999999988
 31
0.0
  0
LINE
  5
E43
330
1F
100
AcDbEntity
  8
AM_11
100
AcDbLine
 10
-0.8000000000000113
 20
0.0000000000000001
 30
0.0
 11
0.0
 21
0.0
 31
0.0
  0
LINE
  5
E44
330
1F
100
AcDbEntity
  8
AM_11
100
AcDbLine
 10
-0.0000000000000001
 20
-0.8000000000000113
 30
0.0
 11
0.0
 21
0.0
 31
0.0
  0
ARC
  5
E45
330
1F
100
AcDbEntity
  8
AM_0
100
AcDbCircle
 10
-0.8000000000000115
 20
-0.8000000000000111
 30
0.0
 40
0.7999999999999997
100
AcDbArc
 50
330.0000000000002
 51
90.0
  0
LINE
  5
E46
330
1F
100
AcDbEntity
  8
AM_0
100
AcDbLine
 10
-15.21932297301091
 20
-1.199999999999986
 30
0.0
 11
-8.356071648019311
 21
-13.08749999999997
 31
0.0
  0
ARC
  5
E47
330
1F
100
AcDbEntity
  8
AM_0
100
AcDbCircle
 10
-14.52650264998337
 20
-0.8000000000000095
 30
0.0
 40
0.8000000000000113
100
AcDbArc
 50
90.0
 51
209.9999999999997
  0
ARC
  5
E48
330
1F
100
AcDbEntity
  8
AM_0
100
AcDbCircle
 10
-7.663251324991763
 20
-12.68749999999994
 30
0.0
 40
0.7999999999999997
100
AcDbArc
 50
209.9999999999997
 51
330.0000000000002
  0
LINE
  5
E8C
330
1F
100
AcDbEntity
  8
AM_0
100
AcDbLine
 10
-0.9794090011315859
 20
48.57749725846314
 30
0.0
 11
-15.96451092719718
 21
47.26647071815192
 31
0.0
  0
LINE
  5
E8E
330
1F
100
AcDbEntity
  8
AM_0
100
AcDbLine
 10
-0.7022537391940489
 20
45.40959811853139
 30
0.0
 11
-0.9794090011315859
 21
48.57749725846314
 31
0.0
  0
LINE
  5
E90
330
1F
100
AcDbEntity
  8
AM_0
100
AcDbLine
 10
-15.96451092719718
 20
47.26647071815192
 30
0.0
 11
-15.68735566525961
 21
44.09857157822016
 31
0.0
  0
LINE
  5
E91
330
1F
100
AcDbEntity
  8
AM_0
100
AcDbLine
 10
-15.26818068020245
 20
39.35706221073998
 30
0.0
 11
0.0000000000000853
 21
40.69285493292324
 31
0.0
  0
LINE
  5
E92
330
1F
100
AcDbEntity
  8
AM_0
100
AcDbLine
 10
-0.4148613354787756
 20
45.43474169583996
 30
0.0
 11
-15.6830420156813
 21
44.0989489736567
 31
0.0
  0
LINE
  5
E93
330
1F
100
AcDbEntity
  8
AM_0
100
AcDbLine
 10
0.0000000000000853
 20
40.69285493292322
 30
0.0
 11
-0.4148613354787756
 21
45.43474169583996
 31
0.0
  0
LINE
  5
E94
330
1F
100
AcDbEntity
  8
AM_0
100
AcDbLine
 10
-15.6830420156813
 20
44.0989489736567
 30
0.0
 11
-15.26818068020245
 21
39.35706221073998
 31
0.0
  0
LINE
  5
E9C
330
1F
100
AcDbEntity
  8
AM_7
  6
AM_ISO08W050X2
100
AcDbLine
 10
-7.37262311185816
 20
37.03637447755637
 30
0.0
 11
-10.602587030985
 21
73.95503100920635
 31
0.0
1001
GENIUS_GENODEF_13
1002
{
1000
HIER
1070
     0
1002
}
1002
{
1000
MANEDIT
1070
     0
1002
}
1002
{
1000
NOSEL
1070
     0
1002
}
1002
{
1000
BEHIND
1070
     0
1002
}
1002
{
1000
REACTOR
1002
}
1001
GENIUS_GENOBJ-N-CEN_13
1002
{
1000
OWNER
1000
GEN
1002
}
  0
LINE
  5
EA9
330
1F
100
AcDbEntity
  8
AM_0
100
AcDbLine
 10
-12.73924936776035
 20
69.69291015771483
 30
0.0
 11
-7.758275877301656
 21
70.12868887145311
 31
0.0
  0
LINE
  5
EB1
330
1F
100
AcDbEntity
  8
AM_0
100
AcDbLine
 10
-7.326446362633731
 20
65.19285493292324
 30
0.0
 11
-7.758275877301656
 21
70.12868887145311
 31
0.0
1001
GENIUS_GENODEF_13
1002
{
1000
HIER
1070
     0
1002
}
1002
{
1000
MANEDIT
1070
     0
1002
}
1002
{
1000
NOSEL
1070
     0
1002
}
1002
{
1000
BEHIND
1070
     0
1002
}
1002
{
1000
REACTOR
1002
}
1001
GENIUS_GENOBJ-N-CEN_13
1002
{
1000
OWNER
1000
GEN
1002
}
  0
LINE
  5
EB5
330
1F
100
AcDbEntity
  8
AM_0
100
AcDbLine
 10
-12.34554555035049
 20
65.19285493292324
 30
0.0
 11
-12.73924936776038
 21
69.69291015771482
 31
0.0
1001
GENIUS_GENODEF_13
1002
{
1000
HIER
1070
     0
1002
}
1002
{
1000
MANEDIT
1070
     0
1002
}
1002
{
1000
NOSEL
1070
     0
1002
}
1002
{
1000
BEHIND
1070
     0
1002
}
1002
{
1000
REACTOR
1002
}
1001
GENIUS_GENOBJ-N-CEN_13
1002
{
1000
OWNER
1000
GEN
1002
}
  0
LINE
  5
EED
330
1F
100
AcDbEntity
  8
AM_0
100
AcDbLine
 10
38.79704858147357
 20
-14.54977419099402
 30
0.0
 11
40.00807762695231
 21
-0.7076488610092398
 31
0.0
  0
LINE
  5
EEE
330
1F
100
AcDbEntity
  8
AM_0
100
AcDbLine
 10
35.62914944154181
 20
-14.27261892905645
 30
0.0
 11
36.84154613287017
 21
-0.414861335478868
 31
0.0
  0
LINE
  5
EEF
330
1F
100
AcDbEntity
  8
AM_0
100
AcDbLine
 10
40.00807762695231
 20
-0.7076488610092398
 30
0.0
 11
36.84017848702055
 21
-0.4304935990716743
 31
0.0
  0
LINE
  5
EF0
330
1F
100
AcDbEntity
  8
AM_0
100
AcDbLine
 10
35.62914944154181
 20
-14.27261892905645
 30
0.0
 11
38.79704858147357
 21
-14.54977419099402
 31
0.0
  0
LINE
  5
EF1
330
1F
100
AcDbEntity
  8
AM_7
  6
AM_ISO08W050X2
100
AcDbLine
 10
29.68396347538927
 20
-4.587607437693954
 30
0.0
 11
64.4130063452227
 21
-7.626004983910164
 31
0.0
1001
GENIUS_GENODEF_13
1002
{
1000
HIER
1070
     0
1002
}
1002
{
1000
MANEDIT
1070
     0
1002
}
1002
{
1000
NOSEL
1070
     0
1002
}
1002
{
1000
BEHIND
1070
     0
1002
}
1002
{
1000
REACTOR
1002
}
1001
GENIUS_GENOBJ-N-CEN_13
1002
{
1000
OWNER
1000
GEN
1002
}
  0
LINE
  5
EF2
330
1F
100
AcDbEntity
  8
AM_0
100
AcDbLine
 10
32.09965936995351
 20
-0.0000000000000071
 30
0.0
 11
30.92414628964445
 21
-13.43617599051237
 31
0.0
  0
LINE
  5
EF4
330
1F
100
AcDbEntity
  8
AM_0
100
AcDbLine
 10
36.84154613287017
 20
-0.414861335478868
 30
0.0
 11
32.09965936995351
 21
-0.0000000000000071
 31
0.0
  0
LINE
  5
EF5
330
1F
100
AcDbEntity
  8
AM_0
100
AcDbLine
 10
30.92414628964445
 20
-13.43617599051237
 30
0.0
 11
35.66603305256114
 21
-13.85103732599123
 31
0.0
  0
LINE
  5
F01
330
1F
100
AcDbEntity
  8
AM_0
100
AcDbLine
 10
31.59965936995357
 20
-15.35499999999999
 30
0.0
 11
38.74647548591573
 21
-15.98026539045106
 31
0.0
  0
LINE
  5
F0E
330
1F
100
AcDbEntity
  8
AM_0
100
AcDbLine
 10
61.78672490953283
 20
-4.886685537200335
 30
0.0
 11
61.35094619579454
 21
-9.867659027659087
 31
0.0
  0
LINE
  5
F16
330
1F
100
AcDbEntity
  8
AM_0
100
AcDbLine
 10
56.59965936995352
 20
-4.432876105521145
 30
0.0
 11
61.78672490953283
 21
-4.886685537200335
 31
0.0
1001
GENIUS_GENODEF_13
1002
{
1000
HIER
1070
     0
1002
}
1002
{
1000
MANEDIT
1070
     0
1002
}
1002
{
1000
NOSEL
1070
     0
1002
}
1002
{
1000
BEHIND
1070
     0
1002
}
1002
{
1000
REACTOR
1002
}
1001
GENIUS_GENOBJ-N-CEN_13
1002
{
1000
OWNER
1000
GEN
1002
}
  0
LINE
  5
F1A
330
1F
100
AcDbEntity
  8
AM_0
100
AcDbLine
 10
56.59965936995352
 20
-9.451975293237936
 30
0.0
 11
61.35094619579454
 21
-9.867659027659087
 31
0.0
1001
GENIUS_GENODEF_13
1002
{
1000
HIER
1070
     0
1002
}
1002
{
1000
MANEDIT
1070
     0
1002
}
1002
{
1000
NOSEL
1070
     0
1002
}
1002
{
1000
BEHIND
1070
     0
1002
}
1002
{
1000
REACTOR
1002
}
1001
GENIUS_GENOBJ-N-CEN_13
1002
{
1000
OWNER
1000
GEN
1002
}
  0
LINE
  5
F20
330
1F
100
AcDbEntity
  8
AM_0
100
AcDbLine
 10
31.59965936995354
 20
-24.99999999999998
 30
0.0
 11
56.59965936995354
 21
-27.18721658814807
 31
0.0
  0
DIMENSION
  5
F52
330
1F
100
AcDbEntity
  8
AM_5
100
AcDbDimension
  2
*D5
 10
13.99999999999999
 20
-32.0
 30
0.0
 11
10.89999999999999
 21
-16.0
 31
0.0
 70
    32
  1
<>
  3
AM_JIS
100
AcDbAlignedDimension
 13
0.0
 23
0.0
 33
0.0
 14
-25.07584342240847
 24
-31.99999999999999
 34
0.0
 50
89.99999999999998
100
AcDbRotatedDimension
1001
GENIUS_GENDTOL_13
1000

1000
h7
1000

1040
0.0
  0
DIMENSION
  5
F53
330
1F
100
AcDbEntity
  8
AM_5
100
AcDbDimension
  2
*D6
 10
-14.52650264998337
 20
0.0000000000000018
 30
0.0
 11
-11.25602303346055
 21
11.25602303346057
 31
0.0
 70
    34
  1
<>
  3
AM_JIS$2
100
AcDb2LineAngularDimension
 13
-0.0000000000000001
 23
-0.8000000000000113
 33
0.0
 14
0.0
 24
0.0
 34
0.0
 15
-0.8000000000000113
 25
0.0000000000000001
 35
0.0
 16
-6.409210216151931
 26
11.10107773076466
 36
0.0
1001
ACAD
1000
DSTYLE
1002
{
1070
   179
1070
     3
1002
}
1001
GENIUS_GENDTOL_13
1000

1000
h7
1000

1040
0.0
  0
DIMENSION
  5
FB8
330
1F
100
AcDbEntity
  8
AM_5
100
AcDbDimension
  2
*D7
 10
30.76386664777025
 20
-15.26818068020255
 30
0.0
 11
45.66964395612474
 21
11.78091447634259
 31
0.0
 70
    34
  1
-<>
  3
AM_JIS$2
100
AcDb2LineAngularDimension
 13
32.09965936995351
 23
-0.0000000000000185
 33
0.0
 14
32.09965936995351
 24
-1.038100066472811
 34
0.0
 15
32.09965936995351
 25
-0.0000000000000185
 35
0.0
 16
32.49179654055115
 26
13.47688043545754
 36
0.0
1001
ACAD
1000
DSTYLE
1002
{
1070
   179
1070
     3
1002
}
1001
GENIUS_GENDTOL_13
1000

1000
h7
1000

1040
0.0
  0
DIMENSION
  5
100B
330
1F
100
AcDbEntity
  8
AM_5
100
AcDbDimension
  2
*D8
 10
0.0000000000000853
 20
40.69285493292322
 30
0.0
 11
11.82178925380357
 21
28.20661413774741
 31
0.0
 70
    34
  1
-<>
  3
AM_JIS$2
100
AcDb2LineAngularDimension
 13
0.0000000000000853
 23
40.69285493292322
 33
0.0
 14
-1.116910577223038
 24
40.69285493292322
 34
0.0
 15
-15.26818068020245
 25
39.35706221073998
 35
0.0
 16
12.61737774430514
 26
41.42773350139234
 36
0.0
1001
ACAD
1000
DSTYLE
1002
{
1070
   179
1070
     3
1002
}
1001
GENIUS_GENDTOL_13
1000

1000
h7
1000

1040
0.0
  0
DIMENSION
  5
100C
330
1F
100
AcDbEntity
  8
AM_5
100
AcDbDimension
  2
*D9
 10
21.96869664251221
 20
40.69285493292322
 30
0.0
 11
18.8686966425122
 21
52.94285493292323
 31
0.0
 70
    32
  1
<>
  3
AM_JIS
100
AcDbAlignedDimension
 13
-1.841919663007843
 23
65.19285493292324
 33
0.0
 14
0.0000000000000853
 24
40.69285493292322
 34
0.0
 50
89.99999999999998
100
AcDbRotatedDimension
1001
GENIUS_GENDTOL_13
1000

1000
h7
1000

1040
0.0
  0
DIMENSION
  5
100D
330
1F
100
AcDbEntity
  8
AM_5
100
AcDbDimension
  2
*D10
 10
0.0000000000000844
 20
26.19285493292325
 30
0.0
 11
-74.99999999999992
 21
29.29285493292325
 31
0.0
 70
    32
  1
<>
  3
AM_JIS
100
AcDbAlignedDimension
 13
-149.9999999999999
 23
40.19285493292325
 33
0.0
 14
0.0000000000000853
 24
40.69285493292322
 34
0.0
100
AcDbRotatedDimension
1001
GENIUS_GENDTOL_13
1000

1000
h7
1000

1040
0.0
  0
DIMENSION
  5
1093
330
1F
100
AcDbEntity
  8
AM_5
100
AcDbDimension
  2
*D11
 10
-163.9999999999999
 20
65.19285493292328
 30
0.0
 11
-167.1
 21
52.69285493292323
 31
0.0
 70
    32
  1
<>
  3
AM_JIS
100
AcDbAlignedDimension
 13
-149.9999999999999
 23
40.19285493292325
 33
0.0
 14
-149.9999999999999
 24
65.19285493292326
 34
0.0
 50
270.0
100
AcDbRotatedDimension
1001
GENIUS_GENDTOL_13
1000

1000
h7
1000

1040
0.0
  0
DIMENSION
  5
111B
330
1F
100
AcDbEntity
  8
AM_5
100
AcDbDimension
  2
*D12
 10
-163.9999999999999
 20
-6.999999999999977
 30
0.0
 11
-167.0999999999999
 21
-19.5
 31
0.0
 70
    32
  1
<>
  3
AM_JIS
100
AcDbAlignedDimension
 13
-149.9999999999999
 23
-31.99999999999998
 33
0.0
 14
-149.9999999999999
 24
-6.999999999999982
 34
0.0
 50
270.0
100
AcDbRotatedDimension
1001
GENIUS_GENDTOL_13
1000

1000
h7
1000

1040
0.0
  0
TEXT
  5
11A9
330
1F
100
AcDbEntity
  8
AM_6
100
AcDbText
 10
-106.5476190476189
 20
-54.49999999999997
 30
0.0
 40
5.0
  1
ETGNR2525M33W
 72
     4
 11
-74.99999999999994
 21
-51.99999999999997
 31
0.0
100
AcDbText
  0
LINE
  5
11D7
330
1F
100
AcDbEntity
  8
AM_0
100
AcDbLine
 10
-24.21632486540558
 20
-6.499999999999966
 30
0.0
 11
-20.46354811567302
 21
-0.000000000000012
 31
0.0
  0
LINE
  5
11DB
330
1F
100
AcDbEntity
  8
AM_0
100
AcDbLine
 10
-25.08235026919001
 20
-6.999999999999968
 30
0.0
 11
-149.9999999999999
 21
-6.999999999999982
 31
0.0
  0
ARC
  5
11DC
330
1F
100
AcDbEntity
  8
AM_0
100
AcDbCircle
 10
-25.08235026919001
 20
-5.999999999999967
 30
0.0
 40
1.0
100
AcDbArc
 50
270.0
 51
329.9999999999999
1001
GENIUS_GENODEF_13
1002
{
1000
HIER
1070
     0
1002
}
1002
{
1000
MANEDIT
1070
     0
1002
}
1002
{
1000
NOSEL
1070
     0
1002
}
1002
{
1000
BEHIND
1070
     0
1002
}
1002
{
1000
REACTOR
1002
}
1001
GENIUS_GENOBJ-N-FIL_13
1002
{
1000
OWNER
1000
GEN
1002
}
  0
CIRCLE
  5
1421
330
1F
100
AcDbEntity
  8
AM_0
100
AcDbCircle
 10
-7.663251324991706
 20
-4.762499999999987
 30
0.0
 40
2.0
  0
VIEWPORT
  5
110
330
101
100
AcDbEntity
 67
     1
  8
0
100
AcDbViewport
 10
420.4970397949218
 20
296.989501953125
 30
0.0
 40
889.7716070556642
 41
659.5415108616568
 68
     1
 69
     1
1001
ACAD
1000
MVIEW
1002
{
1070
    16
1010
0.0
1020
0.0
1030
0.0
1010
0.0
1020
0.0
1030
1.0
1040
0.0
1040
659.5415108616568
1040
420.4970397949218
1040
296.989501953125
1040
50.0
1040
0.0
1040
0.0
1070
     0
1070
   100
1070
     1
1070
     1
1070
     0
1070
     0
1070
     0
1070
     0
1040
0.0
1040
0.0
1040
0.0
1040
10.0
1040
10.0
1040
10.0
1040
10.0
1070
     0
1002
{
1002
}
1002
}
1001
GENIUS_GENOREF_13
1005
144A
1001
GENIUS_GENSCREG_15
1000
PF
1040
1.0
1000
DF
1040
1.0
1000
MIN
1011
-24.3887637329102
1021
-32.78125347770344
1031
0.0
1000
MAX
1011
865.3828433227541
1021
626.7602573839533
1031
0.0
1000
FLAGS
1070
     4
  0
ENDSEC
  0
SECTION
  2
OBJECTS
  0
DICTIONARY
  5
C
330
0
100
AcDbDictionary
  3
ACAD_GROUP
350
D
  3
ACAD_LAYOUT
350
1A
  3
ACAD_MLINESTYLE
350
17
  3
ACAD_PLOTSETTINGS
350
19
  3
ACAD_PLOTSTYLENAME
350
E
  3
ACDBVARIABLEDICTIONARY
350
34
  3
ACMDICTIONARY
350
43
  3
AMG
350
2B
  3
AMGSNAPSETTINGS
350
6E
  3
DWGPROPS
350
143C
  3
ACDBHEADERROUNDTRIPXREC
350
1453
  0
DICTIONARY
  5
74
330
1F
100
AcDbDictionary
280
     1
  3
ACAD_INDEX
360
143E
  3
ACAD_LAYOUTSELFREF
360
1476
  0
DICTIONARY
  5
147B
330
101
100
AcDbDictionary
280
     1
  3
ACAD_LAYOUTSELFREF
360
147C
  0
DICTIONARY
  5
D
102
{ACAD_REACTORS
330
C
102
}
330
C
100
AcDbDictionary
  0
DICTIONARY
  5
1A
102
{ACAD_REACTORS
330
C
102
}
330
C
100
AcDbDictionary
  0
DICTIONARY
  5
17
102
{ACAD_REACTORS
330
C
102
}
330
C
100
AcDbDictionary
  3
STANDARD
350
18
  0
DICTIONARY
  5
19
102
{ACAD_REACTORS
330
C
102
}
330
C
100
AcDbDictionary
  0
ACDBDICTIONARYWDFLT
  5
E
102
{ACAD_REACTORS
330
C
102
}
330
C
100
AcDbDictionary
281
     1
  3
Normal
350
F
100
AcDbDictionaryWithDefault
340
F
  0
DICTIONARY
  5
34
102
{ACAD_REACTORS
330
C
102
}
330
C
100
AcDbDictionary
  3
INDEXCTL
350
35
  3
SORTENTS
350
B5E
  0
DICTIONARY
  5
43
102
{ACAD_REACTORS
330
C
102
}
330
C
100
AcDbDictionary
  3
ACMSTDDICTIONARY
350
260
  0
DICTIONARY
  5
2B
102
{ACAD_REACTORS
330
C
102
}
330
C
100
AcDbDictionary
  3
ACMGSETTINGS
350
2C
  0
DICTIONARY
  5
6E
102
{ACAD_REACTORS
330
C
102
}
330
C
100
AcDbDictionary
  0
XRECORD
  5
143C
102
{ACAD_REACTORS
330
C
102
}
330
C
100
AcDbXrecord
  1
DWGPROPS COOKIE
  2

  3

  4

  6

  7

  8

  9

300
AmdtFileType=82
301
=
302
=
303
=
304
=
305
=
306
=
307
=
308
=
309
=
 40
0.0426564236111111
 41
2452902.573994131
 42
2453179.566846875
  1

 90
        1
  0
DICTIONARY
  5
1453
102
{ACAD_REACTORS
330
C
102
}
330
C
100
AcDbDictionary
  3
TSTACKALIGN
350
1454
  3
TSTACKSIZE
350
1455
  3
HYPERLINKBASE
350
1456
  3
STYLESHEET
350
1457
  3
LAYOUTDICT
350
1458
  3
PLOTSETDICT
350
1459
  3
PLOTSTYLNAMDICT
350
145A
  3
LWETCUNION
350
145B
  3
INSUNITS
350
145C
  3
CEPSNTYPE
350
145D
  3
FINGERPRINTGUID
350
145E
  3
VERSIONGUID
350
145F
  3
PSVPSCALE
350
1460
  3
DIMSTYLEDATA
350
1461
  3
PUCSORTHOREF
350
1462
  3
PUCSORTHOVIEW
350
1463
  3
PUCSBASE
350
1464
  3
PUCSORGTOP
350
1465
  3
PUCSORGBOTTOM
350
1466
  3
PUCSORGLEFT
350
1467
  3
PUCSORGRIGHT
350
1468
  3
PUCSORGFRONT
350
1469
  3
PUCSORGBACK
350
146A
  3
UCSORTHOREF
350
146B
  3
UCSORTHOVIEW
350
146C
  3
UCSBASE
350
146D
  3
UCSORGTOP
350
146E
  3
UCSORGBOTTOM
350
146F
  3
UCSORGLEFT
350
1470
  3
UCSORGRIGHT
350
1471
  3
UCSORGFRONT
350
1472
  3
UCSORGBACK
350
1473
  0
DICTIONARY
  5
143E
102
{ACAD_REACTORS
330
74
102
}
330
74
100
AcDbDictionary
  3
*A1
350
143F
  0
XRECORD
  5
1476
102
{ACAD_REACTORS
330
74
102
}
330
74
100
AcDbXrecord
340
1F
  0
XRECORD
  5
147C
102
{ACAD_REACTORS
330
147B
102
}
330
147B
100
AcDbXrecord
340
101
  0
MLINESTYLE
  5
18
102
{ACAD_REACTORS
330
17
102
}
330
17
100
AcDbMlineStyle
  2
STANDARD
 70
     0
  3

 62
   256
 51
90.0
 52
90.0
 71
     2
 49
0.5
 62
   256
  6
BYLAYER
 49
-0.5
 62
   256
  6
BYLAYER
  0
ACDBPLACEHOLDER
  5
F
102
{ACAD_REACTORS
330
E
102
}
330
E
100
AcDbPlaceHolder
280
     0
  0
DICTIONARYVAR
  5
35
102
{ACAD_REACTORS
330
34
102
}
330
34
100
DictionaryVariables
280
     0
  1
1
  0
DICTIONARYVAR
  5
B5E
102
{ACAD_REACTORS
330
34
102
}
330
34
100
DictionaryVariables
280
     0
  1
96
  0
DICTIONARY
  5
260
102
{ACAD_REACTORS
330
43
102
}
330
43
100
AcDbDictionary
  0
DICTIONARY
  5
2C
102
{ACAD_REACTORS
330
2B
102
}
330
2B
100
AcDbDictionary
  3
DWGSETTINGS
350
2D
  0
XRECORD
  5
1454
102
{ACAD_REACTORS
330
1453
102
}
330
1453
100
AcDbXrecord
 90
        1
  0
XRECORD
  5
1455
102
{ACAD_REACTORS
330
1453
102
}
330
1453
100
AcDbXrecord
 90
       70
  0
XRECORD
  5
1456
102
{ACAD_REACTORS
330
1453
102
}
330
1453
100
AcDbXrecord
  1

  0
XRECORD
  5
1457
102
{ACAD_REACTORS
330
1453
102
}
330
1453
100
AcDbXrecord
  1
ASAMI.ctb
  0
XRECORD
  5
1458
102
{ACAD_REACTORS
330
1453
102
}
330
1453
100
AcDbXrecord
340
1A
  0
XRECORD
  5
1459
102
{ACAD_REACTORS
330
1453
102
}
330
1453
100
AcDbXrecord
340
19
  0
XRECORD
  5
145A
102
{ACAD_REACTORS
330
1453
102
}
330
1453
100
AcDbXrecord
340
E
  0
XRECORD
  5
145B
102
{ACAD_REACTORS
330
1453
102
}
330
1453
100
AcDbXrecord
 90
    10781
  0
XRECORD
  5
145C
102
{ACAD_REACTORS
330
1453
102
}
330
1453
100
AcDbXrecord
 90
        4
  0
XRECORD
  5
145D
102
{ACAD_REACTORS
330
1453
102
}
330
1453
100
AcDbXrecord
 90
        0
  0
XRECORD
  5
145E
102
{ACAD_REACTORS
330
1453
102
}
330
1453
100
AcDbXrecord
  1
{AFB28963-8C59-40AE-9337-C84526B81ACE}
  0
XRECORD
  5
145F
102
{ACAD_REACTORS
330
1453
102
}
330
1453
100
AcDbXrecord
  1
{5B694D3C-FB8D-445D-90E5-E5608F597E78}
  0
XRECORD
  5
1460
102
{ACAD_REACTORS
330
1453
102
}
330
1453
100
AcDbXrecord
 40
0.0
  0
XRECORD
  5
1461
102
{ACAD_REACTORS
330
1453
102
}
330
1453
100
AcDbXrecord
1000
DSTYLE
1002
{
1070
    79
 70
     2
1070
   341
340
59
1070
   342
340
59
1070
   371
 70
    -1
1070
   372
 70
    -1
1002
}
  0
XRECORD
  5
1462
102
{ACAD_REACTORS
330
1453
102
}
330
1453
100
AcDbXrecord
340
0
  0
XRECORD
  5
1463
102
{ACAD_REACTORS
330
1453
102
}
330
1453
100
AcDbXrecord
 70
     0
  0
XRECORD
  5
1464
102
{ACAD_REACTORS
330
1453
102
}
330
1453
100
AcDbXrecord
340
0
  0
XRECORD
  5
1465
102
{ACAD_REACTORS
330
1453
102
}
330
1453
100
AcDbXrecord
 10
0.0
 20
0.0
 30
0.0
  0
XRECORD
  5
1466
102
{ACAD_REACTORS
330
1453
102
}
330
1453
100
AcDbXrecord
 10
0.0
 20
0.0
 30
0.0
  0
XRECORD
  5
1467
102
{ACAD_REACTORS
330
1453
102
}
330
1453
100
AcDbXrecord
 10
0.0
 20
0.0
 30
0.0
  0
XRECORD
  5
1468
102
{ACAD_REACTORS
330
1453
102
}
330
1453
100
AcDbXrecord
 10
0.0
 20
0.0
 30
0.0
  0
XRECORD
  5
1469
102
{ACAD_REACTORS
330
1453
102
}
330
1453
100
AcDbXrecord
 10
0.0
 20
0.0
 30
0.0
  0
XRECORD
  5
146A
102
{ACAD_REACTORS
330
1453
102
}
330
1453
100
AcDbXrecord
 10
0.0
 20
0.0
 30
0.0
  0
XRECORD
  5
146B
102
{ACAD_REACTORS
330
1453
102
}
330
1453
100
AcDbXrecord
340
0
  0
XRECORD
  5
146C
102
{ACAD_REACTORS
330
1453
102
}
330
1453
100
AcDbXrecord
 70
     0
  0
XRECORD
  5
146D
102
{ACAD_REACTORS
330
1453
102
}
330
1453
100
AcDbXrecord
340
0
  0
XRECORD
  5
146E
102
{ACAD_REACTORS
330
1453
102
}
330
1453
100
AcDbXrecord
 10
0.0
 20
0.0
 30
0.0
  0
XRECORD
  5
146F
102
{ACAD_REACTORS
330
1453
102
}
330
1453
100
AcDbXrecord
 10
0.0
 20
0.0
 30
0.0
  0
XRECORD
  5
1470
102
{ACAD_REACTORS
330
1453
102
}
330
1453
100
AcDbXrecord
 10
0.0
 20
0.0
 30
0.0
  0
XRECORD
  5
1471
102
{ACAD_REACTORS
330
1453
102
}
330
1453
100
AcDbXrecord
 10
0.0
 20
0.0
 30
0.0
  0
XRECORD
  5
1472
102
{ACAD_REACTORS
330
1453
102
}
330
1453
100
AcDbXrecord
 10
0.0
 20
0.0
 30
0.0
  0
XRECORD
  5
1473
102
{ACAD_REACTORS
330
1453
102
}
330
1453
100
AcDbXrecord
 10
0.0
 20
0.0
 30
0.0
  0
LAYER_INDEX
  5
143F
102
{ACAD_REACTORS
330
143E
102
}
330
143E
100
AcDbIndex
 40
2453180.398010335
100
AcDbLayerIndex
  8
0
360
1440
 90
        0
  8
AM_0
360
1441
 90
       54
  8
AM_11
360
1442
 90
        4
  8
AM_5
360
1443
 90
        8
  8
AM_7
360
1444
 90
        2
  8
Defpoints
360
1445
 90
        0
  8
AM_6
360
1446
 90
        1
  8
AM_CL
360
1447
 90
        0
  0
XRECORD
  5
2D
102
{ACAD_REACTORS
330
2C
102
}
330
2C
100
AcDbXrecord
  1
VERSION
140
15.0
  1
PRODUCT
  2
AutoCAD Mechanical 2000
  0
IDBUFFER
  5
1440
330
0
100
AcDbIdBuffer
  0
IDBUFFER
  5
1441
330
0
100
AcDbIdBuffer
330
F1A
330
F20
330
11D7
330
11DB
330
11DC
330
1421
330
BD8
330
BD9
330
C3A
330
C3B
330
C3C
330
C3D
330
D38
330
D61
330
D84
330
D8D
330
DA0
330
DAC
330
DB1
330
DB2
330
DB6
330
DE4
330
DE5
330
DE6
330
DE7
330
DEC
330
DF5
330
E16
330
E41
330
E42
330
E45
330
E46
330
E47
330
E48
330
E8C
330
E8E
330
E90
330
E91
330
E92
330
E93
330
E94
330
EA9
330
EB1
330
EB5
330
EED
330
EEE
330
EEF
330
EF0
330
EF2
330
EF4
330
EF5
330
F01
330
F0E
330
F16
  0
IDBUFFER
  5
1442
330
0
100
AcDbIdBuffer
330
D45
330
D4A
330
E43
330
E44
  0
IDBUFFER
  5
1443
330
0
100
AcDbIdBuffer
330
F52
330
F53
330
FB8
330
100B
330
100C
330
100D
330
1093
330
111B
  0
IDBUFFER
  5
1444
330
0
100
AcDbIdBuffer
330
E9C
330
EF1
  0
IDBUFFER
  5
1445
330
0
100
AcDbIdBuffer
  0
IDBUFFER
  5
1446
330
0
100
AcDbIdBuffer
330
11A9
  0
IDBUFFER
  5
1447
330
0
100
AcDbIdBuffer
  0
ENDSEC
  0
EOF
