  0
SECTION
  2
HEADER
  9
$ACADVER
  1
AC1015
  9
$ACADMAINTVER
 70
     6
  9
$DWGCODEPAGE
  3
ANSI_932
  9
$INSBASE
 10
0.0
 20
0.0
 30
0.0
  9
$EXTMIN
 10
-83.9515674497834
 20
-111.4664451591279
 30
-0.0015258207003583
  9
$EXTMAX
 10
181.2225351415373
 20
72.18734803223902
 30
0.0000000349246037
  9
$LIMMIN
 10
-215.0
 20
-153.5
  9
$LIMMAX
 10
215.0
 20
153.5
  9
$ORTHOMODE
 70
     1
  9
$REGENMODE
 70
     1
  9
$FILLMODE
 70
     1
  9
$QTEXTMODE
 70
     0
  9
$MIRRTEXT
 70
     1
  9
$LTSCALE
 40
1.0
  9
$ATTMODE
 70
     1
  9
$TEXTSIZE
 40
2.5
  9
$TRACEWID
 40
1.0
  9
$TEXTSTYLE
  7
STANDARD
  9
$CLAYER
  8
AM_0
  9
$CELTYPE
  6
ByLayer
  9
$CECOLOR
 62
   256
  9
$CELTSCALE
 40
1.0
  9
$DISPSILH
 70
     0
  9
$DIMSCALE
 40
1.0
  9
$DIMASZ
 40
2.5
  9
$DIMEXO
 40
0.0
  9
$DIMDLI
 40
10.0
  9
$DIMRND
 40
0.0
  9
$DIMDLE
 40
0.0
  9
$DIMEXE
 40
1.0
  9
$DIMTP
 40
0.1
  9
$DIMTM
 40
0.1000000001
  9
$DIMTXT
 40
3.8
  9
$DIMCEN
 40
0.0
  9
$DIMTSZ
 40
0.0
  9
$DIMTOL
 70
     0
  9
$DIMLIM
 70
     0
  9
$DIMTIH
 70
     0
  9
$DIMTOH
 70
     0
  9
$DIMSE1
 70
     0
  9
$DIMSE2
 70
     0
  9
$DIMTAD
 70
     3
  9
$DIMZIN
 70
     1
  9
$DIMBLK
  1
Open30
  9
$DIMASO
 70
     1
  9
$DIMSHO
 70
     1
  9
$DIMPOST
  1

  9
$DIMAPOST
  1
"
  9
$DIMALT
 70
     0
  9
$DIMALTD
 70
     2
  9
$DIMALTF
 40
0.0393701
  9
$DIMLFAC
 40
1.0
  9
$DIMTOFL
 70
     1
  9
$DIMTVP
 40
0.0
  9
$DIMTIX
 70
     0
  9
$DIMSOXD
 70
     0
  9
$DIMSAH
 70
     0
  9
$DIMBLK1
  1

  9
$DIMBLK2
  1

  9
$DIMSTYLE
  2
AM_JIS
  9
$DIMCLRD
 70
     3
  9
$DIMCLRE
 70
     3
  9
$DIMCLRT
 70
     2
  9
$DIMTFAC
 40
0.71
  9
$DIMGAP
 40
1.5
  9
$DIMJUST
 70
     0
  9
$DIMSD1
 70
     0
  9
$DIMSD2
 70
     0
  9
$DIMTOLJ
 70
     0
  9
$DIMTZIN
 70
     8
  9
$DIMALTZ
 70
     0
  9
$DIMALTTZ
 70
     0
  9
$DIMUPT
 70
     0
  9
$DIMDEC
 70
     0
  9
$DIMTDEC
 70
     2
  9
$DIMALTU
 70
     2
  9
$DIMALTTD
 70
     2
  9
$DIMTXSTY
  7
STANDARD
  9
$DIMAUNIT
 70
     1
  9
$DIMADEC
 70
     0
  9
$DIMALTRND
 40
0.0
  9
$DIMAZIN
 70
     2
  9
$DIMDSEP
 70
    46
  9
$DIMATFIT
 70
     3
  9
$DIMFRAC
 70
     0
  9
$DIMLDRBLK
  1
Open30
  9
$DIMLUNIT
 70
     2
  9
$DIMLWD
 70
    13
  9
$DIMLWE
 70
    13
  9
$DIMTMOVE
 70
     0
  9
$LUNITS
 70
     2
  9
$LUPREC
 70
     2
  9
$SKETCHINC
 40
1.0
  9
$FILLETRAD
 40
2.5
  9
$AUNITS
 70
     1
  9
$AUPREC
 70
     5
  9
$MENU
  1
.
  9
$ELEVATION
 40
0.0
  9
$PELEVATION
 40
0.0
  9
$THICKNESS
 40
0.0
  9
$LIMCHECK
 70
     0
  9
$CHAMFERA
 40
2.5
  9
$CHAMFERB
 40
2.5
  9
$CHAMFERC
 40
20.0
  9
$CHAMFERD
 40
0.0
  9
$SKPOLY
 70
     0
  9
$TDCREATE
 40
2451948.610903461
  9
$TDUCREATE
 40
2451948.235903461
  9
$TDUPDATE
 40
2455463.479438287
  9
$TDUUPDATE
 40
2455463.104438287
  9
$TDINDWG
 40
0.2378247338
  9
$TDUSRTIMER
 40
0.2377906597
  9
$USRTIMER
 70
     1
  9
$ANGBASE
 50
0.0
  9
$ANGDIR
 70
     0
  9
$PDMODE
 70
     0
  9
$PDSIZE
 40
0.0
  9
$PLINEWID
 40
0.0
  9
$SPLFRAME
 70
     0
  9
$SPLINETYPE
 70
     6
  9
$SPLINESEGS
 70
     8
  9
$HANDSEED
  5
30B6
  9
$SURFTAB1
 70
     6
  9
$SURFTAB2
 70
     6
  9
$SURFTYPE
 70
     6
  9
$SURFU
 70
     6
  9
$SURFV
 70
     6
  9
$UCSBASE
  2

  9
$UCSNAME
  2

  9
$UCSORG
 10
0.0
 20
0.0
 30
0.0
  9
$UCSXDIR
 10
1.0
 20
0.0
 30
0.0
  9
$UCSYDIR
 10
0.0
 20
1.0
 30
0.0
  9
$UCSORTHOREF
  2

  9
$UCSORTHOVIEW
 70
     0
  9
$UCSORGTOP
 10
0.0
 20
0.0
 30
0.0
  9
$UCSORGBOTTOM
 10
0.0
 20
0.0
 30
0.0
  9
$UCSORGLEFT
 10
0.0
 20
0.0
 30
0.0
  9
$UCSORGRIGHT
 10
0.0
 20
0.0
 30
0.0
  9
$UCSORGFRONT
 10
0.0
 20
0.0
 30
0.0
  9
$UCSORGBACK
 10
0.0
 20
0.0
 30
0.0
  9
$PUCSBASE
  2

  9
$PUCSNAME
  2

  9
$PUCSORG
 10
0.0
 20
0.0
 30
0.0
  9
$PUCSXDIR
 10
1.0
 20
0.0
 30
0.0
  9
$PUCSYDIR
 10
0.0
 20
1.0
 30
0.0
  9
$PUCSORTHOREF
  2

  9
$PUCSORTHOVIEW
 70
     0
  9
$PUCSORGTOP
 10
0.0
 20
0.0
 30
0.0
  9
$PUCSORGBOTTOM
 10
0.0
 20
0.0
 30
0.0
  9
$PUCSORGLEFT
 10
0.0
 20
0.0
 30
0.0
  9
$PUCSORGRIGHT
 10
0.0
 20
0.0
 30
0.0
  9
$PUCSORGFRONT
 10
0.0
 20
0.0
 30
0.0
  9
$PUCSORGBACK
 10
0.0
 20
0.0
 30
0.0
  9
$USERI1
 70
     0
  9
$USERI2
 70
     0
  9
$USERI3
 70
     0
  9
$USERI4
 70
     0
  9
$USERI5
 70
     0
  9
$USERR1
 40
0.0
  9
$USERR2
 40
0.0
  9
$USERR3
 40
0.0
  9
$USERR4
 40
0.0
  9
$USERR5
 40
0.0
  9
$WORLDVIEW
 70
     1
  9
$SHADEDGE
 70
     3
  9
$SHADEDIF
 70
    70
  9
$TILEMODE
 70
     1
  9
$MAXACTVP
 70
    64
  9
$PINSBASE
 10
0.0
 20
0.0
 30
0.0
  9
$PLIMCHECK
 70
     0
  9
$PEXTMIN
 10
1.000000000000000E+20
 20
1.000000000000000E+20
 30
1.000000000000000E+20
  9
$PEXTMAX
 10
-1.000000000000000E+20
 20
-1.000000000000000E+20
 30
-1.000000000000000E+20
  9
$PLIMMIN
 10
0.0
 20
0.0
  9
$PLIMMAX
 10
420.0
 20
297.0
  9
$UNITMODE
 70
     0
  9
$VISRETAIN
 70
     1
  9
$PLINEGEN
 70
     0
  9
$PSLTSCALE
 70
     1
  9
$TREEDEPTH
 70
  3020
  9
$CMLSTYLE
  2
Standard
  9
$CMLJUST
 70
     0
  9
$CMLSCALE
 40
20.0
  9
$PROXYGRAPHICS
 70
     1
  9
$MEASUREMENT
 70
     1
  9
$CELWEIGHT
370
    13
  9
$ENDCAPS
280
     0
  9
$JOINSTYLE
280
     0
  9
$LWDISPLAY
290
     0
  9
$INSUNITS
 70
     4
  9
$HYPERLINKBASE
  1

  9
$STYLESHEET
  1
sei_cad.ctb
  9
$XEDIT
290
     1
  9
$CEPSNTYPE
380
     0
  9
$PSTYLEMODE
290
     1
  9
$FINGERPRINTGUID
  2
{403304E0-8DA2-11D3-AB8C-000629E2A613}
  9
$VERSIONGUID
  2
{A88BF1C0-64FA-46FD-860C-0FE4DC43FD5F}
  9
$EXTNAMES
290
     1
  9
$PSVPSCALE
 40
0.0
  9
$OLESTARTUP
290
     0
  0
ENDSEC
  0
SECTION
  2
CLASSES
  0
CLASS
  1
ACDBDICTIONARYWDFLT
  2
AcDbDictionaryWithDefault
  3
ObjectDBX Classes
 90
        0
280
     0
281
     0
  0
CLASS
  1
ACDBPLACEHOLDER
  2
AcDbPlaceHolder
  3
ObjectDBX Classes
 90
        0
280
     0
281
     0
  0
CLASS
  1
LAYOUT
  2
AcDbLayout
  3
ObjectDBX Classes
 90
        0
280
     0
281
     0
  0
CLASS
  1
ACME_DOCUMENT
  2
AcMeDbDoc
  3
AcMeServices
 90
        0
280
     1
281
     0
  0
CLASS
  1
ACMESCOPE
  2
AcMeScope
  3
AcMeServices
 90
        0
280
     1
281
     0
  0
CLASS
  1
ACMECOMMANDHISTORY
  2
AcMeCommandHistory
  3
AcMeServices
 90
        0
280
     1
281
     0
  0
CLASS
  1
DICTIONARYVAR
  2
AcDbDictionaryVar
  3
ObjectDBX Classes
 90
        0
280
     0
281
     0
  0
CLASS
  1
ACIMSYSVARMAN
  2
AcImSysVarManager
  3
AcMeServices
 90
        0
280
     1
281
     0
  0
CLASS
  1
ACIMREALSYSVAR
  2
AcImRealSysVar
  3
AcMeServices
 90
        0
280
     1
281
     0
  0
CLASS
  1
ACIMINTSYSVAR
  2
AcImIntSysVar
  3
AcMeServices
 90
        0
280
     1
281
     0
  0
CLASS
  1
ACMEDRAWINGMAN
  2
AcMeDrawingMan
  3
AcMeServices
 90
        0
280
     1
281
     0
  0
CLASS
  1
ACMEVIEW
  2
AcMeView
  3
AcMeServices
 90
        0
280
     1
281
     0
  0
CLASS
  1
ACDBENTITYCACHE
  2
AcMeEntityCache
  3
AcMeServices
 90
        0
280
     1
281
     0
  0
CLASS
  1
GSMANAGER
  2
AcMeGSManager
  3
AcMeServices
 90
        0
280
     1
281
     0
  0
CLASS
  1
AMDTINTERNALREACTOR
  2
AmdtInternalReactor
  3
AcMeServices
 90
        0
280
     1
281
     0
  0
CLASS
  1
ACMESTATEMGR
  2
AcMeStateMgr
  3
AcMeServices
 90
        0
280
     1
281
     0
  0
CLASS
  1
ACME_DATABASE
  2
AcMeDbDatabase
  3
AcMeServices
 90
        0
280
     1
281
     0
  0
CLASS
  1
ACRFINSADJUSTERMGR
  2
AcRfInsAdjusterMgr
  3
AcMeServices
 90
        0
280
     1
281
     0
  0
CLASS
  1
AMGSETTINGSOBJ
  2
AmgSettingsObj
  3
"AcadM|Product Description: AutoCAD Mechanical 2000|Company: Autodesk"
 90
        0
280
     1
281
     0
  0
CLASS
  1
ACMDATADICTIONARY
  2
AcmDataDictionary
  3
"AcmSymBB|Product Description: AutoCAD Mechanical 2004 DX|Company: Autodesk"
 90
        0
280
     1
281
     0
  0
CLASS
  1
ACMDATAENTRYBLOCK
  2
AcmDataEntryBlock
  3
"AcmSymBB|Product Description: AutoCAD Mechanical 2004 DX|Company: Autodesk"
 90
        0
280
     1
281
     0
  0
CLASS
  1
AMGOBJPROPCFG
  2
AmgObjPropCfg
  3
"AmgLay|Product Description: AutoCAD Mechanical 2000|Company: Autodesk"
 90
        1
280
     1
281
     0
  0
CLASS
  1
ACAMGFILTERDAT
  2
AcAmgFilterDat
  3
"AcadM|Product Description: AutoCAD Mechanical 2000|Company: Autodesk"
 90
        0
280
     1
281
     0
  0
CLASS
  1
LAYER_INDEX
  2
AcDbLayerIndex
  3
ObjectDBX Classes
 90
        0
280
     0
281
     0
  0
CLASS
  1
IDBUFFER
  2
AcDbIdBuffer
  3
ObjectDBX Classes
 90
        0
280
     0
281
     0
  0
CLASS
  1
ACIMSTRSYSVAR
  2
AcImStrSysVar
  3
AcMeServices
 90
        0
280
     1
281
     0
  0
CLASS
  1
ACMSTANDARDJIS
  2
AcmStandardJIS
  3
"Amdt_StdImp|Product Description: AutoCAD Mechanical 2004 DX|Company: Autodesk"
 90
        0
280
     1
281
     0
  0
CLASS
  1
ACMSURFSTANDARDJIS
  2
AcmSurfTextStdJIS
  3
"Amdt_StdImp|Product Description: AutoCAD Mechanical 2004 DX|Company: Autodesk"
 90
        0
280
     1
281
     0
  0
CLASS
  1
ACMFCFSTANDARDJIS
  2
AcmFCFStdJIS
  3
"Amdt_StdImp|Product Description: AutoCAD Mechanical 2004 DX|Company: Autodesk"
 90
        0
280
     1
281
     0
  0
CLASS
  1
ACMWELDSTANDARDJIS
  2
AcmWeldingStdJIS
  3
"Amdt_StdImp|Product Description: AutoCAD Mechanical 2004 DX|Company: Autodesk"
 90
        0
280
     1
281
     0
  0
CLASS
  1
ACMIDSTANDARDJIS
  2
AcmIdStdJIS
  3
"Amdt_StdImp|Product Description: AutoCAD Mechanical 2004 DX|Company: Autodesk"
 90
        0
280
     1
281
     0
  0
CLASS
  1
ACMDATUMSTANDARDJIS
  2
AcmDatumStdJIS
  3
"Amdt_StdImp|Product Description: AutoCAD Mechanical 2004 DX|Company: Autodesk"
 90
        0
280
     1
281
     0
  0
CLASS
  1
ACMBOMSTANDARDJIS
  2
AcmBOMStdJIS
  3
"Amdt_StdImp|Product Description: AutoCAD Mechanical 2004 DX|Company: Autodesk"
 90
        0
280
     1
281
     0
  0
CLASS
  1
TABLESTYLE
  2
AcDbTableStyle
  3
ObjectDBX Classes
 90
     2047
280
     0
281
     0
  0
CLASS
  1
ACGREFMASTER
  2
AcGrefMaster
  3
AcAttribServices
 90
        0
280
     1
281
     0
  0
CLASS
  1
AM_DRAWING_MGR
  2
AcDmDwgMgr
  3
AcMechDwgViewMgmt
 90
        0
280
     1
281
     0
  0
CLASS
  1
AM_DWG_DOCUMENT
  2
AcDmDwgDocument
  3
AcMechDwgViewMgmt
 90
        0
280
     1
281
     0
  0
CLASS
  1
AM_DWG_SHEET
  2
AcDmSheet
  3
AcMechDwgViewMgmt
 90
        0
280
     1
281
     0
  0
CLASS
  1
AM_VIEWDIMPARMAP
  2
AcDmViewDimParMap
  3
AcMechDwgViewMgmt
 90
        0
280
     1
281
     0
  0
CLASS
  1
AM_DWGMGR_NAME
  2
AcDmDwgMgrName
  3
AcMechDwgViewMgmt
 90
        0
280
     1
281
     0
  0
CLASS
  1
ACGREFACADMASTER
  2
AcGrefacadMaster
  3
AcGrefServices
 90
        0
280
     1
281
     0
  0
CLASS
  1
AMDTMENUSTATEMGR
  2
AmdtMenuStateMgr
  3
McadcomServices
 90
        0
280
     1
281
     0
  0
CLASS
  1
AMDTMCOMMENUSTATE
  2
AmdtMcomMenuState
  3
McadcomServices
 90
        0
280
     1
281
     0
  0
CLASS
  1
AMIMASTER
  2
AmiMaster
  3
AmiServices
 90
        0
280
     1
281
     0
  0
CLASS
  1
MAPIAMMOUDLE
  2
MApiAmModule
  3
MApiAmServices
 90
        0
280
     1
281
     0
  0
CLASS
  1
AMDTADMENUSTATE
  2
AmdtAdMenuState
  3
DesignerServices
 90
        0
280
     1
281
     0
  0
CLASS
  1
ADAPPL
  2
AcAdAppl
  3
DesignerServices
 90
        0
280
     1
281
     0
  0
CLASS
  1
DEPMGR
  2
AcAdDepMgr
  3
DesignerServices
 90
        0
280
     1
281
     0
  0
CLASS
  1
PARAMMGR
  2
AcAdParamMgr
  3
DesignerServices
 90
        0
280
     1
281
     0
  0
CLASS
  1
PARAMSCOPE
  2
AcAdParamScope
  3
DesignerServices
 90
        0
280
     1
281
     0
  0
CLASS
  1
NAMEDAPPL
  2
AcAdNamedAppl
  3
DesignerServices
 90
        0
280
     1
281
     0
  0
CLASS
  1
AMDTDMMENUSTATE
  2
AmdtDmMenuState
  3
AcMechDwgViewMgmt
 90
        0
280
     1
281
     0
  0
CLASS
  1
AMDTAMMENUSTATE
  2
AmdtAmMenuState
  3
DesignerAssemblies
 90
        0
280
     1
281
     0
  0
CLASS
  1
ACAMPROJECT
  2
AcAmProject
  3
DesignerAssemblies
 90
        0
280
     1
281
     0
  0
CLASS
  1
ACAMGRCOMPDEF
  2
AcAmGrCompDef
  3
DesignerAssemblies
 90
        0
280
     1
281
     0
  0
CLASS
  1
ACCMCONTEXT
  2
AcCmContext
  3
DesignerAssemblies
 90
        0
280
     1
281
     0
  0
CLASS
  1
ACAMCOMPDEF
  2
AcAmCompDef
  3
DesignerAssemblies
 90
        0
280
     1
281
     0
  0
CLASS
  1
ACAMCOMPDEFMGR
  2
AcAmCompDefMgr
  3
DesignerAssemblies
 90
        0
280
     1
281
     0
  0
CLASS
  1
AMCONTEXTMGR
  2
AcAmContextMgr
  3
DesignerAssemblies
 90
        0
280
     1
281
     0
  0
CLASS
  1
ACAMCONTEXTMODELER
  2
AcAmContextModeler
  3
DesignerAssemblies
 90
        0
280
     1
281
     0
  0
CLASS
  1
ACAMGTITLESTD
  2
AcAmgTitleStd
  3
"TITLEAPP"
 90
        0
280
     1
281
     0
  0
CLASS
  1
ACMDETAILSTANDARDJIS
  2
AmdtDetailSymStdJIS
  3
"Amdt_StdImp|Product Description: AutoCAD Mechanical 2004 DX|Company: Autodesk"
 90
        0
280
     1
281
     0
  0
CLASS
  1
ACMSECTIONSTANDARDJIS
  2
AmdtSectionSymStdJIS
  3
"Amdt_StdImp|Product Description: AutoCAD Mechanical 2004 DX|Company: Autodesk"
 90
        0
280
     1
281
     0
  0
CLASS
  1
ACMCENTERLINESTANDARDJIS
  2
AmdtCenterLineStdJIS
  3
"Amdt_StdImp|Product Description: AutoCAD Mechanical 2004 DX|Company: Autodesk"
 90
        0
280
     1
281
     0
  0
CLASS
  1
ACMTHREADLINESTANDARDJIS
  2
AmdtThreadLineStdJIS
  3
"Amdt_StdImp|Product Description: AutoCAD Mechanical 2004 DX|Company: Autodesk"
 90
        0
280
     1
281
     0
  0
CLASS
  1
ACMNOTESTANDARDJIS
  2
AmdtNoteStdJIS
  3
"Amdt_StdImp|Product Description: AutoCAD Mechanical 2004 DX|Company: Autodesk"
 90
        0
280
     1
281
     0
  0
CLASS
  1
AMDTNOTETEMPLATEDB
  2
AmdtNoteTemplateDB
  3
AMDT_STDIMP_MODULE_NAME
 90
        0
280
     1
281
     0
  0
CLASS
  1
ACAMGLAYSTD
  2
AcAmgLayStd
  3
"AcAmgLayStd|Product Description: AutoCAD Mechanical 2000|Company: Autodesk"
 90
        0
280
     1
281
     0
  0
CLASS
  1
ACAMGDIMSTD
  2
AcAmgDimStd
  3
"AcAmgDimStd|Product Description: AutoCAD Mechanical 2000|Company: Autodesk"
 90
        0
280
     1
281
     0
  0
CLASS
  1
ACAMGHOLECHARTSTDJIS
  2
AcAmgHoleChartStdJIS
  3
ACMSYMBB_MODULE_NAME
 90
        0
280
     1
281
     0
  0
CLASS
  1
CATALOGSTATE
  2
AcAmCatalogState
  3
DesignerAssemblies
 90
        0
280
     1
281
     0
  0
CLASS
  1
ACAMGRCOMPDEFSET
  2
AcAmGrCompDefSet
  3
DesignerAssemblies
 90
        0
280
     1
281
     0
  0
CLASS
  1
AMDTBROWSERDBTAB
  2
AmdtBrowserDbTab
  3
McadcomServices
 90
        0
280
     1
281
     0
  0
CLASS
  1
CBROWSERAPPOBJECT
  2
CBrowserAppObject
  3
McadcomServices
 90
        0
280
     1
281
     0
  0
CLASS
  1
DM_PLACEHOLDER
  2
AcDmSelsetPlaceholder
  3
AcMechDwgViewMgmt
 90
        0
280
     1
281
     0
  0
CLASS
  1
SORTENTSTABLE
  2
AcDbSortentsTable
  3
ObjectDBX Classes
 90
        0
280
     0
281
     0
  0
CLASS
  1
ACMSTANDARDANSI
  2
AcmStandardANSI
  3
"Amdt_StdImp|Product Description: AutoCAD Mechanical 2004 DX|Company: Autodesk"
 90
        0
280
     1
281
     0
  0
CLASS
  1
ACMSURFSTANDARDANSI
  2
AcmSurfTextStdANSI
  3
"Amdt_StdImp|Product Description: AutoCAD Mechanical 2004 DX|Company: Autodesk"
 90
        0
280
     1
281
     0
  0
CLASS
  1
ACMFCFSTANDARDANSI
  2
AcmFCFStdANSI
  3
"Amdt_StdImp|Product Description: AutoCAD Mechanical 2004 DX|Company: Autodesk"
 90
        0
280
     1
281
     0
  0
CLASS
  1
ACMWELDSTANDARDANSI
  2
AcmWeldingStdANSI
  3
"Amdt_StdImp|Product Description: AutoCAD Mechanical 2004 DX|Company: Autodesk"
 90
        0
280
     1
281
     0
  0
CLASS
  1
ACMIDSTANDARDANSI
  2
AcmIdStdANSI
  3
"Amdt_StdImp|Product Description: AutoCAD Mechanical 2004 DX|Company: Autodesk"
 90
        0
280
     1
281
     0
  0
CLASS
  1
ACMDATUMSTANDARDANSI
  2
AcmDatumStdANSI
  3
"Amdt_StdImp|Product Description: AutoCAD Mechanical 2004 DX|Company: Autodesk"
 90
        0
280
     1
281
     0
  0
CLASS
  1
ACMBOMSTANDARDANSI
  2
AcmBOMStdANSI
  3
"Amdt_StdImp|Product Description: AutoCAD Mechanical 2004 DX|Company: Autodesk"
 90
        0
280
     1
281
     0
  0
CLASS
  1
ACMDETAILSTANDARDANSI
  2
AmdtDetailSymStdANSI
  3
"Amdt_StdImp|Product Description: AutoCAD Mechanical 2004 DX|Company: Autodesk"
 90
        0
280
     1
281
     0
  0
CLASS
  1
ACMSECTIONSTANDARDANSI
  2
AmdtSectionSymStdANSI
  3
"Amdt_StdImp|Product Description: AutoCAD Mechanical 2004 DX|Company: Autodesk"
 90
        0
280
     1
281
     0
  0
CLASS
  1
ACMCENTERLINESTANDARDANSI
  2
AmdtCenterLineStdANSI
  3
"Amdt_StdImp|Product Description: AutoCAD Mechanical 2004 DX|Company: Autodesk"
 90
        0
280
     1
281
     0
  0
CLASS
  1
ACMTHREADLINESTANDARDANSI
  2
AmdtThreadLineStdANSI
  3
"Amdt_StdImp|Product Description: AutoCAD Mechanical 2004 DX|Company: Autodesk"
 90
        0
280
     1
281
     0
  0
CLASS
  1
ACMNOTESTANDARDANSI
  2
AmdtNoteStdANSI
  3
"Amdt_StdImp|Product Description: AutoCAD Mechanical 2004 DX|Company: Autodesk"
 90
        0
280
     1
281
     0
  0
CLASS
  1
ACAMGHOLECHARTSTDANSI
  2
AcAmgHoleChartStdANSI
  3
ACMSYMBB_MODULE_NAME
 90
        0
280
     1
281
     0
  0
CLASS
  1
AMDTNOTE
  2
AmdtNote
  3
"AcmSymBB|Product Description: AutoCAD Mechanical 2004 DX|Company: Autodesk"
 90
     1023
280
     1
281
     1
  0
ENDSEC
  0
SECTION
  2
TABLES
  0
TABLE
  2
VPORT
  5
8
330
0
100
AcDbSymbolTable
 70
     9
  0
VPORT
  5
30AF
330
8
100
AcDbSymbolTableRecord
100
AcDbViewportTableRecord
  2
*Active
 70
     0
 10
0.0
 20
0.0
 11
1.0
 21
1.0
 12
48.63548384587693
 22
-19.63954856344446
 13
0.0
 23
0.0
 14
2.5
 24
2.5
 15
10.0
 25
10.0
 16
0.0
 26
0.0
 36
1.0
 17
0.0
 27
0.0
 37
0.0
 40
185.271888285564
 41
1.697058823529412
 42
50.0
 43
0.0
 44
0.0
 50
0.0
 51
0.0
 71
     0
 72
  2000
 73
     1
 74
     3
 75
     0
 76
     0
 77
     0
 78
     0
281
     0
 65
     1
110
0.0
120
0.0
130
0.0
111
1.0
121
0.0
131
0.0
112
0.0
122
1.0
132
0.0
 79
     0
146
0.0
  0
ENDTAB
  0
TABLE
  2
LTYPE
  5
5
330
0
100
AcDbSymbolTable
 70
    15
  0
LTYPE
  5
14
330
5
100
AcDbSymbolTableRecord
100
AcDbLinetypeTableRecord
  2
ByBlock
 70
     0
  3

 72
    65
 73
     0
 40
0.0
  0
LTYPE
  5
15
330
5
100
AcDbSymbolTableRecord
100
AcDbLinetypeTableRecord
  2
ByLayer
 70
     0
  3

 72
    65
 73
     0
 40
0.0
  0
LTYPE
  5
16
330
5
100
AcDbSymbolTableRecord
100
AcDbLinetypeTableRecord
  2
Continuous
 70
     0
  3
Solid line
 72
    65
 73
     0
 40
0.0
  0
LTYPE
  5
48
330
5
100
AcDbSymbolTableRecord
100
AcDbLinetypeTableRecord
  2
AM_ISO02W050
 70
     0
  3
__ __ __ __ __ __ __ __ __ __ __ __ __ __ __
 72
    65
 73
     2
 40
7.5
 49
6.0
 74
     0
 49
-1.5
 74
     0
  0
LTYPE
  5
49
330
5
100
AcDbSymbolTableRecord
100
AcDbLinetypeTableRecord
  2
AM_ISO08W050
 70
     0
  3
____ . ____ . ____ . ____ . ____ . ____ . ____
 72
    65
 73
     4
 40
18.0
 49
12.0
 74
     0
 49
-1.5
 74
     0
 49
3.0
 74
     0
 49
-1.5
 74
     0
  0
LTYPE
  5
4A
330
5
100
AcDbSymbolTableRecord
100
AcDbLinetypeTableRecord
  2
AM_ISO09W050
 70
     0
  3
_____ . . _____ . . _____ . . ____ .. ____
 72
    65
 73
     6
 40
22.5
 49
12.0
 74
     0
 49
-1.5
 74
     0
 49
3.0
 74
     0
 49
-1.5
 74
     0
 49
3.0
 74
     0
 49
-1.5
 74
     0
  0
LTYPE
  5
4B
330
5
100
AcDbSymbolTableRecord
100
AcDbLinetypeTableRecord
  2
Amconstr
 70
     0
  3
_______________________
 72
    65
 73
     2
 40
9999.0
 49
9999.0
 74
     0
 49
0.0
 74
     0
  0
LTYPE
  5
4C
330
5
100
AcDbSymbolTableRecord
100
AcDbLinetypeTableRecord
  2
AM_ISO02W050x2
 70
     0
  3
 _ _ _ _ _ _ _ _ _ _ _ _
 72
    65
 73
     2
 40
3.75
 49
3.0
 74
     0
 49
-0.75
 74
     0
  0
LTYPE
  5
4D
330
5
100
AcDbSymbolTableRecord
100
AcDbLinetypeTableRecord
  2
AM_ISO08W050x2
 70
     0
  3
__ . __ . __ . __ . __ . __
 72
    65
 73
     4
 40
9.0
 49
6.0
 74
     0
 49
-0.75
 74
     0
 49
1.5
 74
     0
 49
-0.75
 74
     0
  0
LTYPE
  5
50
330
5
100
AcDbSymbolTableRecord
100
AcDbLinetypeTableRecord
  2
Amzigzag
 70
     0
  3
/\/-/\/-/\/-/\/-/\/-/\/
 72
    65
 73
     2
 40
11.0001
 49
0.0001
 74
     4
 75
   135
340
4F
 46
0.04
 50
0.0
 44
0.0
 45
0.0
 49
-11.0
 74
     0
  0
LTYPE
  5
118
330
5
100
AcDbSymbolTableRecord
100
AcDbLinetypeTableRecord
  2
CENTER
 70
     0
  3
____ _ ____ _ ____ _ ____ _ ____ _ ____ _ ____
 72
    65
 73
     4
 40
17.5
 49
13.0
 74
     0
 49
-1.5
 74
     0
 49
1.5
 74
     0
 49
-1.5
 74
     0
  0
LTYPE
  5
7AA
330
5
100
AcDbSymbolTableRecord
100
AcDbLinetypeTableRecord
  2
ACJISTGB
 70
     0
  3
__ . . __ . .
 72
    65
 73
     6
 40
9.0
 49
4.0
 74
     0
 49
-1.0
 74
     0
 49
1.0
 74
     0
 49
-1.0
 74
     0
 49
1.0
 74
     0
 49
-1.0
 74
     0
  0
LTYPE
  5
7AB
330
5
100
AcDbSymbolTableRecord
100
AcDbLinetypeTableRecord
  2
ACJISTGL
 70
     0
  3
_ _ _ _ _
 72
    65
 73
     2
 40
3.0
 49
2.0
 74
     0
 49
-1.0
 74
     0
  0
LTYPE
  5
1645
330
5
100
AcDbSymbolTableRecord
100
AcDbLinetypeTableRecord
  2
HIDDEN
 70
     0
  3
Hidden __ __ __ __ __ __ __ __ __ __ __ __ __ _
 72
    65
 73
     2
 40
9.524999999999999
 49
6.35
 74
     0
 49
-3.175
 74
     0
  0
LTYPE
  5
1646
330
5
100
AcDbSymbolTableRecord
100
AcDbLinetypeTableRecord
  2
PHANTOM2
 70
     0
  3
Phantom (.5x) ___ _ _ ___ _ _ ___ _ _ ___ _ _
 72
    65
 73
     6
 40
31.75
 49
15.875
 74
     0
 49
-3.175
 74
     0
 49
3.175
 74
     0
 49
-3.175
 74
     0
 49
3.175
 74
     0
 49
-3.175
 74
     0
  0
LTYPE
  5
1907
330
5
100
AcDbSymbolTableRecord
100
AcDbLinetypeTableRecord
  2
ACANSTGB
 70
     0
  3
__ . . __ . .
 72
    65
 73
     6
 40
0.35433070866
 49
0.15748031496
 74
     0
 49
-0.03937007874
 74
     0
 49
0.03937007874
 74
     0
 49
-0.03937007874
 74
     0
 49
0.03937007874
 74
     0
 49
-0.03937007874
 74
     0
  0
LTYPE
  5
1908
330
5
100
AcDbSymbolTableRecord
100
AcDbLinetypeTableRecord
  2
ACANSTGL
 70
     0
  3
_ _ _ _ _
 72
    65
 73
     2
 40
0.11811023622
 49
0.07874015748
 74
     0
 49
-0.03937007874
 74
     0
  0
ENDTAB
  0
TABLE
  2
LAYER
  5
2
102
{ACAD_XDICTIONARY
360
1832
102
}
330
0
100
AcDbSymbolTable
 70
     7
  0
LAYER
  5
10
330
2
100
AcDbSymbolTableRecord
100
AcDbLayerTableRecord
  2
0
 70
     0
 62
     7
  6
Continuous
370
    -3
390
F
  0
LAYER
  5
68
330
2
100
AcDbSymbolTableRecord
100
AcDbLayerTableRecord
  2
AM_5
 70
     0
 62
     3
  6
Continuous
370
    13
390
F
  0
LAYER
  5
7B
330
2
100
AcDbSymbolTableRecord
100
AcDbLayerTableRecord
  2
Defpoints
 70
     0
 62
     7
  6
Continuous
290
     0
370
    -3
390
F
  0
LAYER
  5
5A3
330
2
100
AcDbSymbolTableRecord
100
AcDbLayerTableRecord
  2
AM_7
 70
     0
 62
     4
  6
AM_ISO08W050
370
    13
390
F
  0
LAYER
  5
5A4
330
2
100
AcDbSymbolTableRecord
100
AcDbLayerTableRecord
  2
AM_6
 70
     0
 62
     2
  6
Continuous
370
    30
390
F
  0
LAYER
  5
5F1
330
2
100
AcDbSymbolTableRecord
100
AcDbLayerTableRecord
  2
AM_0
 70
     0
 62
     7
  6
Continuous
370
    30
390
F
  0
LAYER
  5
1DC8
330
2
100
AcDbSymbolTableRecord
100
AcDbLayerTableRecord
  2
AM_CL
 70
     0
 62
     1
  6
Amconstr
370
    30
390
F
  0
ENDTAB
  0
TABLE
  2
STYLE
  5
3
330
0
100
AcDbSymbolTable
 70
     7
  0
STYLE
  5
11
330
3
100
AcDbSymbolTableRecord
100
AcDbTextStyleTableRecord
  2
STANDARD
 70
     0
 40
0.0
 41
1.0
 50
0.0
 71
     0
 42
2.5
  3
ISOCP.SHX
  4
EXTFONT.SHX
  0
STYLE
  5
4F
330
3
100
AcDbSymbolTableRecord
100
AcDbTextStyleTableRecord
  2

 70
     1
 40
0.0
 41
1.0
 50
0.0
 71
     0
 42
2.5
  3
ltypeshp.shx
  4

  0
STYLE
  5
7A2
330
3
100
AcDbSymbolTableRecord
100
AcDbTextStyleTableRecord
  2
ACJISTS
 70
     0
 40
1.0
 41
1.0
 50
0.0
 71
     0
 42
2.5
  3
isocp.shx
  4
bigfont.shx
  0
STYLE
  5
7A9
330
3
100
AcDbSymbolTableRecord
100
AcDbTextStyleTableRecord
  2
ACJISGDT
 70
     0
 40
0.0
 41
1.0
 50
0.0
 71
     0
 42
2.5
  3
amgdt.shx
  4

  0
STYLE
  5
182F
330
3
100
AcDbSymbolTableRecord
100
AcDbTextStyleTableRecord
  2
ACISOTS
 70
     0
 40
1.0
 41
1.0
 50
0.0
 71
     0
 42
1.0
  3
isocp.shx
  4
extfont.shx
  0
STYLE
  5
190A
330
3
100
AcDbSymbolTableRecord
100
AcDbTextStyleTableRecord
  2
ACANSTS
 70
     0
 40
1.0
 41
1.0
 50
0.0
 71
     0
 42
2.5
  3
romans.shx
  4
extfont.shx
  0
STYLE
  5
190B
330
3
100
AcDbSymbolTableRecord
100
AcDbTextStyleTableRecord
  2
ACANSGDT
 70
     0
 40
0.0
 41
1.0
 50
0.0
 71
     0
 42
2.5
  3
amgdtans.shx
  4

  0
ENDTAB
  0
TABLE
  2
VIEW
  5
6
330
0
100
AcDbSymbolTable
 70
     6
  0
VIEW
  5
4F5
330
6
100
AcDbSymbolTableRecord
100
AcDbViewTableRecord
  2
AM_VIEW1
 70
     0
 40
150.0
 10
113.2040050062578
 20
225.0
 41
226.4080100125157
 11
0.0
 21
0.0
 31
1.0
 12
0.0
 22
0.0
 32
0.0
 42
50.0
 43
0.0
 44
0.0
 50
0.0
 71
     0
281
     0
 72
     0
  0
VIEW
  5
4F6
330
6
100
AcDbSymbolTableRecord
100
AcDbViewTableRecord
  2
AM_VIEW2
 70
     0
 40
150.0
 10
309.7959949937422
 20
225.0
 41
226.4080100125157
 11
0.0
 21
0.0
 31
1.0
 12
0.0
 22
0.0
 32
0.0
 42
50.0
 43
0.0
 44
0.0
 50
0.0
 71
     0
281
     0
 72
     0
  0
VIEW
  5
4F7
330
6
100
AcDbSymbolTableRecord
100
AcDbViewTableRecord
  2
AM_VIEW3
 70
     0
 40
150.0
 10
113.2040050062578
 20
75.0
 41
226.4080100125157
 11
0.0
 21
0.0
 31
1.0
 12
0.0
 22
0.0
 32
0.0
 42
50.0
 43
0.0
 44
0.0
 50
0.0
 71
     0
281
     0
 72
     0
  0
VIEW
  5
4F8
330
6
100
AcDbSymbolTableRecord
100
AcDbViewTableRecord
  2
AM_VIEW4
 70
     0
 40
150.0
 10
309.7959949937422
 20
75.0
 41
226.4080100125157
 11
0.0
 21
0.0
 31
1.0
 12
0.0
 22
0.0
 32
0.0
 42
50.0
 43
0.0
 44
0.0
 50
0.0
 71
     0
281
     0
 72
     0
  0
VIEW
  5
4F9
330
6
100
AcDbSymbolTableRecord
100
AcDbViewTableRecord
  2
AM_VIEW5
 70
     0
 40
150.0
 10
211.5
 20
150.0
 41
226.4080100125157
 11
0.0
 21
0.0
 31
1.0
 12
0.0
 22
0.0
 32
0.0
 42
50.0
 43
0.0
 44
0.0
 50
0.0
 71
     0
281
     0
 72
     0
  0
VIEW
  5
4FA
330
6
100
AcDbSymbolTableRecord
100
AcDbViewTableRecord
  2
AM_VIEW6
 70
     0
 40
299.9970000000001
 10
211.5
 20
150.0
 41
452.8114918648312
 11
0.0
 21
0.0
 31
1.0
 12
0.0
 22
0.0
 32
0.0
 42
50.0
 43
0.0
 44
0.0
 50
0.0
 71
     0
281
     0
 72
     0
  0
ENDTAB
  0
TABLE
  2
UCS
  5
7
330
0
100
AcDbSymbolTable
 70
     0
  0
ENDTAB
  0
TABLE
  2
APPID
  5
9
330
0
100
AcDbSymbolTable
 70
    32
  0
APPID
  5
12
330
9
100
AcDbSymbolTableRecord
100
AcDbRegAppTableRecord
  2
ACAD
 70
     0
  0
APPID
  5
2C
330
9
100
AcDbSymbolTableRecord
100
AcDbRegAppTableRecord
  2
MCAD_NO_VIS
 70
     0
  0
APPID
  5
2D
330
9
100
AcDbSymbolTableRecord
100
AcDbRegAppTableRecord
  2
ACAD_TEMP_GRAPHIC
 70
     0
  0
APPID
  5
B5
330
9
100
AcDbSymbolTableRecord
100
AcDbRegAppTableRecord
  2
GENIUS_GENDTOL_13
 70
     0
  0
APPID
  5
12C
330
9
100
AcDbSymbolTableRecord
100
AcDbRegAppTableRecord
  2
GENIUS_GENCFG_13
 70
     0
  0
APPID
  5
12D
330
9
100
AcDbSymbolTableRecord
100
AcDbRegAppTableRecord
  2
GENIUS_GENCFG0_13
 70
     0
  0
APPID
  5
12E
330
9
100
AcDbSymbolTableRecord
100
AcDbRegAppTableRecord
  2
GENIUS_GENCFG1_13
 70
     0
  0
APPID
  5
12F
330
9
100
AcDbSymbolTableRecord
100
AcDbRegAppTableRecord
  2
GENIUS_GENCFG2_13
 70
     0
  0
APPID
  5
130
330
9
100
AcDbSymbolTableRecord
100
AcDbRegAppTableRecord
  2
GENIUS_GENCFG3_13
 70
     0
  0
APPID
  5
131
330
9
100
AcDbSymbolTableRecord
100
AcDbRegAppTableRecord
  2
GENIUS_GENCFG4_13
 70
     0
  0
APPID
  5
53B
330
9
100
AcDbSymbolTableRecord
100
AcDbRegAppTableRecord
  2
GENIUS_GENBLLY_14
 70
     0
  0
APPID
  5
53C
330
9
100
AcDbSymbolTableRecord
100
AcDbRegAppTableRecord
  2
GENIUS_GENODEF_13
 70
     0
  0
APPID
  5
53D
330
9
100
AcDbSymbolTableRecord
100
AcDbRegAppTableRecord
  2
GENIUS_GENOBJ-N-CEN_13
 70
     0
  0
APPID
  5
549
330
9
100
AcDbSymbolTableRecord
100
AcDbRegAppTableRecord
  2
GENIUS_GENTRA_14
 70
     0
  0
APPID
  5
553
330
9
100
AcDbSymbolTableRecord
100
AcDbRegAppTableRecord
  2
GENIUS_GENOBJ-N-TIT_13
 70
     0
  0
APPID
  5
554
330
9
100
AcDbSymbolTableRecord
100
AcDbRegAppTableRecord
  2
GENIUS_GENTITLE_13
 70
     0
  0
APPID
  5
555
330
9
100
AcDbSymbolTableRecord
100
AcDbRegAppTableRecord
  2
GENIUS_GENOENT_13
 70
     0
  0
APPID
  5
556
330
9
100
AcDbSymbolTableRecord
100
AcDbRegAppTableRecord
  2
GENIUS_GENOREF_13
 70
     0
  0
APPID
  5
557
330
9
100
AcDbSymbolTableRecord
100
AcDbRegAppTableRecord
  2
GENIUS_GENOLIS_13
 70
     0
  0
APPID
  5
558
330
9
100
AcDbSymbolTableRecord
100
AcDbRegAppTableRecord
  2
GENIUS_GENZVEED_13
 70
     0
  0
APPID
  5
559
330
9
100
AcDbSymbolTableRecord
100
AcDbRegAppTableRecord
  2
GENIUS_GENSCREG_15
 70
     0
  0
APPID
  5
55A
330
9
100
AcDbSymbolTableRecord
100
AcDbRegAppTableRecord
  2
GENIUS_GENOBJ-N-SDF_13
 70
     0
  0
APPID
  5
567
330
9
100
AcDbSymbolTableRecord
100
AcDbRegAppTableRecord
  2
GENIUS_GENREC_14
 70
     0
  0
APPID
  5
568
330
9
100
AcDbSymbolTableRecord
100
AcDbRegAppTableRecord
  2
GENIUS_GENOBJ-N-REC_13
 70
     0
  0
APPID
  5
609
330
9
100
AcDbSymbolTableRecord
100
AcDbRegAppTableRecord
  2
GENIUS_GENOBJ-N-HTC_13
 70
     0
  0
APPID
  5
60A
330
9
100
AcDbSymbolTableRecord
100
AcDbRegAppTableRecord
  2
GENIUS_GENHATCH_13
 70
     0
  0
APPID
  5
1648
330
9
100
AcDbSymbolTableRecord
100
AcDbRegAppTableRecord
  2
AD_DRAW
 70
     0
  0
APPID
  5
164B
330
9
100
AcDbSymbolTableRecord
100
AcDbRegAppTableRecord
  2
ACATTRIBSERVICES
 70
     0
  0
APPID
  5
1669
330
9
100
AcDbSymbolTableRecord
100
AcDbRegAppTableRecord
  2
DESIGNERASSEMBLIES
 70
     0
  0
APPID
  5
167C
330
9
100
AcDbSymbolTableRecord
100
AcDbRegAppTableRecord
  2
ACADM_DIM_EDIT
 70
     0
  0
APPID
  5
167D
330
9
100
AcDbSymbolTableRecord
100
AcDbRegAppTableRecord
  2
AMDT_DM_ADJ
 70
     0
  0
APPID
  5
2B0B
330
9
100
AcDbSymbolTableRecord
100
AcDbRegAppTableRecord
  2
GENIUS_GENOBJ-N-CRS_13
 70
     0
  0
ENDTAB
  0
TABLE
  2
DIMSTYLE
  5
A
330
0
100
AcDbSymbolTable
 70
    15
100
AcDbDimStyleTable
  0
DIMSTYLE
105
69
102
{ACAD_REACTORS
330
1F03
102
}
330
A
100
AcDbSymbolTableRecord
100
AcDbDimStyleTableRecord
  2
AM_JIS
 70
     0
  4
"
 41
2.5
 42
0.0
 43
10.0
 44
1.0
 47
0.1
 48
0.1000000001
 73
     0
 74
     0
 77
     3
 78
     1
 79
     2
140
3.8
141
0.0
143
0.0393701
146
0.71
147
1.5
172
     1
176
     3
177
     3
178
     2
271
     2
272
     2
275
     1
283
     0
284
     8
340
11
341
6A
342
6A
371
    13
372
    13
  0
DIMSTYLE
105
70
330
A
100
AcDbSymbolTableRecord
100
AcDbDimStyleTableRecord
  2
AM_JIS$3
 70
     0
  4
"
 41
2.5
 42
0.0
 43
10.0
 44
1.0
 47
0.1
 48
0.1000000001
 73
     0
 74
     0
 77
     3
 78
     1
 79
     2
140
3.8
141
0.0
143
0.0393701
146
0.71
147
1.5
172
     1
176
     3
177
     3
178
     2
271
     2
272
     2
275
     1
283
     0
284
     8
288
     1
289
     0
340
11
341
6A
342
6A
371
    13
372
    13
  0
DIMSTYLE
105
71
330
A
100
AcDbSymbolTableRecord
100
AcDbDimStyleTableRecord
  2
AM_JIS$4
 70
     0
  4
"
 41
2.5
 42
0.0
 43
10.0
 44
1.0
 47
0.1
 48
0.1000000001
 73
     0
 74
     0
 77
     3
 78
     1
 79
     2
140
3.8
141
0.0
143
0.0393701
146
0.71
147
1.5
172
     1
176
     3
177
     3
178
     2
271
     2
272
     2
275
     1
283
     0
284
     8
288
     1
289
     0
340
11
341
6A
342
6A
371
    13
372
    13
  0
DIMSTYLE
105
72
330
A
100
AcDbSymbolTableRecord
100
AcDbDimStyleTableRecord
  2
AM_JIS$6
 70
     0
  4
"
 41
2.5
 42
0.0
 43
10.0
 44
1.0
 47
0.1
 48
0.1000000001
 73
     0
 74
     0
 78
     1
 79
     2
140
3.8
141
0.0
143
0.0393701
146
0.71
147
1.5
172
     1
176
     3
177
     3
178
     2
271
     2
272
     2
275
     1
283
     0
284
     8
340
11
341
6A
342
6A
371
    13
372
    13
  0
DIMSTYLE
105
73
330
A
100
AcDbSymbolTableRecord
100
AcDbDimStyleTableRecord
  2
AM_JIS$7
 70
     0
  4
"
 41
2.5
 42
0.0
 43
10.0
 44
1.0
 47
0.1
 48
0.1000000001
 73
     0
 74
     0
 77
     3
 78
     1
 79
     2
140
5.0
141
0.0
143
0.0393701
146
0.71
147
1.5
172
     1
176
     3
177
     3
178
     2
271
     2
272
     2
275
     1
283
     0
284
     8
340
11
341
6A
342
6A
371
    13
372
    13
  0
DIMSTYLE
105
74
330
A
100
AcDbSymbolTableRecord
100
AcDbDimStyleTableRecord
  2
AM_JIS$SF
 70
     0
  4
"
 41
2.5
 42
1.0
 43
10.0
 44
1.0
 47
0.1
 48
0.1
 73
     0
 74
     0
 75
     1
 76
     1
 77
     3
 78
     8
 79
     2
140
3.5
141
0.0
143
0.0393701
146
0.71
147
1.5
176
   256
177
   256
178
     2
271
     2
272
     3
274
     4
340
11
341
6A
342
6A
343
6A
344
6A
371
    -1
372
    -1
  0
DIMSTYLE
105
79
330
A
100
AcDbSymbolTableRecord
100
AcDbDimStyleTableRecord
  2
AM_JIS$SH
 70
     0
  4
"
 41
2.5
 42
1.0
 43
10.0
 44
1.0
 47
0.1
 48
0.1
 73
     0
 74
     0
 75
     1
 76
     1
 77
     3
 78
     8
 79
     2
140
3.5
141
0.0
143
0.0393701
144
2.0
146
0.71
147
1.5
173
     1
176
   256
177
   256
178
     2
271
     2
272
     3
274
     4
340
11
341
6A
342
6A
343
75
344
6A
371
    -1
372
    -1
  0
DIMSTYLE
105
124
330
A
100
AcDbSymbolTableRecord
100
AcDbDimStyleTableRecord
  2
STANDARD
 70
     0
340
11
  0
DIMSTYLE
105
927
102
{ACAD_REACTORS
330
1DFB
330
1E14
330
1E54
330
2A70
330
2AA5
330
1D93
102
}
330
A
100
AcDbSymbolTableRecord
100
AcDbDimStyleTableRecord
  2
AM_JIS$0
 70
     0
  4
"
 41
2.5
 42
0.0
 43
10.0
 44
1.0
 47
0.1
 48
0.1000000001
 73
     0
 74
     0
 77
     3
 78
     1
 79
     2
140
3.8
141
0.0
143
0.0393701
146
0.71
147
1.5
172
     1
176
     3
177
     3
178
     2
271
     2
272
     2
275
     1
283
     0
284
     8
289
     0
340
11
341
6A
342
6A
371
    13
372
    13
  0
DIMSTYLE
105
190C
330
A
100
AcDbSymbolTableRecord
100
AcDbDimStyleTableRecord
  2
AM_ANSI
 70
     0
  4
mm
 41
0.1
 42
0.05
 43
0.5
 44
0.1
 47
0.1
 48
0.1
 78
     7
 79
     2
140
0.12
141
0.0
146
0.71
147
0.06
176
   256
177
   256
178
     2
274
     4
284
     7
340
11
371
    -1
372
    -1
  0
DIMSTYLE
105
190D
330
A
100
AcDbSymbolTableRecord
100
AcDbDimStyleTableRecord
  2
AM_ANSI$3
 70
     0
  4
mm
 41
0.1
 42
0.05
 43
0.5
 44
0.1
 47
0.1
 48
0.1
 78
     7
 79
     2
140
0.12
141
0.0
146
0.71
147
0.06
176
   256
177
   256
178
     2
274
     4
284
     7
288
     1
289
     0
340
11
371
    -1
372
    -1
  0
DIMSTYLE
105
190E
330
A
100
AcDbSymbolTableRecord
100
AcDbDimStyleTableRecord
  2
AM_ANSI$4
 70
     0
  4
mm
 41
0.1
 42
0.05
 43
0.5
 44
0.1
 47
0.1
 48
0.1
 78
     7
 79
     2
140
0.12
141
0.0
146
0.71
147
0.06
176
   256
177
   256
178
     2
274
     4
284
     7
288
     1
289
     0
340
11
371
    -1
372
    -1
  0
DIMSTYLE
105
190F
330
A
100
AcDbSymbolTableRecord
100
AcDbDimStyleTableRecord
  2
AM_ANSI$7
 70
     0
  4
mm
 41
0.1
 42
0.05
 43
0.5
 44
0.1
 47
0.1
 48
0.1
 78
     7
 79
     2
140
0.24
141
0.0
146
0.71
147
0.06
176
   256
177
   256
178
     2
274
     4
284
     7
340
11
371
    -1
372
    -1
  0
DIMSTYLE
105
1910
330
A
100
AcDbSymbolTableRecord
100
AcDbDimStyleTableRecord
  2
AM_ANSI$SF
 70
     0
  4
mm
 41
0.1
 42
0.05
 43
0.5
 44
0.1
 47
0.1
 48
0.1
 75
     1
 76
     1
 78
     7
 79
     2
140
0.12
141
0.0
146
0.71
147
0.06
176
   256
177
   256
178
     2
274
     4
284
     7
340
11
371
    -1
372
    -1
  0
DIMSTYLE
105
1911
330
A
100
AcDbSymbolTableRecord
100
AcDbDimStyleTableRecord
  2
AM_ANSI$SH
 70
     0
  4
mm
 41
0.1
 42
0.05
 43
0.5
 44
0.1
 47
0.1
 48
0.1
 75
     1
 76
     1
 78
     7
 79
     2
140
0.12
141
0.0
146
0.71
147
0.06
173
     1
176
   256
177
   256
178
     2
274
     4
284
     7
340
11
343
75
371
    -1
372
    -1
  0
ENDTAB
  0
TABLE
  2
BLOCK_RECORD
  5
1
330
0
100
AcDbSymbolTable
 70
    12
  0
BLOCK_RECORD
  5
1F
102
{ACAD_XDICTIONARY
360
10B
102
}
330
1
100
AcDbSymbolTableRecord
100
AcDbBlockTableRecord
  2
*Model_Space
340
22
  0
BLOCK_RECORD
  5
1B
330
1
100
AcDbSymbolTableRecord
100
AcDbBlockTableRecord
  2
*Paper_Space
340
1E
  0
BLOCK_RECORD
  5
23
330
1
100
AcDbSymbolTableRecord
100
AcDbBlockTableRecord
  2
*Paper_Space0
340
26
  0
BLOCK_RECORD
  5
6A
330
1
100
AcDbSymbolTableRecord
100
AcDbBlockTableRecord
  2
_Open30
340
0
102
{BLKREFS
331
2F71
331
2F72
331
2F42
331
2F43
331
2FA7
331
2FA8
331
2FB1
331
2FB2
331
2EBE
331
2EBF
331
306C
331
306D
331
3063
331
3064
102
}
  0
BLOCK_RECORD
  5
75
330
1
100
AcDbSymbolTableRecord
100
AcDbBlockTableRecord
  2
GENAXEH
340
0
  0
BLOCK_RECORD
  5
1660
330
1
100
AcDbSymbolTableRecord
100
AcDbBlockTableRecord
  2
*U3
340
0
  0
BLOCK_RECORD
  5
1D94
330
1
100
AcDbSymbolTableRecord
100
AcDbBlockTableRecord
  2
*D4
340
0
  0
BLOCK_RECORD
  5
1DFC
330
1
100
AcDbSymbolTableRecord
100
AcDbBlockTableRecord
  2
*D5
340
0
  0
BLOCK_RECORD
  5
1E15
330
1
100
AcDbSymbolTableRecord
100
AcDbBlockTableRecord
  2
*D6
340
0
  0
BLOCK_RECORD
  5
1E55
330
1
100
AcDbSymbolTableRecord
100
AcDbBlockTableRecord
  2
*D7
340
0
  0
BLOCK_RECORD
  5
1F04
330
1
100
AcDbSymbolTableRecord
100
AcDbBlockTableRecord
  2
*D8
340
0
  0
BLOCK_RECORD
  5
2A71
330
1
100
AcDbSymbolTableRecord
100
AcDbBlockTableRecord
  2
*D9
340
0
  0
BLOCK_RECORD
  5
2AA6
330
1
100
AcDbSymbolTableRecord
100
AcDbBlockTableRecord
  2
*D10
340
0
  0
BLOCK_RECORD
  5
2E58
102
{ACAD_XDICTIONARY
360
2E5D
102
}
330
1
100
AcDbSymbolTableRecord
100
AcDbBlockTableRecord
  2
A$C4828096E
340
0
102
{BLKREFS
331
2E62
102
}
  0
ENDTAB
  0
ENDSEC
  0
SECTION
  2
BLOCKS
  0
BLOCK
  5
20
330
1F
100
AcDbEntity
  8
0
100
AcDbBlockBegin
  2
*Model_Space
 70
     0
 71
     0
 10
0.0
 20
0.0
 30
0.0
  3
*Model_Space
  1

  0
ENDBLK
  5
21
330
1F
100
AcDbEntity
  8
0
100
AcDbBlockEnd
  0
BLOCK
  5
1C
330
1B
100
AcDbEntity
 67
     1
  8
0
100
AcDbBlockBegin
  2
*Paper_Space
 70
     0
 71
     0
 10
0.0
 20
0.0
 30
0.0
  3
*Paper_Space
  1

  0
ENDBLK
  5
1D
330
1B
100
AcDbEntity
 67
     1
  8
0
100
AcDbBlockEnd
  0
BLOCK
  5
24
330
23
100
AcDbEntity
  8
0
100
AcDbBlockBegin
  2
*Paper_Space0
 70
     0
 71
     0
 10
0.0
 20
0.0
 30
0.0
  3
*Paper_Space0
  1

  0
ENDBLK
  5
25
330
23
100
AcDbEntity
  8
0
100
AcDbBlockEnd
  0
BLOCK
  5
6E
330
6A
100
AcDbEntity
  8
0
100
AcDbBlockBegin
  2
_Open30
 70
     0
 71
     0
 10
0.0
 20
0.0
 30
0.0
  3
_Open30
  1

  0
LINE
  5
6B
330
6A
100
AcDbEntity
  8
0
 62
     0
370
    -2
100
AcDbLine
 10
-1.0
 20
0.26794919
 30
0.0
 11
0.0
 21
0.0
 31
0.0
  0
LINE
  5
6C
330
6A
100
AcDbEntity
  8
0
 62
     0
370
    -2
100
AcDbLine
 10
0.0
 20
0.0
 30
0.0
 11
-1.0
 21
-0.26794919
 31
0.0
  0
LINE
  5
6D
330
6A
100
AcDbEntity
  8
0
 62
     0
370
    -2
100
AcDbLine
 10
0.0
 20
0.0
 30
0.0
 11
-1.0
 21
0.0
 31
0.0
  0
ENDBLK
  5
6F
330
6A
100
AcDbEntity
  8
0
100
AcDbBlockEnd
  0
BLOCK
  5
77
330
75
100
AcDbEntity
  8
0
100
AcDbBlockBegin
  2
GENAXEH
 70
     0
 71
     0
 10
0.0
 20
0.0
 30
0.0
  3
GENAXEH
  1

  0
LINE
  5
76
330
75
100
AcDbEntity
  8
0
100
AcDbLine
 10
-1.0
 20
0.0
 30
0.0
 11
1.0
 21
0.0
 31
0.0
  0
ENDBLK
  5
78
330
75
100
AcDbEntity
  8
0
100
AcDbBlockEnd
  0
BLOCK
  5
1661
330
1660
100
AcDbEntity
  8
0
100
AcDbBlockBegin
  2
*U3
 70
     1
 71
     0
 10
0.0
 20
0.0
 30
0.0
  3
*U3
  1

  0
ENDBLK
  5
1662
330
1660
100
AcDbEntity
  8
0
100
AcDbBlockEnd
  0
BLOCK
  5
1D9E
330
1D94
100
AcDbEntity
  8
0
370
    13
100
AcDbBlockBegin
  2
*D4
 70
     1
 71
     0
 10
0.0
 20
0.0
 30
0.0
  3
*D4
  1

  0
LINE
  5
2F6E
330
1D94
100
AcDbEntity
  8
AM_5
 62
     3
370
    13
100
AcDbLine
 10
160.0
 20
21.5
 30
0.0
 11
181.2117721096306
 21
21.5
 31
0.0
  0
LINE
  5
2F6F
330
1D94
100
AcDbEntity
  8
AM_5
 62
     3
370
    13
100
AcDbLine
 10
160.0
 20
-3.5
 30
0.0
 11
181.2117721096306
 21
-3.500000000000006
 31
0.0
  0
LINE
  5
2F70
330
1D94
100
AcDbEntity
  8
AM_5
 62
     3
370
    13
100
AcDbLine
 10
180.2117721096306
 20
19.0
 30
0.0
 11
180.2117721096306
 21
-1.000000000000006
 31
0.0
  0
INSERT
  5
2F71
330
1D94
100
AcDbEntity
  8
AM_5
 62
     3
370
    13
100
AcDbBlockReference
  2
_Open30
 10
180.2117721096306
 20
21.5
 30
0.0
 41
2.5
 42
2.5
 43
2.5
 50
90.0
  0
INSERT
  5
2F72
330
1D94
100
AcDbEntity
  8
AM_5
 62
     3
370
    13
100
AcDbBlockReference
  2
_Open30
 10
180.2117721096306
 20
-3.500000000000006
 30
0.0
 41
2.5
 42
2.5
 43
2.5
 50
270.0
  0
MTEXT
  5
2F73
330
1D94
100
AcDbEntity
  8
AM_5
 62
     2
370
    13
100
AcDbMText
 10
176.8113980938826
 20
9.25644590809452
 30
0.0
 40
3.8
 41
0.0
 71
     5
 72
     1
  1
25
 11
6.123031769111886E-17
 21
1.0
 31
0.0
 73
     1
 44
1.0
  0
POINT
  5
2F74
330
1D94
100
AcDbEntity
  8
Defpoints
 62
     0
370
    13
100
AcDbPoint
 10
160.0
 20
21.5
 30
0.0
  0
POINT
  5
2F75
330
1D94
100
AcDbEntity
  8
Defpoints
 62
     0
370
    13
100
AcDbPoint
 10
160.0
 20
-3.5
 30
0.0
  0
POINT
  5
2F76
330
1D94
100
AcDbEntity
  8
Defpoints
 62
     0
370
    13
100
AcDbPoint
 10
180.2117721096306
 20
-3.500000000000006
 30
0.0
  0
ENDBLK
  5
1D9F
330
1D94
100
AcDbEntity
  8
0
370
    13
100
AcDbBlockEnd
  0
BLOCK
  5
1E06
330
1DFC
100
AcDbEntity
  8
0
370
    13
100
AcDbBlockBegin
  2
*D5
 70
     1
 71
     0
 10
0.0
 20
0.0
 30
0.0
  3
*D5
  1

  0
LINE
  5
2F3F
330
1DFC
100
AcDbEntity
  8
AM_5
 62
     3
370
    13
100
AcDbLine
 10
0.0
 20
-5.514735926165997
 30
0.0
 11
-0.0000000000000014
 21
-28.5189617488079
 31
0.0
  0
LINE
  5
2F40
330
1DFC
100
AcDbEntity
  8
AM_5
 62
     3
370
    13
100
AcDbLine
 10
160.0
 20
-3.5
 30
0.0
 11
160.0
 21
-28.5189617488079
 31
0.0
  0
LINE
  5
2F41
330
1DFC
100
AcDbEntity
  8
AM_5
 62
     3
370
    13
100
AcDbLine
 10
2.499999999999999
 20
-27.5189617488079
 30
0.0
 11
157.5
 21
-27.5189617488079
 31
0.0
  0
INSERT
  5
2F42
330
1DFC
100
AcDbEntity
  8
AM_5
 62
     3
370
    13
100
AcDbBlockReference
  2
_Open30
 10
-0.0000000000000013
 20
-27.5189617488079
 30
0.0
 41
2.5
 42
2.5
 43
2.5
 50
180.0
  0
INSERT
  5
2F43
330
1DFC
100
AcDbEntity
  8
AM_5
 62
     3
370
    13
100
AcDbBlockReference
  2
_Open30
 10
160.0
 20
-27.5189617488079
 30
0.0
 41
2.5
 42
2.5
 43
2.5
  0
MTEXT
  5
2F44
330
1DFC
100
AcDbEntity
  8
AM_5
 62
     2
370
    13
100
AcDbMText
 10
77.14435072002834
 20
-24.1189617488079
 30
0.0
 40
3.8
 41
0.0
 71
     5
 72
     1
  1
160
 73
     1
 44
1.0
  0
POINT
  5
2F45
330
1DFC
100
AcDbEntity
  8
Defpoints
 62
     0
370
    13
100
AcDbPoint
 10
0.0
 20
-5.514735926165997
 30
0.0
  0
POINT
  5
2F46
330
1DFC
100
AcDbEntity
  8
Defpoints
 62
     0
370
    13
100
AcDbPoint
 10
160.0
 20
-3.5
 30
0.0
  0
POINT
  5
2F47
330
1DFC
100
AcDbEntity
  8
Defpoints
 62
     0
370
    13
100
AcDbPoint
 10
160.0
 20
-27.5189617488079
 30
0.0
  0
ENDBLK
  5
1E07
330
1DFC
100
AcDbEntity
  8
0
370
    13
100
AcDbBlockEnd
  0
BLOCK
  5
1E1F
330
1E15
100
AcDbEntity
  8
0
370
    13
100
AcDbBlockBegin
  2
*D6
 70
     1
 71
     0
 10
0.0
 20
0.0
 30
0.0
  3
*D6
  1

  0
LINE
  5
2FA4
330
1E15
100
AcDbEntity
  8
AM_5
 62
     3
370
    13
100
AcDbLine
 10
0.0000000000000142
 20
0.0000835548875955
 30
0.0
 11
-13.22519933238118
 21
0.0000835548875992
 31
0.0
  0
LINE
  5
2FA5
330
1E15
100
AcDbEntity
  8
AM_5
 62
     3
370
    13
100
AcDbLine
 10
14.21174574999998
 20
21.5
 30
0.0
 11
-13.22519933238117
 21
21.50000000000001
 31
0.0
  0
LINE
  5
2FA6
330
1E15
100
AcDbEntity
  8
AM_5
 62
     3
370
    13
100
AcDbLine
 10
-12.22519933238118
 20
2.500083554887599
 30
0.0
 11
-12.22519933238118
 21
19.00000000000001
 31
0.0
  0
INSERT
  5
2FA7
330
1E15
100
AcDbEntity
  8
AM_5
 62
     3
370
    13
100
AcDbBlockReference
  2
_Open30
 10
-12.22519933238118
 20
0.0000835548875989
 30
0.0
 41
2.5
 42
2.5
 43
2.5
 50
270.0
  0
INSERT
  5
2FA8
330
1E15
100
AcDbEntity
  8
AM_5
 62
     3
370
    13
100
AcDbBlockReference
  2
_Open30
 10
-12.22519933238118
 20
21.50000000000001
 30
0.0
 41
2.5
 42
2.5
 43
2.5
 50
90.0
  0
MTEXT
  5
2FA9
330
1E15
100
AcDbEntity
  8
AM_5
 62
     2
370
    13
100
AcDbMText
 10
-15.62557334812921
 20
11.95134665747787
 30
0.0
 40
3.8
 41
0.0
 71
     5
 72
     1
  1
21.5
 11
6.123031769111886E-17
 21
1.0
 31
0.0
 73
     1
 44
1.0
  0
POINT
  5
2FAA
330
1E15
100
AcDbEntity
  8
Defpoints
 62
     0
370
    13
100
AcDbPoint
 10
0.0000000000000142
 20
0.0000835548875955
 30
0.0
  0
POINT
  5
2FAB
330
1E15
100
AcDbEntity
  8
Defpoints
 62
     0
370
    13
100
AcDbPoint
 10
14.21174574999998
 20
21.5
 30
0.0
  0
POINT
  5
2FAC
330
1E15
100
AcDbEntity
  8
Defpoints
 62
     0
370
    13
100
AcDbPoint
 10
-12.22519933238118
 20
21.50000000000001
 30
0.0
  0
ENDBLK
  5
1E20
330
1E15
100
AcDbEntity
  8
0
370
    13
100
AcDbBlockEnd
  0
BLOCK
  5
1E5F
330
1E55
100
AcDbEntity
  8
0
370
    13
100
AcDbBlockBegin
  2
*D7
 70
     1
 71
     0
 10
0.0
 20
0.0
 30
0.0
  3
*D7
  1

  0
LINE
  5
2FAE
330
1E55
100
AcDbEntity
  8
AM_5
 62
     3
370
    13
100
AcDbLine
 10
0.0
 20
0.0
 30
0.0
 11
0.0000000000000019
 21
31.02034785942288
 31
0.0
  0
LINE
  5
2FAF
330
1E55
100
AcDbEntity
  8
AM_5
 62
     3
370
    13
100
AcDbLine
 10
34.5
 20
21.5
 30
0.0
 11
34.5
 21
31.02034785942288
 31
0.0
  0
LINE
  5
2FB0
330
1E55
100
AcDbEntity
  8
AM_5
 62
     3
370
    13
100
AcDbLine
 10
2.500000000000002
 20
30.02034785942288
 30
0.0
 11
32.0
 21
30.02034785942288
 31
0.0
  0
INSERT
  5
2FB1
330
1E55
100
AcDbEntity
  8
AM_5
 62
     3
370
    13
100
AcDbBlockReference
  2
_Open30
 10
0.0000000000000018
 20
30.02034785942288
 30
0.0
 41
2.5
 42
2.5
 43
2.5
 50
180.0
  0
INSERT
  5
2FB2
330
1E55
100
AcDbEntity
  8
AM_5
 62
     3
370
    13
100
AcDbBlockReference
  2
_Open30
 10
34.5
 20
30.02034785942288
 30
0.0
 41
2.5
 42
2.5
 43
2.5
  0
MTEXT
  5
2FB3
330
1E55
100
AcDbEntity
  8
AM_5
 62
     2
370
    13
100
AcDbMText
 10
17.70052187223382
 20
33.42034785942288
 30
0.0
 40
3.8
 41
0.0
 71
     5
 72
     1
  1
34.5
 73
     1
 44
1.0
  0
POINT
  5
2FB4
330
1E55
100
AcDbEntity
  8
Defpoints
 62
     0
370
    13
100
AcDbPoint
 10
0.0
 20
0.0
 30
0.0
  0
POINT
  5
2FB5
330
1E55
100
AcDbEntity
  8
Defpoints
 62
     0
370
    13
100
AcDbPoint
 10
34.5
 20
21.5
 30
0.0
  0
POINT
  5
2FB6
330
1E55
100
AcDbEntity
  8
Defpoints
 62
     0
370
    13
100
AcDbPoint
 10
34.5
 20
30.02034785942288
 30
0.0
  0
ENDBLK
  5
1E60
330
1E55
100
AcDbEntity
  8
0
370
    13
100
AcDbBlockEnd
  0
BLOCK
  5
1F11
330
1F04
100
AcDbEntity
  8
0
370
    13
100
AcDbBlockBegin
  2
*D8
 70
     1
 71
     0
 10
0.0
 20
0.0
 30
0.0
  3
*D8
  1

  0
LINE
  5
2EBC
330
1F04
100
AcDbEntity
  8
AM_5
 62
     3
370
    13
100
AcDbLine
 10
13.06249197975415
 20
-3.5
 30
0.0
 11
44.26444752615614
 21
-11.86053730464
 31
0.0
  0
ARC
  5
2EBD
330
1F04
100
AcDbEntity
  8
AM_5
 62
     3
370
    13
100
AcDbCircle
 10
13.06249197975415
 20
-3.5
 30
0.0
 40
31.30264097472409
100
AcDbArc
 50
349.5771736888088
 51
355.4228288576226
  0
INSERT
  5
2EBE
330
1F04
100
AcDbEntity
  8
AM_5
 62
     3
370
    13
100
AcDbBlockReference
  2
_Open30
 10
43.29852168836423
 20
-11.60171830246671
 30
0.0
 41
2.5
 42
2.5
 43
2.5
 50
257.2885881176202
  0
INSERT
  5
2EBF
330
1F04
100
AcDbEntity
  8
AM_5
 62
     3
370
    13
100
AcDbBlockReference
  2
_Open30
 10
44.36513295447823
 20
-3.499999999999994
 30
0.0
 41
2.5
 42
2.5
 43
2.5
 50
87.7114144288113
  0
MTEXT
  5
2EC0
330
1F04
100
AcDbEntity
  8
AM_5
 62
     2
370
    13
100
AcDbMText
 10
40.91861808080367
 20
-5.11046949886641
 30
0.0
 40
3.8
 41
0.0
 71
     5
 72
     1
  1
15°
 11
0.05771745765303315
 21
0.9983329580265645
 31
0.0
 73
     1
 44
1.0
  0
POINT
  5
2EC1
330
1F04
100
AcDbEntity
  8
Defpoints
 62
     0
370
    13
100
AcDbPoint
 10
43.88957566247322
 20
-8.935645648045032
 30
0.0
  0
POINT
  5
2EC2
330
1F04
100
AcDbEntity
  8
Defpoints
 62
     0
370
    13
100
AcDbPoint
 10
11.791303
 20
-3.159386000000013
 30
0.0
  0
POINT
  5
2EC3
330
1F04
100
AcDbEntity
  8
Defpoints
 62
     0
370
    13
100
AcDbPoint
 10
14.10569204517768
 20
-3.5
 30
0.0
  0
POINT
  5
2EC4
330
1F04
100
AcDbEntity
  8
Defpoints
 62
     0
370
    13
100
AcDbPoint
 10
34.132658
 20
-3.500000000000001
 30
0.0
  0
POINT
  5
2EC5
330
1F04
100
AcDbEntity
  8
Defpoints
 62
     0
370
    13
100
AcDbPoint
 10
0.2967859999995995
 20
-0.0794399999999058
 30
0.0
  0
ENDBLK
  5
1F12
330
1F04
100
AcDbEntity
  8
0
370
    13
100
AcDbBlockEnd
  0
BLOCK
  5
2A90
330
2A71
100
AcDbEntity
  8
0
370
    13
100
AcDbBlockBegin
  2
*D9
 70
     1
 71
     0
 10
0.0
 20
0.0
 30
0.0
  3
*D9
  1

  0
LINE
  5
3069
330
2A71
100
AcDbEntity
  8
AM_5
 62
     3
370
    13
100
AcDbLine
 10
28.04023767455978
 20
-100.4561614842983
 30
0.0
 11
40.59728370179886
 21
-103.820770684458
 31
0.0
  0
LINE
  5
306A
330
2A71
100
AcDbEntity
  8
AM_5
 62
     3
370
    13
100
AcDbLine
 10
36.32235262879919
 20
-69.54650972494059
 30
0.0
 11
48.87939865603827
 21
-72.91111892510037
 31
0.0
  0
LINE
  5
306B
330
2A71
100
AcDbEntity
  8
AM_5
 62
     3
370
    13
100
AcDbLine
 10
40.2783973151189
 20
-101.1471380484382
 30
0.0
 11
47.26643180775839
 21
-75.06711937648021
 31
0.0
  0
INSERT
  5
306C
330
2A71
100
AcDbEntity
  8
AM_5
 62
     3
370
    13
100
AcDbBlockReference
  2
_Open30
 10
39.63135708431894
 20
-103.5619545921381
 30
0.0
 41
2.5
 42
2.5
 43
2.5
 50
255.0001751499996
  0
INSERT
  5
306D
330
2A71
100
AcDbEntity
  8
AM_5
 62
     3
370
    13
100
AcDbBlockReference
  2
_Open30
 10
47.91347203855835
 20
-72.65230283278038
 30
0.0
 41
2.5
 42
2.5
 43
2.5
 50
75.00017514999954
  0
MTEXT
  5
306E
330
2A71
100
AcDbEntity
  8
AM_5
 62
     2
100
AcDbMText
 10
40.48790279024052
 20
-87.22705719727694
 30
0.0
 40
3.8
 41
0.0
 71
     5
 72
     1
  1
32
 11
0.2588160923199817
 21
0.9659266174799278
 31
0.0
 73
     1
 44
1.0
  0
POINT
  5
306F
330
2A71
100
AcDbEntity
  8
Defpoints
 62
     0
370
    13
100
AcDbPoint
 10
28.04023767455978
 20
-100.4561614842983
 30
0.0
  0
POINT
  5
3070
330
2A71
100
AcDbEntity
  8
Defpoints
 62
     0
370
    13
100
AcDbPoint
 10
36.32235262879919
 20
-69.54650972494059
 30
0.0
  0
POINT
  5
3071
330
2A71
100
AcDbEntity
  8
Defpoints
 62
     0
370
    13
100
AcDbPoint
 10
47.91347203855835
 20
-72.65230283278038
 30
0.0
  0
ENDBLK
  5
2A91
330
2A71
100
AcDbEntity
  8
0
370
    13
100
AcDbBlockEnd
  0
BLOCK
  5
2ABC
330
2AA6
100
AcDbEntity
  8
0
370
    13
100
AcDbBlockBegin
  2
*D10
 70
     1
 71
     0
 10
0.0
 20
0.0
 30
0.0
  3
*D10
  1

  0
LINE
  5
3060
330
2AA6
100
AcDbEntity
  8
AM_5
 62
     3
370
    13
100
AcDbLine
 10
-22.1808631823392
 20
-86.99962261212046
 30
0.0
 11
-36.90582367606039
 21
-83.05412958440591
 31
0.0
  0
LINE
  5
3061
330
2AA6
100
AcDbEntity
  8
AM_5
 62
     3
370
    13
100
AcDbLine
 10
-15.04262519060807
 20
-55.78347369223982
 30
0.0
 11
-28.62370872182115
 21
-52.14447782504828
 31
0.0
  0
LINE
  5
3062
330
2AA6
100
AcDbEntity
  8
AM_5
 62
     3
370
    13
100
AcDbLine
 10
-35.29285682778051
 20
-80.89812913302606
 30
0.0
 11
-28.30482233514117
 21
-54.81811046106808
 31
0.0
  0
INSERT
  5
3063
330
2AA6
100
AcDbEntity
  8
AM_5
 62
     3
370
    13
100
AcDbBlockReference
  2
_Open30
 10
-35.93989705858046
 20
-83.31294567672589
 30
0.0
 41
2.5
 42
2.5
 43
2.5
 50
255.0001751499998
  0
INSERT
  5
3064
330
2AA6
100
AcDbEntity
  8
AM_5
 62
     3
370
    13
100
AcDbBlockReference
  2
_Open30
 10
-27.65778210434122
 20
-52.40329391736826
 30
0.0
 41
2.5
 42
2.5
 43
2.5
 50
75.00017514999982
  0
MTEXT
  5
3065
330
2AA6
100
AcDbEntity
  8
AM_5
 62
     2
100
AcDbMText
 10
-34.7796434681968
 20
-65.84458116662118
 30
0.0
 40
3.8
 41
0.0
 71
     5
 72
     1
  1
32
 11
0.2588160923199769
 21
0.965926617479929
 31
0.0
 73
     1
 44
1.0
  0
POINT
  5
3066
330
2AA6
100
AcDbEntity
  8
Defpoints
 62
     0
370
    13
100
AcDbPoint
 10
-22.1808631823392
 20
-86.99962261212046
 30
0.0
  0
POINT
  5
3067
330
2AA6
100
AcDbEntity
  8
Defpoints
 62
     0
370
    13
100
AcDbPoint
 10
-15.04262519060807
 20
-55.78347369223982
 30
0.0
  0
POINT
  5
3068
330
2AA6
100
AcDbEntity
  8
Defpoints
 62
     0
370
    13
100
AcDbPoint
 10
-27.65778210434122
 20
-52.40329391736826
 30
0.0
  0
ENDBLK
  5
2ABD
330
2AA6
100
AcDbEntity
  8
0
370
    13
100
AcDbBlockEnd
  0
BLOCK
  5
2E5F
330
2E58
100
AcDbEntity
  8
0
370
    13
100
AcDbBlockBegin
  2
A$C4828096E
 70
     0
 71
     0
 10
0.0
 20
0.0
 30
0.0
  3
A$C4828096E
  1

  0
LINE
  5
2E59
330
2E58
100
AcDbEntity
  8
AM_5
100
AcDbLine
 10
-0.0000001351605761
 20
-0.0000002982438616
 30
0.0
 11
1.772890097231255
 21
6.616597031493654
 31
0.0
  0
LINE
  5
2E5A
330
2E58
100
AcDbEntity
  8
AM_5
100
AcDbLine
 10
1.772890097231255
 20
6.616597031493654
 30
0.0
 11
2.588160788039147
 21
9.659265876555438
 31
0.0
  0
LINE
  5
2E5B
330
2E58
100
AcDbEntity
  8
AM_5
100
AcDbLine
 10
2.17346504822774
 20
6.509264609317881
 30
0.0
 11
2.588160788039147
 21
9.659265876555438
 31
0.0
  0
LINE
  5
2E5C
330
2E58
100
AcDbEntity
  8
AM_5
100
AcDbLine
 10
2.588160788039147
 20
9.659265876555438
 30
0.0
 11
1.37231514623474
 21
6.723929453669427
 31
0.0
  0
ENDBLK
  5
2E60
330
2E58
100
AcDbEntity
  8
0
370
    13
100
AcDbBlockEnd
  0
ENDSEC
  0
SECTION
  2
ENTITIES
  0
TEXT
  5
183C
330
1F
100
AcDbEntity
  8
AM_6
  6
Continuous
 62
     0
370
    30
100
AcDbText
 10
54.34312791413777
 20
-111.4799726126644
 30
0.0
 40
3.8
  1
FP11R-45A
  7
ACISOTS
100
AcDbText
  0
LINE
  5
1B68
330
1F
100
AcDbEntity
  8
AM_0
100
AcDbLine
 10
34.52397230452858
 20
-3.499999999999996
 30
0.0
 11
34.5
 21
21.5
 31
0.0
  0
LINE
  5
1B69
330
1F
100
AcDbEntity
  8
AM_0
100
AcDbLine
 10
34.154831
 20
-3.5
 30
0.0
 11
34.13265799999999
 21
-3.5
 31
0.0
  0
LINE
  5
1B6A
330
1F
100
AcDbEntity
  8
AM_0
100
AcDbLine
 10
14.21174574999998
 20
21.5
 30
0.0
 11
160.0
 21
21.5
 31
0.0
  0
LINE
  5
1B6C
330
1F
100
AcDbEntity
  8
AM_0
100
AcDbLine
 10
160.0
 20
-3.5
 30
0.0
 11
160.0
 21
21.5
 31
0.0
  0
LINE
  5
1B6D
330
1F
100
AcDbEntity
  8
AM_0
100
AcDbLine
 10
34.154831
 20
-3.5
 30
0.0
 11
160.0
 21
-3.5
 31
0.0
  0
LINE
  5
1B6E
330
1F
100
AcDbEntity
  8
AM_0
100
AcDbLine
 10
5.551491999999996
 20
16.5
 30
0.0
 11
14.21174574999999
 21
21.5
 31
0.0
  0
LINE
  5
1B71
330
1F
100
AcDbEntity
  8
AM_0
100
AcDbLine
 10
5.551491999999996
 20
16.5
 30
0.0
 11
4.329123999999993
 21
11.93800399999998
 31
0.0
  0
LINE
  5
1B74
330
1F
100
AcDbEntity
  8
AM_0
100
AcDbLine
 10
12.99273900000009
 20
-3.499999999999986
 30
0.0
 11
34.13265799999999
 21
-3.5
 31
0.0
  0
LINE
  5
1B75
330
1F
100
AcDbEntity
  8
AM_0
100
AcDbLine
 10
3.61083099999999
 20
6.347929999999991
 30
0.0
 11
1.854190999999986
 21
3.173733999999996
 31
0.0
  0
LINE
  5
1B78
330
1F
100
AcDbEntity
  8
AM_0
100
AcDbLine
 10
4.498548999999997
 20
5.652840999999995
 30
0.0
 11
12.35009599999999
 21
3.549025
 31
0.0
  0
LINE
  5
1B7C
330
1F
100
AcDbEntity
  8
AM_0
100
AcDbLine
 10
14.897413
 20
5.886257000000001
 30
0.0
 11
12.582005
 21
1.893158
 31
0.0
  0
LINE
  5
1B7E
330
1F
100
AcDbEntity
  8
AM_0
100
AcDbLine
 10
5.018269999999987
 20
6.844934999999992
 30
0.0
 11
13.01826999999999
 21
4.701340999999985
 31
0.0
  0
LINE
  5
1B7F
330
1F
100
AcDbEntity
  8
AM_0
100
AcDbLine
 10
5.198364999999996
 20
9.085768999999999
 30
0.0
 11
3.611173999999991
 21
6.348534999999998
 31
0.0
  0
LINE
  5
1B82
330
1F
100
AcDbEntity
  8
AM_0
100
AcDbLine
 10
13.53397299999999
 20
5.590710999999999
 30
0.0
 11
5.533972999999989
 21
7.73430399999998
 31
0.0
  0
LINE
  5
1B84
330
1F
100
AcDbEntity
  8
AM_0
100
AcDbLine
 10
5.791823999999991
 20
8.178989000000001
 30
0.0
 11
13.79182399999999
 21
6.035394999999994
 31
0.0
  0
LINE
  5
1B87
330
1F
100
AcDbEntity
  8
AM_0
100
AcDbLine
 10
11.39827799999999
 20
-0.3064860000000067
 30
0.0
 11
12.05747
 21
0.8331619999999873
 31
0.0
  0
LINE
  5
1B8B
330
1F
100
AcDbEntity
  8
AM_0
100
AcDbLine
 10
2.279450999999995
 20
2.136896999999976
 30
0.0
 11
11.39827799999999
 21
-0.3064860000000067
 31
0.0
  0
LINE
  5
1B8C
330
1F
100
AcDbEntity
  8
AM_0
100
AcDbLine
 10
1.789964999999995
 20
3.014684999999986
 30
0.0
 11
1.783944999999989
 21
2.992244
 31
0.0
  0
LINE
  5
1B8D
330
1F
100
AcDbEntity
  8
AM_0
100
AcDbLine
 10
25.42406699999998
 20
10.82667599999999
 30
0.0
 11
26.29536400000001
 21
8.693978999999985
 31
0.0
  0
LINE
  5
1B8E
330
1F
100
AcDbEntity
  8
AM_0
100
AcDbLine
 10
23.136774
 20
11.144477
 30
0.0
 11
25.42406699999998
 21
10.82667599999999
 31
0.0
  0
LINE
  5
1B8F
330
1F
100
AcDbEntity
  8
AM_0
100
AcDbLine
 10
21.72077899999999
 20
9.329582999999985
 30
0.0
 11
23.136774
 21
11.144477
 31
0.0
  0
LINE
  5
1B90
330
1F
100
AcDbEntity
  8
AM_0
100
AcDbLine
 10
22.59207599999999
 20
7.196885999999978
 30
0.0
 11
21.72077899999999
 21
9.329582999999985
 31
0.0
  0
LINE
  5
1B91
330
1F
100
AcDbEntity
  8
AM_0
100
AcDbLine
 10
24.879369
 20
6.879085000000003
 30
0.0
 11
22.59207599999999
 21
7.196885999999978
 31
0.0
  0
LINE
  5
1B92
330
1F
100
AcDbEntity
  8
AM_0
100
AcDbLine
 10
26.29536400000001
 20
8.693978999999985
 30
0.0
 11
24.879369
 21
6.879085000000003
 31
0.0
  0
LINE
  5
1B93
330
1F
100
AcDbEntity
  8
AM_0
100
AcDbLine
 10
23.136774
 20
11.144477
 30
0.0
 11
23.08025799999999
 21
10.933887
 31
0.0
  0
LINE
  5
1B94
330
1F
100
AcDbEntity
  8
AM_0
100
AcDbLine
 10
21.757822
 20
9.238910000000004
 30
0.0
 11
23.08025799999999
 21
10.933887
 31
0.0
  0
LINE
  5
1B95
330
1F
100
AcDbEntity
  8
AM_0
100
AcDbLine
 10
25.42406699999998
 20
10.82667599999999
 30
0.0
 11
25.36755099999999
 21
10.616086
 31
0.0
  0
LINE
  5
1B96
330
1F
100
AcDbEntity
  8
AM_0
100
AcDbLine
 10
25.36755099999999
 20
10.616086
 30
0.0
 11
26.20180399999998
 21
8.574061999999998
 31
0.0
  0
LINE
  5
1B97
330
1F
100
AcDbEntity
  8
AM_0
100
AcDbLine
 10
23.08025799999999
 20
10.933887
 30
0.0
 11
25.36755099999999
 21
10.616086
 31
0.0
  0
LINE
  5
1B9E
330
1F
100
AcDbEntity
  8
AM_0
100
AcDbLine
 10
33.15350699999999
 20
4.999335000000002
 30
0.0
 11
30.08915299999998
 21
16.360321
 31
0.0
  0
LINE
  5
1BA1
330
1F
100
AcDbEntity
  8
AM_0
100
AcDbLine
 10
5.509063999999995
 20
13.284087
 30
0.0
 11
4.639927999999998
 21
10.04038599999998
 31
0.0
  0
LINE
  5
1BA3
330
1F
100
AcDbEntity
  8
AM_0
100
AcDbLine
 10
26.61836
 20
20.41109799999998
 30
0.0
 11
16.37643599999998
 21
20.42085499999999
 31
0.0
  0
LINE
  5
1BA7
330
1F
100
AcDbEntity
  8
AM_0
100
AcDbLine
 10
17.547337
 20
3.137668999999988
 30
0.0
 11
21.025396
 21
-1.809685000000002
 31
0.0
  0
LINE
  5
1BAA
330
1F
100
AcDbEntity
  8
AM_0
100
AcDbLine
 10
31.60539299999999
 20
1.055002000000002
 30
0.0
 11
30.90980299999998
 21
0.6551699999999983
 31
0.0
  0
LINE
  5
1BAB
330
1F
100
AcDbEntity
  8
AM_0
100
AcDbLine
 10
30.930149
 20
0.7309829999999806
 30
0.0
 11
30.90980299999998
 21
0.6551699999999983
 31
0.0
  0
LINE
  5
1BAC
330
1F
100
AcDbEntity
  8
AM_0
100
AcDbLine
 10
24.982677
 20
-2.687683000000021
 30
0.0
 11
30.930149
 21
0.7309829999999806
 31
0.0
  0
LINE
  5
1BAD
330
1F
100
AcDbEntity
  8
AM_0
100
AcDbLine
 10
33.000764
 20
2.867667999999981
 30
0.0
 11
33.15449000000001
 21
3.440472999999997
 31
0.0
  0
LINE
  5
1BAE
330
1F
100
AcDbEntity
  8
AM_0
100
AcDbLine
 10
14.90786399999999
 20
5.92519999999999
 30
0.0
 11
14.867533
 21
5.77491999999998
 31
0.0
  0
LINE
  5
1BAF
330
1F
100
AcDbEntity
  8
AM_0
100
AcDbLine
 10
14.867533
 20
5.77491999999998
 30
0.0
 11
14.85909299999999
 21
5.743471999999997
 31
0.0
  0
LINE
  5
1BB0
330
1F
100
AcDbEntity
  8
AM_0
100
AcDbLine
 10
30.89482999999999
 20
0.7106809999999939
 30
0.0
 11
30.90980299999998
 21
0.6551699999999983
 31
0.0
  0
LINE
  5
1BB1
330
1F
100
AcDbEntity
  8
AM_0
100
AcDbLine
 10
11.791303
 20
-3.159386000000012
 30
0.0
 11
0.2967862783054613
 21
-0.0794400745717354
 31
0.0
  0
LINE
  5
1BB2
330
1F
100
AcDbEntity
  8
AM_5
370
    13
100
AcDbLine
 10
-15.04508100469752
 20
-55.79126972524855
 30
0.0
 11
0.0135481974329821
 21
0.4089867368390117
 31
0.0
  0
LINE
  5
1BB3
330
1F
100
AcDbEntity
  8
AM_0
100
AcDbLine
 10
3.571224999999998
 20
12.14108199999998
 30
0.0
 11
5.093506999999988
 21
11.73318799999998
 31
0.0
  0
LINE
  5
1BB4
330
1F
100
AcDbEntity
  8
AM_0
100
AcDbLine
 10
14.362951
 20
4.892752999999999
 30
0.0
 11
12.28080599999998
 21
-2.878016000000002
 31
0.0
  0
ARC
  5
1BF8
330
1F
100
AcDbEntity
  8
AM_0
100
AcDbCircle
 10
30.25701999999998
 20
4.218076999999994
 30
0.0
 40
3.00000006361933
100
AcDbArc
 50
344.9773229489137
 51
15.09494448674635
  0
ARC
  5
1BF9
330
1F
100
AcDbEntity
  8
AM_0
100
AcDbCircle
 10
15.90314699999999
 20
15.419577
 30
0.0
 40
5.000000228325
100
AcDbArc
 50
90.48081537693891
 51
119.5713333949119
  0
ARC
  5
1C04
330
1F
100
AcDbEntity
  8
AM_0
100
AcDbCircle
 10
23.90991499999998
 20
8.68023199999999
 30
0.0
 40
6.01166005693112
100
AcDbArc
 50
0.109889903378387
 51
93.59691345973839
  0
ARC
  5
1C05
330
1F
100
AcDbEntity
  8
AM_0
100
AcDbCircle
 10
23.90828499999998
 20
8.706170999999984
 30
0.0
 40
5.9856691465005
100
AcDbArc
 50
93.59691862507708
 51
187.33169495888
  0
ARC
  5
1C06
330
1F
100
AcDbEntity
  8
AM_0
100
AcDbCircle
 10
23.93580299999999
 20
8.709710999999999
 30
0.0
 40
6.01341459412886
100
AcDbArc
 50
187.3316891900688
 51
273.5802635571983
  0
ARC
  5
1C07
330
1F
100
AcDbEntity
  8
AM_0
100
AcDbCircle
 10
23.93764399999998
 20
8.680284999999998
 30
0.0
 40
5.98392985481364
100
AcDbArc
 50
273.5802649986931
 51
0.1098916521513283
  0
ARC
  5
1C08
330
1F
100
AcDbEntity
  8
AM_0
100
AcDbCircle
 10
24.002959
 20
9.006978000000004
 30
0.0
 40
2.50447360552472
100
AcDbArc
 50
0.1098800949946319
 51
93.59692387315312
  0
ARC
  5
1C09
330
1F
100
AcDbEntity
  8
AM_0
100
AcDbCircle
 10
24.00227999999999
 20
9.017784000000006
 30
0.0
 40
2.49364625556473
100
AcDbArc
 50
93.59693014356175
 51
187.3316865742745
  0
ARC
  5
1C0A
330
1F
100
AcDbEntity
  8
AM_0
100
AcDbCircle
 10
24.013744
 20
9.019258999999977
 30
0.0
 40
2.50520450045361
100
AcDbArc
 50
187.3316861940391
 51
273.5802676079362
  0
ARC
  5
1C0B
330
1F
100
AcDbEntity
  8
AM_0
100
AcDbCircle
 10
24.014511
 20
9.007000000000005
 30
0.0
 40
2.49292145178323
100
AcDbArc
 50
273.5802683498858
 51
0.1098836367219066
  0
ARC
  5
1C28
330
1F
100
AcDbEntity
  8
AM_0
100
AcDbCircle
 10
23.95351499999998
 20
8.814347999999995
 30
0.0
 40
6.274110771522691
100
AcDbArc
 50
51.94884420225132
 51
108.2459202895125
  0
ARC
  5
1C29
330
1F
100
AcDbEntity
  8
AM_0
100
AcDbCircle
 10
23.93574100000001
 20
8.868262999999985
 30
0.0
 40
6.21734114155239
100
AcDbArc
 50
108.245922428808
 51
164.9773349016212
  0
ARC
  5
1C2A
330
1F
100
AcDbEntity
  8
AM_0
100
AcDbCircle
 10
24.00196299999999
 20
8.851947999999993
 30
0.0
 40
6.21455387571352
100
AcDbArc
 50
295.0850229414973
 51
338.1042399983966
  0
ARC
  5
1C2B
330
1F
100
AcDbEntity
  8
AM_0
100
AcDbCircle
 10
23.978467
 20
8.902141
 30
0.0
 40
6.26997434616323
100
AcDbArc
 50
252.4117287593293
 51
295.0850219332069
  0
ARC
  5
1C2C
330
1F
100
AcDbEntity
  8
AM_0
100
AcDbCircle
 10
23.92136599999998
 20
8.872120999999993
 30
0.0
 40
6.202458100890079
100
AcDbArc
 50
164.9773361058195
 51
167.5111984581973
  0
ARC
  5
1C2D
330
1F
100
AcDbEntity
  8
AM_0
100
AcDbCircle
 10
23.92172499999998
 20
8.872040999999996
 30
0.0
 40
6.20282555199258
100
AcDbArc
 50
167.5111940821779
 51
170.0449093408962
  0
ARC
  5
1C2E
330
1F
100
AcDbEntity
  8
AM_0
100
AcDbCircle
 10
23.922179
 20
8.871961999999996
 30
0.0
 40
6.20328629943589
100
AcDbArc
 50
170.0449155778501
 51
173.8455223708009
  0
ARC
  5
1C2F
330
1F
100
AcDbEntity
  8
AM_0
100
AcDbCircle
 10
23.924072
 20
8.871757000000002
 30
0.0
 40
6.20519097642168
100
AcDbArc
 50
173.8455143286037
 51
177.644963766581
  0
ARC
  5
1C30
330
1F
100
AcDbEntity
  8
AM_0
100
AcDbCircle
 10
23.91022799999999
 20
8.648032999999998
 30
0.0
 40
6.25023257431353
100
AcDbArc
 50
346.5064748602201
 51
75.23630439128849
  0
ARC
  5
1C31
330
1F
100
AcDbEntity
  8
AM_0
100
AcDbCircle
 10
23.91034099999999
 20
8.648460999999998
 30
0.0
 40
6.24978941578178
100
AcDbArc
 50
75.23630623164732
 51
163.9701913462814
  0
ARC
  5
1C66
330
1F
100
AcDbEntity
  8
AM_0
100
AcDbCircle
 10
16.37643299999999
 20
20.41774599999999
 30
0.0
 40
0.0031091220625751
100
AcDbArc
 50
46.1989177308436
 51
89.94471299930439
  0
ARC
  5
1C67
330
1F
100
AcDbEntity
  8
AM_0
100
AcDbCircle
 10
16.37038699999999
 20
20.41144
 30
0.0
 40
0.0118454934890857
100
AcDbArc
 50
34.17570430335528
 51
46.20403305097539
  0
ARC
  5
1C68
330
1F
100
AcDbEntity
  8
AM_0
100
AcDbCircle
 10
16.36272799999999
 20
20.40624
 30
0.0
 40
0.0211023597732576
100
AcDbArc
 50
23.01961977274574
 51
34.17501989335525
  0
ARC
  5
1C69
330
1F
100
AcDbEntity
  8
AM_0
100
AcDbCircle
 10
16.321956
 20
20.388916
 30
0.0
 40
0.0654025452180591
100
AcDbArc
 50
19.41097537051676
 51
23.02029164242299
  0
ARC
  5
1C70
330
1F
100
AcDbEntity
  8
AM_0
100
AcDbCircle
 10
16.33520899999999
 20
19.91371099999998
 30
0.0
 40
0.693121958016766
100
AcDbArc
 50
133.1485319158372
 51
134.3092725399931
  0
ARC
  5
1C7A
330
1F
100
AcDbEntity
  8
AM_0
100
AcDbCircle
 10
23.48866999999999
 20
-0.0885499999999979
 30
0.0
 40
2.99792399502389
100
AcDbArc
 50
282.8946890085409
 51
299.8907093001031
  0
ARC
  5
1C7B
330
1F
100
AcDbEntity
  8
AM_0
100
AcDbCircle
 10
23.48624599999999
 20
-0.0779640000000086
 30
0.0
 40
3.00878378701295
100
AcDbArc
 50
265.9591124255923
 51
282.8946985692779
  0
ARC
  5
1C7C
330
1F
100
AcDbEntity
  8
AM_0
100
AcDbCircle
 10
23.48647399999999
 20
-0.0747390000000223
 30
0.0
 40
3.01201646593275
100
AcDbArc
 50
240.5705889858243
 51
265.9591091385593
  0
ARC
  5
1C7D
330
1F
100
AcDbEntity
  8
AM_0
100
AcDbCircle
 10
23.482011
 20
-0.082650000000001
 30
0.0
 40
3.00293309107113
100
AcDbArc
 50
215.1077592384358
 51
240.5705894652652
  0
ARC
  5
1C80
330
1F
100
AcDbEntity
  8
AM_0
100
AcDbCircle
 10
30.12533499999998
 20
3.63935699999999
 30
0.0
 40
2.97717915348489
100
AcDbArc
 50
342.8183085812507
 51
344.9773188772257
  0
ARC
  5
1C81
330
1F
100
AcDbEntity
  8
AM_0
100
AcDbCircle
 10
30.12521199999998
 20
3.639394999999979
 30
0.0
 40
2.97730819502601
100
AcDbArc
 50
340.6593822441475
 51
342.8183091657995
  0
ARC
  5
1C82
330
1F
100
AcDbEntity
  8
AM_0
100
AcDbCircle
 10
30.12509899999998
 20
3.639434999999992
 30
0.0
 40
2.97742814394605
100
AcDbArc
 50
338.7703199240526
 51
340.6593761067783
  0
ARC
  5
1C83
330
1F
100
AcDbEntity
  8
AM_0
100
AcDbCircle
 10
30.124799
 20
3.639550999999983
 30
0.0
 40
2.97775023390646
100
AcDbArc
 50
336.8814845998971
 51
338.7703296298884
  0
ARC
  5
1C84
330
1F
100
AcDbEntity
  8
AM_0
100
AcDbCircle
 10
30.124608
 20
3.639633000000003
 30
0.0
 40
2.97795719238071
100
AcDbArc
 50
334.9926352912886
 51
336.8814764844213
  0
ARC
  5
1C85
330
1F
100
AcDbEntity
  8
AM_0
100
AcDbCircle
 10
30.124146
 20
3.639848000000001
 30
0.0
 40
2.97846670712247
100
AcDbArc
 50
333.1041138578954
 51
334.9926441202064
  0
ARC
  5
1C86
330
1F
100
AcDbEntity
  8
AM_0
100
AcDbCircle
 10
30.12387699999999
 20
3.639983999999998
 30
0.0
 40
2.97876823480931
100
AcDbArc
 50
331.2155950477047
 51
333.104121529288
  0
ARC
  5
1C87
330
1F
100
AcDbEntity
  8
AM_0
100
AcDbCircle
 10
30.12327199999999
 20
3.640316999999982
 30
0.0
 40
2.97945871814328
100
AcDbArc
 50
329.3274944457708
 51
331.2155847187514
  0
ARC
  5
1C88
330
1F
100
AcDbEntity
  8
AM_0
100
AcDbCircle
 10
30.12293800000001
 20
3.640514999999994
 30
0.0
 40
2.97984737147274
100
AcDbArc
 50
327.4394009389022
 51
329.3274960659447
  0
ARC
  5
1C89
330
1F
100
AcDbEntity
  8
AM_0
100
AcDbCircle
 10
30.12221399999999
 20
3.640976999999992
 30
0.0
 40
2.98070663641896
100
AcDbArc
 50
325.5518765797505
 51
327.4394060603111
  0
ARC
  5
1C8A
330
1F
100
AcDbEntity
  8
AM_0
100
AcDbCircle
 10
30.121827
 20
3.641243000000003
 30
0.0
 40
2.981175381804471
100
AcDbArc
 50
323.6643190439013
 51
325.5518680553283
  0
ARC
  5
1C8B
330
1F
100
AcDbEntity
  8
AM_0
100
AcDbCircle
 10
30.12101099999998
 20
3.641842999999994
 30
0.0
 40
2.98218905225088
100
AcDbArc
 50
321.7774247628046
 51
323.6643220513416
  0
ARC
  5
1C8C
330
1F
100
AcDbEntity
  8
AM_0
100
AcDbCircle
 10
30.12058500000001
 20
3.642178000000001
 30
0.0
 40
2.98273111272102
100
AcDbArc
 50
319.8905216158966
 51
321.777432320629
  0
ARC
  5
1C8D
330
1F
100
AcDbEntity
  8
AM_0
100
AcDbCircle
 10
30.11970700000001
 20
3.64291799999998
 30
0.0
 40
2.98387953279032
100
AcDbArc
 50
318.0043438541167
 51
319.8905156377042
  0
ARC
  5
1C8E
330
1F
100
AcDbEntity
  8
AM_0
100
AcDbCircle
 10
30.11925700000001
 20
3.643322999999981
 30
0.0
 40
2.98448469624574
100
AcDbArc
 50
316.1181718363812
 51
318.0043455669403
  0
ARC
  5
1C8F
330
1F
100
AcDbEntity
  8
AM_0
100
AcDbCircle
 10
30.11834500000001
 20
3.644199999999984
 30
0.0
 40
2.98574957643822
100
AcDbArc
 50
314.2327880539363
 51
316.1181729466214
  0
ARC
  5
1C90
330
1F
100
AcDbEntity
  8
AM_0
100
AcDbCircle
 10
30.117885
 20
3.644671999999986
 30
0.0
 40
2.98640841254173
100
AcDbArc
 50
312.3474288900577
 51
314.2327945729315
  0
ARC
  5
1C91
330
1F
100
AcDbEntity
  8
AM_0
100
AcDbCircle
 10
30.11696899999998
 20
3.645677999999975
 30
0.0
 40
2.9877693520948
100
AcDbArc
 50
310.4628883487253
 51
312.3474159504438
  0
ARC
  5
1C92
330
1F
100
AcDbEntity
  8
AM_0
100
AcDbCircle
 10
30.116514
 20
3.646210999999994
 30
0.0
 40
2.9884707229185
100
AcDbArc
 50
308.5783927671834
 51
310.4628937711065
  0
ARC
  5
1C93
330
1F
100
AcDbEntity
  8
AM_0
100
AcDbCircle
 10
30.11562199999997
 20
3.647329999999982
 30
0.0
 40
2.98990096727132
100
AcDbArc
 50
306.6947657769049
 51
308.5783838497499
  0
ARC
  5
1C94
330
1F
100
AcDbEntity
  8
AM_0
100
AcDbCircle
 10
30.11500799999999
 20
3.648152999999979
 30
0.0
 40
2.9909280023608
100
AcDbArc
 50
303.2912285755017
 51
306.6947760937013
  0
ARC
  5
1C95
330
1F
100
AcDbEntity
  8
AM_0
100
AcDbCircle
 10
30.11353199999999
 20
3.650400999999988
 30
0.0
 40
2.9936174125165
100
AcDbArc
 50
299.8907149355538
 51
303.2912258973159
  0
ARC
  5
1C98
330
1F
100
AcDbEntity
  8
AM_0
100
AcDbCircle
 10
9.351231999999996
 20
-2.629827000000006
 30
0.0
 40
10.0224091573367
100
AcDbArc
 50
45.89854943073421
 51
56.66353527355412
  0
ARC
  5
1C99
330
1F
100
AcDbEntity
  8
AM_0
100
AcDbCircle
 10
9.368020999999999
 20
-2.612504000000001
 30
0.0
 40
9.998284840800698
100
AcDbArc
 50
35.10775205615332
 51
45.8985535240216
  0
ARC
  5
1C9A
330
1F
100
AcDbEntity
  8
AM_0
100
AcDbCircle
 10
0.3969939999999923
 20
0.3062439999999924
 30
0.0
 40
0.39697198072408
100
AcDbArc
 50
165.0002852468631
 51
183.0763194582044
  0
ARC
  5
1C9B
330
1F
100
AcDbEntity
  8
AM_0
100
AcDbCircle
 10
0.3980719999999991
 20
0.3063009999999906
 30
0.0
 40
0.398052569093581
100
AcDbArc
 50
183.0761849882368
 51
201.1040847025793
  0
ARC
  5
1C9C
330
1F
100
AcDbEntity
  8
AM_0
100
AcDbCircle
 10
0.3992779999999954
 20
0.3067669999999794
 30
0.0
 40
0.399345111025539
100
AcDbArc
 50
201.1041575909645
 51
228.1207748698498
  0
ARC
  5
1C9D
330
1F
100
AcDbEntity
  8
AM_0
100
AcDbCircle
 10
0.4006919999999923
 20
0.3083449999999743
 30
0.0
 40
0.401464140052385
100
AcDbArc
 50
228.1208626374931
 51
255.0000934080649
  0
ARC
  5
1C9E
330
1F
100
AcDbEntity
  8
AM_0
100
AcDbCircle
 10
3.467302999999987
 20
11.75323799999998
 30
0.0
 40
0.401525528976678
100
AcDbArc
 50
75.00006706806343
 51
88.4452884313404
  0
ARC
  5
1C9F
330
1F
100
AcDbEntity
  8
AM_0
100
AcDbCircle
 10
3.467319999999987
 20
11.75387799999999
 30
0.0
 40
0.4008855868860851
100
AcDbArc
 50
88.44523548950654
 51
101.9116535426606
  0
ARC
  5
1CA0
330
1F
100
AcDbEntity
  8
AM_0
100
AcDbCircle
 10
3.46719499999999
 20
11.75447199999999
 30
0.0
 40
0.40027824252887
100
AcDbArc
 50
101.9116957867253
 51
115.3807084313138
  0
ARC
  5
1CA1
330
1F
100
AcDbEntity
  8
AM_0
100
AcDbCircle
 10
3.466599999999986
 20
11.75572499999998
 30
0.0
 40
0.398891974612175
100
AcDbArc
 50
115.3806372139008
 51
128.8959550938962
  0
ARC
  5
1CA2
330
1F
100
AcDbEntity
  8
AM_0
100
AcDbCircle
 10
3.466229999999996
 20
11.75618399999999
 30
0.0
 40
0.3983016061453921
100
AcDbArc
 50
128.895990115298
 51
137.9072117167564
  0
ARC
  5
1CA3
330
1F
100
AcDbEntity
  8
AM_0
100
AcDbCircle
 10
3.465661999999995
 20
11.75669699999997
 30
0.0
 40
0.397536534597765
100
AcDbArc
 50
137.9072012852346
 51
146.9356925253995
  0
ARC
  5
1CA4
330
1F
100
AcDbEntity
  8
AM_0
100
AcDbCircle
 10
3.46542199999999
 20
11.75685399999998
 30
0.0
 40
0.397249779008119
100
AcDbArc
 50
146.9357842599243
 51
155.9647719529855
  0
ARC
  5
1CA5
330
1F
100
AcDbEntity
  8
AM_0
100
AcDbCircle
 10
3.465154999999996
 20
11.75697199999999
 30
0.0
 40
0.3969575194929561
100
AcDbArc
 50
155.9646305312896
 51
165.0001805131624
  0
ARC
  5
1CA6
330
1F
100
AcDbEntity
  8
AM_0
100
AcDbCircle
 10
11.89737
 20
-2.775275000000022
 30
0.0
 40
0.396961659520161
100
AcDbArc
 50
331.4450861713383
 51
345.0000511033615
  0
ARC
  5
1CA7
330
1F
100
AcDbEntity
  8
AM_0
100
AcDbCircle
 10
11.896812
 20
-2.77497200000002
 30
0.0
 40
0.39759683565265
100
AcDbArc
 50
317.9115553648726
 51
331.4451699779334
  0
ARC
  5
1CA8
330
1F
100
AcDbEntity
  8
AM_0
100
AcDbCircle
 10
11.896362
 20
-2.774566000000021
 30
0.0
 40
0.3982021529876501
100
AcDbArc
 50
304.3806322245571
 51
317.9116024951133
  0
ARC
  5
1CA9
330
1F
100
AcDbEntity
  8
AM_0
100
AcDbCircle
 10
11.895579
 20
-2.773422000000011
 30
0.0
 40
0.3995887971715429
100
AcDbArc
 50
290.896238416022
 51
304.3806623687866
  0
ARC
  5
1CAA
330
1F
100
AcDbEntity
  8
AM_0
100
AcDbCircle
 10
11.89536899999999
 20
-2.772871000000009
 30
0.0
 40
0.400178882982348
100
AcDbArc
 50
281.9073803955984
 51
290.8961895952243
  0
ARC
  5
1CAB
330
1F
100
AcDbEntity
  8
AM_0
100
AcDbCircle
 10
11.89520999999999
 20
-2.772119000000004
 30
0.0
 40
0.400947259046623
100
AcDbArc
 50
272.9359003242986
 51
281.9074401814817
  0
ARC
  5
1CAC
330
1F
100
AcDbEntity
  8
AM_0
100
AcDbCircle
 10
11.895196
 20
-2.771832000000018
 30
0.0
 40
0.4012340003900471
100
AcDbArc
 50
263.964586856461
 51
272.9357977742221
  0
ARC
  5
1CAD
330
1F
100
AcDbEntity
  8
AM_0
100
AcDbCircle
 10
11.89522699999999
 20
-2.771539000000018
 30
0.0
 40
0.4015289443925539
100
AcDbArc
 50
254.999902199603
 51
263.9645838267785
  0
SPLINE
  5
1D20
330
1F
100
AcDbEntity
  8
AM_0
100
AcDbSpline
210
0.0
220
0.0
230
1.0
 70
     8
 71
     3
 72
    11
 73
     7
 74
     5
 42
0.0000000001
 43
0.0000000001
 44
0.0000000001
 40
0.0
 40
0.0
 40
0.0
 40
0.0
 40
0.3721787460576007
 40
0.687599626750371
 40
0.9041534922203618
 40
1.005556489932466
 40
1.005556489932466
 40
1.005556489932466
 40
1.005556489932466
 10
4.360058999999993
 20
5.709798999999975
 30
0.0
 10
4.252584275501333
 20
5.773261684328668
 30
0.0
 10
4.054024897156442
 20
5.890508890192037
 30
0.0
 10
3.823182288319921
 20
6.074946008436251
 30
0.0
 10
3.642340400138757
 20
6.208906995338554
 30
0.0
 10
3.618450106948777
 20
6.314313646270872
 30
0.0
 10
3.61083099999999
 20
6.347929999999991
 30
0.0
 11
4.360058999999993
 21
5.709798999999975
 31
0.0
 11
4.044374999999988
 21
5.906929999999989
 31
0.0
 11
3.792290999999992
 21
6.096519000000001
 31
0.0
 11
3.640491999999995
 21
6.250961999999987
 31
0.0
 11
3.61083099999999
 21
6.347929999999991
 31
0.0
  0
SPLINE
  5
1D21
330
1F
100
AcDbEntity
  8
AM_0
100
AcDbSpline
210
0.0
220
0.0
230
1.0
 70
     8
 71
     3
 72
    11
 73
     7
 74
     5
 42
0.0000000001
 43
0.0000000001
 44
0.0000000001
 40
0.0
 40
0.0
 40
0.0
 40
0.0
 40
0.0372484431486674
 40
0.074616433086576
 40
0.1122133476541295
 40
0.1501429620471154
 40
0.1501429620471154
 40
0.1501429620471154
 40
0.1501429620471154
 10
4.360058999999993
 20
5.709798999999975
 30
0.0
 10
4.370943286352301
 20
5.703814146940339
 30
0.0
 10
4.392746791563527
 20
5.691825232770823
 30
0.0
 10
4.426961472139307
 20
5.676623135366393
 30
0.0
 10
4.46218586713182
 20
5.663285498562345
 30
0.0
 10
4.48639241185022
 20
5.6563327087016
 30
0.0
 10
4.498548999999997
 20
5.652840999999995
 30
0.0
 11
4.360058999999993
 21
5.709798999999975
 31
0.0
 11
4.39294799999999
 21
5.692312999999984
 31
0.0
 11
4.427023999999989
 21
5.676976999999994
 31
0.0
 11
4.462240999999992
 21
5.663813000000005
 31
0.0
 11
4.498548999999997
 21
5.652840999999995
 31
0.0
  0
SPLINE
  5
1D23
330
1F
100
AcDbEntity
  8
AM_0
100
AcDbSpline
210
0.0
220
0.0
230
1.0
 70
     8
 71
     3
 72
    11
 73
     7
 74
     5
 42
0.0000000001
 43
0.0000000001
 44
0.0000000001
 40
0.0
 40
0.0
 40
0.0
 40
0.0
 40
0.5929832634703812
 40
1.102372546846062
 40
1.521087067082726
 40
1.906388737877183
 40
1.906388737877183
 40
1.906388737877183
 40
1.906388737877183
 10
12.582005
 20
1.893158
 30
0.0
 10
12.66660501017078
 20
2.073607943895886
 30
0.0
 10
12.82387880594264
 20
2.409069459397281
 30
0.0
 10
12.86929386445838
 20
2.920495329772123
 30
0.0
 10
12.72168958039621
 20
3.37178360084722
 30
0.0
 10
12.47048066080328
 20
3.49160434786022
 30
0.0
 10
12.35009599999999
 20
3.549025
 30
0.0
 11
12.582005
 21
1.893158
 31
0.0
 11
12.79982099999999
 21
2.444687999999985
 31
0.0
 11
12.832234
 21
2.953044999999975
 31
0.0
 11
12.67430999999999
 21
3.340835999999996
 31
0.0
 11
12.35009599999999
 21
3.549025
 31
0.0
  0
SPLINE
  5
1D24
330
1F
100
AcDbEntity
  8
AM_0
100
AcDbSpline
210
0.0
220
0.0
230
1.0
 70
     8
 71
     3
 72
    11
 73
     7
 74
     5
 42
0.0000000001
 43
0.0000000001
 44
0.0000000001
 40
0.0
 40
0.0
 40
0.0
 40
0.0
 40
0.1865178867052763
 40
0.3694665836916186
 40
0.5430335000812281
 40
0.7017530071022706
 40
0.7017530071022706
 40
0.7017530071022706
 40
0.7017530071022706
 10
13.01826999999999
 20
4.701340999999985
 30
0.0
 10
13.07844172114826
 20
4.685679198916459
 30
0.0
 10
13.19763372273159
 20
4.654655299584318
 30
0.0
 10
13.37420256148193
 20
4.614705444628176
 30
0.0
 10
13.54253903518094
 20
4.580465386141281
 30
0.0
 10
13.65191677095193
 20
4.562940103864982
 30
0.0
 10
13.704162
 20
4.554568999999987
 30
0.0
 11
13.01826999999999
 21
4.701340999999985
 31
0.0
 11
13.19902499999999
 21
4.65533499999998
 31
0.0
 11
13.37739999999999
 21
4.614682999999985
 31
0.0
 11
13.54761199999999
 21
4.58072199999998
 31
0.0
 11
13.704162
 21
4.554568999999987
 31
0.0
  0
SPLINE
  5
1D25
330
1F
100
AcDbEntity
  8
AM_0
100
AcDbSpline
210
0.0
220
0.0
230
1.0
 70
     8
 71
     3
 72
    11
 73
     7
 74
     5
 42
0.0000000001
 43
0.0000000001
 44
0.0000000001
 40
0.0
 40
0.0
 40
0.0
 40
0.0
 40
0.3006314141685796
 40
0.5578621107582295
 40
0.78462855386657
 40
1.00603636426178
 40
1.00603636426178
 40
1.00603636426178
 40
1.00603636426178
 10
13.96842299999999
 20
4.769693999999987
 30
0.0
 10
13.96930371583871
 20
4.870470199203444
 30
0.0
 10
13.97093800278816
 20
5.057474020335413
 30
0.0
 10
13.89178486554246
 20
5.310654181023069
 30
0.0
 10
13.74494636655594
 20
5.506872026598376
 30
0.0
 10
13.60373465231916
 20
5.562988328609203
 30
0.0
 10
13.53397299999999
 20
5.590710999999999
 30
0.0
 11
13.96842299999999
 21
4.769693999999987
 31
0.0
 11
13.954247
 21
5.069990999999988
 31
0.0
 11
13.874045
 21
5.31439899999998
 31
0.0
 11
13.73156299999999
 21
5.490813000000003
 31
0.0
 11
13.53397299999999
 21
5.590710999999999
 31
0.0
  0
SPLINE
  5
1D26
330
1F
100
AcDbEntity
  8
AM_0
100
AcDbSpline
210
0.0
220
0.0
230
1.0
 70
     8
 71
     3
 72
    11
 73
     7
 74
     5
 42
0.0000000001
 43
0.0000000001
 44
0.0000000001
 40
0.0
 40
0.0
 40
0.0
 40
0.0
 40
0.1865188558082034
 40
0.3694665777945575
 40
0.543033494184181
 40
0.7017530012052096
 40
0.7017530012052096
 40
0.7017530012052096
 40
0.7017530012052096
 10
13.79182399999999
 20
6.035394999999994
 30
0.0
 10
13.85199606492803
 20
6.019733242472398
 30
0.0
 10
13.97118812629611
 20
5.988709591105379
 30
0.0
 10
14.14775685866369
 20
5.948759287951789
 30
0.0
 10
14.3160930398863
 20
5.914519406374382
 30
0.0
 10
14.42547077247296
 20
5.896994110405413
 30
0.0
 10
14.47771599999999
 20
5.888622999999996
 30
0.0
 11
13.79182399999999
 21
6.035394999999994
 31
0.0
 11
13.97257999999999
 21
5.989388999999989
 31
0.0
 11
14.15095399999998
 21
5.948736999999994
 31
0.0
 11
14.32116599999999
 21
5.914775999999989
 31
0.0
 11
14.47771599999999
 21
5.888622999999996
 31
0.0
  0
SPLINE
  5
1D27
330
1F
100
AcDbEntity
  8
AM_0
100
AcDbSpline
210
0.0
220
0.0
230
1.0
 70
     8
 71
     3
 72
    11
 73
     7
 74
     0
 42
0.0000000001
 43
0.0000000001
 40
0.0262218048841344
 40
0.0262218048841344
 40
0.0262218048841344
 40
0.0262218048841344
 40
0.1835065016232407
 40
0.3839102091538142
 40
0.6003132989330569
 40
0.8311071890168258
 40
0.8311071890168258
 40
0.8311071890168258
 40
0.8311071890168258
 10
5.8870892375556
 20
9.053088123374835
 30
0.0
 10
5.836811142946715
 20
9.037956360435459
 30
0.0
 10
5.722894487916122
 20
9.002430768866958
 30
0.0
 10
5.550864909862256
 20
8.916962769994768
 30
0.0
 10
5.366645967119425
 20
8.803797888175041
 30
0.0
 10
5.249676679726036
 20
8.711177471167787
 30
0.0
 10
5.189309999999992
 20
8.663376999999997
 30
0.0
  0
SPLINE
  5
1D28
330
1F
100
AcDbEntity
  8
AM_0
100
AcDbSpline
210
0.0
220
0.0
230
1.0
 70
     8
 71
     3
 72
    11
 73
     7
 74
     5
 42
0.0000000001
 43
0.0000000001
 44
0.0000000001
 40
0.0
 40
0.0
 40
0.0
 40
0.0
 40
0.1436586772353087
 40
0.3059936453875816
 40
0.4820084448136653
 40
0.6662342406431169
 40
0.6662342406431169
 40
0.6662342406431169
 40
0.6662342406431169
 10
5.158850999999999
 20
8.385605999999996
 30
0.0
 10
5.203400801356814
 20
8.368027091981464
 30
0.0
 10
5.298292083810546
 20
8.330583936788601
 30
0.0
 10
5.450529952628363
 20
8.279061735528133
 30
0.0
 10
5.616833195295938
 20
8.227168731245017
 30
0.0
 10
5.732614063836259
 20
8.195291106937722
 30
0.0
 10
5.791823999999991
 20
8.178989000000001
 30
0.0
 11
5.158850999999999
 21
8.385605999999996
 31
0.0
 11
5.292886999999993
 21
8.333912999999996
 31
0.0
 11
5.446395999999993
 21
8.281115
 31
0.0
 11
5.614491999999999
 21
8.228913999999975
 31
0.0
 11
5.791823999999991
 21
8.178989000000001
 31
0.0
  0
SPLINE
  5
1D29
330
1F
100
AcDbEntity
  8
AM_0
100
AcDbSpline
210
0.0
220
0.0
230
1.0
 70
     8
 71
     3
 72
    11
 73
     7
 74
     5
 42
0.0000000001
 43
0.0000000001
 44
0.0000000001
 40
0.0
 40
0.0
 40
0.0
 40
0.0
 40
0.2438506856193
 40
0.527767564261617
 40
0.8572220468309163
 40
1.228192675474213
 40
1.228192675474213
 40
1.228192675474213
 40
1.228192675474213
 10
5.533972999999989
 20
7.73430399999998
 30
0.0
 10
5.452719518877393
 20
7.745538480073567
 30
0.0
 10
5.276862101413332
 20
7.769853335572635
 30
0.0
 10
4.995711830180125
 20
7.691345943245325
 30
0.0
 10
4.699592278376374
 20
7.547901198573248
 30
0.0
 10
4.514034272634545
 20
7.405005671412651
 30
0.0
 10
4.415755999999988
 20
7.329322999999988
 30
0.0
 11
5.533972999999989
 21
7.73430399999998
 31
0.0
 11
5.290801999999985
 21
7.752498000000003
 31
0.0
 11
5.014214999999993
 21
7.688400999999999
 31
0.0
 11
4.717645999999988
 21
7.544918999999993
 31
0.0
 11
4.415755999999988
 21
7.329322999999988
 31
0.0
  0
SPLINE
  5
1D2A
330
1F
100
AcDbEntity
  8
AM_0
100
AcDbSpline
210
0.0
220
0.0
230
1.0
 70
     8
 71
     3
 72
    11
 73
     7
 74
     5
 42
0.0000000001
 43
0.0000000001
 44
0.0000000001
 40
0.0
 40
0.0
 40
0.0
 40
0.0
 40
0.1436583174062639
 40
0.3059932855585368
 40
0.482007426550112
 40
0.6662339139643732
 40
0.6662339139643732
 40
0.6662339139643732
 40
0.6662339139643732
 10
4.385296999999994
 20
7.051550999999989
 30
0.0
 10
4.429846820591549
 20
7.033972468872616
 30
0.0
 10
4.524738270108544
 20
6.996530066705628
 30
0.0
 10
4.676975854450364
 20
6.94500818582708
 30
0.0
 10
4.843278415974186
 20
6.89311289109626
 30
0.0
 10
4.959059656683709
 20
6.861236523801521
 30
0.0
 10
5.018269999999987
 20
6.844934999999992
 30
0.0
 11
4.385296999999994
 21
7.051550999999989
 31
0.0
 11
4.519332999999989
 21
6.999858999999987
 31
0.0
 11
4.672841999999989
 21
6.947060999999991
 31
0.0
 11
4.840936999999997
 21
6.894858999999997
 31
0.0
 11
5.018269999999987
 21
6.844934999999992
 31
0.0
  0
SPLINE
  5
1D2E
330
1F
100
AcDbEntity
  8
AM_0
100
AcDbSpline
210
0.0
220
0.0
230
1.0
 70
     8
 71
     3
 72
    11
 73
     7
 74
     5
 42
0.0000000001
 43
0.0000000001
 44
0.0000000001
 40
0.0
 40
0.0
 40
0.0
 40
0.0
 40
0.2731569580900402
 40
0.5460136248676764
 40
0.8184986569281516
 40
1.090841945951421
 40
1.090841945951421
 40
1.090841945951421
 40
1.090841945951421
 10
2.279450999999995
 20
2.136896999999976
 30
0.0
 10
2.193560105322502
 20
2.170782233659454
 30
0.0
 10
2.021872738931027
 20
2.238515449716872
 30
0.0
 10
1.840218240254181
 20
2.454255803098669
 30
0.0
 10
1.74349620914618
 20
2.718968344132883
 30
0.0
 10
1.770464408405895
 20
2.901167915113625
 30
0.0
 10
1.783944999999989
 20
2.992244
 30
0.0
 11
2.279450999999995
 21
2.136896999999976
 31
0.0
 11
2.034418999999986
 21
2.257619999999974
 31
0.0
 11
1.854285999999988
 21
2.462565999999981
 31
0.0
 11
1.766344999999987
 21
2.720469999999978
 31
0.0
 11
1.783944999999989
 21
2.992244
 31
0.0
  0
SPLINE
  5
1D39
330
1F
100
AcDbEntity
  8
AM_0
100
AcDbSpline
210
0.0
220
0.0
230
1.0
 70
     8
 71
     3
 72
    11
 73
     7
 74
     5
 42
0.0000000001
 43
0.0000000001
 44
0.0000000001
 40
0.0
 40
0.0
 40
0.0
 40
0.0
 40
0.0833145458668495
 40
0.1713599564059669
 40
0.2728355606170091
 40
0.3789141841374902
 40
0.3789141841374902
 40
0.3789141841374902
 40
0.3789141841374902
 10
13.704162
 20
4.554568999999987
 30
0.0
 10
13.73230380559541
 20
4.552938994197882
 30
0.0
 10
13.79018539793732
 20
4.549586425684379
 30
0.0
 10
13.87468214870847
 20
4.591349879824655
 30
0.0
 10
13.94412319378541
 20
4.666350047873358
 30
0.0
 10
13.96020418623489
 20
4.734740441573319
 30
0.0
 10
13.96842299999999
 20
4.769693999999987
 30
0.0
 11
13.704162
 21
4.554568999999987
 31
0.0
 11
13.78744999999999
 21
4.556671999999992
 31
0.0
 11
13.867464
 21
4.593411000000003
 31
0.0
 11
13.93523099999999
 21
4.668941999999987
 31
0.0
 11
13.96842299999999
 21
4.769693999999987
 31
0.0
  0
SPLINE
  5
1D3A
330
1F
100
AcDbEntity
  8
AM_0
100
AcDbSpline
210
0.0
220
0.0
230
1.0
 70
     8
 71
     3
 72
    11
 73
     7
 74
     5
 42
0.0000000001
 43
0.0000000001
 44
0.0000000001
 40
0.0
 40
0.0
 40
0.0
 40
0.0
 40
0.0833155455482427
 40
0.1713600473072837
 40
0.2728356515183567
 40
0.3789142750388378
 40
0.3789142750388378
 40
0.3789142750388378
 40
0.3789142750388378
 10
14.47771599999999
 20
5.888622999999996
 30
0.0
 10
14.50585816670834
 20
5.886992898504033
 30
0.0
 10
14.56373983797076
 20
5.883640171619446
 30
0.0
 10
14.6482363121295
 20
5.925404218617144
 30
0.0
 10
14.71767720773208
 20
6.000404017728291
 30
0.0
 10
14.73375819095201
 20
6.0687944313775
 30
0.0
 10
14.74197699999999
 20
6.103747999999996
 30
0.0
 11
14.47771599999999
 21
5.888622999999996
 31
0.0
 11
14.56100499999999
 21
5.890726000000001
 31
0.0
 11
14.64101799999999
 21
5.927464999999984
 31
0.0
 11
14.70878499999999
 21
6.002995999999996
 31
0.0
 11
14.74197699999999
 21
6.103747999999996
 31
0.0
  0
SPLINE
  5
1D3B
330
1F
100
AcDbEntity
  8
AM_0
100
AcDbSpline
210
0.0
220
0.0
230
1.0
 70
     8
 71
     3
 72
    11
 73
     7
 74
     5
 42
0.0000000001
 43
0.0000000001
 44
0.0000000001
 40
0.0
 40
0.0
 40
0.0
 40
0.0
 40
0.0701043091756933
 40
0.1441245007047649
 40
0.2398814864655868
 40
0.3398473374198067
 40
0.3398473374198067
 40
0.3398473374198067
 40
0.3398473374198067
 10
5.158850999999999
 20
8.385605999999996
 30
0.0
 10
5.137120371045913
 20
8.397133137692434
 30
0.0
 10
5.092445284951578
 20
8.420831295252397
 30
0.0
 10
5.07977428749682
 20
8.509690427473768
 30
0.0
 10
5.119442828531781
 20
8.593282941984306
 30
0.0
 10
5.165689443851438
 20
8.639679738492953
 30
0.0
 10
5.189309999999992
 20
8.663376999999997
 30
0.0
 11
5.158850999999999
 21
8.385605999999996
 31
0.0
 11
5.102427999999989
 21
8.427211999999997
 31
0.0
 11
5.087372999999985
 21
8.499685
 31
0.0
 11
5.123003999999995
 21
8.588565999999986
 31
0.0
 11
5.189309999999992
 21
8.663376999999997
 31
0.0
  0
SPLINE
  5
1D3C
330
1F
100
AcDbEntity
  8
AM_0
100
AcDbSpline
210
0.0
220
0.0
230
1.0
 70
     8
 71
     3
 72
    11
 73
     7
 74
     5
 42
0.0000000001
 43
0.0000000001
 44
0.0000000001
 40
0.0
 40
0.0
 40
0.0
 40
0.0
 40
0.0701049026673669
 40
0.1441241150990077
 40
0.2398820290539221
 40
0.339847880008142
 40
0.339847880008142
 40
0.339847880008142
 40
0.339847880008142
 10
4.385296999999994
 20
7.051550999999989
 30
0.0
 10
4.363566363903111
 20
7.063078491483114
 30
0.0
 10
4.318891760860552
 20
7.086777112351326
 30
0.0
 10
4.306220281054372
 20
7.175635921610799
 30
0.0
 10
4.345888582732343
 20
7.259228782434246
 30
0.0
 10
4.39213543489918
 20
7.305625758940407
 30
0.0
 10
4.415755999999988
 20
7.329322999999988
 30
0.0
 11
4.385296999999994
 21
7.051550999999989
 31
0.0
 11
4.328873999999985
 21
7.093157999999988
 31
0.0
 11
4.313818999999995
 21
7.165629999999993
 31
0.0
 11
4.34944999999999
 21
7.254511999999977
 31
0.0
 11
4.415755999999988
 21
7.329322999999988
 31
0.0
  0
SPLINE
  5
1D3D
330
1F
100
AcDbEntity
  8
AM_0
100
AcDbSpline
210
0.0
220
0.0
230
1.0
 70
     8
 71
     3
 72
    11
 73
     7
 74
     5
 42
0.0000000001
 43
0.0000000001
 44
0.0000000001
 40
0.0
 40
0.0
 40
0.0
 40
0.0
 40
1.404058953405095
 40
2.821959259507383
 40
4.249826641077894
 40
5.68450468011
 40
5.68450468011
 40
5.68450468011
 40
5.68450468011
 10
12.05747
 20
0.8331619999999873
 30
0.0
 10
12.28770833415833
 20
1.240633232976496
 30
0.0
 10
12.75045471485409
 20
2.059592590838441
 30
0.0
 10
13.44984383894549
 20
3.291516996854472
 30
0.0
 10
14.15591043954195
 20
4.531385426446535
 30
0.0
 10
14.62971571574397
 20
5.359619621927667
 30
0.0
 10
14.86718199999999
 20
5.774721999999997
 30
0.0
 11
12.05747
 21
0.8331619999999873
 31
0.0
 11
12.74859599999999
 21
2.055342999999994
 31
0.0
 11
13.44847399999999
 21
3.28847399999998
 31
0.0
 11
14.15519099999999
 21
4.529181999999992
 31
0.0
 11
14.86718199999999
 21
5.774721999999997
 31
0.0
  0
SPLINE
  5
1D3E
330
1F
100
AcDbEntity
  8
AM_0
100
AcDbSpline
210
0.0
220
0.0
230
1.0
 70
     8
 71
     3
 72
    11
 73
     7
 74
     5
 42
0.0000000001
 43
0.0000000001
 44
0.0000000001
 40
0.0
 40
0.0
 40
0.0
 40
0.0
 40
0.0437190306502716
 40
0.0873758971434217
 40
0.1311377532512251
 40
0.1751717276914203
 40
0.1751717276914203
 40
0.1751717276914203
 40
0.1751717276914203
 10
1.855771999999988
 20
3.176573999999988
 30
0.0
 10
1.848879953488939
 20
3.163727761589629
 30
0.0
 10
1.835105660278408
 20
3.138053550855124
 30
0.0
 10
1.817556722833863
 20
3.097978134376559
 30
0.0
 10
1.802137568122171
 20
3.056924869724291
 30
0.0
 10
1.794030898099529
 20
3.028794019913683
 30
0.0
 10
1.789964999999995
 20
3.014684999999986
 30
0.0
 11
1.855771999999988
 21
3.176573999999988
 31
0.0
 11
1.835616999999985
 21
3.137777999999997
 31
0.0
 11
1.817930999999987
 21
3.097863999999987
 31
0.0
 11
1.802713999999995
 21
3.056832999999983
 31
0.0
 11
1.789964999999995
 21
3.014684999999986
 31
0.0
  0
SPLINE
  5
1D3F
330
1F
100
AcDbEntity
  8
AM_0
100
AcDbSpline
210
0.0
220
0.0
230
1.0
 70
     8
 71
     3
 72
    11
 73
     7
 74
     5
 42
0.0000000001
 43
0.0000000001
 44
0.0000000001
 40
0.0
 40
0.0
 40
0.0
 40
0.0
 40
2.036162682819083
 40
4.0722099058176
 40
6.09618702728242
 40
8.123009680739036
 40
8.123009680739036
 40
8.123009680739036
 40
8.123009680739036
 10
17.72412199999999
 20
9.126737999999989
 30
0.0
 10
17.7597026207805
 20
8.442563224223768
 30
0.0
 10
17.83086184475612
 20
7.074252468538434
 30
0.0
 10
18.75817206722883
 20
5.211555420904926
 30
0.0
 10
20.19563510683958
 20
3.711138183567036
 30
0.0
 10
21.45414301771373
 20
3.187350041571311
 30
0.0
 10
22.08383899999998
 20
2.925272000000007
 30
0.0
 11
17.72412199999999
 21
9.126737999999989
 31
0.0
 11
17.967941
 21
7.105225999999988
 31
0.0
 11
18.845823
 21
5.268159999999995
 31
0.0
 11
20.270326
 21
3.83035799999999
 31
0.0
 11
22.08383899999998
 21
2.925272000000007
 31
0.0
  0
SPLINE
  5
1D42
330
1F
100
AcDbEntity
  8
AM_0
100
AcDbSpline
210
0.0
220
0.0
230
1.0
 70
     8
 71
     3
 72
    11
 73
     7
 74
     5
 42
0.0000000001
 43
0.0000000001
 44
0.0000000001
 40
0.0
 40
0.0
 40
0.0
 40
0.0
 40
1.792824514176728
 40
3.602930017887472
 40
5.42565370569647
 40
7.246591973388723
 40
7.246591973388723
 40
7.246591973388723
 40
7.246591973388723
 10
30.003287
 20
7.238329999999991
 30
0.0
 10
30.10913421776299
 20
7.831435202090761
 30
0.0
 10
30.32184891190765
 20
9.023362532111307
 30
0.0
 10
29.95764692838169
 20
10.82893799008874
 30
0.0
 10
29.1601168809705
 20
12.49904659214388
 30
0.0
 10
28.26699708198505
 20
13.33646164381308
 30
0.0
 10
27.82065599999999
 20
13.754964
 30
0.0
 11
30.003287
 21
7.238329999999991
 31
0.0
 11
30.20827499999999
 21
9.019396999999998
 31
0.0
 11
29.887145
 21
10.80078899999998
 31
0.0
 11
29.069695
 21
12.42992899999999
 31
0.0
 11
27.82065599999999
 21
13.754964
 31
0.0
  0
LINE
  5
1D43
330
1F
100
AcDbEntity
  8
AM_0
100
AcDbLine
 10
29.76822299999998
 20
6.534422000000006
 30
0.0
 11
30.003287
 21
7.238329999999991
 31
0.0
  0
SPLINE
  5
1D48
330
1F
100
AcDbEntity
  8
AM_0
100
AcDbSpline
210
0.0
220
0.0
230
1.0
 70
     8
 71
     3
 72
    11
 73
     7
 74
     5
 42
0.0000000001
 43
0.0000000001
 44
0.0000000001
 40
0.0
 40
0.0
 40
0.0
 40
0.0
 40
2.153561212115869
 40
4.195184796153829
 40
5.973534091423186
 40
7.506903457044205
 40
7.506903457044205
 40
7.506903457044205
 40
7.506903457044205
 10
13.43561299999999
 20
19.76828699999999
 30
0.0
 10
12.81226910183884
 20
19.41211493317804
 30
0.0
 10
11.59798142353709
 20
18.71828388201509
 30
0.0
 10
9.892592442968162
 20
17.69147046624127
 30
0.0
 10
8.366362039995799
 20
16.76305508783515
 30
0.0
 10
7.487491593966968
 20
16.09391682863872
 30
0.0
 10
7.080562999999998
 20
15.78409699999997
 30
0.0
 11
13.43561299999999
 21
19.76828699999999
 31
0.0
 11
11.56995599999999
 21
18.692578
 31
0.0
 11
9.817857999999987
 21
17.644542
 31
0.0
 11
8.315346999999989
 21
16.69323399999999
 31
0.0
 11
7.080562999999998
 21
15.78409699999997
 31
0.0
  0
SPLINE
  5
1D49
330
1F
100
AcDbEntity
  8
AM_0
100
AcDbSpline
210
0.0
220
0.0
230
1.0
 70
     8
 71
     3
 72
    11
 73
     7
 74
     5
 42
0.0000000001
 43
0.0000000001
 44
0.0000000001
 40
0.0
 40
0.0
 40
0.0
 40
0.0
 40
0.7490890254128647
 40
1.496223493032979
 40
2.244296078801226
 40
2.992803515080255
 40
2.992803515080255
 40
2.992803515080255
 40
2.992803515080255
 10
5.509063999999995
 20
13.284087
 30
0.0
 10
5.584233547603732
 20
13.52275725821905
 30
0.0
 10
5.734376506944757
 20
13.99947502516108
 30
0.0
 10
6.093504707311606
 20
14.65992827854434
 30
0.0
 10
6.534007269836371
 20
15.26867374533513
 30
0.0
 10
6.897647869799457
 20
15.61165336273682
 30
0.0
 10
7.079521
 20
15.78319299999998
 30
0.0
 11
5.509063999999995
 21
13.284087
 31
0.0
 11
5.756950999999987
 21
13.990972
 31
0.0
 11
6.106909999999999
 21
14.65107699999999
 31
0.0
 11
6.551366999999999
 21
15.25279999999998
 31
0.0
 11
7.079521
 21
15.78319299999998
 31
0.0
  0
LINE
  5
1D4A
330
1F
100
AcDbEntity
  8
AM_0
100
AcDbLine
 10
16.38363899999999
 20
20.41065799999998
 30
0.0
 11
15.85104199999999
 21
20.409695
 31
0.0
  0
SPLINE
  5
1D4B
330
1F
100
AcDbEntity
  8
AM_0
100
AcDbSpline
210
0.0
220
0.0
230
1.0
 70
     8
 71
     3
 72
    11
 73
     7
 74
     5
 42
0.0000000001
 43
0.0000000001
 44
0.0000000001
 40
0.0
 40
0.0
 40
0.0
 40
0.0
 40
1.460128078433169
 40
2.643209101231294
 40
4.21234923275108
 40
5.802183697553323
 40
5.802183697553323
 40
5.802183697553323
 40
5.802183697553323
 10
30.08915299999998
 20
16.360321
 30
0.0
 10
29.95903616809378
 20
16.82922314104158
 30
0.0
 10
29.72349108174292
 20
17.67805717491477
 30
0.0
 10
29.27629824653852
 20
19.01194076399833
 30
0.0
 10
28.2223017313862
 20
20.15679137073863
 30
0.0
 10
27.15734607301917
 20
20.32595639217871
 30
0.0
 10
26.62137999999999
 20
20.41109299999999
 30
0.0
 11
30.08915299999998
 21
16.360321
 31
0.0
 11
29.68505099999999
 21
17.76341599999998
 31
0.0
 11
29.24782399999998
 21
18.86274
 31
0.0
 11
28.153763
 21
19.98756499999999
 31
0.0
 11
26.62137999999999
 21
20.41109299999999
 31
0.0
  0
SPLINE
  5
1D4D
330
1F
100
AcDbEntity
  8
AM_0
100
AcDbSpline
210
0.0
220
0.0
230
1.0
 70
     8
 71
     3
 72
    11
 73
     7
 74
     5
 42
0.0000000001
 43
0.0000000001
 44
0.0000000001
 40
0.0
 40
0.0
 40
0.0
 40
0.0
 40
0.029938862920974
 40
0.0566290947108955
 40
0.0800692083625054
 40
0.1001425375831315
 40
0.1001425375831315
 40
0.1001425375831315
 40
0.1001425375831315
 10
14.94058199999999
 20
6.019801999999999
 30
0.0
 10
14.93698046261599
 20
6.010494422520331
 30
0.0
 10
14.93016818647305
 20
5.992889221948212
 30
0.0
 10
14.92115134227399
 20
5.967767822256628
 30
0.0
 10
14.91366869356699
 20
5.945587999150716
 30
0.0
 10
14.90969644912675
 20
5.931636165976533
 30
0.0
 10
14.90786399999999
 20
5.92519999999999
 30
0.0
 11
14.94058199999999
 21
6.019801999999999
 31
0.0
 11
14.92989899999999
 21
5.991833999999983
 31
0.0
 11
14.92087099999999
 21
5.966716999999989
 31
0.0
 11
14.91350299999999
 21
5.94446499999998
 31
0.0
 11
14.90786399999999
 21
5.92519999999999
 31
0.0
  0
SPLINE
  5
1D4E
330
1F
100
AcDbEntity
  8
AM_0
100
AcDbSpline
210
0.0
220
0.0
230
1.0
 70
     8
 71
     3
 72
    11
 73
     7
 74
     5
 42
0.0000000001
 43
0.0000000001
 44
0.0000000001
 40
0.0
 40
0.0
 40
0.0
 40
0.0
 40
0.8070887864417357
 40
1.623558794871327
 40
2.447431215483262
 40
3.276594391388348
 40
3.276594391388348
 40
3.276594391388348
 40
3.276594391388348
 10
14.94058199999999
 20
6.019801999999999
 30
0.0
 10
14.70876374615189
 20
6.156623128260809
 30
0.0
 10
14.24243269166391
 20
6.431855729486017
 30
0.0
 10
13.50085376596658
 20
6.774460237204252
 30
0.0
 10
12.73140474917419
 20
7.069876604087384
 30
0.0
 10
12.19978475602127
 20
7.21593304382237
 30
0.0
 10
11.93312399999999
 20
7.289194999999978
 30
0.0
 11
14.94058199999999
 21
6.019801999999999
 31
0.0
 11
14.23879799999999
 21
6.418413999999984
 31
0.0
 11
13.49961099999999
 21
6.765150000000006
 31
0.0
 11
12.728938
 21
7.056403999999986
 31
0.0
 11
11.93312399999999
 21
7.289194999999978
 31
0.0
  0
SPLINE
  5
1D50
330
1F
100
AcDbEntity
  8
AM_0
100
AcDbSpline
210
0.0
220
0.0
230
1.0
 70
     8
 71
     3
 72
    11
 73
     7
 74
     5
 42
0.0000000001
 43
0.0000000001
 44
0.0000000001
 40
0.0
 40
0.0
 40
0.0
 40
0.0
 40
0.2573305898061783
 40
0.5111825025210447
 40
0.765699411102783
 40
1.018216876676947
 40
1.018216876676947
 40
1.018216876676947
 40
1.018216876676947
 10
5.505315999999993
 20
9.675292999999982
 30
0.0
 10
5.525098599735395
 20
9.591223608272918
 30
0.0
 10
5.564396371705421
 20
9.424221301703646
 30
0.0
 10
5.70571236104776
 20
9.206798354210118
 30
0.0
 10
5.893952796943561
 20
9.030478080729893
 30
0.0
 10
6.050666260648821
 20
8.964088092657368
 30
0.0
 10
6.128713999999988
 20
8.931023999999979
 30
0.0
 11
5.505315999999993
 21
9.675292999999982
 31
0.0
 11
5.57861299999999
 21
9.42862199999999
 31
0.0
 11
5.713554999999985
 21
9.213606999999996
 31
0.0
 11
5.902327999999997
 21
9.042891999999995
 31
0.0
 11
6.128713999999988
 21
8.931023999999979
 31
0.0
  0
SPLINE
  5
1D51
330
1F
100
AcDbEntity
  8
AM_0
100
AcDbSpline
210
0.0
220
0.0
230
1.0
 70
     8
 71
     3
 72
    11
 73
     7
 74
     5
 42
0.0000000001
 43
0.0000000001
 44
0.0000000001
 40
0.0
 40
0.0
 40
0.0
 40
0.0
 40
0.0987310888474276
 40
0.1874822339668125
 40
0.2659725196396248
 40
0.3339707343220514
 40
0.3339707343220514
 40
0.3339707343220514
 40
0.3339707343220514
 10
5.505315999999993
 20
9.675292999999982
 30
0.0
 10
5.489689068408207
 20
9.646329279215717
 30
0.0
 10
5.460014807959178
 20
9.591329550761223
 30
0.0
 10
5.418412438837585
 20
9.513038761035011
 30
0.0
 10
5.381959439771779
 20
9.443612550320005
 30
0.0
 10
5.359731120627476
 20
9.400135519262259
 30
0.0
 10
5.349412999999998
 20
9.379953999999998
 30
0.0
 11
5.505315999999993
 21
9.675292999999982
 31
0.0
 11
5.458531999999991
 21
9.588349999999991
 31
0.0
 11
5.416875999999988
 21
9.50998199999998
 31
0.0
 11
5.380468999999991
 21
9.44044599999998
 31
0.0
 11
5.349412999999998
 21
9.379953999999998
 31
0.0
  0
SPLINE
  5
1D52
330
1F
100
AcDbEntity
  8
AM_0
100
AcDbSpline
210
0.0
220
0.0
230
1.0
 70
     8
 71
     3
 72
    11
 73
     7
 74
     5
 42
0.0000000001
 43
0.0000000001
 44
0.0000000001
 40
0.0
 40
0.0
 40
0.0
 40
0.0
 40
1.495557860418656
 40
3.004686678745628
 40
4.519766553733748
 40
6.033245532389218
 40
6.033245532389218
 40
6.033245532389218
 40
6.033245532389218
 10
6.128713999999988
 20
8.931023999999979
 30
0.0
 10
6.6033882419121
 20
8.778556536080135
 30
0.0
 10
7.557044004195846
 20
8.472238091366904
 30
0.0
 10
9.007352046529192
 20
8.063547209645641
 30
0.0
 10
10.46642662007585
 20
7.664869163515791
 30
0.0
 10
11.44439719178654
 20
7.414375584199859
 30
0.0
 10
11.93312399999999
 20
7.289194999999978
 30
0.0
 11
6.128713999999988
 21
8.931023999999979
 31
0.0
 11
7.555335999999997
 21
8.482199999999978
 31
0.0
 11
9.005942999999988
 21
8.066015999999991
 31
0.0
 11
10.46798
 21
7.668631000000005
 31
0.0
 11
11.93312399999999
 21
7.289194999999978
 31
0.0
  0
SPLINE
  5
1D53
330
1F
100
AcDbEntity
  8
AM_0
100
AcDbSpline
210
0.0
220
0.0
230
1.0
 70
     8
 71
     3
 72
    11
 73
     7
 74
     5
 42
0.0000000001
 43
0.0000000001
 44
0.0000000001
 40
0.0
 40
0.0
 40
0.0
 40
0.0
 40
0.0692953744271651
 40
0.1320313823094095
 40
0.1882111482398621
 40
0.237840141147233
 40
0.237840141147233
 40
0.237840141147233
 40
0.237840141147233
 10
5.349412999999998
 20
9.379953999999998
 30
0.0
 10
5.339022339555976
 20
9.359324455581177
 30
0.0
 10
5.319224578552841
 20
9.320018119645393
 30
0.0
 10
5.291473640721782
 20
9.263752040007914
 30
0.0
 10
5.266963868970239
 20
9.213197014975506
 30
0.0
 10
5.25203384317253
 20
9.181242896454485
 30
0.0
 10
5.245030999999997
 20
9.166254999999978
 30
0.0
 11
5.349412999999998
 21
9.379953999999998
 31
0.0
 11
5.318331999999998
 21
9.31801999999999
 31
0.0
 11
5.290573999999992
 21
9.261758999999984
 31
0.0
 11
5.266139999999993
 21
9.211170999999979
 31
0.0
 11
5.245030999999997
 21
9.166254999999978
 31
0.0
  0
SPLINE
  5
1D54
330
1F
100
AcDbEntity
  8
AM_0
100
AcDbSpline
210
0.0
220
0.0
230
1.0
 70
     8
 71
     3
 72
    11
 73
     7
 74
     5
 42
0.0000000001
 43
0.0000000001
 44
0.0000000001
 40
0.0
 40
0.0
 40
0.0
 40
0.0
 40
0.025686101241707
 40
0.0499660726173004
 40
0.0728411779066807
 40
0.0943105962034281
 40
0.0943105962034281
 40
0.0943105962034281
 40
0.0943105962034281
 10
5.245030999999997
 20
9.166254999999978
 30
0.0
 10
5.24143294133361
 20
9.158485647376583
 30
0.0
 10
5.234433791913684
 20
9.143372258477392
 30
0.0
 10
5.22438577272318
 20
9.121268373418436
 30
0.0
 10
5.215029317251107
 20
9.100394308643539
 30
0.0
 10
5.20910854444898
 20
9.086850324956277
 30
0.0
 10
5.206241999999989
 20
9.080292999999983
 30
0.0
 11
5.245030999999997
 21
9.166254999999978
 31
0.0
 11
5.234264999999994
 21
9.142933999999997
 31
0.0
 11
5.224211999999994
 21
9.120833000000005
 31
0.0
 11
5.214870999999988
 21
9.099952000000002
 31
0.0
 11
5.206241999999989
 21
9.080292999999983
 31
0.0
  0
SPLINE
  5
1D55
330
1F
100
AcDbEntity
  8
AM_0
100
AcDbSpline
210
0.0
220
0.0
230
1.0
 70
     8
 71
     3
 72
    11
 73
     7
 74
     5
 42
0.0000000001
 43
0.0000000001
 44
0.0000000001
 40
0.0
 40
0.0
 40
0.0
 40
0.0
 40
0.3239994765011272
 40
0.648139429410364
 40
0.9722846788665258
 40
1.294655711878171
 40
1.294655711878171
 40
1.294655711878171
 40
1.294655711878171
 10
5.10363199999999
 20
8.922410999999983
 30
0.0
 10
5.015093362343178
 20
8.986028061624465
 30
0.0
 10
4.837977699344698
 20
9.113289767314019
 30
0.0
 10
4.667695805039018
 20
9.397735853851877
 30
0.0
 10
4.586034935825484
 20
9.718752697044156
 30
0.0
 10
4.621996541415979
 20
9.933371222875454
 30
0.0
 10
4.639927999999998
 20
10.04038599999998
 30
0.0
 11
5.10363199999999
 21
8.922410999999983
 31
0.0
 11
4.853909999999985
 21
9.128843999999987
 31
0.0
 11
4.682445999999999
 21
9.403919999999999
 31
0.0
 11
4.608597999999986
 21
9.719540999999992
 31
0.0
 11
4.639927999999998
 21
10.04038599999998
 31
0.0
  0
DIMENSION
  5
1D93
330
1F
100
AcDbEntity
  8
AM_5
370
    13
100
AcDbDimension
  2
*D4
 10
180.2117721096306
 20
-3.500000000000006
 30
0.0
 11
180.2117721096306
 21
9.25644590809452
 31
0.0
 70
   160
 71
     5
 42
25.0
  3
AM_JIS$0
100
AcDbAlignedDimension
 13
160.0
 23
21.5
 33
0.0
 14
160.0
 24
-3.5
 34
0.0
 50
90.0
100
AcDbRotatedDimension
1001
ACAD
1000
DSTYLE
1002
{
1070
   271
1070
     0
1002
}
  0
LINE
  5
1DD6
330
1F
100
AcDbEntity
  8
AM_5
370
    13
100
AcDbLine
 10
0.0
 20
0.333232283580287
 30
0.0
 11
0.0
 21
-5.514735926165997
 31
0.0
  0
DIMENSION
  5
1DFB
330
1F
100
AcDbEntity
  8
AM_5
370
    13
100
AcDbDimension
  2
*D5
 10
160.0
 20
-27.5189617488079
 30
0.0
 11
77.14435072002834
 21
-27.5189617488079
 31
0.0
 70
   160
 71
     5
 42
160.0
  3
AM_JIS$0
100
AcDbAlignedDimension
 13
0.0
 23
-5.514735926165997
 33
0.0
 14
160.0
 24
-3.5
 34
0.0
100
AcDbRotatedDimension
1001
ACAD
1000
DSTYLE
1002
{
1070
   271
1070
     0
1002
}
  0
DIMENSION
  5
1E14
330
1F
100
AcDbEntity
  8
AM_5
370
    13
100
AcDbDimension
  2
*D6
 10
-12.22519933238118
 20
21.50000000000001
 30
0.0
 11
-12.22519933238118
 21
11.95134665747787
 31
0.0
 70
   160
 71
     5
 42
21.49991644511241
  3
AM_JIS$0
100
AcDbAlignedDimension
 13
0.0000000000000142
 23
0.0000835548875955
 33
0.0
 14
14.21174574999998
 24
21.5
 34
0.0
 50
90.0
100
AcDbRotatedDimension
1001
ACAD
1000
DSTYLE
1002
{
1070
   271
1070
     1
1002
}
  0
DIMENSION
  5
1E54
330
1F
100
AcDbEntity
  8
AM_5
370
    13
100
AcDbDimension
  2
*D7
 10
34.5
 20
30.02034785942288
 30
0.0
 11
17.70052187223382
 21
30.02034785942288
 31
0.0
 70
   160
 71
     5
 42
34.5
  3
AM_JIS$0
100
AcDbAlignedDimension
 13
0.0
 23
0.0
 33
0.0
 14
34.5
 24
21.5
 34
0.0
100
AcDbRotatedDimension
1001
ACAD
1000
DSTYLE
1002
{
1070
   271
1070
     1
1002
}
  0
DIMENSION
  5
1F03
330
1F
100
AcDbEntity
  8
AM_5
370
    13
100
AcDbDimension
  2
*D8
 10
0.2967859999995994
 20
-0.0794399999999058
 30
0.0
 11
44.31295013809399
 21
-5.306708854886723
 31
0.0
 70
   162
 71
     5
 42
0.2617993433555359
  3
AM_JIS
100
AcDb2LineAngularDimension
 13
14.10569204517768
 23
-3.5
 33
0.0
 14
34.13265799999999
 24
-3.5
 34
0.0
 15
11.791303
 25
-3.159386000000012
 35
0.0
 16
43.88957566247322
 26
-8.935645648045032
 36
0.0
1001
ACAD
1000
DSTYLE
1002
{
1070
    76
1070
     1
1002
}
  0
LINE
  5
1F2C
330
1F
100
AcDbEntity
  8
AM_5
370
    13
100
AcDbLine
 10
11.79130299999999
 20
-3.159386000000012
 30
0.0
 11
13.06249197975407
 21
-3.499999999999986
 31
0.0
  0
LINE
  5
2265
330
1F
100
AcDbEntity
  8
AM_0
100
AcDbLine
 10
0.0135479999999859
 20
0.4089859999999845
 30
0.0
 11
3.081722999999997
 21
11.859711
 31
0.0
  0
LINE
  5
2370
330
1F
100
AcDbEntity
  8
AM_0
100
AcDbLine
 10
1.696620400655896
 20
-93.39749682280143
 30
0.0
 11
-2.08557741004941
 21
-59.77373279144872
 31
0.0
  0
LINE
  5
2373
330
1F
100
AcDbEntity
  8
AM_0
100
AcDbLine
 10
17.78855656209157
 20
-64.58045476068737
 30
0.0
 11
17.51409055700981
 21
-65.52203848416207
 31
0.0
  0
LINE
  5
2374
330
1F
100
AcDbEntity
  8
AM_0
100
AcDbLine
 10
17.78855656209157
 20
-64.58045476068737
 30
0.0
 11
36.32235262879894
 21
-69.54650972494056
 31
0.0
  0
LINE
  5
2377
330
1F
100
AcDbEntity
  8
AM_0
100
AcDbLine
 10
-2.08557741004941
 20
-59.77373279144872
 30
0.0
 11
17.51409055700981
 21
-65.52203848416207
 31
0.0
  0
LINE
  5
2378
330
1F
100
AcDbEntity
  8
AM_0
100
AcDbLine
 10
-22.18086318233919
 20
-86.99962261212046
 30
0.0
 11
-15.79835947798138
 21
-63.1795032410976
 31
0.0
  0
LINE
  5
2379
330
1F
100
AcDbEntity
  8
AM_0
100
AcDbLine
 10
-4.235170330934182
 20
-58.65202517903313
 30
0.0
 11
-4.172139919114727
 21
-58.4168243770216
 31
0.0
  0
LINE
  5
237A
330
1F
100
AcDbEntity
  8
AM_0
100
AcDbLine
 10
-3.166188178246898
 20
-56.88056533361973
 30
0.0
 11
-3.864778113178033
 21
-57.71129270812833
 31
0.0
  0
LINE
  5
237E
330
1F
100
AcDbEntity
  8
AM_0
100
AcDbLine
 10
-12.48459376920616
 20
-54.09113674458858
 30
0.0
 11
-13.82599689206141
 21
-55.68626546102941
 31
0.0
  0
LINE
  5
2380
330
1F
100
AcDbEntity
  8
AM_0
100
AcDbLine
 10
-11.43618869590895
 20
-53.81706427265334
 30
0.0
 11
-3.584707594512935
 21
-55.92112748077759
 31
0.0
  0
LINE
  5
2381
330
1F
100
AcDbEntity
  8
AM_0
100
AcDbLine
 10
-2.880408080197498
 20
-56.37594986600617
 30
0.0
 11
-3.212086672912079
 21
-56.10282999075015
 31
0.0
  0
LINE
  5
2382
330
1F
100
AcDbEntity
  8
AM_0
100
AcDbLine
 10
-2.539525544509957
 20
-56.65664912505976
 30
0.0
 11
-2.697057615935819
 21
-56.5269292965821
 31
0.0
  0
LINE
  5
2383
330
1F
100
AcDbEntity
  8
AM_0
100
AcDbLine
 10
-2.198643008822444
 20
-56.93734838411336
 30
0.0
 11
-2.356175080248278
 21
-56.80762855563569
 31
0.0
  0
LINE
  5
2384
330
1F
100
AcDbEntity
  8
AM_0
100
AcDbLine
 10
-1.983423607087616
 20
-57.11457017451713
 30
0.0
 11
-2.015291578634162
 21
-57.08832807350538
 31
0.0
  0
LINE
  5
2385
330
1F
100
AcDbEntity
  8
AM_0
100
AcDbLine
 10
-2.551966516370015
 20
-56.78671084404031
 30
0.0
 11
-2.527169507062183
 21
-56.79335613668897
 31
0.0
  0
LINE
  5
2386
330
1F
100
AcDbEntity
  8
AM_0
100
AcDbLine
 10
-2.211083980682503
 20
-57.06741010309392
 30
0.0
 11
-2.186286971374642
 21
-57.07405539574259
 31
0.0
  0
LINE
  5
238A
330
1F
100
AcDbEntity
  8
AM_0
100
AcDbLine
 10
-4.518940736419097
 20
-61.90530197632735
 30
0.0
 11
-14.95085140798381
 21
-59.1097269227167
 31
0.0
  0
LINE
  5
238B
330
1F
100
AcDbEntity
  8
AM_0
100
AcDbLine
 10
-15.77840098917363
 20
-62.19779675868163
 30
0.0
 11
-5.346490576424998
 21
-64.99337277821891
 31
0.0
  0
LINE
  5
238D
330
1F
100
AcDbEntity
  8
AM_0
100
AcDbLine
 10
-16.08723469156246
 20
-63.09615161532171
 30
0.0
 11
-15.84341306835202
 21
-62.18631330633048
 31
0.0
  0
LINE
  5
238E
330
1F
100
AcDbEntity
  8
AM_0
100
AcDbLine
 10
-4.385424394259502
 20
-62.95237756119663
 30
0.0
 11
-4.141603736975668
 21
-62.0425389933893
 31
0.0
  0
LINE
  5
238F
330
1F
100
AcDbEntity
  8
AM_0
100
AcDbLine
 10
-15.34624871448986
 20
-59.039884985904
 30
0.0
 11
-15.59006911295758
 21
-59.94972258778469
 31
0.0
  0
LINE
  5
2390
330
1F
100
AcDbEntity
  8
AM_0
100
AcDbLine
 10
0.7312845430921016
 20
-59.62137774291817
 30
0.0
 11
5.301044790551345
 21
-60.49444146724824
 31
0.0
  0
LINE
  5
2391
330
1F
100
AcDbEntity
  8
AM_0
100
AcDbLine
 10
9.208712730652053
 20
-61.55759608764799
 30
0.0
 11
13.79336790529547
 21
-63.22503697579518
 31
0.0
  0
LINE
  5
2392
330
1F
100
AcDbEntity
  8
AM_0
100
AcDbLine
 10
11.88189534275085
 20
-63.01024440722933
 30
0.0
 11
13.79336790529547
 21
-63.22503697579518
 31
0.0
  0
LINE
  5
2393
330
1F
100
AcDbEntity
  8
AM_0
100
AcDbLine
 10
11.74643923614462
 20
-63.51571011339354
 30
0.0
 11
10.26114926911862
 21
-63.34880825738263
 31
0.0
  0
LINE
  5
2394
330
1F
100
AcDbEntity
  8
AM_0
100
AcDbLine
 10
-2.469573812809671
 20
-58.92867848436592
 30
0.0
 11
-0.4174216584052317
 21
-60.26297963946971
 31
0.0
  0
LINE
  5
2395
330
1F
100
AcDbEntity
  8
AM_0
100
AcDbLine
 10
4.247987114072799
 20
-60.77260206695014
 30
0.0
 11
5.223152431703795
 21
-60.88218127820676
 31
0.0
  0
LINE
  5
2396
330
1F
100
AcDbEntity
  8
AM_0
100
AcDbLine
 10
0.1980500345449343
 20
-60.31751067479861
 30
0.0
 11
1.17321535217593
 21
-60.42708988605523
 31
0.0
  0
LINE
  5
239C
330
1F
100
AcDbEntity
  8
AM_0
100
AcDbLine
 10
14.09749178666246
 20
-64.28606701266327
 30
0.0
 11
13.56129095886291
 21
-64.09105074585693
 31
0.0
  0
LINE
  5
239D
330
1F
100
AcDbEntity
  8
AM_0
100
AcDbLine
 10
13.79336790529547
 20
-63.22503697579518
 30
0.0
 11
13.56129095886291
 21
-64.09105074585693
 31
0.0
  0
LINE
  5
239F
330
1F
100
AcDbEntity
  8
AM_0
100
AcDbLine
 10
1.762683544826615
 20
-51.14311532365265
 30
0.0
 11
-1.522268206548489
 21
-50.51551653428275
 31
0.0
  0
LINE
  5
23A0
330
1F
100
AcDbEntity
  8
AM_0
100
AcDbLine
 10
9.196169477247281
 20
-52.56330165718964
 30
0.0
 11
6.699840202014826
 21
-52.08637185753102
 31
0.0
  0
LINE
  5
23A1
330
1F
100
AcDbEntity
  8
AM_0
100
AcDbLine
 10
14.77943911863937
 20
-54.55314021859959
 30
0.0
 11
9.658583375012483
 21
-52.69068209771942
 31
0.0
  0
LINE
  5
23A2
330
1F
100
AcDbEntity
  8
AM_0
100
AcDbLine
 10
10.24970870124921
 20
-63.3914978325366
 30
0.0
 11
10.50701146773864
 21
-62.43135046041662
 31
0.0
  0
LINE
  5
23A4
330
1F
100
AcDbEntity
  8
AM_0
100
AcDbLine
 10
-1.913270835223614
 20
-56.85278803791917
 30
0.0
 11
-2.388664265192148
 21
-58.62675875073738
 31
0.0
  0
LINE
  5
23A5
330
1F
100
AcDbEntity
  8
AM_0
100
AcDbLine
 10
-2.388664265192148
 20
-58.62675875073738
 30
0.0
 11
-2.469573812809671
 21
-58.92867848436592
 31
0.0
  0
LINE
  5
23A6
330
1F
100
AcDbEntity
  8
AM_0
100
AcDbLine
 10
4.247987114072799
 20
-60.77260206695014
 30
0.0
 11
4.034643914175121
 21
-61.56870741570395
 31
0.0
  0
LINE
  5
23A7
330
1F
100
AcDbEntity
  8
AM_0
100
AcDbLine
 10
12.05955406817776
 20
-63.922300169167
 30
0.0
 11
13.56129095886291
 21
-64.09105074585693
 31
0.0
  0
LINE
  5
23A8
330
1F
100
AcDbEntity
  8
AM_0
100
AcDbLine
 10
11.88189534275085
 20
-63.01024440722933
 30
0.0
 11
11.66823631788282
 21
-63.80753230897903
 31
0.0
  0
LINE
  5
23A9
330
1F
100
AcDbEntity
  8
AM_0
100
AcDbLine
 10
-10.68780733183941
 20
-54.01761795520841
 30
0.0
 11
-11.43142159294455
 21
-53.53412332031463
 31
0.0
  0
LINE
  5
23AA
330
1F
100
AcDbEntity
  8
AM_0
100
AcDbLine
 10
14.89833376754669
 20
-64.69222187469801
 30
0.0
 11
16.65180277956679
 21
-58.14901052931222
 31
0.0
  0
LINE
  5
23AB
330
1F
100
AcDbEntity
  8
AM_0
100
AcDbLine
 10
1.098082251585169
 20
-60.7074552260308
 30
0.0
 11
1.17321535217593
 21
-60.42708988605523
 31
0.0
  0
LINE
  5
23AE
330
1F
100
AcDbEntity
  8
AM_0
100
AcDbLine
 10
-15.27294825395431
 20
-59.02956157100013
 30
0.0
 11
-15.15261730780898
 21
-59.06180893296616
 31
0.0
  0
LINE
  5
23AF
330
1F
100
AcDbEntity
  8
AM_0
100
AcDbLine
 10
-15.1893503748548
 20
-57.87492155650814
 30
0.0
 11
-15.27294825395431
 21
-59.02956157100013
 31
0.0
  0
LINE
  5
23B0
330
1F
100
AcDbEntity
  8
AM_0
100
AcDbLine
 10
-15.1893503748548
 20
-57.87492155650814
 30
0.0
 11
-14.64968369819147
 21
-55.86111166206125
 31
0.0
  0
LINE
  5
23B1
330
1F
100
AcDbEntity
  8
AM_0
100
AcDbLine
 10
-3.155263582410328
 20
-58.94142112243534
 30
0.0
 11
-14.64968369819147
 21
-55.86111166206125
 31
0.0
  0
LINE
  5
23B2
330
1F
100
AcDbEntity
  8
AM_0
100
AcDbLine
 10
-3.291691802259351
 20
-59.45051484897481
 30
0.0
 11
-3.155263582410328
 21
-58.94142112243534
 31
0.0
  0
LINE
  5
23B3
330
1F
100
AcDbEntity
  8
AM_0
100
AcDbLine
 10
-15.04508100469752
 20
-55.79126972524855
 30
0.0
 11
-15.1893503748548
 21
-57.87492155650814
 31
0.0
  0
LINE
  5
23B4
330
1F
100
AcDbEntity
  8
AM_0
100
AcDbLine
 10
-2.99808650613798
 20
-59.52919554174301
 30
0.0
 11
-2.777926841783028
 21
-59.0786591054239
 31
0.0
  0
LINE
  5
23B5
330
1F
100
AcDbEntity
  8
AM_0
100
AcDbLine
 10
-15.50872054390973
 20
-59.64616052009036
 30
0.0
 11
-15.45800519411007
 21
-58.87742815687888
 31
0.0
  0
LINE
  5
23B6
330
1F
100
AcDbEntity
  8
AM_0
100
AcDbLine
 10
-15.45800519411007
 20
-58.87742815687888
 30
0.0
 11
-15.31373582395284
 21
-56.79377632561929
 31
0.0
  0
LINE
  5
23B7
330
1F
100
AcDbEntity
  8
AM_0
100
AcDbLine
 10
-15.04508100469752
 20
-55.79126972524855
 30
0.0
 11
-15.31373582395284
 21
-56.79377632561929
 31
0.0
  0
LINE
  5
23B8
330
1F
100
AcDbEntity
  8
AM_0
100
AcDbLine
 10
-2.905324778692659
 20
-59.55405480887544
 30
0.0
 11
-2.777926841783028
 21
-59.0786591054239
 31
0.0
  0
ARC
  5
23B9
330
1F
100
AcDbEntity
  8
AM_0
100
AcDbCircle
 10
8.633193841557642
 20
-55.51000464103053
 30
0.0
 40
3.00000054975678
100
AcDbArc
 50
70.01363872940628
 51
79.18382901848156
  0
ARC
  5
23BA
330
1F
100
AcDbEntity
  8
AM_0
100
AcDbCircle
 10
13.7540495851845
 20
-57.37246276191071
 30
0.0
 40
3.00000000176817
100
AcDbArc
 50
344.998207994904
 51
70.01363872940628
  0
ARC
  5
23BD
330
1F
100
AcDbEntity
  8
AM_0
100
AcDbCircle
 10
4.28352106086308
 20
-64.65674159614261
 30
0.0
 40
14.3221770343969
100
AcDbArc
 50
75.03747175573523
 51
83.80722620283017
  0
ARC
  5
23BE
330
1F
100
AcDbEntity
  8
AM_0
100
AcDbCircle
 10
4.380102970429633
 20
-64.29534970439838
 30
0.0
 40
13.9481021839088
100
AcDbArc
 50
66.03348254562293
 51
75.03747382449953
  0
ARC
  5
23C1
330
1F
100
AcDbEntity
  8
AM_0
100
AcDbCircle
 10
2.179382497297098
 20
-76.83372571318137
 30
0.0
 40
16.634812149148
100
AcDbArc
 50
78.56113497412076
 51
79.18383744674659
  0
ARC
  5
23C2
330
1F
100
AcDbEntity
  8
AM_0
100
AcDbCircle
 10
1.399065367168504
 20
-80.69016708481298
 30
0.0
 40
20.5694067691284
100
AcDbArc
 50
78.05753997400296
 51
78.56113631011249
  0
ARC
  5
23C3
330
1F
100
AcDbEntity
  8
AM_0
100
AcDbCircle
 10
-1.017293386893073
 20
-92.11464309565231
 30
0.0
 40
32.2466256018512
100
AcDbArc
 50
74.77701037935336
 51
78.05753930075544
  0
ARC
  5
23C4
330
1F
100
AcDbEntity
  8
AM_0
100
AcDbCircle
 10
1.620306657002146
 20
-82.4220344708252
 30
0.0
 40
22.201547148431
100
AcDbArc
 50
70.0136494206748
 51
74.7770101753094
  0
ARC
  5
23C5
330
1F
100
AcDbEntity
  8
AM_0
100
AcDbCircle
 10
20.02024372903949
 20
35.91592011034354
 30
0.0
 40
97.47455963305109
100
AcDbArc
 50
256.6602408642316
 51
256.7647300167574
  0
ARC
  5
23C6
330
1F
100
AcDbEntity
  8
AM_0
100
AcDbCircle
 10
19.43776321460967
 20
33.43936068428295
 30
0.0
 40
94.9304239277035
100
AcDbArc
 50
256.7647300938568
 51
256.8720190376924
  0
ARC
  5
23C7
330
1F
100
AcDbEntity
  8
AM_0
100
AcDbCircle
 10
19.13810217153056
 20
32.15448471404858
 30
0.0
 40
93.6110669469642
100
AcDbArc
 50
256.8720187406385
 51
256.9793058764057
  0
ARC
  5
23C8
330
1F
100
AcDbEntity
  8
AM_0
100
AcDbCircle
 10
18.52182436143448
 20
29.4894837307198
 30
0.0
 40
90.87573687962428
100
AcDbArc
 50
256.979305826434
 51
257.0898219639449
  0
ARC
  5
23C9
330
1F
100
AcDbEntity
  8
AM_0
100
AcDbCircle
 10
18.20717170374121
 20
28.11675851049853
 30
0.0
 40
89.46741092712959
100
AcDbArc
 50
257.0898219385952
 51
257.200334785113
  0
ARC
  5
23CA
330
1F
100
AcDbEntity
  8
AM_0
100
AcDbCircle
 10
17.56454494154309
 20
25.2881504121774
 30
0.0
 40
86.5667231757085
100
AcDbArc
 50
257.2003348822089
 51
257.3145508269427
  0
ARC
  5
23CB
330
1F
100
AcDbEntity
  8
AM_0
100
AcDbCircle
 10
17.23865350333986
 20
23.84034161786934
 30
0.0
 40
85.0826894182275
100
AcDbArc
 50
257.3145508083567
 51
257.4287631760472
  0
ARC
  5
23CC
330
1F
100
AcDbEntity
  8
AM_0
100
AcDbCircle
 10
16.57721358766793
 20
20.8742377194219
 30
0.0
 40
82.04372973766949
100
AcDbArc
 50
257.4287634389554
 51
257.5472067337397
  0
ARC
  5
23CD
330
1F
100
AcDbEntity
  8
AM_0
100
AcDbCircle
 10
16.24385580989161
 20
19.36467103368787
 30
0.0
 40
80.4977933787912
100
AcDbArc
 50
257.5472064159085
 51
257.6656447549487
  0
ARC
  5
23CE
330
1F
100
AcDbEntity
  8
AM_0
100
AcDbCircle
 10
15.57113111533985
 20
16.28814019835173
 30
0.0
 40
77.3485717141143
100
AcDbArc
 50
257.6656446228221
 51
257.7889054351138
  0
ARC
  5
23CF
330
1F
100
AcDbEntity
  8
AM_0
100
AcDbCircle
 10
15.23404951028061
 20
14.73053962191156
 30
0.0
 40
75.7549135739695
100
AcDbArc
 50
257.7889059669404
 51
257.9121618839521
  0
ARC
  5
23D0
330
1F
100
AcDbEntity
  8
AM_0
100
AcDbCircle
 10
14.55746474489223
 20
11.57127998492121
 30
0.0
 40
72.52401855380821
100
AcDbArc
 50
257.9121615543129
 51
258.0409078641722
  0
ARC
  5
23D1
330
1F
100
AcDbEntity
  8
AM_0
100
AcDbCircle
 10
13.79488367974017
 20
7.970980867258305
 30
0.0
 40
68.843843925587
100
AcDbArc
 50
258.0409079653735
 51
258.5511007208501
  0
ARC
  5
23D2
330
1F
100
AcDbEntity
  8
AM_0
100
AcDbCircle
 10
11.14825810321199
 20
-5.097248625559416
 30
0.0
 40
55.5103048262925
100
AcDbArc
 50
258.551100436981
 51
259.1838390573395
  0
ARC
  5
23D3
330
1F
100
AcDbEntity
  8
AM_0
100
AcDbCircle
 10
-0.065437793221804
 20
-60.50516479547751
 30
0.0
 40
0.22896841371027
100
AcDbArc
 50
77.3795874734278
 51
128.0390416260311
  0
ARC
  5
23D4
330
1F
100
AcDbEntity
  8
AM_0
100
AcDbCircle
 10
0.4211915296835684
 20
-58.33174037353281
 30
0.0
 40
1.99826794909842
100
AcDbArc
 50
257.379634020182
 51
263.588554877243
  0
ARC
  5
23D5
330
1F
100
AcDbEntity
  8
AM_0
100
AcDbCircle
 10
1.089702479977575
 20
-60.29865624213673
 30
0.0
 40
0.0516080000096901
100
AcDbArc
 50
164.999064938805
 51
226.1705095684402
  0
ARC
  5
23D6
330
1F
100
AcDbEntity
  8
AM_0
100
AcDbCircle
 10
1.52702322471994
 20
-59.84309435390203
 30
0.0
 40
0.6831036115919741
100
AcDbArc
 50
226.170372389301
 51
231.2840460671512
  0
ARC
  5
23D7
330
1F
100
AcDbEntity
  8
AM_0
100
AcDbCircle
 10
1.459237197887461
 20
-59.92765759498388
 30
0.0
 40
0.574725051381089
100
AcDbArc
 50
231.2840015263851
 51
235.7430435758852
  0
ARC
  5
23D8
330
1F
100
AcDbEntity
  8
AM_0
100
AcDbCircle
 10
1.741389389167068
 20
-59.51336994085801
 30
0.0
 40
1.07596760359873
100
AcDbArc
 50
235.743037256987
 51
238.1256121598869
  0
ARC
  5
23F1
330
1F
100
AcDbEntity
  8
AM_0
100
AcDbCircle
 10
3.583500832814892
 20
-75.47370875591624
 30
0.0
 40
14.6833617505656
100
AcDbArc
 50
74.51901854917864
 51
83.58856231371887
  0
ARC
  5
23F2
330
1F
100
AcDbEntity
  8
AM_0
100
AcDbCircle
 10
-0.3993566218466924
 20
-89.8539661646584
 30
0.0
 40
29.6049889388124
100
AcDbArc
 50
70.01364943102037
 51
74.5190202401909
  0
ARC
  5
23F3
330
1F
100
AcDbEntity
  8
AM_0
100
AcDbCircle
 10
5.369748592986724
 20
-73.99172108843511
 30
0.0
 40
12.7262034859007
100
AcDbArc
 50
68.56044320872488
 51
70.01364607904807
  0
ARC
  5
23F4
330
1F
100
AcDbEntity
  8
AM_0
100
AcDbCircle
 10
8.782586009340577
 20
-65.30085306154763
 30
0.0
 40
3.38925302525084
100
AcDbArc
 50
63.10767576399954
 51
68.56044238345532
  0
ARC
  5
23F5
330
1F
100
AcDbEntity
  8
AM_0
100
AcDbCircle
 10
10.74652104587153
 20
-61.42843880089341
 30
0.0
 40
0.95270886240236
100
AcDbArc
 50
243.1077073569848
 51
252.1642645232538
  0
ARC
  5
23F6
330
1F
100
AcDbEntity
  8
AM_0
100
AcDbCircle
 10
10.43043358195311
 20
-62.41082862283765
 30
0.0
 40
0.0792800000567615
100
AcDbArc
 50
344.998007045328
 51
72.16386295066174
  0
ARC
  5
2409
330
1F
100
AcDbEntity
  8
AM_0
100
AcDbCircle
 10
14.85846926893277
 20
-64.68153930982525
 30
0.0
 40
0.0412703016344675
100
AcDbArc
 50
278.126030569567
 51
344.998786868171
  0
ARC
  5
240A
330
1F
100
AcDbEntity
  8
AM_0
100
AcDbCircle
 10
14.66930465489435
 20
-63.35671108472747
 30
0.0
 40
1.37953575241818
100
AcDbArc
 50
275.8627097309395
 51
278.126010414244
  0
ARC
  5
2411
330
1F
100
AcDbEntity
  8
AM_0
100
AcDbCircle
 10
10.14814629169689
 20
-75.14485446293192
 30
0.0
 40
11.5546791634746
100
AcDbArc
 50
69.25165984385421
 51
70.0136523033127
  0
ARC
  5
2412
330
1F
100
AcDbEntity
  8
AM_0
100
AcDbCircle
 10
11.40268395287308
 20
-71.83327011793111
 30
0.0
 40
8.01342804823067
100
AcDbArc
 50
68.1529560340724
 51
69.2516617954046
  0
ARC
  5
2413
330
1F
100
AcDbEntity
  8
AM_0
100
AcDbCircle
 10
11.89582628106669
 20
-70.60325656601236
 30
0.0
 40
6.688240128586591
100
AcDbArc
 50
67.32966758715672
 51
68.15295703883004
  0
ARC
  5
2414
330
1F
100
AcDbEntity
  8
AM_0
100
AcDbCircle
 10
12.68033944699604
 20
-68.72508452355045
 30
0.0
 40
4.65280624117672
100
AcDbArc
 50
66.14623351501069
 51
67.32965871119386
  0
ARC
  5
2415
330
1F
100
AcDbEntity
  8
AM_0
100
AcDbCircle
 10
15.00485167515845
 20
-63.46807665497651
 30
0.0
 40
1.09519243915761
100
AcDbArc
 50
246.1462228330738
 51
259.5072724869511
  0
ARC
  5
2416
330
1F
100
AcDbEntity
  8
AM_0
100
AcDbCircle
 10
14.78381454304261
 20
-64.66153277508607
 30
0.0
 40
0.118560000067477
100
AcDbArc
 50
344.99824209401
 51
79.50736822345402
  0
ARC
  5
2417
330
1F
100
AcDbEntity
  8
AM_0
100
AcDbCircle
 10
1.10243120212661
 20
-60.30206788652795
 30
0.0
 40
0.0647862581879864
100
AcDbArc
 50
94.05879156074234
 51
164.9984063796
  0
ARC
  5
2418
330
1F
100
AcDbEntity
  8
AM_0
100
AcDbCircle
 10
4.269218480569379
 20
-104.9265028369509
 30
0.0
 40
44.8014451696237
100
AcDbArc
 50
93.94114335942389
 51
94.05920765560119
  0
ARC
  5
2419
330
1F
100
AcDbEntity
  8
AM_0
100
AcDbCircle
 10
1.511036181781208
 20
-64.89169971146191
 30
0.0
 40
4.6717425678556
100
AcDbArc
 50
74.88421585702625
 51
93.94114670047647
  0
ARC
  5
241A
330
1F
100
AcDbEntity
  8
AM_0
100
AcDbCircle
 10
20.01268583167587
 20
3.60344178153639
 30
0.0
 40
66.2782077345463
100
AcDbArc
 50
254.8842180022451
 51
256.2399395503958
  0
ARC
  5
2421
330
1F
100
AcDbEntity
  8
AM_0
100
AcDbCircle
 10
-14.95385677361116
 20
-55.81571599123538
 30
0.0
 40
0.0944439493562205
100
AcDbArc
 50
52.93887027272561
 51
164.998355138581
  0
ARC
  5
2422
330
1F
100
AcDbEntity
  8
AM_0
100
AcDbCircle
 10
-14.46352962788929
 20
-55.1664633121633
 30
0.0
 40
0.719158995032391
100
AcDbArc
 50
232.9392997771228
 51
254.9981833867221
  0
SPLINE
  5
2427
330
1F
100
AcDbEntity
  8
AM_0
100
AcDbSpline
210
0.0
220
0.0
230
1.0
 70
     8
 71
     3
 72
    11
 73
     7
 74
     5
 42
0.0000000001
 43
0.0000000001
 44
0.0000000001
 40
0.0
 40
0.0
 40
0.0
 40
0.0
 40
0.1450609460881771
 40
0.328218215605392
 40
0.5415587714732368
 40
0.7740739670390271
 40
0.7740739670390271
 40
0.7740739670390271
 40
0.7740739670390271
 10
-3.864778113178033
 20
-57.71129270812833
 30
0.0
 10
-3.893124203529939
 20
-57.7505774858307
 30
0.0
 10
-3.957260716117114
 20
-57.83946412269363
 30
0.0
 10
-4.033843986253594
 20
-58.00382714575927
 30
0.0
 10
-4.109798129920224
 20
-58.19930334466221
 30
0.0
 10
-4.150771944305963
 20
-58.34226790374923
 30
0.0
 10
-4.172139919114727
 20
-58.4168243770216
 30
0.0
 11
-3.864778113178033
 21
-57.71129270812833
 31
0.0
 11
-3.946354634077551
 21
-57.83124248644378
 31
0.0
 11
-4.027827586572386
 21
-57.99528133363791
 31
0.0
 11
-4.104537470381814
 21
-58.19435364839801
 31
0.0
 11
-4.172139919114727
 21
-58.4168243770216
 31
0.0
  0
SPLINE
  5
242C
330
1F
100
AcDbEntity
  8
AM_0
100
AcDbSpline
210
0.0
220
0.0
230
1.0
 70
     8
 71
     3
 72
    11
 73
     7
 74
     5
 42
0.0000000001
 43
0.0000000001
 44
0.0000000001
 40
0.0
 40
0.0
 40
0.0
 40
0.0
 40
0.2489854136812002
 40
0.4974791171668206
 40
0.7483683930516362
 40
1.00362858275029
 40
1.00362858275029
 40
1.00362858275029
 40
1.00362858275029
 10
-11.58024957346771
 20
-53.78089664588569
 30
0.0
 10
-11.66291719401479
 20
-53.76850513931358
 30
0.0
 10
-11.82808917850983
 20
-53.74374659760333
 30
0.0
 10
-12.07647009992957
 20
-53.79602796159788
 30
0.0
 10
-12.30598919785654
 20
-53.90844960504828
 30
0.0
 10
-12.42471714898277
 20
-54.02989145623289
 30
0.0
 10
-12.48459376920616
 20
-54.09113674458858
 30
0.0
 11
-11.58024957346771
 21
-53.78089664588569
 31
0.0
 11
-11.82823731540191
 21
-53.75862971802447
 31
0.0
 11
-12.07224320689412
 21
-53.80564296710483
 31
0.0
 11
-12.29600779672569
 21
-53.9191103064211
 31
0.0
 11
-12.48459376920616
 21
-54.09113674458858
 31
0.0
  0
SPLINE
  5
242D
330
1F
100
AcDbEntity
  8
AM_0
100
AcDbSpline
210
0.0
220
0.0
230
1.0
 70
     8
 71
     3
 72
    11
 73
     7
 74
     5
 42
0.0000000001
 43
0.0000000001
 44
0.0000000001
 40
0.0
 40
0.0
 40
0.0
 40
0.0
 40
0.0363085557410326
 40
0.0731998783115396
 40
0.1106264765672968
 40
0.1485377576984083
 40
0.1485377576984083
 40
0.1485377576984083
 40
0.1485377576984083
 10
-11.58024957346771
 20
-53.78089664588569
 30
0.0
 10
-11.56847001723735
 20
-53.78367568067746
 30
0.0
 10
-11.54472183819172
 20
-53.78927835487998
 30
0.0
 10
-11.50892514446236
 20
-53.79813504343066
 30
0.0
 10
-11.47267328524373
 20
-53.80737236396749
 30
0.0
 10
-11.44840227450766
 20
-53.81381980997295
 30
0.0
 10
-11.43618869590895
 20
-53.81706427265334
 30
0.0
 11
-11.58024957346771
 21
-53.78089664588569
 31
0.0
 11
-11.54492616987
 21
-53.78929714457759
 31
0.0
 11
-11.50910870268299
 21
-53.79813336126287
 31
0.0
 11
-11.47284572705374
 21
-53.80739332106353
 31
0.0
 11
-11.43618869590895
 21
-53.81706427265334
 31
0.0
  0
SPLINE
  5
242E
330
1F
100
AcDbEntity
  8
AM_0
100
AcDbSpline
210
0.0
220
0.0
230
1.0
 70
     8
 71
     3
 72
    11
 73
     7
 74
     5
 42
0.0000000001
 43
0.0000000001
 44
0.0000000001
 40
0.0
 40
0.0
 40
0.0
 40
0.0
 40
0.2369208162762485
 40
0.4476610849388741
 40
0.6526790137280278
 40
0.8756261268670061
 40
0.8756261268670061
 40
0.8756261268670061
 40
0.8756261268670061
 10
-3.166188178246898
 20
-56.88056533361973
 30
0.0
 10
-3.119606298774319
 20
-56.8157086699884
 30
0.0
 10
-3.031589994293618
 20
-56.693162222348
 30
0.0
 10
-2.994372074820613
 20
-56.47087862489312
 30
0.0
 10
-3.055173275839639
 20
-56.25723308055197
 30
0.0
 10
-3.158341496058646
 20
-56.15571534995427
 30
0.0
 10
-3.212086672912079
 20
-56.10282999075015
 30
0.0
 11
-3.166188178246898
 21
-56.88056533361973
 31
0.0
 11
-3.043945545173784
 21
-56.6776165424325
 31
0.0
 11
-3.010305731805573
 21
-56.46957850794711
 31
0.0
 11
-3.067793302636403
 21
-56.2727853924045
 31
0.0
 11
-3.212086672912079
 21
-56.10282999075015
 31
0.0
  0
SPLINE
  5
242F
330
1F
100
AcDbEntity
  8
AM_0
100
AcDbSpline
210
0.0
220
0.0
230
1.0
 70
     8
 71
     3
 72
    11
 73
     7
 74
     5
 42
0.0000000001
 43
0.0000000001
 44
0.0000000001
 40
0.0
 40
0.0
 40
0.0
 40
0.0
 40
0.0735475125072198
 40
0.1472387890398079
 40
0.2210300564974211
 40
0.2948763489229714
 40
0.2948763489229714
 40
0.2948763489229714
 40
0.2948763489229714
 10
-2.880408080197498
 20
-56.37594986600617
 30
0.0
 10
-2.861771430262735
 20
-56.3918929192503
 30
0.0
 10
-2.824461701155528
 20
-56.42381018977707
 30
0.0
 10
-2.772619610886225
 20
-56.47625605773861
 30
0.0
 10
-2.723686605236374
 20
-56.5315578978831
 30
0.0
 10
-2.694230250330366
 20
-56.57100539965529
 30
0.0
 10
-2.679496583640798
 20
-56.59073650164339
 30
0.0
 11
-2.880408080197498
 21
-56.37594986600617
 31
0.0
 11
-2.825190578828341
 21
-56.42453241573904
 31
0.0
 11
-2.773138682323975
 21
-56.47669566244878
 31
0.0
 11
-2.724494287692579
 21
-56.53218326488343
 31
0.0
 11
-2.679496583640798
 21
-56.59073650164339
 31
0.0
  0
SPLINE
  5
2430
330
1F
100
AcDbEntity
  8
AM_0
100
AcDbSpline
210
0.0
220
0.0
230
1.0
 70
     8
 71
     3
 72
    11
 73
     7
 74
     5
 42
0.0000000001
 43
0.0000000001
 44
0.0000000001
 40
0.0
 40
0.0
 40
0.0
 40
0.0
 40
0.0255406626578034
 40
0.0515739871861976
 40
0.0781115963098443
 40
0.1051590160019406
 40
0.1051590160019406
 40
0.1051590160019406
 40
0.1051590160019406
 10
-2.697057615935819
 20
-56.5269292965821
 30
0.0
 10
-2.703690787668784
 20
-56.52159069295369
 30
0.0
 10
-2.717085080469375
 20
-56.51081050769331
 30
0.0
 10
-2.738139154044482
 20
-56.49547822333054
 30
0.0
 10
-2.760065794672971
 20
-56.48051440305682
 30
0.0
 10
-2.775249935851018
 20
-56.47110412668532
 30
0.0
 10
-2.782914237768608
 20
-56.46635422358617
 30
0.0
 11
-2.697057615935819
 21
-56.5269292965821
 31
0.0
 11
-2.717081440835244
 21
-56.51107458480935
 31
0.0
 11
-2.738078755641737
 21
-56.49568475839975
 31
0.0
 11
-2.76003012168232
 21
-56.48077227279366
 31
0.0
 11
-2.782914237768608
 21
-56.46635422358617
 31
0.0
  0
SPLINE
  5
2431
330
1F
100
AcDbEntity
  8
AM_0
100
AcDbSpline
210
0.0
220
0.0
230
1.0
 70
     8
 71
     3
 72
    11
 73
     7
 74
     5
 42
0.0000000001
 43
0.0000000001
 44
0.0000000001
 40
0.0
 40
0.0
 40
0.0
 40
0.0
 40
0.0735475125072173
 40
0.1472387890398154
 40
0.2210308878715938
 40
0.2948769946951835
 40
0.2948769946951835
 40
0.2948769946951835
 40
0.2948769946951835
 10
-2.539525544509957
 20
-56.65664912505976
 30
0.0
 10
-2.52088887526151
 20
-56.67259216207967
 30
0.0
 10
-2.48357910748918
 20
-56.70450940012628
 30
0.0
 10
-2.431737112778684
 20
-56.75695570943343
 30
0.0
 10
-2.382802874864757
 20
-56.81225679731064
 30
0.0
 10
-2.353347421198238
 20
-56.85170527326267
 30
0.0
 10
-2.338614306769358
 20
-56.87143672662361
 30
0.0
 11
-2.539525544509957
 21
-56.65664912505976
 31
0.0
 11
-2.484308043140828
 21
-56.70523167479266
 31
0.0
 11
-2.432256146636433
 21
-56.75739492150238
 31
0.0
 11
-2.383610786078435
 21
-56.81288278275312
 31
0.0
 11
-2.338614306769358
 21
-56.87143672662361
 31
0.0
  0
SPLINE
  5
2432
330
1F
100
AcDbEntity
  8
AM_0
100
AcDbSpline
210
0.0
220
0.0
230
1.0
 70
     8
 71
     3
 72
    11
 73
     7
 74
     5
 42
0.0000000001
 43
0.0000000001
 44
0.0000000001
 40
0.0
 40
0.0
 40
0.0
 40
0.0
 40
0.0255397447128986
 40
0.051574001318377
 40
0.0781106660108331
 40
0.105158085702937
 40
0.105158085702937
 40
0.105158085702937
 40
0.105158085702937
 10
-2.356175080248278
 20
-56.80762855563569
 30
0.0
 10
-2.362807882712107
 20
-56.80228997522792
 30
0.0
 10
-2.376201914910139
 20
-56.79150944644488
 30
0.0
 10
-2.397256269135908
 20
-56.77617806889185
 30
0.0
 10
-2.419182468731338
 20
-56.76121362285261
 30
0.0
 10
-2.434366403393871
 20
-56.75180360020293
 30
0.0
 10
-2.442030736154464
 20
-56.74705374145586
 30
0.0
 11
-2.356175080248278
 21
-56.80762855563569
 31
0.0
 11
-2.3761979392211
 21
-56.79177410267904
 31
0.0
 11
-2.397196219954196
 21
-56.77638401745335
 31
0.0
 11
-2.419146620068176
 21
-56.76147179066336
 31
0.0
 11
-2.442030736154464
 21
-56.74705374145586
 31
0.0
  0
SPLINE
  5
2433
330
1F
100
AcDbEntity
  8
AM_0
100
AcDbSpline
210
0.0
220
0.0
230
1.0
 70
     8
 71
     3
 72
    11
 73
     7
 74
     5
 42
0.0000000001
 43
0.0000000001
 44
0.0000000001
 40
0.0
 40
0.0
 40
0.0
 40
0.0
 40
0.0735475125072505
 40
0.147240155457543
 40
0.2210308672036536
 40
0.2948777678156678
 40
0.2948777678156678
 40
0.2948777678156678
 40
0.2948777678156678
 10
-2.198643008822444
 20
-56.93734838411336
 30
0.0
 10
-2.180006310229933
 20
-56.95329139201802
 30
0.0
 10
-2.142696137466359
 20
-56.98520886797766
 30
0.0
 10
-2.090854627726387
 20
-57.03765565246381
 30
0.0
 10
-2.04191991734669
 20
-57.09295663515554
 30
0.0
 10
-2.012464246028262
 20
-57.1324047035814
 30
0.0
 10
-1.997730805155243
 20
-57.15213624449331
 30
0.0
 11
-2.198643008822444
 21
-56.93734838411336
 31
0.0
 11
-2.143425507453259
 21
-56.98593093384625
 31
0.0
 11
-2.091372903838391
 21
-57.03809540529869
 31
0.0
 11
-2.042728250390923
 21
-57.09358204180671
 31
0.0
 11
-1.997730805155243
 21
-57.15213624449331
 31
0.0
  0
SPLINE
  5
2434
330
1F
100
AcDbEntity
  8
AM_0
100
AcDbSpline
210
0.0
220
0.0
230
1.0
 70
     8
 71
     3
 72
    11
 73
     7
 74
     5
 42
0.0000000001
 43
0.0000000001
 44
0.0000000001
 40
0.0
 40
0.0
 40
0.0
 40
0.0
 40
0.0255402659735268
 40
0.0515739527850468
 40
0.078111233222203
 40
0.1051589488558674
 40
0.1051589488558674
 40
0.1051589488558674
 40
0.1051589488558674
 10
-2.015291578634162
 20
-57.08832807350538
 30
0.0
 10
-2.021924966446341
 20
-57.08298996599528
 30
0.0
 10
-2.035319894681811
 20
-57.07221062231214
 30
0.0
 10
-2.056372464665228
 20
-57.05687647676672
 30
0.0
 10
-2.078300571417345
 20
-57.04191460033906
 30
0.0
 10
-2.093484112773813
 20
-57.03250341652564
 30
0.0
 10
-2.101148200466923
 20
-57.02775300050946
 30
0.0
 11
-2.015291578634162
 21
-57.08832807350538
 31
0.0
 11
-2.03531566234966
 21
-57.07247432765927
 31
0.0
 11
-2.056312718340053
 21
-57.05708353532305
 31
0.0
 11
-2.078264343196736
 21
-57.04217201564356
 31
0.0
 11
-2.101148200466923
 21
-57.02775300050946
 31
0.0
  0
SPLINE
  5
2435
330
1F
100
AcDbEntity
  8
AM_0
100
AcDbSpline
210
0.0
220
0.0
230
1.0
 70
     8
 71
     3
 72
    11
 73
     7
 74
     5
 42
0.0000000001
 43
0.0000000001
 44
0.0000000001
 40
0.0
 40
0.0
 40
0.0
 40
0.0
 40
0.0964147947620027
 40
0.1981701686348584
 40
0.3052522184097705
 40
0.4174675478794975
 40
0.4174675478794975
 40
0.4174675478794975
 40
0.4174675478794975
 10
-3.212086672912079
 20
-56.10282999075015
 30
0.0
 10
-3.237710005161799
 20
-56.08336094054096
 30
0.0
 10
-3.290375989520822
 20
-56.04334441638983
 30
0.0
 10
-3.38015729948396
 20
-55.9947915168135
 30
0.0
 10
-3.478601739623392
 20
-55.95234289142115
 30
0.0
 10
-3.548791313923656
 20
-55.93169373509551
 30
0.0
 10
-3.584707594512935
 20
-55.92112748077759
 30
0.0
 11
-3.212086672912079
 21
-56.10282999075015
 31
0.0
 11
-3.290287001878198
 21
-56.04643388096774
 31
0.0
 11
-3.379210773606815
 21
-55.99696956116486
 31
0.0
 11
-3.477730239577682
 21
-55.95501148436418
 31
0.0
 11
-3.584707594512935
 21
-55.92112748077759
 31
0.0
  0
SPLINE
  5
2436
330
1F
100
AcDbEntity
  8
AM_0
100
AcDbSpline
210
0.0
220
0.0
230
1.0
 70
     8
 71
     3
 72
    11
 73
     7
 74
     5
 42
0.0000000001
 43
0.0000000001
 44
0.0000000001
 40
0.0
 40
0.0
 40
0.0
 40
0.0
 40
0.0754347597596732
 40
0.1532229473526501
 40
0.2350144330036479
 40
0.3221064104183448
 40
0.3221064104183448
 40
0.3221064104183448
 40
0.3221064104183448
 10
-2.527169507062183
 20
-56.79335613668897
 30
0.0
 10
-2.533314480242501
 20
-56.76888424073152
 30
0.0
 10
-2.545796138633024
 20
-56.71917697000046
 30
0.0
 10
-2.58328814208851
 20
-56.6496475464776
 30
0.0
 10
-2.633134446451869
 20
-56.58374276406547
 30
0.0
 10
-2.675308673058627
 20
-56.5462592651823
 30
0.0
 10
-2.697057615935819
 20
-56.5269292965821
 30
0.0
 11
-2.527169507062183
 21
-56.79335613668897
 31
0.0
 11
-2.548503790403686
 21
-56.72100109999971
 31
0.0
 11
-2.584262726418075
 21
-56.65191925995387
 31
0.0
 11
-2.63395080157062
 21
-56.58695048043145
 31
0.0
 11
-2.697057615935819
 21
-56.5269292965821
 31
0.0
  0
SPLINE
  5
2437
330
1F
100
AcDbEntity
  8
AM_0
100
AcDbSpline
210
0.0
220
0.0
230
1.0
 70
     8
 71
     3
 72
    11
 73
     7
 74
     5
 42
0.0000000001
 43
0.0000000001
 44
0.0000000001
 40
0.0
 40
0.0
 40
0.0
 40
0.0
 40
0.0754339064678618
 40
0.1532221590321103
 40
0.2350136446831367
 40
0.3221065003774912
 40
0.3221065003774912
 40
0.3221065003774912
 40
0.3221065003774912
 10
-2.186286971374642
 20
-57.07405539574259
 30
0.0
 10
-2.192432224582499
 20
-57.04958390901857
 30
0.0
 10
-2.204914528739822
 20
-56.99987716299214
 30
0.0
 10
-2.242404137722236
 20
-56.93034684598982
 30
0.0
 10
-2.292251189922974
 20
-56.86444204071004
 30
0.0
 10
-2.334425822033457
 20
-56.82695859250732
 30
0.0
 10
-2.356175080248278
 20
-56.80762855563569
 30
0.0
 11
-2.186286971374642
 21
-57.07405539574259
 31
0.0
 11
-2.207621513532246
 21
-57.00170132497993
 31
0.0
 11
-2.243379224803931
 21
-56.93261877782358
 31
0.0
 11
-2.293067299956505
 21
-56.86764999830115
 31
0.0
 11
-2.356175080248278
 21
-56.80762855563569
 31
0.0
  0
SPLINE
  5
2438
330
1F
100
AcDbEntity
  8
AM_0
100
AcDbSpline
210
0.0
220
0.0
230
1.0
 70
     8
 71
     3
 72
    11
 73
     7
 74
     5
 42
0.0000000001
 43
0.0000000001
 44
0.0000000001
 40
0.0
 40
0.0
 40
0.0
 40
0.0
 40
0.0103608621745466
 40
0.0208047701117197
 40
0.0313320231722344
 40
0.0419437388205314
 40
0.0419437388205314
 40
0.0419437388205314
 40
0.0419437388205314
 10
-1.983818042812317
 20
-57.11604224668217
 30
0.0
 10
-1.986342610685165
 20
-57.11368540558516
 30
0.0
 10
-1.991411981683564
 20
-57.10895283252445
 30
0.0
 10
-1.999200990235677
 20
-57.10199420068436
 30
0.0
 10
-2.00715310733604
 20
-57.0950943686461
 30
0.0
 10
-2.01257153826413
 20
-57.09058950507701
 30
0.0
 10
-2.015291578634162
 20
-57.08832807350538
 30
0.0
 11
-1.983818042812317
 21
-57.11604224668217
 31
0.0
 11
-1.991417193785821
 21
-57.10899949370611
 31
0.0
 11
-1.999196862500043
 21
-57.10203156950323
 31
0.0
 11
-2.007155634733891
 21
-57.09514092355892
 31
0.0
 11
-2.015291578634162
 21
-57.08832807350538
 31
0.0
  0
SPLINE
  5
243E
330
1F
100
AcDbEntity
  8
AM_0
100
AcDbSpline
210
0.0
220
0.0
230
1.0
 70
     8
 71
     3
 72
    11
 73
     7
 74
     5
 42
0.0000000001
 43
0.0000000001
 44
0.0000000001
 40
0.0
 40
0.0
 40
0.0
 40
0.0
 40
0.3179190523059207
 40
0.6068878251672968
 40
0.8831511207423647
 40
1.150143591411464
 40
1.150143591411464
 40
1.150143591411464
 40
1.150143591411464
 10
-3.502149514134288
 20
-58.84846158151053
 30
0.0
 10
-3.405791589989707
 20
-58.80353613781813
 30
0.0
 10
-3.221850267198302
 20
-58.71777624195968
 30
0.0
 10
-2.932970641597236
 20
-58.65430750238856
 30
0.0
 10
-2.657747244688999
 20
-58.61485376257031
 30
0.0
 10
-2.47638671460592
 20
-58.61856067837226
 30
0.0
 10
-2.387253935871684
 20
-58.62038250645034
 30
0.0
 11
-3.502149514134288
 21
-58.84846158151053
 31
0.0
 11
-3.209076806758674
 21
-58.7252507377888
 31
0.0
 11
-2.928281784130547
 21
-58.65700773846814
 31
0.0
 11
-2.654241304234461
 21
-58.62203312109611
 31
0.0
 11
-2.387253935871684
 21
-58.62038250645034
 31
0.0
  0
SPLINE
  5
243F
330
1F
100
AcDbEntity
  8
AM_0
100
AcDbSpline
210
0.0
220
0.0
230
1.0
 70
     8
 71
     3
 72
    11
 73
     7
 74
     5
 42
0.0000000001
 43
0.0000000001
 44
0.0000000001
 40
0.0
 40
0.0
 40
0.0
 40
0.0
 40
0.0978594733942547
 40
0.1950560110126179
 40
0.2922829495224788
 40
0.3902290429871992
 40
0.3902290429871992
 40
0.3902290429871992
 40
0.3902290429871992
 10
-13.83047657507774
 20
-55.69162465276635
 30
0.0
 10
-13.85072299693572
 20
-55.7172281485085
 30
0.0
 10
-13.89107868400328
 20
-55.76826169257145
 30
0.0
 10
-13.94303441914813
 20
-55.85085717231584
 30
0.0
 10
-13.98881643621844
 20
-55.93706022928107
 30
0.0
 10
-14.01301087332134
 20
-55.99749779848973
 30
0.0
 10
-14.02515266654878
 20
-56.02782793038654
 30
0.0
 11
-13.83047657507774
 21
-55.69162465276635
 31
0.0
 11
-13.88978545405455
 21
-55.76946380363219
 31
0.0
 11
-13.94200040853824
 21
-55.85144407841378
 31
0.0
 11
-13.98712362919812
 21
-55.93756592540558
 31
0.0
 11
-14.02515266654878
 21
-56.02782793038654
 31
0.0
  0
SPLINE
  5
2442
330
1F
100
AcDbEntity
  8
AM_0
100
AcDbSpline
210
0.0
220
0.0
230
1.0
 70
     8
 71
     3
 72
    11
 73
     7
 74
     5
 42
0.0000000001
 43
0.0000000001
 44
0.0000000001
 40
0.0
 40
0.0
 40
0.0
 40
0.0
 40
0.0871661160084277
 40
0.1673834947302711
 40
0.2311633044273844
 40
0.2643075916123336
 40
0.2643075916123336
 40
0.2643075916123336
 40
0.2643075916123336
 10
-2.679496583640798
 20
-56.59073650164339
 30
0.0
 10
-2.663048516881419
 20
-56.6147086659326
 30
0.0
 10
-2.631463595792638
 20
-56.6607419735838
 30
0.0
 10
-2.590346332922406
 20
-56.72570673245963
 30
0.0
 10
-2.561771501164853
 20
-56.77804726543059
 30
0.0
 10
-2.538831983175011
 20
-56.80095441435253
 30
0.0
 10
-2.530987556488583
 20
-56.80878777207144
 30
0.0
 11
-2.679496583640798
 21
-56.59073650164339
 31
0.0
 11
-2.630643840940365
 21
-56.66292612216213
 31
0.0
 11
-2.588162596823082
 21
-56.73097148752416
 31
0.0
 11
-2.553666653044559
 21
-56.78461749378585
 31
0.0
 11
-2.530987556488583
 21
-56.80878777207144
 31
0.0
  0
SPLINE
  5
2443
330
1F
100
AcDbEntity
  8
AM_0
100
AcDbSpline
210
0.0
220
0.0
230
1.0
 70
     8
 71
     3
 72
    11
 73
     7
 74
     5
 42
0.0000000001
 43
0.0000000001
 44
0.0000000001
 40
0.0
 40
0.0
 40
0.0
 40
0.0
 40
0.0871661160084436
 40
0.1673835435226692
 40
0.2311626130988247
 40
0.2643069002837947
 40
0.2643069002837947
 40
0.2643069002837947
 40
0.2643069002837947
 10
-2.338614306769358
 20
-56.87143672662361
 30
0.0
 10
-2.322166427251323
 20
-56.8954090083617
 30
0.0
 10
-2.29058185651175
 20
-56.94144255496663
 30
0.0
 10
-2.249462353292692
 20
-57.00640563709138
 30
0.0
 10
-2.220888921667759
 20
-57.0587467842791
 30
0.0
 10
-2.197949480960734
 20
-57.08165369503402
 30
0.0
 10
-2.190105020801042
 20
-57.08948703112506
 30
0.0
 11
-2.338614306769358
 21
-56.87143672662361
 31
0.0
 11
-2.289761564068897
 21
-56.94362634714236
 31
0.0
 11
-2.247279095208938
 21
-57.01167100539385
 31
0.0
 11
-2.212784117357018
 21
-57.06531675283944
 31
0.0
 11
-2.190105020801042
 21
-57.08948703112506
 31
0.0
  0
SPLINE
  5
2444
330
1F
100
AcDbEntity
  8
AM_0
100
AcDbSpline
210
0.0
220
0.0
230
1.0
 70
     8
 71
     3
 72
    11
 73
     7
 74
     5
 42
0.0000000001
 43
0.0000000001
 44
0.0000000001
 40
0.0
 40
0.0
 40
0.0
 40
0.0
 40
0.00276169839049
 40
0.0059073929084012
 40
0.010977853735575
 40
0.0184198994892722
 40
0.0184198994892722
 40
0.0184198994892722
 40
0.0184198994892722
 10
-2.530987556488583
 20
-56.80878777207144
 30
0.0
 10
-2.529981354905398
 20
-56.80885498539939
 30
0.0
 10
-2.527829045979341
 20
-56.80899875762962
 30
0.0
 10
-2.526145577397645
 20
-56.80506695519856
 30
0.0
 10
-2.526137897686126
 20
-56.79998774861629
 30
0.0
 10
-2.526784768580065
 20
-56.79582939484864
 30
0.0
 10
-2.527169507062183
 20
-56.79335613668897
 30
0.0
 11
-2.530987556488583
 21
-56.80878777207144
 31
0.0
 11
-2.528241359215656
 21
-56.8084955760102
 31
0.0
 11
-2.526624845865513
 21
-56.80579700627999
 31
0.0
 11
-2.526246292893831
 21
-56.80074069629666
 31
0.0
 11
-2.527169507062183
 21
-56.79335613668897
 31
0.0
  0
SPLINE
  5
2445
330
1F
100
AcDbEntity
  8
AM_0
100
AcDbSpline
210
0.0
220
0.0
230
1.0
 70
     8
 71
     3
 72
    11
 73
     7
 74
     5
 42
0.0000000001
 43
0.0000000001
 44
0.0000000001
 40
0.0
 40
0.0
 40
0.0
 40
0.0
 40
0.0027622722530689
 40
0.0059089284147812
 40
0.0109795753162934
 40
0.018421621069973
 40
0.018421621069973
 40
0.018421621069973
 40
0.018421621069973
 10
-2.190105020801042
 20
-57.08948703112506
 30
0.0
 10
-2.189098550297362
 20
-57.08955479661234
 30
0.0
 10
-2.186945553918665
 20
-57.08969975749115
 30
0.0
 10
-2.185262070250208
 20
-57.0857664603497
 30
0.0
 10
-2.185255800750929
 20
-57.08068715516903
 30
0.0
 10
-2.185902400111202
 20
-57.07652868584881
 30
0.0
 10
-2.186286971374642
 20
-57.07405539574259
 30
0.0
 11
-2.190105020801042
 21
-57.08948703112506
 31
0.0
 11
-2.187358116417585
 21
-57.08919605980651
 31
0.0
 11
-2.185741344251341
 21
-57.08649652414968
 31
0.0
 11
-2.185363757206318
 21
-57.08143995535026
 31
0.0
 11
-2.186286971374642
 21
-57.07405539574259
 31
0.0
  0
SPLINE
  5
2446
330
1F
100
AcDbEntity
  8
AM_0
100
AcDbSpline
210
0.0
220
0.0
230
1.0
 70
     8
 71
     3
 72
    11
 73
     7
 74
     5
 42
0.0000000001
 43
0.0000000001
 44
0.0000000001
 40
0.0
 40
0.0
 40
0.0
 40
0.0
 40
0.8438360820781188
 40
1.75769113973224
 40
2.686375566909211
 40
3.618092080589212
 40
3.618092080589212
 40
3.618092080589212
 40
3.618092080589212
 10
5.851883767832703
 20
-50.42062029666153
 30
0.0
 10
5.570549893480165
 20
-50.4006426371937
 30
0.0
 10
4.984537907552522
 20
-50.35902963226896
 30
0.0
 10
4.093297889447333
 20
-50.50081550144166
 30
0.0
 10
3.213587670118504
 20
-50.81628250265595
 30
0.0
 10
2.706091708557144
 20
-51.17715090094298
 30
0.0
 10
2.45193016862865
 20
-51.35787917223402
 30
0.0
 11
5.851883767832703
 21
-50.42062029666153
 31
0.0
 11
5.008544794424978
 21
-50.39165981758134
 31
0.0
 11
4.104864769551654
 21
-50.52765054904847
 31
0.0
 11
3.235090246167545
 21
-50.85314562390056
 31
0.0
 11
2.45193016862865
 21
-51.35787917223402
 31
0.0
  0
SPLINE
  5
2447
330
1F
100
AcDbEntity
  8
AM_0
100
AcDbSpline
210
0.0
220
0.0
230
1.0
 70
     8
 71
     3
 72
    11
 73
     7
 74
     5
 42
0.0000000001
 43
0.0000000001
 44
0.0000000001
 40
0.0
 40
0.0
 40
0.0
 40
0.0
 40
0.8184705918852629
 40
1.633282588636648
 40
2.432234910229111
 40
3.170987087258752
 40
3.170987087258752
 40
3.170987087258752
 40
3.170987087258752
 10
12.31862395284054
 20
-53.65727965375521
 30
0.0
 10
12.18260006540165
 20
-53.41977730184301
 30
0.0
 10
11.91116032255045
 20
-52.94583424269782
 30
0.0
 10
11.34803594857856
 20
-52.3534429834425
 30
0.0
 10
10.71963324852723
 20
-51.87681714849508
 30
0.0
 10
10.25746046508399
 20
-51.65278390740765
 30
0.0
 10
10.0354209573382
 20
-51.54515266569075
 30
0.0
 11
12.31862395284054
 21
-53.65727965375521
 31
0.0
 11
11.88375594238065
 21
-52.96389381364909
 31
0.0
 11
11.32972035883094
 21
-52.36642987146453
 31
0.0
 11
10.68967081362158
 21
-51.88824435113244
 31
0.0
 11
10.0354209573382
 21
-51.54515266569075
 31
0.0
  0
SPLINE
  5
2448
330
1F
100
AcDbEntity
  8
AM_0
100
AcDbSpline
210
0.0
220
0.0
230
1.0
 70
     8
 71
     3
 72
    11
 73
     7
 74
     5
 42
0.0000000001
 43
0.0000000001
 44
0.0000000001
 40
0.0
 40
0.0
 40
0.0
 40
0.0
 40
0.7963659087944424
 40
1.592731712699271
 40
2.389098511088061
 40
3.185464419882505
 40
3.185464419882505
 40
3.185464419882505
 40
3.185464419882505
 10
-15.34624871448986
 20
-59.039884985904
 30
0.0
 10
-15.38767881598127
 20
-59.30208732102878
 30
0.0
 10
-15.47053901350732
 20
-59.82649195674358
 30
0.0
 10
-15.59483077674917
 20
-60.61309899643281
 30
0.0
 10
-15.71912276199894
 20
-61.39970600104263
 30
0.0
 10
-15.80198298166106
 20
-61.92411096886709
 30
0.0
 10
-15.84341306835202
 20
-62.18631330633048
 30
0.0
 11
-15.34624871448986
 21
-59.039884985904
 31
0.0
 11
-15.47053925528806
 21
-59.82649195393701
 31
0.0
 11
-15.59483076201288
 21
-60.61309866315392
 31
0.0
 11
-15.71912252755381
 21
-61.39970633829746
 31
0.0
 11
-15.84341306835202
 21
-62.18631330633048
 31
0.0
  0
SPLINE
  5
2449
330
1F
100
AcDbEntity
  8
AM_0
100
AcDbSpline
210
0.0
220
0.0
230
1.0
 70
     8
 71
     3
 72
    11
 73
     7
 74
     5
 42
0.0000000001
 43
0.0000000001
 44
0.0000000001
 40
0.0
 40
0.0
 40
0.0
 40
0.0
 40
0.0569332218743828
 40
0.1112165444698276
 40
0.1628584649608445
 40
0.2118679709061353
 40
0.2118679709061353
 40
0.2118679709061353
 40
0.2118679709061353
 10
-14.95085140798381
 20
-59.1097269227167
 30
0.0
 10
-14.96920212446049
 20
-59.1048879343018
 30
0.0
 10
-15.00504944185954
 20
-59.09543518329775
 30
0.0
 10
-15.0577460710002
 20
-59.08238854365989
 30
0.0
 10
-15.1080146546259
 20
-59.07053414224694
 30
0.0
 10
-15.14081194686783
 20
-59.06346179107453
 30
0.0
 10
-15.15678170652282
 20
-59.06001809982141
 30
0.0
 11
-14.95085140798381
 21
-59.1097269227167
 31
0.0
 11
-15.00594008057259
 21
-59.09535229557706
 31
0.0
 11
-15.05862515079858
 21
-59.08227703315967
 31
0.0
 11
-15.10890584221346
 21
-59.07049823768467
 31
0.0
 11
-15.15678170652282
 21
-59.06001809982141
 31
0.0
  0
SPLINE
  5
244A
330
1F
100
AcDbEntity
  8
AM_0
100
AcDbSpline
210
0.0
220
0.0
230
1.0
 70
     8
 71
     3
 72
    11
 73
     7
 74
     5
 42
0.0000000001
 43
0.0000000001
 44
0.0000000001
 40
0.0
 40
0.0
 40
0.0
 40
0.0
 40
0.0786704964328784
 40
0.1385109982773782
 40
0.1769026014348451
 40
0.1924286725734108
 40
0.1924286725734108
 40
0.1924286725734108
 40
0.1924286725734108
 10
-15.15678170652282
 20
-59.06001809982141
 30
0.0
 10
-15.18254171626708
 20
-59.05456300304316
 30
0.0
 10
-15.22789600824562
 20
-59.04495850155004
 30
0.0
 10
-15.28567741214298
 20
-59.03843324584466
 30
0.0
 10
-15.32461768944154
 20
-59.03090032730879
 30
0.0
 10
-15.34141250020449
 20
-59.03787621682578
 30
0.0
 10
-15.34624871448986
 20
-59.039884985904
 30
0.0
 11
-15.15678170652282
 21
-59.06001809982141
 31
0.0
 11
-15.23402538792529
 21
-59.0451029835835
 31
0.0
 11
-15.29325478770389
 21
-59.03657280991187
 31
0.0
 11
-15.33160229013211
 21
-59.03473317665554
 31
0.0
 11
-15.34624871448986
 21
-59.039884985904
 31
0.0
  0
SPLINE
  5
244B
330
1F
100
AcDbEntity
  8
AM_0
100
AcDbSpline
210
0.0
220
0.0
230
1.0
 70
     8
 71
     3
 72
    11
 73
     7
 74
     5
 42
0.0000000001
 43
0.0000000001
 44
0.0000000001
 40
0.0
 40
0.0
 40
0.0
 40
0.0
 40
0.7992580004560517
 40
1.598516000946498
 40
2.397774001436955
 40
3.197032001892995
 40
3.197032001892995
 40
3.197032001892995
 40
3.197032001892995
 10
-15.77840098917363
 20
-62.19779675868163
 30
0.0
 10
-15.70943876555538
 20
-61.94045754097778
 30
0.0
 10
-15.57151431831591
 20
-61.42577910555896
 30
0.0
 10
-15.36462619857874
 20
-60.65376184069915
 30
0.0
 10
-15.15773807884146
 20
-59.88174457583941
 30
0.0
 10
-15.01981363160203
 20
-59.36706614042058
 30
0.0
 10
-14.95085140798381
 20
-59.1097269227167
 30
0.0
 11
-15.77840098917363
 21
-62.19779675868163
 31
0.0
 11
-15.57151407683946
 21
-61.42577917028235
 31
0.0
 11
-15.36462619857872
 21
-60.65376184069917
 31
0.0
 11
-15.15773832031793
 21
-59.88174451111598
 31
0.0
 11
-14.95085140798381
 21
-59.1097269227167
 31
0.0
  0
SPLINE
  5
244C
330
1F
100
AcDbEntity
  8
AM_0
100
AcDbSpline
210
0.0
220
0.0
230
1.0
 70
     8
 71
     3
 72
    11
 73
     7
 74
     5
 42
0.0000000001
 43
0.0000000001
 44
0.0000000001
 40
0.0
 40
0.0
 40
0.0
 40
0.0
 40
0.0251547788103861
 40
0.0465669461925174
 40
0.060934375050866
 40
0.0663892917321709
 40
0.0663892917321709
 40
0.0663892917321709
 40
0.0663892917321709
 10
-15.77840098917363
 20
-62.19779675868163
 30
0.0
 10
-15.7865247102134
 20
-62.19564533066189
 30
0.0
 10
-15.80156347813075
 20
-62.19166257121934
 30
0.0
 10
-15.82140229463277
 20
-62.18809202184977
 30
0.0
 10
-15.83508977992248
 20
-62.18470514972371
 30
0.0
 10
-15.84161687521604
 20
-62.18596626082279
 30
0.0
 10
-15.84341306835202
 20
-62.18631330633048
 30
0.0
 11
-15.77840098917363
 21
-62.19779675868163
 31
0.0
 11
-15.80280785334611
 21
-62.19170841914891
 31
0.0
 11
-15.82377746794022
 21
-62.18737757907163
 31
0.0
 11
-15.83802049172891
 21
-62.18549097223543
 31
0.0
 11
-15.84341306835202
 21
-62.18631330633048
 31
0.0
  0
SPLINE
  5
244D
330
1F
100
AcDbEntity
  8
AM_0
100
AcDbSpline
210
0.0
220
0.0
230
1.0
 70
     8
 71
     3
 72
    11
 73
     7
 74
     5
 42
0.0000000001
 43
0.0000000001
 44
0.0000000001
 40
0.0
 40
0.0
 40
0.0
 40
0.0
 40
0.7992590004560591
 40
1.598517000946505
 40
2.397775001436958
 40
3.197033001893002
 40
3.197033001893002
 40
3.197033001893002
 40
3.197033001893002
 10
-5.346490576424998
 20
-64.99337277821891
 30
0.0
 10
-5.277528266537789
 20
-64.73603323853868
 30
0.0
 10
-5.139603733043208
 20
-64.22135448113978
 30
0.0
 10
-4.932715527011697
 20
-63.44933689431045
 30
0.0
 10
-4.725827407277311
 20
-62.67731962944988
 30
0.0
 10
-4.587902960037512
 20
-62.16264119403118
 30
0.0
 10
-4.518940736419097
 20
-61.90530197632735
 30
0.0
 11
-5.346490576424998
 21
-64.99337277821891
 31
0.0
 11
-5.139603405274755
 21
-64.221354223893
 31
0.0
 11
-4.932715527013983
 21
-63.44933689430982
 31
0.0
 11
-4.72582764875321
 21
-62.67731956472664
 31
0.0
 11
-4.518940736419097
 21
-61.90530197632735
 31
0.0
  0
SPLINE
  5
2450
330
1F
100
AcDbEntity
  8
AM_0
100
AcDbSpline
210
0.0
220
0.0
230
1.0
 70
     8
 71
     3
 72
    11
 73
     7
 74
     5
 42
0.0000000001
 43
0.0000000001
 44
0.0000000001
 40
0.0
 40
0.0
 40
0.0
 40
0.0
 40
0.7963666022938153
 40
1.592732315069681
 40
2.389098917363491
 40
3.185465519657325
 40
3.185465519657325
 40
3.185465519657325
 40
3.185465519657325
 10
-5.284448601384327
 20
-65.01593708190971
 30
0.0
 10
-5.189211704339321
 20
-64.76815376119477
 30
0.0
 10
-4.998738016626112
 20
-64.27258739653153
 30
0.0
 10
-4.713025342732683
 20
-63.5292385141269
 30
0.0
 10
-4.42731486792905
 20
-62.78588878648689
 30
0.0
 10
-4.236840780626796
 20
-62.29032225775517
 30
0.0
 10
-4.141603736975668
 20
-62.0425389933893
 30
0.0
 11
-5.284448601384327
 21
-65.01593708190971
 31
0.0
 11
-4.998737562059787
 21
-64.27258725359394
 31
0.0
 11
-4.713025815624746
 21
-63.52923865002086
 31
0.0
 11
-4.427314776300221
 21
-62.78588882170509
 31
0.0
 11
-4.141603736975668
 21
-62.0425389933893
 31
0.0
  0
SPLINE
  5
2451
330
1F
100
AcDbEntity
  8
AM_0
100
AcDbSpline
210
0.0
220
0.0
230
1.0
 70
     8
 71
     3
 72
    11
 73
     7
 74
     5
 42
0.0000000001
 43
0.0000000001
 44
0.0000000001
 40
0.0
 40
0.0
 40
0.0
 40
0.0
 40
0.0251547961629458
 40
0.0465660233580472
 40
0.0609335819885132
 40
0.0663889002193765
 40
0.0663889002193765
 40
0.0663889002193765
 40
0.0663889002193765
 10
-5.346490576424998
 20
-64.99337277821891
 30
0.0
 10
-5.338379561632708
 20
-64.99557169242286
 30
0.0
 10
-5.323364623653143
 20
-64.99964227560389
 30
0.0
 10
-5.304399116837017
 20
-65.0064703390515
 30
0.0
 10
-5.290851984349752
 20
-65.01038136911092
 30
0.0
 10
-5.285830523301737
 20
-65.01473809672876
 30
0.0
 10
-5.284448601384327
 20
-65.01593708190971
 30
0.0
 11
-5.346490576424998
 21
-64.99337277821891
 31
0.0
 11
-5.322309658701116
 21
-65.00030437168869
 31
0.0
 11
-5.301985203287416
 21
-65.00703914430079
 31
0.0
 11
-5.288707304706975
 21
-65.01252769149357
 31
0.0
 11
-5.284448601384327
 21
-65.01593708190971
 31
0.0
  0
SPLINE
  5
2452
330
1F
100
AcDbEntity
  8
AM_0
100
AcDbSpline
210
0.0
220
0.0
230
1.0
 70
     8
 71
     3
 72
    11
 73
     7
 74
     5
 42
0.0000000001
 43
0.0000000001
 44
0.0000000001
 40
0.0
 40
0.0
 40
0.0
 40
0.0
 40
0.7963667983887806
 40
1.592732707183218
 40
2.389099505572013
 40
3.185465309476858
 40
3.185465309476858
 40
3.185465309476858
 40
3.185465309476858
 10
-16.08723469156246
 20
-63.09615161532171
 30
0.0
 10
-16.04580397962176
 20
-62.83394907644314
 30
0.0
 10
-15.96294260202121
 20
-62.30954429158355
 30
0.0
 10
-15.83865273416495
 20
-61.52293661679885
 30
0.0
 10
-15.71436054671355
 20
-60.73632964413871
 30
0.0
 10
-15.63149957363043
 20
-60.21192483075858
 30
0.0
 10
-15.59006911295758
 20
-59.94972258778469
 30
0.0
 11
-16.08723469156246
 21
-63.09615161532171
 31
0.0
 11
-15.96294292602154
 21
-62.30954394017817
 31
0.0
 11
-15.83865238522333
 21
-61.52293697214517
 31
0.0
 11
-15.71436061968241
 21
-60.73632929700162
 31
0.0
 11
-15.59006911295758
 21
-59.94972258778469
 31
0.0
  0
SPLINE
  5
2453
330
1F
100
AcDbEntity
  8
AM_0
100
AcDbSpline
210
0.0
220
0.0
230
1.0
 70
     8
 71
     3
 72
    11
 73
     7
 74
     5
 42
0.0000000001
 43
0.0000000001
 44
0.0000000001
 40
0.0
 40
0.0
 40
0.0
 40
0.0
 40
0.7603974108912088
 40
1.915357764976556
 40
3.387100956003112
 40
5.050488557566249
 40
5.050488557566249
 40
5.050488557566249
 40
5.050488557566249
 10
1.748080191228695
 20
-51.14035571141633
 30
0.0
 10
1.989364711701751
 20
-51.21774479810393
 30
0.0
 10
2.597133982398059
 20
-51.41267942832287
 30
0.0
 10
3.689039728044779
 20
-51.71171012724184
 30
0.0
 10
5.114902317915298
 20
-51.85812662862273
 30
0.0
 10
6.148915766376872
 20
-52.00698711977051
 30
0.0
 10
6.697526099982696
 20
-52.08596714061144
 30
0.0
 11
1.748080191228695
 21
-51.14035571141633
 31
0.0
 11
2.473460671865553
 21
-51.36845082491308
 31
0.0
 11
3.591991193395558
 21
-51.6562404910145
 31
0.0
 11
5.049447507256303
 21
-51.86081104979674
 31
0.0
 11
6.697526099982696
 21
-52.08596714061144
 31
0.0
  0
SPLINE
  5
2456
330
1F
100
AcDbEntity
  8
AM_0
100
AcDbSpline
210
0.0
220
0.0
230
1.0
 70
     8
 71
     3
 72
    11
 73
     7
 74
     5
 42
0.0000000001
 43
0.0000000001
 44
0.0000000001
 40
0.0
 40
0.0
 40
0.0
 40
0.0
 40
0.2087127124566181
 40
0.417818507873685
 40
0.6273189027778491
 40
0.8371614091606126
 40
0.8371614091606126
 40
0.8371614091606126
 40
0.8371614091606126
 10
-1.689734724725298
 20
-56.04603186898626
 30
0.0
 10
-1.708789539720324
 20
-56.11294256007432
 30
0.0
 10
-1.746935056949832
 20
-56.24688995974228
 30
0.0
 10
-1.803136120274082
 20
-56.44830297154952
 30
0.0
 10
-1.858732003113468
 20
-56.65027457461333
 30
0.0
 10
-1.895081339590572
 20
-56.78524684545296
 30
0.0
 10
-1.913270835223614
 20
-56.85278803791917
 30
0.0
 11
-1.689734724725298
 21
-56.04603186898626
 31
0.0
 11
-1.746721143086774
 21
-56.24681420003989
 31
0.0
 11
-1.80298335811176
 21
-56.44820882965421
 31
0.0
 11
-1.858515056608354
 21
-56.6502153788725
 31
0.0
 11
-1.913270835223614
 21
-56.85278803791917
 31
0.0
  0
SPLINE
  5
2457
330
1F
100
AcDbEntity
  8
AM_0
100
AcDbSpline
210
0.0
220
0.0
230
1.0
 70
     8
 71
     3
 72
    11
 73
     7
 74
     5
 42
0.0000000001
 43
0.0000000001
 44
0.0000000001
 40
0.0
 40
0.0
 40
0.0
 40
0.0
 40
0.4196437144018645
 40
0.842781409381886
 40
1.269635177341122
 40
1.699194162091785
 40
1.699194162091785
 40
1.699194162091785
 40
1.699194162091785
 10
-1.689734724725298
 20
-56.04603186898626
 30
0.0
 10
-1.829597961861238
 20
-56.04886672058689
 30
0.0
 10
-2.110488946448368
 20
-56.05456002694503
 30
0.0
 10
-2.533718553605424
 20
-56.04757768738294
 30
0.0
 10
-2.959954522078726
 20
-56.03030812019523
 30
0.0
 10
-3.244629060745536
 20
-56.00873000611554
 30
0.0
 10
-3.387415941752551
 20
-55.9979068688519
 30
0.0
 11
-1.689734724725298
 21
-56.04603186898626
 31
0.0
 11
-2.10933634217065
 21
-56.05197574602387
 31
0.0
 11
-2.532430609548726
 21
-56.04591358264644
 31
0.0
 11
-2.958902234903263
 21
-56.02785556535615
 31
0.0
 11
-3.387415941752551
 21
-55.9979068688519
 31
0.0
  0
SPLINE
  5
2459
330
1F
100
AcDbEntity
  8
AM_0
100
AcDbSpline
210
0.0
220
0.0
230
1.0
 70
     8
 71
     3
 72
    11
 73
     7
 74
     5
 42
0.0000000001
 43
0.0000000001
 44
0.0000000001
 40
0.0
 40
0.0
 40
0.0
 40
0.0
 40
0.1375438220350184
 40
0.3275879707636827
 40
0.5589072129939763
 40
0.81152874938784
 40
0.81152874938784
 40
0.81152874938784
 40
0.81152874938784
 10
-11.43142159294455
 20
-53.53412332031463
 30
0.0
 10
-11.39048804738407
 20
-53.55477471368857
 30
0.0
 10
-11.29299666661595
 20
-53.60396011473904
 30
0.0
 10
-11.12685848033797
 20
-53.68826131791128
 30
0.0
 10
-10.9261596523402
 20
-53.78922370115316
 30
0.0
 10
-10.78161016792395
 20
-53.86083117794355
 30
0.0
 10
-10.70615400789133
 20
-53.89821093927615
 30
0.0
 11
-11.43142159294455
 21
-53.53412332031463
 31
0.0
 11
-11.30864106877237
 21
-53.59611723827445
 31
0.0
 11
-11.13908281029261
 21
-53.68194715990619
 31
0.0
 11
-10.93240207600925
 21
-53.78583010317452
 31
0.0
 11
-10.70615400789133
 21
-53.89821093927615
 31
0.0
  0
LINE
  5
245A
330
1F
100
AcDbEntity
  8
AM_0
100
AcDbLine
 10
-10.70615400789133
 20
-53.89821093927615
 30
0.0
 11
-10.10645919065283
 21
-54.18299931160603
 31
0.0
  0
SPLINE
  5
245B
330
1F
100
AcDbEntity
  8
AM_0
100
AcDbSpline
210
0.0
220
0.0
230
1.0
 70
     8
 71
     3
 72
    11
 73
     7
 74
     5
 42
0.0000000001
 43
0.0000000001
 44
0.0000000001
 40
0.0
 40
0.0
 40
0.0
 40
0.0
 40
0.0671379535583266
 40
0.13613600684247
 40
0.2070140422130948
 40
0.2795982851656733
 40
0.2795982851656733
 40
0.2795982851656733
 40
0.2795982851656733
 10
-11.43142159294455
 20
-53.53412332031463
 30
0.0
 10
-11.441145200698
 20
-53.55428045097559
 30
0.0
 10
-11.46086181494522
 20
-53.59515317842924
 30
0.0
 10
-11.48953400436804
 20
-53.65792351282646
 30
0.0
 10
-11.51810720056202
 20
-53.72272696141076
 30
0.0
 10
-11.53660466639525
 20
-53.76682634867193
 30
0.0
 10
-11.54596339518263
 20
-53.78913828095431
 30
0.0
 11
-11.43142159294455
 21
-53.53412332031463
 31
0.0
 11
-11.46038293821162
 21
-53.59469348861819
 31
0.0
 11
-11.48913692080014
 21
-53.65741461617742
 31
0.0
 11
-11.5176833512317
 21
-53.72228985958826
 31
0.0
 11
-11.54596339518263
 21
-53.78913828095431
 31
0.0
  0
SPLINE
  5
245D
330
1F
100
AcDbEntity
  8
AM_0
100
AcDbSpline
210
0.0
220
0.0
230
1.0
 70
     8
 71
     3
 72
    11
 73
     7
 74
     5
 42
0.0000000001
 43
0.0000000001
 44
0.0000000001
 40
0.0
 40
0.0
 40
0.0
 40
0.0
 40
0.3452131392647154
 40
0.7222827060093628
 40
1.122828245553867
 40
1.539561836743733
 40
1.539561836743733
 40
1.539561836743733
 40
1.539561836743733
 10
-10.69380377023205
 20
-52.6553074536242
 30
0.0
 10
-10.77918174044215
 20
-52.73249307342387
 30
0.0
 10
-10.95781639927433
 20
-52.89398703756628
 30
0.0
 10
-11.21925811858971
 20
-53.16209308318992
 30
0.0
 10
-11.48542010153269
 20
-53.45841651834149
 30
0.0
 10
-11.65467428020282
 20
-53.67196366521505
 30
0.0
 10
-11.74097759940995
 20
-53.78085212945982
 30
0.0
 11
-10.69380377023205
 21
-52.6553074536242
 31
0.0
 11
-10.94754899160081
 21
-52.88937042411189
 31
0.0
 11
-11.21196514311171
 21
-53.15819296220191
 31
0.0
 11
-11.4787194913938
 21
-53.45698862301644
 31
0.0
 11
-11.74097759940995
 21
-53.78085212945982
 31
0.0
  0
SPLINE
  5
245E
330
1F
100
AcDbEntity
  8
AM_0
100
AcDbSpline
210
0.0
220
0.0
230
1.0
 70
     8
 71
     3
 72
    11
 73
     7
 74
     5
 42
0.0000000001
 43
0.0000000001
 44
0.0000000001
 40
0.0
 40
0.0
 40
0.0
 40
0.0
 40
2.361697852907098
 40
4.565317996202688
 40
6.600142558517575
 40
8.493240490319316
 40
8.493240490319316
 40
8.493240490319316
 40
8.493240490319316
 10
-2.763875460794651
 20
-50.34908366574918
 30
0.0
 10
-3.553064537708993
 20
-50.29776157293988
 30
0.0
 10
-5.078619168166354
 20
-50.19855257648985
 30
0.0
 10
-7.250539709202183
 20
-50.66748422597145
 30
0.0
 10
-9.154707836374501
 20
-51.46185875607029
 30
0.0
 10
-10.19334819584369
 20
-52.26725331871219
 30
0.0
 10
-10.69393035329259
 20
-52.65542054530729
 30
0.0
 11
-2.763875460794651
 21
-50.34908366574918
 31
0.0
 11
-5.125224071614881
 21
-50.30846979369331
 31
0.0
 11
-7.284868660943559
 21
-50.74650744472508
 31
0.0
 11
-9.150096887106329
 21
-51.55979378035704
 31
0.0
 11
-10.69393035329259
 21
-52.65542054530729
 31
0.0
  0
SPLINE
  5
2462
330
1F
100
AcDbEntity
  8
AM_0
100
AcDbSpline
210
0.0
220
0.0
230
1.0
 70
     8
 71
     3
 72
    11
 73
     7
 74
     5
 42
0.0000000001
 43
0.0000000001
 44
0.0000000001
 40
0.0
 40
0.0
 40
0.0
 40
0.0
 40
0.0651026139644158
 40
0.1300032726513746
 40
0.1947085879276428
 40
0.2592239298626944
 40
0.2592239298626944
 40
0.2592239298626944
 40
0.2592239298626944
 10
-2.50669535202141
 20
-50.37707994443716
 30
0.0
 10
-2.528303120346696
 20
-50.37507006080439
 30
0.0
 10
-2.57145162738691
 20
-50.37105652841299
 30
0.0
 10
-2.636001515462471
 20
-50.36428558351368
 30
0.0
 10
-2.700301601356085
 20
-50.35702852226508
 30
0.0
 10
-2.743043037040648
 20
-50.35168710297792
 30
0.0
 10
-2.764382336789566
 20
-50.34902031966969
 30
0.0
 11
-2.50669535202141
 21
-50.37707994443716
 31
0.0
 11
-2.571506178988699
 21
-50.37092307406205
 31
0.0
 11
-2.636057049537158
 21
-50.36419398724159
 31
0.0
 11
-2.70034918840949
 21
-50.35689339108635
 31
0.0
 11
-2.764382336789566
 21
-50.34902031966969
 31
0.0
  0
SPLINE
  5
2463
330
1F
100
AcDbEntity
  8
AM_0
100
AcDbSpline
210
0.0
220
0.0
230
1.0
 70
     8
 71
     3
 72
    11
 73
     7
 74
     5
 42
0.0000000001
 43
0.0000000001
 44
0.0000000001
 40
0.0
 40
0.0
 40
0.0
 40
0.0
 40
0.2475576465391619
 40
0.4953384845795508
 40
0.7434013830488773
 40
0.991727775212507
 40
0.991727775212507
 40
0.991727775212507
 40
0.991727775212507
 10
-1.522268206548489
 20
-50.51551653428275
 30
0.0
 10
-1.603432659666688
 20
-50.50059933906412
 30
0.0
 10
-1.765834741651808
 20
-50.47075149967368
 30
0.0
 10
-2.010874184765716
 20
-50.43364734630272
 30
0.0
 10
-2.256889756393107
 20
-50.40164353030227
 30
0.0
 10
-2.421566672523489
 20
-50.38543827940753
 30
0.0
 10
-2.503948837543902
 20
-50.3773313529191
 30
0.0
 11
-1.522268206548489
 21
-50.51551653428275
 31
0.0
 11
-1.76597913028553
 21
-50.47204500323947
 31
0.0
 11
-2.010901465650221
 21
-50.4345164362604
 31
0.0
 11
-2.256946328858874
 21
-50.40293912026237
 31
0.0
 11
-2.503948837543902
 21
-50.3773313529191
 31
0.0
  0
LINE
  5
26BD
330
1F
100
AcDbEntity
  8
AM_0
100
AcDbLine
 10
-4.518939810831625
 20
-61.90530238569306
 30
0.0
 11
-14.95085048239633
 21
-59.1097273320824
 31
0.0
  0
LINE
  5
26BE
330
1F
100
AcDbEntity
  8
AM_0
100
AcDbLine
 10
-15.77840128832887
 20
-62.19779787515788
 30
0.0
 11
-5.346490616764129
 21
-64.99337292876854
 31
0.0
  0
LINE
  5
26C1
330
1F
100
AcDbEntity
  8
AM_0
100
AcDbLine
 10
-16.087233765975
 20
-63.09615202468743
 30
0.0
 11
-15.84341214276455
 21
-62.18631371569619
 31
0.0
  0
LINE
  5
26C2
330
1F
100
AcDbEntity
  8
AM_0
100
AcDbLine
 10
-4.385424434598662
 20
-62.95237771174624
 30
0.0
 11
-4.141602811388225
 21
-62.042539402755
 31
0.0
  0
LINE
  5
26C3
330
1F
100
AcDbEntity
  8
AM_0
100
AcDbLine
 10
-15.34624778890239
 20
-59.03988539526971
 30
0.0
 11
-15.59006915329672
 21
-59.94972273833432
 31
0.0
  0
LINE
  5
26C4
330
1F
100
AcDbEntity
  8
AM_0
100
AcDbLine
 10
-15.27294829429344
 20
-59.02956172154975
 30
0.0
 11
-15.15261734814811
 21
-59.06180908351578
 31
0.0
  0
LINE
  5
26C5
330
1F
100
AcDbEntity
  8
AM_0
100
AcDbLine
 10
-4.320249681447535
 20
-61.96469944736574
 30
0.0
 11
-4.199918476486147
 21
-61.99694584340514
 31
0.0
  0
LINE
  5
26C6
330
1F
100
AcDbEntity
  8
AM_0
100
AcDbLine
 10
-3.694930299412818
 20
-60.95523116743184
 30
0.0
 11
-3.15526388156556
 21
-58.94142223891157
 31
0.0
  0
LINE
  5
26CC
330
1F
100
AcDbEntity
  8
AM_0
100
AcDbLine
 10
-15.50871961832226
 20
-59.64616092945607
 30
0.0
 11
-15.45800523444922
 21
-58.8774283074285
 31
0.0
  0
ARC
  5
26DD
330
1F
100
AcDbEntity
  8
AM_0
100
AcDbCircle
 10
-4.372095141650789
 20
-63.48212792905484
 30
0.0
 40
4.7009246495647
100
AcDbArc
 50
73.56452386645394
 51
74.99820066237233
  0
ARC
  5
26DE
330
1F
100
AcDbEntity
  8
AM_0
100
AcDbCircle
 10
-3.911850872771794
 20
-61.92191895505648
 30
0.0
 40
3.07424826505359
100
AcDbArc
 50
71.37239960498782
 51
73.56452174478116
  0
ARC
  5
26DF
330
1F
100
AcDbEntity
  8
AM_0
100
AcDbCircle
 10
-2.827506747186561
 20
-58.70498276709552
 30
0.0
 40
0.320524278152217
100
AcDbArc
 50
251.3723922665652
 51
271.3766215242487
  0
ARC
  5
26E0
330
1F
100
AcDbEntity
  8
AM_0
100
AcDbCircle
 10
-2.818791114785185
 20
-59.06770881644522
 30
0.0
 40
0.0423060000118293
100
AcDbArc
 50
344.9988208319471
 51
91.37511763879782
  0
SPLINE
  5
26E3
330
1F
100
AcDbEntity
  8
AM_0
100
AcDbSpline
210
0.0
220
0.0
230
1.0
 70
     8
 71
     3
 72
    11
 73
     7
 74
     5
 42
0.0000000001
 43
0.0000000001
 44
0.0000000001
 40
0.0
 40
0.0
 40
0.0
 40
0.0
 40
0.7992590004904543
 40
1.598517000980918
 40
2.397775001436948
 40
3.197033001927419
 40
3.197033001927419
 40
3.197033001927419
 40
3.197033001927419
 10
-15.77840128832887
 20
-62.19779787515788
 30
0.0
 10
-15.70943860472053
 20
-61.94045843561661
 30
0.0
 10
-15.57151332378713
 20
-61.42577987850658
 30
0.0
 10
-15.3646249280212
 20
-60.6537623425228
 30
0.0
 10
-15.1577386883768
 20
-59.88174457383048
 30
0.0
 10
-15.01981321772415
 20
-59.3670664126688
 30
0.0
 10
-14.95085048239633
 20
-59.1097273320824
 30
0.0
 11
-15.77840128832887
 21
-62.19779787515788
 31
0.0
 11
-15.57151315125199
 21
-61.42577957964807
 31
0.0
 11
-15.36462527299123
 21
-60.65376225006487
 31
0.0
 11
-15.15773836065709
 21
-59.88174466166561
 31
0.0
 11
-14.95085048239633
 21
-59.1097273320824
 31
0.0
  0
SPLINE
  5
26E4
330
1F
100
AcDbEntity
  8
AM_0
100
AcDbSpline
210
0.0
220
0.0
230
1.0
 70
     8
 71
     3
 72
    11
 73
     7
 74
     5
 42
0.0000000001
 43
0.0000000001
 44
0.0000000001
 40
0.0
 40
0.0
 40
0.0
 40
0.0
 40
0.7992590004904537
 40
1.598517000980917
 40
2.397775001436965
 40
3.197033001927411
 40
3.197033001927411
 40
3.197033001927411
 40
3.197033001927411
 10
-5.346490616764129
 20
-64.99337292876854
 30
0.0
 10
-5.277527933155805
 20
-64.73603348922727
 30
0.0
 10
-5.13960265222243
 20
-64.22135493211722
 30
0.0
 10
-4.93271425645649
 20
-63.44933739613345
 30
0.0
 10
-4.725828016812075
 20
-62.67731962744113
 30
0.0
 10
-4.58790254615943
 20
-62.16264146627944
 30
0.0
 10
-4.518939810831625
 20
-61.90530238569306
 30
0.0
 11
-5.346490616764129
 21
-64.99337292876854
 31
0.0
 11
-5.139602479687284
 21
-64.22135463325873
 31
0.0
 11
-4.932714601426525
 21
-63.44933730367553
 31
0.0
 11
-4.72582768909237
 21
-62.67731971527625
 31
0.0
 11
-4.518939810831625
 21
-61.90530238569306
 31
0.0
  0
SPLINE
  5
26E7
330
1F
100
AcDbEntity
  8
AM_0
100
AcDbSpline
210
0.0
220
0.0
230
1.0
 70
     8
 71
     3
 72
    11
 73
     7
 74
     5
 42
0.0000000001
 43
0.0000000001
 44
0.0000000001
 40
0.0
 40
0.0
 40
0.0
 40
0.0
 40
0.7963666022938285
 40
1.592732210110987
 40
2.389098917363367
 40
3.18546551965719
 40
3.18546551965719
 40
3.18546551965719
 40
3.18546551965719
 10
-5.284447675796855
 20
-65.01593749127542
 30
0.0
 10
-5.189210646141594
 20
-64.76815422153015
 30
0.0
 10
-4.998736705759973
 20
-64.2725879914633
 30
0.0
 10
-4.713026021018322
 20
-63.52923834451438
 30
0.0
 10
-4.427313557063036
 20
-62.78588938141853
 30
0.0
 10
-4.236839722429189
 20
-62.2903227180905
 30
0.0
 10
-4.141602811388225
 20
-62.042539402755
 30
0.0
 11
-5.284447675796855
 21
-65.01593749127542
 31
0.0
 11
-4.998736636472316
 21
-64.27258766295964
 31
0.0
 11
-4.713025855963878
 21
-63.52923880057048
 31
0.0
 11
-4.42731385071275
 21
-62.78588923107079
 31
0.0
 11
-4.141602811388225
 21
-62.042539402755
 31
0.0
  0
SPLINE
  5
26E8
330
1F
100
AcDbEntity
  8
AM_0
100
AcDbSpline
210
0.0
220
0.0
230
1.0
 70
     8
 71
     3
 72
    11
 73
     7
 74
     5
 42
0.0000000001
 43
0.0000000001
 44
0.0000000001
 40
0.0
 40
0.0
 40
0.0
 40
0.0
 40
0.0251547961629321
 40
0.0465670216661383
 40
0.0609347101371623
 40
0.0663896268184531
 40
0.0663896268184531
 40
0.0663896268184531
 40
0.0663896268184531
 10
-5.346490616764129
 20
-64.99337292876854
 30
0.0
 10
-5.338379662772603
 20
-64.99557195760588
 30
0.0
 10
-5.323364515450002
 20
-64.99964284026575
 30
0.0
 10
-5.304398001447314
 20
-65.00646979783281
 30
0.0
 10
-5.290851954980377
 20
-65.01038331091171
 30
0.0
 10
-5.28582972620432
 20
-65.0147388931171
 30
0.0
 10
-5.284447675796855
 20
-65.01593749127542
 30
0.0
 11
-5.346490616764129
 21
-64.99337292876854
 31
0.0
 11
-5.322309699040261
 21
-65.00030452223831
 31
0.0
 11
-5.301984277699944
 21
-65.0070395536665
 31
0.0
 11
-5.288706637935576
 21
-65.0125290667859
 31
0.0
 11
-5.284447675796855
 21
-65.01593749127542
 31
0.0
  0
SPLINE
  5
26E9
330
1F
100
AcDbEntity
  8
AM_0
100
AcDbSpline
210
0.0
220
0.0
230
1.0
 70
     8
 71
     3
 72
    11
 73
     7
 74
     5
 42
0.0000000001
 43
0.0000000001
 44
0.0000000001
 40
0.0
 40
0.0
 40
0.0
 40
0.0
 40
0.7963658039048288
 40
1.592732707183099
 40
2.38909851108793
 40
3.185464419882381
 40
3.185464419882381
 40
3.185464419882381
 40
3.185464419882381
 10
-15.34624778890239
 20
-59.03988539526971
 30
0.0
 10
-15.38767839636687
 20
-59.30208761504917
 30
0.0
 10
-15.47053966849027
 20
-59.82649241657511
 30
0.0
 10
-15.59482965406434
 20
-60.61309973715203
 30
0.0
 10
-15.71912194899305
 20
-61.39970672822678
 30
0.0
 10
-15.80198207635512
 20
-61.92411137502813
 30
0.0
 10
-15.84341214276455
 20
-62.18631371569619
 30
0.0
 11
-15.34624778890239
 21
-59.03988539526971
 31
0.0
 11
-15.47053929562721
 21
-59.82649210448662
 31
0.0
 11
-15.59483009524151
 21
-60.61310003844626
 31
0.0
 11
-15.71912160196634
 21
-61.39970674766317
 31
0.0
 11
-15.84341214276455
 21
-62.18631371569619
 31
0.0
  0
SPLINE
  5
26EA
330
1F
100
AcDbEntity
  8
AM_0
100
AcDbSpline
210
0.0
220
0.0
230
1.0
 70
     8
 71
     3
 72
    11
 73
     7
 74
     5
 42
0.0000000001
 43
0.0000000001
 44
0.0000000001
 40
0.0
 40
0.0
 40
0.0
 40
0.0
 40
0.0569332218743756
 40
0.1112165444698239
 40
0.162858464960827
 40
0.2118689698347958
 40
0.2118689698347958
 40
0.2118689698347958
 40
0.2118689698347958
 10
-14.95085048239633
 20
-59.1097273320824
 30
0.0
 10
-14.96920119895684
 20
-59.10488834404936
 30
0.0
 10
-15.00504851651966
 20
-59.09543559379129
 30
0.0
 10
-15.05774514449483
 20
-59.08238894884434
 30
0.0
 10
-15.10801405633171
 20
-59.07053448971758
 30
0.0
 10
-15.14081166575631
 20
-59.06346203032996
 30
0.0
 10
-15.15678174686195
 20
-59.06001825037103
 30
0.0
 11
-14.95085048239633
 21
-59.1097273320824
 31
0.0
 11
-15.00593915498511
 21
-59.09535270494278
 31
0.0
 11
-15.05862422521111
 21
-59.08227744252538
 31
0.0
 11
-15.10890491662597
 21
-59.07049864705039
 31
0.0
 11
-15.15678174686195
 21
-59.06001825037103
 31
0.0
  0
SPLINE
  5
26EB
330
1F
100
AcDbEntity
  8
AM_0
100
AcDbSpline
210
0.0
220
0.0
230
1.0
 70
     8
 71
     3
 72
    11
 73
     7
 74
     5
 42
0.0000000001
 43
0.0000000001
 44
0.0000000001
 40
0.0
 40
0.0
 40
0.0
 40
0.0
 40
0.0786695699556019
 40
0.1385099533266905
 40
0.1769015564841574
 40
0.1924276276227365
 40
0.1924276276227365
 40
0.1924276276227365
 40
0.1924276276227365
 10
-15.15678174686195
 20
-59.06001825037103
 30
0.0
 10
-15.18254156645773
 20
-59.05456385104068
 30
0.0
 10
-15.22789571561514
 20
-59.04496053686088
 30
0.0
 10
-15.28567648941579
 20
-59.03843340054163
 30
0.0
 10
-15.32461676646658
 20
-59.03090075378157
 30
0.0
 10
-15.34141157520112
 20
-59.03787663001625
 30
0.0
 10
-15.34624778890239
 20
-59.03988539526971
 30
0.0
 11
-15.15678174686195
 21
-59.06001825037103
 31
0.0
 11
-15.23402472115392
 21
-59.04510435887583
 31
0.0
 11
-15.2932538621164
 21
-59.03657321927759
 31
0.0
 11
-15.33160136454463
 21
-59.03473358602125
 31
0.0
 11
-15.34624778890239
 21
-59.03988539526971
 31
0.0
  0
SPLINE
  5
26EC
330
1F
100
AcDbEntity
  8
AM_0
100
AcDbSpline
210
0.0
220
0.0
230
1.0
 70
     8
 71
     3
 72
    11
 73
     7
 74
     5
 42
0.0000000001
 43
0.0000000001
 44
0.0000000001
 40
0.0
 40
0.0
 40
0.0
 40
0.0
 40
0.0251547614975717
 40
0.0465669288797044
 40
0.060934357738068
 40
0.0663883585631374
 40
0.0663883585631374
 40
0.0663883585631374
 40
0.0663883585631374
 10
-15.77840128832887
 20
-62.19779787515788
 30
0.0
 10
-15.78652490281891
 20
-62.19564600626953
 30
0.0
 10
-15.80156347824887
 20
-62.19166242942296
 30
0.0
 10
-15.82140231751199
 20
-62.18809241065328
 30
0.0
 10
-15.83508956362537
 20
-62.18470500843549
 30
0.0
 10
-15.8416162741056
 20
-62.18596658448811
 30
0.0
 10
-15.84341214276455
 20
-62.18631371569619
 30
0.0
 11
-15.77840128832887
 21
-62.19779787515788
 31
0.0
 11
-15.80280789368526
 21
-62.19170856969853
 31
0.0
 11
-15.82377750827936
 21
-62.18737772962125
 31
0.0
 11
-15.83802053206807
 21
-62.18549112278504
 31
0.0
 11
-15.84341214276455
 21
-62.18631371569619
 31
0.0
  0
SPLINE
  5
26F0
330
1F
100
AcDbEntity
  8
AM_0
100
AcDbSpline
210
0.0
220
0.0
230
1.0
 70
     8
 71
     3
 72
    11
 73
     7
 74
     5
 42
0.0000000001
 43
0.0000000001
 44
0.0000000001
 40
0.0
 40
0.0
 40
0.0
 40
0.0
 40
0.7963667983887875
 40
1.592732707183239
 40
2.389098511088063
 40
3.185465414366336
 40
3.185465414366336
 40
3.185465414366336
 40
3.185465414366336
 10
-16.087233765975
 20
-63.09615202468743
 30
0.0
 10
-16.04580305188741
 20
-62.83394948614807
 30
0.0
 10
-15.96294166999308
 20
-62.30954470196695
 30
0.0
 10
-15.8386518860769
 20
-61.52293734952629
 30
0.0
 10
-15.7143595707975
 20
-60.73633036166712
 30
0.0
 10
-15.63149931152824
 20
-60.21192540010097
 30
0.0
 10
-15.59006915329672
 20
-59.94972273833432
 30
0.0
 11
-16.087233765975
 21
-63.09615202468743
 31
0.0
 11
-15.96294200043408
 21
-62.30954434954388
 31
0.0
 11
-15.83865145963587
 21
-61.52293738151086
 31
0.0
 11
-15.71435995291104
 21
-60.73633067229396
 31
0.0
 11
-15.59006915329672
 21
-59.94972273833432
 31
0.0
  0
LINE
  5
279B
330
1F
100
AcDbEntity
  8
AM_CL
100
AcDbLine
 10
12.074106
 20
-3.253857000000011
 30
0.0
 11
12.113005
 21
-3.108680000000021
 31
0.0
  0
LINE
  5
279C
330
1F
100
AcDbEntity
  8
AM_CL
100
AcDbLine
 10
11.98008800000002
 20
-3.163979000000012
 30
0.0
 11
12.074106
 21
-3.253857000000011
 31
0.0
  0
LINE
  5
279D
330
1F
100
AcDbEntity
  8
AM_CL
100
AcDbLine
 10
12.074106
 20
-3.253857000000011
 30
0.0
 11
12.992739
 21
-3.5
 31
0.0
  0
LINE
  5
27B5
330
1F
100
AcDbEntity
  8
AM_0
100
AcDbLine
 10
12.074106
 20
-3.253857000000011
 30
0.0
 11
12.113005
 21
-3.108680000000021
 31
0.0
  0
LINE
  5
27B6
330
1F
100
AcDbEntity
  8
AM_0
100
AcDbLine
 10
11.98008800000002
 20
-3.163979000000012
 30
0.0
 11
12.074106
 21
-3.253857000000011
 31
0.0
  0
LINE
  5
27B7
330
1F
100
AcDbEntity
  8
AM_0
100
AcDbLine
 10
12.074106
 20
-3.253857000000011
 30
0.0
 11
12.992739
 21
-3.5
 31
0.0
  0
LINE
  5
29C0
330
1F
100
AcDbEntity
  8
AM_0
100
AcDbLine
 10
-3.004200865128752
 20
-59.5275573982327
 30
0.0
 11
-2.085576487624905
 21
-59.77373321261891
 31
0.0
  0
LINE
  5
29C1
330
1F
100
AcDbEntity
  8
AM_0
100
AcDbLine
 10
-15.26805097245808
 20
-62.35966202079736
 30
0.0
 11
-4.878247491634738
 21
-65.14395669516485
 31
0.0
  0
LINE
  5
29C2
330
1F
100
AcDbEntity
  8
AM_0
100
AcDbLine
 10
-4.878247491634738
 20
-65.14395669516485
 30
0.0
 11
-3.82923597788502
 21
-61.22948548090493
 31
0.0
  0
LINE
  5
29C3
330
1F
100
AcDbEntity
  8
AM_0
100
AcDbLine
 10
-3.82923597788502
 20
-61.22948548090493
 30
0.0
 11
-3.004200865128752
 21
-59.5275573982327
 31
0.0
  0
LINE
  5
29C4
330
1F
100
AcDbEntity
  8
AM_0
100
AcDbLine
 10
-15.56472485366584
 20
-62.30775334189748
 30
0.0
 11
-15.79834116887777
 21
-63.17950832095747
 31
0.0
  0
LINE
  5
29C5
330
1F
100
AcDbEntity
  8
AM_0
100
AcDbLine
 10
-15.27294829745642
 20
-59.0295617333542
 30
0.0
 11
-15.15261709249499
 21
-59.06180812939361
 31
0.0
  0
LINE
  5
29C6
330
1F
100
AcDbEntity
  8
AM_0
100
AcDbLine
 10
-4.320249684610531
 20
-61.96469945917022
 30
0.0
 11
-4.199918479649085
 21
-61.99694585520962
 31
0.0
  0
LINE
  5
29C7
330
1F
100
AcDbEntity
  8
AM_0
100
AcDbLine
 10
-15.18935041835691
 20
-57.87492171886221
 30
0.0
 11
-15.27294829745642
 21
-59.0295617333542
 31
0.0
  0
LINE
  5
29C8
330
1F
100
AcDbEntity
  8
AM_0
100
AcDbLine
 10
-15.18935041835691
 20
-57.87492171886221
 30
0.0
 11
-14.64968374169359
 21
-55.86111182441536
 31
0.0
  0
LINE
  5
29C9
330
1F
100
AcDbEntity
  8
AM_0
100
AcDbLine
 10
-3.155263625912454
 20
-58.94142128478944
 30
0.0
 11
-14.64968374169359
 21
-55.86111182441536
 31
0.0
  0
LINE
  5
29CA
330
1F
100
AcDbEntity
  8
AM_0
100
AcDbLine
 10
-3.693253433113625
 20
-60.94897294068168
 30
0.0
 11
-3.155263625912454
 21
-58.94142128478944
 31
0.0
  0
LINE
  5
29CB
330
1F
100
AcDbEntity
  8
AM_0
100
AcDbLine
 10
-4.199918479649085
 20
-61.99694585520962
 30
0.0
 11
-3.830912588531078
 21
-61.23574275353293
 31
0.0
  0
LINE
  5
29CC
330
1F
100
AcDbEntity
  8
AM_0
100
AcDbLine
 10
-2.998085583713475
 20
-59.52919596291318
 30
0.0
 11
-2.777926885285154
 21
-59.07865926777798
 31
0.0
  0
LINE
  5
29CD
330
1F
100
AcDbEntity
  8
AM_0
100
AcDbLine
 10
-15.04508104819965
 20
-55.79126988760265
 30
0.0
 11
-15.18935041835691
 21
-57.87492171886221
 31
0.0
  0
LINE
  5
29CE
330
1F
100
AcDbEntity
  8
AM_0
100
AcDbLine
 10
-15.27562826875465
 20
-59.03955978095567
 30
0.0
 11
-15.27294829745642
 21
-59.0295617333542
 31
0.0
  0
LINE
  5
29CF
330
1F
100
AcDbEntity
  8
AM_0
100
AcDbLine
 10
-15.50871962148523
 20
-59.64616094126052
 30
0.0
 11
-15.4580052376122
 21
-58.87742831923299
 31
0.0
  0
LINE
  5
29D0
330
1F
100
AcDbEntity
  8
AM_0
100
AcDbLine
 10
-15.4580052376122
 20
-58.87742831923299
 30
0.0
 11
-15.31373586745494
 21
-56.79377648797338
 31
0.0
  0
LINE
  5
29D1
330
1F
100
AcDbEntity
  8
AM_0
100
AcDbLine
 10
-15.04508104819965
 20
-55.79126988760265
 30
0.0
 11
-15.31373586745494
 21
-56.79377648797338
 31
0.0
  0
LINE
  5
29D2
330
1F
100
AcDbEntity
  8
AM_0
100
AcDbLine
 10
-4.096915578104444
 20
-62.22835246978101
 30
0.0
 11
-4.304074902787164
 21
-62.64881591467245
 31
0.0
  0
LINE
  5
29D3
330
1F
100
AcDbEntity
  8
AM_0
100
AcDbLine
 10
-4.199918479649085
 20
-61.99694585520962
 30
0.0
 11
-4.202597485020704
 21
-62.00694416162718
 31
0.0
  0
LINE
  5
29D4
330
1F
100
AcDbEntity
  8
AM_0
100
AcDbLine
 10
-2.905324563378684
 20
-59.55405400530293
 30
0.0
 11
-2.777926885285154
 21
-59.07865926777798
 31
0.0
  0
LINE
  5
29D5
330
1F
100
AcDbEntity
  8
AM_0
100
AcDbLine
 10
-4.518939813994592
 20
-61.90530239749756
 30
0.0
 11
-14.95085022674321
 21
-59.10972637796027
 31
0.0
  0
LINE
  5
29D6
330
1F
100
AcDbEntity
  8
AM_0
100
AcDbLine
 10
-15.77840103267573
 20
-62.19779692103572
 30
0.0
 11
-5.346490361111023
 21
-64.99337197464639
 31
0.0
  0
LINE
  5
29D7
330
1F
100
AcDbEntity
  8
AM_0
100
AcDbLine
 10
-5.284448644886439
 20
-65.01593724426381
 30
0.0
 11
-5.28923958957138
 21
-65.03381751187997
 31
0.0
  0
LINE
  5
29D8
330
1F
100
AcDbEntity
  8
AM_0
100
AcDbLine
 10
-15.79834116887777
 20
-63.17950832095747
 30
0.0
 11
-16.02519179409727
 21
-63.11871634018269
 31
0.0
  0
LINE
  5
29D9
330
1F
100
AcDbEntity
  8
AM_0
100
AcDbLine
 10
-16.08723376913797
 20
-63.09615203649188
 30
0.0
 11
-15.84341311185415
 21
-62.18631346868457
 31
0.0
  0
LINE
  5
29DA
330
1F
100
AcDbEntity
  8
AM_0
100
AcDbLine
 10
-15.34624849917587
 20
-59.03988418233149
 30
0.0
 11
-15.59006915645969
 21
-59.94972275013879
 31
0.0
  0
LINE
  5
29DB
330
1F
100
AcDbEntity
  8
AM_0
100
AcDbLine
 10
-4.385424437761628
 20
-62.95237772355073
 30
0.0
 11
-4.141603780477794
 21
-62.04253915574341
 31
0.0
  0
ARC
  5
29E2
330
1F
100
AcDbEntity
  8
AM_0
100
AcDbCircle
 10
-4.372096110740372
 20
-63.48212768204321
 30
0.0
 40
4.700924674619031
100
AcDbArc
 50
73.56451168208629
 51
74.99818847459996
  0
ARC
  5
29E3
330
1F
100
AcDbEntity
  8
AM_0
100
AcDbCircle
 10
-3.911850875934775
 20
-61.92191896686097
 30
0.0
 40
3.07424826505359
100
AcDbArc
 50
71.37239960498785
 51
73.56452174478116
  0
ARC
  5
29E4
330
1F
100
AcDbEntity
  8
AM_0
100
AcDbCircle
 10
-2.827506750349542
 20
-58.70498277890002
 30
0.0
 40
0.320524278152217
100
AcDbArc
 50
251.3723922665637
 51
271.3764500200385
  0
ARC
  5
29E5
330
1F
100
AcDbEntity
  8
AM_0
100
AcDbCircle
 10
-2.818790859132065
 20
-59.06770786232306
 30
0.0
 40
0.0423060000472746
100
AcDbArc
 50
344.997466513895
 51
91.37679885917613
  0
ARC
  5
29E6
330
1F
100
AcDbEntity
  8
AM_0
100
AcDbCircle
 10
-14.95385585118666
 20
-55.81571641240558
 30
0.0
 40
0.0944435737623305
100
AcDbArc
 50
52.93943252088686
 51
164.9983551578513
  0
ARC
  5
29E7
330
1F
100
AcDbEntity
  8
AM_0
100
AcDbCircle
 10
-14.46352941257531
 20
-55.16646250859081
 30
0.0
 40
0.719159921817807
100
AcDbArc
 50
232.9393297006578
 51
254.9981833894921
  0
ARC
  5
29EE
330
1F
100
AcDbEntity
  8
AM_0
100
AcDbCircle
 10
18.20717191905519
 20
28.11675931407103
 30
0.0
 40
89.46741192646459
100
AcDbArc
 50
257.089821915244
 51
257.200334785113
  0
SPLINE
  5
29EF
330
1F
100
AcDbEntity
  8
AM_0
100
AcDbSpline
210
0.0
220
0.0
230
1.0
 70
     8
 71
     3
 72
    11
 73
     7
 74
     5
 42
0.0000000001
 43
0.0000000001
 44
0.0000000001
 40
0.0
 40
0.0
 40
0.0
 40
0.0
 40
0.114810036534271
 40
0.2121860776634848
 40
0.2778474022693823
 40
0.3028776377856591
 40
0.3028776377856591
 40
0.3028776377856591
 40
0.3028776377856591
 10
-15.26810313249543
 20
-62.35964804472837
 30
0.0
 10
-15.30518458763624
 20
-62.34983162013938
 30
0.0
 10
-15.37371664944807
 20
-62.33168940284643
 30
0.0
 10
-15.46418499004878
 20
-62.31555852206932
 30
0.0
 10
-15.52666571613722
 20
-62.3001148333757
 30
0.0
 10
-15.55649279011522
 20
-62.30610115817324
 30
0.0
 10
-15.56472485366584
 20
-62.30775334189748
 30
0.0
 11
-15.26810313249543
 21
-62.35964804472837
 31
0.0
 11
-15.37951047151705
 21
-62.33190368852533
 31
0.0
 11
-15.47489647840578
 21
-62.31231790092765
 31
0.0
 11
-15.54000558942347
 21
-62.30382006523337
 31
0.0
 11
-15.56472485366584
 21
-62.30775334189748
 31
0.0
  0
SPLINE
  5
29F5
330
1F
100
AcDbEntity
  8
AM_0
100
AcDbSpline
210
0.0
220
0.0
230
1.0
 70
     8
 71
     3
 72
    11
 73
     7
 74
     5
 42
0.0000000001
 43
0.0000000001
 44
0.0000000001
 40
0.0
 40
0.0
 40
0.0
 40
0.0
 40
0.7963669032782302
 40
1.592732707183057
 40
2.389099610461345
 40
3.185465414366176
 40
3.185465414366176
 40
3.185465414366176
 40
3.185465414366176
 10
-15.34624849917587
 20
-59.03988418233149
 30
0.0
 10
-15.38767866110757
 20
-59.30208684351346
 30
0.0
 10
-15.4705389277772
 20
-59.82649180391029
 30
0.0
 10
-15.59483123929173
 20
-60.61309912797158
 30
0.0
 10
-15.71912123411636
 20
-61.39970644708683
 30
0.0
 10
-15.80198250500637
 20
-61.92411124880768
 30
0.0
 10
-15.84341311185415
 20
-62.18631346868457
 30
0.0
 11
-15.34624849917587
 21
-59.03988418233149
 31
0.0
 11
-15.47053929879019
 21
-59.82649211629109
 31
0.0
 11
-15.59483080551499
 21
-60.613098825508
 31
0.0
 11
-15.71912160512932
 21
-61.39970675946766
 31
0.0
 11
-15.84341311185415
 21
-62.18631346868457
 31
0.0
  0
SPLINE
  5
29F6
330
1F
100
AcDbEntity
  8
AM_0
100
AcDbSpline
210
0.0
220
0.0
230
1.0
 70
     8
 71
     3
 72
    11
 73
     7
 74
     5
 42
0.0000000001
 43
0.0000000001
 44
0.0000000001
 40
0.0
 40
0.0
 40
0.0
 40
0.0
 40
0.0569342284131264
 40
0.1112175324853818
 40
0.1628584851683009
 40
0.2118689900422528
 40
0.2118689900422528
 40
0.2118689900422528
 40
0.2118689900422528
 10
-14.95085022674321
 20
-59.10972637796027
 30
0.0
 10
-14.96920141173945
 20
-59.10488786562958
 30
0.0
 10
-15.00504932907056
 20
-59.09543612776787
 30
0.0
 10
-15.05774536116323
 20
-59.08238704243006
 30
0.0
 10
-15.10801447151631
 20
-59.07053484003581
 30
0.0
 10
-15.14081170057337
 20
-59.06346217525877
 30
0.0
 10
-15.15678175002492
 20
-59.06001826217553
 30
0.0
 11
-14.95085022674321
 21
-59.10972637796027
 31
0.0
 11
-15.00594012407471
 21
-59.09535245793117
 31
0.0
 11
-15.0586249354846
 21
-59.08227622958714
 31
0.0
 11
-15.10890491978896
 21
-59.07049865885487
 31
0.0
 11
-15.15678175002492
 21
-59.06001826217553
 31
0.0
  0
SPLINE
  5
29F7
330
1F
100
AcDbEntity
  8
AM_0
100
AcDbSpline
210
0.0
220
0.0
230
1.0
 70
     8
 71
     3
 72
    11
 73
     7
 74
     5
 42
0.0000000001
 43
0.0000000001
 44
0.0000000001
 40
0.0
 40
0.0
 40
0.0
 40
0.0
 40
0.078670496432909
 40
0.1385100053212746
 40
0.1769025856982219
 40
0.1924280921955956
 40
0.1924280921955956
 40
0.1924280921955956
 40
0.1924280921955956
 10
-15.15678175002492
 20
-59.06001826217553
 30
0.0
 10
-15.1825417393426
 20
-59.05456316420199
 30
0.0
 10
-15.22789567022201
 20
-59.04495872945701
 30
0.0
 10
-15.28567726668872
 20
-59.03843344468245
 30
0.0
 10
-15.32461704008432
 20
-59.0309009135749
 30
0.0
 10
-15.34141235314184
 20
-59.03787579263453
 30
0.0
 10
-15.34624849917587
 20
-59.03988418233149
 30
0.0
 11
-15.15678175002492
 21
-59.06001826217553
 31
0.0
 11
-15.23402543142741
 21
-59.04510314593762
 31
0.0
 11
-15.29325386527938
 21
-59.03657323108203
 31
0.0
 11
-15.33160233363422
 21
-59.03473333900961
 31
0.0
 11
-15.34624849917587
 21
-59.03988418233149
 31
0.0
  0
SPLINE
  5
29F8
330
1F
100
AcDbEntity
  8
AM_0
100
AcDbSpline
210
0.0
220
0.0
230
1.0
 70
     8
 71
     3
 72
    11
 73
     7
 74
     5
 42
0.0000000001
 43
0.0000000001
 44
0.0000000001
 40
0.0
 40
0.0
 40
0.0
 40
0.0
 40
0.79925800049046
 40
1.598516000946518
 40
2.397774001436933
 40
3.197033001927387
 40
3.197033001927387
 40
3.197033001927387
 40
3.197033001927387
 10
-15.77840103267573
 20
-62.19779692103572
 30
0.0
 10
-15.70943829734791
 20
-61.94045784044933
 30
0.0
 10
-15.57151282669524
 20
-61.42577967928764
 30
0.0
 10
-15.36462658705086
 20
-60.65376191059532
 30
0.0
 10
-15.1577381912849
 20
-59.88174437461156
 30
0.0
 10
-15.01981291035153
 20
-59.36706581750153
 30
0.0
 10
-14.95085022674321
 20
-59.10972637796027
 30
0.0
 11
-15.77840103267573
 21
-62.19779692103572
 31
0.0
 11
-15.57151315441496
 21
-61.42577959145253
 31
0.0
 11
-15.36462624208082
 21
-60.65376200305323
 31
0.0
 11
-15.15773836382006
 21
-59.88174467347008
 31
0.0
 11
-14.95085022674321
 21
-59.10972637796027
 31
0.0
  0
SPLINE
  5
29F9
330
1F
100
AcDbEntity
  8
AM_0
100
AcDbSpline
210
0.0
220
0.0
230
1.0
 70
     8
 71
     3
 72
    11
 73
     7
 74
     5
 42
0.0000000001
 43
0.0000000001
 44
0.0000000001
 40
0.0
 40
0.0
 40
0.0
 40
0.0
 40
0.0251547788104051
 40
0.0465669461925253
 40
0.0609343750508871
 40
0.0663892917321899
 40
0.0663892917321899
 40
0.0663892917321899
 40
0.0663892917321899
 10
-15.77840103267573
 20
-62.19779692103572
 30
0.0
 10
-15.78652475371551
 20
-62.195645493016
 30
0.0
 10
-15.80156352163288
 20
-62.19166273357351
 30
0.0
 10
-15.82140233813488
 20
-62.18809218420383
 30
0.0
 10
-15.8350898234246
 20
-62.18470531207785
 30
0.0
 10
-15.84161691871817
 20
-62.18596642317689
 30
0.0
 10
-15.84341311185415
 20
-62.18631346868457
 30
0.0
 11
-15.77840103267573
 21
-62.19779692103572
 31
0.0
 11
-15.80280789684824
 21
-62.19170858150303
 31
0.0
 11
-15.82377751144233
 21
-62.18737774142574
 31
0.0
 11
-15.83802053523104
 21
-62.18549113458954
 31
0.0
 11
-15.84341311185415
 21
-62.18631346868457
 31
0.0
  0
SPLINE
  5
29FA
330
1F
100
AcDbEntity
  8
AM_0
100
AcDbSpline
210
0.0
220
0.0
230
1.0
 70
     8
 71
     3
 72
    11
 73
     7
 74
     5
 42
0.0000000001
 43
0.0000000001
 44
0.0000000001
 40
0.0
 40
0.0
 40
0.0
 40
0.0
 40
0.79925800049046
 40
1.598516000946525
 40
2.397774001436985
 40
3.19703200192739
 40
3.19703200192739
 40
3.19703200192739
 40
3.19703200192739
 10
-5.346490361111023
 20
-64.99337197464639
 30
0.0
 10
-5.277527625783403
 20
-64.73603289405995
 30
0.0
 10
-5.139602155131131
 20
-64.22135473289816
 30
0.0
 10
-4.932715915483758
 20
-63.44933696420661
 30
0.0
 10
-4.725827606012683
 20
-62.67731975019228
 30
0.0
 10
-4.587902411333955
 20
-62.16264151506247
 30
0.0
 10
-4.518939813994592
 20
-61.90530239749756
 30
0.0
 11
-5.346490361111023
 21
-64.99337197464639
 31
0.0
 11
-5.139602482850251
 21
-64.2213546450632
 31
0.0
 11
-4.932715570516109
 21
-63.4493370566639
 31
0.0
 11
-4.725827692255336
 21
-62.67731972708071
 31
0.0
 11
-4.518939813994592
 21
-61.90530239749756
 31
0.0
  0
SPLINE
  5
29FB
330
1F
100
AcDbEntity
  8
AM_0
100
AcDbSpline
210
0.0
220
0.0
230
1.0
 70
     8
 71
     3
 72
    11
 73
     7
 74
     5
 42
0.0000000001
 43
0.0000000001
 44
0.0000000001
 40
0.0
 40
0.0
 40
0.0
 40
0.0
 40
0.0569332482210611
 40
0.1112166264965516
 40
0.1628586738610866
 40
0.211868365076187
 40
0.211868365076187
 40
0.211868365076187
 40
0.211868365076187
 10
-4.518939813994592
 20
-61.90530239749756
 30
0.0
 10
-4.500628474401324
 20
-61.91028834955939
 30
0.0
 10
-4.464858068183002
 20
-61.92002819025909
 30
0.0
 10
-4.412698610756747
 20
-61.93507970451757
 30
0.0
 10
-4.36323858978966
 20
-61.94995172423688
 30
0.0
 10
-4.331299796002984
 20
-61.96022795315437
 30
0.0
 10
-4.315748048528405
 20
-61.96523168993239
 30
0.0
 11
-4.518939813994592
 21
-61.90530239749756
 31
0.0
 11
-4.464045253475007
 21
-61.92040146960026
 31
0.0
 11
-4.411881697675057
 21
-61.93542307415189
 31
0.0
 11
-4.362448887778612
 21
-61.95036624522576
 31
0.0
 11
-4.315748048528405
 21
-61.96523168993239
 31
0.0
  0
SPLINE
  5
29FC
330
1F
100
AcDbEntity
  8
AM_0
100
AcDbSpline
210
0.0
220
0.0
230
1.0
 70
     8
 71
     3
 72
    11
 73
     7
 74
     5
 42
0.0000000001
 43
0.0000000001
 44
0.0000000001
 40
0.0
 40
0.0
 40
0.0
 40
0.0
 40
0.078669854080195
 40
0.1385098370347379
 40
0.1769020770058567
 40
0.1924273228332518
 40
0.1924273228332518
 40
0.1924273228332518
 40
0.1924273228332518
 10
-4.315748048528405
 20
-61.96523168993239
 30
0.0
 10
-4.290712376212406
 20
-61.97338884250134
 30
0.0
 10
-4.246633396619929
 20
-61.98775070812576
 30
0.0
 10
-4.193331923077625
 20
-62.01099330830922
 30
0.0
 10
-4.155843807444152
 20
-62.02394272208976
 30
0.0
 10
-4.144787409837774
 20
-62.03838156866085
 30
0.0
 10
-4.141603780477794
 20
-62.04253915574341
 30
0.0
 11
-4.315748048528405
 21
-61.96523168993239
 31
0.0
 11
-4.241397602884206
 21
-61.99094077730452
 31
0.0
 11
-4.185840216485701
 21
-62.01317139530239
 31
0.0
 11
-4.151711157546203
 21
-62.03075466649703
 31
0.0
 11
-4.141603780477794
 21
-62.04253915574341
 31
0.0
  0
SPLINE
  5
29FD
330
1F
100
AcDbEntity
  8
AM_0
100
AcDbSpline
210
0.0
220
0.0
230
1.0
 70
     8
 71
     3
 72
    11
 73
     7
 74
     5
 42
0.0000000001
 43
0.0000000001
 44
0.0000000001
 40
0.0
 40
0.0
 40
0.0
 40
0.0
 40
0.7963667072523785
 40
1.592733309546195
 40
2.389098917363349
 40
3.185465519657176
 40
3.185465519657176
 40
3.185465519657176
 40
3.185465519657176
 10
-5.284448644886439
 20
-65.01593724426381
 30
0.0
 10
-5.189211224005599
 20
-64.7681540874073
 30
0.0
 10
-4.998736394795902
 20
-64.27258780635127
 30
0.0
 10
-4.713025820534118
 20
-63.52923811693881
 30
0.0
 10
-4.427314651057175
 20
-62.7858886937827
 30
0.0
 10
-4.236840776980541
 20
-62.29032243823107
 30
0.0
 10
-4.141603780477794
 20
-62.04253915574341
 30
0.0
 11
-5.284448644886439
 21
-65.01593724426381
 31
0.0
 11
-4.998736639635297
 21
-64.27258767476413
 31
0.0
 11
-4.713025600310772
 21
-63.52923784644835
 31
0.0
 11
-4.427314819802348
 21
-62.78588898405919
 31
0.0
 11
-4.141603780477794
 21
-62.04253915574341
 31
0.0
  0
SPLINE
  5
29FE
330
1F
100
AcDbEntity
  8
AM_0
100
AcDbSpline
210
0.0
220
0.0
230
1.0
 70
     8
 71
     3
 72
    11
 73
     7
 74
     5
 42
0.0000000001
 43
0.0000000001
 44
0.0000000001
 40
0.0
 40
0.0
 40
0.0
 40
0.0
 40
0.0251548135552466
 40
0.0465670390584527
 40
0.0609345976889341
 40
0.0663890001309994
 40
0.0663890001309994
 40
0.0663890001309994
 40
0.0663890001309994
 10
-5.346490361111023
 20
-64.99337197464639
 30
0.0
 10
-5.338379447511168
 20
-64.99557129452739
 30
0.0
 10
-5.323364379735983
 20
-64.99964271467826
 30
0.0
 10
-5.304398628706917
 20
-65.00647077559788
 30
0.0
 10
-5.290851139974835
 20
-65.01038141494527
 30
0.0
 10
-5.285830243344036
 20
-65.01473834834727
 30
0.0
 10
-5.284448644886439
 20
-65.01593724426381
 30
0.0
 11
-5.346490361111023
 21
-64.99337197464639
 31
0.0
 11
-5.322309702203228
 21
-65.00030453404276
 31
0.0
 11
-5.301984280862925
 21
-65.00703956547099
 31
0.0
 11
-5.288706382282456
 21
-65.01252811266375
 31
0.0
 11
-5.284448644886439
 21
-65.01593724426381
 31
0.0
  0
SPLINE
  5
29FF
330
1F
100
AcDbEntity
  8
AM_0
100
AcDbSpline
210
0.0
220
0.0
230
1.0
 70
     8
 71
     3
 72
    11
 73
     7
 74
     5
 42
0.0000000001
 43
0.0000000001
 44
0.0000000001
 40
0.0
 40
0.0
 40
0.0
 40
0.0
 40
0.0251547961629692
 40
0.0465670798337764
 40
0.0609346384642523
 40
0.0663886392893626
 40
0.0663886392893626
 40
0.0663886392893626
 40
0.0663886392893626
 10
-16.02519179409727
 20
-63.11871634018269
 30
0.0
 10
-16.03330283898477
 20
-63.11651754267513
 30
0.0
 10
-16.04831817333155
 20
-63.11244708317273
 30
0.0
 10
-16.06728366152541
 20
-63.10561758002581
 30
0.0
 10
-16.08083045801099
 20
-63.10170642223993
 30
0.0
 10
-16.08585205242103
 20
-63.09735057073273
 30
0.0
 10
-16.08723376913797
 20
-63.09615203649188
 30
0.0
 11
-16.02519179409727
 21
-63.11871634018269
 31
0.0
 11
-16.04937271182118
 21
-63.11178474671293
 31
0.0
 11
-16.06969787434537
 21
-63.10504874935808
 31
0.0
 11
-16.08297577292584
 21
-63.09956020216534
 31
0.0
 11
-16.08723376913797
 21
-63.09615203649188
 31
0.0
  0
SPLINE
  5
2A00
330
1F
100
AcDbEntity
  8
AM_0
100
AcDbSpline
210
0.0
220
0.0
230
1.0
 70
     8
 71
     3
 72
    11
 73
     7
 74
     5
 42
0.0000000001
 43
0.0000000001
 44
0.0000000001
 40
0.0
 40
0.0
 40
0.0
 40
0.0
 40
0.7963669032782373
 40
1.592732707183066
 40
2.38909961046136
 40
3.185465414366184
 40
3.185465414366184
 40
3.185465414366184
 40
3.185465414366184
 10
-16.08723376913797
 20
-63.09615203649188
 30
0.0
 10
-16.04580360720627
 20
-62.8339493753099
 30
0.0
 10
-15.96294334053665
 20
-62.30954441491308
 30
0.0
 10
-15.83865102902208
 20
-61.52293709085177
 30
0.0
 10
-15.71436103419748
 20
-60.73632977173652
 30
0.0
 10
-15.63149976330747
 20
-60.21192497001567
 30
0.0
 10
-15.59006915645969
 20
-59.94972275013879
 30
0.0
 11
-16.08723376913797
 21
-63.09615203649188
 31
0.0
 11
-15.96294296952365
 21
-62.30954410253227
 31
0.0
 11
-15.83865146279884
 21
-61.52293739331536
 31
0.0
 11
-15.71436066318452
 21
-60.73632945935569
 31
0.0
 11
-15.59006915645969
 21
-59.94972275013879
 31
0.0
  0
SPLINE
  5
2A01
330
1F
100
AcDbEntity
  8
AM_0
100
AcDbSpline
210
0.0
220
0.0
230
1.0
 70
     8
 71
     3
 72
    11
 73
     7
 74
     5
 42
0.0000000001
 43
0.0000000001
 44
0.0000000001
 40
0.0
 40
0.0
 40
0.0
 40
0.0
 40
0.5642265138585577
 40
1.128453917235111
 40
1.692681320611598
 40
2.256908828946648
 40
2.256908828946648
 40
2.256908828946648
 40
2.256908828946648
 10
-4.385424437761628
 20
-62.95237772355073
 30
0.0
 10
-4.452900336456638
 20
-63.12793226929998
 30
0.0
 10
-4.587852240224196
 20
-63.47904163756488
 30
0.0
 10
-4.790278599203895
 20
-64.00570642404496
 30
0.0
 10
-4.992705119100675
 20
-64.53237150381021
 30
0.0
 10
-5.127657057821839
 20
-64.88348121377524
 30
0.0
 10
-5.195133033458419
 20
-65.05903608508628
 30
0.0
 11
-4.385424437761628
 21
-62.95237772355073
 31
0.0
 11
-4.587851875537069
 21
-63.47904146008159
 31
0.0
 11
-4.79027860620198
 21
-64.00570642135523
 31
0.0
 11
-4.992705336866891
 21
-64.5323713826288
 31
0.0
 11
-5.195133033458419
 21
-65.05903608508628
 31
0.0
  0
DIMENSION
  5
2A70
330
1F
100
AcDbEntity
  8
AM_5
100
AcDbDimension
  2
*D9
 10
47.91347203855835
 20
-72.65230283278038
 30
0.0
 11
40.48790279024052
 21
-87.22705719727694
 31
0.0
 70
    33
 71
     5
 42
31.99999999999999
  3
AM_JIS$0
100
AcDbAlignedDimension
 13
28.04023767455979
 23
-100.4561614842983
 33
0.0
 14
36.32235262879919
 24
-69.54650972494062
 34
0.0
1001
ACAD
1000
DSTYLE
1002
{
1070
   271
1070
     0
1002
}
  0
DIMENSION
  5
2AA5
330
1F
100
AcDbEntity
  8
AM_5
100
AcDbDimension
  2
*D10
 10
-27.65778210434122
 20
-52.40329391736826
 30
0.0
 11
-31.49513169699866
 21
-66.72465268180348
 31
0.0
 70
   160
 71
     5
 42
31.9999999999999
  3
AM_JIS$0
100
AcDbAlignedDimension
 13
-22.18086318233919
 23
-86.99962261212045
 33
0.0
 14
-15.04262519060806
 24
-55.78347369223981
 34
0.0
 50
75.00017514999982
100
AcDbRotatedDimension
1001
ACAD
1000
DSTYLE
1002
{
1070
   271
1070
     0
1002
}
  0
LINE
  5
2B08
330
1F
100
AcDbEntity
  8
AM_7
  6
CENTER
 48
0.5
370
    13
100
AcDbLine
 10
31.3687427351681
 20
9.019258999999977
 30
0.0
 11
16.76219338827924
 21
9.019258999999977
 31
0.0
1001
GENIUS_GENOREF_13
1005
2B0A
  0
LINE
  5
2B09
330
1F
100
AcDbEntity
  8
AM_7
  6
CENTER
 48
0.5
370
    13
100
AcDbLine
 10
24.013744
 20
16.59332560755462
 30
0.0
 11
24.013744
 21
1.382432295042975
 31
0.0
1001
GENIUS_GENOREF_13
1005
2B0A
  0
POINT
  5
2B0A
330
1F
100
AcDbEntity
  8
0
 60
     1
370
    13
100
AcDbPoint
 10
0.0
 20
0.0
 30
0.0
1001
GENIUS_GENOLIS_13
1002
{
1000
ENT
1005
2B09
1005
2B08
1005
0
1005
0
1002
}
1001
GENIUS_GENOENT_13
1002
{
1000
MYREF
1005
2B0A
1002
}
1002
{
1000
GRP
1005
0
1002
}
1001
GENIUS_GENOBJ-N-CRS_13
1002
{
1000
OWNER
1000
GEN
1002
}
1001
GENIUS_GENODEF_13
1002
{
1000
HIER
1070
    10
1002
}
1002
{
1000
MANEDIT
1070
     1
1002
}
1002
{
1000
NOSEL
1070
     0
1002
}
1002
{
1000
BEHIND
1070
     0
1002
}
1002
{
1000
OTHER
1070
     0
1002
}
1002
{
1000
REACTOR
1002
}
  0
LINE
  5
2B1C
330
1F
100
AcDbEntity
  8
AM_7
  6
CENTER
 48
0.5
370
    13
100
AcDbLine
 10
8.742770367071415
 20
-47.97837140612811
 30
0.0
 11
-0.8826938694436137
 21
-83.90153224326986
 31
0.0
  0
LINE
  5
2C4C
330
1F
100
AcDbEntity
  8
AM_0
100
AcDbLine
 10
-59.85678845799508
 20
16.97541860512317
 30
0.0
 11
-57.98665031207555
 21
27.58530324649053
 31
0.0
  0
LINE
  5
2C4D
330
1F
100
AcDbEntity
  8
AM_0
100
AcDbLine
 10
-83.85326418771021
 20
26.18680206951266
 30
0.0
 11
-59.85678845799508
 21
16.97541860512317
 31
0.0
  0
LINE
  5
2C4E
330
1F
100
AcDbEntity
  8
AM_0
100
AcDbLine
 10
-80.28667891054292
 20
39.49748190304296
 30
0.0
 11
-51.33122149278421
 21
31.738891852693
 31
0.0
  0
LINE
  5
2C4F
330
1F
100
AcDbEntity
  8
AM_0
100
AcDbLine
 10
-51.33122149278421
 20
31.738891852693
 30
0.0
 11
-52.1799717643375
 21
26.92366265018188
 31
0.0
  0
LINE
  5
2C50
330
1F
100
AcDbEntity
  8
AM_0
100
AcDbLine
 10
-54.04737715957889
 20
26.89095206534583
 30
0.0
 11
-52.1799717643375
 21
26.92366265018188
 31
0.0
  0
LINE
  5
2C51
330
1F
100
AcDbEntity
  8
AM_0
100
AcDbLine
 10
-57.98665031207555
 20
27.58530324649053
 30
0.0
 11
-54.04737715957889
 21
26.89095206534583
 31
0.0
  0
LINE
  5
2C53
330
1F
100
AcDbEntity
  8
AM_0
100
AcDbLine
 10
-78.82257760316325
 20
44.96158334235071
 30
0.0
 11
-50.34569393730159
 21
37.33122671951173
 31
0.0
  0
LINE
  5
2C54
330
1F
100
AcDbEntity
  8
AM_0
100
AcDbLine
 10
-51.33122149278421
 20
31.738891852693
 30
0.0
 11
-50.34569393730159
 21
37.33122671951173
 31
0.0
  0
LINE
  5
2C56
330
1F
100
AcDbEntity
  8
AM_0
100
AcDbLine
 10
-59.90985029280385
 20
16.67444457845855
 30
0.0
 11
-83.93133756368242
 21
25.89542821179452
 31
0.0
  0
LINE
  5
2C57
330
1F
100
AcDbEntity
  8
AM_0
100
AcDbLine
 10
-77.82583586184038
 20
48.68147482522087
 30
0.0
 11
-49.6751105780763
 21
41.1385120619114
 31
0.0
  0
LINE
  5
2C58
330
1F
100
AcDbEntity
  8
AM_0
100
AcDbLine
 10
-50.34569393730159
 20
37.33122671951173
 30
0.0
 11
-49.6751105780763
 21
41.1385120619114
 31
0.0
  0
LINE
  5
2C5A
330
1F
100
AcDbEntity
  8
AM_0
100
AcDbLine
 10
-56.09304952526184
 20
15.28740375867866
 30
0.0
 11
-56.10594149919386
 21
15.21426117422107
 31
0.0
  0
LINE
  5
2C5B
330
1F
100
AcDbEntity
  8
AM_0
100
AcDbLine
 10
-56.10594149919386
 20
15.21426117422107
 30
0.0
 11
-54.3622919493851
 21
14.54493687290241
 31
0.0
  0
LINE
  5
2C5C
330
1F
100
AcDbEntity
  8
AM_0
100
AcDbLine
 10
-54.3622919493851
 20
14.54493687290241
 30
0.0
 11
-54.34937961170721
 21
14.61819409294722
 31
0.0
  0
LINE
  5
2C5D
330
1F
100
AcDbEntity
  8
AM_0
100
AcDbLine
 10
-56.95063151395897
 20
15.53850742011005
 30
0.0
 11
-56.88829576533409
 21
15.51457838192684
 31
0.0
  0
LINE
  5
2C5E
330
1F
100
AcDbEntity
  8
AM_0
100
AcDbLine
 10
-56.88829576533409
 20
15.51457838192684
 30
0.0
 11
-56.10594149919386
 21
15.21426117422107
 31
0.0
  0
LINE
  5
2C5F
330
1F
100
AcDbEntity
  8
AM_0
100
AcDbLine
 10
-50.16621600891958
 20
38.35022596681256
 30
0.0
 11
-49.55203056405166
 21
38.17942935127999
 31
0.0
  0
LINE
  5
2C60
330
1F
100
AcDbEntity
  8
AM_0
100
AcDbLine
 10
-71.53033798358078
 20
72.17659694851336
 30
0.0
 11
-40.62071117372346
 21
63.89438888089333
 31
0.0
  0
LINE
  5
2C61
330
1F
100
AcDbEntity
  8
AM_0
100
AcDbLine
 10
-47.02621152780414
 20
39.98873185579316
 30
0.0
 11
-40.62071117372346
 21
63.89438888089333
 31
0.0
  0
LINE
  5
2C64
330
1F
100
AcDbEntity
  8
AM_0
100
AcDbLine
 10
-58.0719182846336
 20
27.10149588764523
 30
0.0
 11
-59.94666569590681
 21
16.46545702868497
 31
0.0
  0
LINE
  5
2C65
330
1F
100
AcDbEntity
  8
AM_0
100
AcDbLine
 10
-56.81493157963367
 20
15.91344539592083
 30
0.0
 11
-54.94018416836046
 21
26.54948425488115
 31
0.0
  0
LINE
  5
2C66
330
1F
100
AcDbEntity
  8
AM_0
100
AcDbLine
 10
-59.94703178179934
 20
16.46555512108677
 30
0.0
 11
-59.91018915690922
 21
16.67457471730015
 31
0.0
  0
LINE
  5
2C67
330
1F
100
AcDbEntity
  8
AM_0
100
AcDbLine
 10
-58.06051119111721
 20
27.1662685906729
 30
0.0
 11
-58.0605034637105
 21
27.16626652012087
 31
0.0
  0
LINE
  5
2C68
330
1F
100
AcDbEntity
  8
AM_0
100
AcDbLine
 10
-59.95808438053327
 20
16.40068743148535
 30
0.0
 11
-59.95844563679661
 21
16.40078422979212
 31
0.0
  0
LINE
  5
2C69
330
1F
100
AcDbEntity
  8
AM_0
100
AcDbLine
 10
-54.87076304415878
 20
26.94341459509445
 30
0.0
 11
-54.87112430042211
 21
26.94351139340122
 31
0.0
  0
LINE
  5
2C6A
330
1F
100
AcDbEntity
  8
AM_0
100
AcDbLine
 10
-56.88474223076699
 20
15.51961839383958
 30
0.0
 11
-56.88438097450366
 21
15.51952159553278
 31
0.0
  0
LINE
  5
2C6B
330
1F
100
AcDbEntity
  8
AM_0
100
AcDbLine
 10
-50.38610738499388
 20
28.2583674079898
 30
0.0
 11
-50.97126543695642
 21
24.93857529621707
 31
0.0
  0
LINE
  5
2C6C
330
1F
100
AcDbEntity
  8
AM_0
100
AcDbLine
 10
-49.43706343395756
 20
33.64326983842355
 30
0.0
 11
-51.14020326503216
 21
23.98029398342104
 31
0.0
  0
LINE
  5
2C6D
330
1F
100
AcDbEntity
  8
AM_0
100
AcDbLine
 10
-49.43706343395756
 20
33.64326983842355
 30
0.0
 11
-49.75087206118087
 21
31.86256649979993
 31
0.0
  0
LINE
  5
2C6E
330
1F
100
AcDbEntity
  8
AM_0
100
AcDbLine
 10
-40.83127736419533
 20
31.19702410144546
 30
0.0
 11
-41.47812539032594
 21
27.52725019064292
 31
0.0
  0
LINE
  5
2C70
330
1F
100
AcDbEntity
  8
AM_0
100
AcDbLine
 10
-48.76134461064682
 20
23.85360328077468
 30
0.0
 11
-48.81469080358067
 21
23.55093823120754
 31
0.0
  0
LINE
  5
2C71
330
1F
100
AcDbEntity
  8
AM_0
100
AcDbLine
 10
-46.60663412566829
 20
33.14436829726927
 30
0.0
 11
-49.43706343395756
 21
33.64326983842355
 31
0.0
  0
LINE
  5
2C74
330
1F
100
AcDbEntity
  8
AM_0
100
AcDbLine
 10
-49.22033057700019
 20
40.0604140700172
 30
0.0
 11
-48.33399445102577
 21
39.90418506593139
 31
0.0
  0
LINE
  5
2C75
330
1F
100
AcDbEntity
  8
AM_0
100
AcDbLine
 10
-49.22033057700019
 20
40.0604140700172
 30
0.0
 11
-49.18424081376588
 21
40.26531415214188
 31
0.0
  0
LINE
  5
2C78
330
1F
100
AcDbEntity
  8
AM_0
100
AcDbLine
 10
-48.4492930944287
 20
39.24956180665058
 30
0.0
 11
-45.49483779446049
 21
38.7287990805317
 31
0.0
  0
LINE
  5
2C79
330
1F
100
AcDbEntity
  8
AM_0
100
AcDbLine
 10
-48.33399445102577
 20
39.90418506593139
 30
0.0
 11
-48.4492930944287
 21
39.24956180665058
 31
0.0
  0
LINE
  5
2C7A
330
1F
100
AcDbEntity
  8
AM_0
100
AcDbLine
 10
-40.34736975233668
 20
33.944457093616
 30
0.0
 11
-40.83127736419533
 21
31.19702410144546
 31
0.0
  0
LINE
  5
2C7B
330
1F
100
AcDbEntity
  8
AM_0
100
AcDbLine
 10
-41.47812539032594
 20
27.52725019064292
 30
0.0
 11
-41.90575900699552
 21
25.10173137505745
 31
0.0
  0
LINE
  5
2C7C
330
1F
100
AcDbEntity
  8
AM_0
100
AcDbLine
 10
-42.75312735568149
 20
20.29550010154074
 30
0.0
 11
-43.06370811085971
 21
18.53390233464532
 31
0.0
  0
LINE
  5
2C7E
330
1F
100
AcDbEntity
  8
AM_0
100
AcDbLine
 10
-49.96027887125452
 20
30.67679788946833
 30
0.0
 11
-48.4492930944287
 21
39.24956180665058
 31
0.0
  0
LINE
  5
2C7F
330
1F
100
AcDbEntity
  8
AM_0
100
AcDbLine
 10
-49.17064412191959
 20
35.15884749688721
 30
0.0
 11
-48.90601279283623
 21
36.66000558451972
 31
0.0
  0
LINE
  5
2C80
330
1F
100
AcDbEntity
  8
AM_0
100
AcDbLine
 10
-48.33399445102577
 20
39.90418506593139
 30
0.0
 11
-48.90589500065251
 21
36.65998541024271
 31
0.0
  0
LINE
  5
2C81
330
1F
100
AcDbEntity
  8
AM_0
100
AcDbLine
 10
-49.93842828293933
 20
30.80095820058375
 30
0.0
 11
-49.96031467986069
 21
30.67680334324902
 31
0.0
  0
LINE
  5
2C82
330
1F
100
AcDbEntity
  8
AM_0
100
AcDbLine
 10
-49.17038825310955
 20
35.1588017131341
 30
0.0
 11
-50.68159439703281
 21
35.4251729562321
 31
0.0
  0
LINE
  5
2C85
330
1F
100
AcDbEntity
  8
AM_0
100
AcDbLine
 10
-49.22033057700019
 20
40.0604140700172
 30
0.0
 11
-49.79223209255277
 21
36.81621467314756
 31
0.0
  0
LINE
  5
2C86
330
1F
100
AcDbEntity
  8
AM_0
100
AcDbLine
 10
-49.79223209255277
 20
36.81621467314756
 30
0.0
 11
-49.53193717985581
 21
38.29346548743234
 31
0.0
  0
LINE
  5
2C87
330
1F
100
AcDbEntity
  8
AM_0
100
AcDbLine
 10
-49.42699181125796
 20
38.88878670352906
 30
0.0
 11
-49.53193717985581
 21
38.29346548743234
 31
0.0
  0
LINE
  5
2C88
330
1F
100
AcDbEntity
  8
AM_0
100
AcDbLine
 10
-48.90589500065251
 20
36.65998541024271
 30
0.0
 11
-49.79223209255277
 21
36.81621467314756
 31
0.0
  0
LINE
  5
2C89
330
1F
100
AcDbEntity
  8
AM_0
100
AcDbLine
 10
-44.43939451406732
 20
39.53276993728386
 30
0.0
 11
-49.1665227730912
 21
40.36599189631929
 31
0.0
  0
LINE
  5
2C8A
330
1F
100
AcDbEntity
  8
AM_0
100
AcDbLine
 10
-52.26705753276479
 20
17.10987242190842
 30
0.0
 11
-46.53892613694683
 21
16.10020976079602
 31
0.0
  0
LINE
  5
2C8B
330
1F
100
AcDbEntity
  8
AM_0
100
AcDbLine
 10
-53.77866443071865
 20
14.81978106654717
 30
0.0
 11
-51.71297007940548
 21
26.53911976340893
 31
0.0
  0
LINE
  5
2C8C
330
1F
100
AcDbEntity
  8
AM_0
100
AcDbLine
 10
-53.77866443071865
 20
14.81978106654717
 30
0.0
 11
-55.80525866071235
 21
15.17699699637277
 31
0.0
  0
LINE
  5
2C8D
330
1F
100
AcDbEntity
  8
AM_0
100
AcDbLine
 10
-55.80525866071235
 20
15.17699699637277
 30
0.0
 11
-56.87254286904845
 21
15.58661377882734
 31
0.0
  0
LINE
  5
2C8E
330
1F
100
AcDbEntity
  8
AM_0
100
AcDbLine
 10
-54.88257770857487
 20
26.87631716606967
 30
0.0
 11
-54.90420313896634
 21
26.75363080336223
 31
0.0
  0
LINE
  5
2C8F
330
1F
100
AcDbEntity
  8
AM_0
100
AcDbLine
 10
-54.90420313896634
 20
26.75363080336223
 30
0.0
 11
-54.9401851342863
 21
26.54948451370015
 31
0.0
  0
LINE
  5
2C90
330
1F
100
AcDbEntity
  8
AM_0
100
AcDbLine
 10
-56.81493351148535
 20
15.91344591355883
 30
0.0
 11
-56.85194254968977
 21
15.70348843056721
 31
0.0
  0
LINE
  5
2C91
330
1F
100
AcDbEntity
  8
AM_0
100
AcDbLine
 10
-56.85194254968977
 20
15.70348843056721
 30
0.0
 11
-56.87254286904845
 21
15.58661377882734
 31
0.0
  0
LINE
  5
2C92
330
1F
100
AcDbEntity
  8
AM_0
100
AcDbLine
 10
-54.88257770857487
 20
26.87631716606967
 30
0.0
 11
-53.73956405058019
 21
26.8963366591604
 31
0.0
  0
LINE
  5
2C93
330
1F
100
AcDbEntity
  8
AM_0
100
AcDbLine
 10
-53.73956405058019
 20
26.8963366591604
 30
0.0
 11
-51.71297007940548
 21
26.53911976340893
 31
0.0
  0
LINE
  5
2C94
330
1F
100
AcDbEntity
  8
AM_0
100
AcDbLine
 10
-53.73956405058019
 20
26.8963366591604
 30
0.0
 11
-51.64354869638478
 21
26.93305106954807
 31
0.0
  0
LINE
  5
2C95
330
1F
100
AcDbEntity
  8
AM_0
100
AcDbLine
 10
-55.80525866071235
 20
15.17699699637277
 30
0.0
 11
-53.84811285966281
 21
14.42585700734006
 31
0.0
  0
LINE
  5
2C96
330
1F
100
AcDbEntity
  8
AM_0
100
AcDbLine
 10
-54.88296118113249
 20
26.8764199172135
 30
0.0
 11
-54.88258157227823
 21
26.87631820134567
 31
0.0
  0
LINE
  5
2C97
330
1F
100
AcDbEntity
  8
AM_0
100
AcDbLine
 10
-54.88258157227823
 20
26.87631820134567
 30
0.0
 11
-54.88257770857487
 21
26.87631716606967
 31
0.0
  0
LINE
  5
2C98
330
1F
100
AcDbEntity
  8
AM_0
100
AcDbLine
 10
-54.04792180802764
 20
26.89104831017573
 30
0.0
 11
-54.88296118113249
 21
26.8764199172135
 31
0.0
  0
LINE
  5
2C99
330
1F
100
AcDbEntity
  8
AM_0
100
AcDbLine
 10
-52.17995276403681
 20
26.92376833361752
 30
0.0
 11
-51.64394665782996
 21
26.93315770297696
 31
0.0
  0
LINE
  5
2C9A
330
1F
100
AcDbEntity
  8
AM_0
100
AcDbLine
 10
-51.64354869638478
 20
26.93305106954807
 30
0.0
 11
-51.64387807709548
 21
26.93313932682781
 31
0.0
  0
LINE
  5
2C9B
330
1F
100
AcDbEntity
  8
AM_0
100
AcDbLine
 10
-51.64387807709548
 20
26.93313932682781
 30
0.0
 11
-51.64394665782996
 21
26.93315770297696
 31
0.0
  0
LINE
  5
2C9C
330
1F
100
AcDbEntity
  8
AM_0
100
AcDbLine
 10
-56.87254286904845
 20
15.58661377882734
 30
0.0
 11
-56.87254673275179
 21
15.58661481410334
 31
0.0
  0
LINE
  5
2C9D
330
1F
100
AcDbEntity
  8
AM_0
100
AcDbLine
 10
-56.87254673275179
 20
15.58661481410334
 30
0.0
 11
-56.87292634160605
 21
15.58671652997117
 31
0.0
  0
LINE
  5
2C9E
330
1F
100
AcDbEntity
  8
AM_0
100
AcDbLine
 10
-55.80565662215753
 20
15.17710362980165
 30
0.0
 11
-53.84851082110798
 21
14.42596364076894
 31
0.0
  0
LINE
  5
2C9F
330
1F
100
AcDbEntity
  8
AM_0
100
AcDbLine
 10
-56.87292634160605
 20
15.58671652997117
 30
0.0
 11
-55.80565662215753
 21
15.17710362980165
 31
0.0
  0
LINE
  5
2CA0
330
1F
100
AcDbEntity
  8
AM_0
100
AcDbLine
 10
-53.84851082110798
 20
14.42596364076894
 30
0.0
 11
-53.84811285966281
 21
14.42585700734006
 31
0.0
  0
LINE
  5
2CA1
330
1F
100
AcDbEntity
  8
AM_0
100
AcDbLine
 10
-51.63204773123377
 20
27.00026050647918
 30
0.0
 11
-51.64387807709548
 21
26.93313932682781
 31
0.0
  0
LINE
  5
2CA2
330
1F
100
AcDbEntity
  8
AM_0
100
AcDbLine
 10
-51.55597945399007
 20
27.43135062550556
 30
0.0
 11
-51.05163404714106
 21
30.2928030444109
 31
0.0
  0
LINE
  5
2CA3
330
1F
100
AcDbEntity
  8
AM_0
100
AcDbLine
 10
-51.05163404714106
 20
30.2928030444109
 30
0.0
 11
-50.95914715520794
 21
30.81711724649352
 31
0.0
  0
LINE
  5
2CA4
330
1F
100
AcDbEntity
  8
AM_0
100
AcDbLine
 10
-51.20470516381695
 20
29.42350309045682
 30
0.0
 11
-50.95914715520794
 21
30.81711724649352
 31
0.0
  0
LINE
  5
2CA5
330
1F
100
AcDbEntity
  8
AM_0
100
AcDbLine
 10
-51.20470516381695
 20
29.42350309045682
 30
0.0
 11
-51.64365301637528
 21
26.9330790220003
 31
0.0
  0
LINE
  5
2CA7
330
1F
100
AcDbEntity
  8
AM_0
100
AcDbLine
 10
-53.17278702474394
 20
17.01963361341009
 30
0.0
 11
-53.38563980546344
 21
17.04953481614464
 31
0.0
  0
LINE
  5
2CA8
330
1F
100
AcDbEntity
  8
AM_0
100
AcDbLine
 10
-49.423089928662
 20
20.09831525020525
 30
0.0
 11
-52.04043283271622
 21
17.29117538992577
 31
0.0
  0
LINE
  5
2CAA
330
1F
100
AcDbEntity
  8
AM_0
100
AcDbLine
 10
-50.20555349826054
 20
29.28314403623932
 30
0.0
 11
-51.20470516381695
 21
29.42350309045682
 31
0.0
  0
LINE
  5
2CAC
330
1F
100
AcDbEntity
  8
AM_0
100
AcDbLine
 10
-49.03419928535406
 20
22.86679250497699
 30
0.0
 11
-49.10375160030844
 21
22.37165351963401
 31
0.0
  0
LINE
  5
2CAD
330
1F
100
AcDbEntity
  8
AM_0
100
AcDbLine
 10
-49.24285455718448
 20
21.38137406538417
 30
0.0
 11
-49.42039725883432
 21
20.11744413687435
 31
0.0
  0
LINE
  5
2CAE
330
1F
100
AcDbEntity
  8
AM_0
100
AcDbLine
 10
-50.95914715520794
 20
30.81711724649352
 30
0.0
 11
-49.95992457954601
 21
30.67674850945943
 31
0.0
  0
LINE
  5
2CAF
330
1F
100
AcDbEntity
  8
AM_0
100
AcDbLine
 10
-51.58694109353618
 20
30.28811286608607
 30
0.0
 11
-51.05163404714106
 21
30.2928030444109
 31
0.0
  0
LINE
  5
2CB2
330
1F
100
AcDbEntity
  8
AM_0
100
AcDbLine
 10
-40.24351852926026
 20
24.13917463899438
 30
0.0
 11
-40.02654484424951
 21
25.36995555490668
 31
0.0
  0
LINE
  5
2CB3
330
1F
100
AcDbEntity
  8
AM_0
100
AcDbLine
 10
-40.02654484424951
 20
25.36995555490668
 30
0.0
 11
-39.75837143685249
 21
26.89139184823449
 31
0.0
  0
LINE
  5
2CC4
330
1F
100
AcDbEntity
  8
AM_0
100
AcDbLine
 10
-49.93842828293933
 20
30.80095820058375
 30
0.0
 11
-49.84062031203201
 21
31.35580249358586
 31
0.0
  0
LINE
  5
2CC5
330
1F
100
AcDbEntity
  8
AM_0
100
AcDbLine
 10
-49.84062031203201
 20
31.35580249358586
 30
0.0
 11
-49.20100293043186
 21
34.98431488074135
 31
0.0
  0
LINE
  5
2CC6
330
1F
100
AcDbEntity
  8
AM_0
100
AcDbLine
 10
-42.67028156658294
 20
20.7660485823306
 30
0.0
 11
-42.58515916677072
 21
21.24916197174159
 31
0.0
  0
LINE
  5
2CC7
330
1F
100
AcDbEntity
  8
AM_0
100
AcDbLine
 10
-49.18424081376588
 20
40.26531415214188
 30
0.0
 11
-49.18088792616323
 21
40.28435309722093
 31
0.0
  0
LINE
  5
2CC8
330
1F
100
AcDbEntity
  8
AM_0
100
AcDbLine
 10
-49.18088792616323
 20
40.28435309722093
 30
0.0
 11
-49.17788201727902
 21
40.30142481537641
 31
0.0
  0
LINE
  5
2CC9
330
1F
100
AcDbEntity
  8
AM_0
100
AcDbLine
 10
-49.17788201727902
 20
40.30142481537641
 30
0.0
 11
-49.17522503754659
 21
40.3165143000827
 31
0.0
  0
LINE
  5
2CCA
330
1F
100
AcDbEntity
  8
AM_0
100
AcDbLine
 10
-49.17522503754659
 20
40.3165143000827
 30
0.0
 11
-49.17291809159213
 21
40.32961356511413
 31
0.0
  0
LINE
  5
2CCB
330
1F
100
AcDbEntity
  8
AM_0
100
AcDbLine
 10
-49.17291809159213
 20
40.32961356511413
 30
0.0
 11
-49.17096499235049
 21
40.34071224410545
 31
0.0
  0
LINE
  5
2CCC
330
1F
100
AcDbEntity
  8
AM_0
100
AcDbLine
 10
-49.17096499235049
 20
40.34071224410545
 30
0.0
 11
-49.16936536088401
 21
40.34980402386361
 31
0.0
  0
LINE
  5
2CCD
330
1F
100
AcDbEntity
  8
AM_0
100
AcDbLine
 10
-49.16936536088401
 20
40.34980402386361
 30
0.0
 11
-49.16812004299985
 21
40.35688188408884
 31
0.0
  0
LINE
  5
2CCE
330
1F
100
AcDbEntity
  8
AM_0
100
AcDbLine
 10
-49.16812004299985
 20
40.35688188408884
 30
0.0
 11
-49.16723129871889
 21
40.36194125397086
 31
0.0
  0
LINE
  5
2CCF
330
1F
100
AcDbEntity
  8
AM_0
100
AcDbLine
 10
-49.42699181125796
 20
38.88878670352906
 30
0.0
 11
-49.18993929166054
 21
40.23350309125601
 31
0.0
  0
LINE
  5
2CD9
330
1F
100
AcDbEntity
  8
AM_0
100
AcDbLine
 10
-51.71297007940548
 20
26.53911976340893
 30
0.0
 11
-51.66458889820304
 21
26.8136036011762
 31
0.0
  0
ARC
  5
2CDB
330
1F
100
AcDbEntity
  8
AM_0
100
AcDbCircle
 10
-46.01816315200892
 20
19.05466602669006
 30
0.0
 40
3.0000009855935
100
AcDbArc
 50
260.003524100296
 51
350.001148242138
  0
ARC
  5
2CDC
330
1F
100
AcDbEntity
  8
AM_0
100
AcDbCircle
 10
-40.43186683708595
 20
23.83441534237298
 30
0.0
 40
0.196116876043344
100
AcDbArc
 50
302.5196700446925
 51
11.61940547968879
  0
ARC
  5
2CDD
330
1F
100
AcDbEntity
  8
AM_0
100
AcDbCircle
 10
-39.54698154829447
 20
24.01636706753774
 30
0.0
 40
0.7072803301803342
100
AcDbArc
 50
170.0008529331819
 51
191.6192872688059
  0
ARC
  5
2CDE
330
1F
100
AcDbEntity
  8
AM_0
100
AcDbCircle
 10
-20.95071314827546
 20
23.57650034724694
 30
0.0
 40
19.0975525996874
100
AcDbArc
 50
167.4084989925303
 51
170.0041544386324
  0
ARC
  5
2CDF
330
1F
100
AcDbEntity
  8
AM_0
100
AcDbCircle
 10
-45.78228163298107
 20
29.12314644201675
 30
0.0
 40
6.34595494764673
100
AcDbArc
 50
347.4084969056352
 51
355.2091411146978
  0
ARC
  5
2D11
330
1F
100
AcDbEntity
  8
AM_0
100
AcDbCircle
 10
-160.3974015484806
 20
54.58549355079512
 30
0.0
 40
112.910784564094
100
AcDbArc
 50
350.0028717518421
 51
350.0923964873259
  0
ARC
  5
2D12
330
1F
100
AcDbEntity
  8
AM_0
100
AcDbCircle
 10
-49.16952730757415
 20
35.15791155259518
 30
0.0
 40
0.0010000124999181
100
AcDbArc
 50
140.2288636418224
 51
170.1062442706602
  0
ARC
  5
2D13
330
1F
100
AcDbEntity
  8
AM_0
100
AcDbCircle
 10
-49.17041458827415
 20
35.15864933708906
 30
0.0
 40
0.0001539350512401
100
AcDbArc
 50
320.4328312302576
 51
80.19443145517258
  0
ARC
  5
2D14
330
1F
100
AcDbEntity
  8
AM_0
100
AcDbCircle
 10
-42.73648701839005
 20
20.38996508108252
 30
0.0
 40
0.102343555561643
100
AcDbArc
 50
140.0162198636698
 51
260.003498439257
  0
ARC
  5
2D15
330
1F
100
AcDbEntity
  8
AM_0
100
AcDbCircle
 10
-43.32182211553153
 20
20.88083594009163
 30
0.0
 40
0.6615748799863871
100
AcDbArc
 50
320.0163061603091
 51
350.0082577249086
  0
ARC
  5
2D16
330
1F
100
AcDbEntity
  8
AM_0
100
AcDbCircle
 10
-49.16169135966261
 20
40.3609682584659
 30
0.0
 40
0.0056251724417955
100
AcDbArc
 50
140.0932540773939
 51
170.0385738941326
  0
ARC
  5
2D17
330
1F
100
AcDbEntity
  8
AM_0
100
AcDbCircle
 10
-49.16667375880235
 20
40.36513476837374
 30
0.0
 40
0.0008697568625883
100
AcDbArc
 50
320.1144390306469
 51
80.00966468228224
  0
ARC
  5
2D18
330
1F
100
AcDbEntity
  8
AM_0
100
AcDbCircle
 10
105.2516181292056
 20
13.0078851948106
 30
0.0
 40
156.822922070522
100
AcDbArc
 50
169.9540936959412
 51
170.0023731224177
  0
ARC
  5
2D19
330
1F
100
AcDbEntity
  8
AM_0
100
AcDbCircle
 10
-49.17017419305088
 20
40.36420299797732
 30
0.0
 40
0.0032813133041401
100
AcDbArc
 50
349.9652052980879
 51
19.88618179248184
  0
ARC
  5
2D1A
330
1F
100
AcDbEntity
  8
AM_0
100
AcDbCircle
 10
-49.16661123476941
 20
40.36549174980928
 30
0.0
 40
0.000507909440747
100
AcDbArc
 50
79.96974327840515
 51
199.8809486785193
  0
ARC
  5
2D1F
330
1F
100
AcDbEntity
  8
AM_0
100
AcDbCircle
 10
-624.7302798228857
 20
127.8243028198729
 30
0.0
 40
581.899860346807
100
AcDbArc
 50
350.0035144686995
 51
350.014873451637
  0
ARC
  5
2D20
330
1F
100
AcDbEntity
  8
AM_0
100
AcDbCircle
 10
-51.63681891613537
 20
26.9258509360219
 30
0.0
 40
0.0078745272873907
100
AcDbArc
 50
140.1598143818975
 51
170.0119719280054
  0
ARC
  5
2D21
330
1F
100
AcDbEntity
  8
AM_0
100
AcDbCircle
 10
-51.64389603148561
 20
26.93175479707375
 30
0.0
 40
0.001341824504181
100
AcDbArc
 50
320.19205678116
 51
75.00000255000001
  0
ARC
  5
2D22
330
1F
100
AcDbEntity
  8
AM_0
100
AcDbCircle
 10
-53.82769902850914
 20
14.5020424759455
 30
0.0
 40
0.0788729999999944
100
AcDbArc
 50
255.00000255
 51
19.87442792142239
  0
ARC
  5
2D23
330
1F
100
AcDbEntity
  8
AM_0
100
AcDbCircle
 10
-53.22076611415365
 20
14.72144361468907
 30
0.0
 40
0.5664987079102671
100
AcDbArc
 50
170.0034934822076
 51
199.874506170955
  0
SPLINE
  5
2D2A
330
1F
100
AcDbEntity
  8
AM_0
100
AcDbSpline
210
0.0
220
0.0
230
1.0
 70
     8
 71
     3
 72
    11
 73
     7
 74
     5
 42
0.0000000001
 43
0.0000000001
 44
0.0000000001
 40
0.0
 40
0.0
 40
0.0
 40
0.0
 40
0.0233857100383762
 40
0.0895706165503796
 40
0.1886911567930583
 40
0.3056156463151223
 40
0.3056156463151223
 40
0.3056156463151223
 40
0.3056156463151223
 10
-59.90985029280385
 20
16.67444457845855
 30
0.0
 10
-59.9084954577232
 20
16.68212117516443
 30
0.0
 10
-59.90330624545211
 20
16.71152363926861
 30
0.0
 10
-59.89238870761888
 20
16.77346592376702
 30
0.0
 10
-59.8760550155648
 20
16.86611378224823
 30
0.0
 10
-59.86355403946186
 20
16.93703548031245
 30
0.0
 10
-59.85678845799508
 20
16.97541860512317
 30
0.0
 11
-59.90985029280385
 21
16.67444457845855
 31
0.0
 11
-59.90578624559157
 21
16.69747444937124
 31
0.0
 11
-59.89429395848356
 21
16.76265396445865
 31
0.0
 11
-59.87708589077407
 21
16.86026935209659
 31
0.0
 11
-59.85678845799508
 21
16.97541860512317
 31
0.0
  0
SPLINE
  5
2D2C
330
1F
100
AcDbEntity
  8
AM_0
100
AcDbSpline
210
0.0
220
0.0
230
1.0
 70
     8
 71
     3
 72
    11
 73
     7
 74
     5
 42
0.0000000001
 43
0.0000000001
 44
0.0000000001
 40
0.0
 40
0.0
 40
0.0
 40
0.0
 40
0.868485483450934
 40
1.734890177372318
 40
2.598740941613464
 40
3.459722571568471
 40
3.459722571568471
 40
3.459722571568471
 40
3.459722571568471
 10
-49.75087206118087
 20
31.86256649979993
 30
0.0
 10
-49.46181397524154
 20
31.88934764622329
 30
0.0
 10
-48.88439035269167
 20
31.94284577457891
 30
0.0
 10
-48.05475741410153
 20
32.21063244594856
 30
0.0
 10
-47.27626131642396
 20
32.59778011551232
 30
0.0
 10
-46.82959552380994
 20
32.96237439544652
 30
0.0
 10
-46.60663412566829
 20
33.14436829726927
 30
0.0
 11
-49.75087206118087
 21
31.86256649979993
 31
0.0
 11
-48.88960445119807
 21
31.9743034183162
 31
0.0
 11
-48.06210266898833
 21
32.23100926961047
 31
0.0
 11
-47.29334206280987
 21
32.6250210375415
 31
0.0
 11
-46.60663412566829
 21
33.14436829726927
 31
0.0
  0
SPLINE
  5
2D31
330
1F
100
AcDbEntity
  8
AM_0
100
AcDbSpline
210
0.0
220
0.0
230
1.0
 70
     8
 71
     3
 72
    11
 73
     7
 74
     5
 42
0.0000000001
 43
0.0000000001
 44
0.0000000001
 40
0.0
 40
0.0
 40
0.0
 40
0.0
 40
0.3793858241223375
 40
0.7737049691876212
 40
1.196038250837295
 40
1.656802502653797
 40
1.656802502653797
 40
1.656802502653797
 40
1.656802502653797
 10
-46.37944664290619
 20
37.36759476326387
 30
0.0
 10
-46.34965622842594
 20
37.49100165530569
 30
0.0
 10
-46.28890279418557
 20
37.74267296069943
 30
0.0
 10
-46.09550400758545
 20
38.09565529957882
 30
0.0
 10
-45.83282696225108
 20
38.43331482958034
 30
0.0
 10
-45.61072272230399
 20
38.62748763518503
 30
0.0
 10
-45.49483779446049
 20
38.7287990805317
 30
0.0
 11
-46.37944664290619
 21
37.36759476326387
 31
0.0
 11
-46.27460189058342
 21
37.73220576344812
 31
0.0
 11
-46.09166939907375
 21
38.0815240877815
 31
0.0
 11
-45.83146399432637
 21
38.41417788398596
 31
0.0
 11
-45.49483779446049
 21
38.7287990805317
 31
0.0
  0
SPLINE
  5
2D32
330
1F
100
AcDbEntity
  8
AM_0
100
AcDbSpline
210
0.0
220
0.0
230
1.0
 70
     8
 71
     3
 72
    11
 73
     7
 74
     5
 42
0.0000000001
 43
0.0000000001
 44
0.0000000001
 40
0.0
 40
0.0
 40
0.0
 40
0.0
 40
0.1032190404576529
 40
0.2055579057288553
 40
0.3073057361578208
 40
0.4087561691435901
 40
0.4087561691435901
 40
0.4087561691435901
 40
0.4087561691435901
 10
-46.40446372097971
 20
36.96040811453548
 30
0.0
 10
-46.40562512308506
 20
36.99480474948751
 30
0.0
 10
-46.40793802372262
 20
37.06330471047833
 30
0.0
 10
-46.40413963125107
 20
37.16573702734407
 30
0.0
 10
-46.39545040111337
 20
37.26728318219901
 30
0.0
 10
-46.38477602136309
 20
37.33419021089664
 30
0.0
 10
-46.37944664290619
 20
37.36759476326387
 30
0.0
 11
-46.40446372097971
 21
36.96040811453548
 31
0.0
 11
-46.40672409890927
 21
37.06360240219044
 31
0.0
 11
-46.40330719547332
 21
37.16588420954594
 31
0.0
 11
-46.39421446204889
 21
37.26722493776452
 31
0.0
 11
-46.37944664290619
 21
37.36759476326387
 31
0.0
  0
SPLINE
  5
2D33
330
1F
100
AcDbEntity
  8
AM_0
100
AcDbSpline
210
0.0
220
0.0
230
1.0
 70
     8
 71
     3
 72
    11
 73
     7
 74
     5
 42
0.0000000001
 43
0.0000000001
 44
0.0000000001
 40
0.0
 40
0.0
 40
0.0
 40
0.0
 40
0.6043938688843691
 40
1.210205681646404
 40
1.81730315875032
 40
2.425549345557129
 40
2.425549345557129
 40
2.425549345557129
 40
2.425549345557129
 10
-46.48383068791622
 20
33.25924785886869
 30
0.0
 10
-46.48429567002002
 20
33.46071714178506
 30
0.0
 10
-46.4852267251032
 20
33.86412836650956
 30
0.0
 10
-46.47374160296943
 20
34.46982316569935
 30
0.0
 10
-46.4536836619936
 20
35.07657874147233
 30
0.0
 10
-46.43177901943329
 20
35.48111095326993
 30
0.0
 10
-46.42081634631761
 20
35.68356823557861
 30
0.0
 11
-46.48383068791622
 21
33.25924785886869
 31
0.0
 11
-46.48308580751344
 21
33.86364126874193
 31
0.0
 11
-46.47232940017639
 21
34.46935758202994
 31
0.0
 11
-46.45157058163974
 21
35.07610004647339
 31
0.0
 11
-46.42081634631761
 21
35.68356823557861
 31
0.0
  0
SPLINE
  5
2D38
330
1F
100
AcDbEntity
  8
AM_0
100
AcDbSpline
210
0.0
220
0.0
230
1.0
 70
     8
 71
     3
 72
    11
 73
     7
 74
     5
 42
0.0000000001
 43
0.0000000001
 44
0.0000000001
 40
0.0
 40
0.0
 40
0.0
 40
0.0
 40
0.0795695697236092
 40
0.1591401948688236
 40
0.2387105512711873
 40
0.3182808069324538
 40
0.3182808069324538
 40
0.3182808069324538
 40
0.3182808069324538
 10
-48.738414612105
 20
23.54330024548034
 30
0.0
 10
-48.71195849252126
 20
23.54139062672888
 30
0.0
 10
-48.65904590243623
 20
23.53757136389653
 30
0.0
 10
-48.57952095944299
 20
23.53455005727028
 30
0.0
 10
-48.4999476447045
 20
23.53333781474473
 30
0.0
 10
-48.44690668462503
 20
23.53433801494729
 30
0.0
 10
-48.42038622137362
 20
23.534838114732
 30
0.0
 11
-48.738414612105
 21
23.54330024548034
 31
0.0
 11
-48.65902025843325
 21
23.53802264839038
 31
0.0
 11
-48.57951284600641
 21
23.53485156731458
 31
0.0
 11
-48.49994957249945
 21
23.53378990500698
 31
0.0
 11
-48.42038622137362
 21
23.534838114732
 31
0.0
  0
SPLINE
  5
2D3C
330
1F
100
AcDbEntity
  8
AM_0
100
AcDbSpline
210
0.0
220
0.0
230
1.0
 70
     8
 71
     3
 72
    11
 73
     7
 74
     5
 42
0.0000000001
 43
0.0000000001
 44
0.0000000001
 40
0.0
 40
0.0
 40
0.0
 40
0.0
 40
0.0604601229324056
 40
0.1262762018949167
 40
0.1950665156970702
 40
0.2644270195735625
 40
0.2644270195735625
 40
0.2644270195735625
 40
0.2644270195735625
 10
-52.91093108264173
 20
16.98284891189209
 30
0.0
 10
-52.93088850372219
 20
16.98565245249795
 30
0.0
 10
-52.97257130573161
 20
16.99150788980763
 30
0.0
 10
-53.03696122055133
 20
17.00055342506298
 30
0.0
 10
-53.10428919884751
 20
17.01001084410533
 30
0.0
 10
-53.14989167771894
 20
17.01641720997406
 30
0.0
 10
-53.17278702474394
 20
17.01963361341009
 30
0.0
 11
-52.91093108264173
 21
16.98284891189209
 31
0.0
 11
-52.97080333992634
 21
16.99125957611361
 31
0.0
 11
-53.03597946777311
 21
17.0004153725782
 31
0.0
 11
-53.10410095999085
 21
17.00998457165795
 31
0.0
 11
-53.17278702474394
 21
17.01963361341009
 31
0.0
  0
SPLINE
  5
2D3F
330
1F
100
AcDbEntity
  8
AM_0
100
AcDbSpline
210
0.0
220
0.0
230
1.0
 70
     8
 71
     3
 72
    11
 73
     7
 74
     5
 42
0.0000000001
 43
0.0000000001
 44
0.0000000001
 40
0.0
 40
0.0
 40
0.0
 40
0.0
 40
0.0084418259280937
 40
0.0144797290409378
 40
0.0181066397098083
 40
0.0193174741328363
 40
0.0193174741328363
 40
0.0193174741328363
 40
0.0193174741328363
 10
-49.42039725883432
 20
20.11744413687435
 30
0.0
 10
-49.42078904045327
 20
20.11465760192191
 30
0.0
 10
-49.42146103863632
 20
20.10987803510565
 30
0.0
 10
-49.42230256619686
 20
20.10390144354468
 30
0.0
 10
-49.42280646315733
 20
20.10031141723934
 30
0.0
 10
-49.42303318314184
 20
20.09871485274879
 30
0.0
 10
-49.423089928662
 20
20.09831525020525
 30
0.0
 11
-49.42039725883432
 21
20.11744413687435
 31
0.0
 11
-49.42157293149177
 21
20.10908457834518
 31
0.0
 11
-49.42241407828064
 21
20.10310555283263
 31
0.0
 11
-49.42291985339378
 21
20.0995140806366
 31
0.0
 11
-49.423089928662
 21
20.09831525020525
 31
0.0
  0
SPLINE
  5
2D41
330
1F
100
AcDbEntity
  8
AM_0
100
AcDbSpline
210
0.0
220
0.0
230
1.0
 70
     8
 71
     3
 72
    11
 73
     7
 74
     5
 42
0.0000000001
 43
0.0000000001
 44
0.0000000001
 40
0.0
 40
0.0
 40
0.0
 40
0.0
 40
0.2394157716609435
 40
0.4787747040198649
 40
0.7181599074577392
 40
0.9575640225873788
 40
0.9575640225873788
 40
0.9575640225873788
 40
0.9575640225873788
 10
-52.04043283271622
 20
17.29117538992577
 30
0.0
 10
-52.09910307662553
 20
17.23645791666051
 30
0.0
 10
-52.21642963563863
 20
17.12703596051472
 30
0.0
 10
-52.43511794619602
 20
17.02248577776479
 30
0.0
 10
-52.67085647495129
 20
16.96609753804006
 30
0.0
 10
-52.83090410617196
 20
16.97726497357396
 30
0.0
 10
-52.91093108264173
 20
16.98284891189209
 30
0.0
 11
-52.04043283271622
 21
17.29117538992577
 31
0.0
 11
-52.22356177531709
 21
17.13695573455755
 31
0.0
 11
-52.43795180220631
 21
17.03051507094423
 31
0.0
 11
-52.6715704085271
 21
16.97828842634854
 31
0.0
 11
-52.91093108264173
 21
16.98284891189209
 31
0.0
  0
SPLINE
  5
2D42
330
1F
100
AcDbEntity
  8
AM_0
100
AcDbSpline
210
0.0
220
0.0
230
1.0
 70
     8
 71
     3
 72
    11
 73
     7
 74
     0
 42
0.0000000001
 43
0.0000000001
 40
0.0201369383268568
 40
0.0201369383268568
 40
0.0201369383268568
 40
0.0201369383268568
 40
0.0492760926312128
 40
0.1942976286319011
 40
0.4282360954752198
 40
0.7393419960637506
 40
0.7393419960637506
 40
0.7393419960637506
 40
0.7393419960637506
 10
-48.90749031597498
 20
23.84120106260849
 30
0.0
 10
-48.91346858520977
 20
23.83354575953288
 30
0.0
 10
-48.9492002596931
 20
23.78779137542153
 30
0.0
 10
-49.03294118117577
 20
23.68058853258575
 30
0.0
 10
-49.17453929077013
 20
23.49931503496575
 30
0.0
 10
-49.28638152719055
 20
23.35613869071517
 30
0.0
 10
-49.35021996267308
 20
23.27441505832366
 30
0.0
  0
SPLINE
  5
2D43
330
1F
100
AcDbEntity
  8
AM_0
100
AcDbSpline
210
0.0
220
0.0
230
1.0
 70
     8
 71
     3
 72
    11
 73
     7
 74
     5
 42
0.0000000001
 43
0.0000000001
 44
0.0000000001
 40
0.0
 40
0.0
 40
0.0
 40
0.0
 40
0.1095442880345552
 40
0.190541892468271
 40
0.2402523399114372
 40
0.2569700835989269
 40
0.2569700835989269
 40
0.2569700835989269
 40
0.2569700835989269
 10
-49.27074636108237
 20
22.9671872498912
 30
0.0
 10
-49.23713361251749
 20
22.95292152075982
 30
0.0
 10
-49.17866742648877
 20
22.92810763885962
 30
0.0
 10
-49.10494792275738
 20
22.8968202617343
 30
0.0
 10
-49.05971104512042
 20
22.87762249166018
 30
0.0
 10
-49.03932880926553
 20
22.86897003707046
 30
0.0
 10
-49.03419928535406
 20
22.86679250497699
 30
0.0
 11
-49.27074636108237
 21
22.9671872498912
 31
0.0
 11
-49.16990809371501
 21
22.92439011359278
 31
0.0
 11
-49.09534755478023
 21
22.89274618909286
 31
0.0
 11
-49.04958791578107
 21
22.87332496298157
 31
0.0
 11
-49.03419928535406
 21
22.86679250497699
 31
0.0
  0
SPLINE
  5
2D44
330
1F
100
AcDbEntity
  8
AM_0
100
AcDbSpline
210
0.0
220
0.0
230
1.0
 70
     8
 71
     3
 72
    11
 73
     7
 74
     5
 42
0.0000000001
 43
0.0000000001
 44
0.0000000001
 40
0.0
 40
0.0
 40
0.0
 40
0.0
 40
0.0492757021055899
 40
0.1942976287270367
 40
0.428236095570353
 40
0.7393419961588901
 40
0.7393419961588901
 40
0.7393419961588901
 40
0.7393419961588901
 10
-49.10375160030844
 20
22.37165351963401
 30
0.0
 10
-49.11386077486786
 20
22.35870775185624
 30
0.0
 10
-49.1537219754464
 20
22.30766166070398
 30
0.0
 10
-49.24159724885368
 20
22.19517087977813
 30
0.0
 10
-49.38319420214774
 20
22.01389631385262
 30
0.0
 10
-49.49503666804045
 20
21.87072014882413
 30
0.0
 10
-49.55887523450347
 20
21.78899661873084
 30
0.0
 11
-49.10375160030844
 21
22.37165351963401
 31
0.0
 11
-49.13407971759823
 21
22.33281667991119
 31
0.0
 11
-49.22335078716631
 21
22.21852741821454
 31
0.0
 11
-49.36736052381114
 21
22.03416798118869
 31
0.0
 11
-49.55887523450347
 21
21.78899661873084
 31
0.0
  0
SPLINE
  5
2D45
330
1F
100
AcDbEntity
  8
AM_0
100
AcDbSpline
210
0.0
220
0.0
230
1.0
 70
     8
 71
     3
 72
    11
 73
     7
 74
     5
 42
0.0000000001
 43
0.0000000001
 44
0.0000000001
 40
0.0
 40
0.0
 40
0.0
 40
0.0
 40
0.1095442880345486
 40
0.1905418924682821
 40
0.2402523399114241
 40
0.2569700835989138
 40
0.2569700835989138
 40
0.2569700835989138
 40
0.2569700835989138
 10
-49.47940163291278
 20
21.48176881029838
 30
0.0
 10
-49.4457888843479
 20
21.46750308116701
 30
0.0
 10
-49.38732269831918
 20
21.44268919926682
 30
0.0
 10
-49.3136031945878
 20
21.41140182214145
 30
0.0
 10
-49.26836631695082
 20
21.39220405206735
 30
0.0
 10
-49.24798408109595
 20
21.38355159747764
 30
0.0
 10
-49.24285455718448
 20
21.38137406538417
 30
0.0
 11
-49.47940163291278
 21
21.48176881029838
 31
0.0
 11
-49.37856336554542
 21
21.43897167399996
 31
0.0
 11
-49.30400282661064
 21
21.40732774950001
 31
0.0
 11
-49.25824318761148
 21
21.38790652338875
 31
0.0
 11
-49.24285455718448
 21
21.38137406538417
 31
0.0
  0
SPLINE
  5
2D46
330
1F
100
AcDbEntity
  8
AM_0
100
AcDbSpline
210
0.0
220
0.0
230
1.0
 70
     8
 71
     3
 72
    11
 73
     7
 74
     5
 42
0.0000000001
 43
0.0000000001
 44
0.0000000001
 40
0.0
 40
0.0
 40
0.0
 40
0.0
 40
0.8585686804676626
 40
1.717122659251176
 40
2.575722033959764
 40
3.434350222023155
 40
3.434350222023155
 40
3.434350222023155
 40
3.434350222023155
 10
-39.45840221613148
 20
28.54819840934687
 30
0.0
 10
-39.47399895578383
 20
28.83503565110068
 30
0.0
 10
-39.50519216801809
 20
29.40870522295636
 30
0.0
 10
-39.76960477737723
 20
30.23340078360996
 30
0.0
 10
-40.17224339307298
 20
31.00018339193905
 30
0.0
 10
-40.5594383917684
 20
31.42467184576339
 30
0.0
 10
-40.7530391394878
 20
31.63691963392063
 30
0.0
 11
-39.45840221613148
 21
28.54819840934687
 31
0.0
 11
-39.5414628704057
 21
29.40273986930743
 31
0.0
 11
-39.79263508813443
 21
30.22373161806391
 31
0.0
 11
-40.20192864839673
 21
30.97849758694287
 31
0.0
 11
-40.7530391394878
 21
31.63691963392063
 31
0.0
  0
SPLINE
  5
2D47
330
1F
100
AcDbEntity
  8
AM_0
100
AcDbSpline
210
0.0
220
0.0
230
1.0
 70
     8
 71
     3
 72
    11
 73
     7
 74
     5
 42
0.0000000001
 43
0.0000000001
 44
0.0000000001
 40
0.0
 40
0.0
 40
0.0
 40
0.0
 40
0.9264273733477305
 40
1.852841364019823
 40
2.779210759263987
 40
3.705498643751295
 40
3.705498643751295
 40
3.705498643751295
 40
3.705498643751295
 10
-42.84032642505895
 20
21.14501332916447
 30
0.0
 10
-42.55742655786057
 20
21.27214760811454
 30
0.0
 10
-41.99163091008437
 20
21.52641432950071
 30
0.0
 10
-41.27491491331338
 20
22.12811591778927
 30
0.0
 10
-40.68282737275502
 20
22.85273160017487
 30
0.0
 10
-40.43611420814638
 20
23.42179354966807
 30
0.0
 10
-40.31276305312129
 20
23.70631200599837
 30
0.0
 11
-42.84032642505895
 21
21.14501332916447
 31
0.0
 11
-42.01362118265142
 21
21.56313546474675
 31
0.0
 11
-41.29567060219813
 21
22.14861804018327
 31
0.0
 11
-40.71981319742997
 21
22.87425466124006
 31
0.0
 11
-40.31276305312129
 21
23.70631200599837
 31
0.0
  0
SPLINE
  5
2D48
330
1F
100
AcDbEntity
  8
AM_0
100
AcDbSpline
210
0.0
220
0.0
230
1.0
 70
     8
 71
     3
 72
    11
 73
     7
 74
     5
 42
0.0000000001
 43
0.0000000001
 44
0.0000000001
 40
0.0
 40
0.0
 40
0.0
 40
0.0
 40
0.799379228788195
 40
1.59875845757639
 40
2.398137686364576
 40
3.197515742668341
 40
3.197515742668341
 40
3.197515742668341
 40
3.197515742668341
 10
-58.0605034637105
 20
27.16626652012087
 30
0.0
 10
-57.79469165969108
 20
27.14769558998963
 30
0.0
 10
-57.26306805165223
 20
27.11055372972714
 30
0.0
 10
-56.46563264549873
 20
27.05484085481642
 30
0.0
 10
-55.66819760560381
 20
26.99912834521231
 30
0.0
 10
-55.13657443468122
 20
26.96198583605398
 30
0.0
 10
-54.87076304415878
 20
26.94341459509445
 30
0.0
 11
-58.0605034637105
 21
27.16626652012087
 31
0.0
 11
-57.26306805263636
 21
27.11055371564098
 31
0.0
 11
-56.46563264156221
 21
27.05484091116108
 31
0.0
 11
-55.66819723048807
 21
26.99912810668121
 31
0.0
 11
-54.87076304415878
 21
26.94341459509445
 31
0.0
  0
SPLINE
  5
2D49
330
1F
100
AcDbEntity
  8
AM_0
100
AcDbSpline
210
0.0
220
0.0
230
1.0
 70
     8
 71
     3
 72
    11
 73
     7
 74
     5
 42
0.0000000001
 43
0.0000000001
 44
0.0000000001
 40
0.0
 40
0.0
 40
0.0
 40
0.0
 40
0.0569319978658501
 40
0.1112058520223535
 40
0.1628215624698708
 40
0.2117792164373523
 40
0.2117792164373523
 40
0.2117792164373523
 40
0.2117792164373523
 10
-54.94018416836046
 20
26.54948425488115
 30
0.0
 10
-54.93689012733916
 20
26.5681735150911
 30
0.0
 10
-54.9304558434197
 20
26.60467943765175
 30
0.0
 10
-54.92103506483714
 20
26.6581294159107
 30
0.0
 10
-54.91207510131537
 20
26.70896152801198
 30
0.0
 10
-54.90625654338983
 20
26.74197718268906
 30
0.0
 10
-54.90342415384848
 20
26.75804872416123
 30
0.0
 11
-54.94018416836046
 21
26.54948425488115
 31
0.0
 11
-54.93030203636617
 21
26.6055520339369
 31
0.0
 11
-54.9208811622951
 21
26.65900199536569
 31
0.0
 11
-54.91192154614726
 21
26.70983413916747
 31
0.0
 11
-54.90342415384848
 21
26.75804872416123
 31
0.0
  0
SPLINE
  5
2D4A
330
1F
100
AcDbEntity
  8
AM_0
100
AcDbSpline
210
0.0
220
0.0
230
1.0
 70
     8
 71
     3
 72
    11
 73
     7
 74
     5
 42
0.0000000001
 43
0.0000000001
 44
0.0000000001
 40
0.0
 40
0.0
 40
0.0
 40
0.0
 40
0.0272128371545227
 40
0.0467735493092609
 40
0.0586830453523371
 40
0.0629405043362716
 40
0.0629405043362716
 40
0.0629405043362716
 40
0.0629405043362716
 10
-54.88168130126083
 20
26.8814283170093
 30
0.0
 10
-54.88010692473528
 20
26.89036159165747
 30
0.0
 10
-54.87740087914253
 20
26.90571614509405
 30
0.0
 10
-54.87400907780053
 20
26.92498085330482
 30
0.0
 10
-54.87194012088867
 20
26.93670898285478
 30
0.0
 10
-54.8710084052201
 20
26.94201681354452
 30
0.0
 10
-54.87076304415878
 20
26.94341459509445
 30
0.0
 11
-54.88168130126083
 21
26.8814283170093
 31
0.0
 11
-54.87695905079733
 21
26.90822829567642
 31
0.0
 11
-54.87356550505314
 21
26.92749238940758
 31
0.0
 11
-54.87149943928339
 21
26.93922130530953
 31
0.0
 11
-54.87076304415878
 21
26.94341459509445
 31
0.0
  0
SPLINE
  5
2D4B
330
1F
100
AcDbEntity
  8
AM_0
100
AcDbSpline
210
0.0
220
0.0
230
1.0
 70
     8
 71
     3
 72
    11
 73
     7
 74
     5
 42
0.0000000001
 43
0.0000000001
 44
0.0000000001
 40
0.0
 40
0.0
 40
0.0
 40
0.0
 40
0.7950035062312574
 40
1.590005929056499
 40
2.38500934807115
 40
3.180011858113103
 40
3.180011858113103
 40
3.180011858113103
 40
3.180011858113103
 10
-58.0719182846336
 20
27.10149588764523
 30
0.0
 10
-57.81094022487848
 20
27.05549510762964
 30
0.0
 10
-57.28898446102105
 20
26.9634936102869
 30
0.0
 10
-56.50605089298675
 20
26.82549005043171
 30
0.0
 10
-55.72311769090499
 20
26.68748632735304
 30
0.0
 10
-55.20116190974496
 20
26.59548492817337
 30
0.0
 10
-54.94018416836046
 20
26.54948425488115
 30
0.0
 11
-58.0719182846336
 21
27.10149588764523
 31
0.0
 11
-57.28898414319289
 21
26.96349333300765
 31
0.0
 11
-56.50605122649703
 21
26.82549007126318
 31
0.0
 11
-55.72311734387533
 21
26.68748655069976
 31
0.0
 11
-54.94018416836046
 21
26.54948425488115
 31
0.0
  0
SPLINE
  5
2D4C
330
1F
100
AcDbEntity
  8
AM_0
100
AcDbSpline
210
0.0
220
0.0
230
1.0
 70
     8
 71
     3
 72
    11
 73
     7
 74
     5
 42
0.0000000001
 43
0.0000000001
 44
0.0000000001
 40
0.0
 40
0.0
 40
0.0
 40
0.0
 40
0.0050041177044407
 40
0.0192756139469404
 40
0.040655114151604
 40
0.0657687842139438
 40
0.0657687842139438
 40
0.0657687842139438
 40
0.0657687842139438
 10
-58.0605034637105
 20
27.16626652012087
 30
0.0
 10
-58.06079282984365
 20
27.16462377177452
 30
0.0
 10
-58.06190745387954
 20
27.15829598637727
 30
0.0
 10
-58.06425850862556
 20
27.14494977932665
 30
0.0
 10
-58.06777455682813
 20
27.12500240035567
 30
0.0
 10
-58.07046501267723
 20
27.10973999954587
 30
0.0
 10
-58.0719182846336
 20
27.10149588764523
 30
0.0
 11
-58.0605034637105
 21
27.16626652012087
 31
0.0
 11
-58.06137156684491
 21
27.16133827591548
 31
0.0
 11
-58.06384765300404
 21
27.14728321980275
 31
0.0
 11
-58.06755852842352
 21
27.12622823387014
 31
0.0
 11
-58.0719182846336
 21
27.10149588764523
 31
0.0
  0
SPLINE
  5
2D4D
330
1F
100
AcDbEntity
  8
AM_0
100
AcDbSpline
210
0.0
220
0.0
230
1.0
 70
     8
 71
     3
 72
    11
 73
     7
 74
     5
 42
0.0000000001
 43
0.0000000001
 44
0.0000000001
 40
0.0
 40
0.0
 40
0.0
 40
0.0
 40
0.7950035062312743
 40
1.590005929056492
 40
2.385009348071167
 40
3.180011858113113
 40
3.180011858113113
 40
3.180011858113113
 40
3.180011858113113
 10
-56.81493157963367
 20
15.91344539592083
 30
0.0
 10
-57.07590963938878
 20
15.95944617593645
 30
0.0
 10
-57.5978654032462
 20
16.05144767327925
 30
0.0
 10
-58.38079897128056
 20
16.18945123313432
 30
0.0
 10
-59.16373217336226
 20
16.3274549562131
 30
0.0
 10
-59.68568795452232
 20
16.41945635539276
 30
0.0
 10
-59.94666569590681
 20
16.46545702868497
 30
0.0
 11
-56.81493157963367
 21
15.91344539592083
 31
0.0
 11
-57.59786572107439
 21
16.05144795055847
 31
0.0
 11
-58.38079863777023
 21
16.18945121230289
 31
0.0
 11
-59.16373252039195
 21
16.32745473286636
 31
0.0
 11
-59.94666569590681
 21
16.46545702868497
 31
0.0
  0
SPLINE
  5
2D4E
330
1F
100
AcDbEntity
  8
AM_0
100
AcDbSpline
210
0.0
220
0.0
230
1.0
 70
     8
 71
     3
 72
    11
 73
     7
 74
     5
 42
0.0000000001
 43
0.0000000001
 44
0.0000000001
 40
0.0
 40
0.0
 40
0.0
 40
0.0
 40
0.0043061849704631
 40
0.0158530041861686
 40
0.0346384657189724
 40
0.0606624824919404
 40
0.0606624824919404
 40
0.0606624824919404
 40
0.0606624824919404
 10
-56.88438097450366
 20
15.51952159553278
 30
0.0
 10
-56.88413087761281
 20
15.52093503473452
 30
0.0
 10
-56.88321015844146
 20
15.52613854032839
 30
0.0
 10
-56.88120573628068
 20
15.53750938057242
 30
0.0
 10
-56.87794299791396
 20
15.5560092994926
 30
0.0
 10
-56.8753493339303
 20
15.57071887886697
 30
0.0
 10
-56.87384301076909
 20
15.57926176655136
 30
0.0
 11
-56.88438097450366
 21
15.51952159553278
 31
0.0
 11
-56.8836309313221
 21
15.52376195686475
 31
0.0
 11
-56.88162449180779
 21
15.53513311487419
 31
0.0
 11
-56.87836217359875
 21
15.5536331377094
 31
0.0
 11
-56.87384301076909
 21
15.57926176655136
 31
0.0
  0
SPLINE
  5
2D4F
330
1F
100
AcDbEntity
  8
AM_0
100
AcDbSpline
210
0.0
220
0.0
230
1.0
 70
     8
 71
     3
 72
    11
 73
     7
 74
     5
 42
0.0000000001
 43
0.0000000001
 44
0.0000000001
 40
0.0
 40
0.0
 40
0.0
 40
0.0
 40
0.0502093214951071
 40
0.1028427558310995
 40
0.1579015608035947
 40
0.2153855620039133
 40
0.2153855620039133
 40
0.2153855620039133
 40
0.2153855620039133
 10
-56.85232209381054
 20
15.70133012121488
 30
0.0
 10
-56.84941697121909
 20
15.71781249675287
 30
0.0
 10
-56.84346646632407
 20
15.75157301915179
 30
0.0
 10
-56.83432733614718
 20
15.80340735957578
 30
0.0
 10
-56.82477061052929
 20
15.8576303676126
 30
0.0
 10
-56.81825803663508
 20
15.89457501186883
 30
0.0
 10
-56.81493157963367
 20
15.91344539592083
 30
0.0
 11
-56.85232209381054
 21
15.70133012121488
 31
0.0
 11
-56.84360627420659
 21
15.75077716818061
 31
0.0
 11
-56.83446825113849
 21
15.8026112780351
 31
0.0
 11
-56.82491066356475
 21
15.85683419316118
 31
0.0
 11
-56.81493157963367
 21
15.91344539592083
 31
0.0
  0
SPLINE
  5
2D50
330
1F
100
AcDbEntity
  8
AM_0
100
AcDbSpline
210
0.0
220
0.0
230
1.0
 70
    24
 71
     3
 72
    11
 73
     7
 74
     5
 42
0.0000000001
 43
0.0000000001
 44
0.0000000001
 40
0.0
 40
0.0
 40
0.0
 40
0.0
 40
0.7993788939970875
 40
1.59875778799416
 40
2.398136681991255
 40
3.197515575988335
 40
3.197515575988335
 40
3.197515575988335
 40
3.197515575988335
 10
-59.95808438053327
 20
16.40068743148535
 30
0.0
 10
-59.70194243003078
 20
16.32725694515596
 30
0.0
 10
-59.18965852902585
 20
16.18039597249718
 30
0.0
 10
-58.42123267751848
 20
15.96010451350908
 30
0.0
 10
-57.65280682601104
 20
15.73981305452089
 30
0.0
 10
-57.14052292500613
 20
15.59295208186216
 30
0.0
 10
-56.88438097450366
 20
15.51952159553278
 30
0.0
 11
-59.95808438053327
 21
16.40068743148535
 31
0.0
 11
-59.18965852902586
 21
16.1803959724972
 31
0.0
 11
-58.42123267751847
 21
15.96010451350907
 31
0.0
 11
-57.65280682601106
 21
15.73981305452091
 31
0.0
 11
-56.88438097450366
 21
15.51952159553278
 31
0.0
  0
SPLINE
  5
2D51
330
1F
100
AcDbEntity
  8
AM_0
100
AcDbSpline
210
0.0
220
0.0
230
1.0
 70
     8
 71
     3
 72
    11
 73
     7
 74
     5
 42
0.0000000001
 43
0.0000000001
 44
0.0000000001
 40
0.0
 40
0.0
 40
0.0
 40
0.0
 40
0.0050050266732174
 40
0.0192753522476622
 40
0.0406547652423879
 40
0.0657684353047545
 40
0.0657684353047545
 40
0.0657684353047545
 40
0.0657684353047545
 10
-59.95808438053327
 20
16.40068743148535
 30
0.0
 10
-59.95779459071602
 20
16.40233041281244
 30
0.0
 10
-59.95667855254681
 20
16.40865786037339
 30
0.0
 10
-59.95432595209699
 20
16.42200367695192
 30
0.0
 10
-59.95080922385046
 20
16.44195051025192
 30
0.0
 10
-59.94811889953827
 20
16.4572129047368
 30
0.0
 10
-59.94666569590681
 20
16.46545702868497
 30
0.0
 11
-59.95808438053327
 21
16.40068743148535
 31
0.0
 11
-59.95721505265402
 21
16.40561638279755
 31
0.0
 11
-59.95473729346222
 21
16.41966995534648
 31
0.0
 11
-59.95102545211688
 21
16.44072468246003
 31
0.0
 11
-59.94666569590681
 21
16.46545702868497
 31
0.0
  0
SPLINE
  5
2D52
330
1F
100
AcDbEntity
  8
AM_0
100
AcDbSpline
210
0.0
220
0.0
230
1.0
 70
     8
 71
     3
 72
    11
 73
     7
 74
     5
 42
0.0000000001
 43
0.0000000001
 44
0.0000000001
 40
0.0
 40
0.0
 40
0.0
 40
0.0
 40
0.0050052012946423
 40
0.019275614077731
 40
0.0406551142823958
 40
0.0657688715679949
 40
0.0657688715679949
 40
0.0657688715679949
 40
0.0657688715679949
 10
-59.95844563679661
 20
16.40078422979212
 30
0.0
 10
-59.95815656593258
 20
16.40242739687636
 30
0.0
 10
-59.95704332031303
 20
16.4087554250048
 30
0.0
 10
-59.95468958299675
 20
16.42210115959967
 30
0.0
 10
-59.95117465833064
 20
16.4420483992475
 30
0.0
 10
-59.94848475670685
 20
16.45731092729236
 30
0.0
 10
-59.94703178179934
 20
16.46555512108677
 30
0.0
 11
-59.95844563679661
 21
16.40078422979212
 31
0.0
 11
-59.95757824076902
 21
16.40571369874235
 31
0.0
 11
-59.95510144750307
 21
16.41976753011025
 31
0.0
 11
-59.95139057208358
 21
16.44082251604286
 31
0.0
 11
-59.94703178179934
 21
16.46555512108677
 31
0.0
  0
SPLINE
  5
2D53
330
1F
100
AcDbEntity
  8
AM_0
100
AcDbSpline
210
0.0
220
0.0
230
1.0
 70
     8
 71
     3
 72
    11
 73
     7
 74
     5
 42
0.0000000001
 43
0.0000000001
 44
0.0000000001
 40
0.0
 40
0.0
 40
0.0
 40
0.0
 40
0.7992874477495385
 40
1.598575086368465
 40
2.397861552502492
 40
3.197149000252034
 40
3.197149000252034
 40
3.197149000252034
 40
3.197149000252034
 10
-58.06049886934207
 20
27.16633775839554
 30
0.0
 10
-57.79471760368121
 20
27.14776868750471
 30
0.0
 10
-57.26315500889103
 20
27.11063054128874
 30
0.0
 10
-56.46581134270512
 20
27.05492523841302
 30
0.0
 10
-55.66846779461423
 20
26.99921824520186
 30
0.0
 10
-55.13690557395599
 20
26.96208035160303
 30
0.0
 10
-54.87112430042211
 20
26.94351139340122
 30
0.0
 11
-58.06049886934207
 21
27.16633775839554
 31
0.0
 11
-57.26315505033539
 21
27.11063086096078
 31
0.0
 11
-56.46581097250967
 21
27.0549249294518
 31
0.0
 11
-55.6684681194288
 21
26.99921829083604
 31
0.0
 11
-54.87112430042211
 21
26.94351139340122
 31
0.0
  0
SPLINE
  5
2D54
330
1F
100
AcDbEntity
  8
AM_0
100
AcDbSpline
210
0.0
220
0.0
230
1.0
 70
    24
 71
     3
 72
    11
 73
     7
 74
     5
 42
0.0000000001
 43
0.0000000001
 44
0.0000000001
 40
0.0
 40
0.0
 40
0.0
 40
0.0
 40
0.7993788939970934
 40
1.598757787994174
 40
2.398136681991261
 40
3.197515575988341
 40
3.197515575988341
 40
3.197515575988341
 40
3.197515575988341
 10
-59.95844563679661
 20
16.40078422979212
 30
0.0
 10
-59.70230368629413
 20
16.32735374346275
 30
0.0
 10
-59.1900197852892
 20
16.18049277080401
 30
0.0
 10
-58.42159393378179
 20
15.96020131181582
 30
0.0
 10
-57.65316808227439
 20
15.73990985282771
 30
0.0
 10
-57.14088418126947
 20
15.59304888016896
 30
0.0
 10
-56.88474223076699
 20
15.51961839383958
 30
0.0
 11
-59.95844563679661
 21
16.40078422979212
 31
0.0
 11
-59.1900197852892
 21
16.18049277080399
 31
0.0
 11
-58.4215939337818
 21
15.96020131181584
 31
0.0
 11
-57.65316808227439
 21
15.73990985282771
 31
0.0
 11
-56.88474223076699
 21
15.51961839383958
 31
0.0
  0
SPLINE
  5
2D55
330
1F
100
AcDbEntity
  8
AM_0
100
AcDbSpline
210
0.0
220
0.0
230
1.0
 70
     8
 71
     3
 72
    11
 73
     7
 74
     5
 42
0.0000000001
 43
0.0000000001
 44
0.0000000001
 40
0.0
 40
0.0
 40
0.0
 40
0.0
 40
1.014937863334016
 40
1.987236842748251
 40
2.880006403094029
 40
3.65975067609767
 40
3.65975067609767
 40
3.65975067609767
 40
3.65975067609767
 10
-50.38610738499388
 20
28.2583674079898
 30
0.0
 10
-50.32738107507204
 20
28.59154401300137
 30
0.0
 10
-50.21239562529092
 20
29.2439000325569
 30
0.0
 10
-50.04576084474875
 20
30.18932953702613
 30
0.0
 10
-49.89274164954713
 20
31.057552559319
 30
0.0
 10
-49.79598232047837
 20
31.60659629497038
 30
0.0
 10
-49.75087206118087
 20
31.86256649979993
 30
0.0
 11
-50.38610738499388
 21
28.2583674079898
 31
0.0
 11
-50.20992990946764
 21
29.25789747934644
 31
0.0
 11
-50.04116077198422
 21
30.21543718275464
 31
0.0
 11
-49.88620418745104
 21
31.0946561229452
 31
0.0
 11
-49.75087206118087
 21
31.86256649979993
 31
0.0
  0
LINE
  5
2D56
330
1F
100
AcDbEntity
  8
AM_0
100
AcDbLine
 10
-46.60663412566829
 20
33.14436829726927
 30
0.0
 11
-46.4830201048121
 21
33.12016596556825
 31
0.0
  0
LINE
  5
2D57
330
1F
100
AcDbEntity
  8
AM_0
100
AcDbLine
 10
-46.48383068791622
 20
33.25924785886869
 30
0.0
 11
-46.4830201048121
 21
33.12016596556825
 31
0.0
  0
SPLINE
  5
2D58
330
1F
100
AcDbEntity
  8
AM_0
100
AcDbSpline
210
0.0
220
0.0
230
1.0
 70
     8
 71
     3
 72
    11
 73
     7
 74
     5
 42
0.0000000001
 43
0.0000000001
 44
0.0000000001
 40
0.0
 40
0.0
 40
0.0
 40
0.0
 40
0.1289815963693864
 40
0.3517587412519069
 40
0.6446955808214889
 40
0.9730586132109403
 40
0.9730586132109403
 40
0.9730586132109403
 40
0.9730586132109403
 10
-51.14020326503216
 20
23.98029398342104
 30
0.0
 10
-51.13273634237558
 20
24.02263447861704
 30
0.0
 10
-51.11237254328617
 20
24.13810552032654
 30
0.0
 10
-51.07506244085062
 20
24.3497404257188
 30
0.0
 10
-51.0262175380486
 20
24.62682717295461
 30
0.0
 10
-50.99026611442646
 20
24.83078277465236
 30
0.0
 10
-50.97126543695642
 20
24.93857529621707
 30
0.0
 11
-51.14020326503216
 21
23.98029398342104
 31
0.0
 11
-51.11780339312276
 21
24.10731562701156
 31
0.0
 11
-51.07912319649886
 21
24.32670910611051
 31
0.0
 11
-51.02826798608418
 21
24.6151978226155
 31
0.0
 11
-50.97126543695642
 21
24.93857529621707
 31
0.0
  0
SPLINE
  5
2D59
330
1F
100
AcDbEntity
  8
AM_0
100
AcDbSpline
210
0.0
220
0.0
230
1.0
 70
     8
 71
     3
 72
    11
 73
     7
 74
     5
 42
0.0000000001
 43
0.0000000001
 44
0.0000000001
 40
0.0
 40
0.0
 40
0.0
 40
0.0
 40
0.612172664963084
 40
1.225378649710462
 40
1.83888225875036
 40
2.452506341882704
 40
2.452506341882704
 40
2.452506341882704
 40
2.452506341882704
 10
-48.69763761072067
 20
23.85903270159167
 30
0.0
 10
-48.90113838357195
 20
23.84119642092906
 30
0.0
 10
-49.30848342937955
 20
23.80549375276839
 30
0.0
 10
-49.92206002335628
 20
23.83484215736073
 30
0.0
 10
-50.53267732942271
 20
23.89348597124317
 30
0.0
 10
-50.93768136598046
 20
23.95135608554919
 30
0.0
 10
-51.14020326503216
 20
23.98029398342104
 30
0.0
 11
-48.69763761072067
 21
23.85903270159167
 31
0.0
 11
-49.30852050735489
 21
23.81931547198303
 31
0.0
 11
-49.92138714797619
 21
23.83971303417968
 31
0.0
 11
-50.53209913074137
 21
23.89817287006724
 31
0.0
 11
-51.14020326503216
 21
23.98029398342104
 31
0.0
  0
SPLINE
  5
2D5C
330
1F
100
AcDbEntity
  8
AM_0
100
AcDbSpline
210
0.0
220
0.0
230
1.0
 70
     8
 71
     3
 72
    11
 73
     7
 74
     5
 42
0.0000000001
 43
0.0000000001
 44
0.0000000001
 40
0.0
 40
0.0
 40
0.0
 40
0.0
 40
0.2210885158505392
 40
0.3982034294236102
 40
0.5233445409777223
 40
0.5936729733077608
 40
0.5936729733077608
 40
0.5936729733077608
 40
0.5936729733077608
 10
-48.08485695588527
 20
24.03195148672356
 30
0.0
 10
-48.11128983479082
 20
23.96281429236355
 30
0.0
 10
-48.15889820101121
 20
23.8382910090579
 30
0.0
 10
-48.24110326930752
 20
23.68683957065825
 30
0.0
 10
-48.30644719618633
 20
23.57480566042047
 30
0.0
 10
-48.36608936965894
 20
23.54614103288347
 30
0.0
 10
-48.38754816307369
 20
23.53582772126498
 30
0.0
 11
-48.08485695588527
 21
24.03195148672356
 31
0.0
 11
-48.16876104869942
 21
23.82740262935684
 31
0.0
 11
-48.25116678807861
 21
23.67062576012108
 31
0.0
 11
-48.32645473651095
 21
23.57066565496984
 31
0.0
 11
-48.38754816307369
 21
23.53582772126498
 31
0.0
  0
SPLINE
  5
2D5D
330
1F
100
AcDbEntity
  8
AM_0
100
AcDbSpline
210
0.0
220
0.0
230
1.0
 70
     8
 71
     3
 72
    11
 73
     7
 74
     5
 42
0.0000000001
 43
0.0000000001
 44
0.0000000001
 40
0.0
 40
0.0
 40
0.0
 40
0.0
 40
0.1592061733790384
 40
0.3187817910717152
 40
0.4786785005437933
 40
0.6388564538332564
 40
0.6388564538332564
 40
0.6388564538332564
 40
0.6388564538332564
 10
-48.08485695588527
 20
24.03195148672356
 30
0.0
 10
-48.13371487007176
 20
24.01116141685251
 30
0.0
 10
-48.23154407519509
 20
23.96953303291906
 30
0.0
 10
-48.3839190260564
 20
23.92153082493477
 30
0.0
 10
-48.53929408938646
 20
23.88309555462724
 30
0.0
 10
-48.64482552742059
 20
23.86705834980414
 30
0.0
 10
-48.69763761072067
 20
23.85903270159167
 30
0.0
 11
-48.08485695588527
 21
24.03195148672356
 31
0.0
 11
-48.23234027490484
 21
23.97199086420369
 31
0.0
 11
-48.38426396342284
 21
23.92316903886825
 31
0.0
 11
-48.53966426138942
 21
23.88551661408715
 31
0.0
 11
-48.69763761072067
 21
23.85903270159167
 31
0.0
  0
SPLINE
  5
2D5E
330
1F
100
AcDbEntity
  8
AM_0
100
AcDbSpline
210
0.0
220
0.0
230
1.0
 70
     8
 71
     3
 72
    11
 73
     7
 74
     5
 42
0.0000000001
 43
0.0000000001
 44
0.0000000001
 40
0.0
 40
0.0
 40
0.0
 40
0.0
 40
0.1885929095697928
 40
0.3219184688785586
 40
0.401369054962008
 40
0.427800894322892
 40
0.427800894322892
 40
0.427800894322892
 40
0.427800894322892
 10
-48.38754816307369
 20
23.53582772126498
 30
0.0
 10
-48.45041610493444
 20
23.53483365719694
 30
0.0
 10
-48.55772847225262
 20
23.53313684058024
 30
0.0
 10
-48.69147972082732
 20
23.53886481528792
 30
0.0
 10
-48.77090883059165
 20
23.54595124210847
 30
0.0
 10
-48.80602532157724
 20
23.54948641747574
 30
0.0
 10
-48.81479158703399
 20
23.55036891697486
 30
0.0
 11
-48.38754816307369
 21
23.53582772126498
 31
0.0
 11
-48.57613927653336
 21
23.53500463922717
 31
0.0
 11
-48.709333708612
 21
23.54091632496341
 31
0.0
 11
-48.78849018506558
 21
23.54774624915456
 31
0.0
 11
-48.81479158703399
 21
23.55036891697486
 31
0.0
  0
SPLINE
  5
2D5F
330
1F
100
AcDbEntity
  8
AM_0
100
AcDbSpline
210
0.0
220
0.0
230
1.0
 70
     8
 71
     3
 72
    11
 73
     7
 74
     5
 42
0.0000000001
 43
0.0000000001
 44
0.0000000001
 40
0.0
 40
0.0
 40
0.0
 40
0.0
 40
0.2104873321509073
 40
0.4971563363282161
 40
0.854897255828623
 40
1.277465164294227
 40
1.277465164294227
 40
1.277465164294227
 40
1.277465164294227
 10
-46.40446372097971
 20
36.96040811453548
 30
0.0
 10
-46.40171747180855
 20
36.89029522753842
 30
0.0
 10
-46.39523102360933
 20
36.72469349905118
 30
0.0
 10
-46.3941511275517
 20
36.4396807371643
 30
0.0
 10
-46.40011484895396
 20
36.08402490064236
 30
0.0
 10
-46.41354395657216
 20
35.82424776679067
 30
0.0
 10
-46.42081634631761
 20
35.68356823557861
 30
0.0
 11
-46.40446372097971
 21
36.96040811453548
 31
0.0
 11
-46.39727511640613
 21
36.75004357151482
 31
0.0
 11
-46.39511478362807
 21
36.46338270756877
 31
0.0
 11
-46.40165840930042
 21
36.10570163950945
 31
0.0
 11
-46.42081634631761
 21
35.68356823557861
 31
0.0
  0
SPLINE
  5
2D67
330
1F
100
AcDbEntity
  8
AM_0
100
AcDbSpline
210
0.0
220
0.0
230
1.0
 70
     8
 71
     3
 72
    11
 73
     7
 74
     5
 42
0.0000000001
 43
0.0000000001
 44
0.0000000001
 40
0.0
 40
0.0
 40
0.0
 40
0.0
 40
1.889544900024608
 40
3.436803080151608
 40
4.480990781395011
 40
4.929073930330585
 40
4.929073930330585
 40
4.929073930330585
 40
4.929073930330585
 10
-41.90575900699552
 20
25.10173137505745
 30
0.0
 10
-42.05748486997428
 20
24.49016493021872
 30
0.0
 10
-42.3334518042436
 20
23.37781589775498
 30
0.0
 10
-42.80321543849627
 20
21.95905420439802
 30
0.0
 10
-42.8885434842035
 20
20.92937618850159
 30
0.0
 10
-42.78439880682518
 20
20.4418801915707
 30
0.0
 10
-42.75312735568149
 20
20.29550010154074
 30
0.0
 11
-41.90575900699552
 21
25.10173137505745
 31
0.0
 11
-42.38642747309785
 21
23.27434587798689
 31
0.0
 11
-42.78504110157437
 21
21.77931576084453
 31
0.0
 11
-42.83377478151064
 21
20.73626591358513
 31
0.0
 11
-42.75312735568149
 21
20.29550010154074
 31
0.0
  0
SPLINE
  5
2D68
330
1F
100
AcDbEntity
  8
AM_0
100
AcDbSpline
210
0.0
220
0.0
230
1.0
 70
     8
 71
     3
 72
    11
 73
     7
 74
     5
 42
0.0000000001
 43
0.0000000001
 44
0.0000000001
 40
0.0
 40
0.0
 40
0.0
 40
0.0
 40
1.893897869120988
 40
3.796411207479489
 40
5.713977632881498
 40
7.644390014461391
 40
7.644390014461391
 40
7.644390014461391
 40
7.644390014461391
 10
-40.34737922710278
 20
33.94439855107757
 30
0.0
 10
-40.31309137014867
 20
34.58448023497338
 30
0.0
 10
-40.24435967846488
 20
35.86755537754814
 30
0.0
 10
-41.12820935979493
 20
37.63354506866101
 30
0.0
 10
-42.56532624909308
 20
38.99015289854413
 30
0.0
 10
-43.81331634376389
 20
39.35149549326337
 30
0.0
 10
-44.43939451406732
 20
39.53276993728386
 30
0.0
 11
-40.34737922710278
 21
33.94439855107757
 31
0.0
 11
-40.40776425736553
 21
35.83733351741455
 31
0.0
 11
-41.21611207698511
 21
37.55957937824519
 31
0.0
 11
-42.63322226583374
 21
38.851422909208
 31
0.0
 11
-44.43939451406732
 21
39.53276993728386
 31
0.0
  0
LINE
  5
2D69
330
1F
100
AcDbEntity
  8
AM_0
100
AcDbLine
 10
-51.55597945399007
 20
27.43135062550556
 30
0.0
 11
-51.63207564784717
 21
26.99997086245162
 31
0.0
  0
SPLINE
  5
2D6A
330
1F
100
AcDbEntity
  8
AM_0
100
AcDbSpline
210
0.0
220
0.0
230
1.0
 70
     8
 71
     3
 72
    11
 73
     7
 74
     5
 42
0.0000000001
 43
0.0000000001
 44
0.0000000001
 40
0.0
 40
0.0
 40
0.0
 40
0.0
 40
0.0777731607432887
 40
0.1726830424205842
 40
0.272472579572532
 40
0.3632416404082575
 40
0.3632416404082575
 40
0.3632416404082575
 40
0.3632416404082575
 10
-49.27074636108237
 20
22.9671872498912
 30
0.0
 10
-49.29359758469244
 20
22.98016808929035
 30
0.0
 10
-49.34433512420232
 20
23.00898999673496
 30
0.0
 10
-49.3914544718934
 20
23.09165293982419
 30
0.0
 10
-49.3984136657429
 20
23.19193899477104
 30
0.0
 10
-49.36576943684899
 20
23.24780453996436
 30
0.0
 10
-49.35021996267308
 20
23.27441505832366
 30
0.0
 11
-49.27074636108237
 21
22.9671872498912
 31
0.0
 11
-49.33506567532628
 21
23.01091013116857
 31
0.0
 11
-49.383737667779
 21
23.0923897162846
 31
0.0
 11
-49.38840766329705
 21
23.19206991926825
 31
0.0
 11
-49.35021996267308
 21
23.27441505832366
 31
0.0
  0
SPLINE
  5
2D6B
330
1F
100
AcDbEntity
  8
AM_0
100
AcDbSpline
210
0.0
220
0.0
230
1.0
 70
     8
 71
     3
 72
    11
 73
     7
 74
     5
 42
0.0000000001
 43
0.0000000001
 44
0.0000000001
 40
0.0
 40
0.0
 40
0.0
 40
0.0
 40
0.0777731607433004
 40
0.1726830424205923
 40
0.2724725795725404
 40
0.3632416404082778
 40
0.3632416404082778
 40
0.3632416404082778
 40
0.3632416404082778
 10
-49.47940163291278
 20
21.48176881029838
 30
0.0
 10
-49.50225285652284
 20
21.49474964969753
 30
0.0
 10
-49.55299039603273
 20
21.52357155714214
 30
0.0
 10
-49.60010974372379
 20
21.60623450023137
 30
0.0
 10
-49.60706893757335
 20
21.70652055517823
 30
0.0
 10
-49.5744247086794
 20
21.76238610037154
 30
0.0
 10
-49.55887523450347
 20
21.78899661873084
 30
0.0
 11
-49.47940163291278
 21
21.48176881029838
 31
0.0
 11
-49.54372094715669
 21
21.52549169157575
 31
0.0
 11
-49.59239293960941
 21
21.60697127669178
 31
0.0
 11
-49.59706293512746
 21
21.70665147967543
 31
0.0
 11
-49.55887523450347
 21
21.78899661873084
 31
0.0
  0
SPLINE
  5
2D6C
330
1F
100
AcDbEntity
  8
AM_0
100
AcDbSpline
210
0.0
220
0.0
230
1.0
 70
     8
 71
     3
 72
    11
 73
     7
 74
     5
 42
0.0000000001
 43
0.0000000001
 44
0.0000000001
 40
0.0
 40
0.0
 40
0.0
 40
0.0
 40
0.4017588110023291
 40
0.8151874809382576
 40
1.241399074930037
 40
1.678950252647564
 40
1.678950252647564
 40
1.678950252647564
 40
1.678950252647564
 10
-51.79826608582093
 20
29.06337176271123
 30
0.0
 10
-51.74097774241417
 20
28.94193482536623
 30
0.0
 10
-51.62473700526054
 20
28.69553358079823
 30
0.0
 10
-51.53247453631771
 20
28.2894151725067
 30
0.0
 10
-51.49957418486706
 20
27.86251878793745
 30
0.0
 10
-51.5370138600647
 20
27.57632573881275
 30
0.0
 10
-51.55597945399007
 20
27.43135062550556
 30
0.0
 11
-51.79826608582093
 21
29.06337176271123
 31
0.0
 11
-51.63991926524045
 21
28.69413413376469
 31
0.0
 11
-51.54331009964898
 21
28.29215162886092
 31
0.0
 11
-51.51439958792485
 21
27.86692168498954
 31
0.0
 11
-51.55597945399007
 21
27.43135062550556
 31
0.0
  0
SPLINE
  5
2D6D
330
1F
100
AcDbEntity
  8
AM_0
100
AcDbSpline
210
0.0
220
0.0
230
1.0
 70
     8
 71
     3
 72
    11
 73
     7
 74
     5
 42
0.0000000001
 43
0.0000000001
 44
0.0000000001
 40
0.0
 40
0.0
 40
0.0
 40
0.0
 40
0.4435526334968529
 40
0.8950949062842579
 40
1.350772846819035
 40
1.806867294796621
 40
1.806867294796621
 40
1.806867294796621
 40
1.806867294796621
 10
-51.63207564784717
 20
26.99997086245162
 30
0.0
 10
-51.6130980875124
 20
27.14692126348993
 30
0.0
 10
-51.57480112722734
 20
27.44346905852575
 30
0.0
 10
-51.60520350498772
 20
27.89499598787937
 30
0.0
 10
-51.69152569277453
 20
28.3429667181703
 30
0.0
 10
-51.79979946162285
 20
28.62751167657879
 30
0.0
 10
-51.85396107635862
 20
28.76984914738318
 30
0.0
 11
-51.63207564784717
 21
26.99997086245162
 31
0.0
 11
-51.58949410183516
 21
27.44147482689726
 31
0.0
 11
-51.61428224815158
 21
27.89233619352365
 31
0.0
 11
-51.70412334851775
 21
28.33906985262604
 31
0.0
 11
-51.85396107635862
 21
28.76984914738318
 31
0.0
  0
LINE
  5
2D91
330
1F
100
AcDbEntity
  8
AM_5
370
    13
100
AcDbLine
 10
0.0
 20
0.0000835548875955
 30
0.0
 11
-53.82769902850913
 21
14.42316947594551
 31
0.0
  0
LINE
  5
2D92
330
1F
100
AcDbEntity
  8
AM_5
370
    13
100
AcDbLine
 10
0.2967859999995994
 20
-0.0794399999999058
 30
0.0
 11
0.0
 21
0.0000835548875955
 31
0.0
  0
ACAD_PROXY_ENTITY
  5
2DC3
330
1F
100
AcDbEntity
  8
AM_5
370
    13
100
AcDbProxyEntity
 90
      498
 91
      589
 95
       25
 70
     0
 92
      668
310
9C020000270000000C00000016000000000000C00C00000013000000010000000C00000016000000000000C00C000000170000000D0000003C00000006000000020000003058F39B230C44C030F253E2407738C000000000000000002C55A8F236BD40C07777B3041D3D3AC000000000000000000C00000016000000000000
310
C00C00000010000000FFFFFFFF0C00000012000000FFFFFFFF0C00000017000000000000000C00000014000000010000000C00000013000000020000000C00000016000000000000C00C000000170000000D0000003C00000006000000020000002C55A8F236BD40C07777B3041D3D3AC000000000000000002491E28C816F
310
3EC0BCDF2D99D20D3BC000000000000000000C00000016000000000000C00C00000010000000FFFFFFFF0C00000012000000FFFFFFFF0C00000017000000000000000C00000014000000010000000C00000013000000030000000C00000016000000000000C00C000000170000000D0000003C0000000600000002000000FC
310
DA4504F4CA40C0E9972D19A9A33AC000000000000000002491E28C816F3EC0BCDF2D99D20D3BC000000000000000000C00000016000000000000C00C00000010000000FFFFFFFF0C00000012000000FFFFFFFF0C00000017000000000000000C00000014000000010000000C00000013000000040000000C00000016000000
310
000000C00C000000170000000D0000003C00000006000000020000002491E28C816F3EC0BCDF2D99D20D3BC000000000000000005BCF0AE179AF40C0065739F090D639C000000000000000000C00000016000000000000C00C00000010000000FFFFFFFF0C00000012000000FFFFFFFF0C00000017000000000000000C0000
310
0014000000010000000C00000013000000050000000C00000016000000000000C0
 93
     1609
310
5DC2491E28C816F3EC02F37CB6674834EF02300C037C37BA3B8FCE5560C5F7190D0BF8E5560C5F7190D03F300C037C37BA3B8FEA54051F8000000C800AA0C163CE6C8C31130030F253E2407738C09018FFFFFFFF092478A3205BCFB00BCDF2D99D20D3BC0A8FFFFFFFF1FFFFFFFF060B1E73646188980187929F1203B9C604
310
5409C8706C44F04CB19A44C01D2C77FADBE24DB02A4C0300DF0DEE8EE3F39558317DC64342FE83333333333330940425050000000000003C2FC000000000000F0BF4040101521340020500
340
7A1
340
1670
330
0
330
0
340
0
340
0
340
7A2
330
0
330
0
 94
        0
  0
TEXT
  5
2DC4
330
1F
100
AcDbEntity
  8
AM_6
 62
     0
100
AcDbText
 10
-39.8517223760982
 20
-11.58177816073582
 30
0.0
 40
3.5
  1
+5%%D
 50
345.00017515
100
AcDbText
  0
TEXT
  5
2DC5
330
1F
100
AcDbEntity
  8
AM_6
 62
     0
100
AcDbText
 10
-29.26469153921184
 20
-28.43825631122002
 30
0.0
 40
3.5
  1
0%%D
 50
345.00017515
100
AcDbText
  0
MTEXT
  5
2E3B
330
1F
100
AcDbEntity
  8
AM_5
 62
     2
370
    13
100
AcDbMText
 10
58.05642293843363
 20
96.00167122089064
 30
0.0
 40
3.15
 41
0.0
 71
     7
 72
     5
  1

  7
ACJISTS
 73
     1
 44
1.0
  0
INSERT
  5
2E62
330
1F
100
AcDbEntity
  8
AM_5
370
    13
100
AcDbBlockReference
  2
A$C4828096E
 10
-40.09483657082978
 20
-24.46583350445107
 30
0.0
  0
LINE
  5
3042
330
1F
100
AcDbEntity
  8
AM_0
100
AcDbLine
 10
28.04023767455979
 20
-100.4561614842983
 30
0.0
 11
-22.18086318233919
 21
-86.99962261212045
 31
0.0
  0
LINE
  5
307D
330
1F
100
AcDbEntity
  8
AM_0
100
AcDbLine
 10
-83.93133756368242
 20
25.89542821179452
 30
0.0
 11
-71.53033798358078
 21
72.17659694851339
 31
0.0
  0
ENDSEC
  0
SECTION
  2
OBJECTS
  0
DICTIONARY
  5
C
330
0
100
AcDbDictionary
281
     1
  3
ACAD_COLOR
350
1611
  3
ACAD_GROUP
350
D
  3
ACAD_LAYOUT
350
1A
  3
ACAD_MATERIAL
350
1610
  3
ACAD_MLINESTYLE
350
17
  3
ACAD_PLOTSETTINGS
350
19
  3
ACAD_PLOTSTYLENAME
350
E
  3
ACAD_TABLESTYLE
350
1612
  3
AcAmCatalogState
350
1679
  3
ACDBHEADERROUNDTRIPXREC
350
30B2
  3
AcDbVariableDictionary
350
30
  3
ACDMSYSVARMGR
350
162A
  3
ACGREF_MASTER
350
1622
  3
ACGREFACAD_MASTER
350
164C
  3
AcmDictionary
350
43
  3
ACME_BOM_MANAGER_NAME
350
36
  3
ACME_COMMAND_HISTORY
350
2F
  3
ACME_SCOPE_NAME
350
2E
  3
ACMESTATEMGR
350
3B
  3
AcmeSysVarManager
350
32
  3
AcmSystemVariableManager
350
79D
  3
AD_APPL
350
1657
  3
ADSYSVARMGR
350
1656
  3
AmdtNamedDwgMgr
350
1647
  3
AMG
350
3F
  3
AMGSNAPSETTINGS
350
59
  3
AMI_MASTER
350
164F
  3
AUTOCAD_ASSEMBLIES_PROJECT
350
165F
  3
Designer_Assemblies_SysVars
350
165A
  3
DWGPROPS
350
30B5
  3
GREFAM_MODULE
350
1650
  3
SAKAE_DICT
350
1605
  0
DICTIONARY
  5
1832
330
2
100
AcDbDictionary
280
     1
281
     1
  3
ACAD_LAYERSTATES
360
1833
  0
DICTIONARY
  5
10B
330
1F
100
AcDbDictionary
280
     1
281
     1
  3
ACAD_SORTENTS
360
1DD7
  0
DICTIONARY
  5
2E5D
330
2E58
100
AcDbDictionary
280
     1
281
     1
  3
ACAD_SORTENTS
360
2E5E
  0
DICTIONARY
  5
1611
102
{ACAD_REACTORS
330
C
102
}
330
C
100
AcDbDictionary
281
     1
  0
DICTIONARY
  5
D
102
{ACAD_REACTORS
330
C
102
}
330
C
100
AcDbDictionary
281
     1
  0
DICTIONARY
  5
1A
102
{ACAD_REACTORS
330
C
102
}
330
C
100
AcDbDictionary
281
     1
  3
Model
350
22
  3
ﾚｲｱｳﾄ1
350
1E
  3
ﾚｲｱｳﾄ2
350
26
  0
DICTIONARY
  5
1610
102
{ACAD_REACTORS
330
C
102
}
330
C
100
AcDbDictionary
281
     1
  0
DICTIONARY
  5
17
102
{ACAD_REACTORS
330
C
102
}
330
C
100
AcDbDictionary
281
     1
  3
Standard
350
18
  0
DICTIONARY
  5
19
102
{ACAD_REACTORS
330
C
102
}
330
C
100
AcDbDictionary
281
     1
  0
ACDBDICTIONARYWDFLT
  5
E
102
{ACAD_REACTORS
330
C
102
}
330
C
100
AcDbDictionary
281
     1
  3
Normal
350
F
100
AcDbDictionaryWithDefault
340
F
  0
DICTIONARY
  5
1612
102
{ACAD_REACTORS
330
C
102
}
330
C
100
AcDbDictionary
281
     1
  3
Standard
350
1613
  0
ACAD_PROXY_OBJECT
  5
1679
102
{ACAD_REACTORS
330
C
102
}
330
C
100
AcDbProxyObject
 90
      499
 91
      570
 95
       25
 70
     0
 93
      160
310
3FFFFFFFE00A028140283A19D2E3A32B6B8400AA
  0
DICTIONARY
  5
30B2
102
{ACAD_REACTORS
330
C
102
}
330
C
100
AcDbDictionary
281
     1
  3
COLORDICT
350
30B3
  3
MATERIALDICT
350
30B4
  0
DICTIONARY
  5
30
102
{ACAD_REACTORS
330
C
102
}
330
C
100
AcDbDictionary
281
     1
  3
CTABLESTYLE
350
1684
  3
DIMASSOC
350
30B0
  3
HIDETEXT
350
30B1
  3
INDEXCTL
350
31
  0
ACAD_PROXY_OBJECT
  5
162A
102
{ACAD_REACTORS
330
C
102
}
330
C
100
AcDbProxyObject
 90
      499
 91
      507
 95
       25
 70
     0
 93
      240
310
4C51A47A0000000000000000000000000000000000000000000000000000
330
162B
330
162C
330
162D
330
162E
330
162F
330
1630
330
1631
330
1632
330
1633
330
1634
330
1635
330
1636
330
1637
330
1638
330
1639
330
163A
330
163B
330
163C
330
163D
330
163E
330
163F
330
1640
330
1641
330
1642
330
1643
330
1644
 94
        0
  0
ACAD_PROXY_OBJECT
  5
1622
102
{ACAD_REACTORS
330
C
102
}
330
C
100
AcDbProxyObject
 90
      499
 91
      534
 95
       25
 70
     0
 93
       34
310
0400004280
  0
ACAD_PROXY_OBJECT
  5
164C
102
{ACAD_REACTORS
330
C
102
}
330
C
100
AcDbProxyObject
 90
      499
 91
      540
 95
       25
 70
     0
 93
      114
310
04000041C080000000000000000000
  0
DICTIONARY
  5
43
102
{ACAD_REACTORS
330
C
102
}
330
C
100
AcDbDictionary
281
     1
  3
AcmBOMDATA
350
44
  3
AcmStdDictionary
350
7A0
  3
AMDTSECTSYM_ARROWCOLOR
350
166D
  0
ACAD_PROXY_OBJECT
  5
36
102
{ACAD_REACTORS
330
C
102
}
330
C
100
AcDbProxyObject
 90
      499
 91
      510
 95
       25
 70
     0
 93
       50
310
00010040400000
330
0
330
0
330
37
 94
        0
  0
ACAD_PROXY_OBJECT
  5
2F
102
{ACAD_REACTORS
330
C
102
}
330
C
100
AcDbProxyObject
 90
      499
 91
      505
 95
       25
 70
     0
 93
     9400
310
478050C475249505F53545245544348805055153415645404052D4D5347202D205050413A2020206465736B746F702E6172782046696C6556657273696F6E3A20392E322E302E3401415454D05591501014B5354D1C80B481414104E88080819195CDADD1BDC0B985C9E08119A5B1955995C9CDA5BDB8E880E4B8C8B8C0B8D
310
00504554E444F805064F464653455440405184D5347202D20436F6D6D616E642043414E43454C4C45442E014151549054D16014191561511539110101461354D1C80B4810DBDB5B585B990810D05390D1531311510B805045452494D40405184D5347202D20436F6D6D616E642043414E43454C4C45442E014191561511539
310
110101461354D1C80B4810DBDB5B585B990810D05390D1531311510B805055153415645404052D4D5347202D205050413A2020206465736B746F702E6172782046696C6556657273696F6E3A20392E322E302E3401415454D05591501014B5354D1C80B481414104E88080819195CDADD1BDC0B985C9E08119A5B1955995C9
310
CDA5BDB8E880E4B8C8B8C0B8D005055153415645404052D4D5347202D205050413A2020206465736B746F702E6172782046696C6556657273696F6E3A20392E322E302E3401415454D05591501014B5354D1C80B481414104E88080819195CDADD1BDC0B985C9E08119A5B1955995C9CDA5BDB8E880E4B8C8B8C0B8D005055
310
153415645404052D4D5347202D205050413A2020206465736B746F702E6172782046696C6556657273696F6E3A20392E322E302E3401415454D05591501014B5354D1C80B481414104E88080819195CDADD1BDC0B985C9E08119A5B1955995C9CDA5BDB8E880E4B8C8B8C0B8D005055153415645404052D4D5347202D20505
310
0413A2020206465736B746F702E6172782046696C6556657273696F6E3A20392E322E302E3401415454D05591501014B5354D1C80B481414104E88080819195CDADD1BDC0B985C9E08119A5B1955995C9CDA5BDB8E880E4B8C8B8C0B8D005055153415645404052D4D5347202D205050413A2020206465736B746F702E6172
310
782046696C6556657273696F6E3A20392E322E302E3401415454D05591501014B5354D1C80B481414104E88080819195CDADD1BDC0B985C9E08119A5B1955995C9CDA5BDB8E880E4B8C8B8C0B8D005055153415645404052D4D5347202D205050413A2020206465736B746F702E6172782046696C6556657273696F6E3A203
310
92E322E302E3401415454D05591501014B5354D1C80B481414104E88080819195CDADD1BDC0B985C9E08119A5B1955995C9CDA5BDB8E880E4B8C8B8C0B8D005055153415645404052D4D5347202D205050413A2020206465736B746F702E6172782046696C6556657273696F6E3A20392E322E302E34014390535115149154
310
D15511109353D1102014213880B4815539113C05084E202D20554E444F014115539113E014115539113E0142941493D4115495125154E01411693D3D350101461354D1C80B4810DBDB5B585B990810D05390D1531311510B805055055524745805055055524745805055153415645404052D4D5347202D205050413A202020
310
6465736B746F702E6172782046696C6556657273696F6E3A20392E322E302E34
  0
ACAD_PROXY_OBJECT
  5
2E
102
{ACAD_REACTORS
330
C
102
}
330
C
100
AcDbProxyObject
 90
      499
 91
      504
 95
       25
 70
     0
 93
      586
310
09000046408000000000000000001344E200000000000000000000000000000000000000000000000000000000000000000000000000000000000000000000000000000000AAA406AA80
360
33
360
34
360
35
360
37
360
79E
360
79F
360
1623
360
1624
360
1625
360
1626
360
1627
360
1628
360
162B
360
162C
360
162D
360
162E
360
162F
360
1630
360
1631
360
1632
360
1633
360
1634
360
1635
360
1636
360
1637
360
1638
360
1639
360
163A
360
163B
360
163C
360
163D
360
163E
360
163F
360
1640
360
1641
360
1642
360
1643
360
1644
360
1652
360
1653
360
1654
360
1655
360
165B
360
165C
360
165D
360
165E
360
1663
360
1664
360
1665
360
1666
360
1667
360
1668
 94
        0
  0
ACAD_PROXY_OBJECT
  5
3B
102
{ACAD_REACTORS
330
C
102
}
330
C
100
AcDbProxyObject
 90
      499
 91
      515
 95
       25
 70
     0
 93
       50
310
09000042641280
  0
ACAD_PROXY_OBJECT
  5
32
102
{ACAD_REACTORS
330
C
102
}
330
C
100
AcDbProxyObject
 90
      499
 91
      507
 95
       25
 70
     0
 93
       48
310
903412000000
330
33
330
34
330
35
 94
        0
  0
ACAD_PROXY_OBJECT
  5
79D
102
{ACAD_REACTORS
330
C
102
}
330
C
100
AcDbProxyObject
 90
      499
 91
      507
 95
       25
 70
     0
 93
       40
310
90240E0000
330
79E
330
79F
 94
        0
  0
ACAD_PROXY_OBJECT
  5
1657
102
{ACAD_REACTORS
330
C
102
}
330
C
100
AcDbProxyObject
 90
      499
 91
      550
 95
       25
 70
     0
 93
       42
310
000900004040
330
1652
 94
        0
  0
ACAD_PROXY_OBJECT
  5
1656
102
{ACAD_REACTORS
330
C
102
}
330
C
100
AcDbProxyObject
 90
      499
 91
      507
 95
       25
 70
     0
 93
        8
310
AA
  0
ACAD_PROXY_OBJECT
  5
1647
102
{ACAD_REACTORS
330
C
102
}
330
C
100
AcDbProxyObject
 90
      499
 91
      539
 95
       25
 70
     0
 93
       42
310
000100005E80
330
1623
 94
        0
  0
DICTIONARY
  5
3F
102
{ACAD_REACTORS
330
C
102
}
330
C
100
AcDbDictionary
281
     1
  3
AcMgSettings
350
40
  3
AMGLAYCFG
350
47
  0
DICTIONARY
  5
59
102
{ACAD_REACTORS
330
C
102
}
330
C
100
AcDbDictionary
281
     1
  3
DIMENSION
350
AE3
  3
FEA
350
AE4
  3
HATCH (1)
350
AE5
  3
HATCH (2)
350
AE6
  3
SYMBOLS
350
AE7
  0
ACAD_PROXY_OBJECT
  5
164F
102
{ACAD_REACTORS
330
C
102
}
330
C
100
AcDbProxyObject
 90
      499
 91
      543
 95
       25
 70
     0
 93
       34
310
0500004280
  0
ACAD_PROXY_OBJECT
  5
165F
102
{ACAD_REACTORS
330
C
102
}
330
C
100
AcDbProxyObject
 90
      499
 91
      553
 95
       25
 70
     0
 93
       98
310
0900004E400000000000000000
330
1666
330
0
330
1667
330
0
330
0
330
0
330
0
330
0
 94
        0
  0
ACAD_PROXY_OBJECT
  5
165A
102
{ACAD_REACTORS
330
C
102
}
330
C
100
AcDbProxyObject
 90
      499
 91
      507
 95
       25
 70
     0
 93
       56
310
90441600000000
330
165B
330
165C
330
165D
330
165E
 94
        0
  0
XRECORD
  5
30B5
102
{ACAD_REACTORS
330
C
102
}
330
C
100
AcDbXrecord
280
     1
  1
DWGPROPS COOKIE
  2

  3

  4

  6

  7

  8

  9

300
AmdtFileType=82
301
=
302
=
303
=
304
=
305
=
306
=
307
=
308
=
309
=
 40
0.0
 41
2451948.235903461
 42
2455463.104438287
  1

 90
        1
  0
ACAD_PROXY_OBJECT
  5
1650
102
{ACAD_REACTORS
330
C
102
}
330
C
100
AcDbProxyObject
 90
      499
 91
      544
 95
       25
 70
     0
 93
        8
310
05
  0
DICTIONARY
  5
1605
102
{ACAD_REACTORS
330
C
102
}
330
C
100
AcDbDictionary
281
     1
  3
XREC1
350
1606
  0
DICTIONARY
  5
1833
102
{ACAD_REACTORS
330
1832
102
}
330
1832
100
AcDbDictionary
281
     1
  0
SORTENTSTABLE
  5
1DD7
102
{ACAD_REACTORS
330
10B
102
}
330
10B
100
AcDbSortentsTable
330
1F
331
183C
  5
183C
331
1B68
  5
1B68
331
1B69
  5
1B69
331
1B6A
  5
1B6A
331
1B6C
  5
1B6C
331
1B6D
  5
1B6D
331
1B6E
  5
1B6E
331
1B71
  5
1B71
331
1B74
  5
1B74
331
1B75
  5
1B75
331
1B78
  5
1B78
331
1B7C
  5
1B7C
331
1B7E
  5
1B7E
331
1B7F
  5
1B7F
331
1B82
  5
1B82
331
1B84
  5
1B84
331
1B87
  5
1B87
331
1B8B
  5
1B8B
331
1B8C
  5
1B8C
331
1B8D
  5
1B8D
331
1B8E
  5
1B8E
331
1B8F
  5
1B8F
331
1B90
  5
1B90
331
1B91
  5
1B91
331
1B92
  5
1B92
331
1B93
  5
1B93
331
1B94
  5
1B94
331
1B95
  5
1B95
331
1B96
  5
1B96
331
1B97
  5
1B97
331
1B9E
  5
1B9E
331
1BA1
  5
1BA1
331
1BA3
  5
1BA3
331
1BA7
  5
1BA7
331
1BAA
  5
1BAA
331
1BAB
  5
1BAB
331
1BAC
  5
1BAC
331
1BAD
  5
1BAD
331
1BAE
  5
1BAE
331
1BAF
  5
1BAF
331
1BB0
  5
1BB0
331
1BB1
  5
1BB1
331
1BB2
  5
1BF9
331
1BB3
  5
1C05
331
1BB4
  5
1C06
331
1BF8
  5
1C07
331
1BF9
  5
1C08
331
1C04
  5
1C09
331
1C05
  5
1C0A
331
1C06
  5
1C0B
331
1C07
  5
1C28
331
1C08
  5
1C29
331
1C09
  5
1C2A
331
1C0A
  5
1C2B
331
1C0B
  5
1C2C
331
1C28
  5
1C2D
331
1C29
  5
1C2E
331
1C2A
  5
1C2F
331
1C2B
  5
1C30
331
1C2C
  5
1C31
331
1C2D
  5
1C66
331
1C2E
  5
1C67
331
1C2F
  5
1C68
331
1C30
  5
1C69
331
1C31
  5
1C70
331
1C66
  5
1C7A
331
1C67
  5
1C7B
331
1C68
  5
1C7C
331
1C69
  5
1C7D
331
1C70
  5
1C80
331
1C7A
  5
1C81
331
1C7B
  5
1C82
331
1C7C
  5
1C83
331
1C7D
  5
1C84
331
1C80
  5
1C85
331
1C81
  5
1C86
331
1C82
  5
1C87
331
1C83
  5
1C88
331
1C84
  5
1C89
331
1C85
  5
1C8A
331
1C86
  5
1C8B
331
1C87
  5
1C8C
331
1C88
  5
1C8D
331
1C89
  5
1C8E
331
1C8A
  5
1C8F
331
1C8B
  5
1C90
331
1C8C
  5
1C91
331
1C8D
  5
1C92
331
1C8E
  5
1C93
331
1C8F
  5
1C94
331
1C90
  5
1C95
331
1C91
  5
1C98
331
1C92
  5
1C99
331
1C93
  5
1C9A
331
1C94
  5
1C9B
331
1C95
  5
1C9C
331
1C98
  5
1C9D
331
1C99
  5
1C9E
331
1C9A
  5
1C9F
331
1C9B
  5
1CA0
331
1C9C
  5
1CA1
331
1C9D
  5
1CA2
331
1C9E
  5
1CA3
331
1C9F
  5
1CA4
331
1CA0
  5
1CA5
331
1CA1
  5
1CA6
331
1CA2
  5
1CA7
331
1CA3
  5
1CA8
331
1CA4
  5
1CA9
331
1CA5
  5
1CAA
331
1CA6
  5
1CAB
331
1CA7
  5
1CAC
331
1CA8
  5
1CAD
331
1CA9
  5
1D20
331
1CAA
  5
1D21
331
1CAB
  5
1D23
331
1CAC
  5
1D24
331
1CAD
  5
1D25
331
1D20
  5
1D26
331
1D21
  5
1D27
331
1D23
  5
1D28
331
1D24
  5
1D29
331
1D25
  5
1D2A
331
1D26
  5
1D2E
331
1D27
  5
1D39
331
1D28
  5
1D3A
331
1D29
  5
1D3B
331
1D2A
  5
1D3C
331
1D2E
  5
1D3D
331
1D39
  5
1D3E
331
1D3A
  5
1D3F
331
1D3B
  5
1D42
331
1D3C
  5
1D43
331
1D3D
  5
1D48
331
1D3E
  5
1D49
331
1D3F
  5
1D4A
331
1D42
  5
1D4B
331
1D43
  5
1D4D
331
1D48
  5
1D4E
331
1D49
  5
1D50
331
1D4A
  5
1D51
331
1D4B
  5
1D52
331
1D4D
  5
1D53
331
1D4E
  5
1D54
331
1D50
  5
1D55
331
1D51
  5
1D93
331
1D52
  5
1DD6
331
1D53
  5
1DFA
331
1D54
  5
1DFB
331
1D55
  5
1E12
331
1D93
  5
1E54
331
1DD6
  5
1E6C
331
1DFB
  5
1F03
331
1E14
  5
1F2C
331
1E54
  5
1F2D
331
1F03
  5
2370
331
1F2C
  5
2371
331
2265
  5
1C04
331
2370
  5
2373
331
2373
  5
2376
331
2374
  5
2377
331
2377
  5
2379
331
2378
  5
237A
331
2379
  5
237E
331
237A
  5
2380
331
237E
  5
2381
331
2380
  5
2382
331
2381
  5
2383
331
2382
  5
2384
331
2383
  5
2385
331
2384
  5
2386
331
2385
  5
238A
331
2386
  5
238B
331
238A
  5
238D
331
238B
  5
238E
331
238D
  5
238F
331
238E
  5
2390
331
238F
  5
2391
331
2390
  5
2392
331
2391
  5
2393
331
2392
  5
2394
331
2393
  5
2395
331
2394
  5
2396
331
2395
  5
239C
331
2396
  5
239D
331
239C
  5
239F
331
239D
  5
23A0
331
239F
  5
23A1
331
23A0
  5
23A2
331
23A1
  5
23A4
331
23A2
  5
23A5
331
23A4
  5
23A6
331
23A5
  5
23A7
331
23A6
  5
23A8
331
23A7
  5
23A9
331
23A8
  5
23AA
331
23A9
  5
23AB
331
23AA
  5
23AE
331
23AB
  5
23AF
331
23AE
  5
23B0
331
23AF
  5
23B1
331
23B0
  5
23B2
331
23B1
  5
23B3
331
23B2
  5
23B4
331
23B3
  5
23B5
331
23B4
  5
23B6
331
23B5
  5
23B7
331
23B6
  5
23B8
331
23B7
  5
23B9
331
23B8
  5
23BA
331
23B9
  5
23BD
331
23BA
  5
23BE
331
23BD
  5
23BF
331
23BE
  5
23C0
331
23C1
  5
23C3
331
23C2
  5
23C4
331
23C3
  5
23C5
331
23C4
  5
23C6
331
23C5
  5
23C7
331
23C6
  5
23C8
331
23C7
  5
23C9
331
23C8
  5
23CA
331
23C9
  5
23CB
331
23CA
  5
23CC
331
23CB
  5
23CD
331
23CC
  5
23CE
331
23CD
  5
23CF
331
23CE
  5
23D0
331
23CF
  5
23D1
331
23D0
  5
23D2
331
23D1
  5
23D3
331
23D2
  5
23D4
331
23D3
  5
23D5
331
23D4
  5
23D6
331
23D5
  5
23D7
331
23D6
  5
23D8
331
23D7
  5
23F1
331
23D8
  5
23F2
331
23F1
  5
23F3
331
23F2
  5
23F4
331
23F3
  5
23F5
331
23F4
  5
23F6
331
23F5
  5
2409
331
23F6
  5
240A
331
2409
  5
2411
331
240A
  5
2412
331
2411
  5
2413
331
2412
  5
2414
331
2413
  5
2415
331
2414
  5
2416
331
2415
  5
2417
331
2416
  5
2418
331
2417
  5
2419
331
2418
  5
241A
331
2419
  5
2421
331
241A
  5
2422
331
2421
  5
2427
331
2422
  5
242C
331
2427
  5
242D
331
242C
  5
242E
331
242D
  5
242F
331
242E
  5
2430
331
242F
  5
2431
331
2430
  5
2432
331
2431
  5
2433
331
2432
  5
2434
331
2433
  5
2435
331
2434
  5
2436
331
2435
  5
2437
331
2436
  5
2438
331
2437
  5
243E
331
2438
  5
243F
331
243E
  5
2442
331
243F
  5
2443
331
2442
  5
2444
331
2443
  5
2445
331
2444
  5
2446
331
2445
  5
2447
331
2446
  5
2448
331
2447
  5
2449
331
2448
  5
244A
331
2449
  5
244B
331
244A
  5
244C
331
244B
  5
244D
331
244C
  5
2450
331
244D
  5
2451
331
2450
  5
2452
331
2451
  5
2453
331
2452
  5
2456
331
2453
  5
2457
331
2456
  5
2459
331
2457
  5
245A
331
2459
  5
245B
331
245A
  5
245D
331
245B
  5
245E
331
245D
  5
2462
331
245E
  5
2463
331
2462
  5
26BD
331
2463
  5
26BE
331
26BD
  5
26C1
331
26BE
  5
26C2
331
26C1
  5
26C3
331
26C2
  5
26C4
331
26C3
  5
26C5
331
26C4
  5
26C6
331
26C5
  5
26CC
331
26C6
  5
26DD
331
26CC
  5
26DE
331
26DD
  5
26DF
331
26DE
  5
26E0
331
26DF
  5
26E3
331
26E0
  5
26E4
331
26E3
  5
26E7
331
26E4
  5
26E8
331
26E7
  5
26E9
331
26E8
  5
26EA
331
26E9
  5
26EB
331
26EA
  5
26EC
331
26EB
  5
26F0
331
26EC
  5
279B
331
26F0
  5
279C
331
279B
  5
279D
331
279C
  5
27B5
331
279D
  5
27B6
331
27B5
  5
27B7
331
27B6
  5
28C3
331
27B7
  5
28C4
331
29C0
  5
29C2
331
29C1
  5
29C3
331
29C2
  5
29C4
331
29C3
  5
29C5
331
29C4
  5
29C6
331
29C5
  5
29C7
331
29C6
  5
29C8
331
29C7
  5
29C9
331
29C8
  5
29CA
331
29C9
  5
29CB
331
29CA
  5
29CC
331
29CB
  5
29CD
331
29CC
  5
29CE
331
29CD
  5
29CF
331
29CE
  5
29D0
331
29CF
  5
29D1
331
29D0
  5
29D2
331
29D1
  5
29D3
331
29D2
  5
29D4
331
29D3
  5
29D5
331
29D4
  5
29D6
331
29D5
  5
29D7
331
29D6
  5
29D8
331
29D7
  5
29D9
331
29D8
  5
29DA
331
29D9
  5
29DB
331
29DA
  5
29E2
331
29DB
  5
29E3
331
29E2
  5
29E4
331
29E3
  5
29E5
331
29E4
  5
29E6
331
29E5
  5
29E7
331
29E6
  5
29EE
331
29E7
  5
29EF
331
29EE
  5
29F5
331
29EF
  5
29F6
331
29F5
  5
29F7
331
29F6
  5
29F8
331
29F7
  5
29F9
331
29F8
  5
29FA
331
29F9
  5
29FB
331
29FA
  5
29FC
331
29FB
  5
29FD
331
29FC
  5
29FE
331
29FD
  5
29FF
331
29FE
  5
2A00
331
29FF
  5
2A01
331
2A00
  5
2A70
331
2A01
  5
2AA5
331
2A70
  5
2B08
331
2AA5
  5
2B09
331
2B08
  5
2B1C
331
2B09
  5
2C4C
331
2B1C
  5
2C4D
331
2C4C
  5
2C4E
331
2C4D
  5
2C4F
331
2C4E
  5
2C50
331
2C4F
  5
2C51
331
2C50
  5
2C52
331
2C51
  5
2C53
331
2C53
  5
2C55
331
2C54
  5
2C56
331
2C56
  5
2C58
331
2C57
  5
2C59
331
2C58
  5
2C5A
331
2C5A
  5
2C5C
331
2C5B
  5
2C5D
331
2C5C
  5
2C5E
331
2C5D
  5
2C5F
331
2C5E
  5
2C60
331
2C5F
  5
2C61
331
2C60
  5
2C62
331
2C61
  5
2C64
331
2C64
  5
2C66
331
2C65
  5
2C67
331
2C66
  5
2C68
331
2C67
  5
2C69
331
2C68
  5
2C6A
331
2C69
  5
2C6B
331
2C6A
  5
2C6C
331
2C6B
  5
2C6D
331
2C6C
  5
2C6E
331
2C6D
  5
2C70
331
2C6E
  5
2C71
331
2C70
  5
2C74
331
2C71
  5
2C75
331
2C74
  5
2C78
331
2C75
  5
2C79
331
2C78
  5
2C7A
331
2C79
  5
2C7B
331
2C7A
  5
2C7C
331
2C7B
  5
2C7E
331
2C7C
  5
2C7F
331
2C7E
  5
2C80
331
2C7F
  5
2C81
331
2C80
  5
2C82
331
2C81
  5
2C85
331
2C82
  5
2C86
331
2C85
  5
2C87
331
2C86
  5
2C88
331
2C87
  5
2C89
331
2C88
  5
2C8A
331
2C89
  5
2C8B
331
2C8A
  5
2C8C
331
2C8B
  5
2C8D
331
2C8C
  5
2C8E
331
2C8D
  5
2C8F
331
2C8E
  5
2C90
331
2C8F
  5
2C91
331
2C90
  5
2C92
331
2C91
  5
2C93
331
2C92
  5
2C94
331
2C93
  5
2C95
331
2C94
  5
2C96
331
2C95
  5
2C97
331
2C96
  5
2C98
331
2C97
  5
2C99
331
2C98
  5
2C9A
331
2C99
  5
2C9B
331
2C9A
  5
2C9C
331
2C9B
  5
2C9D
331
2C9C
  5
2C9E
331
2C9D
  5
2C9F
331
2C9E
  5
2CA0
331
2C9F
  5
2CA1
331
2CA0
  5
2CA2
331
2CA1
  5
2CA3
331
2CA2
  5
2CA4
331
2CA3
  5
2CA5
331
2CA4
  5
2CA7
331
2CA5
  5
2CA8
331
2CA7
  5
2CAA
331
2CA8
  5
2CAC
331
2CAA
  5
2CAD
331
2CAC
  5
2CAE
331
2CAD
  5
2CAF
331
2CAE
  5
2CB1
331
2CAF
  5
2CB2
331
2CB2
  5
2CC4
331
2CB3
  5
2CC5
331
2CC4
  5
2CC6
331
2CC5
  5
2CC7
331
2CC6
  5
2CC8
331
2CC7
  5
2CC9
331
2CC8
  5
2CCA
331
2CC9
  5
2CCB
331
2CCA
  5
2CCC
331
2CCB
  5
2CCD
331
2CCC
  5
2CCE
331
2CCD
  5
2CCF
331
2CCE
  5
2CD9
331
2CCF
  5
2CDB
331
2CD9
  5
2CDC
331
2CDB
  5
2CDD
331
2CDC
  5
2CDE
331
2CDD
  5
2CDF
331
2CDE
  5
2D11
331
2CDF
  5
2D12
331
2D11
  5
2D13
331
2D12
  5
2D14
331
2D13
  5
2D15
331
2D14
  5
2D16
331
2D15
  5
2D17
331
2D16
  5
2D18
331
2D17
  5
2D19
331
2D18
  5
2D1A
331
2D19
  5
2D1F
331
2D1A
  5
2D20
331
2D1F
  5
2D21
331
2D20
  5
2D22
331
2D21
  5
2D23
331
2D22
  5
2D2A
331
2D23
  5
2D2C
331
2D2A
  5
2D31
331
2D2C
  5
2D32
331
2D31
  5
2D33
331
2D32
  5
2D38
331
2D33
  5
2D3C
331
2D38
  5
2D3F
331
2D3C
  5
2D41
331
2D3F
  5
2D42
331
2D41
  5
2D43
331
2D42
  5
2D44
331
2D43
  5
2D45
331
2D44
  5
2D46
331
2D45
  5
2D47
331
2D46
  5
2D48
331
2D47
  5
2D49
331
2D48
  5
2D4A
331
2D49
  5
2D4B
331
2D4A
  5
2D4C
331
2D4B
  5
2D4D
331
2D4C
  5
2D4E
331
2D4D
  5
2D4F
331
2D4E
  5
2D50
331
2D4F
  5
2D51
331
2D50
  5
2D52
331
2D51
  5
2D53
331
2D52
  5
2D54
331
2D53
  5
2D55
331
2D54
  5
2D56
331
2D55
  5
2D57
331
2D56
  5
2D58
331
2D57
  5
2D59
331
2D58
  5
2D5C
331
2D59
  5
2D5D
331
2D5C
  5
2D5E
331
2D5D
  5
2D5F
331
2D5E
  5
2D67
331
2D5F
  5
2D68
331
2D67
  5
2D69
331
2D68
  5
2D6A
331
2D69
  5
2D6B
331
2D6A
  5
2D6C
331
2D6B
  5
2D6D
331
2D6C
  5
2D91
331
2D6D
  5
2D92
331
2D91
  5
1BF8
331
2D92
  5
1BB3
331
2DC3
  5
2E39
331
2DC4
  5
2E3A
331
2DC5
  5
2E3B
331
2E3B
  5
2E38
331
2E62
  5
2E62
331
3042
  5
307D
331
307D
  5
3042
  0
SORTENTSTABLE
  5
2E5E
102
{ACAD_REACTORS
330
2E5D
102
}
330
2E5D
100
AcDbSortentsTable
330
2E58
  0
LAYOUT
  5
22
102
{ACAD_REACTORS
330
1A
102
}
330
1A
100
AcDbPlotSettings
  1

  2
SII LP-2150 (D-SCAN C2)
  4
User118
  6
AM_VIEW1
 40
3.174999952316284
 41
3.174999952316284
 42
3.17498779296875
 43
3.17498779296875
 44
296.9259948730469
 45
419.9889831542969
 46
0.0
 47
0.0
 48
0.0
 49
0.0
140
423.0
141
300.0
142
1.0
143
1.03243210946902
 70
 11952
 72
     1
 73
     1
 74
     4
  7
sei_cad.ctb
 75
     0
147
0.9685866904258728
148
0.0
149
0.0
100
AcDbLayout
  1
Model
 70
     1
 71
     0
 10
0.0
 20
0.0
 11
12.0
 21
9.0
 12
0.0
 22
0.0
 32
0.0
 14
0.0
 24
0.0
 34
0.0
 15
0.0
 25
0.0
 35
0.0
146
0.0
 13
0.0
 23
0.0
 33
0.0
 16
1.0
 26
0.0
 36
0.0
 17
0.0
 27
1.0
 37
0.0
 76
     0
330
1F
  0
LAYOUT
  5
1E
102
{ACAD_REACTORS
330
1A
102
}
330
1A
100
AcDbPlotSettings
  1

  2
SII LP-2150 (D-SCAN C2)
  4

  6

 40
0.0
 41
0.0
 42
0.0
 43
0.0
 44
0.0
 45
0.0
 46
0.0
 47
0.0
 48
0.0
 49
0.0
140
0.0
141
0.0
142
1.0
143
1.0
 70
   688
 72
     0
 73
     0
 74
     5
  7
sei_cad.ctb
 75
    16
147
1.0
148
0.0
149
0.0
100
AcDbLayout
  1
ﾚｲｱｳﾄ1
 70
     1
 71
     1
 10
0.0
 20
0.0
 11
420.0
 21
297.0
 12
0.0
 22
0.0
 32
0.0
 14
1.000000000000000E+20
 24
1.000000000000000E+20
 34
1.000000000000000E+20
 15
-1.000000000000000E+20
 25
-1.000000000000000E+20
 35
-1.000000000000000E+20
146
0.0
 13
0.0
 23
0.0
 33
0.0
 16
1.0
 26
0.0
 36
0.0
 17
0.0
 27
1.0
 37
0.0
 76
     0
330
1B
  0
LAYOUT
  5
26
102
{ACAD_REACTORS
330
1A
102
}
330
1A
100
AcDbPlotSettings
  1

  2
SII LP-2150 (D-SCAN C2)
  4

  6

 40
0.0
 41
0.0
 42
0.0
 43
0.0
 44
0.0
 45
0.0
 46
0.0
 47
0.0
 48
0.0
 49
0.0
140
0.0
141
0.0
142
1.0
143
1.0
 70
   688
 72
     0
 73
     0
 74
     5
  7
sei_cad.ctb
 75
    16
147
1.0
148
0.0
149
0.0
100
AcDbLayout
  1
ﾚｲｱｳﾄ2
 70
     1
 71
     2
 10
0.0
 20
0.0
 11
12.0
 21
9.0
 12
0.0
 22
0.0
 32
0.0
 14
0.0
 24
0.0
 34
0.0
 15
0.0
 25
0.0
 35
0.0
146
0.0
 13
0.0
 23
0.0
 33
0.0
 16
1.0
 26
0.0
 36
0.0
 17
0.0
 27
1.0
 37
0.0
 76
     0
330
23
  0
MLINESTYLE
  5
18
102
{ACAD_REACTORS
330
17
102
}
330
17
100
AcDbMlineStyle
  2
STANDARD
 70
     0
  3

 62
   256
 51
90.0
 52
90.0
 71
     2
 49
0.5
 62
   256
  6
BYLAYER
 49
-0.5
 62
   256
  6
BYLAYER
  0
ACDBPLACEHOLDER
  5
F
102
{ACAD_REACTORS
330
E
102
}
330
E
  0
TABLESTYLE
  5
1613
102
{ACAD_REACTORS
330
1612
102
}
330
1612
100
AcDbTableStyle
  3
Standard
 70
     0
 71
     8
 40
1.5
 41
1.5
280
     0
281
     0
  7
STANDARD
140
4.5
170
     2
 62
     0
 63
     7
283
     0
274
    -2
284
     1
 64
     0
275
    -2
285
     1
 65
     0
276
    -2
286
     1
 66
     0
277
    -2
287
     1
 67
     0
278
    -2
288
     1
 68
     0
279
    -2
289
     1
 69
     0
  7
STANDARD
140
6.0
170
     5
 62
     0
 63
     7
283
     0
274
    -2
284
     1
 64
     0
275
    -2
285
     1
 65
     0
276
    -2
286
     1
 66
     0
277
    -2
287
     1
 67
     0
278
    -2
288
     1
 68
     0
279
    -2
289
     1
 69
     0
  7
STANDARD
140
4.5
170
     5
 62
     0
 63
     7
283
     0
274
    -2
284
     1
 64
     0
275
    -2
285
     1
 65
     0
276
    -2
286
     1
 66
     0
277
    -2
287
     1
 67
     0
278
    -2
288
     1
 68
     0
279
    -2
289
     1
 69
     0
  0
XRECORD
  5
30B3
102
{ACAD_REACTORS
330
30B2
102
}
330
30B2
100
AcDbXrecord
280
     1
340
1611
  0
XRECORD
  5
30B4
102
{ACAD_REACTORS
330
30B2
102
}
330
30B2
100
AcDbXrecord
280
     1
340
1610
  0
DICTIONARYVAR
  5
1684
102
{ACAD_REACTORS
330
30
102
}
330
30
100
DictionaryVariables
280
     0
  1
STANDARD
  0
DICTIONARYVAR
  5
30B0
102
{ACAD_REACTORS
330
30
102
}
330
30
100
DictionaryVariables
280
     0
  1
1
  0
DICTIONARYVAR
  5
30B1
102
{ACAD_REACTORS
330
30
102
}
330
30
100
DictionaryVariables
280
     0
  1
0
  0
DICTIONARYVAR
  5
31
102
{ACAD_REACTORS
330
30
102
}
330
30
100
DictionaryVariables
280
     0
  1
1
  0
ACAD_PROXY_OBJECT
  5
44
102
{ACAD_REACTORS
330
43
102
}
330
43
100
AcDbProxyObject
 90
      499
 91
      519
 95
       25
 70
     0
 93
      118
310
405010040CA904C415CD5B075DD0F8
350
45
 94
        0
  0
DICTIONARY
  5
7A0
102
{ACAD_REACTORS
330
43
102
}
330
43
100
AcDbDictionary
281
     1
  3
ANSI
350
1B45
  3
JIS
350
7A1
  0
XRECORD
  5
166D
102
{ACAD_REACTORS
330
43
102
}
330
43
100
AcDbXrecord
280
     1
 90
-1023410169
  0
ACAD_PROXY_OBJECT
  5
33
330
2E
100
AcDbProxyObject
 90
      499
 91
      508
 95
       25
 70
     0
 93
      156
310
00010143D050D351505391D5531054925390D490
330
2E
 94
        0
  0
ACAD_PROXY_OBJECT
  5
34
330
2E
100
AcDbProxyObject
 90
      499
 91
      508
 95
       25
 70
     0
 93
      148
310
000101439050D351531253915054925390D490
330
2E
 94
        0
  0
ACAD_PROXY_OBJECT
  5
35
330
2E
100
AcDbProxyObject
 90
      499
 91
      509
 95
       25
 70
     0
 93
      156
310
000101439050D35154D6535093D314D256915080
330
2E
 94
        0
  0
ACAD_PROXY_OBJECT
  5
37
330
2E
100
AcDbProxyObject
 90
      499
 91
      511
 95
       25
 70
     0
 93
       88
310
000101411093D34C402B00
330
2E
330
0
330
0
 94
        0
  0
ACAD_PROXY_OBJECT
  5
79E
330
2E
100
AcDbProxyObject
 90
      499
 91
      509
 95
       25
 70
     0
 93
      108
310
00010142505351D153D35054D4E0
330
2E
 94
        0
  0
ACAD_PROXY_OBJECT
  5
79F
330
2E
100
AcDbProxyObject
 90
      499
 91
      525
 95
       25
 70
     0
 93
      140
310
00010142105350D55494D511005034A49530
330
2E
 94
        0
  0
ACAD_PROXY_OBJECT
  5
1623
330
2E
100
AcDbProxyObject
 90
      499
 91
      535
 95
       25
 70
     0
 93
      358
310
0001014124FEA55D00507392E322E302E32014124FEA55D00507392E322E302E3240501000041505391D311658
330
2E
330
1624
330
162A
 94
        0
  0
ACAD_PROXY_OBJECT
  5
1624
330
2E
100
AcDbProxyObject
 90
      499
 91
      536
 95
       25
 70
     0
 93
       56
310
000190240E0000
330
2E
330
1625
330
1627
 94
        0
  0
ACAD_PROXY_OBJECT
  5
1625
330
2E
100
AcDbProxyObject
 90
      499
 91
      537
 95
       25
 70
     0
 93
       48
310
0001AA000000
330
2E
330
1E
330
1626
330
0
 94
        0
  0
ACAD_PROXY_OBJECT
  5
1626
330
2E
100
AcDbProxyObject
 90
      499
 91
      538
 95
       25
 70
     0
 93
       28
310
0001AAA0
330
2E
 94
        0
  0
ACAD_PROXY_OBJECT
  5
1627
330
2E
100
AcDbProxyObject
 90
      499
 91
      537
 95
       25
 70
     0
 93
       48
310
0001AA000000
330
2E
330
26
330
1628
330
0
 94
        0
  0
ACAD_PROXY_OBJECT
  5
1628
330
2E
100
AcDbProxyObject
 90
      499
 91
      538
 95
       25
 70
     0
 93
       28
310
0001AAA0
330
2E
 94
        0
  0
ACAD_PROXY_OBJECT
  5
162B
330
2E
100
AcDbProxyObject
 90
      499
 91
      509
 95
       25
 70
     0
 93
      108
310
000101421053521310D05310D010
330
2E
 94
        0
  0
ACAD_PROXY_OBJECT
  5
162C
330
2E
100
AcDbProxyObject
 90
      499
 91
      509
 95
       25
 70
     0
 93
      124
310
00010142905354915554D15112535010
330
2E
 94
        0
  0
ACAD_PROXY_OBJECT
  5
162D
330
2E
100
AcDbProxyObject
 90
      499
 91
      509
 95
       25
 70
     0
 93
      132
310
00010143105354D150D51253D391125360
330
2E
 94
        0
  0
ACAD_PROXY_OBJECT
  5
162E
330
2E
100
AcDbProxyObject
 90
      499
 91
      509
 95
       25
 70
     0
 93
      124
310
00010142905355941093D49111549010
330
2E
 94
        0
  0
ACAD_PROXY_OBJECT
  5
162F
330
2E
100
AcDbProxyObject
 90
      499
 91
      509
 95
       25
 70
     0
 93
      116
310
0001014290535115D1D0D3D313D4A0
330
2E
 94
        0
  0
ACAD_PROXY_OBJECT
  5
1630
330
2E
100
AcDbProxyObject
 90
      499
 91
      509
 95
       25
 70
     0
 93
      148
310
00010143505355925155D49151949154D21010
330
2E
 94
        0
  0
ACAD_PROXY_OBJECT
  5
1631
330
2E
100
AcDbProxyObject
 90
      499
 91
      509
 95
       25
 70
     0
 93
      172
310
00010144105350539393D51154149154D15495915010
330
2E
 94
        0
  0
ACAD_PROXY_OBJECT
  5
1632
330
2E
100
AcDbProxyObject
 90
      499
 91
      509
 95
       25
 70
     0
 93
      172
310
00010144105350555513D11253505494905391D15010
330
2E
 94
        0
  0
ACAD_PROXY_OBJECT
  5
1633
330
2E
100
AcDbProxyObject
 90
      499
 91
      509
 95
       25
 70
     0
 93
      124
310
00010142D05351561514915191125360
330
2E
 94
        0
  0
ACAD_PROXY_OBJECT
  5
1634
330
2E
100
AcDbProxyObject
 90
      499
 91
      509
 95
       25
 70
     0
 93
      132
310
00010142D05355105410539393D5115010
330
2E
 94
        0
  0
ACAD_PROXY_OBJECT
  5
1635
330
2E
100
AcDbProxyObject
 90
      499
 91
      509
 95
       25
 70
     0
 93
      108
310
00010142105350555513D0D31010
330
2E
 94
        0
  0
ACAD_PROXY_OBJECT
  5
1636
330
2E
100
AcDbProxyObject
 90
      499
 91
      509
 95
       25
 70
     0
 93
      108
310
00010142105350D3119150551050
330
2E
 94
        0
  0
ACAD_PROXY_OBJECT
  5
1637
330
2E
100
AcDbProxyObject
 90
      499
 91
      509
 95
       25
 70
     0
 93
      108
310
00010142105350D315925155D3F0
330
2E
 94
        0
  0
ACAD_PROXY_OBJECT
  5
1638
330
2E
100
AcDbProxyObject
 90
      499
 91
      509
 95
       25
 70
     0
 93
      148
310
0001014350535212511156915493D112535010
330
2E
 94
        0
  0
ACAD_PROXY_OBJECT
  5
1639
330
2E
100
AcDbProxyObject
 90
      499
 91
      509
 95
       25
 70
     0
 93
      124
310
00010142905352105510D21254D3D010
330
2E
 94
        0
  0
ACAD_PROXY_OBJECT
  5
163A
330
2E
100
AcDbProxyObject
 90
      499
 91
      509
 95
       25
 70
     0
 93
      148
310
00010143905354D25391D31152105513105660
330
2E
 94
        0
  0
ACAD_PROXY_OBJECT
  5
163B
330
2E
100
AcDbProxyObject
 90
      499
 91
      509
 95
       25
 70
     0
 93
      124
310
00010142D0535115D1D193111254D420
330
2E
 94
        0
  0
ACAD_PROXY_OBJECT
  5
163C
330
2E
100
AcDbProxyObject
 90
      499
 91
      509
 95
       25
 70
     0
 93
      100
310
00010142105350555513D213A0
330
2E
 94
        0
  0
ACAD_PROXY_OBJECT
  5
163D
330
2E
100
AcDbProxyObject
 90
      499
 91
      509
 95
       25
 70
     0
 93
      116
310
000101425053521390D3D553951010
330
2E
 94
        0
  0
ACAD_PROXY_OBJECT
  5
163E
330
2E
100
AcDbProxyObject
 90
      499
 91
      509
 95
       25
 70
     0
 93
      108
310
0001014210535213941493D29010
330
2E
 94
        0
  0
ACAD_PROXY_OBJECT
  5
163F
330
2E
100
AcDbProxyObject
 90
      499
 91
      509
 95
       25
 70
     0
 93
      108
310
0001014210535213951654115070
330
2E
 94
        0
  0
ACAD_PROXY_OBJECT
  5
1640
330
2E
100
AcDbProxyObject
 90
      499
 91
      509
 95
       25
 70
     0
 93
      108
310
000101421053521395925155D0F0
330
2E
 94
        0
  0
ACAD_PROXY_OBJECT
  5
1641
330
2E
100
AcDbProxyObject
 90
      499
 91
      509
 95
       25
 70
     0
 93
      140
310
00010143505354D150D51253D390D3D41660
330
2E
 94
        0
  0
ACAD_PROXY_OBJECT
  5
1642
330
2E
100
AcDbProxyObject
 90
      499
 91
      509
 95
       25
 70
     0
 93
      108
310
00010142105350D3141493D29030
330
2E
 94
        0
  0
ACAD_PROXY_OBJECT
  5
1643
330
2E
100
AcDbProxyObject
 90
      499
 91
      508
 95
       25
 70
     0
 93
      212
310
00010143905350555513D2105510D21493D500000000000002E400
330
2E
 94
        0
  0
ACAD_PROXY_OBJECT
  5
1644
330
2E
100
AcDbProxyObject
 90
      499
 91
      509
 95
       25
 70
     0
 93
      156
310
00010143905350555513D2105510D21111551010
330
2E
 94
        0
  0
ACAD_PROXY_OBJECT
  5
1652
330
2E
100
AcDbProxyObject
 90
      499
 91
      546
 95
       25
 70
     0
 93
      698
310
0001000000009AA6A9AA4051E547565204175672032342030343A33343A353120323031302028555443290141CE4B8C8B8C0B8C80518546875205365702032332031313A33303A323320323031300141CE4B8C8B8C0B8C80
330
2E
330
1653
330
1654
330
1656
330
0
 94
        0
  0
ACAD_PROXY_OBJECT
  5
1653
330
2E
100
AcDbProxyObject
 90
      499
 91
      547
 95
       25
 70
     0
 93
       70
310
0001AAA80820000000
330
2E
330
1653
330
1653
 94
        0
  0
ACAD_PROXY_OBJECT
  5
1654
330
2E
100
AcDbProxyObject
 90
      499
 91
      548
 95
       25
 70
     0
 93
       48
310
000100000000
330
2E
330
0
330
1655
330
0
330
0
 94
        0
  0
ACAD_PROXY_OBJECT
  5
1655
330
2E
100
AcDbProxyObject
 90
      499
 91
      549
 95
       25
 70
     0
 93
       40
310
000100AAAA
330
2E
330
0
 94
        0
  0
ACAD_PROXY_OBJECT
  5
165B
330
2E
100
AcDbProxyObject
 90
      499
 91
      525
 95
       25
 70
     0
 93
      180
310
00010143105050D3D35411119390535140504434F4D500
330
2E
 94
        0
  0
ACAD_PROXY_OBJECT
  5
165C
330
2E
100
AcDbProxyObject
 90
      499
 91
      525
 95
       25
 70
     0
 93
      212
310
0001014390505193D311115491119390535140506466F6C6465720
330
2E
 94
        0
  0
ACAD_PROXY_OBJECT
  5
165D
330
2E
100
AcDbProxyObject
 90
      499
 91
      525
 95
       25
 70
     0
 93
      180
310
00010143105050539393D1119390535140504284156290
330
2E
 94
        0
  0
ACAD_PROXY_OBJECT
  5
165E
330
2E
100
AcDbProxyObject
 90
      499
 91
      525
 95
       25
 70
     0
 93
      436
310
00010143905050D3D35415925155D31254D50052295BD96CA0A90B396CA0A894591A496CA0A8DB691A496CA0A89BA96CA0A95E28F95310
330
2E
 94
        0
  0
ACAD_PROXY_OBJECT
  5
1663
330
2E
100
AcDbProxyObject
 90
      499
 91
      554
 95
       25
 70
     0
 93
       32
310
00010000
330
2E
340
1660
330
1665
330
1660
 94
        0
  0
ACAD_PROXY_OBJECT
  5
1664
330
2E
100
AcDbProxyObject
 90
      499
 91
      555
 95
       25
 70
     0
 93
       18
310
000180
330
2E
 94
        0
  0
ACAD_PROXY_OBJECT
  5
1665
330
2E
100
AcDbProxyObject
 90
      499
 91
      556
 95
       25
 70
     0
 93
      162
310
0001014251940C4C548B4D0D505050055401550000
330
2E
330
1663
330
1664
 94
        0
  0
ACAD_PROXY_OBJECT
  5
1666
330
2E
100
AcDbProxyObject
 90
      499
 91
      557
 95
       25
 70
     0
 93
      178
310
000100AAAAAAA1B6EE4AC073CF9060D2ADEC7D6EDDF840
330
2E
330
1665
 94
        0
  0
ACAD_PROXY_OBJECT
  5
1667
330
2E
100
AcDbProxyObject
 90
      499
 91
      558
 95
       25
 70
     0
 93
      108
310
000190140A000000000000AAAAA0
330
2E
330
1668
330
1668
330
1668
330
1668
330
1668
330
0
 94
        0
  0
ACAD_PROXY_OBJECT
  5
1668
330
2E
100
AcDbProxyObject
 90
      499
 91
      559
 95
       25
 70
     0
 93
       51
310
00010000AAAA80
330
2E
330
1667
330
1665
 94
        0
  0
DICTIONARY
  5
40
102
{ACAD_REACTORS
330
3F
102
}
330
3F
100
AcDbDictionary
281
     1
  3
DWGSETTINGS
350
41
  3
FEM
350
54
  3
Shaft
350
53
  3
TRANSSETTINGS
350
42
  0
ACAD_PROXY_OBJECT
  5
47
102
{ACAD_REACTORS
330
3F
102
}
330
3F
100
AcDbProxyObject
 90
      499
 91
      521
 95
       25
 70
     0
 93
    23232
310
41502491013041105357CC201C00030C011E441013141105357CC603800030C011E441013241105357CCA01400030C011E441013341105357CCE01800030C010D9013441105357CD200C00030C010D9013541105357CD600C00030C010D9013641105357CDA00800030C011E9013741105357CDE01000030C010D901384110
310
5357CE200400030C011E9013941105357CE63F400030C0241102324141505357CC4C201C00030C011E902344141505357CC4C600C00030C010D902495041505357CC4CA01C00030C011E40902304E41505357CC13A01C00030C011E902314E41505357CC53A03800030C011E902324E41505357CC93A01400030C011E90233
310
4E41505357CCD3A01800030C010D902344E41505357CD13A00C00030C010D902354E41505357CD53A00C00030C010D902364E41505357CD93A00800030C011E902374E41505357CDD3A01000030C010D902384E41505357CE13A00400030C011E902394E41505357CE53A3F400030C024110332414E41905357CC4C13A01C0
310
0030C011E90334414E41905357CC4C53A00C00030C010D90349504E41905357CC4C93A01C00030C011E409044B4C494E41505357D0D3200400030C011E42504494E464F42105357D410549151A01000030C010D42D055241484D3541905357D093D4A01C00030C011E425045649455742105357D5925155D4E00400030C011
310
E42D06424548494E4441905357D25395A3F400030C0243505545241494C41505357D514A00C00030C010D4250348494441905357D21251201C00030C011E4250356495341905357D59254E01C00030C011E4250650415244494D42505357D41054911253600C00030C010D4250652454644494D42505357D49151911253601
310
000030C010D425774110531514901348070000C300479034110915312501348000000C0003FFFFFFFD034110921395901398000000C0003FFFFFFFE415092139594D06424548494E448000000C0003FFFFFFFE411093125110234418000000C0003FFFFFFFD03411093D05410234418000000C0003FFFFFFFD03411093D48C
310
9055241484D358010000C30047A411093D48CD055241484D358020000C30047A411093D48D5055241484D358000000C0003FFFFFFFE411093D48DD055241484D3581E0000C30047903411094105410234418000000C0003FFFFFFFD03411094115610234418000000C0003FFFFFFFD034110951112501358000000C0003FFF
310
FFFFD034110D0530C901348000000C0003FFFFFFFE4110D0530CD01348020000C30047A4110D0530D501348070000C30047A4110D0530DD013481E0000C30047A4110D15393901378000000C0003FFFFFFFE4110D15395D01378000000C0003FFFFFFFE4110D312539044B4C494E8000000C0003FFFFFFFE4110D3D38C5013
310
08000000C0003FFFFFFFD034110D3D38C901318000000C0003FFFFFFFD034110D3D38CD01328000000C0003FFFFFFFD034110D3D38D101328000000C0003FFFFFFFD034111115494101348000000C0003FFFFFFFD034111115510501348000000C0003FFFFFFFE4111125051D01358000000C0003FFFFFFFE4111125312501
310
358000000C0003FFFFFFFE411112535410650415244494D8000000C0003FFFFFFFE411112535490652454644494D8000000C0003FFFFFFFE411156135410234418000000C0003FFFFFFFD034111915353901388000000C0003FFFFFFFE415191535413901388030000C3004364151915354D410234418000000C0003FFFFFF
310
FE4151915354D510234418030000C300436415191535593901328000000C0003FFFFFFFE415191535595101328030000C3004364111931055101308000000C0003FFFFFFFD03411194905490234418000000C0003FFFFFFFD034111D49312501358000000C0003FFFFFFFD034111D5931250234418000000C0003FFFFFFFD0
310
34112105510D01388000000C0003FFFFFFFD014112125113901338000000C0003FFFFFFFD034112125115D01338000000C0003FFFFFFFD034112131253901348000000C0003FFFFFFFD01411213D0D3901378000000C0003FFFFFFFE411213D0D5D01378000000C0003FFFFFFFE4112539193D04494E464F8000000C0003FF
310
FFFFFE4113105112501348000000C0003FFFFFFFD034113115051101358000000C0003FFFFFFFE419397D0921395902394E8000000C0003FFFFFFFE419397D0D3D38C502304E8000000C0003FFFFFFFD03419397D0D3D38C902314E8000000C0003FFFFFFFD03419397D0D3D38CD02324E8000000C0003FFFFFFFD03419397
310
D0D3D38D102324E8000000C0003FFFFFFFD03419397D0D15393902374E8000000C0003FFFFFFFE419397D0D15395D02374E8000000C0003FFFFFFFE419397D1125312502354E8000000C0003FFFFFFFE419397D2105510D02384E8000000C0003FFFFFFFD01419397D2125113902334E8000000C0003FFFFFFFD03419397D2
310
125115D02334E8000000C0003FFFFFFFD03419397D3115051102354E8000000C0003FFFFFFFE419397D391D25410349504E8000000C0003FFFFFFFE419397D412105390334414E8000000C0003FFFFFFFE419397D510D3D3902304E8000000C0003FFFFFFFD03419397D5121312502344E8000000C0003FFFFFFFD01419397
310
D5131153902304E8000000C0003FFFFFFFD03419397D516150CD02364E8000000C0003FFFFFFFD03419397D594131250332414E8000000C0003FFFFFFFE411391D25410249508000000C0003FFFFFFFE411410530C9055241484D358010000C30047A411410530CD055241484D358020000C30047A411410530D5055241484
310
D358000000C0003FFFFFFFE411410530DD055241484D3581E0000C30047903411412105390234418000000C0003FFFFFFFE411413D4D3901368070000C30047A419413D4D49151901368050000C30047903411413D4D6101368000000C0003FFFFFFFD03411414D150D0234418000000C0003FFFFFFFD03411490D1D390137
310
8000000C0003FFFFFFFE411490D1D5D01378000000C0003FFFFFFFE4114919112501348000000C0003FFFFFFFD034114945514901348070000C30047903411494D093D01348000000C0003FFFFFFFD034114D09492D01348000000C0003FFFFFFFD014114D0D153901378000000C0003FFFFFFFD034114D150D51013480000
310
00C0003FFFFFFFD014114D15313901378000000C0003FFFFFFFD034114D15315D01378000000C0003FFFFFFFD034114D4D654D01308000000C0003FFFFFFFD034114D51312501348070000C300479034114D6508C501358000000C0003FFFFFFFD034114D6508C901358000000C0003FFFFFFFD034114D6508CD0135802000
310
0C30047A4114D6508D501358070000C300479034114D65353901378000000C0003FFFFFFFD034114D65355D01378000000C0003FFFFFFFD03411510D3D3901308000000C0003FFFFFFFD034115121312501348000000C0003FFFFFFFD01411512550C9055241484D358010000C30047A411512550CD055241484D358020000
310
C30047A411512550D5055241484D358000000C0003FFFFFFFE411512550DD055241484D3581E0000C300479034115131153901308000000C0003FFFFFFFD03415514905253105545241494C8000000C0003FFFFFFFE41151492D3901378000000C0003FFFFFFFD0341151492D5D01378000000C0003FFFFFFFD03411514931
310
2501348000000C0003FFFFFFFD01411516150C501368030000C300436411516150C901368030000C300436411516150CD01368000000C0003FFFFFFFE411516150D501368070000C30047A411516150DD013681E0000C30047A4115925155D04564945578000000C0003FFFFFFFE41159151121034849448000000C0003FFF
310
FFFFD0241159151159035649538000000C0003FFFFFFFD02411594131250232418000000C0003FFFFFFFE4116925690501348000000C0003FFFFFFFD01411354D653501358020000C30047AAAA3F400030C01013F90A4391E41D1E4190D4151E4110D40D0D4091E4051E4791E7F6
340
16
340
16
340
16
340
48
340
16
340
16
340
16
340
49
340
16
340
16
340
49
340
4A
340
16
340
16
340
16
340
16
340
48
340
16
340
16
340
16
340
49
340
16
340
16
340
49
340
4A
340
16
340
4B
340
16
340
16
340
16
340
16
340
16
340
48
340
16
340
16
340
16
340
4C
340
15
340
15
340
15
340
15
340
15
340
15
340
15
340
15
340
15
340
15
340
15
340
15
340
15
340
15
340
15
340
15
340
4D
340
15
340
15
340
15
340
15
340
15
340
15
340
15
340
15
340
15
340
15
340
15
340
15
340
15
340
15
340
15
340
16
340
15
340
15
340
15
340
15
340
15
340
15
340
15
340
15
340
4C
340
15
340
15
340
4D
340
15
340
15
340
15
340
15
340
15
340
15
340
15
340
15
340
15
340
4D
340
15
340
15
340
15
340
4C
340
15
340
15
340
15
340
15
340
15
340
15
340
15
340
15
340
15
340
15
340
15
340
15
340
15
340
15
340
15
340
15
340
15
340
15
340
15
340
4D
340
15
340
15
340
4D
340
15
340
15
340
16
340
15
340
4D
340
15
340
15
340
4C
340
15
340
15
340
16
340
15
340
4D
340
15
340
15
340
15
340
15
340
15
340
15
340
15
340
15
340
15
340
4D
340
15
340
15
340
15
340
15
340
15
340
15
340
15
340
15
340
15
340
15
340
15
340
50
340
16
 94
        0
  0
ACAD_PROXY_OBJECT
  5
AE3
102
{ACAD_REACTORS
330
59
102
}
330
59
100
AcDbProxyObject
 90
      499
 91
      522
 95
       25
 70
     0
 93
      253
310
43D1444494D454E53494F4E2C414D44545F2A5F44494D404A9012A404A9012A0
  0
ACAD_PROXY_OBJECT
  5
AE4
102
{ACAD_REACTORS
330
59
102
}
330
59
100
AcDbProxyObject
 90
      499
 91
      522
 95
       25
 70
     0
 93
      181
310
43D012A42D05357D191504B505357CA9012A404A9012A8
  0
ACAD_PROXY_OBJECT
  5
AE5
102
{ACAD_REACTORS
330
59
102
}
330
59
100
AcDbProxyObject
 90
      499
 91
      522
 95
       25
 70
     0
 93
      133
310
43D054841544348404A9012A404A9012A8
  0
ACAD_PROXY_OBJECT
  5
AE6
102
{ACAD_REACTORS
330
59
102
}
330
59
100
AcDbProxyObject
 90
      499
 91
      522
 95
       25
 70
     0
 93
      549
310
43D044C494E4549CE0B0E138B0A8B4E0B0A8B4E138B105357CE0B105357CE138B0A8B505357CE0B0A8B505357CE139012A404A910494E534552542C5354445041525432448
  0
ACAD_PROXY_OBJECT
  5
AE7
102
{ACAD_REACTORS
330
59
102
}
330
59
100
AcDbProxyObject
 90
      499
 91
      522
 95
       25
 70
     0
 93
      909
310
43D6641434D46434652414D452C41434D444154554D5441524745542C41434D444154554D49442C41434D57454C4453594D2C41434D5355524653594D2C41434D4645415449442C41434D504152545245462C41434D42414C4C4F4F4E2C414D44544544474553594D404A9012A404A9012A8
  0
XRECORD
  5
1606
102
{ACAD_REACTORS
330
1605
102
}
330
1605
100
AcDbXrecord
280
     1
  1
PV
 40
1.0
 50
-12318.5925953127
 51
-8794.902155258136
 52
12318.5925953127
 53
8794.902155258136
  0
ACAD_PROXY_OBJECT
  5
45
102
{ACAD_REACTORS
330
44
102
}
330
44
100
AcDbProxyObject
 90
      499
 91
      520
 95
       25
 70
     0
 93
      157
310
057356C1D77406406AA8FFFFFFFF05DD01009010
330
1F
330
0
330
1665
 94
        0
  0
ACAD_PROXY_OBJECT
  5
1B45
102
{ACAD_REACTORS
330
7A0
102
}
330
7A0
100
AcDbProxyObject
 90
      499
 91
      576
 95
       25
 70
     0
 93
     2395
310
5DCB81E85EB51B8BE3F8030000C30041105394D2501640600800030C0200800030C00B81E85EB51B8BE3F48821E8720B1B6A9BAB9332A32BC3A29BA3220480A1282C6DA8C868CA6E8C88120286A0B1B6ABB2B63234B733A9BA3220480A1082C6DA92C8A6E8C88120285A0B1B6A230BA3AB6A9BA3220480A1282C6DA849E9AA
310
6E8C8812028820B6B23A2232BA30B4B629BCB6A9BA3220480A2282DAC8E8A6CAC6E8D2DEDCA6F2DAA6E8C88120288A0B6B23A21B2B73A32B92634B732A9BA3220480A2282DAC8E8A8D0E4CAC2C898D2DCCAA6E8C88120285A0B6B23A2737BA32A9BA3220480A1682C682DACE98C2F2A6E8C88120285A0B1A0B6B3A234B6A9B
310
A3220480A2282C682DACE90DED8CA86D0C2E4E8A6E8C88120286A0B1A0B6B3AA34BA3632A9BA3220480A02812020
340
190A
360
1B46
360
1B47
360
1B48
360
1B49
360
1B4A
360
1B4B
360
1B4C
360
1B4D
360
1B4E
360
1B4F
360
1B50
360
1B56
360
1B57
360
1B58
360
1B59
340
0
340
0
 94
        0
  0
ACAD_PROXY_OBJECT
  5
7A1
102
{ACAD_REACTORS
330
7A0
102
}
330
7A0
100
AcDbProxyObject
 90
      499
 91
      526
 95
       25
 70
     0
 93
     2379
310
5DC33333333333309408000000C00040D29254D01640600800030C0200800030C003333333333330940C8121E8720B1B6A9BAB9332A32BC3A29BA3220480A1282C6DA8C868CA6E8C88120286A0B1B6ABB2B63234B733A9BA3220480A1082C6DA92C8A6E8C88120285A0B1B6A230BA3AB6A9BA3220480A1282C6DA849E9AA6E
310
8C88120286A0B1A0B6B3AA34BA3632A9BA3220480A2082DAC8E888CAE8C2D2D8A6F2DAA6E8C88120288A0B6B23A29B2B1BA34B7B729BCB6A9BA3220480A2282DAC8E886CADCE8CAE498D2DCCAA6E8C88120288A0B6B23A2A343932B0B22634B732A9BA3220480A1682DAC8E89CDEE8CAA6E8C88120285A0B1A0B6B3A630BCA
310
9BA3220480A1682C682DACE88D2DAA6E8C88120288A0B1A0B6B3A437B632A1B430B93A29BA3220480C812020
340
7A2
360
7A3
360
7A4
360
7A5
360
7A6
360
7A7
360
7A8
360
166A
360
166B
360
166C
360
166E
360
166F
360
1670
360
1676
360
1677
360
1678
340
0
340
0
 94
        0
  0
ACAD_PROXY_OBJECT
  5
41
102
{ACAD_REACTORS
330
40
102
}
330
40
100
AcDbProxyObject
 90
      499
 91
      518
 95
       25
 70
     0
 93
     2900
310
4050B44574753455454494E4753A0E8482A68AA6A88882A069492A684A1A0A723A0A92920ACA0A8419983E1A1ABE1B1820C868A9C829C8E82A12686AF87260F862666A8321A2A72224A0A50556CBEEB04240D2020E868A9C889282A682A106260F86460F8666083A1A2A72224A9AA250000000000000042020C868A9C988A9
310
C94000000000000048808321A2A727A323250000000000000122020E868A9C9E8C8C62940000000000000488083A1A2A727A3231925000000000000012202128698929C82A4A482B282A086E5C60608421A624A722AA2CA820A82AC2624A722A1288AE8EAAA68682988A94283A620A9AA27A12520A8219211820A109A82968
310
AAC928AAE9FA04832829A1A0A622830020000419491559254D2505404C1055343414C4541503313A314214D510539110549110540D29254D0954494D455354414D504A0508ACEB1732B734141D5915494D253D3905414C4D4B8C0C1107B44574753455454494E4753454E447D0
  0
ACAD_PROXY_OBJECT
  5
54
102
{ACAD_REACTORS
330
40
102
}
330
40
100
AcDbProxyObject
 90
      499
 91
      518
 95
       25
 70
     0
 93
      411
310
4050346454D21092DCC6E486DECACC942842630BCA3B937BAB820A8320A6AFA322A0A20F688AE8EA68AA8A8929C8EA68A9C88FA0
  0
ACAD_PROXY_OBJECT
  5
53
102
{ACAD_REACTORS
330
40
102
}
330
40
100
AcDbProxyObject
 90
      499
 91
      518
 95
       25
 70
     0
 93
      591
310
40505536861667421292DCE8CAE4E4EAE0E89FC84A634B3B43A2634B732A7E80A1A98D2CED0E898D2DCCAACD2CAEE9FA028229B4B232A7E80A20F688AE8EA68AA8A8929C8EA68A9C88FA
  0
ACAD_PROXY_OBJECT
  5
42
102
{ACAD_REACTORS
330
40
102
}
330
40
100
AcDbProxyObject
 90
      499
 91
      518
 95
       25
 70
     0
 93
      852
310
4050D5452414E5353455454494E4753A2488A482AE929C8EA8A4829CA69882A8929E9C0C00800050D4F524947494E414C4C595F4F4E0600400028529A7AAA921A2A620A723A0A81A52827212AAA0A48AA68AA4AC8A0C0080001107B44574753455454494E4753454E447D0
  0
ACAD_PROXY_OBJECT
  5
1B46
330
1B45
100
AcDbProxyObject
 90
      499
 91
      577
 95
       25
 70
     0
 93
       96
310
5DC20E80A0280A0280A02808
  0
ACAD_PROXY_OBJECT
  5
1B47
330
1B45
100
AcDbProxyObject
 90
      499
 91
      578
 95
       25
 70
     0
 93
      332
310
5DD0E4050140501405014050140501405014050142501405014050140501405012000000000000000400
340
190B
 94
        0
  0
ACAD_PROXY_OBJECT
  5
1B48
330
1B45
100
AcDbProxyObject
 90
      499
 91
      579
 95
       25
 70
     0
 93
      403
310
5DCC199999999999E99F91F4050140501405014050140501405014050140501405014050140501405014050140501405014040
340
0
 94
        0
  0
ACAD_PROXY_OBJECT
  5
1B49
330
1B45
100
AcDbProxyObject
 90
      499
 91
      580
 95
       25
 70
     0
 93
       10
310
5DC0
  0
ACAD_PROXY_OBJECT
  5
1B4A
330
1B45
100
AcDbProxyObject
 90
      499
 91
      581
 95
       25
 70
     0
 93
      257
310
5DE290EA22A7D90F49F9353333333333727F44D4CCCCCCCCCDC9FC010000618000
340
1907
340
1908
 94
        0
  0
ACAD_PROXY_OBJECT
  5
1B4B
330
1B45
100
AcDbProxyObject
 90
      499
 91
      582
 95
       25
 70
     0
 93
    13023
310
5DD0E411255115350141236025B6901405014069011309A4F2590CB64FD3347454E545241434F2C4A504E2C302C8D8096DA2C47454E54524154582C25732C2847454E4D53472067656E647767203232322940690120281A8AA2CA0282484A4BE52028120280A03202261349E4B2196C9FA668E8A9CA8A482869E5894A09C58
310
605921292F94588E8A9CA8A482A8B0584AE658508E8A9C9AA68E40CECADCC8EECE406464665280D202405044E414D454050496BC914F4051C40640A8B95C2E97CBE502404CD1D15395149050D3CB1294138B0C0B25AF2453CB11D15395149055160B095CCB0A11D1539354D1C819D95B991DD9C80C8C8D8A50192C3D494628
310
4953424C414E4B28504152543A4E414D45292C424C4F434B3A4E414D452C504152543A4E414D452940480A0A888AA686A480A09251B1DBE80A3A80C81D10782C06030180C8099A3A2A72A2920A1A7962528271618164946C76F9623A2A72A2920AA2C1612B9961423A2A726A9A39033B2B7323BB39019189B94A0248090142
310
14D51053911054911014122D2E29A50147501904A383BFDFEFF5FBFCFD3347454E545241434F2C4A504E2C302C8B4B8A692C47454E54524154582C25732C2847454E4D53472067656E64776720323138294049012028426A0AA22A924A0A62028246EF4BDFA028EA0320B41396D838E9017D9FA668E8A9CA8A482869E5894A
310
09C5860591BBD2F7E588E8A9CA8A482A8B0584AE658508E8A9C9AA68E40CECADCC8EECE406464625280D202405044E4F544540504928D8B4C4051D40641A8B95C2E97CBE5F23F4CD1D15395149050D3CB1294138B0C0B24A362D30B11D15395149055160B095CCB0A11D1539354D1C819D95B991DD9C80C8C8D4A501A40480
310
A0CAC8A9C889EA480A1106F1072706BF02B680A3A80C83D172B85D2F97CBE47E9BA3A2A72A2920A1A79625282716181641BC41C9C1AFC0AD9623A2A72A2920AA2C1612B9961423A2A726A9A39033B2B7323BB39019191A14A0348090141911154D0D48C90141A43825AF880C90147501908A20F0580C0603019013447454E5
310
45241434F2C4A504E2C302C90E096BE20322C47454E54524154582C25732C2847454E4D53472067656E6477672033362940490120284A9AA20A72220A922192028345A5C53490192028EA0321347077FBFDFEBF7F9FA6A8E8A9CA8A482869E5894A09C586059169714D24064588E8A9CA8A482A8B0584AE658508E8A9C9AA6
310
8E40CECADCC8EECE4064646052809202405094D4154455249414C32405068DDE97BF20324051D40642A8272DB071D202FB3F4D11D15395149050D3CB1294138B0C0B2377A5EFC80C8B11D15395149055160B095CCB0A11D1539354D1C819D95B991DD9C80D0C0A501240480A089A82A6A680A091D7F2F9480A3A80A0485A06
310
81172B85D2F97CBE47E9923A2A72A2920A1A796252827161816475FCBE51623A2A72A2920AA2C1612B9961423A2A726A9A39033B2B7323BB3901A1914A024809014154149250D150141226FE29A501475014090C409022E570BA5F2F97C8FD3247454E545241434F2C4A504E2C302C89BF8A692C47454E54524154582C2573
310
2C2847454E4D53472067656E6477672034332940490120281A224A6A02824850CB202028EA028121A81A045CAE174BE5F2F91FA648E8A9CA8A482869E5894A09C58605921432C80588E8A9CA8A482A8B0584AE658508E8A9C9AA68E40CECADCC8EECE406868528092024050E441022E07A17AD46E338FE07800030C0001018
310
ACD56AB55AADF63F2B355AAD56AB7D8FD073D3C4954454D3E405018ACD56AB55AADF63F2B355AAD56AB7D8FD073D3C4954454D3E40501890C7E3F1783CEE3F2431F8FC5E0F3B8FD073D3C4954454D3E40501890C7E3F1783CEE3F2431F8FC5E0F3B8FD073D3C4954454D3E405029012B355AAD56AB7D8FCACD56AB55AADF63
310
F41CF4F125511534F901418F4F1455164F9014062B355AAD56AB7D8FCACD56AB55AADF63F41CF4F125511534F9014061309A4F2590CBA4FC4C2693C96432E93F41CF4F125511534F901901002B355AAD56AB7D8FCACD56AB55AADF63FA2000000000000008204018000618048220681A048120280C88214844882034852034
310
8452028521485214814000000000000F0BF0000000000003C2FD018020000C3008070000C3000EF7D3E365DBA88FC3BDF4F8D976EA23F2E07A17AD46E2F8FF20341A405024150741A4069703D0BD6A3717C7F0040001860100400018601002000186002026280A02
340
0
340
0
 94
        0
  0
ACAD_PROXY_OBJECT
  5
1B4C
330
1B45
100
AcDbProxyObject
 90
      499
 91
      583
 95
       25
 70
     0
 93
      994
310
5DC0B81E85EB51B8CE3F4BCF511155105253080F11115510525317D3105091530F971414D0D05311480F11115510525317D05094D4D0D053114F92341C9A9999999999B93F26A666666666724FC000000000000E03F4000000000000004000000000000005100000000000000244081E0000C3002E07A17AD46E338FC0
340
1646
340
190A
 94
        0
  0
ACAD_PROXY_OBJECT
  5
1B4D
330
1B45
100
AcDbProxyObject
 90
      499
 91
      584
 95
       25
 70
     0
 93
      823
310
5DC031703D0BD6A3719C7E999EA9A2A1AA24A7A7101E29A2A1AA24A7A72FA620A122A62FA324A929AA1F169E29A2A1AA24A7A72FA620A122A62FA620A9AA1F1353333333333B27E3FFFE01C00030C008840F000061801353333333333B27F1703D0BD6A3719C7E
340
1646
340
190A
 94
        0
  0
ACAD_PROXY_OBJECT
  5
1B4E
330
1B45
100
AcDbProxyObject
 90
      499
 91
      585
 95
       25
 70
     0
 93
      280
310
5DC2B8716D9CEF7C33F0A5723F0BD4A2F0FC295C8FC2F528BC3FA199999999999F99FC
  0
ACAD_PROXY_OBJECT
  5
1B4F
330
1B45
100
AcDbProxyObject
 90
      499
 91
      586
 95
       25
 70
     0
 93
       14
310
5DE4
340
0
 94
        0
  0
ACAD_PROXY_OBJECT
  5
1B50
330
1B45
100
AcDbProxyObject
 90
      499
 91
      587
 95
       25
 70
     0
 93
     7123
310
5DD084050BA4050AA405024050E836583938376838C815B8367203140405013D3C696628657175616C28486F6C653A7461707065642C223022292C22252563222C486F6C653A6E6F6D696E616C2022202220696628657175616C28486F6C653A756E6974732C223122292C2278222C222D222920222022293E3C6966286571
310
75616C28486F6C653A7461707065642C223022292C486F6C653A6469612C486F6C653A706974636864657363293E207B5C46414D4744543B787D203C696628657175616C28486F6C653A7465726D696E6174696F6E2C223022292C486F6C653A64657074682C228AD192CA22293E5C507B5C46414D4744543B767D2525633C
310
486F6C653A63746469613E207B5C46414D4744543B787D203C486F6C653A637464657074683E406901405034050E836583938376838C815B83672031405FE3D3C696628657175616C28486F6C653A7461707065642C223022292C22252563222C486F6C653A6E6F6D696E616C2022202220696628657175616C28486F6C653
310
A756E6974732C223122292C2278222C222D222920222022293E3C696628657175616C28486F6C653A7461707065642C223022292C486F6C653A6469612C486F6C653A706974636864657363293E207B5C46414D4744543B787D203C696628657175616C28486F6C653A7465726D696E6174696F6E2C223022292C486F6C653
310
A64657074682C228AD192CA22293E5C507B5C46414D4744543B777D2525633C486F6C653A63746469613E2058203C486F6C653A6374616E676C653E252564406901405014050E836583938376838C815B83672031405CF3D3C696628657175616C28486F6C653A7461707065642C223022292C22252563222C486F6C653A6E
310
6F6D696E616C2022202220696628657175616C28486F6C653A756E6974732C223122292C2278222C222D222920222022293E3C696628657175616C28486F6C653A7461707065642C223022292C486F6C653A6469612C486F6C653A706974636864657363293E5C507B5C46414D4744543B787D203C696628657175616C2848
310
6F6C653A7465726D696E6174696F6E2C223022292C486F6C653A64657074682C228AD192CA22293E4069014051E4090E836583938376838C815B83672032405173D3C535444503A444553433E203C535444503A5354443E40690E836583938376838C815B836720314050C3D3C535444503A444553433E40690240515AAABB
310
A060
360
1B51
330
1B51
360
1B52
330
1B52
360
1B53
330
1B53
360
1B54
360
1B55
330
1B54
330
1B55
 94
        0
  0
ACAD_PROXY_OBJECT
  5
1B56
330
1B45
100
AcDbProxyObject
 90
      499
 91
      567
 95
       25
 70
     0
 93
       26
310
5DD02A80
340
0
 94
        0
  0
ACAD_PROXY_OBJECT
  5
1B57
330
1B45
100
AcDbProxyObject
 90
      499
 91
      568
 95
       25
 70
     0
 93
      258
310
5DD02000000000000380FC000000000000E03F408F0F9023C3E40DB18CCCFFFF80
340
190C
340
0
340
0
340
190D
340
190E
340
0
340
190F
340
1910
340
1911
340
0
 94
        0
  0
ACAD_PROXY_OBJECT
  5
1B58
330
1B45
100
AcDbProxyObject
 90
      499
 91
      588
 95
       25
 70
     0
 93
    13993
310
5DD1D023FFFFFFFD010300002E07A17AD46E2F8FE00800030C01010300002E07A17AD46E2F8FE00800030C00050C8DC0955782CC838A83588367014ED1D15395149050D3CB1294138B0C0B23702555E0B320E2A0D620D9CB11D15395149055160B095CCB0A11D1539354D1C819D95B991A5B5E880CCC0A78000C0000000000
310
00000000000000000000007B14AE47E17AA43F2E07A17AD46E2F8FE00800030C007B14AE47E17AA43F2E07A17AD46E2F8FE00800030C020143CF4F111959985D5B1D151A5D1B194F8050A8C8A8365815B8375838B014E51D15395149050D3CB1294138B0C0B2322A0D96056E0DD60E2CB11D15395149055160B095CCB0A11D
310
1539354D1C819D95B991A5B5E880CCC4A78000C000000000000000000000000000000007B14AE47E17AA43F2E07A17AD46E2F8FE00800030C007B14AE47E17AA43F2E07A17AD46E2F8FE00800030C020143CF4F111959985D5B1D151A5D1B194F90D4410F4450240D0441507431014391244D05449074510C4350F00014123
310
2D24D7C053247454E545241434F2C4A504E2C302C8CB4935F2C47454E54524154582C25732C2847454E4D53472067656E64696D7A20312900010104002214000282465A49AF80A648E8A9CA8A482869E5894A09C586059196926BE588E8A9CA8A482A8B0584AE658508E8A9C9AA68E40CECADCC8D2DAF44062520002020800
310
43E80005028C8A014C11D15395149050D3CB1294138B0C0B23228B11D15395149055160B095CCB0A11D1539354D1C819D95B991A5B5E880C8A4054E3D3C4946284953424C414E4B28486F6C654974656D292C4F726967696E2C20486F6C654974656D293E3C4946284953424C414E4B28486F6C654974656D292C22222C204
310
86F6C65496E646578293E010104002234000280AC00A5E8E8A9CA8A482869E5894A09C586058B0588E8A9CA8A482A8B0584AE658508E8A9C9AA68E40CECADCC8D2DAF4406652000202000040A800050159014BD1D15395149050D3CB1294138B0C0B164B11D15395149055160B095CCB0A11D1539354D1C819D95B991A5B5E
310
880D0A4000404000081D0000A02A40297A3A2A72A2920A1A796252827161816291623A2A72A2920AA2C1612B9961423A2A726A9A39033B2B73234B6BD101B148000808000104A000140A0F4C053047454E545241434F2C4A504E2C302C83D32C47454E54524154582C25732C2847454E4D53472067656E64696D7A20372900
310
0101030020B400028141E980A608E8A9CA8A482869E5894A09C58605907A6588E8A9CA8A482A8B0584AE658508E8A9C9AA68E40CECADCC8D2DAF4407052000202020041E800050490E096BE014CD1D15395149050D3CB1294138B0C0B243825AF8B11D15395149055160B095CCB0A11D1539354D1C819D95B991A5B5E880C8
310
C0A400040010008650000A091B012DB40299A3A2A72A2920A1A79625282716181646C04B6D1623A2A72A2920AA2C1612B9961423A2A726A9A39033B2B73234B6BD10189A148000808280501A00014320D0E0E4E0D9A0D8A0D3A0D60053B47454E545241434F2C4A504E2C302C8343839383668362834E83582C47454E54524
310
154582C25732C2847454E4D53472067656E64696D7A203135290001010500A1D4000281464500A628E8A9CA8A482869E5894A09C5860591914588E8A9CA8A482A8B0584AE658508E8A9C9AA68E40CECADCC8D2DAF440626C52000202080044A800050E8C8A8343839383668362834E8358014F51D15395149050D3CB129413
310
8B0C0B2322A0D0E0E4E0D9A0D8A0D3A0D60B11D15395149055160B095CCB0A11D1539354D1C819D95B991A5B5E880C4DCA4000404140089D0000A0921292F940299A3A2A72A2920A1A796252827161816484A4BE51623A2A72A2920AA2C1612B9961423A2A726A9A39033B2B73234B6BD10189C948000808300114A0001412
310
2D2E29A4053347454E545241434F2C4A504E2C302C8B4B8A692C47454E54524154582C25732C2847454E4D53472067656E64696D7A20323129000100040021B4878030026A6666666667A4FE064D4CCCCCCCCCF49FC049A9999999999E93F809353333333333D27F0226A6666666667A4FE044D4CCCCCCCCCF49FC0D818000
310
00000000000810026A666666666764FE004D4CCCCCCCCCF49FC009A9999999999E93F801353333333333D27F032E07A17AD46E378FE0633B333333333032050F006004D4CCCCCCCCCF49FC0C9A9999999999E93F819353333333333D27F0326A6666666667A4FE064D4CCCCCCCCCF49FC0C9A9999999999E93F81B03000000
310
00000000102004D4CCCCCCCCCEC9FC009A9999999999E93F819353333333333D27F0026A6666666667A4FE065C0F42F5A8DC6F1FC0C6766666666660640A088800000021E000000890000002260000008220E000200890000002060002008100008000
340
0
340
0
340
0
340
0
340
190A
340
190A
 94
        0
  0
ACAD_PROXY_OBJECT
  5
1B59
330
1B45
100
AcDbProxyObject
 90
      499
 91
      560
 95
       25
 70
     0
 93
     5214
310
5DD9741105394D2506414E53495F4342905394D257D512551554D15414E53495F54525F5265766973696F6E6C697374614191143202831372E307832322E30696E63682941905394D257D0D1146202832382E307834302E30696E63682941905394D257D191142202831312E307831372E30696E63682941905394D257D091
310
144202832322E307833342E30696E63682941905394D257D111145202833342E307834342E30696E63682941905394D257D1510412028382E357831312E30696E63682941905394D257D050543905B9CDA482557247A25E4C81110D0C414E53495F5449544C45444343505B9CDA482557247A25E4C81050B414E53495F5449
310
544C454143905B9CDA482557247A25E4C81050D0C414E53495F5449544C45414343505B9CDA482557247A25E4C81110B414E53495F5449544C4544425554C82557247A25E4D0A414E53495F544954555342110979A97F0838A8358836720415F42525F45505394D257D09497D4995D9A5CDA5BDB9B1A5CDD18510979A97F08
310
38A8358836720415F54525F45505394D257D51497D4995D9A5CDA5BDB9B1A5CDD18510979A97F0838A8358836720445F42525F45505394D257D09497D4995D9A5CDA5BDB9B1A5CDD19110979A97F0838A8358836720445F54525F45505394D257D51497D4995D9A5CDA5BDB9B1A5CDD19110979A97F0838A8358836720415F
310
424C5F45505394D257D09317D4995D9A5CDA5BDB9B1A5CDD18510979A97F0838A8358836720415F544C5F45505394D257D51317D4995D9A5CDA5BDB9B1A5CDD18510979A97F0838A8358836720445F424C5F45505394D257D09317D4995D9A5CDA5BDB9B1A5CDD19110979A97F0838A8358836720445F544C5F45505394D25
310
7D51317D4995D9A5CDA5BDB9B1A5CDD190
  0
ACAD_PROXY_OBJECT
  5
7A3
330
7A1
100
AcDbProxyObject
 90
      499
 91
      527
 95
       25
 70
     0
 93
       86
310
5DEA0C80A0280A0280A034
  0
ACAD_PROXY_OBJECT
  5
7A4
330
7A1
100
AcDbProxyObject
 90
      499
 91
      528
 95
       25
 70
     0
 93
      282
310
5DD0E4050140501405014050140501405014050141101405014041000000000000001000
340
7A9
 94
        0
  0
ACAD_PROXY_OBJECT
  5
7A5
330
7A1
100
AcDbProxyObject
 90
      499
 91
      529
 95
       25
 70
     0
 93
      323
310
5DCC199999999999E99F91740501405014050140501405014050140501405014050140501405014040
340
0
 94
        0
  0
ACAD_PROXY_OBJECT
  5
7A6
330
7A1
100
AcDbProxyObject
 90
      499
 91
      530
 95
       25
 70
     0
 93
       10
310
5DC0
  0
ACAD_PROXY_OBJECT
  5
7A7
330
7A1
100
AcDbProxyObject
 90
      499
 91
      531
 95
       25
 70
     0
 93
      257
310
5DE0C16A22A7D90F49F80000000000001081400000000000004204010000618000
340
7AA
340
7AB
 94
        0
  0
ACAD_PROXY_OBJECT
  5
7A8
330
7A1
100
AcDbProxyObject
 90
      499
 91
      532
 95
       25
 70
     0
 93
     5277
310
5DD06411255115350141236025B6901405014069010000000000000910240690120281A8AA2CA0282484A4BE52028120280A032020000000000001220480D202405044E414D454050496BC914F4051C40640A80000000000004E4090193C3D3C4946284953424C414E4B28504152543A4E414D45292C424C4F434B3A4E414D
310
452C504152543A4E414D45293E3C41435F44455343524950544E3E40480A109A82A88AA492829880A091BBD2F7E80A3A80C81D0E27A15AF46E08A81203480901411393D5115014124A363B7D0147501904A0000000000000F902406428F4F1050D7D393D5114F901202832B22A72227A92028366EF6EE06F582028EA0320B4
310
0000000000001F20480C879E9E20A1AFAB27222FA620A122A61F20240506445020000000000000490201C00030C00010180000000000003E400000000000000F901073D3C4954454D3E4050180000000000003E400000000000000F901073D3C4954454D3E40501800000000000034400000000000000D101073D3C4954454
310
D3E40501800000000000034400000000000000D101073D3C4954454D3E405029010000000000000F9000000000000003E4041CF4F125511534F901418F4F1455164F9014060000000000000F9000000000000003E4041CF4F125511534F901800000000000034400000000000000D101073D3C4954454D3E40640400000000
310
0000003E400000000000000F90288800000000000020810000001800120881A068120480A032208521122080D21480D211480A1485214852050000000000003C2FC000000000000F0BF40600800030C0200400030C00CDCCCCCCCCCCEC3F3373333333333B0FC3333333333330940C80D069014090341504901A1999999999
310
9984A040100006180400800061804010000618008098A02808
340
0
340
0
 94
        0
  0
ACAD_PROXY_OBJECT
  5
166A
330
7A1
100
AcDbProxyObject
 90
      499
 91
      560
 95
       25
 70
     0
 93
     3042
310
5DD9740D29254D064A49535F413342929254D7D512551311505134A49535F42525F5265766973696F6E6C6973744190F4134522028323937783231306D6D2941D29254D7D04D1490E41312028353934783834316D6D2941929254D7D04C50E41332028323937783432306D6D2941929254D7D04CD0F41344C2028323130783
310
239376D6D2941D29254D7D04D1310E41322028343230783539346D6D2941929254D7D04C90F4130202838343178313138396D6D2941929254D7D04C10243129254C82557247A25E4C81050A4A49535F5449544C454143129254C82557247A25E4C81090A4A49535F5449544C45424110E979A97F0838A835883675F42525F4
310
4D29254D7D09497D4995D9A5CDA5BDB9B1A5CDD10E979A97F0838A835883675F54525F44D29254D7D51497D4995D9A5CDA5BDB9B1A5CDD10E979A97F0838A835883675F424C5F44D29254D7D09317D4995D9A5CDA5BDB9B1A5CDD10E979A97F0838A835883675F544C5F44D29254D7D51317D4995D9A5CDA5BDB9B1A5CDD00
  0
ACAD_PROXY_OBJECT
  5
166B
330
7A1
100
AcDbProxyObject
 90
      499
 91
      561
 95
       25
 70
     0
 93
      898
310
5DC4000000000000124048CF4F11115510525317D3105091530F880A0F11115510525317D05094D4D0D053114F8A50241C9A9999999999B93F26A666666666724FC000000000000E03F400000000000000400000000000000510000000000000024408070000C300000000000000049000
340
16
340
7A2
 94
        0
  0
ACAD_PROXY_OBJECT
  5
166C
330
7A1
100
AcDbProxyObject
 90
      499
 91
      562
 95
       25
 70
     0
 93
      823
310
5DC0B00000000000002480959E9E29A2A1AA24A7A72FA620A122A62FA324A929AA1F169E29A2A1AA24A7A72FA620A122A62FA620A9AA1F000000000000048803FFFE01C00030C008140380006180000000000000048800000000000000A2000000000000002480
340
118
340
7A2
 94
        0
  0
ACAD_PROXY_OBJECT
  5
166E
330
7A1
100
AcDbProxyObject
 90
      499
 91
      563
 95
       25
 70
     0
 93
      152
310
5DE8273108AC1C5A0640A3D0A5723F0BD1F200
  0
ACAD_PROXY_OBJECT
  5
166F
330
7A1
100
AcDbProxyObject
 90
      499
 91
      564
 95
       25
 70
     0
 93
       14
310
5DE0
340
0
 94
        0
  0
ACAD_PROXY_OBJECT
  5
1670
330
7A1
100
AcDbProxyObject
 90
      499
 91
      565
 95
       25
 70
     0
 93
     6059
310
5DD084050BA4050AA405024050E836583938376838C815B83672031405983D3C486F6C653A6469613E3C696628657175616C28486F6C653A7465726D696E6174696F6E2C223022292C2220905B82B320222C22208368838A838B22293E3C696628657175616C28486F6C653A7465726D696E6174696F6E2C223022292C486F
310
6C653A64657074682C2222293E2C203C486F6C653A63746469613E2082B482AE82E882CC905B82B3203C486F6C653A637464657074683E406901405034050E836583938376838C815B83672031405EF3D3C486F6C653A6374616E676C653E252564202525633C486F6C653A63746469613E208E4D8C8A2C203C69662865717
310
5616C28486F6C653A7461707065642C223022292C22252563222C486F6C653A6E6F6D696E616C202220782022293E3C696628657175616C28486F6C653A7461707065642C223022292C486F6C653A6469612C486F6C653A706974636864657363293E203C696628657175616C28486F6C653A7465726D696E6174696F6E2C2
310
23022292C22905B82B320222C222022293E3C696628657175616C28486F6C653A7465726D696E6174696F6E2C223022292C486F6C653A64657074682C2222293E406901405014050E836583938376838C815B83672031405C73D3C696628657175616C28486F6C653A7461707065642C223022292C22252563222C486F6C65
310
3A6E6F6D696E616C202220782022293E3C696628657175616C28486F6C653A7461707065642C223022292C486F6C653A6469612C486F6C653A706974636864657363293E203C696628657175616C28486F6C653A7465726D696E6174696F6E2C223022292C22905B82B320222C222022293E3C696628657175616C28486F6C
310
653A7465726D696E6174696F6E2C223022292C486F6C653A64657074682C2222293E4069014051E4090E836583938376838C815B83672032405173D3C535444503A444553433E203C535444503A5354443E40690E836583938376838C815B836720314050C3D3C535444503A444553433E40690240515AAABBA120
360
1674
330
1674
360
1675
330
1675
360
1673
330
1673
360
1672
360
1671
330
1672
330
1671
 94
        0
  0
ACAD_PROXY_OBJECT
  5
1676
330
7A1
100
AcDbProxyObject
 90
      499
 91
      567
 95
       25
 70
     0
 93
       26
310
5DD02A80
340
47
 94
        0
  0
ACAD_PROXY_OBJECT
  5
1677
330
7A1
100
AcDbProxyObject
 90
      499
 91
      568
 95
       25
 70
     0
 93
      250
310
5DD020000000000000A1000000000000002440408F0F9023C3E409A0DCFFFF80
340
69
340
0
340
0
340
70
340
71
340
72
340
73
340
74
340
79
340
0
 94
        0
  0
ACAD_PROXY_OBJECT
  5
1678
330
7A1
100
AcDbProxyObject
 90
      499
 91
      569
 95
       25
 70
     0
 93
    13889
310
5DD1D003FFFFFFFD030300030CCCCCCCCCCCC250200800030C01030300030CCCCCCCCCCCC250200800030C00050C8DC0955782CC838A83588367014ED1D15395149050D3CB1294138B0C0B23702555E0B320E2A0D620D9CB11D15395149055160B095CCB0A11D1539354D1C819D95B991A5B5E880CCC0A78000C0000000000
310
00000000000000000000010CCCCCCCCCCCC250200800030C010CCCCCCCCCCCC250200800030C020143CF4F111959985D5B1D151A5D1B194F8050A8C8A8365815B8375838B014E51D15395149050D3CB1294138B0C0B2322A0D96056E0DD60E2CB11D15395149055160B095CCB0A11D1539354D1C819D95B991A5B5E880CCC4
310
A78000C000000000000000000000000000000010CCCCCCCCCCCC250200800030C010CCCCCCCCCCCC250200800030C020143CF4F111959985D5B1D151A5D1B194F90D44111409034110541D0C4350F4050E44D03449074510F000141232D24D7C053247454E545241434F2C4A504E2C302C8CB4935F2C47454E54524154582C
310
25732C2847454E4D53472067656E64696D7A20312900010104002214000281464500A608E8A9CA8A482869E5894A09C5860591914588E8A9CA8A482A8B0584AE658508E8A9C9AA68E40CECADCC8D2DAF4406452029E9E9E27B934B3B4B71F1E24A31427A91424A9A12620A7259427B934B3B4B7149624A9A12620A7259424B
310
A32B6949496111116111711149F1E24BA32B69F00808200111A000140560052F47454E545241434F2C4A504E2C302C582C47454E54524154582C25732C2847454E4D53472067656E64696D7A20332900010100002054000280AC80A5E8E8A9CA8A482869E5894A09C586058B2588E8A9CA8A482A8B0584AE658508E8A9C9AA
310
68E40CECADCC8D2DAF4406852000202000040E800050152014BD1D15395149050D3CB1294138B0C0B148B11D15395149055160B095CCB0A11D1539354D1C819D95B991A5B5E880D8A400040400008250000A0507A6029823A2A72A2920A1A79625282716181641E99623A2A72A2920AA2C1612B9961423A2A726A9A39033B2
310
B73234B6BD101B948000808180105A000140A0F4C053047454E545241434F2C4A504E2C302C83D32C47454E54524154582C25732C2847454E4D53472067656E64696D7A203829000101010020F400028248704B5F00A668E8A9CA8A482869E5894A09C58605921C12D7C588E8A9CA8A482A8B0584AE658508E8A9C9AA68E40
310
CECADCC8D2DAF440646052000200080043280005048B4B8A69014CD1D15395149050D3CB1294138B0C0B22D2E29A4B11D15395149055160B095CCB0A11D1539354D1C819D95B991A5B5E880C8C4A4000400100086D0000A09196926BE029923A2A72A2920A1A796252827161816465A49AF9623A2A72A2920AA2C1612B9961
310
423A2A726A9A39033B2B73234B6BD10189480A02620202080043E80005048D8096DA014CD1D15395149050D3CB1294138B0C0B236025B68B11D15395149055160B095CCB0A11D1539354D1C819D95B991A5B5E880C4D0A4000404140280D0000A190687072706CD06C5069D06B0029DA3A2A72A2920A1A7962528271618164
310
1A1C1C9C1B341B141A741AC1623A2A72A2920AA2C1612B9961423A2A726A9A39033B2B73234B6BD10189A94800080820050EA000143A322A0D0E0E4E0D9A0D8A0D3A0D60053D47454E545241434F2C4A504E2C302C8C8A8343839383668362834E83582C47454E54524154582C25732C2847454E4D53472067656E64696D7A
310
2031372900010105002274000281464500A628E8A9CA8A482869E5894A09C5860591914588E8A9CA8A482A8B0584AE658508E8A9C9AA68E40CECADCC8D2DAF440626C52000202080044A8000504909497CA014CD1D15395149050D3CB1294138B0C0B242525F28B11D15395149055160B095CCB0A11D1539354D1C819D95B9
310
91A5B5E880C4E4A400040418008A521E000000000000001CA040C00000000000034408080000000000006881010000000000000D102040000000000001A204080000000000003440818000000000000728103000000000000125020600000000004028A040000000000000034408000000000000004881000000000000000D
310
102000000000000001A204000000000000003440818000000000000508143C0000000000000039408180000000000006881030000000000000D102060000000000001A2040C00000000000034408180000000000006881030000000000000E5020600000000000024A040C0000000000805140800000000000000688100000
310
00000000009102000000000000001A2040000000000000034408180000000000006881030000000000000A10284220000000878000002020000008380000020400000081800000208000000828000002028900000000
340
0
340
0
340
0
340
0
340
7A2
340
7A2
 94
        0
  0
ACAD_PROXY_OBJECT
  5
1B51
330
1B50
100
AcDbProxyObject
 90
      499
 91
      566
 95
       25
 70
     0
 93
     2256
310
5DE0143A0D960E4E0DDA0E32056E0D9C80C40405013D3C696628657175616C28486F6C653A7461707065642C223022292C22252563222C486F6C653A6E6F6D696E616C2022202220696628657175616C28486F6C653A756E6974732C223122292C2278222C222D222920222022293E3C696628657175616C28486F6C653A74
310
61707065642C223022292C486F6C653A6469612C486F6C653A706974636864657363293E207B5C46414D4744543B787D203C696628657175616C28486F6C653A7465726D696E6174696F6E2C223022292C486F6C653A64657074682C228AD192CA22293E5C507B5C46414D4744543B767D2525633C486F6C653A6374646961
310
3E207B5C46414D4744543B787D203C486F6C653A637464657074683E
  0
ACAD_PROXY_OBJECT
  5
1B52
330
1B50
100
AcDbProxyObject
 90
      499
 91
      566
 95
       25
 70
     0
 93
     2192
310
5DE0143A0D960E4E0DDA0E32056E0D9C80C405FE3D3C696628657175616C28486F6C653A7461707065642C223022292C22252563222C486F6C653A6E6F6D696E616C2022202220696628657175616C28486F6C653A756E6974732C223122292C2278222C222D222920222022293E3C696628657175616C28486F6C653A7461
310
707065642C223022292C486F6C653A6469612C486F6C653A706974636864657363293E207B5C46414D4744543B787D203C696628657175616C28486F6C653A7465726D696E6174696F6E2C223022292C486F6C653A64657074682C228AD192CA22293E5C507B5C46414D4744543B777D2525633C486F6C653A63746469613E
310
2058203C486F6C653A6374616E676C653E252564
  0
ACAD_PROXY_OBJECT
  5
1B53
330
1B50
100
AcDbProxyObject
 90
      499
 91
      566
 95
       25
 70
     0
 93
     1816
310
5DE0143A0D960E4E0DDA0E32056E0D9C80C405CF3D3C696628657175616C28486F6C653A7461707065642C223022292C22252563222C486F6C653A6E6F6D696E616C2022202220696628657175616C28486F6C653A756E6974732C223122292C2278222C222D222920222022293E3C696628657175616C28486F6C653A7461
310
707065642C223022292C486F6C653A6469612C486F6C653A706974636864657363293E5C507B5C46414D4744543B787D203C696628657175616C28486F6C653A7465726D696E6174696F6E2C223022292C486F6C653A64657074682C228AD192CA22293E
  0
ACAD_PROXY_OBJECT
  5
1B54
330
1B50
100
AcDbProxyObject
 90
      499
 91
      566
 95
       25
 70
     0
 93
      344
310
5DE0143A0D960E4E0DDA0E32056E0D9C80C805173D3C535444503A444553433E203C535444503A5354443E
  0
ACAD_PROXY_OBJECT
  5
1B55
330
1B50
100
AcDbProxyObject
 90
      499
 91
      566
 95
       25
 70
     0
 93
      256
310
5DE0143A0D960E4E0DDA0E32056E0D9C80C4050C3D3C535444503A444553433E
  0
ACAD_PROXY_OBJECT
  5
1674
330
1670
100
AcDbProxyObject
 90
      499
 91
      566
 95
       25
 70
     0
 93
     1376
310
5DE0143A0D960E4E0DDA0E32056E0D9C80C405983D3C486F6C653A6469613E3C696628657175616C28486F6C653A7465726D696E6174696F6E2C223022292C2220905B82B320222C22208368838A838B22293E3C696628657175616C28486F6C653A7465726D696E6174696F6E2C223022292C486F6C653A64657074682C22
310
22293E2C203C486F6C653A63746469613E2082B482AE82E882CC905B82B3203C486F6C653A637464657074683E
  0
ACAD_PROXY_OBJECT
  5
1675
330
1670
100
AcDbProxyObject
 90
      499
 91
      566
 95
       25
 70
     0
 93
     2072
310
5DE0143A0D960E4E0DDA0E32056E0D9C80C405EF3D3C486F6C653A6374616E676C653E252564202525633C486F6C653A63746469613E208E4D8C8A2C203C696628657175616C28486F6C653A7461707065642C223022292C22252563222C486F6C653A6E6F6D696E616C202220782022293E3C696628657175616C28486F6C
310
653A7461707065642C223022292C486F6C653A6469612C486F6C653A706974636864657363293E203C696628657175616C28486F6C653A7465726D696E6174696F6E2C223022292C22905B82B320222C222022293E3C696628657175616C28486F6C653A7465726D696E6174696F6E2C223022292C486F6C653A6465707468
310
2C2222293E
  0
ACAD_PROXY_OBJECT
  5
1673
330
1670
100
AcDbProxyObject
 90
      499
 91
      566
 95
       25
 70
     0
 93
     1752
310
5DE0143A0D960E4E0DDA0E32056E0D9C80C405C73D3C696628657175616C28486F6C653A7461707065642C223022292C22252563222C486F6C653A6E6F6D696E616C202220782022293E3C696628657175616C28486F6C653A7461707065642C223022292C486F6C653A6469612C486F6C653A706974636864657363293E20
310
3C696628657175616C28486F6C653A7465726D696E6174696F6E2C223022292C22905B82B320222C222022293E3C696628657175616C28486F6C653A7465726D696E6174696F6E2C223022292C486F6C653A64657074682C2222293E
  0
ACAD_PROXY_OBJECT
  5
1672
330
1670
100
AcDbProxyObject
 90
      499
 91
      566
 95
       25
 70
     0
 93
      344
310
5DE0143A0D960E4E0DDA0E32056E0D9C80C805173D3C535444503A444553433E203C535444503A5354443E
  0
ACAD_PROXY_OBJECT
  5
1671
330
1670
100
AcDbProxyObject
 90
      499
 91
      566
 95
       25
 70
     0
 93
      256
310
5DE0143A0D960E4E0DDA0E32056E0D9C80C4050C3D3C535444503A444553433E
  0
ENDSEC
  0
EOF
