  0
SECTION
  2
HEADER
  9
$ACADVER
  1
AC1015
  9
$ACADMAINTVER
 70
     6
  9
$DWGCODEPAGE
  3
ANSI_932
  9
$INSBASE
 10
0.0
 20
0.0
 30
0.0
  9
$EXTMIN
 10
-89.67999699312441
 20
-104.2976465875195
 30
-0.0015258207003583
  9
$EXTMAX
 10
200.9470709197583
 20
84.35111789524217
 30
0.0000000349246037
  9
$LIMMIN
 10
-215.0
 20
-153.5
  9
$LIMMAX
 10
215.0
 20
153.5
  9
$ORTHOMODE
 70
     1
  9
$REGENMODE
 70
     1
  9
$FILLMODE
 70
     1
  9
$QTEXTMODE
 70
     0
  9
$MIRRTEXT
 70
     1
  9
$LTSCALE
 40
1.0
  9
$ATTMODE
 70
     1
  9
$TEXTSIZE
 40
2.5
  9
$TRACEWID
 40
1.0
  9
$TEXTSTYLE
  7
STANDARD
  9
$CLAYER
  8
AM_0
  9
$CELTYPE
  6
ByLayer
  9
$CECOLOR
 62
   256
  9
$CELTSCALE
 40
1.0
  9
$DISPSILH
 70
     0
  9
$DIMSCALE
 40
1.0
  9
$DIMASZ
 40
2.5
  9
$DIMEXO
 40
0.0
  9
$DIMDLI
 40
10.0
  9
$DIMRND
 40
0.0
  9
$DIMDLE
 40
0.0
  9
$DIMEXE
 40
1.0
  9
$DIMTP
 40
0.1
  9
$DIMTM
 40
0.1000000001
  9
$DIMTXT
 40
3.8
  9
$DIMCEN
 40
0.0
  9
$DIMTSZ
 40
0.0
  9
$DIMTOL
 70
     0
  9
$DIMLIM
 70
     0
  9
$DIMTIH
 70
     0
  9
$DIMTOH
 70
     0
  9
$DIMSE1
 70
     0
  9
$DIMSE2
 70
     0
  9
$DIMTAD
 70
     3
  9
$DIMZIN
 70
     1
  9
$DIMBLK
  1
Open30
  9
$DIMASO
 70
     1
  9
$DIMSHO
 70
     1
  9
$DIMPOST
  1

  9
$DIMAPOST
  1
"
  9
$DIMALT
 70
     0
  9
$DIMALTD
 70
     2
  9
$DIMALTF
 40
0.0393701
  9
$DIMLFAC
 40
1.0
  9
$DIMTOFL
 70
     1
  9
$DIMTVP
 40
0.0
  9
$DIMTIX
 70
     0
  9
$DIMSOXD
 70
     0
  9
$DIMSAH
 70
     0
  9
$DIMBLK1
  1

  9
$DIMBLK2
  1

  9
$DIMSTYLE
  2
AM_JIS
  9
$DIMCLRD
 70
     3
  9
$DIMCLRE
 70
     3
  9
$DIMCLRT
 70
     2
  9
$DIMTFAC
 40
0.71
  9
$DIMGAP
 40
1.5
  9
$DIMJUST
 70
     0
  9
$DIMSD1
 70
     0
  9
$DIMSD2
 70
     0
  9
$DIMTOLJ
 70
     0
  9
$DIMTZIN
 70
     8
  9
$DIMALTZ
 70
     0
  9
$DIMALTTZ
 70
     0
  9
$DIMUPT
 70
     0
  9
$DIMDEC
 70
     0
  9
$DIMTDEC
 70
     2
  9
$DIMALTU
 70
     2
  9
$DIMALTTD
 70
     2
  9
$DIMTXSTY
  7
STANDARD
  9
$DIMAUNIT
 70
     1
  9
$DIMADEC
 70
     0
  9
$DIMALTRND
 40
0.0
  9
$DIMAZIN
 70
     2
  9
$DIMDSEP
 70
    46
  9
$DIMATFIT
 70
     3
  9
$DIMFRAC
 70
     0
  9
$DIMLDRBLK
  1
Open30
  9
$DIMLUNIT
 70
     2
  9
$DIMLWD
 70
    13
  9
$DIMLWE
 70
    13
  9
$DIMTMOVE
 70
     0
  9
$LUNITS
 70
     2
  9
$LUPREC
 70
     2
  9
$SKETCHINC
 40
1.0
  9
$FILLETRAD
 40
2.5
  9
$AUNITS
 70
     1
  9
$AUPREC
 70
     5
  9
$MENU
  1
.
  9
$ELEVATION
 40
0.0
  9
$PELEVATION
 40
0.0
  9
$THICKNESS
 40
0.0
  9
$LIMCHECK
 70
     0
  9
$CHAMFERA
 40
2.5
  9
$CHAMFERB
 40
2.5
  9
$CHAMFERC
 40
20.0
  9
$CHAMFERD
 40
0.0
  9
$SKPOLY
 70
     0
  9
$TDCREATE
 40
2451948.610903461
  9
$TDUCREATE
 40
2451948.235903461
  9
$TDUPDATE
 40
2455463.480943287
  9
$TDUUPDATE
 40
2455463.105943287
  9
$TDINDWG
 40
0.5474936111
  9
$TDUSRTIMER
 40
0.547459537
  9
$USRTIMER
 70
     1
  9
$ANGBASE
 50
0.0
  9
$ANGDIR
 70
     0
  9
$PDMODE
 70
     0
  9
$PDSIZE
 40
0.0
  9
$PLINEWID
 40
0.0
  9
$SPLFRAME
 70
     0
  9
$SPLINETYPE
 70
     6
  9
$SPLINESEGS
 70
     8
  9
$HANDSEED
  5
4933
  9
$SURFTAB1
 70
     6
  9
$SURFTAB2
 70
     6
  9
$SURFTYPE
 70
     6
  9
$SURFU
 70
     6
  9
$SURFV
 70
     6
  9
$UCSBASE
  2

  9
$UCSNAME
  2

  9
$UCSORG
 10
0.0
 20
0.0
 30
0.0
  9
$UCSXDIR
 10
1.0
 20
0.0
 30
0.0
  9
$UCSYDIR
 10
0.0
 20
1.0
 30
0.0
  9
$UCSORTHOREF
  2

  9
$UCSORTHOVIEW
 70
     0
  9
$UCSORGTOP
 10
0.0
 20
0.0
 30
0.0
  9
$UCSORGBOTTOM
 10
0.0
 20
0.0
 30
0.0
  9
$UCSORGLEFT
 10
0.0
 20
0.0
 30
0.0
  9
$UCSORGRIGHT
 10
0.0
 20
0.0
 30
0.0
  9
$UCSORGFRONT
 10
0.0
 20
0.0
 30
0.0
  9
$UCSORGBACK
 10
0.0
 20
0.0
 30
0.0
  9
$PUCSBASE
  2

  9
$PUCSNAME
  2

  9
$PUCSORG
 10
0.0
 20
0.0
 30
0.0
  9
$PUCSXDIR
 10
1.0
 20
0.0
 30
0.0
  9
$PUCSYDIR
 10
0.0
 20
1.0
 30
0.0
  9
$PUCSORTHOREF
  2

  9
$PUCSORTHOVIEW
 70
     0
  9
$PUCSORGTOP
 10
0.0
 20
0.0
 30
0.0
  9
$PUCSORGBOTTOM
 10
0.0
 20
0.0
 30
0.0
  9
$PUCSORGLEFT
 10
0.0
 20
0.0
 30
0.0
  9
$PUCSORGRIGHT
 10
0.0
 20
0.0
 30
0.0
  9
$PUCSORGFRONT
 10
0.0
 20
0.0
 30
0.0
  9
$PUCSORGBACK
 10
0.0
 20
0.0
 30
0.0
  9
$USERI1
 70
     0
  9
$USERI2
 70
     0
  9
$USERI3
 70
     0
  9
$USERI4
 70
     0
  9
$USERI5
 70
     0
  9
$USERR1
 40
0.0
  9
$USERR2
 40
0.0
  9
$USERR3
 40
0.0
  9
$USERR4
 40
0.0
  9
$USERR5
 40
0.0
  9
$WORLDVIEW
 70
     1
  9
$SHADEDGE
 70
     3
  9
$SHADEDIF
 70
    70
  9
$TILEMODE
 70
     1
  9
$MAXACTVP
 70
    64
  9
$PINSBASE
 10
0.0
 20
0.0
 30
0.0
  9
$PLIMCHECK
 70
     0
  9
$PEXTMIN
 10
1.000000000000000E+20
 20
1.000000000000000E+20
 30
1.000000000000000E+20
  9
$PEXTMAX
 10
-1.000000000000000E+20
 20
-1.000000000000000E+20
 30
-1.000000000000000E+20
  9
$PLIMMIN
 10
0.0
 20
0.0
  9
$PLIMMAX
 10
420.0
 20
297.0
  9
$UNITMODE
 70
     0
  9
$VISRETAIN
 70
     1
  9
$PLINEGEN
 70
     0
  9
$PSLTSCALE
 70
     1
  9
$TREEDEPTH
 70
  3020
  9
$CMLSTYLE
  2
Standard
  9
$CMLJUST
 70
     0
  9
$CMLSCALE
 40
20.0
  9
$PROXYGRAPHICS
 70
     1
  9
$MEASUREMENT
 70
     1
  9
$CELWEIGHT
370
    13
  9
$ENDCAPS
280
     0
  9
$JOINSTYLE
280
     0
  9
$LWDISPLAY
290
     0
  9
$INSUNITS
 70
     4
  9
$HYPERLINKBASE
  1

  9
$STYLESHEET
  1
sei_cad.ctb
  9
$XEDIT
290
     1
  9
$CEPSNTYPE
380
     0
  9
$PSTYLEMODE
290
     1
  9
$FINGERPRINTGUID
  2
{403304E0-8DA2-11D3-AB8C-000629E2A613}
  9
$VERSIONGUID
  2
{9A6F098E-4326-4434-9286-FD6571951F6F}
  9
$EXTNAMES
290
     1
  9
$PSVPSCALE
 40
0.0
  9
$OLESTARTUP
290
     0
  0
ENDSEC
  0
SECTION
  2
CLASSES
  0
CLASS
  1
ACDBDICTIONARYWDFLT
  2
AcDbDictionaryWithDefault
  3
ObjectDBX Classes
 90
        0
280
     0
281
     0
  0
CLASS
  1
ACDBPLACEHOLDER
  2
AcDbPlaceHolder
  3
ObjectDBX Classes
 90
        0
280
     0
281
     0
  0
CLASS
  1
LAYOUT
  2
AcDbLayout
  3
ObjectDBX Classes
 90
        0
280
     0
281
     0
  0
CLASS
  1
ACME_DOCUMENT
  2
AcMeDbDoc
  3
AcMeServices
 90
        0
280
     1
281
     0
  0
CLASS
  1
ACMESCOPE
  2
AcMeScope
  3
AcMeServices
 90
        0
280
     1
281
     0
  0
CLASS
  1
ACMECOMMANDHISTORY
  2
AcMeCommandHistory
  3
AcMeServices
 90
        0
280
     1
281
     0
  0
CLASS
  1
DICTIONARYVAR
  2
AcDbDictionaryVar
  3
ObjectDBX Classes
 90
        0
280
     0
281
     0
  0
CLASS
  1
ACIMSYSVARMAN
  2
AcImSysVarManager
  3
AcMeServices
 90
        0
280
     1
281
     0
  0
CLASS
  1
ACIMREALSYSVAR
  2
AcImRealSysVar
  3
AcMeServices
 90
        0
280
     1
281
     0
  0
CLASS
  1
ACIMINTSYSVAR
  2
AcImIntSysVar
  3
AcMeServices
 90
        0
280
     1
281
     0
  0
CLASS
  1
ACMEDRAWINGMAN
  2
AcMeDrawingMan
  3
AcMeServices
 90
        0
280
     1
281
     0
  0
CLASS
  1
ACMEVIEW
  2
AcMeView
  3
AcMeServices
 90
        0
280
     1
281
     0
  0
CLASS
  1
ACDBENTITYCACHE
  2
AcMeEntityCache
  3
AcMeServices
 90
        0
280
     1
281
     0
  0
CLASS
  1
GSMANAGER
  2
AcMeGSManager
  3
AcMeServices
 90
        0
280
     1
281
     0
  0
CLASS
  1
AMDTINTERNALREACTOR
  2
AmdtInternalReactor
  3
AcMeServices
 90
        0
280
     1
281
     0
  0
CLASS
  1
ACMESTATEMGR
  2
AcMeStateMgr
  3
AcMeServices
 90
        0
280
     1
281
     0
  0
CLASS
  1
ACME_DATABASE
  2
AcMeDbDatabase
  3
AcMeServices
 90
        0
280
     1
281
     0
  0
CLASS
  1
ACRFINSADJUSTERMGR
  2
AcRfInsAdjusterMgr
  3
AcMeServices
 90
        0
280
     1
281
     0
  0
CLASS
  1
AMGSETTINGSOBJ
  2
AmgSettingsObj
  3
"AcadM|Product Description: AutoCAD Mechanical 2000|Company: Autodesk"
 90
        0
280
     1
281
     0
  0
CLASS
  1
ACMDATADICTIONARY
  2
AcmDataDictionary
  3
"AcmSymBB|Product Description: AutoCAD Mechanical 2004 DX|Company: Autodesk"
 90
        0
280
     1
281
     0
  0
CLASS
  1
ACMDATAENTRYBLOCK
  2
AcmDataEntryBlock
  3
"AcmSymBB|Product Description: AutoCAD Mechanical 2004 DX|Company: Autodesk"
 90
        0
280
     1
281
     0
  0
CLASS
  1
AMGOBJPROPCFG
  2
AmgObjPropCfg
  3
"AmgLay|Product Description: AutoCAD Mechanical 2000|Company: Autodesk"
 90
        1
280
     1
281
     0
  0
CLASS
  1
ACAMGFILTERDAT
  2
AcAmgFilterDat
  3
"AcadM|Product Description: AutoCAD Mechanical 2000|Company: Autodesk"
 90
        0
280
     1
281
     0
  0
CLASS
  1
LAYER_INDEX
  2
AcDbLayerIndex
  3
ObjectDBX Classes
 90
        0
280
     0
281
     0
  0
CLASS
  1
IDBUFFER
  2
AcDbIdBuffer
  3
ObjectDBX Classes
 90
        0
280
     0
281
     0
  0
CLASS
  1
ACIMSTRSYSVAR
  2
AcImStrSysVar
  3
AcMeServices
 90
        0
280
     1
281
     0
  0
CLASS
  1
ACMSTANDARDJIS
  2
AcmStandardJIS
  3
"Amdt_StdImp|Product Description: AutoCAD Mechanical 2004 DX|Company: Autodesk"
 90
        0
280
     1
281
     0
  0
CLASS
  1
ACMSURFSTANDARDJIS
  2
AcmSurfTextStdJIS
  3
"Amdt_StdImp|Product Description: AutoCAD Mechanical 2004 DX|Company: Autodesk"
 90
        0
280
     1
281
     0
  0
CLASS
  1
ACMFCFSTANDARDJIS
  2
AcmFCFStdJIS
  3
"Amdt_StdImp|Product Description: AutoCAD Mechanical 2004 DX|Company: Autodesk"
 90
        0
280
     1
281
     0
  0
CLASS
  1
ACMWELDSTANDARDJIS
  2
AcmWeldingStdJIS
  3
"Amdt_StdImp|Product Description: AutoCAD Mechanical 2004 DX|Company: Autodesk"
 90
        0
280
     1
281
     0
  0
CLASS
  1
ACMIDSTANDARDJIS
  2
AcmIdStdJIS
  3
"Amdt_StdImp|Product Description: AutoCAD Mechanical 2004 DX|Company: Autodesk"
 90
        0
280
     1
281
     0
  0
CLASS
  1
ACMDATUMSTANDARDJIS
  2
AcmDatumStdJIS
  3
"Amdt_StdImp|Product Description: AutoCAD Mechanical 2004 DX|Company: Autodesk"
 90
        0
280
     1
281
     0
  0
CLASS
  1
ACMBOMSTANDARDJIS
  2
AcmBOMStdJIS
  3
"Amdt_StdImp|Product Description: AutoCAD Mechanical 2004 DX|Company: Autodesk"
 90
        0
280
     1
281
     0
  0
CLASS
  1
TABLESTYLE
  2
AcDbTableStyle
  3
ObjectDBX Classes
 90
     2047
280
     0
281
     0
  0
CLASS
  1
ACGREFMASTER
  2
AcGrefMaster
  3
AcAttribServices
 90
        0
280
     1
281
     0
  0
CLASS
  1
AM_DRAWING_MGR
  2
AcDmDwgMgr
  3
AcMechDwgViewMgmt
 90
        0
280
     1
281
     0
  0
CLASS
  1
AM_DWG_DOCUMENT
  2
AcDmDwgDocument
  3
AcMechDwgViewMgmt
 90
        0
280
     1
281
     0
  0
CLASS
  1
AM_DWG_SHEET
  2
AcDmSheet
  3
AcMechDwgViewMgmt
 90
        0
280
     1
281
     0
  0
CLASS
  1
AM_VIEWDIMPARMAP
  2
AcDmViewDimParMap
  3
AcMechDwgViewMgmt
 90
        0
280
     1
281
     0
  0
CLASS
  1
AM_DWGMGR_NAME
  2
AcDmDwgMgrName
  3
AcMechDwgViewMgmt
 90
        0
280
     1
281
     0
  0
CLASS
  1
ACGREFACADMASTER
  2
AcGrefacadMaster
  3
AcGrefServices
 90
        0
280
     1
281
     0
  0
CLASS
  1
AMDTMENUSTATEMGR
  2
AmdtMenuStateMgr
  3
McadcomServices
 90
        0
280
     1
281
     0
  0
CLASS
  1
AMDTMCOMMENUSTATE
  2
AmdtMcomMenuState
  3
McadcomServices
 90
        0
280
     1
281
     0
  0
CLASS
  1
AMIMASTER
  2
AmiMaster
  3
AmiServices
 90
        0
280
     1
281
     0
  0
CLASS
  1
MAPIAMMOUDLE
  2
MApiAmModule
  3
MApiAmServices
 90
        0
280
     1
281
     0
  0
CLASS
  1
AMDTADMENUSTATE
  2
AmdtAdMenuState
  3
DesignerServices
 90
        0
280
     1
281
     0
  0
CLASS
  1
ADAPPL
  2
AcAdAppl
  3
DesignerServices
 90
        0
280
     1
281
     0
  0
CLASS
  1
DEPMGR
  2
AcAdDepMgr
  3
DesignerServices
 90
        0
280
     1
281
     0
  0
CLASS
  1
PARAMMGR
  2
AcAdParamMgr
  3
DesignerServices
 90
        0
280
     1
281
     0
  0
CLASS
  1
PARAMSCOPE
  2
AcAdParamScope
  3
DesignerServices
 90
        0
280
     1
281
     0
  0
CLASS
  1
NAMEDAPPL
  2
AcAdNamedAppl
  3
DesignerServices
 90
        0
280
     1
281
     0
  0
CLASS
  1
AMDTDMMENUSTATE
  2
AmdtDmMenuState
  3
AcMechDwgViewMgmt
 90
        0
280
     1
281
     0
  0
CLASS
  1
AMDTAMMENUSTATE
  2
AmdtAmMenuState
  3
DesignerAssemblies
 90
        0
280
     1
281
     0
  0
CLASS
  1
ACAMPROJECT
  2
AcAmProject
  3
DesignerAssemblies
 90
        0
280
     1
281
     0
  0
CLASS
  1
ACAMGRCOMPDEF
  2
AcAmGrCompDef
  3
DesignerAssemblies
 90
        0
280
     1
281
     0
  0
CLASS
  1
ACCMCONTEXT
  2
AcCmContext
  3
DesignerAssemblies
 90
        0
280
     1
281
     0
  0
CLASS
  1
ACAMCOMPDEF
  2
AcAmCompDef
  3
DesignerAssemblies
 90
        0
280
     1
281
     0
  0
CLASS
  1
ACAMCOMPDEFMGR
  2
AcAmCompDefMgr
  3
DesignerAssemblies
 90
        0
280
     1
281
     0
  0
CLASS
  1
AMCONTEXTMGR
  2
AcAmContextMgr
  3
DesignerAssemblies
 90
        0
280
     1
281
     0
  0
CLASS
  1
ACAMCONTEXTMODELER
  2
AcAmContextModeler
  3
DesignerAssemblies
 90
        0
280
     1
281
     0
  0
CLASS
  1
ACAMGTITLESTD
  2
AcAmgTitleStd
  3
"TITLEAPP"
 90
        0
280
     1
281
     0
  0
CLASS
  1
ACMDETAILSTANDARDJIS
  2
AmdtDetailSymStdJIS
  3
"Amdt_StdImp|Product Description: AutoCAD Mechanical 2004 DX|Company: Autodesk"
 90
        0
280
     1
281
     0
  0
CLASS
  1
ACMSECTIONSTANDARDJIS
  2
AmdtSectionSymStdJIS
  3
"Amdt_StdImp|Product Description: AutoCAD Mechanical 2004 DX|Company: Autodesk"
 90
        0
280
     1
281
     0
  0
CLASS
  1
ACMCENTERLINESTANDARDJIS
  2
AmdtCenterLineStdJIS
  3
"Amdt_StdImp|Product Description: AutoCAD Mechanical 2004 DX|Company: Autodesk"
 90
        0
280
     1
281
     0
  0
CLASS
  1
ACMTHREADLINESTANDARDJIS
  2
AmdtThreadLineStdJIS
  3
"Amdt_StdImp|Product Description: AutoCAD Mechanical 2004 DX|Company: Autodesk"
 90
        0
280
     1
281
     0
  0
CLASS
  1
ACMNOTESTANDARDJIS
  2
AmdtNoteStdJIS
  3
"Amdt_StdImp|Product Description: AutoCAD Mechanical 2004 DX|Company: Autodesk"
 90
        0
280
     1
281
     0
  0
CLASS
  1
AMDTNOTETEMPLATEDB
  2
AmdtNoteTemplateDB
  3
AMDT_STDIMP_MODULE_NAME
 90
        0
280
     1
281
     0
  0
CLASS
  1
ACAMGLAYSTD
  2
AcAmgLayStd
  3
"AcAmgLayStd|Product Description: AutoCAD Mechanical 2000|Company: Autodesk"
 90
        0
280
     1
281
     0
  0
CLASS
  1
ACAMGDIMSTD
  2
AcAmgDimStd
  3
"AcAmgDimStd|Product Description: AutoCAD Mechanical 2000|Company: Autodesk"
 90
        0
280
     1
281
     0
  0
CLASS
  1
ACAMGHOLECHARTSTDJIS
  2
AcAmgHoleChartStdJIS
  3
ACMSYMBB_MODULE_NAME
 90
        0
280
     1
281
     0
  0
CLASS
  1
CATALOGSTATE
  2
AcAmCatalogState
  3
DesignerAssemblies
 90
        0
280
     1
281
     0
  0
CLASS
  1
ACAMGRCOMPDEFSET
  2
AcAmGrCompDefSet
  3
DesignerAssemblies
 90
        0
280
     1
281
     0
  0
CLASS
  1
AMDTBROWSERDBTAB
  2
AmdtBrowserDbTab
  3
McadcomServices
 90
        0
280
     1
281
     0
  0
CLASS
  1
CBROWSERAPPOBJECT
  2
CBrowserAppObject
  3
McadcomServices
 90
        0
280
     1
281
     0
  0
CLASS
  1
DM_PLACEHOLDER
  2
AcDmSelsetPlaceholder
  3
AcMechDwgViewMgmt
 90
        0
280
     1
281
     0
  0
CLASS
  1
SORTENTSTABLE
  2
AcDbSortentsTable
  3
ObjectDBX Classes
 90
        0
280
     0
281
     0
  0
CLASS
  1
ACMSTANDARDANSI
  2
AcmStandardANSI
  3
"Amdt_StdImp|Product Description: AutoCAD Mechanical 2004 DX|Company: Autodesk"
 90
        0
280
     1
281
     0
  0
CLASS
  1
ACMSURFSTANDARDANSI
  2
AcmSurfTextStdANSI
  3
"Amdt_StdImp|Product Description: AutoCAD Mechanical 2004 DX|Company: Autodesk"
 90
        0
280
     1
281
     0
  0
CLASS
  1
ACMFCFSTANDARDANSI
  2
AcmFCFStdANSI
  3
"Amdt_StdImp|Product Description: AutoCAD Mechanical 2004 DX|Company: Autodesk"
 90
        0
280
     1
281
     0
  0
CLASS
  1
ACMWELDSTANDARDANSI
  2
AcmWeldingStdANSI
  3
"Amdt_StdImp|Product Description: AutoCAD Mechanical 2004 DX|Company: Autodesk"
 90
        0
280
     1
281
     0
  0
CLASS
  1
ACMIDSTANDARDANSI
  2
AcmIdStdANSI
  3
"Amdt_StdImp|Product Description: AutoCAD Mechanical 2004 DX|Company: Autodesk"
 90
        0
280
     1
281
     0
  0
CLASS
  1
ACMDATUMSTANDARDANSI
  2
AcmDatumStdANSI
  3
"Amdt_StdImp|Product Description: AutoCAD Mechanical 2004 DX|Company: Autodesk"
 90
        0
280
     1
281
     0
  0
CLASS
  1
ACMBOMSTANDARDANSI
  2
AcmBOMStdANSI
  3
"Amdt_StdImp|Product Description: AutoCAD Mechanical 2004 DX|Company: Autodesk"
 90
        0
280
     1
281
     0
  0
CLASS
  1
ACMDETAILSTANDARDANSI
  2
AmdtDetailSymStdANSI
  3
"Amdt_StdImp|Product Description: AutoCAD Mechanical 2004 DX|Company: Autodesk"
 90
        0
280
     1
281
     0
  0
CLASS
  1
ACMSECTIONSTANDARDANSI
  2
AmdtSectionSymStdANSI
  3
"Amdt_StdImp|Product Description: AutoCAD Mechanical 2004 DX|Company: Autodesk"
 90
        0
280
     1
281
     0
  0
CLASS
  1
ACMCENTERLINESTANDARDANSI
  2
AmdtCenterLineStdANSI
  3
"Amdt_StdImp|Product Description: AutoCAD Mechanical 2004 DX|Company: Autodesk"
 90
        0
280
     1
281
     0
  0
CLASS
  1
ACMTHREADLINESTANDARDANSI
  2
AmdtThreadLineStdANSI
  3
"Amdt_StdImp|Product Description: AutoCAD Mechanical 2004 DX|Company: Autodesk"
 90
        0
280
     1
281
     0
  0
CLASS
  1
ACMNOTESTANDARDANSI
  2
AmdtNoteStdANSI
  3
"Amdt_StdImp|Product Description: AutoCAD Mechanical 2004 DX|Company: Autodesk"
 90
        0
280
     1
281
     0
  0
CLASS
  1
ACAMGHOLECHARTSTDANSI
  2
AcAmgHoleChartStdANSI
  3
ACMSYMBB_MODULE_NAME
 90
        0
280
     1
281
     0
  0
CLASS
  1
AMDTNOTE
  2
AmdtNote
  3
"AcmSymBB|Product Description: AutoCAD Mechanical 2004 DX|Company: Autodesk"
 90
     1023
280
     1
281
     1
  0
ENDSEC
  0
SECTION
  2
TABLES
  0
TABLE
  2
VPORT
  5
8
330
0
100
AcDbSymbolTable
 70
     9
  0
VPORT
  5
492C
330
8
100
AcDbSymbolTableRecord
100
AcDbViewportTableRecord
  2
*Active
 70
     0
 10
0.0
 20
0.0
 11
1.0
 21
1.0
 12
55.63353696331694
 22
-9.973264346138649
 13
0.0
 23
0.0
 14
2.5
 24
2.5
 15
10.0
 25
10.0
 16
0.0
 26
0.0
 36
1.0
 17
0.0
 27
0.0
 37
0.0
 40
190.3108681345921
 41
1.697058823529412
 42
50.0
 43
0.0
 44
0.0
 50
0.0
 51
0.0
 71
     0
 72
  2000
 73
     1
 74
     3
 75
     0
 76
     0
 77
     0
 78
     0
281
     0
 65
     1
110
0.0
120
0.0
130
0.0
111
1.0
121
0.0
131
0.0
112
0.0
122
1.0
132
0.0
 79
     0
146
0.0
  0
ENDTAB
  0
TABLE
  2
LTYPE
  5
5
330
0
100
AcDbSymbolTable
 70
    15
  0
LTYPE
  5
14
330
5
100
AcDbSymbolTableRecord
100
AcDbLinetypeTableRecord
  2
ByBlock
 70
     0
  3

 72
    65
 73
     0
 40
0.0
  0
LTYPE
  5
15
330
5
100
AcDbSymbolTableRecord
100
AcDbLinetypeTableRecord
  2
ByLayer
 70
     0
  3

 72
    65
 73
     0
 40
0.0
  0
LTYPE
  5
16
330
5
100
AcDbSymbolTableRecord
100
AcDbLinetypeTableRecord
  2
Continuous
 70
     0
  3
Solid line
 72
    65
 73
     0
 40
0.0
  0
LTYPE
  5
48
330
5
100
AcDbSymbolTableRecord
100
AcDbLinetypeTableRecord
  2
AM_ISO02W050
 70
     0
  3
__ __ __ __ __ __ __ __ __ __ __ __ __ __ __
 72
    65
 73
     2
 40
7.5
 49
6.0
 74
     0
 49
-1.5
 74
     0
  0
LTYPE
  5
49
330
5
100
AcDbSymbolTableRecord
100
AcDbLinetypeTableRecord
  2
AM_ISO08W050
 70
     0
  3
____ . ____ . ____ . ____ . ____ . ____ . ____
 72
    65
 73
     4
 40
18.0
 49
12.0
 74
     0
 49
-1.5
 74
     0
 49
3.0
 74
     0
 49
-1.5
 74
     0
  0
LTYPE
  5
4A
330
5
100
AcDbSymbolTableRecord
100
AcDbLinetypeTableRecord
  2
AM_ISO09W050
 70
     0
  3
_____ . . _____ . . _____ . . ____ .. ____
 72
    65
 73
     6
 40
22.5
 49
12.0
 74
     0
 49
-1.5
 74
     0
 49
3.0
 74
     0
 49
-1.5
 74
     0
 49
3.0
 74
     0
 49
-1.5
 74
     0
  0
LTYPE
  5
4B
330
5
100
AcDbSymbolTableRecord
100
AcDbLinetypeTableRecord
  2
Amconstr
 70
     0
  3
_______________________
 72
    65
 73
     2
 40
9999.0
 49
9999.0
 74
     0
 49
0.0
 74
     0
  0
LTYPE
  5
4C
330
5
100
AcDbSymbolTableRecord
100
AcDbLinetypeTableRecord
  2
AM_ISO02W050x2
 70
     0
  3
 _ _ _ _ _ _ _ _ _ _ _ _
 72
    65
 73
     2
 40
3.75
 49
3.0
 74
     0
 49
-0.75
 74
     0
  0
LTYPE
  5
4D
330
5
100
AcDbSymbolTableRecord
100
AcDbLinetypeTableRecord
  2
AM_ISO08W050x2
 70
     0
  3
__ . __ . __ . __ . __ . __
 72
    65
 73
     4
 40
9.0
 49
6.0
 74
     0
 49
-0.75
 74
     0
 49
1.5
 74
     0
 49
-0.75
 74
     0
  0
LTYPE
  5
50
330
5
100
AcDbSymbolTableRecord
100
AcDbLinetypeTableRecord
  2
Amzigzag
 70
     0
  3
/\/-/\/-/\/-/\/-/\/-/\/
 72
    65
 73
     2
 40
11.0001
 49
0.0001
 74
     4
 75
   135
340
4F
 46
0.04
 50
0.0
 44
0.0
 45
0.0
 49
-11.0
 74
     0
  0
LTYPE
  5
118
330
5
100
AcDbSymbolTableRecord
100
AcDbLinetypeTableRecord
  2
CENTER
 70
     0
  3
____ _ ____ _ ____ _ ____ _ ____ _ ____ _ ____
 72
    65
 73
     4
 40
17.5
 49
13.0
 74
     0
 49
-1.5
 74
     0
 49
1.5
 74
     0
 49
-1.5
 74
     0
  0
LTYPE
  5
7AA
330
5
100
AcDbSymbolTableRecord
100
AcDbLinetypeTableRecord
  2
ACJISTGB
 70
     0
  3
__ . . __ . .
 72
    65
 73
     6
 40
9.0
 49
4.0
 74
     0
 49
-1.0
 74
     0
 49
1.0
 74
     0
 49
-1.0
 74
     0
 49
1.0
 74
     0
 49
-1.0
 74
     0
  0
LTYPE
  5
7AB
330
5
100
AcDbSymbolTableRecord
100
AcDbLinetypeTableRecord
  2
ACJISTGL
 70
     0
  3
_ _ _ _ _
 72
    65
 73
     2
 40
3.0
 49
2.0
 74
     0
 49
-1.0
 74
     0
  0
LTYPE
  5
1645
330
5
100
AcDbSymbolTableRecord
100
AcDbLinetypeTableRecord
  2
HIDDEN
 70
     0
  3
Hidden __ __ __ __ __ __ __ __ __ __ __ __ __ _
 72
    65
 73
     2
 40
9.524999999999999
 49
6.35
 74
     0
 49
-3.175
 74
     0
  0
LTYPE
  5
1646
330
5
100
AcDbSymbolTableRecord
100
AcDbLinetypeTableRecord
  2
PHANTOM2
 70
     0
  3
Phantom (.5x) ___ _ _ ___ _ _ ___ _ _ ___ _ _
 72
    65
 73
     6
 40
31.75
 49
15.875
 74
     0
 49
-3.175
 74
     0
 49
3.175
 74
     0
 49
-3.175
 74
     0
 49
3.175
 74
     0
 49
-3.175
 74
     0
  0
LTYPE
  5
1907
330
5
100
AcDbSymbolTableRecord
100
AcDbLinetypeTableRecord
  2
ACANSTGB
 70
     0
  3
__ . . __ . .
 72
    65
 73
     6
 40
0.35433070866
 49
0.15748031496
 74
     0
 49
-0.03937007874
 74
     0
 49
0.03937007874
 74
     0
 49
-0.03937007874
 74
     0
 49
0.03937007874
 74
     0
 49
-0.03937007874
 74
     0
  0
LTYPE
  5
1908
330
5
100
AcDbSymbolTableRecord
100
AcDbLinetypeTableRecord
  2
ACANSTGL
 70
     0
  3
_ _ _ _ _
 72
    65
 73
     2
 40
0.11811023622
 49
0.07874015748
 74
     0
 49
-0.03937007874
 74
     0
  0
ENDTAB
  0
TABLE
  2
LAYER
  5
2
102
{ACAD_XDICTIONARY
360
1832
102
}
330
0
100
AcDbSymbolTable
 70
     6
  0
LAYER
  5
10
330
2
100
AcDbSymbolTableRecord
100
AcDbLayerTableRecord
  2
0
 70
     0
 62
     7
  6
Continuous
370
    -3
390
F
  0
LAYER
  5
68
330
2
100
AcDbSymbolTableRecord
100
AcDbLayerTableRecord
  2
AM_5
 70
     0
 62
     3
  6
Continuous
370
    13
390
F
  0
LAYER
  5
7B
330
2
100
AcDbSymbolTableRecord
100
AcDbLayerTableRecord
  2
Defpoints
 70
     0
 62
     7
  6
Continuous
290
     0
370
    -3
390
F
  0
LAYER
  5
5A3
330
2
100
AcDbSymbolTableRecord
100
AcDbLayerTableRecord
  2
AM_7
 70
     0
 62
     4
  6
AM_ISO08W050
370
    13
390
F
  0
LAYER
  5
5A4
330
2
100
AcDbSymbolTableRecord
100
AcDbLayerTableRecord
  2
AM_6
 70
     0
 62
     2
  6
Continuous
370
    30
390
F
  0
LAYER
  5
5F1
330
2
100
AcDbSymbolTableRecord
100
AcDbLayerTableRecord
  2
AM_0
 70
     0
 62
     7
  6
Continuous
370
    30
390
F
  0
ENDTAB
  0
TABLE
  2
STYLE
  5
3
330
0
100
AcDbSymbolTable
 70
     7
  0
STYLE
  5
11
330
3
100
AcDbSymbolTableRecord
100
AcDbTextStyleTableRecord
  2
STANDARD
 70
     0
 40
0.0
 41
1.0
 50
0.0
 71
     0
 42
2.5
  3
ISOCP.SHX
  4
EXTFONT.SHX
  0
STYLE
  5
4F
330
3
100
AcDbSymbolTableRecord
100
AcDbTextStyleTableRecord
  2

 70
     1
 40
0.0
 41
1.0
 50
0.0
 71
     0
 42
2.5
  3
ltypeshp.shx
  4

  0
STYLE
  5
7A2
330
3
100
AcDbSymbolTableRecord
100
AcDbTextStyleTableRecord
  2
ACJISTS
 70
     0
 40
1.0
 41
1.0
 50
0.0
 71
     0
 42
2.5
  3
isocp.shx
  4
bigfont.shx
  0
STYLE
  5
7A9
330
3
100
AcDbSymbolTableRecord
100
AcDbTextStyleTableRecord
  2
ACJISGDT
 70
     0
 40
0.0
 41
1.0
 50
0.0
 71
     0
 42
2.5
  3
amgdt.shx
  4

  0
STYLE
  5
182F
330
3
100
AcDbSymbolTableRecord
100
AcDbTextStyleTableRecord
  2
ACISOTS
 70
     0
 40
1.0
 41
1.0
 50
0.0
 71
     0
 42
1.0
  3
isocp.shx
  4
extfont.shx
  0
STYLE
  5
190A
330
3
100
AcDbSymbolTableRecord
100
AcDbTextStyleTableRecord
  2
ACANSTS
 70
     0
 40
1.0
 41
1.0
 50
0.0
 71
     0
 42
2.5
  3
romans.shx
  4
extfont.shx
  0
STYLE
  5
190B
330
3
100
AcDbSymbolTableRecord
100
AcDbTextStyleTableRecord
  2
ACANSGDT
 70
     0
 40
0.0
 41
1.0
 50
0.0
 71
     0
 42
2.5
  3
amgdtans.shx
  4

  0
ENDTAB
  0
TABLE
  2
VIEW
  5
6
330
0
100
AcDbSymbolTable
 70
     6
  0
VIEW
  5
4F5
330
6
100
AcDbSymbolTableRecord
100
AcDbViewTableRecord
  2
AM_VIEW1
 70
     0
 40
150.0
 10
113.2040050062578
 20
225.0
 41
226.4080100125157
 11
0.0
 21
0.0
 31
1.0
 12
0.0
 22
0.0
 32
0.0
 42
50.0
 43
0.0
 44
0.0
 50
0.0
 71
     0
281
     0
 72
     0
  0
VIEW
  5
4F6
330
6
100
AcDbSymbolTableRecord
100
AcDbViewTableRecord
  2
AM_VIEW2
 70
     0
 40
150.0
 10
309.7959949937422
 20
225.0
 41
226.4080100125157
 11
0.0
 21
0.0
 31
1.0
 12
0.0
 22
0.0
 32
0.0
 42
50.0
 43
0.0
 44
0.0
 50
0.0
 71
     0
281
     0
 72
     0
  0
VIEW
  5
4F7
330
6
100
AcDbSymbolTableRecord
100
AcDbViewTableRecord
  2
AM_VIEW3
 70
     0
 40
150.0
 10
113.2040050062578
 20
75.0
 41
226.4080100125157
 11
0.0
 21
0.0
 31
1.0
 12
0.0
 22
0.0
 32
0.0
 42
50.0
 43
0.0
 44
0.0
 50
0.0
 71
     0
281
     0
 72
     0
  0
VIEW
  5
4F8
330
6
100
AcDbSymbolTableRecord
100
AcDbViewTableRecord
  2
AM_VIEW4
 70
     0
 40
150.0
 10
309.7959949937422
 20
75.0
 41
226.4080100125157
 11
0.0
 21
0.0
 31
1.0
 12
0.0
 22
0.0
 32
0.0
 42
50.0
 43
0.0
 44
0.0
 50
0.0
 71
     0
281
     0
 72
     0
  0
VIEW
  5
4F9
330
6
100
AcDbSymbolTableRecord
100
AcDbViewTableRecord
  2
AM_VIEW5
 70
     0
 40
150.0
 10
211.5
 20
150.0
 41
226.4080100125157
 11
0.0
 21
0.0
 31
1.0
 12
0.0
 22
0.0
 32
0.0
 42
50.0
 43
0.0
 44
0.0
 50
0.0
 71
     0
281
     0
 72
     0
  0
VIEW
  5
4FA
330
6
100
AcDbSymbolTableRecord
100
AcDbViewTableRecord
  2
AM_VIEW6
 70
     0
 40
299.9970000000001
 10
211.5
 20
150.0
 41
452.8114918648312
 11
0.0
 21
0.0
 31
1.0
 12
0.0
 22
0.0
 32
0.0
 42
50.0
 43
0.0
 44
0.0
 50
0.0
 71
     0
281
     0
 72
     0
  0
ENDTAB
  0
TABLE
  2
UCS
  5
7
330
0
100
AcDbSymbolTable
 70
     0
  0
ENDTAB
  0
TABLE
  2
APPID
  5
9
330
0
100
AcDbSymbolTable
 70
    32
  0
APPID
  5
12
330
9
100
AcDbSymbolTableRecord
100
AcDbRegAppTableRecord
  2
ACAD
 70
     0
  0
APPID
  5
2C
330
9
100
AcDbSymbolTableRecord
100
AcDbRegAppTableRecord
  2
MCAD_NO_VIS
 70
     0
  0
APPID
  5
2D
330
9
100
AcDbSymbolTableRecord
100
AcDbRegAppTableRecord
  2
ACAD_TEMP_GRAPHIC
 70
     0
  0
APPID
  5
B5
330
9
100
AcDbSymbolTableRecord
100
AcDbRegAppTableRecord
  2
GENIUS_GENDTOL_13
 70
     0
  0
APPID
  5
12C
330
9
100
AcDbSymbolTableRecord
100
AcDbRegAppTableRecord
  2
GENIUS_GENCFG_13
 70
     0
  0
APPID
  5
12D
330
9
100
AcDbSymbolTableRecord
100
AcDbRegAppTableRecord
  2
GENIUS_GENCFG0_13
 70
     0
  0
APPID
  5
12E
330
9
100
AcDbSymbolTableRecord
100
AcDbRegAppTableRecord
  2
GENIUS_GENCFG1_13
 70
     0
  0
APPID
  5
12F
330
9
100
AcDbSymbolTableRecord
100
AcDbRegAppTableRecord
  2
GENIUS_GENCFG2_13
 70
     0
  0
APPID
  5
130
330
9
100
AcDbSymbolTableRecord
100
AcDbRegAppTableRecord
  2
GENIUS_GENCFG3_13
 70
     0
  0
APPID
  5
131
330
9
100
AcDbSymbolTableRecord
100
AcDbRegAppTableRecord
  2
GENIUS_GENCFG4_13
 70
     0
  0
APPID
  5
53B
330
9
100
AcDbSymbolTableRecord
100
AcDbRegAppTableRecord
  2
GENIUS_GENBLLY_14
 70
     0
  0
APPID
  5
53C
330
9
100
AcDbSymbolTableRecord
100
AcDbRegAppTableRecord
  2
GENIUS_GENODEF_13
 70
     0
  0
APPID
  5
53D
330
9
100
AcDbSymbolTableRecord
100
AcDbRegAppTableRecord
  2
GENIUS_GENOBJ-N-CEN_13
 70
     0
  0
APPID
  5
549
330
9
100
AcDbSymbolTableRecord
100
AcDbRegAppTableRecord
  2
GENIUS_GENTRA_14
 70
     0
  0
APPID
  5
553
330
9
100
AcDbSymbolTableRecord
100
AcDbRegAppTableRecord
  2
GENIUS_GENOBJ-N-TIT_13
 70
     0
  0
APPID
  5
554
330
9
100
AcDbSymbolTableRecord
100
AcDbRegAppTableRecord
  2
GENIUS_GENTITLE_13
 70
     0
  0
APPID
  5
555
330
9
100
AcDbSymbolTableRecord
100
AcDbRegAppTableRecord
  2
GENIUS_GENOENT_13
 70
     0
  0
APPID
  5
556
330
9
100
AcDbSymbolTableRecord
100
AcDbRegAppTableRecord
  2
GENIUS_GENOREF_13
 70
     0
  0
APPID
  5
557
330
9
100
AcDbSymbolTableRecord
100
AcDbRegAppTableRecord
  2
GENIUS_GENOLIS_13
 70
     0
  0
APPID
  5
558
330
9
100
AcDbSymbolTableRecord
100
AcDbRegAppTableRecord
  2
GENIUS_GENZVEED_13
 70
     0
  0
APPID
  5
559
330
9
100
AcDbSymbolTableRecord
100
AcDbRegAppTableRecord
  2
GENIUS_GENSCREG_15
 70
     0
  0
APPID
  5
55A
330
9
100
AcDbSymbolTableRecord
100
AcDbRegAppTableRecord
  2
GENIUS_GENOBJ-N-SDF_13
 70
     0
  0
APPID
  5
567
330
9
100
AcDbSymbolTableRecord
100
AcDbRegAppTableRecord
  2
GENIUS_GENREC_14
 70
     0
  0
APPID
  5
568
330
9
100
AcDbSymbolTableRecord
100
AcDbRegAppTableRecord
  2
GENIUS_GENOBJ-N-REC_13
 70
     0
  0
APPID
  5
609
330
9
100
AcDbSymbolTableRecord
100
AcDbRegAppTableRecord
  2
GENIUS_GENOBJ-N-HTC_13
 70
     0
  0
APPID
  5
60A
330
9
100
AcDbSymbolTableRecord
100
AcDbRegAppTableRecord
  2
GENIUS_GENHATCH_13
 70
     0
  0
APPID
  5
1648
330
9
100
AcDbSymbolTableRecord
100
AcDbRegAppTableRecord
  2
AD_DRAW
 70
     0
  0
APPID
  5
164B
330
9
100
AcDbSymbolTableRecord
100
AcDbRegAppTableRecord
  2
ACATTRIBSERVICES
 70
     0
  0
APPID
  5
1669
330
9
100
AcDbSymbolTableRecord
100
AcDbRegAppTableRecord
  2
DESIGNERASSEMBLIES
 70
     0
  0
APPID
  5
167C
330
9
100
AcDbSymbolTableRecord
100
AcDbRegAppTableRecord
  2
ACADM_DIM_EDIT
 70
     0
  0
APPID
  5
167D
330
9
100
AcDbSymbolTableRecord
100
AcDbRegAppTableRecord
  2
AMDT_DM_ADJ
 70
     0
  0
APPID
  5
2B0B
330
9
100
AcDbSymbolTableRecord
100
AcDbRegAppTableRecord
  2
GENIUS_GENOBJ-N-CRS_13
 70
     0
  0
ENDTAB
  0
TABLE
  2
DIMSTYLE
  5
A
330
0
100
AcDbSymbolTable
 70
    15
100
AcDbDimStyleTable
  0
DIMSTYLE
105
69
102
{ACAD_REACTORS
330
4894
102
}
330
A
100
AcDbSymbolTableRecord
100
AcDbDimStyleTableRecord
  2
AM_JIS
 70
     0
  4
"
 41
2.5
 42
0.0
 43
10.0
 44
1.0
 47
0.1
 48
0.1000000001
 73
     0
 74
     0
 77
     3
 78
     1
 79
     2
140
3.8
141
0.0
143
0.0393701
146
0.71
147
1.5
172
     1
176
     3
177
     3
178
     2
271
     2
272
     2
275
     1
283
     0
284
     8
340
11
341
6A
342
6A
371
    13
372
    13
  0
DIMSTYLE
105
70
330
A
100
AcDbSymbolTableRecord
100
AcDbDimStyleTableRecord
  2
AM_JIS$3
 70
     0
  4
"
 41
2.5
 42
0.0
 43
10.0
 44
1.0
 47
0.1
 48
0.1000000001
 73
     0
 74
     0
 77
     3
 78
     1
 79
     2
140
3.8
141
0.0
143
0.0393701
146
0.71
147
1.5
172
     1
176
     3
177
     3
178
     2
271
     2
272
     2
275
     1
283
     0
284
     8
288
     1
289
     0
340
11
341
6A
342
6A
371
    13
372
    13
  0
DIMSTYLE
105
71
330
A
100
AcDbSymbolTableRecord
100
AcDbDimStyleTableRecord
  2
AM_JIS$4
 70
     0
  4
"
 41
2.5
 42
0.0
 43
10.0
 44
1.0
 47
0.1
 48
0.1000000001
 73
     0
 74
     0
 77
     3
 78
     1
 79
     2
140
3.8
141
0.0
143
0.0393701
146
0.71
147
1.5
172
     1
176
     3
177
     3
178
     2
271
     2
272
     2
275
     1
283
     0
284
     8
288
     1
289
     0
340
11
341
6A
342
6A
371
    13
372
    13
  0
DIMSTYLE
105
72
330
A
100
AcDbSymbolTableRecord
100
AcDbDimStyleTableRecord
  2
AM_JIS$6
 70
     0
  4
"
 41
2.5
 42
0.0
 43
10.0
 44
1.0
 47
0.1
 48
0.1000000001
 73
     0
 74
     0
 78
     1
 79
     2
140
3.8
141
0.0
143
0.0393701
146
0.71
147
1.5
172
     1
176
     3
177
     3
178
     2
271
     2
272
     2
275
     1
283
     0
284
     8
340
11
341
6A
342
6A
371
    13
372
    13
  0
DIMSTYLE
105
73
330
A
100
AcDbSymbolTableRecord
100
AcDbDimStyleTableRecord
  2
AM_JIS$7
 70
     0
  4
"
 41
2.5
 42
0.0
 43
10.0
 44
1.0
 47
0.1
 48
0.1000000001
 73
     0
 74
     0
 77
     3
 78
     1
 79
     2
140
5.0
141
0.0
143
0.0393701
146
0.71
147
1.5
172
     1
176
     3
177
     3
178
     2
271
     2
272
     2
275
     1
283
     0
284
     8
340
11
341
6A
342
6A
371
    13
372
    13
  0
DIMSTYLE
105
74
330
A
100
AcDbSymbolTableRecord
100
AcDbDimStyleTableRecord
  2
AM_JIS$SF
 70
     0
  4
"
 41
2.5
 42
1.0
 43
10.0
 44
1.0
 47
0.1
 48
0.1
 73
     0
 74
     0
 75
     1
 76
     1
 77
     3
 78
     8
 79
     2
140
3.5
141
0.0
143
0.0393701
146
0.71
147
1.5
176
   256
177
   256
178
     2
271
     2
272
     3
274
     4
340
11
341
6A
342
6A
343
6A
344
6A
371
    -1
372
    -1
  0
DIMSTYLE
105
79
330
A
100
AcDbSymbolTableRecord
100
AcDbDimStyleTableRecord
  2
AM_JIS$SH
 70
     0
  4
"
 41
2.5
 42
1.0
 43
10.0
 44
1.0
 47
0.1
 48
0.1
 73
     0
 74
     0
 75
     1
 76
     1
 77
     3
 78
     8
 79
     2
140
3.5
141
0.0
143
0.0393701
144
2.0
146
0.71
147
1.5
173
     1
176
   256
177
   256
178
     2
271
     2
272
     3
274
     4
340
11
341
6A
342
6A
343
75
344
6A
371
    -1
372
    -1
  0
DIMSTYLE
105
124
330
A
100
AcDbSymbolTableRecord
100
AcDbDimStyleTableRecord
  2
STANDARD
 70
     0
340
11
  0
DIMSTYLE
105
927
102
{ACAD_REACTORS
330
39BB
330
39E0
330
39EF
330
3A8C
330
3FB8
330
46D3
102
}
330
A
100
AcDbSymbolTableRecord
100
AcDbDimStyleTableRecord
  2
AM_JIS$0
 70
     0
  4
"
 41
2.5
 42
0.0
 43
10.0
 44
1.0
 47
0.1
 48
0.1000000001
 73
     0
 74
     0
 77
     3
 78
     1
 79
     2
140
3.8
141
0.0
143
0.0393701
146
0.71
147
1.5
172
     1
176
     3
177
     3
178
     2
271
     2
272
     2
275
     1
283
     0
284
     8
289
     0
340
11
341
6A
342
6A
371
    13
372
    13
  0
DIMSTYLE
105
190C
330
A
100
AcDbSymbolTableRecord
100
AcDbDimStyleTableRecord
  2
AM_ANSI
 70
     0
  4
mm
 41
0.1
 42
0.05
 43
0.5
 44
0.1
 47
0.1
 48
0.1
 78
     7
 79
     2
140
0.12
141
0.0
146
0.71
147
0.06
176
   256
177
   256
178
     2
274
     4
284
     7
340
11
371
    -1
372
    -1
  0
DIMSTYLE
105
190D
330
A
100
AcDbSymbolTableRecord
100
AcDbDimStyleTableRecord
  2
AM_ANSI$3
 70
     0
  4
mm
 41
0.1
 42
0.05
 43
0.5
 44
0.1
 47
0.1
 48
0.1
 78
     7
 79
     2
140
0.12
141
0.0
146
0.71
147
0.06
176
   256
177
   256
178
     2
274
     4
284
     7
288
     1
289
     0
340
11
371
    -1
372
    -1
  0
DIMSTYLE
105
190E
330
A
100
AcDbSymbolTableRecord
100
AcDbDimStyleTableRecord
  2
AM_ANSI$4
 70
     0
  4
mm
 41
0.1
 42
0.05
 43
0.5
 44
0.1
 47
0.1
 48
0.1
 78
     7
 79
     2
140
0.12
141
0.0
146
0.71
147
0.06
176
   256
177
   256
178
     2
274
     4
284
     7
288
     1
289
     0
340
11
371
    -1
372
    -1
  0
DIMSTYLE
105
190F
330
A
100
AcDbSymbolTableRecord
100
AcDbDimStyleTableRecord
  2
AM_ANSI$7
 70
     0
  4
mm
 41
0.1
 42
0.05
 43
0.5
 44
0.1
 47
0.1
 48
0.1
 78
     7
 79
     2
140
0.24
141
0.0
146
0.71
147
0.06
176
   256
177
   256
178
     2
274
     4
284
     7
340
11
371
    -1
372
    -1
  0
DIMSTYLE
105
1910
330
A
100
AcDbSymbolTableRecord
100
AcDbDimStyleTableRecord
  2
AM_ANSI$SF
 70
     0
  4
mm
 41
0.1
 42
0.05
 43
0.5
 44
0.1
 47
0.1
 48
0.1
 75
     1
 76
     1
 78
     7
 79
     2
140
0.12
141
0.0
146
0.71
147
0.06
176
   256
177
   256
178
     2
274
     4
284
     7
340
11
371
    -1
372
    -1
  0
DIMSTYLE
105
1911
330
A
100
AcDbSymbolTableRecord
100
AcDbDimStyleTableRecord
  2
AM_ANSI$SH
 70
     0
  4
mm
 41
0.1
 42
0.05
 43
0.5
 44
0.1
 47
0.1
 48
0.1
 75
     1
 76
     1
 78
     7
 79
     2
140
0.12
141
0.0
146
0.71
147
0.06
173
     1
176
   256
177
   256
178
     2
274
     4
284
     7
340
11
343
75
371
    -1
372
    -1
  0
ENDTAB
  0
TABLE
  2
BLOCK_RECORD
  5
1
330
0
100
AcDbSymbolTable
 70
    12
  0
BLOCK_RECORD
  5
1F
102
{ACAD_XDICTIONARY
360
10B
102
}
330
1
100
AcDbSymbolTableRecord
100
AcDbBlockTableRecord
  2
*Model_Space
340
22
  0
BLOCK_RECORD
  5
1B
330
1
100
AcDbSymbolTableRecord
100
AcDbBlockTableRecord
  2
*Paper_Space
340
1E
  0
BLOCK_RECORD
  5
23
330
1
100
AcDbSymbolTableRecord
100
AcDbBlockTableRecord
  2
*Paper_Space0
340
26
  0
BLOCK_RECORD
  5
6A
330
1
100
AcDbSymbolTableRecord
100
AcDbBlockTableRecord
  2
_Open30
340
0
102
{BLKREFS
331
48BE
331
48BF
331
48C7
331
48C8
331
48D0
331
48D1
331
48D9
331
48DA
331
46F8
331
46F9
331
46E1
331
46E2
331
48E1
331
48E2
102
}
  0
BLOCK_RECORD
  5
75
330
1
100
AcDbSymbolTableRecord
100
AcDbBlockTableRecord
  2
GENAXEH
340
0
  0
BLOCK_RECORD
  5
1660
330
1
100
AcDbSymbolTableRecord
100
AcDbBlockTableRecord
  2
*U3
340
0
  0
BLOCK_RECORD
  5
2E58
102
{ACAD_XDICTIONARY
360
2E5D
102
}
330
1
100
AcDbSymbolTableRecord
100
AcDbBlockTableRecord
  2
A$C4828096E
340
0
102
{BLKREFS
331
2E62
102
}
  0
BLOCK_RECORD
  5
39BC
330
1
100
AcDbSymbolTableRecord
100
AcDbBlockTableRecord
  2
*D5
340
0
  0
BLOCK_RECORD
  5
39E1
330
1
100
AcDbSymbolTableRecord
100
AcDbBlockTableRecord
  2
*D6
340
0
  0
BLOCK_RECORD
  5
39F0
330
1
100
AcDbSymbolTableRecord
100
AcDbBlockTableRecord
  2
*D7
340
0
  0
BLOCK_RECORD
  5
3A8D
330
1
100
AcDbSymbolTableRecord
100
AcDbBlockTableRecord
  2
*D8
340
0
  0
BLOCK_RECORD
  5
3FB9
330
1
100
AcDbSymbolTableRecord
100
AcDbBlockTableRecord
  2
*D9
340
0
  0
BLOCK_RECORD
  5
46D4
330
1
100
AcDbSymbolTableRecord
100
AcDbBlockTableRecord
  2
*D10
340
0
  0
BLOCK_RECORD
  5
4895
330
1
100
AcDbSymbolTableRecord
100
AcDbBlockTableRecord
  2
*D11
340
0
  0
ENDTAB
  0
ENDSEC
  0
SECTION
  2
BLOCKS
  0
BLOCK
  5
20
330
1F
100
AcDbEntity
  8
0
100
AcDbBlockBegin
  2
*Model_Space
 70
     0
 71
     0
 10
0.0
 20
0.0
 30
0.0
  3
*Model_Space
  1

  0
ENDBLK
  5
21
330
1F
100
AcDbEntity
  8
0
100
AcDbBlockEnd
  0
BLOCK
  5
1C
330
1B
100
AcDbEntity
 67
     1
  8
0
100
AcDbBlockBegin
  2
*Paper_Space
 70
     0
 71
     0
 10
0.0
 20
0.0
 30
0.0
  3
*Paper_Space
  1

  0
ENDBLK
  5
1D
330
1B
100
AcDbEntity
 67
     1
  8
0
100
AcDbBlockEnd
  0
BLOCK
  5
24
330
23
100
AcDbEntity
  8
0
100
AcDbBlockBegin
  2
*Paper_Space0
 70
     0
 71
     0
 10
0.0
 20
0.0
 30
0.0
  3
*Paper_Space0
  1

  0
ENDBLK
  5
25
330
23
100
AcDbEntity
  8
0
100
AcDbBlockEnd
  0
BLOCK
  5
6E
330
6A
100
AcDbEntity
  8
0
100
AcDbBlockBegin
  2
_Open30
 70
     0
 71
     0
 10
0.0
 20
0.0
 30
0.0
  3
_Open30
  1

  0
LINE
  5
6B
330
6A
100
AcDbEntity
  8
0
 62
     0
370
    -2
100
AcDbLine
 10
-1.0
 20
0.26794919
 30
0.0
 11
0.0
 21
0.0
 31
0.0
  0
LINE
  5
6C
330
6A
100
AcDbEntity
  8
0
 62
     0
370
    -2
100
AcDbLine
 10
0.0
 20
0.0
 30
0.0
 11
-1.0
 21
-0.26794919
 31
0.0
  0
LINE
  5
6D
330
6A
100
AcDbEntity
  8
0
 62
     0
370
    -2
100
AcDbLine
 10
0.0
 20
0.0
 30
0.0
 11
-1.0
 21
0.0
 31
0.0
  0
ENDBLK
  5
6F
330
6A
100
AcDbEntity
  8
0
100
AcDbBlockEnd
  0
BLOCK
  5
77
330
75
100
AcDbEntity
  8
0
100
AcDbBlockBegin
  2
GENAXEH
 70
     0
 71
     0
 10
0.0
 20
0.0
 30
0.0
  3
GENAXEH
  1

  0
LINE
  5
76
330
75
100
AcDbEntity
  8
0
100
AcDbLine
 10
-1.0
 20
0.0
 30
0.0
 11
1.0
 21
0.0
 31
0.0
  0
ENDBLK
  5
78
330
75
100
AcDbEntity
  8
0
100
AcDbBlockEnd
  0
BLOCK
  5
1661
330
1660
100
AcDbEntity
  8
0
100
AcDbBlockBegin
  2
*U3
 70
     1
 71
     0
 10
0.0
 20
0.0
 30
0.0
  3
*U3
  1

  0
ENDBLK
  5
1662
330
1660
100
AcDbEntity
  8
0
100
AcDbBlockEnd
  0
BLOCK
  5
2E5F
330
2E58
100
AcDbEntity
  8
0
370
    13
100
AcDbBlockBegin
  2
A$C4828096E
 70
     0
 71
     0
 10
0.0
 20
0.0
 30
0.0
  3
A$C4828096E
  1

  0
LINE
  5
2E59
330
2E58
100
AcDbEntity
  8
AM_5
100
AcDbLine
 10
-0.0000001351605761
 20
-0.0000002982438616
 30
0.0
 11
1.772890097231255
 21
6.616597031493654
 31
0.0
  0
LINE
  5
2E5A
330
2E58
100
AcDbEntity
  8
AM_5
100
AcDbLine
 10
1.772890097231255
 20
6.616597031493654
 30
0.0
 11
2.588160788039147
 21
9.659265876555438
 31
0.0
  0
LINE
  5
2E5B
330
2E58
100
AcDbEntity
  8
AM_5
100
AcDbLine
 10
2.17346504822774
 20
6.509264609317881
 30
0.0
 11
2.588160788039147
 21
9.659265876555438
 31
0.0
  0
LINE
  5
2E5C
330
2E58
100
AcDbEntity
  8
AM_5
100
AcDbLine
 10
2.588160788039147
 20
9.659265876555438
 30
0.0
 11
1.37231514623474
 21
6.723929453669427
 31
0.0
  0
ENDBLK
  5
2E60
330
2E58
100
AcDbEntity
  8
0
370
    13
100
AcDbBlockEnd
  0
BLOCK
  5
39C6
330
39BC
100
AcDbEntity
  8
0
370
    13
100
AcDbBlockBegin
  2
*D5
 70
     1
 71
     0
 10
0.0
 20
0.0
 30
0.0
  3
*D5
  1

  0
LINE
  5
48BB
330
39BC
100
AcDbEntity
  8
AM_5
 62
     3
370
    13
100
AcDbLine
 10
180.0
 20
26.00008334790616
 30
0.0
 11
200.9392724909765
 21
26.00008334790616
 31
0.0
  0
LINE
  5
48BC
330
39BC
100
AcDbEntity
  8
AM_5
 62
     3
370
    13
100
AcDbLine
 10
180.0
 20
-5.999916652093836
 30
0.0
 11
200.9392724909765
 21
-5.999916652093841
 31
0.0
  0
LINE
  5
48BD
330
39BC
100
AcDbEntity
  8
AM_5
 62
     3
370
    13
100
AcDbLine
 10
199.9392724909765
 20
23.50008334790616
 30
0.0
 11
199.9392724909765
 21
-3.499916652093841
 31
0.0
  0
INSERT
  5
48BE
330
39BC
100
AcDbEntity
  8
AM_5
 62
     3
370
    13
100
AcDbBlockReference
  2
_Open30
 10
199.9392724909765
 20
26.00008334790616
 30
0.0
 41
2.5
 42
2.5
 43
2.5
 50
90.0
  0
INSERT
  5
48BF
330
39BC
100
AcDbEntity
  8
AM_5
 62
     3
370
    13
100
AcDbBlockReference
  2
_Open30
 10
199.9392724909765
 20
-5.999916652093841
 30
0.0
 41
2.5
 42
2.5
 43
2.5
 50
270.0
  0
MTEXT
  5
48C0
330
39BC
100
AcDbEntity
  8
AM_5
 62
     2
370
    13
100
AcDbMText
 10
196.5388984752284
 20
9.083943859042828
 30
0.0
 40
3.8
 41
0.0
 71
     5
 72
     1
  1
32
 11
6.123031769111886E-17
 21
1.0
 31
0.0
 73
     1
 44
1.0
  0
POINT
  5
48C1
330
39BC
100
AcDbEntity
  8
Defpoints
 62
     0
370
    13
100
AcDbPoint
 10
180.0
 20
26.00008334790616
 30
0.0
  0
POINT
  5
48C2
330
39BC
100
AcDbEntity
  8
Defpoints
 62
     0
370
    13
100
AcDbPoint
 10
180.0
 20
-5.999916652093836
 30
0.0
  0
POINT
  5
48C3
330
39BC
100
AcDbEntity
  8
Defpoints
 62
     0
370
    13
100
AcDbPoint
 10
199.9392724909765
 20
-5.999916652093841
 30
0.0
  0
ENDBLK
  5
39C7
330
39BC
100
AcDbEntity
  8
0
370
    13
100
AcDbBlockEnd
  0
BLOCK
  5
39EB
330
39E1
100
AcDbEntity
  8
0
370
    13
100
AcDbBlockBegin
  2
*D6
 70
     1
 71
     0
 10
0.0
 20
0.0
 30
0.0
  3
*D6
  1

  0
LINE
  5
48C4
330
39E1
100
AcDbEntity
  8
AM_5
 62
     3
370
    13
100
AcDbLine
 10
-0.0000000000000002
 20
-2.499916445112396
 30
0.0
 11
-0.0000000000000019
 21
-30.88622046461526
 31
0.0
  0
LINE
  5
48C5
330
39E1
100
AcDbEntity
  8
AM_5
 62
     3
370
    13
100
AcDbLine
 10
180.0
 20
-5.999916652093836
 30
0.0
 11
180.0
 21
-30.88622046461526
 31
0.0
  0
LINE
  5
48C6
330
39E1
100
AcDbEntity
  8
AM_5
 62
     3
370
    13
100
AcDbLine
 10
2.499999999999998
 20
-29.88622046461526
 30
0.0
 11
177.5
 21
-29.88622046461526
 31
0.0
  0
INSERT
  5
48C7
330
39E1
100
AcDbEntity
  8
AM_5
 62
     3
370
    13
100
AcDbBlockReference
  2
_Open30
 10
-0.0000000000000018
 20
-29.88622046461526
 30
0.0
 41
2.5
 42
2.5
 43
2.5
 50
180.0
  0
INSERT
  5
48C8
330
39E1
100
AcDbEntity
  8
AM_5
 62
     3
370
    13
100
AcDbBlockReference
  2
_Open30
 10
180.0
 20
-29.88622046461526
 30
0.0
 41
2.5
 42
2.5
 43
2.5
  0
MTEXT
  5
48C9
330
39E1
100
AcDbEntity
  8
AM_5
 62
     2
370
    13
100
AcDbMText
 10
83.12341791611675
 20
-26.48622046461526
 30
0.0
 40
3.8
 41
0.0
 71
     5
 72
     1
  1
180
 73
     1
 44
1.0
  0
POINT
  5
48CA
330
39E1
100
AcDbEntity
  8
Defpoints
 62
     0
370
    13
100
AcDbPoint
 10
-0.0000000000000002
 20
-2.499916445112396
 30
0.0
  0
POINT
  5
48CB
330
39E1
100
AcDbEntity
  8
Defpoints
 62
     0
370
    13
100
AcDbPoint
 10
180.0
 20
-5.999916652093836
 30
0.0
  0
POINT
  5
48CC
330
39E1
100
AcDbEntity
  8
Defpoints
 62
     0
370
    13
100
AcDbPoint
 10
180.0
 20
-29.88622046461526
 30
0.0
  0
ENDBLK
  5
39EC
330
39E1
100
AcDbEntity
  8
0
370
    13
100
AcDbBlockEnd
  0
BLOCK
  5
39FA
330
39F0
100
AcDbEntity
  8
0
370
    13
100
AcDbBlockBegin
  2
*D7
 70
     1
 71
     0
 10
0.0
 20
0.0
 30
0.0
  3
*D7
  1

  0
LINE
  5
48CD
330
39F0
100
AcDbEntity
  8
AM_5
 62
     3
370
    13
100
AcDbLine
 10
-0.0000000000000002
 20
-2.499916445112396
 30
0.0
 11
0.0000000000000022
 21
36.40594981078628
 31
0.0
  0
LINE
  5
48CE
330
39F0
100
AcDbEntity
  8
AM_5
 62
     3
370
    13
100
AcDbLine
 10
39.99999999999999
 20
26.00008334790616
 30
0.0
 11
39.99999999999999
 21
36.40594981078628
 31
0.0
  0
LINE
  5
48CF
330
39F0
100
AcDbEntity
  8
AM_5
 62
     3
370
    13
100
AcDbLine
 10
2.500000000000002
 20
35.40594981078628
 30
0.0
 11
37.49999999999999
 21
35.40594981078628
 31
0.0
  0
INSERT
  5
48D0
330
39F0
100
AcDbEntity
  8
AM_5
 62
     3
370
    13
100
AcDbBlockReference
  2
_Open30
 10
0.0000000000000022
 20
35.40594981078628
 30
0.0
 41
2.5
 42
2.5
 43
2.5
 50
180.0
  0
INSERT
  5
48D1
330
39F0
100
AcDbEntity
  8
AM_5
 62
     3
370
    13
100
AcDbBlockReference
  2
_Open30
 10
39.99999999999999
 20
35.40594981078628
 30
0.0
 41
2.5
 42
2.5
 43
2.5
  0
MTEXT
  5
48D2
330
39F0
100
AcDbEntity
  8
AM_5
 62
     2
370
    13
100
AcDbMText
 10
20.0
 20
38.80594981078627
 30
0.0
 40
3.8
 41
0.0
 71
     5
 72
     1
  1
40
 73
     1
 44
1.0
  0
POINT
  5
48D3
330
39F0
100
AcDbEntity
  8
Defpoints
 62
     0
370
    13
100
AcDbPoint
 10
-0.0000000000000002
 20
-2.499916445112396
 30
0.0
  0
POINT
  5
48D4
330
39F0
100
AcDbEntity
  8
Defpoints
 62
     0
370
    13
100
AcDbPoint
 10
39.99999999999999
 20
26.00008334790616
 30
0.0
  0
POINT
  5
48D5
330
39F0
100
AcDbEntity
  8
Defpoints
 62
     0
370
    13
100
AcDbPoint
 10
39.99999999999999
 20
35.40594981078628
 30
0.0
  0
ENDBLK
  5
39FB
330
39F0
100
AcDbEntity
  8
0
370
    13
100
AcDbBlockEnd
  0
BLOCK
  5
3A97
330
3A8D
100
AcDbEntity
  8
0
370
    13
100
AcDbBlockBegin
  2
*D8
 70
     1
 71
     0
 10
0.0
 20
0.0
 30
0.0
  3
*D8
  1

  0
LINE
  5
48D6
330
3A8D
100
AcDbEntity
  8
AM_5
 62
     3
370
    13
100
AcDbLine
 10
-0.0000000000000073
 20
0.0000835548875968
 30
0.0
 11
-14.50016832680786
 21
0.0000835548876009
 31
0.0
  0
LINE
  5
48D7
330
3A8D
100
AcDbEntity
  8
AM_5
 62
     3
370
    13
100
AcDbLine
 10
8.423772999999974
 20
26.00008334790616
 30
0.0
 11
-14.50016832680785
 21
26.00008334790616
 31
0.0
  0
LINE
  5
48D8
330
3A8D
100
AcDbEntity
  8
AM_5
 62
     3
370
    13
100
AcDbLine
 10
-13.50016832680786
 20
2.500083554887601
 30
0.0
 11
-13.50016832680785
 21
23.50008334790616
 31
0.0
  0
INSERT
  5
48D9
330
3A8D
100
AcDbEntity
  8
AM_5
 62
     3
370
    13
100
AcDbBlockReference
  2
_Open30
 10
-13.50016832680786
 20
0.0000835548876006
 30
0.0
 41
2.5
 42
2.5
 43
2.5
 50
270.0
  0
INSERT
  5
48DA
330
3A8D
100
AcDbEntity
  8
AM_5
 62
     3
370
    13
100
AcDbBlockReference
  2
_Open30
 10
-13.50016832680785
 20
26.00008334790616
 30
0.0
 41
2.5
 42
2.5
 43
2.5
 50
90.0
  0
MTEXT
  5
48DB
330
3A8D
100
AcDbEntity
  8
AM_5
 62
     2
370
    13
100
AcDbMText
 10
-16.90054234255589
 20
13.1825276356453
 30
0.0
 40
3.8
 41
0.0
 71
     5
 72
     1
  1
26
 11
6.123031769111886E-17
 21
1.0
 31
0.0
 73
     1
 44
1.0
  0
POINT
  5
48DC
330
3A8D
100
AcDbEntity
  8
Defpoints
 62
     0
370
    13
100
AcDbPoint
 10
-0.0000000000000073
 20
0.0000835548875968
 30
0.0
  0
POINT
  5
48DD
330
3A8D
100
AcDbEntity
  8
Defpoints
 62
     0
370
    13
100
AcDbPoint
 10
8.423772999999974
 20
26.00008334790616
 30
0.0
  0
POINT
  5
48DE
330
3A8D
100
AcDbEntity
  8
Defpoints
 62
     0
370
    13
100
AcDbPoint
 10
-13.50016832680785
 20
26.00008334790616
 30
0.0
  0
ENDBLK
  5
3A98
330
3A8D
100
AcDbEntity
  8
0
370
    13
100
AcDbBlockEnd
  0
BLOCK
  5
3FCF
330
3FB9
100
AcDbEntity
  8
0
370
    13
100
AcDbBlockBegin
  2
*D9
 70
     1
 71
     0
 10
0.0
 20
0.0
 30
0.0
  3
*D9
  1

  0
LINE
  5
46F5
330
3FB9
100
AcDbEntity
  8
AM_5
 62
     3
370
    13
100
AcDbLine
 10
-21.87852045494951
 20
-87.08908816952391
 30
0.0
 11
-38.32186647913706
 21
-82.68316075678872
 31
0.0
  0
LINE
  5
46F6
330
3FB9
100
AcDbEntity
  8
AM_5
 62
     3
370
    13
100
AcDbLine
 10
-15.04508100469752
 20
-55.79126972524855
 30
0.0
 11
-30.03975152489811
 21
-51.77350899743171
 31
0.0
  0
LINE
  5
46F7
330
3FB9
100
AcDbEntity
  8
AM_5
 62
     3
370
    13
100
AcDbLine
 10
-36.7088996308572
 20
-80.52716030540887
 30
0.0
 11
-29.72086513821812
 21
-54.44714163345151
 31
0.0
  0
INSERT
  5
46F8
330
3FB9
100
AcDbEntity
  8
AM_5
 62
     3
370
    13
100
AcDbBlockReference
  2
_Open30
 10
-37.35593986165713
 20
-82.9419768491087
 30
0.0
 41
2.5
 42
2.5
 43
2.5
 50
255.00017515
  0
INSERT
  5
46F9
330
3FB9
100
AcDbEntity
  8
AM_5
 62
     3
370
    13
100
AcDbBlockReference
  2
_Open30
 10
-29.07382490741818
 20
-52.03232508975168
 30
0.0
 41
2.5
 42
2.5
 43
2.5
 50
75.00017515000003
  0
MTEXT
  5
46FA
330
3FB9
100
AcDbEntity
  8
AM_5
 62
     2
100
AcDbMText
 10
-36.37430991690963
 20
-66.14025301147775
 30
0.0
 40
3.8
 41
0.0
 71
     5
 72
     1
  1
32
 11
0.2588160923199733
 21
0.96592661747993
 31
0.0
 73
     1
 44
1.0
  0
POINT
  5
46FB
330
3FB9
100
AcDbEntity
  8
Defpoints
 62
     0
370
    13
100
AcDbPoint
 10
-21.87852045494951
 20
-87.08908816952391
 30
0.0
  0
POINT
  5
46FC
330
3FB9
100
AcDbEntity
  8
Defpoints
 62
     0
370
    13
100
AcDbPoint
 10
-15.04508100469752
 20
-55.79126972524855
 30
0.0
  0
POINT
  5
46FD
330
3FB9
100
AcDbEntity
  8
Defpoints
 62
     0
370
    13
100
AcDbPoint
 10
-29.07382490741818
 20
-52.03232508975168
 30
0.0
  0
ENDBLK
  5
3FD0
330
3FB9
100
AcDbEntity
  8
0
370
    13
100
AcDbBlockEnd
  0
BLOCK
  5
46EA
330
46D4
100
AcDbEntity
  8
0
370
    13
100
AcDbBlockBegin
  2
*D10
 70
     1
 71
     0
 10
0.0
 20
0.0
 30
0.0
  3
*D10
  1

  0
LINE
  5
46DE
330
46D4
100
AcDbEntity
  8
AM_5
 62
     3
370
    13
100
AcDbLine
 10
38.05267875849555
 20
-70.01859760312354
 30
0.0
 11
50.60972478573492
 21
-73.3832068032834
 31
0.0
  0
LINE
  5
46DF
330
46D4
100
AcDbEntity
  8
AM_5
 62
     3
370
    13
100
AcDbLine
 10
29.7705638042561
 20
-100.9282493624812
 30
0.0
 11
42.32760983149547
 21
-104.2928585626411
 31
0.0
  0
LINE
  5
46E0
330
46D4
100
AcDbEntity
  8
AM_5
 62
     3
370
    13
100
AcDbLine
 10
48.99675793745502
 20
-75.53920725466324
 30
0.0
 11
42.00872344481549
 21
-101.6192259266213
 31
0.0
  0
INSERT
  5
46E1
330
46D4
100
AcDbEntity
  8
AM_5
 62
     3
370
    13
100
AcDbBlockReference
  2
_Open30
 10
49.64379816825498
 20
-73.12439071096341
 30
0.0
 41
2.5
 42
2.5
 43
2.5
 50
75.00017514999944
  0
INSERT
  5
46E2
330
46D4
100
AcDbEntity
  8
AM_5
 62
     3
370
    13
100
AcDbBlockReference
  2
_Open30
 10
41.36168321401553
 20
-104.0340424703211
 30
0.0
 41
2.5
 42
2.5
 43
2.5
 50
255.0001751499995
  0
MTEXT
  5
46E3
330
46D4
100
AcDbEntity
  8
AM_5
 62
     2
100
AcDbMText
 10
42.21822891993712
 20
-87.69914507545994
 30
0.0
 40
3.8
 41
0.0
 71
     5
 72
     1
  1
32
 11
0.2588160923199829
 21
0.9659266174799275
 31
0.0
 73
     1
 44
1.0
  0
POINT
  5
46E4
330
46D4
100
AcDbEntity
  8
Defpoints
 62
     0
370
    13
100
AcDbPoint
 10
38.05267875849555
 20
-70.01859760312354
 30
0.0
  0
POINT
  5
46E5
330
46D4
100
AcDbEntity
  8
Defpoints
 62
     0
370
    13
100
AcDbPoint
 10
29.7705638042561
 20
-100.9282493624812
 30
0.0
  0
POINT
  5
46E6
330
46D4
100
AcDbEntity
  8
Defpoints
 62
     0
370
    13
100
AcDbPoint
 10
41.36168321401553
 20
-104.0340424703211
 30
0.0
  0
ENDBLK
  5
46EB
330
46D4
100
AcDbEntity
  8
0
370
    13
100
AcDbBlockEnd
  0
BLOCK
  5
48A2
330
4895
100
AcDbEntity
  8
0
370
    13
100
AcDbBlockBegin
  2
*D11
 70
     1
 71
     0
 10
0.0
 20
0.0
 30
0.0
  3
*D11
  1

  0
LINE
  5
48DF
330
4895
100
AcDbEntity
  8
AM_5
 62
     3
370
    13
100
AcDbLine
 10
22.39230647944368
 20
-5.999916652093834
 30
0.0
 11
53.87053624967697
 21
-14.43448257366118
 31
0.0
  0
ARC
  5
48E0
330
4895
100
AcDbEntity
  8
AM_5
 62
     3
370
    13
100
AcDbCircle
 10
22.39230647944368
 20
-5.999916652093834
 30
0.0
 40
31.58866139860407
100
AcDbArc
 50
349.5357058124214
 51
355.4642947387062
  0
INSERT
  5
48E1
330
4895
100
AcDbEntity
  8
AM_5
 62
     3
370
    13
100
AcDbBlockReference
  2
_Open30
 10
52.90461042089833
 20
-14.17566353784989
 30
0.0
 41
2.5
 42
2.5
 43
2.5
 50
257.2678531817744
  0
INSERT
  5
48E2
330
4895
100
AcDbEntity
  8
AM_5
 62
     3
370
    13
100
AcDbBlockReference
  2
_Open30
 10
53.98096787804775
 20
-5.999916652093831
 30
0.0
 41
2.5
 42
2.5
 43
2.5
 50
87.73214736935304
  0
MTEXT
  5
48E3
330
4895
100
AcDbEntity
  8
AM_5
 62
     2
370
    13
100
AcDbMText
 10
50.53267284132645
 20
-7.649283944169224
 30
0.0
 40
3.8
 41
0.0
 71
     5
 72
     1
  1
15°
 11
0.05851172812899531
 21
0.9982867211735108
 31
0.0
 73
     1
 44
1.0
  0
POINT
  5
48E4
330
4895
100
AcDbEntity
  8
Defpoints
 62
     0
370
    13
100
AcDbPoint
 10
53.50106516724186
 20
-11.48522993940927
 30
0.0
  0
POINT
  5
48E5
330
4895
100
AcDbEntity
  8
Defpoints
 62
     0
370
    13
100
AcDbPoint
 10
14.85809799999997
 20
-3.981131652093862
 30
0.0
  0
POINT
  5
48E6
330
4895
100
AcDbEntity
  8
Defpoints
 62
     0
370
    13
100
AcDbPoint
 10
24.7312743779077
 20
-5.999916652093834
 30
0.0
  0
POINT
  5
48E7
330
4895
100
AcDbEntity
  8
Defpoints
 62
     0
370
    13
100
AcDbPoint
 10
179.9999999999999
 20
-5.999916652093834
 30
0.0
  0
POINT
  5
48E8
330
4895
100
AcDbEntity
  8
Defpoints
 62
     0
370
    13
100
AcDbPoint
 10
0.2967660000003247
 20
-0.079434652094021
 30
0.0
  0
ENDBLK
  5
48A3
330
4895
100
AcDbEntity
  8
0
370
    13
100
AcDbBlockEnd
  0
ENDSEC
  0
SECTION
  2
ENTITIES
  0
TEXT
  5
183C
330
1F
100
AcDbEntity
  8
AM_6
  6
Continuous
 62
     0
370
    30
100
AcDbText
 10
77.41236068857961
 20
-92.74476167317789
 30
0.0
 40
3.8
  1
FP11R-55
  7
ACISOTS
100
AcDbText
  0
LINE
  5
1BB2
330
1F
100
AcDbEntity
  8
AM_5
370
    13
100
AcDbLine
 10
-15.04508100469752
 20
-55.79126972524855
 30
0.0
 11
0.0135481974329821
 21
0.4089867368390117
 31
0.0
  0
LINE
  5
2D91
330
1F
100
AcDbEntity
  8
AM_5
370
    13
100
AcDbLine
 10
0.0
 20
0.0000835548875955
 30
0.0
 11
-59.57411244644172
 21
15.96291603692827
 31
0.0
  0
ACAD_PROXY_ENTITY
  5
2DC3
330
1F
100
AcDbEntity
  8
AM_5
370
    13
100
AcDbProxyEntity
 90
      498
 91
      589
 95
       25
 70
     0
 92
      668
310
9C020000270000000C00000016000000000000C00C00000013000000010000000C00000016000000000000C00C000000170000000D0000003C00000006000000020000003058F39B230C44C030F253E2407738C000000000000000002C55A8F236BD40C07777B3041D3D3AC000000000000000000C00000016000000000000
310
C00C00000010000000FFFFFFFF0C00000012000000FFFFFFFF0C00000017000000000000000C00000014000000010000000C00000013000000020000000C00000016000000000000C00C000000170000000D0000003C00000006000000020000002C55A8F236BD40C07777B3041D3D3AC000000000000000002491E28C816F
310
3EC0BCDF2D99D20D3BC000000000000000000C00000016000000000000C00C00000010000000FFFFFFFF0C00000012000000FFFFFFFF0C00000017000000000000000C00000014000000010000000C00000013000000030000000C00000016000000000000C00C000000170000000D0000003C0000000600000002000000FC
310
DA4504F4CA40C0E9972D19A9A33AC000000000000000002491E28C816F3EC0BCDF2D99D20D3BC000000000000000000C00000016000000000000C00C00000010000000FFFFFFFF0C00000012000000FFFFFFFF0C00000017000000000000000C00000014000000010000000C00000013000000040000000C00000016000000
310
000000C00C000000170000000D0000003C00000006000000020000002491E28C816F3EC0BCDF2D99D20D3BC000000000000000005BCF0AE179AF40C0065739F090D639C000000000000000000C00000016000000000000C00C00000010000000FFFFFFFF0C00000012000000FFFFFFFF0C00000017000000000000000C0000
310
0014000000010000000C00000013000000050000000C00000016000000000000C0
 93
     1609
310
5DC2491E28C816F3EC02F37CB6674834EF02300C037C37BA3B8FCE5560C5F7190D0BF8E5560C5F7190D03F300C037C37BA3B8FEA54051F8000000C800AA0C163CE6C8C31130030F253E2407738C09018FFFFFFFF092478A3205BCFB00BCDF2D99D20D3BC0A8FFFFFFFF1FFFFFFFF060B1E73646188980187929F1203B9C604
310
5409C8706C44F04CB19A44C01D2C77FADBE24DB02A4C0300DF0DEE8EE3F39558317DC64342FE83333333333330940425050000000000003C2FC000000000000F0BF4040101521340020500
340
7A1
340
1670
330
0
330
0
340
0
340
0
340
7A2
330
0
330
0
 94
        0
  0
TEXT
  5
2DC4
330
1F
100
AcDbEntity
  8
AM_6
 62
     0
100
AcDbText
 10
-39.8517223760982
 20
-11.58177816073582
 30
0.0
 40
3.5
  1
+5%%D
 50
345.00017515
100
AcDbText
  0
TEXT
  5
2DC5
330
1F
100
AcDbEntity
  8
AM_6
 62
     0
100
AcDbText
 10
-29.26469153921184
 20
-28.43825631122002
 30
0.0
 40
3.5
  1
0%%D
 50
345.00017515
100
AcDbText
  0
MTEXT
  5
2E3B
330
1F
100
AcDbEntity
  8
AM_5
 62
     2
370
    13
100
AcDbMText
 10
58.05642293843363
 20
96.00167122089064
 30
0.0
 40
3.15
 41
0.0
 71
     7
 72
     5
  1

  7
ACJISTS
 73
     1
 44
1.0
  0
INSERT
  5
2E62
330
1F
100
AcDbEntity
  8
AM_5
370
    13
100
AcDbBlockReference
  2
A$C4828096E
 10
-40.09483657082978
 20
-24.46583350445107
 30
0.0
  0
LINE
  5
35F9
330
1F
100
AcDbEntity
  8
AM_0
100
AcDbLine
 10
39.99999999999999
 20
26.00008334790616
 30
0.0
 11
40.00000000000006
 21
-5.999916652093807
 31
0.0
  0
LINE
  5
35FC
330
1F
100
AcDbEntity
  8
AM_0
100
AcDbLine
 10
40.00690899999994
 20
-3.499916652093843
 30
0.0
 11
39.98173499999995
 21
-3.499916652093843
 31
0.0
  0
LINE
  5
35FE
330
1F
100
AcDbEntity
  8
AM_0
100
AcDbLine
 10
39.99999999999999
 20
26.00008334790616
 30
0.0
 11
180.0
 21
26.00008334790616
 31
0.0
  0
LINE
  5
35FF
330
1F
100
AcDbEntity
  8
AM_0
100
AcDbLine
 10
180.0
 20
-5.999916652093836
 30
0.0
 11
180.0
 21
26.00008334790616
 31
0.0
  0
LINE
  5
3600
330
1F
100
AcDbEntity
  8
AM_0
100
AcDbLine
 10
24.7312743779077
 20
-5.999916652093836
 30
0.0
 11
180.0
 21
-5.999916652093836
 31
0.0
  0
LINE
  5
3601
330
1F
100
AcDbEntity
  8
AM_0
100
AcDbLine
 10
8.423772999999976
 20
26.00008334790616
 30
0.0
 11
6.518860999999951
 21
18.89077034790611
 31
0.0
  0
LINE
  5
3607
330
1F
100
AcDbEntity
  8
AM_0
100
AcDbLine
 10
4.389814999999963
 20
15.19621734790613
 30
0.0
 11
5.103137999999937
 21
15.00508334790615
 31
0.0
  0
LINE
  5
3608
330
1F
100
AcDbEntity
  8
AM_0
100
AcDbLine
 10
18.14492999999998
 20
6.740142347906131
 30
0.0
 11
15.34759999999994
 21
-3.699761652093854
 31
0.0
  0
LINE
  5
3609
330
1F
100
AcDbEntity
  8
AM_0
100
AcDbLine
 10
14.85809799999998
 20
-3.981131652093863
 30
0.0
 11
0.2967660000003248
 21
-0.079434652094021
 31
0.0
  0
LINE
  5
360A
330
1F
100
AcDbEntity
  8
AM_0
100
AcDbLine
 10
0.0135269999999748
 20
0.4089913479061536
 30
0.0
 11
0.8504199999999783
 21
3.532355347906135
 31
0.0
  0
LINE
  5
360B
330
1F
100
AcDbEntity
  8
AM_0
100
AcDbLine
 10
1.274794999999976
 20
5.116163347906168
 30
0.0
 11
3.900312999999976
 21
14.91484634790615
 31
0.0
  0
LINE
  5
3610
330
1F
100
AcDbEntity
  8
AM_0
100
AcDbLine
 10
37.89379699999994
 20
1.785277347906147
 30
0.0
 11
37.87592399999993
 21
20.42424634790612
 31
0.0
  0
LINE
  5
3616
330
1F
100
AcDbEntity
  8
AM_0
100
AcDbLine
 10
8.311252999999958
 20
23.81028834790615
 30
0.0
 11
4.266829999999963
 21
12.70969434790615
 31
0.0
  0
LINE
  5
3617
330
1F
100
AcDbEntity
  8
AM_0
100
AcDbLine
 10
24.22500199999995
 20
26.27604034790616
 30
0.0
 11
18.65186199999993
 21
26.28134934790612
 31
0.0
  0
LINE
  5
3619
330
1F
100
AcDbEntity
  8
AM_0
100
AcDbLine
 10
19.10499599999996
 20
5.748006347906172
 30
0.0
 11
26.35167799999999
 21
-2.85686065209387
 31
0.0
  0
LINE
  5
361B
330
1F
100
AcDbEntity
  8
AM_0
100
AcDbLine
 10
35.65238299999998
 20
23.31914734790612
 30
0.0
 11
24.99860099999994
 21
26.17381934790612
 31
0.0
  0
LINE
  5
361F
330
1F
100
AcDbEntity
  8
AM_0
100
AcDbLine
 10
35.51909999999997
 20
-1.678620652093854
 30
0.0
 11
34.74303999999994
 21
-1.885192652093848
 31
0.0
  0
LINE
  5
3620
330
1F
100
AcDbEntity
  8
AM_0
100
AcDbLine
 10
34.76338599999996
 20
-1.809380652093863
 30
0.0
 11
34.74303999999994
 21
-1.885192652093848
 31
0.0
  0
LINE
  5
3621
330
1F
100
AcDbEntity
  8
AM_0
100
AcDbLine
 10
28.40149699999994
 20
-3.502791652093861
 30
0.0
 11
34.76338599999996
 21
-1.809380652093863
 31
0.0
  0
LINE
  5
3622
330
1F
100
AcDbEntity
  8
AM_0
100
AcDbLine
 10
37.63754299999993
 20
0.4319923479061187
 30
0.0
 11
37.79126799999994
 21
1.004797347906135
 31
0.0
  0
LINE
  5
3626
330
1F
100
AcDbEntity
  8
AM_0
100
AcDbLine
 10
16.67250999999998
 20
7.838728347906143
 30
0.0
 11
16.72902699999997
 21
8.049318347906167
 31
0.0
  0
LINE
  5
3628
330
1F
100
AcDbEntity
  8
AM_0
100
AcDbLine
 10
34.74303999999994
 20
-1.885192652093848
 30
0.0
 11
34.742973
 21
-1.814814652093871
 31
0.0
  0
LINE
  5
3629
330
1F
100
AcDbEntity
  8
AM_0
100
AcDbLine
 10
2.445213999999957
 20
7.231075347906172
 30
0.0
 11
0.827772999999972
 21
4.308407347906128
 31
0.0
  0
LINE
  5
362A
330
1F
100
AcDbEntity
  8
AM_0
100
AcDbLine
 10
5.094782999999971
 20
11.80047634790614
 30
0.0
 11
2.445555999999947
 21
7.231680347906123
 31
0.0
  0
LINE
  5
362B
330
1F
100
AcDbEntity
  8
AM_0
100
AcDbLine
 10
0.7635469999999528
 20
4.149358347906146
 30
0.0
 11
0.7520869999999532
 21
4.106639347906169
 31
0.0
  0
ARC
  5
3632
330
1F
100
AcDbEntity
  8
AM_0
100
AcDbCircle
 10
34.89379799999994
 20
1.782400347906135
 30
0.0
 40
2.99999980441816
100
AcDbArc
 50
344.9773413947806
 51
0.0549466540247703
  0
ARC
  5
3633
330
1F
100
AcDbEntity
  8
AM_0
100
AcDbCircle
 10
24.22214399999995
 20
23.27604134790616
 30
0.0
 40
3.00000046835546
100
AcDbArc
 50
75.0000050721298
 51
89.94541621903579
  0
ARC
  5
3634
330
1F
100
AcDbEntity
  8
AM_0
100
AcDbCircle
 10
34.87592499999993
 20
20.42136934790617
 30
0.0
 40
3.00000037952165
100
AcDbArc
 50
0.0549466540247703
 51
74.99998662430964
  0
ARC
  5
3635
330
1F
100
AcDbEntity
  8
AM_0
100
AcDbCircle
 10
14.96201999999993
 20
-3.59328865209386
 30
0.0
 40
0.40152456305063
100
AcDbArc
 50
255.0000301358915
 51
268.445141916848
  0
ARC
  5
3636
330
1F
100
AcDbEntity
  8
AM_0
100
AcDbCircle
 10
14.96200299999997
 20
-3.593927652093866
 30
0.0
 40
0.40088561401976
100
AcDbArc
 50
268.4450926191132
 51
281.9116535426625
  0
ARC
  5
3637
330
1F
100
AcDbEntity
  8
AM_0
100
AcDbCircle
 10
14.96212799999994
 20
-3.594521652093845
 30
0.0
 40
0.400278242528871
100
AcDbArc
 50
281.9116957867269
 51
295.3805791074717
  0
ARC
  5
3638
330
1F
100
AcDbEntity
  8
AM_0
100
AcDbCircle
 10
14.96272299999998
 20
-3.595774652093864
 30
0.0
 40
0.398891545983365
100
AcDbArc
 50
295.3805074402753
 51
308.8959550938963
  0
ARC
  5
3639
330
1F
100
AcDbEntity
  8
AM_0
100
AcDbCircle
 10
14.96309299999995
 20
-3.596233652093842
 30
0.0
 40
0.3983016061453921
100
AcDbArc
 50
308.8959901152981
 51
317.9072117167563
  0
ARC
  5
363A
330
1F
100
AcDbEntity
  8
AM_0
100
AcDbCircle
 10
14.963661
 20
-3.596746652093855
 30
0.0
 40
0.397536534597764
100
AcDbArc
 50
317.9072012852339
 51
326.9356925253994
  0
ARC
  5
363B
330
1F
100
AcDbEntity
  8
AM_0
100
AcDbCircle
 10
14.96390099999996
 20
-3.596903652093856
 30
0.0
 40
0.397249779008123
100
AcDbArc
 50
326.935784259925
 51
335.9647719529868
  0
ARC
  5
363C
330
1F
100
AcDbEntity
  8
AM_0
100
AcDbCircle
 10
14.96416799999997
 20
-3.597021652093842
 30
0.0
 40
0.396957519492954
100
AcDbArc
 50
335.9646305312896
 51
345.0000410940588
  0
ARC
  5
363D
330
1F
100
AcDbEntity
  8
AM_0
100
AcDbCircle
 10
4.283747999999967
 20
14.81210634790611
 30
0.0
 40
0.3969616595201579
100
AcDbArc
 50
151.4450861713389
 51
165.0001531645565
  0
ARC
  5
363E
330
1F
100
AcDbEntity
  8
AM_0
100
AcDbCircle
 10
4.284305999999951
 20
14.81180334790614
 30
0.0
 40
0.397596835652653
100
AcDbArc
 50
137.911555364873
 51
151.4451699779339
  0
ARC
  5
363F
330
1F
100
AcDbEntity
  8
AM_0
100
AcDbCircle
 10
4.284755999999952
 20
14.81139634790614
 30
0.0
 40
0.398202978292484
100
AcDbArc
 50
124.3805509739284
 51
137.91149571591
  0
ARC
  5
3640
330
1F
100
AcDbEntity
  8
AM_0
100
AcDbCircle
 10
4.285538999999965
 20
14.81025334790613
 30
0.0
 40
0.399588440495971
100
AcDbArc
 50
110.8961044599061
 51
124.3806623687879
  0
ARC
  5
3641
330
1F
100
AcDbEntity
  8
AM_0
100
AcDbCircle
 10
4.285839999999944
 20
14.80946434790613
 30
0.0
 40
0.4004334038613661
100
AcDbArc
 50
92.92419774690301
 51
110.896073937175
  0
ARC
  5
3642
330
1F
100
AcDbEntity
  8
AM_0
100
AcDbCircle
 10
4.285894999999975
 20
14.80838234790613
 30
0.0
 40
0.401516318005884
100
AcDbArc
 50
75.00001034412632
 51
92.92415928286148
  0
ARC
  5
3643
330
1F
100
AcDbEntity
  8
AM_0
100
AcDbCircle
 10
0.3969639999999613
 20
0.3062513479061138
 30
0.0
 40
0.396962769751775
100
AcDbArc
 50
165.0002278773084
 51
178.5553361105981
  0
ARC
  5
3644
330
1F
100
AcDbEntity
  8
AM_0
100
AcDbCircle
 10
0.3976009999999731
 20
0.3062343479061567
 30
0.0
 40
0.397599404368257
100
AcDbArc
 50
178.5552013889278
 51
192.0886075638239
  0
ARC
  5
3645
330
1F
100
AcDbEntity
  8
AM_0
100
AcDbCircle
 10
0.3981939999999822
 20
0.3063623479061177
 30
0.0
 40
0.398206473328848
100
AcDbArc
 50
192.0887475738102
 51
205.619748069525
  0
ARC
  5
3646
330
1F
100
AcDbEntity
  8
AM_0
100
AcDbCircle
 10
0.3994439999999527
 20
0.3069613479061402
 30
0.0
 40
0.399592333710254
100
AcDbArc
 50
205.6196925432293
 51
219.1039787248419
  0
ARC
  5
3647
330
1F
100
AcDbEntity
  8
AM_0
100
AcDbCircle
 10
0.39990199999999
 20
0.3073333479061673
 30
0.0
 40
0.4001827688669221
100
AcDbArc
 50
219.1039499139492
 51
228.0926455050074
  0
ARC
  5
3648
330
1F
100
AcDbEntity
  8
AM_0
100
AcDbCircle
 10
0.4004139999999479
 20
0.3079043479061467
 30
0.0
 40
0.400949233237823
100
AcDbArc
 50
228.0926945656968
 51
237.0641776281112
  0
ARC
  5
3649
330
1F
100
AcDbEntity
  8
AM_0
100
AcDbCircle
 10
0.400569999999952
 20
0.3081453479061636
 30
0.0
 40
0.401236660343993
100
AcDbArc
 50
237.0641924553256
 51
246.0354376786018
  0
ARC
  5
364A
330
1F
100
AcDbEntity
  8
AM_0
100
AcDbCircle
 10
0.4006889999999642
 20
0.3084123479061147
 30
0.0
 40
0.4015292008758499
100
AcDbArc
 50
246.0353957229029
 51
255.0000400314698
  0
ARC
  5
366B
330
1F
100
AcDbEntity
  8
AM_0
100
AcDbCircle
 10
27.95459499999998
 20
11.20217234790616
 30
0.0
 40
7.24996754664075
100
AcDbArc
 50
164.9773328895821
 51
254.9437484161686
  0
ARC
  5
366C
330
1F
100
AcDbEntity
  8
AM_0
100
AcDbCircle
 10
27.95461199999999
 20
11.20223534790617
 30
0.0
 40
7.25003250385438
100
AcDbArc
 50
254.9437480125311
 51
344.9096440492782
  0
ARC
  5
366D
330
1F
100
AcDbEntity
  8
AM_0
100
AcDbCircle
 10
27.87519999999994
 20
10.90620834790613
 30
0.0
 40
7.25001218745907
100
AcDbArc
 50
74.97732937889518
 51
163.7617870330163
  0
ARC
  5
366E
330
1F
100
AcDbEntity
  8
AM_0
100
AcDbCircle
 10
27.87519999999994
 20
10.90620834790613
 30
0.0
 40
7.250011937294719
100
AcDbArc
 50
346.1928745937812
 51
74.97732937889518
  0
ARC
  5
366F
330
1F
100
AcDbEntity
  8
AM_0
100
AcDbCircle
 10
27.93809799999996
 20
11.20660034790612
 30
0.0
 40
7.23288549942953
100
AcDbArc
 50
89.95236761843817
 51
164.9773378349176
  0
ARC
  5
3670
330
1F
100
AcDbEntity
  8
AM_0
100
AcDbCircle
 10
27.93806899999998
 20
11.17279934790614
 30
0.0
 40
7.26668744994946
100
AcDbArc
 50
15.18529503856396
 51
89.95236052372047
  0
ARC
  5
369D
330
1F
100
AcDbEntity
  8
AM_0
100
AcDbCircle
 10
27.88182799999998
 20
-1.568227652093866
 30
0.0
 40
2.00048344936643
100
AcDbArc
 50
220.102783545377
 51
222.9427623509536
  0
ARC
  5
369E
330
1F
100
AcDbEntity
  8
AM_0
100
AcDbCircle
 10
27.88282599999996
 20
-1.567298652093852
 30
0.0
 40
2.0018466609833
100
AcDbArc
 50
222.9427667961523
 51
225.7808227598041
  0
ARC
  5
369F
330
1F
100
AcDbEntity
  8
AM_0
100
AcDbCircle
 10
27.88327799999995
 20
-1.566834652093859
 30
0.0
 40
2.00249455995866
100
AcDbArc
 50
225.7808129693931
 51
228.6188950827588
  0
ARC
  5
36A0
330
1F
100
AcDbEntity
  8
AM_0
100
AcDbCircle
 10
27.88407499999993
 20
-1.56592965209387
 30
0.0
 40
2.00370050902075
100
AcDbArc
 50
228.6189022608686
 51
231.4552617226465
  0
ARC
  5
36A1
330
1F
100
AcDbEntity
  8
AM_0
100
AcDbCircle
 10
27.88442199999997
 20
-1.565493652093862
 30
0.0
 40
2.00425782939521
100
AcDbArc
 50
231.4552699114854
 51
234.2915872023261
  0
ARC
  5
36A2
330
1F
100
AcDbEntity
  8
AM_0
100
AcDbCircle
 10
27.88500799999996
 20
-1.564678652093845
 30
0.0
 40
2.00526160724431
100
AcDbArc
 50
234.291582988706
 51
237.1265239087596
  0
ARC
  5
36A3
330
1F
100
AcDbEntity
  8
AM_0
100
AcDbCircle
 10
27.88524899999998
 20
-1.564305652093849
 30
0.0
 40
2.00570506590077
100
AcDbArc
 50
237.1265253400283
 51
239.9614584463784
  0
ARC
  5
36A4
330
1F
100
AcDbEntity
  8
AM_0
100
AcDbCircle
 10
27.88562999999999
 20
-1.563647652093862
 30
0.0
 40
2.00646592999458
100
AcDbArc
 50
239.9614457616436
 51
242.7952896789454
  0
ARC
  5
36A5
330
1F
100
AcDbEntity
  8
AM_0
100
AcDbCircle
 10
27.88577299999997
 20
-1.563367652093858
 30
0.0
 40
2.00678005606618
100
AcDbArc
 50
242.7953132828627
 51
245.6291535239238
  0
ARC
  5
36A6
330
1F
100
AcDbEntity
  8
AM_0
100
AcDbCircle
 10
27.88597399999997
 20
-1.562924652093868
 30
0.0
 40
2.00726719013937
100
AcDbArc
 50
245.6291452552505
 51
248.4623135506124
  0
ARC
  5
36A7
330
1F
100
AcDbEntity
  8
AM_0
100
AcDbCircle
 10
27.88603799999998
 20
-1.562764652093874
 30
0.0
 40
2.00743911881482
100
AcDbArc
 50
248.4622909118277
 51
251.2954529402461
  0
ARC
  5
36A8
330
1F
100
AcDbEntity
  8
AM_0
100
AcDbCircle
 10
27.88609999999994
 20
-1.562579652093858
 30
0.0
 40
2.00763435569752
100
AcDbArc
 50
251.2954701164233
 51
254.1283377662747
  0
ARC
  5
36A9
330
1F
100
AcDbEntity
  8
AM_0
100
AcDbCircle
 10
27.88610599999998
 20
-1.562558652093854
 30
0.0
 40
2.00765652232771
100
AcDbArc
 50
254.1283369641616
 51
256.9612286935953
  0
ARC
  5
36AA
330
1F
100
AcDbEntity
  8
AM_0
100
AcDbCircle
 10
27.88608299999998
 20
-1.562660652093852
 30
0.0
 40
2.00755159407897
100
AcDbArc
 50
256.9612114196803
 51
259.7942241064684
  0
ARC
  5
36AB
330
1F
100
AcDbEntity
  8
AM_0
100
AcDbCircle
 10
27.88605999999998
 20
-1.562786652093847
 30
0.0
 40
2.00742390509155
100
AcDbArc
 50
259.7942329804446
 51
262.627264972655
  0
ARC
  5
36AC
330
1F
100
AcDbEntity
  8
AM_0
100
AcDbCircle
 10
27.88600799999994
 20
-1.563183652093868
 30
0.0
 40
2.00702330758863
100
AcDbArc
 50
262.6272828314853
 51
265.4608881517132
  0
ARC
  5
36AD
330
1F
100
AcDbEntity
  8
AM_0
100
AcDbCircle
 10
27.88598699999999
 20
-1.563455652093863
 30
0.0
 40
2.00675013256061
100
AcDbArc
 50
265.4608712538396
 51
268.2944795568732
  0
ARC
  5
36AE
330
1F
100
AcDbEntity
  8
AM_0
100
AcDbCircle
 10
27.88596699999993
 20
-1.564136652093849
 30
0.0
 40
2.00606870242173
100
AcDbArc
 50
268.2944716409117
 51
271.1290407350951
  0
ARC
  5
36AF
330
1F
100
AcDbEntity
  8
AM_0
100
AcDbCircle
 10
27.88597499999997
 20
-1.564543652093845
 30
0.0
 40
2.00566239305847
100
AcDbArc
 50
271.1290413396811
 51
273.96360563396
  0
ARC
  5
36B0
330
1F
100
AcDbEntity
  8
AM_0
100
AcDbCircle
 10
27.88603899999998
 20
-1.565475652093851
 30
0.0
 40
2.00472803163372
100
AcDbArc
 50
273.9636220828698
 51
276.7994886616203
  0
ARC
  5
36B1
330
1F
100
AcDbEntity
  8
AM_0
100
AcDbCircle
 10
27.88611499999995
 20
-1.566109652093842
 30
0.0
 40
2.00408958659836
100
AcDbArc
 50
276.7994771411852
 51
280.8507377964119
  0
ARC
  5
36B2
330
1F
100
AcDbEntity
  8
AM_0
100
AcDbCircle
 10
27.886435
 20
-1.56777965209386
 30
0.0
 40
2.0023888663414
100
AcDbArc
 50
280.8507406759304
 51
284.9053952826185
  0
ARC
  5
36B3
330
1F
100
AcDbEntity
  8
AM_0
100
AcDbCircle
 10
34.74835299999995
 20
1.216957347906118
 30
0.0
 40
2.99640165733718
100
AcDbArc
 50
284.9054191381399
 51
314.8528376871427
  0
ARC
  5
36B4
330
1F
100
AcDbEntity
  8
AM_0
100
AcDbCircle
 10
34.76136099999996
 20
1.20388234790616
 30
0.0
 40
2.97795821197293
100
AcDbArc
 50
314.8528377759892
 51
344.9773390439535
  0
ARC
  5
36B5
330
1F
100
AcDbEntity
  8
AM_0
100
AcDbCircle
 10
27.83694499999995
 20
10.91768634790614
 30
0.0
 40
5.210076938583541
100
AcDbArc
 50
164.9773327480552
 51
174.0139812231002
  0
ARC
  5
36B6
330
1F
100
AcDbEntity
  8
AM_0
100
AcDbCircle
 10
27.84076199999998
 20
10.91728634790613
 30
0.0
 40
5.21391551344716
100
AcDbArc
 50
174.0139838590071
 51
183.0440034116545
  0
ARC
  5
36B7
330
1F
100
AcDbEntity
  8
AM_0
100
AcDbCircle
 10
27.84452299999997
 20
10.91748534790614
 30
0.0
 40
5.217681855932669
100
AcDbArc
 50
183.0439924222408
 51
192.0736336857316
  0
ARC
  5
36B8
330
1F
100
AcDbEntity
  8
AM_0
100
AcDbCircle
 10
27.85435599999993
 20
10.91958934790611
 30
0.0
 40
5.22773680103063
100
AcDbArc
 50
192.0736414011934
 51
201.0859788534399
  0
ARC
  5
36B9
330
1F
100
AcDbEntity
  8
AM_0
100
AcDbCircle
 10
27.86004399999995
 20
10.92178234790615
 30
0.0
 40
5.2338329912675
100
AcDbArc
 50
201.0859766319115
 51
210.0976904052826
  0
ARC
  5
36BA
330
1F
100
AcDbEntity
  8
AM_0
100
AcDbCircle
 10
27.87081
 20
10.92802234790614
 30
0.0
 40
5.246276811326379
100
AcDbArc
 50
210.0976880230553
 51
219.088109430266
  0
ARC
  5
36BB
330
1F
100
AcDbEntity
  8
AM_0
100
AcDbCircle
 10
27.87554499999998
 20
10.93186834790615
 30
0.0
 40
5.25237718253146
100
AcDbArc
 50
219.0881060540404
 51
228.0779187017336
  0
ARC
  5
36BC
330
1F
100
AcDbEntity
  8
AM_0
100
AcDbCircle
 10
27.88227699999998
 20
10.93936634790615
 30
0.0
 40
5.26245407964858
100
AcDbArc
 50
228.077925088908
 51
237.050596064296
  0
ARC
  5
36BD
330
1F
100
AcDbEntity
  8
AM_0
100
AcDbCircle
 10
27.88432799999998
 20
10.94253034790617
 30
0.0
 40
5.26622394444672
100
AcDbArc
 50
237.0505938324878
 51
246.0228938691721
  0
ARC
  5
36BE
330
1F
100
AcDbEntity
  8
AM_0
100
AcDbCircle
 10
27.88589099999995
 20
10.94604634790616
 30
0.0
 40
5.27007229994978
100
AcDbArc
 50
246.0229012297411
 51
254.9886662934337
  0
ARC
  5
36BF
330
1F
100
AcDbEntity
  8
AM_0
100
AcDbCircle
 10
27.88589099999995
 20
10.94604334790617
 30
0.0
 40
5.27006937251114
100
AcDbArc
 50
254.9886578456214
 51
263.9544363307288
  0
ARC
  5
36C0
330
1F
100
AcDbEntity
  8
AM_0
100
AcDbCircle
 10
27.88548499999995
 20
10.94220734790614
 30
0.0
 40
5.26621129293964
100
AcDbArc
 50
263.9544334708503
 51
272.926743587765
  0
ARC
  5
36C1
330
1F
100
AcDbEntity
  8
AM_0
100
AcDbCircle
 10
27.88567699999998
 20
10.93843734790616
 30
0.0
 40
5.26243618370807
100
AcDbArc
 50
272.9267516800111
 51
281.899449568873
  0
ARC
  5
36C2
330
1F
100
AcDbEntity
  8
AM_0
100
AcDbCircle
 10
27.88775599999996
 20
10.92857234790617
 30
0.0
 40
5.25235499097624
100
AcDbArc
 50
281.899447248134
 51
290.8892849161153
  0
ARC
  5
36C3
330
1F
100
AcDbEntity
  8
AM_0
100
AcDbCircle
 10
27.88993199999998
 20
10.92287134790613
 30
0.0
 40
5.246252981945309
100
AcDbArc
 50
290.88928265772
 51
299.8797363244941
  0
ARC
  5
36C4
330
1F
100
AcDbEntity
  8
AM_0
100
AcDbCircle
 10
27.89613099999996
 20
10.91208234790614
 30
0.0
 40
5.233809584542611
100
AcDbArc
 50
299.8797351264494
 51
308.891471123647
  0
ARC
  5
36C5
330
1F
100
AcDbEntity
  8
AM_0
100
AcDbCircle
 10
27.90204199999993
 20
10.90475434790617
 30
0.0
 40
5.22439518653863
100
AcDbArc
 50
308.8914724020505
 51
326.9217557816151
  0
ARC
  5
36C6
330
1F
100
AcDbEntity
  8
AM_0
100
AcDbCircle
 10
27.91389299999997
 20
10.89703534790616
 30
0.0
 40
5.21025124675058
100
AcDbArc
 50
326.9217543161403
 51
345.0001755575911
  0
ARC
  5
36C7
330
1F
100
AcDbEntity
  8
AM_0
100
AcDbCircle
 10
27.83694499999995
 20
10.91768634790614
 30
0.0
 40
5.2100775427931
100
AcDbArc
 50
155.9429695588351
 51
164.9773327480552
  0
ARC
  5
36C8
330
1F
100
AcDbEntity
  8
AM_0
100
AcDbCircle
 10
27.84044799999997
 20
10.91612234790617
 30
0.0
 40
5.213913663879461
100
AcDbArc
 50
146.9152346800276
 51
155.9429677114288
  0
ARC
  5
36C9
330
1F
100
AcDbEntity
  8
AM_0
100
AcDbCircle
 10
27.84360199999997
 20
10.91406734790613
 30
0.0
 40
5.21767796995197
100
AcDbArc
 50
137.8878807756347
 51
146.9152335015908
  0
ARC
  5
36CA
330
1F
100
AcDbEntity
  8
AM_0
100
AcDbCircle
 10
27.85105799999996
 20
10.90732734790615
 30
0.0
 40
5.22772822254189
100
AcDbArc
 50
128.8778058984564
 51
137.8878797855302
  0
ARC
  5
36CB
330
1F
100
AcDbEntity
  8
AM_0
100
AcDbCircle
 10
27.85488299999997
 20
10.90258234790614
 30
0.0
 40
5.23382336449417
100
AcDbArc
 50
119.8683492987659
 51
128.8777999452226
  0
ARC
  5
36CC
330
1F
100
AcDbEntity
  8
AM_0
100
AcDbCircle
 10
27.86107899999995
 20
10.89179534790614
 30
0.0
 40
5.2462629549852
100
AcDbArc
 50
110.8801936145604
 51
119.8683599676313
  0
ARC
  5
36CD
330
1F
100
AcDbEntity
  8
AM_0
100
AcDbCircle
 10
27.86325299999998
 20
10.88609634790615
 30
0.0
 40
5.2523625329303
100
AcDbArc
 50
101.8926407822271
 51
110.8801938241399
  0
ARC
  5
36CE
330
1F
100
AcDbEntity
  8
AM_0
100
AcDbCircle
 10
27.86532899999997
 20
10.87623434790615
 30
0.0
 40
5.26244092565456
100
AcDbArc
 50
92.92221385863049
 51
101.8926309118745
  0
ARC
  5
36CF
330
1F
100
AcDbEntity
  8
AM_0
100
AcDbCircle
 10
27.86552199999994
 20
10.87246634790617
 30
0.0
 40
5.26621420381824
100
AcDbArc
 50
83.95217208963597
 51
92.92222099420479
  0
ARC
  5
36D0
330
1F
100
AcDbEntity
  8
AM_0
100
AcDbCircle
 10
27.86511599999994
 20
10.86863234790613
 30
0.0
 40
5.270069113500981
100
AcDbArc
 50
74.98866834653413
 51
83.9521743138297
  0
ARC
  5
36D1
330
1F
100
AcDbEntity
  8
AM_0
100
AcDbCircle
 10
27.86511499999994
 20
10.86862934790614
 30
0.0
 40
5.27007275865836
100
AcDbArc
 50
66.02516417616309
 51
74.98866629343374
  0
ARC
  5
36D2
330
1F
100
AcDbEntity
  8
AM_0
100
AcDbCircle
 10
27.86667799999997
 20
10.87214434790613
 30
0.0
 40
5.26622546692383
100
AcDbArc
 50
57.05512934630308
 51
66.02516288988173
  0
ARC
  5
36D3
330
1F
100
AcDbEntity
  8
AM_0
100
AcDbCircle
 10
27.86872799999997
 20
10.87530734790616
 30
0.0
 40
5.262456612280039
100
AcDbArc
 50
48.08473913742206
 51
57.05513161205468
  0
ARC
  5
36D4
330
1F
100
AcDbEntity
  8
AM_0
100
AcDbCircle
 10
27.87545599999998
 20
10.88280234790617
 30
0.0
 40
5.25238473211407
100
AcDbArc
 50
39.09720305907197
 51
48.0847352150933
  0
ARC
  5
36D5
330
1F
100
AcDbEntity
  8
AM_0
100
AcDbCircle
 10
27.88018799999997
 20
10.88664734790612
 30
0.0
 40
5.24628741866646
100
AcDbArc
 50
30.10905811809365
 51
39.09720482662259
  0
ARC
  5
36D6
330
1F
100
AcDbEntity
  8
AM_0
100
AcDbCircle
 10
27.89094999999997
 20
10.89288834790617
 30
0.0
 40
5.23384690313664
100
AcDbArc
 50
21.09963414610469
 51
30.10905609654198
  0
ARC
  5
36D7
330
1F
100
AcDbEntity
  8
AM_0
100
AcDbCircle
 10
27.89663699999993
 20
10.89508234790614
 30
0.0
 40
5.22775092467803
100
AcDbArc
 50
12.08960237069416
 51
21.09963812313658
  0
ARC
  5
36D8
330
1F
100
AcDbEntity
  8
AM_0
100
AcDbCircle
 10
27.90647099999995
 20
10.89718934790617
 30
0.0
 40
5.21769448509215
100
AcDbArc
 50
3.062261499530588
 51
12.08959550271683
  0
ARC
  5
36D9
330
1F
100
AcDbEntity
  8
AM_0
100
AcDbCircle
 10
27.91023399999994
 20
10.89739034790617
 30
0.0
 40
5.21392586391146
100
AcDbArc
 50
354.0345359318516
 51
3.06226491301651
  0
ARC
  5
36DA
330
1F
100
AcDbEntity
  8
AM_0
100
AcDbCircle
 10
27.91405899999995
 20
10.89699034790616
 30
0.0
 40
5.21007990575279
100
AcDbArc
 50
345.0001810916376
 51
354.0345392918779
  0
ARC
  5
36F9
330
1F
100
AcDbEntity
  8
AM_0
100
AcDbCircle
 10
11.43869099999994
 20
-0.7122446520938568
 30
0.0
 40
10.0255680036852
100
AcDbArc
 50
49.32526997306098
 51
58.53032833925607
  0
ARC
  5
36FA
330
1F
100
AcDbEntity
  8
AM_0
100
AcDbCircle
 10
11.45109999999999
 20
-0.6978046520938492
 30
0.0
 40
10.0065280405612
100
AcDbArc
 50
40.10276848284974
 51
49.32526874327655
  0
SPLINE
  5
3707
330
1F
100
AcDbEntity
  8
AM_0
100
AcDbSpline
210
0.0
220
0.0
230
1.0
 70
     8
 71
     3
 72
    11
 73
     7
 74
     5
 42
0.0000000001
 43
0.0000000001
 44
0.0000000001
 40
0.0
 40
0.0
 40
0.0
 40
0.0
 40
2.205186588790164
 40
4.422297110978904
 40
6.626108989580649
 40
8.791605951121115
 40
8.791605951121115
 40
8.791605951121115
 40
8.791605951121115
 10
14.072269
 20
9.126683347906154
 30
0.0
 10
13.36024318884825
 20
9.309287047882839
 30
0.0
 10
11.93234148492654
 20
9.675481826576821
 30
0.0
 10
9.799374363863482
 20
10.24905851070849
 30
0.0
 10
7.683611467876515
 20
10.83542828638545
 30
0.0
 10
6.28483515166295
 20
11.24121913457934
 30
0.0
 10
5.591579999999958
 20
11.44233534790615
 30
0.0
 11
14.072269
 21
9.126683347906154
 31
0.0
 11
11.937273
 21
9.67862534790615
 31
0.0
 11
9.795840999999989
 21
10.25294934790614
 31
0.0
 11
7.672519999999956
 21
10.84311434790615
 31
0.0
 11
5.591579999999958
 21
11.44233534790615
 31
0.0
  0
SPLINE
  5
370C
330
1F
100
AcDbEntity
  8
AM_0
100
AcDbSpline
210
0.0
220
0.0
230
1.0
 70
     8
 71
     3
 72
    11
 73
     7
 74
     5
 42
0.0000000001
 43
0.0000000001
 44
0.0000000001
 40
0.0
 40
0.0
 40
0.0
 40
0.0
 40
0.9498247729181257
 40
1.899989878247234
 40
2.851272372765513
 40
3.8027960671048
 40
3.8027960671048
 40
3.8027960671048
 40
3.8027960671048
 10
34.95463799999993
 20
9.314747347906151
 30
0.0
 10
35.02554927306186
 20
9.623847437847164
 30
0.0
 10
35.16739722745598
 20
10.24215837160911
 30
0.0
 10
35.22057307844305
 20
11.19470412621844
 30
0.0
 10
35.16551965855564
 20
12.1476943702476
 30
0.0
 10
35.02253326117313
 20
12.76670286683587
 30
0.0
 10
34.95103099999994
 20
13.07624634790617
 30
0.0
 11
34.95463799999993
 21
9.314747347906151
 31
0.0
 11
35.14077799999995
 21
10.24615434790613
 31
0.0
 11
35.20253499999995
 21
11.19431034790617
 31
0.0
 11
35.13896399999998
 21
12.14346634790613
 31
0.0
 11
34.95103099999994
 21
13.07624634790617
 31
0.0
  0
SPLINE
  5
3712
330
1F
100
AcDbEntity
  8
AM_0
100
AcDbSpline
210
0.0
220
0.0
230
1.0
 70
     8
 71
     3
 72
    11
 73
     7
 74
     5
 42
0.0000000001
 43
0.0000000001
 44
0.0000000001
 40
0.0
 40
0.0
 40
0.0
 40
0.0
 40
2.779241070147863
 40
5.269915298349559
 40
7.226336956583795
 40
8.990964283658855
 40
8.990964283658855
 40
8.990964283658855
 40
8.990964283658855
 10
18.65186199999993
 20
26.28134934790612
 30
0.0
 10
17.72488632329
 20
26.27681390546645
 30
0.0
 10
15.96718226790494
 20
26.26821393270617
 30
0.0
 10
13.56654634014365
 20
26.13533582064665
 30
0.0
 10
11.4848960669584
 20
26.01970454432933
 30
0.0
 10
10.30347601225978
 20
25.62449904360121
 30
0.0
 10
9.743212999999962
 20
25.43708134790612
 30
0.0
 11
18.65186199999993
 21
26.28134934790612
 31
0.0
 11
15.872883
 21
26.24318334790613
 31
0.0
 11
13.38500499999997
 21
26.12519534790616
 31
0.0
 11
11.43874699999997
 21
25.92603334790616
 31
0.0
 11
9.743212999999962
 21
25.43708134790612
 31
0.0
  0
SPLINE
  5
3713
330
1F
100
AcDbEntity
  8
AM_0
100
AcDbSpline
210
0.0
220
0.0
230
1.0
 70
     8
 71
     3
 72
    11
 73
     7
 74
     5
 42
0.0000000001
 43
0.0000000001
 44
0.0000000001
 40
0.0
 40
0.0
 40
0.0
 40
0.0
 40
0.5523143324520703
 40
1.105041312988557
 40
1.658030903716111
 40
2.211041071667857
 40
2.211041071667857
 40
2.211041071667857
 40
2.211041071667857
 10
8.311252999999958
 20
23.81028834790615
 30
0.0
 10
8.383829409194521
 20
23.98011760847106
 30
0.0
 10
8.529036451264743
 20
24.31990301336058
 30
0.0
 10
8.861727454298137
 20
24.76645749858412
 30
0.0
 10
9.262554034759383
 20
25.15321687954318
 30
0.0
 10
9.580913370551837
 20
25.34137735820431
 30
0.0
 10
9.740095999999987
 20
25.43545934790612
 30
0.0
 11
8.311252999999958
 21
23.81028834790615
 31
0.0
 11
8.548098999999972
 21
24.30924234790612
 31
0.0
 11
8.873000999999924
 21
24.75639534790614
 31
0.0
 11
9.275322999999951
 21
25.13578234790614
 31
0.0
 11
9.740095999999987
 21
25.43545934790612
 31
0.0
  0
SPLINE
  5
3715
330
1F
100
AcDbEntity
  8
AM_0
100
AcDbSpline
210
0.0
220
0.0
230
1.0
 70
     8
 71
     3
 72
    11
 73
     7
 74
     5
 42
0.0000000001
 43
0.0000000001
 44
0.0000000001
 40
0.0
 40
0.0
 40
0.0
 40
0.0
 40
0.7064429477919445
 40
1.422016407043326
 40
2.14544088090637
 40
2.875331153652183
 40
2.875331153652183
 40
2.875331153652183
 40
2.875331153652183
 10
16.72902699999997
 20
8.049318347906167
 30
0.0
 10
16.5226538987313
 20
8.162938240003797
 30
0.0
 10
16.10724040087741
 20
8.391646518902075
 30
0.0
 10
15.45238034656542
 20
8.68082732085136
 30
0.0
 10
14.77430409873836
 20
8.933746261501288
 30
0.0
 10
14.30697375065449
 20
9.062180517722823
 30
0.0
 10
14.072269
 20
9.126683347906154
 30
0.0
 11
16.72902699999997
 21
8.049318347906167
 31
0.0
 11
16.10530899999997
 21
8.381037347906132
 31
0.0
 11
15.45214199999997
 21
8.67330134790612
 31
0.0
 11
14.77311199999996
 21
8.922823347906133
 31
0.0
 11
14.072269
 21
9.126683347906154
 31
0.0
  0
SPLINE
  5
3716
330
1F
100
AcDbEntity
  8
AM_0
100
AcDbSpline
210
0.0
220
0.0
230
1.0
 70
     8
 71
     3
 72
    11
 73
     7
 74
     5
 42
0.0000000001
 43
0.0000000001
 44
0.0000000001
 40
0.0
 40
0.0
 40
0.0
 40
0.0
 40
0.1684924835860514
 40
0.3371903869191783
 40
0.506311623034037
 40
0.6763461282410518
 40
0.6763461282410518
 40
0.6763461282410518
 40
0.6763461282410518
 10
5.591579999999958
 20
11.44233534790615
 30
0.0
 10
5.538405510933154
 20
11.46093897451262
 30
0.0
 10
5.431991704447194
 20
11.49816890857274
 30
0.0
 10
5.288678945488989
 20
11.58956467524531
 30
0.0
 10
5.161087258561414
 20
11.70264022596993
 30
0.0
 10
5.095686456004275
 20
11.79527649114631
 30
0.0
 10
5.062897999999954
 20
11.84171934790615
 30
0.0
 11
5.591579999999958
 21
11.44233534790615
 31
0.0
 11
5.43479599999997
 21
11.50404834790615
 31
0.0
 11
5.291478999999974
 21
11.59303834790612
 31
0.0
 11
5.166241999999947
 21
11.70669434790617
 31
0.0
 11
5.062897999999954
 21
11.84171934790615
 31
0.0
  0
SPLINE
  5
3717
330
1F
100
AcDbEntity
  8
AM_0
100
AcDbSpline
210
0.0
220
0.0
230
1.0
 70
     8
 71
     3
 72
    11
 73
     7
 74
     5
 42
0.0000000001
 43
0.0000000001
 44
0.0000000001
 40
0.0
 40
0.0
 40
0.0
 40
0.0
 40
0.1550014668124016
 40
0.2671783561123249
 40
0.3500908892179639
 40
0.4138460358494306
 40
0.4138460358494306
 40
0.4138460358494306
 40
0.4138460358494306
 10
5.062897999999954
 20
11.84171934790615
 30
0.0
 10
5.040174213735101
 20
11.7953120177926
 30
0.0
 10
5.001004882091035
 20
11.71531900594382
 30
0.0
 10
4.953528179231987
 20
11.60869943523897
 30
0.0
 10
4.921083944595956
 20
11.52870228769354
 30
0.0
 10
4.905448562624027
 20
11.48237180155226
 30
0.0
 10
4.898651999999963
 20
11.46223234790617
 30
0.0
 11
5.062897999999954
 21
11.84171934790615
 31
0.0
 11
4.995714999999954
 21
11.70203434790617
 31
0.0
 11
4.950221999999961
 21
11.59949634790613
 31
0.0
 11
4.91956099999998
 21
11.52246134790616
 31
0.0
 11
4.898651999999963
 21
11.46223234790617
 31
0.0
  0
SPLINE
  5
3718
330
1F
100
AcDbEntity
  8
AM_0
100
AcDbSpline
210
0.0
220
0.0
230
1.0
 70
     8
 71
     3
 72
    11
 73
     7
 74
     5
 42
0.0000000001
 43
0.0000000001
 44
0.0000000001
 40
0.0
 40
0.0
 40
0.0
 40
0.0
 40
0.3949513656768574
 40
0.7903163678710363
 40
1.184926307059045
 40
1.577835746402294
 40
1.577835746402294
 40
1.577835746402294
 40
1.577835746402294
 10
4.887312999999942
 20
11.42535034790612
 30
0.0
 10
4.766869787917832
 20
11.48289352202765
 30
0.0
 10
4.525857222372392
 20
11.59804013581277
 30
0.0
 10
4.285035807207279
 20
11.92796894694954
 30
0.0
 10
4.175128013401555
 20
12.32119961018395
 30
0.0
 10
4.236306705756842
 20
12.58038265432933
 30
0.0
 10
4.266829999999963
 20
12.70969434790615
 30
0.0
 11
4.887312999999942
 21
11.42535034790612
 31
0.0
 11
4.546059999999947
 21
11.62417934790617
 31
0.0
 11
4.306711999999941
 21
11.93886334790617
 31
0.0
 11
4.20870299999995
 21
12.32110834790612
 31
0.0
 11
4.266829999999963
 21
12.70969434790615
 31
0.0
  0
SPLINE
  5
3719
330
1F
100
AcDbEntity
  8
AM_0
100
AcDbSpline
210
0.0
220
0.0
230
1.0
 70
     8
 71
     3
 72
    11
 73
     7
 74
     5
 42
0.0000000001
 43
0.0000000001
 44
0.0000000001
 40
0.0
 40
0.0
 40
0.0
 40
0.0
 40
0.043718569647221
 40
0.0873754361403826
 40
0.1311376399811086
 40
0.1751713249052686
 40
0.1751713249052686
 40
0.1751713249052686
 40
0.1751713249052686
 10
0.8293529999999619
 20
4.31124734790612
 30
0.0
 10
0.8224613281450167
 20
4.298401083016161
 30
0.0
 10
0.8086877111460779
 20
4.272726684091572
 30
0.0
 10
0.7911390009009304
 20
4.232651268318344
 30
0.0
 10
0.7757181044440524
 20
4.191598597171175
 30
0.0
 10
0.7676123896031589
 20
4.163467426584058
 30
0.0
 10
0.7635469999999528
 20
4.149358347906146
 30
0.0
 11
0.8293529999999619
 21
4.31124734790612
 31
0.0
 11
0.809198999999971
 21
4.272451347906129
 31
0.0
 11
0.791512999999945
 21
4.232537347906119
 31
0.0
 11
0.776294999999969
 21
4.191506347906143
 31
0.0
 11
0.7635469999999528
 21
4.149358347906146
 31
0.0
  0
LINE
  5
398C
330
1F
100
AcDbEntity
  8
AM_0
100
AcDbLine
 10
3.332931999999993
 20
6.535985347906065
 30
0.0
 11
13.18448
 21
3.896271347906095
 31
0.0
  0
LINE
  5
398D
330
1F
100
AcDbEntity
  8
AM_0
100
AcDbLine
 10
16.66518631391465
 20
7.843207441755085
 30
0.0
 11
12.28730322340413
 21
0.2932106263276366
 31
0.0
  0
LINE
  5
398E
330
1F
100
AcDbEntity
  8
AM_0
100
AcDbLine
 10
4.243977999999991
 20
8.402950347906115
 30
0.0
 11
14.24397799999996
 21
5.723458347906076
 31
0.0
  0
LINE
  5
398F
330
1F
100
AcDbEntity
  8
AM_0
100
AcDbLine
 10
14.75968099999999
 20
6.612828347906119
 30
0.0
 11
4.759680999999993
 21
9.292320347906101
 31
0.0
  0
LINE
  5
3990
330
1F
100
AcDbEntity
  8
AM_0
100
AcDbLine
 10
5.275383999999995
 20
10.18168934790609
 30
0.0
 11
15.27538400000002
 21
7.502197347906106
 31
0.0
  0
LINE
  5
3991
330
1F
100
AcDbEntity
  8
AM_0
100
AcDbLine
 10
15.791087
 20
8.391567347906092
 30
0.0
 11
5.791086999999997
 21
11.07105934790607
 31
0.0
  0
SPLINE
  5
3992
330
1F
100
AcDbEntity
  8
AM_0
100
AcDbSpline
210
0.0
220
0.0
230
1.0
 70
     8
 71
     3
 72
    11
 73
     7
 74
     5
 42
0.0000000001
 43
0.0000000001
 44
0.0000000001
 40
0.0
 40
0.0
 40
0.0
 40
0.0
 40
0.3721787460576007
 40
0.687599626750371
 40
0.904153492220392
 40
1.005556489932488
 40
1.005556489932488
 40
1.005556489932488
 40
1.005556489932488
 10
3.194442000000002
 20
6.592944347906071
 30
0.0
 10
3.086967275501341
 20
6.656407032234766
 30
0.0
 10
2.888407897156449
 20
6.773654238098133
 30
0.0
 10
2.657565288319928
 20
6.958091356342352
 30
0.0
 10
2.476723400138742
 20
7.092052343244662
 30
0.0
 10
2.45283310694879
 20
7.197458994176994
 30
0.0
 10
2.445214000000014
 20
7.231075347906115
 30
0.0
 11
3.194442000000002
 21
6.592944347906071
 31
0.0
 11
2.878757999999998
 21
6.790075347906084
 31
0.0
 11
2.626674000000001
 21
6.979664347906097
 31
0.0
 11
2.47487499999999
 21
7.134107347906111
 31
0.0
 11
2.445214000000014
 21
7.231075347906115
 31
0.0
  0
SPLINE
  5
3993
330
1F
100
AcDbEntity
  8
AM_0
100
AcDbSpline
210
0.0
220
0.0
230
1.0
 70
     8
 71
     3
 72
    11
 73
     7
 74
     5
 42
0.0000000001
 43
0.0000000001
 44
0.0000000001
 40
0.0
 40
0.0
 40
0.0
 40
0.0
 40
0.0372489126015694
 40
0.0746164921458712
 40
0.1122134067134213
 40
0.1501433103911284
 40
0.1501433103911284
 40
0.1501433103911284
 40
0.1501433103911284
 10
3.194442000000002
 20
6.592944347906071
 30
0.0
 10
3.205326207016842
 20
6.586959000017185
 30
0.0
 10
3.227129295769339
 20
6.574969236221434
 30
0.0
 10
3.261344743594352
 20
6.559768722040147
 30
0.0
 10
3.296568990243894
 20
6.546430968278703
 30
0.0
 10
3.320775422283806
 20
6.539477440466761
 30
0.0
 10
3.332931999999993
 20
6.535985347906065
 30
0.0
 11
3.194442000000002
 21
6.592944347906071
 31
0.0
 11
3.227331000000014
 21
6.575457347906111
 31
0.0
 11
3.261407000000013
 21
6.560122347906118
 31
0.0
 11
3.296624000000001
 21
6.5469583479061
 31
0.0
 11
3.332931999999993
 21
6.535985347906065
 31
0.0
  0
SPLINE
  5
3994
330
1F
100
AcDbEntity
  8
AM_0
100
AcDbSpline
210
0.0
220
0.0
230
1.0
 70
     8
 71
     3
 72
    11
 73
     7
 74
     5
 42
0.0000000001
 43
0.0000000001
 44
0.0000000001
 40
0.0
 40
0.0
 40
0.0
 40
0.0
 40
0.5929841935642336
 40
1.102373476939912
 40
1.521087997176538
 40
1.90638828618888
 40
1.90638828618888
 40
1.90638828618888
 40
1.90638828618888
 10
13.41638799999998
 20
2.240404347906094
 30
0.0
 10
13.50098800890861
 20
2.4208546362702
 30
0.0
 10
13.65826168834548
 20
2.756316549012061
 30
0.0
 10
13.70367684258548
 20
3.26774261906536
 30
0.0
 10
13.55607285621244
 20
3.719030624759445
 30
0.0
 10
13.30486427419519
 20
3.838850987269121
 30
0.0
 10
13.18448
 20
3.896271347906095
 30
0.0
 11
13.41638799999998
 21
2.240404347906094
 31
0.0
 11
13.634204
 21
2.791935347906106
 31
0.0
 11
13.66661699999997
 21
3.300292347906095
 31
0.0
 11
13.50869299999999
 21
3.688083347906088
 31
0.0
 11
13.18448
 21
3.896271347906095
 31
0.0
  0
SPLINE
  5
3995
330
1F
100
AcDbEntity
  8
AM_0
100
AcDbSpline
210
0.0
220
0.0
230
1.0
 70
     8
 71
     3
 72
    11
 73
     7
 74
     5
 42
0.0000000001
 43
0.0000000001
 44
0.0000000001
 40
0.0
 40
0.0
 40
0.0
 40
0.0
 40
0.1865188558082239
 40
0.369466577794612
 40
0.543033494184216
 40
0.7017530012052352
 40
0.7017530012052352
 40
0.7017530012052352
 40
0.7017530012052352
 10
14.24397799999996
 20
5.723458347906076
 30
0.0
 10
14.30415006492801
 20
5.707796590378496
 30
0.0
 10
14.42334212629611
 20
5.676772939011505
 30
0.0
 10
14.59991085866369
 20
5.636822635857856
 30
0.0
 10
14.76824703988632
 20
5.602582754280512
 30
0.0
 10
14.87762477247296
 20
5.585057458311511
 30
0.0
 10
14.92986999999999
 20
5.576686347906078
 30
0.0
 11
14.24397799999996
 21
5.723458347906076
 31
0.0
 11
14.42473399999999
 21
5.677452347906099
 31
0.0
 11
14.60310800000001
 21
5.636800347906076
 31
0.0
 11
14.77332000000001
 21
5.6028393479061
 31
0.0
 11
14.92986999999999
 21
5.576686347906078
 31
0.0
  0
SPLINE
  5
3996
330
1F
100
AcDbEntity
  8
AM_0
100
AcDbSpline
210
0.0
220
0.0
230
1.0
 70
     8
 71
     3
 72
    11
 73
     7
 74
     5
 42
0.0000000001
 43
0.0000000001
 44
0.0000000001
 40
0.0
 40
0.0
 40
0.0
 40
0.0
 40
0.3006314141685783
 40
0.5578621107582507
 40
0.7846285538665648
 40
1.006036364261788
 40
1.006036364261788
 40
1.006036364261788
 40
1.006036364261788
 10
15.19413099999996
 20
5.791811347906078
 30
0.0
 10
15.1950117158387
 20
5.892587547109532
 30
0.0
 10
15.19664600278816
 20
6.079591368241504
 30
0.0
 10
15.11749286554251
 20
6.332771528929197
 30
0.0
 10
14.9706543665559
 20
6.528989374504421
 30
0.0
 10
14.82944265231915
 20
6.585105676515296
 30
0.0
 10
14.75968099999999
 20
6.612828347906119
 30
0.0
 11
15.19413099999996
 21
5.791811347906078
 31
0.0
 11
15.179955
 21
6.092108347906079
 31
0.0
 11
15.09975300000001
 21
6.3365163479061
 31
0.0
 11
14.95727099999998
 21
6.512930347906066
 31
0.0
 11
14.75968099999999
 21
6.612828347906119
 31
0.0
  0
SPLINE
  5
3997
330
1F
100
AcDbEntity
  8
AM_0
100
AcDbSpline
210
0.0
220
0.0
230
1.0
 70
     8
 71
     3
 72
    11
 73
     7
 74
     5
 42
0.0000000001
 43
0.0000000001
 44
0.0000000001
 40
0.0
 40
0.0
 40
0.0
 40
0.0
 40
0.1865178867052557
 40
0.3694665836915501
 40
0.543033500081221
 40
0.7017530071022309
 40
0.7017530071022309
 40
0.7017530071022309
 40
0.7017530071022309
 10
15.27538400000002
 20
7.502197347906106
 30
0.0
 10
15.33555572114828
 20
7.486535546822565
 30
0.0
 10
15.45474772273158
 20
7.455511647490396
 30
0.0
 10
15.63131656148194
 20
7.415561792534306
 30
0.0
 10
15.79965303518092
 20
7.381321734047364
 30
0.0
 10
15.90903077095194
 20
7.363796451771091
 30
0.0
 10
15.96127599999999
 20
7.355425347906108
 30
0.0
 11
15.27538400000002
 21
7.502197347906106
 31
0.0
 11
15.456139
 21
7.456191347906072
 31
0.0
 11
15.63451399999996
 21
7.415539347906107
 31
0.0
 11
15.80472600000001
 21
7.381578347906073
 31
0.0
 11
15.96127599999999
 21
7.355425347906108
 31
0.0
  0
SPLINE
  5
3998
330
1F
100
AcDbEntity
  8
AM_0
100
AcDbSpline
210
0.0
220
0.0
230
1.0
 70
     8
 71
     3
 72
    11
 73
     7
 74
     5
 42
0.0000000001
 43
0.0000000001
 44
0.0000000001
 40
0.0
 40
0.0
 40
0.0
 40
0.0
 40
0.300631414168581
 40
0.5578621107581994
 40
0.7846285538665578
 40
1.006036364261755
 40
1.006036364261755
 40
1.006036364261755
 40
1.006036364261755
 10
16.22553700000002
 20
7.570550347906108
 30
0.0
 10
16.22641771583874
 20
7.671326547109565
 30
0.0
 10
16.22805200278816
 20
7.85833036824152
 30
0.0
 10
16.14889886554249
 20
8.111510528929186
 30
0.0
 10
16.00206036655594
 20
8.307728374504457
 30
0.0
 10
15.86084865231917
 20
8.363844676515296
 30
0.0
 10
15.791087
 20
8.391567347906092
 30
0.0
 11
16.22553700000002
 21
7.570550347906108
 31
0.0
 11
16.211361
 21
7.870847347906109
 31
0.0
 11
16.13115900000002
 21
8.115255347906073
 31
0.0
 11
15.98867699999999
 21
8.291669347906096
 31
0.0
 11
15.791087
 21
8.391567347906092
 31
0.0
  0
SPLINE
  5
3999
330
1F
100
AcDbEntity
  8
AM_0
100
AcDbSpline
210
0.0
220
0.0
230
1.0
 70
     8
 71
     3
 72
    11
 73
     7
 74
     5
 42
0.0000000001
 43
0.0000000001
 44
0.0000000001
 40
0.0
 40
0.0
 40
0.0
 40
0.0
 40
0.2438506856192837
 40
0.5277677900230099
 40
0.8572222725923092
 40
1.228192901235594
 40
1.228192901235594
 40
1.228192901235594
 40
1.228192901235594
 10
5.791086999999997
 20
11.07105934790607
 30
0.0
 10
5.709833499626958
 20
11.08229390954743
 30
0.0
 10
5.533975965273068
 20
11.10660895198531
 30
0.0
 10
5.252825993631483
 20
11.02809991346544
 30
0.0
 10
4.956706249296508
 20
10.88465567145666
 30
0.0
 10
4.77114826256566
 20
10.74176006259215
 30
0.0
 10
4.67287000000001
 20
10.66607734790611
 30
0.0
 11
5.791086999999997
 21
11.07105934790607
 31
0.0
 11
5.547916000000008
 21
11.08925334790607
 31
0.0
 11
5.271329000000002
 21
11.02515534790612
 31
0.0
 11
4.974759999999996
 21
10.88167334790612
 31
0.0
 11
4.67287000000001
 21
10.66607734790611
 31
0.0
  0
SPLINE
  5
399A
330
1F
100
AcDbEntity
  8
AM_0
100
AcDbSpline
210
0.0
220
0.0
230
1.0
 70
     8
 71
     3
 72
    11
 73
     7
 74
     5
 42
0.0000000001
 43
0.0000000001
 44
0.0000000001
 40
0.0
 40
0.0
 40
0.0
 40
0.0
 40
0.1436583174062772
 40
0.3059936108023678
 40
0.4820074552180689
 40
0.6662342136273851
 40
0.6662342136273851
 40
0.6662342136273851
 40
0.6662342136273851
 10
4.642411000000003
 20
10.38830634790608
 30
0.0
 10
4.686960856709994
 20
10.37072792439807
 30
0.0
 10
4.781852484020828
 20
10.33328571166341
 30
0.0
 10
4.934089427158232
 20
10.28176188937162
 30
0.0
 10
5.100392799527409
 20
10.22986884806155
 30
0.0
 10
5.216173726054217
 20
10.19799143278276
 30
0.0
 10
5.275383999999995
 20
10.18168934790609
 30
0.0
 11
4.642411000000003
 21
10.38830634790608
 31
0.0
 11
4.776447000000012
 21
10.33661434790608
 31
0.0
 11
4.929955999999997
 21
10.28381534790609
 31
0.0
 11
5.098050999999991
 21
10.23161434790612
 31
0.0
 11
5.275383999999995
 21
10.18168934790609
 31
0.0
  0
SPLINE
  5
399B
330
1F
100
AcDbEntity
  8
AM_0
100
AcDbSpline
210
0.0
220
0.0
230
1.0
 70
     8
 71
     3
 72
    11
 73
     7
 74
     5
 42
0.0000000001
 43
0.0000000001
 44
0.0000000001
 40
0.0
 40
0.0
 40
0.0
 40
0.0
 40
0.2438506856192837
 40
0.5277677900230228
 40
0.8572213724105972
 40
1.228192814838437
 40
1.228192814838437
 40
1.228192814838437
 40
1.228192814838437
 10
4.759680999999993
 20
9.292320347906101
 30
0.0
 10
4.678427504793064
 20
9.303554899701339
 30
0.0
 10
4.50256998162022
 20
9.327869920829187
 30
0.0
 10
4.221420205463023
 20
9.249361154877065
 30
0.0
 10
3.925300918394845
 20
9.105916106953314
 30
0.0
 10
3.739742643107851
 20
8.963020981772734
 30
0.0
 10
3.641464000000006
 20
8.887338347906082
 30
0.0
 11
4.759680999999993
 21
9.292320347906101
 31
0.0
 11
4.516510000000004
 21
9.310514347906095
 31
0.0
 11
4.239922999999997
 21
9.246416347906093
 31
0.0
 11
3.94335499999999
 21
9.102934347906087
 31
0.0
 11
3.641464000000006
 21
8.887338347906082
 31
0.0
  0
SPLINE
  5
399C
330
1F
100
AcDbEntity
  8
AM_0
100
AcDbSpline
210
0.0
220
0.0
230
1.0
 70
     8
 71
     3
 72
    11
 73
     7
 74
     5
 42
0.0000000001
 43
0.0000000001
 44
0.0000000001
 40
0.0
 40
0.0
 40
0.0
 40
0.0
 40
0.1436583174062772
 40
0.3059936108023678
 40
0.4820074552180857
 40
0.6662342136273866
 40
0.6662342136273866
 40
0.6662342136273866
 40
0.6662342136273866
 10
3.611004999999999
 20
8.609567347906109
 30
0.0
 10
3.655554856709989
 20
8.591988924398098
 30
0.0
 10
3.750446484020821
 20
8.554546711663429
 30
0.0
 10
3.902683427158237
 20
8.50302288937166
 30
0.0
 10
4.068986799527385
 20
8.451129848061488
 30
0.0
 10
4.18476772605421
 20
8.419252432782759
 30
0.0
 10
4.243977999999991
 20
8.402950347906115
 30
0.0
 11
3.611004999999999
 21
8.609567347906109
 31
0.0
 11
3.745041000000008
 21
8.557875347906107
 31
0.0
 11
3.898549999999993
 21
8.505076347906114
 31
0.0
 11
4.066644999999987
 21
8.452875347906089
 31
0.0
 11
4.243977999999991
 21
8.402950347906115
 31
0.0
  0
SPLINE
  5
399D
330
1F
100
AcDbEntity
  8
AM_0
100
AcDbSpline
210
0.0
220
0.0
230
1.0
 70
     8
 71
     3
 72
    11
 73
     7
 74
     5
 42
0.0000000001
 43
0.0000000001
 44
0.0000000001
 40
0.0
 40
0.0
 40
0.0
 40
0.0
 40
0.083315545548215
 40
0.17135963003433
 40
0.2728359785742825
 40
0.3789146020947592
 40
0.3789146020947592
 40
0.3789146020947592
 40
0.3789146020947592
 10
14.92986999999999
 20
5.576686347906078
 30
0.0
 10
14.95801211990176
 20
5.575056333070791
 30
0.0
 10
15.01589355394889
 20
5.571703792590052
 30
0.0
 10
15.1003909405445
 20
5.613466307683596
 30
0.0
 10
15.16983089104927
 20
5.688467401985051
 30
0.0
 10
15.18591210334729
 20
5.756857874531606
 30
0.0
 10
15.19413099999996
 20
5.791811347906078
 30
0.0
 11
14.92986999999999
 21
5.576686347906078
 31
0.0
 11
15.01315899999997
 21
5.578789347906112
 31
0.0
 11
15.09317199999997
 21
5.615527347906069
 31
0.0
 11
15.16093899999998
 21
5.691059347906078
 31
0.0
 11
15.19413099999996
 21
5.791811347906078
 31
0.0
  0
SPLINE
  5
399E
330
1F
100
AcDbEntity
  8
AM_0
100
AcDbSpline
210
0.0
220
0.0
230
1.0
 70
     8
 71
     3
 72
    11
 73
     7
 74
     5
 42
0.0000000001
 43
0.0000000001
 44
0.0000000001
 40
0.0
 40
0.0
 40
0.0
 40
0.0
 40
0.0833145458668914
 40
0.1713595391373887
 40
0.2728358876773412
 40
0.3789145111978179
 40
0.3789145111978179
 40
0.3789145111978179
 40
0.3789145111978179
 10
15.96127599999999
 20
7.355425347906108
 30
0.0
 10
15.98941775879048
 20
7.353795428762457
 30
0.0
 10
16.04729911392095
 20
7.35044304664981
 30
0.0
 10
16.13179677712203
 20
7.392204968889075
 30
0.0
 10
16.20123687710372
 20
7.467206432129261
 30
0.0
 10
16.2173180986306
 20
7.535596884727142
 30
0.0
 10
16.22553700000002
 20
7.570550347906108
 30
0.0
 11
15.96127599999999
 21
7.355425347906108
 31
0.0
 11
16.04456400000003
 21
7.357528347906085
 31
0.0
 11
16.12457800000004
 21
7.394266347906099
 31
0.0
 11
16.19234500000004
 21
7.469798347906108
 31
0.0
 11
16.22553700000002
 21
7.570550347906108
 31
0.0
  0
SPLINE
  5
399F
330
1F
100
AcDbEntity
  8
AM_0
100
AcDbSpline
210
0.0
220
0.0
230
1.0
 70
     8
 71
     3
 72
    11
 73
     7
 74
     5
 42
0.0000000001
 43
0.0000000001
 44
0.0000000001
 40
0.0
 40
0.0
 40
0.0
 40
0.0
 40
0.0701043091756819
 40
0.1441245007047563
 40
0.2398814864655993
 40
0.3398473374198381
 40
0.3398473374198381
 40
0.3398473374198381
 40
0.3398473374198381
 10
4.642411000000003
 20
10.38830634790608
 30
0.0
 10
4.620680371045925
 20
10.39983348559852
 30
0.0
 10
4.5760052849516
 20
10.42353164315849
 30
0.0
 10
4.56333428749682
 20
10.51239077537985
 30
0.0
 10
4.603002828531762
 20
10.59598328989043
 30
0.0
 10
4.649249443851444
 20
10.64238008639907
 30
0.0
 10
4.67287000000001
 20
10.66607734790611
 30
0.0
 11
4.642411000000003
 21
10.38830634790608
 31
0.0
 11
4.585988000000008
 21
10.42991234790608
 31
0.0
 11
4.57093299999999
 21
10.50238534790609
 31
0.0
 11
4.606563999999985
 21
10.5912663479061
 31
0.0
 11
4.67287000000001
 21
10.66607734790611
 31
0.0
  0
SPLINE
  5
39A0
330
1F
100
AcDbEntity
  8
AM_0
100
AcDbSpline
210
0.0
220
0.0
230
1.0
 70
     8
 71
     3
 72
    11
 73
     7
 74
     5
 42
0.0000000001
 43
0.0000000001
 44
0.0000000001
 40
0.0
 40
0.0
 40
0.0
 40
0.0
 40
0.0701043091756819
 40
0.1441245007047506
 40
0.2398824146596386
 40
0.3398475172505012
 40
0.3398475172505012
 40
0.3398475172505012
 40
0.3398475172505012
 10
3.611004999999999
 20
8.609567347906109
 30
0.0
 10
3.589274359712011
 20
8.621094490936038
 30
0.0
 10
3.544599250316778
 20
8.644792659469113
 30
0.0
 10
3.531928404243371
 20
8.733652041141371
 30
0.0
 10
3.571596258005752
 20
8.817244997041122
 30
0.0
 10
3.617843382382223
 20
8.86364145730861
 30
0.0
 10
3.641464000000006
 20
8.887338347906082
 30
0.0
 11
3.611004999999999
 21
8.609567347906109
 31
0.0
 11
3.554582000000004
 21
8.651173347906111
 31
0.0
 11
3.539527000000014
 21
8.723646347906113
 31
0.0
 11
3.575158000000009
 21
8.812528347906069
 31
0.0
 11
3.641464000000006
 21
8.887338347906082
 31
0.0
  0
LINE
  5
39A3
330
1F
100
AcDbEntity
  8
AM_0
100
AcDbLine
 10
1.247592999999988
 20
3.251292347906117
 30
0.0
 11
12.28730322340419
 21
0.2932106263276366
 31
0.0
  0
SPLINE
  5
39A5
330
1F
100
AcDbEntity
  8
AM_0
100
AcDbSpline
210
0.0
220
0.0
230
1.0
 70
     8
 71
     3
 72
    11
 73
     7
 74
     5
 42
0.0000000001
 43
0.0000000001
 44
0.0000000001
 40
0.0
 40
0.0
 40
0.0
 40
0.0
 40
0.2731569580900147
 40
0.5460136248676175
 40
0.8184986569281466
 40
1.090842010577537
 40
1.090842010577537
 40
1.090842010577537
 40
1.090842010577537
 10
1.247592999999988
 20
3.251292347906117
 30
0.0
 10
1.161702099433348
 20
3.285177581955316
 30
0.0
 10
0.990014721270055
 20
3.352910798791745
 30
0.0
 10
0.808360310767571
 20
3.568651146338537
 30
0.0
 10
0.7116379375268287
 20
3.833363730429229
 30
0.0
 10
0.7386069835396119
 20
4.015563268607758
 30
0.0
 10
0.7520880000000075
 20
4.106639347906112
 30
0.0
 11
1.247592999999988
 21
3.251292347906117
 31
0.0
 11
1.002561000000007
 21
3.372015347906115
 31
0.0
 11
0.8224279999999949
 21
3.576961347906065
 31
0.0
 11
0.7344869999999942
 21
3.834865347906118
 31
0.0
 11
0.7520880000000075
 21
4.106639347906112
 31
0.0
  0
LINE
  5
39A9
330
1F
100
AcDbEntity
  8
AM_0
100
AcDbLine
 10
29.26520599999991
 20
12.70999934790618
 30
0.0
 11
30.13650299999994
 21
10.57730234790617
 31
0.0
  0
LINE
  5
39AA
330
1F
100
AcDbEntity
  8
AM_0
100
AcDbLine
 10
26.97791299999994
 20
13.02780034790615
 30
0.0
 11
29.26520599999991
 21
12.70999934790618
 31
0.0
  0
LINE
  5
39AB
330
1F
100
AcDbEntity
  8
AM_0
100
AcDbLine
 10
25.56191799999998
 20
11.21290634790612
 30
0.0
 11
26.97791299999994
 21
13.02780034790615
 31
0.0
  0
LINE
  5
39AC
330
1F
100
AcDbEntity
  8
AM_0
100
AcDbLine
 10
26.43321499999995
 20
9.080209347906108
 30
0.0
 11
25.56191799999998
 21
11.21290634790612
 31
0.0
  0
LINE
  5
39AD
330
1F
100
AcDbEntity
  8
AM_0
100
AcDbLine
 10
28.72050799999999
 20
8.76240834790619
 30
0.0
 11
26.43321499999995
 21
9.080209347906108
 31
0.0
  0
LINE
  5
39AE
330
1F
100
AcDbEntity
  8
AM_0
100
AcDbLine
 10
30.13650299999994
 20
10.57730234790617
 30
0.0
 11
28.72050799999999
 21
8.76240834790619
 31
0.0
  0
LINE
  5
39AF
330
1F
100
AcDbEntity
  8
AM_0
100
AcDbLine
 10
26.97791299999994
 20
13.02780034790615
 30
0.0
 11
26.92139699999995
 21
12.81721034790619
 31
0.0
  0
LINE
  5
39B0
330
1F
100
AcDbEntity
  8
AM_0
100
AcDbLine
 10
25.59896099999997
 20
11.12223334790619
 30
0.0
 11
26.92139699999995
 21
12.81721034790619
 31
0.0
  0
LINE
  5
39B1
330
1F
100
AcDbEntity
  8
AM_0
100
AcDbLine
 10
29.26520599999991
 20
12.70999934790618
 30
0.0
 11
29.20868999999993
 21
12.49940934790615
 31
0.0
  0
LINE
  5
39B2
330
1F
100
AcDbEntity
  8
AM_0
100
AcDbLine
 10
29.20868999999993
 20
12.49940934790615
 30
0.0
 11
30.04294299999992
 21
10.45738534790618
 31
0.0
  0
LINE
  5
39B3
330
1F
100
AcDbEntity
  8
AM_0
100
AcDbLine
 10
26.92139699999995
 20
12.81721034790619
 30
0.0
 11
29.20868999999993
 21
12.49940934790615
 31
0.0
  0
ARC
  5
39B4
330
1F
100
AcDbEntity
  8
AM_0
100
AcDbCircle
 10
27.84409799999997
 20
10.89030134790616
 30
0.0
 40
2.50447360552472
100
AcDbArc
 50
0.1098800949946319
 51
93.59692387315312
  0
ARC
  5
39B5
330
1F
100
AcDbEntity
  8
AM_0
100
AcDbCircle
 10
27.84341899999992
 20
10.90110734790616
 30
0.0
 40
2.49364625556473
100
AcDbArc
 50
93.59693014356175
 51
187.3316865742745
  0
ARC
  5
39B6
330
1F
100
AcDbEntity
  8
AM_0
100
AcDbCircle
 10
27.85488299999997
 20
10.90258234790614
 30
0.0
 40
2.50520450045361
100
AcDbArc
 50
187.3316861940391
 51
273.5802676079362
  0
ARC
  5
39B7
330
1F
100
AcDbEntity
  8
AM_0
100
AcDbCircle
 10
27.85564999999996
 20
10.89032334790616
 30
0.0
 40
2.49292145178323
100
AcDbArc
 50
273.5802683498858
 51
0.1098836367219066
  0
LINE
  5
39B8
330
1F
100
AcDbEntity
  8
AM_7
  6
CENTER
 48
0.5
370
    13
100
AcDbLine
 10
36.59473070613512
 20
10.90258234790614
 30
0.0
 11
19.40148512420318
 21
10.90258234790614
 31
0.0
1001
GENIUS_GENOREF_13
1005
39BA
  0
LINE
  5
39B9
330
1F
100
AcDbEntity
  8
AM_7
  6
CENTER
 48
0.5
370
    13
100
AcDbLine
 10
27.85488299999997
 20
19.50219665440224
 30
0.0
 11
27.85488299999997
 21
2.416122496274711
 31
0.0
1001
GENIUS_GENOREF_13
1005
39BA
  0
POINT
  5
39BA
330
1F
100
AcDbEntity
  8
0
 60
     1
370
    13
100
AcDbPoint
 10
251.1909965705721
 20
258.364946119147
 30
0.0
1001
GENIUS_GENOLIS_13
1002
{
1000
ENT
1005
39B9
1005
39B8
1005
0
1005
0
1002
}
1001
GENIUS_GENOENT_13
1002
{
1000
MYREF
1005
39BA
1002
}
1002
{
1000
GRP
1005
0
1002
}
1001
GENIUS_GENOBJ-N-CRS_13
1002
{
1000
OWNER
1000
GEN
1002
}
1001
GENIUS_GENODEF_13
1002
{
1000
HIER
1070
    10
1002
}
1002
{
1000
MANEDIT
1070
     1
1002
}
1002
{
1000
NOSEL
1070
     0
1002
}
1002
{
1000
BEHIND
1070
     0
1002
}
1002
{
1000
OTHER
1070
     0
1002
}
1002
{
1000
REACTOR
1002
}
  0
DIMENSION
  5
39BB
330
1F
100
AcDbEntity
  8
AM_5
370
    13
100
AcDbDimension
  2
*D5
 10
199.9392724909765
 20
-5.999916652093841
 30
0.0
 11
199.9392724909765
 21
9.083943859042828
 31
0.0
 70
   160
 71
     5
 42
32.0
  3
AM_JIS$0
100
AcDbAlignedDimension
 13
180.0
 23
26.00008334790616
 33
0.0
 14
180.0
 24
-5.999916652093836
 34
0.0
 50
90.0
100
AcDbRotatedDimension
1001
ACAD
1000
DSTYLE
1002
{
1070
   271
1070
     0
1002
}
  0
LINE
  5
39DE
330
1F
100
AcDbEntity
  8
AM_5
370
    13
100
AcDbLine
 10
-0.0000000000000073
 20
0.3343743284742984
 30
0.0
 11
-0.0000000000000073
 21
0.0000835548875968
 31
0.0
  0
LINE
  5
39DF
330
1F
100
AcDbEntity
  8
AM_5
370
    13
100
AcDbLine
 10
0.2961443653147951
 20
-0.0792680855884371
 30
0.0
 11
-0.0000000000000073
 21
0.0000835548875968
 31
0.0
  0
DIMENSION
  5
39E0
330
1F
100
AcDbEntity
  8
AM_5
370
    13
100
AcDbDimension
  2
*D6
 10
180.0
 20
-29.88622046461526
 30
0.0
 11
83.12341791611675
 21
-29.88622046461526
 31
0.0
 70
   160
 71
     5
 42
180.0
  3
AM_JIS$0
100
AcDbAlignedDimension
 13
-0.0000000000000002
 23
-2.499916445112396
 33
0.0
 14
180.0
 24
-5.999916652093836
 34
0.0
100
AcDbRotatedDimension
1001
ACAD
1000
DSTYLE
1002
{
1070
   271
1070
     0
1002
}
  0
DIMENSION
  5
39EF
330
1F
100
AcDbEntity
  8
AM_5
370
    13
100
AcDbDimension
  2
*D7
 10
39.99999999999999
 20
35.40594981078628
 30
0.0
 11
20.0
 21
38.80594981078627
 31
0.0
 70
    32
 71
     5
 42
39.99999999999999
  3
AM_JIS$0
100
AcDbAlignedDimension
 13
-0.0000000000000002
 23
-2.499916445112396
 33
0.0
 14
39.99999999999999
 24
26.00008334790616
 34
0.0
100
AcDbRotatedDimension
1001
ACAD
1000
DSTYLE
1002
{
1070
   271
1070
     0
1002
}
  0
DIMENSION
  5
3A8C
330
1F
100
AcDbEntity
  8
AM_5
370
    13
100
AcDbDimension
  2
*D8
 10
-13.50016832680785
 20
26.00008334790616
 30
0.0
 11
-13.50016832680786
 21
13.1825276356453
 31
0.0
 70
   160
 71
     5
 42
25.99999979301856
  3
AM_JIS$0
100
AcDbAlignedDimension
 13
-0.0000000000000073
 23
0.0000835548875968
 33
0.0
 14
8.423772999999974
 24
26.00008334790616
 34
0.0
 50
90.0
100
AcDbRotatedDimension
1001
ACAD
1000
DSTYLE
1002
{
1070
   271
1070
     0
1002
}
  0
LINE
  5
3C4A
330
1F
100
AcDbEntity
  8
AM_0
100
AcDbLine
 10
-2.961443695097145
 20
-67.30776858569445
 30
0.0
 11
-1.818597864761898
 21
-64.33437075599014
 31
0.0
  0
LINE
  5
3C4B
330
1F
100
AcDbEntity
  8
AM_0
100
AcDbLine
 10
-3.02348567013776
 20
-67.28520428200366
 30
0.0
 11
-2.19593486420527
 21
-64.19713373892822
 31
0.0
  0
LINE
  5
3C4C
330
1F
100
AcDbEntity
  8
AM_0
100
AcDbLine
 10
-3.02348567013776
 20
-67.28520428200366
 30
0.0
 11
-15.87019036840233
 21
-63.84250496197737
 31
0.0
  0
LINE
  5
3C4D
330
1F
100
AcDbEntity
  8
AM_0
100
AcDbLine
 10
-15.87019036840233
 20
-63.84250496197737
 30
0.0
 11
-15.04263956246973
 21
-60.75443441890187
 31
0.0
  0
LINE
  5
3C4E
330
1F
100
AcDbEntity
  8
AM_0
100
AcDbLine
 10
-2.19593486420527
 20
-64.19713373892822
 30
0.0
 11
-15.04263956246973
 21
-60.75443441890187
 31
0.0
  0
LINE
  5
3C4F
330
1F
100
AcDbEntity
  8
AM_0
100
AcDbLine
 10
-15.93520244758066
 20
-63.8310215096262
 30
0.0
 11
-15.43803686897583
 21
-60.68459248208916
 31
0.0
  0
LINE
  5
3C51
330
1F
100
AcDbEntity
  8
AM_0
100
AcDbLine
 10
-15.93520244758066
 20
-63.8310215096262
 30
0.0
 11
-16.23546335186298
 21
-64.95146961250671
 31
0.0
  0
LINE
  5
3C53
330
1F
100
AcDbEntity
  8
AM_0
100
AcDbLine
 10
-16.23546335186298
 20
-64.95146961250671
 30
0.0
 11
-15.73829899800084
 21
-61.80504129208023
 31
0.0
  0
LINE
  5
3C54
330
1F
100
AcDbEntity
  8
AM_0
100
AcDbLine
 10
-15.43803686897583
 20
-60.68459248208916
 30
0.0
 11
-15.73829899800084
 21
-61.80504129208023
 31
0.0
  0
LINE
  5
3C57
330
1F
100
AcDbEntity
  8
AM_0
100
AcDbLine
 10
-0.6308854945488776
 20
-61.78565755046287
 30
0.0
 11
-0.0912178519589446
 21
-59.77184791483208
 31
0.0
  0
LINE
  5
3C58
330
1F
100
AcDbEntity
  8
AM_0
100
AcDbLine
 10
-1.846884300134875
 20
-64.29408199702576
 30
0.0
 11
-0.6308854945488776
 21
-61.78565755046287
 31
0.0
  0
LINE
  5
3C59
330
1F
100
AcDbEntity
  8
AM_0
100
AcDbLine
 10
-1.846884300134875
 20
-64.29408199702576
 30
0.0
 11
-2.032936375701397
 21
-64.24422285628504
 31
0.0
  0
LINE
  5
3C5A
330
1F
100
AcDbEntity
  8
AM_0
100
AcDbLine
 10
-15.20734332086819
 20
-60.713705669505
 30
0.0
 11
-15.39339539643466
 21
-60.66384652876431
 31
0.0
  0
LINE
  5
3C5B
330
1F
100
AcDbEntity
  8
AM_0
100
AcDbLine
 10
-15.39339539643466
 20
-60.66384652876431
 30
0.0
 11
-15.19209415105867
 21
-57.88350074504496
 31
0.0
  0
LINE
  5
3C5C
330
1F
100
AcDbEntity
  8
AM_0
100
AcDbLine
 10
-15.19209415105867
 20
-57.88350074504496
 30
0.0
 11
-14.65242650846869
 21
-55.86969110941416
 31
0.0
  0
LINE
  5
3C5D
330
1F
100
AcDbEntity
  8
AM_0
100
AcDbLine
 10
-0.0912178519589446
 20
-59.77184791483208
 30
0.0
 11
-14.65242650846869
 21
-55.86969110941416
 31
0.0
  0
LINE
  5
3C5E
330
1F
100
AcDbEntity
  8
AM_0
100
AcDbLine
 10
-0.6308854945488776
 20
-61.78565755046287
 30
0.0
 11
0.2861179227417097
 21
-59.90908563900456
 31
0.0
  0
LINE
  5
3C5F
330
1F
100
AcDbEntity
  8
AM_0
100
AcDbLine
 10
-15.19209415105867
 20
-57.88350074504496
 30
0.0
 11
-15.04782478090139
 21
-55.79984891378535
 31
0.0
  0
LINE
  5
3C60
330
1F
100
AcDbEntity
  8
AM_0
100
AcDbLine
 10
-15.39339539643466
 20
-60.66384652876431
 30
0.0
 11
-15.39774447271226
 21
-60.68007383712188
 31
0.0
  0
LINE
  5
3C61
330
1F
100
AcDbEntity
  8
AM_0
100
AcDbLine
 10
-15.69724962888883
 20
-61.65186427012358
 30
0.0
 11
-15.53242720422612
 21
-59.15348265349707
 31
0.0
  0
LINE
  5
3C62
330
1F
100
AcDbEntity
  8
AM_0
100
AcDbLine
 10
-15.53242720422612
 20
-59.15348265349707
 30
0.0
 11
-15.38815783406885
 21
-57.06983082223749
 31
0.0
  0
LINE
  5
3C63
330
1F
100
AcDbEntity
  8
AM_0
100
AcDbLine
 10
-15.04782478090139
 20
-55.79984891378535
 30
0.0
 11
-15.15571414523349
 21
-56.20244833415879
 31
0.0
  0
LINE
  5
3C64
330
1F
100
AcDbEntity
  8
AM_0
100
AcDbLine
 10
-15.15571414523349
 20
-56.20244833415879
 30
0.0
 11
-15.38815783406885
 21
-57.06983082223749
 31
0.0
  0
LINE
  5
3C67
330
1F
100
AcDbEntity
  8
AM_0
100
AcDbLine
 10
-1.851232151669777
 20
-64.31030859827283
 30
0.0
 11
-1.846884300134875
 21
-64.29408199702576
 31
0.0
  0
LINE
  5
3C69
330
1F
100
AcDbEntity
  8
AM_0
100
AcDbLine
 10
17.2882163700013
 20
-64.48934008204057
 30
0.0
 11
15.28232326557694
 21
-64.59545226825273
 31
0.0
  0
LINE
  5
3C6A
330
1F
100
AcDbEntity
  8
AM_0
100
AcDbLine
 10
12.77111844670786
 20
-63.85919424889079
 30
0.0
 11
15.28232326557694
 21
-64.59545226825273
 31
0.0
  0
LINE
  5
3C6C
330
1F
100
AcDbEntity
  8
AM_0
100
AcDbLine
 10
0.2768177295774876
 20
-59.63078495364408
 30
0.0
 11
2.642473306070087
 21
-61.16892408630477
 31
0.0
  0
LINE
  5
3C6D
330
1F
100
AcDbEntity
  8
AM_0
100
AcDbLine
 10
6.851763253166681
 20
-60.88602803908194
 30
0.0
 11
7.5739997239058
 21
-60.84782163888085
 31
0.0
  0
LINE
  5
3C6E
330
1F
100
AcDbEntity
  8
AM_0
100
AcDbLine
 10
3.768734045117014
 20
-61.04912058153121
 30
0.0
 11
4.490970515856077
 21
-61.01091418133009
 31
0.0
  0
LINE
  5
3C6F
330
1F
100
AcDbEntity
  8
AM_0
100
AcDbLine
 10
19.83803358508356
 20
-54.9888013183359
 30
0.0
 11
13.39063042708369
 21
-52.90827506033918
 31
0.0
  0
LINE
  5
3C70
330
1F
100
AcDbEntity
  8
AM_0
100
AcDbLine
 10
13.0874711268722
 20
-52.82878092067924
 30
0.0
 11
-1.941992739051017
 21
-49.76906079913087
 31
0.0
  0
LINE
  5
3C71
330
1F
100
AcDbEntity
  8
AM_0
100
AcDbLine
 10
17.28821727287573
 20
-64.48934003427831
 30
0.0
 11
19.75502738063987
 21
-65.21258175860601
 31
0.0
  0
LINE
  5
3C72
330
1F
100
AcDbEntity
  8
AM_0
100
AcDbLine
 10
19.75502738063987
 20
-65.21258175860601
 30
0.0
 11
19.94475270854599
 21
-65.20254473111163
 31
0.0
  0
LINE
  5
3C73
330
1F
100
AcDbEntity
  8
AM_0
100
AcDbLine
 10
12.70147157070211
 20
-64.1190862012877
 30
0.0
 11
13.15858401308343
 21
-62.41333630178727
 31
0.0
  0
LINE
  5
3C77
330
1F
100
AcDbEntity
  8
AM_0
100
AcDbLine
 10
20.06102054752545
 20
-65.16359351931979
 30
0.0
 11
21.81448955954554
 21
-58.62038217393399
 31
0.0
  0
LINE
  5
3C78
330
1F
100
AcDbEntity
  8
AM_0
100
AcDbLine
 10
6.851763253166681
 20
-60.88602803908194
 30
0.0
 11
6.474751632065605
 21
-62.29287719117551
 31
0.0
  0
LINE
  5
3C79
330
1F
100
AcDbEntity
  8
AM_0
100
AcDbLine
 10
-1.051086402709355
 20
-58.3057862004996
 30
0.0
 11
-0.5117742536571512
 21
-56.29329923040527
 31
0.0
  0
LINE
  5
3C7A
330
1F
100
AcDbEntity
  8
AM_0
100
AcDbLine
 10
4.317014913126897
 20
-61.66004348797239
 30
0.0
 11
4.490970515856077
 21
-61.01091418133009
 31
0.0
  0
LINE
  5
3C7F
330
1F
100
AcDbEntity
  8
AM_0
100
AcDbLine
 10
3.654404089645894
 20
-61.08742325071987
 30
0.0
 11
3.560416905567053
 21
-61.43814397875158
 31
0.0
  0
LINE
  5
3C81
330
1F
100
AcDbEntity
  8
AM_0
100
AcDbLine
 10
15.28232326557694
 20
-64.59545226825273
 30
0.0
 11
15.21261628212072
 21
-64.85556947705433
 31
0.0
  0
LINE
  5
3C83
330
1F
100
AcDbEntity
  8
AM_0
100
AcDbLine
 10
-0.3294776884433333
 20
-59.48512895003304
 30
0.0
 11
0.0784334482472104
 21
-59.82102296158695
 31
0.0
  0
LINE
  5
3C84
330
1F
100
AcDbEntity
  8
AM_0
100
AcDbLine
 10
0.327649242377035
 20
-59.44110389177573
 30
0.0
 11
-1.051086402709355
 21
-58.3057862004996
 31
0.0
  0
LINE
  5
3C85
330
1F
100
AcDbEntity
  8
AM_0
100
AcDbLine
 10
0.220119327699944
 20
-59.84236140036896
 30
0.0
 11
0.327649242377035
 21
-59.44110389177573
 31
0.0
  0
LINE
  5
3C86
330
1F
100
AcDbEntity
  8
AM_0
100
AcDbLine
 10
-15.27521119809491
 20
-55.70721013323481
 30
0.0
 11
-15.36840719390931
 21
-56.05498021272581
 31
0.0
  0
LINE
  5
3C87
330
1F
100
AcDbEntity
  8
AM_0
100
AcDbLine
 10
-15.15571414523349
 20
-56.20244833415879
 30
0.0
 11
-15.34946101939143
 21
-56.0764255010927
 31
0.0
  0
LINE
  5
3C88
330
1F
100
AcDbEntity
  8
AM_0
100
AcDbLine
 10
-13.80812141510374
 20
-53.79574447748891
 30
0.0
 11
-15.04414638867128
 21
-55.26556197774107
 31
0.0
  0
LINE
  5
3C89
330
1F
100
AcDbEntity
  8
AM_0
100
AcDbLine
 10
-12.7597163418066
 20
-53.52167200555365
 30
0.0
 11
-2.908252585492917
 21
-56.16169693797968
 31
0.0
  0
LINE
  5
3C8A
330
1F
100
AcDbEntity
  8
AM_0
100
AcDbLine
 10
-2.031506933664446
 20
-56.75851855271978
 30
0.0
 11
-2.535630439149358
 21
-56.34339874084171
 31
0.0
  0
LINE
  5
3C8B
330
1F
100
AcDbEntity
  8
AM_0
100
AcDbLine
 10
-1.576996328402032
 20
-57.13278472597747
 30
0.0
 11
-1.848156469402767
 21
-56.90949798329569
 31
0.0
  0
LINE
  5
3C8C
330
1F
100
AcDbEntity
  8
AM_0
100
AcDbLine
 10
-1.122485723139619
 20
-57.50705089923523
 30
0.0
 11
-1.393645864140353
 21
-57.28376415655342
 31
0.0
  0
LINE
  5
3C8D
330
1F
100
AcDbEntity
  8
AM_0
100
AcDbLine
 10
-0.8886411809116055
 20
-57.69960976164143
 30
0.0
 11
-0.9391352588779398
 21
-57.65803032981114
 31
0.0
  0
LINE
  5
3C8E
330
1F
100
AcDbEntity
  8
AM_0
100
AcDbLine
 10
-1.703065369837034
 20
-57.1692795307539
 30
0.0
 11
-1.678268360529202
 21
-57.17592482340254
 31
0.0
  0
LINE
  5
3C8F
330
1F
100
AcDbEntity
  8
AM_0
100
AcDbLine
 10
-1.248554764574635
 20
-57.54354570401162
 30
0.0
 11
-1.223757755266732
 21
-57.55019099666032
 31
0.0
  0
LINE
  5
3CAE
330
1F
100
AcDbEntity
  8
AM_0
100
AcDbLine
 10
-15.66445812093883
 20
-63.89763772053965
 30
0.0
 11
-21.87852045494951
 21
-87.08908816952393
 31
0.0
  0
LINE
  5
3CB3
330
1F
100
AcDbEntity
  8
AM_0
100
AcDbLine
 10
1.811222797625608
 20
-93.43665812539834
 30
0.0
 11
-1.538469652621856
 21
-63.65786850903064
 31
0.0
  0
LINE
  5
3CB5
330
1F
100
AcDbEntity
  8
AM_0
100
AcDbLine
 10
23.246020796321
 20
-66.05121407238852
 30
0.0
 11
22.93440061596112
 21
-67.12025975758277
 31
0.0
  0
LINE
  5
3CB6
330
1F
100
AcDbEntity
  8
AM_0
100
AcDbLine
 10
23.246020796321
 20
-66.05121407238852
 30
0.0
 11
38.05267875849554
 21
-70.01859760312351
 31
0.0
  0
LINE
  5
3CB8
330
1F
100
AcDbEntity
  8
AM_0
100
AcDbLine
 10
0.0430304090338893
 20
-60.40654419984418
 30
0.0
 11
22.93440061596112
 21
-67.12025975758277
 31
0.0
  0
LINE
  5
3CBF
330
1F
100
AcDbEntity
  8
AM_0
100
AcDbLine
 10
-18.51398164028504
 20
-74.53202328277894
 30
0.0
 11
-18.51390726393545
 21
-74.53204321161806
 31
0.0
  0
LINE
  5
3CC1
330
1F
100
AcDbEntity
  8
AM_0
100
AcDbLine
 10
23.246020796321
 20
-66.05121407238852
 30
0.0
 11
20.03984124042777
 21
-65.19213135438926
 31
0.0
  0
ARC
  5
3CC6
330
1F
100
AcDbEntity
  8
AM_0
100
AcDbCircle
 10
18.91673662397936
 20
-57.84383344060581
 30
0.0
 40
3.00000000180267
100
AcDbArc
 50
344.9981888963116
 51
72.11550776124889
  0
ARC
  5
3CC7
330
1F
100
AcDbEntity
  8
AM_0
100
AcDbCircle
 10
-2.992877838778831
 20
-67.17098835845749
 30
0.0
 40
0.118246000067657
100
AcDbArc
 50
254.9982369608182
 51
277.0569454936877
  0
ARC
  5
3CC8
330
1F
100
AcDbEntity
  8
AM_0
100
AcDbCircle
 10
-2.976442344797235
 20
-67.30374872348631
 30
0.0
 40
0.0155280000321997
100
AcDbArc
 50
344.9964853136153
 51
97.0592028789588
  0
ARC
  5
3CC9
330
1F
100
AcDbEntity
  8
AM_0
100
AcDbCircle
 10
-3.412767090217088
 20
-68.73783917025534
 30
0.0
 40
4.700924674619031
100
AcDbArc
 50
73.56451168208629
 51
74.99818847417656
  0
ARC
  5
3CCA
330
1F
100
AcDbEntity
  8
AM_0
100
AcDbCircle
 10
-2.952523080154187
 20
-67.17763116218359
 30
0.0
 40
3.07424832832808
100
AcDbArc
 50
71.37238100500349
 51
73.56450358025045
  0
ARC
  5
3CCB
330
1F
100
AcDbEntity
  8
AM_0
100
AcDbCircle
 10
-1.86817798864233
 20
-63.96069523303873
 30
0.0
 40
0.320524278152217
100
AcDbArc
 50
251.3723922665645
 51
271.3764500200385
  0
ARC
  5
3CCC
330
1F
100
AcDbEntity
  8
AM_0
100
AcDbCircle
 10
-1.85946209742486
 20
-64.32342031646184
 30
0.0
 40
0.0423060000118186
100
AcDbArc
 50
344.9988208319487
 51
91.37679885917738
  0
ARC
  5
3CCD
330
1F
100
AcDbEntity
  8
AM_0
100
AcDbCircle
 10
-15.92020257313787
 20
-63.83504066472383
 30
0.0
 40
0.0155278171357075
100
AcDbArc
 50
52.93976164384694
 51
165.00017515
  0
ARC
  5
3CCE
330
1F
100
AcDbEntity
  8
AM_0
100
AcDbCircle
 10
-15.83958279585951
 20
-63.7282900043578
 30
0.0
 40
0.118245319095515
100
AcDbArc
 50
232.9392662286045
 51
254.9982369444262
  0
ARC
  5
3CCF
330
1F
100
AcDbEntity
  8
AM_0
100
AcDbCircle
 10
-15.34681263788944
 20
-60.70903874807601
 30
0.0
 40
0.0944439493562199
100
AcDbArc
 50
52.93887027272017
 51
164.9983551385803
  0
ARC
  5
3CD0
330
1F
100
AcDbEntity
  8
AM_0
100
AcDbCircle
 10
-14.85648549216762
 20
-60.05978606900393
 30
0.0
 40
0.7191589950323921
100
AcDbArc
 50
232.9392997771229
 51
254.9981833867221
  0
ARC
  5
3CD1
330
1F
100
AcDbEntity
  8
AM_0
100
AcDbCircle
 10
-16.22046373623621
 20
-64.95548973353095
 30
0.0
 40
0.0155290000321951
100
AcDbArc
 50
164.9964855512232
 51
277.0557832291932
  0
ARC
  5
3CE5
330
1F
100
AcDbEntity
  8
AM_0
100
AcDbCircle
 10
-1.286638689482501
 20
-64.23265557058946
 30
0.0
 40
4.61820625313552
100
AcDbArc
 50
73.87135868451114
 51
74.99819011019608
  0
ARC
  5
3CE6
330
1F
100
AcDbEntity
  8
AM_0
100
AcDbCircle
 10
-1.023434737809076
 20
-63.32246988377358
 30
0.0
 40
3.6707288678268
100
AcDbArc
 50
72.45367732306276
 51
73.87134950156828
  0
ARC
  5
3CE7
330
1F
100
AcDbEntity
  8
AM_0
100
AcDbCircle
 10
0.2060345511794068
 20
-59.43405590384239
 30
0.0
 40
0.407427334661042
100
AcDbArc
 50
252.4536848958261
 51
273.4240507952287
  0
ARC
  5
3CE8
330
1F
100
AcDbEntity
  8
AM_0
100
AcDbCircle
 10
0.2336145331541601
 20
-59.8950154996372
 30
0.0
 40
0.054356000036793
100
AcDbArc
 50
344.9980669823811
 51
93.4237909470817
  0
ARC
  5
3CE9
330
1F
100
AcDbEntity
  8
AM_0
100
AcDbCircle
 10
-14.95659958388839
 20
-55.82429543858828
 30
0.0
 40
0.0944439493562185
100
AcDbArc
 50
52.93887027272228
 51
164.9983551578513
  0
ARC
  5
3CEA
330
1F
100
AcDbEntity
  8
AM_0
100
AcDbCircle
 10
-14.46627243816652
 20
-55.1750427595162
 30
0.0
 40
0.71915899503239
100
AcDbArc
 50
232.9392997771229
 51
254.9981833867221
  0
ARC
  5
3CEB
330
1F
100
AcDbEntity
  8
AM_0
100
AcDbCircle
 10
3.547670824011505
 20
-56.87022992255623
 30
0.0
 40
4.18473350712384
100
AcDbArc
 50
272.0666665189859
 51
273.0281229011555
  0
ARC
  5
3CEC
330
1F
100
AcDbEntity
  8
AM_0
100
AcDbCircle
 10
3.700295970352933
 20
-61.09972082800869
 30
0.0
 40
0.0475103131961875
100
AcDbArc
 50
92.06743838983445
 51
164.9989692023343
  0
ARC
  5
3CED
330
1F
100
AcDbEntity
  8
AM_0
100
AcDbCircle
 10
13.80329189518596
 20
-61.23946221575724
 30
0.0
 40
1.72731806101048
100
AcDbArc
 50
244.3598622826984
 51
255.1870905034198
  0
ARC
  5
3CEE
330
1F
100
AcDbEntity
  8
AM_0
100
AcDbCircle
 10
13.31996748422708
 20
-63.06710712447563
 30
0.0
 40
0.163155000110324
100
AcDbArc
 50
344.9980681065318
 51
75.18735132613823
  0
ARC
  5
3CEF
330
1F
100
AcDbEntity
  8
AM_0
100
AcDbCircle
 10
3.404484561192241
 20
-60.40992644722959
 30
0.0
 40
0.071495000062942
100
AcDbArc
 50
164.9977709631553
 51
231.440226012489
  0
ARC
  5
3CF0
330
1F
100
AcDbEntity
  8
AM_0
100
AcDbCircle
 10
4.705494350270506
 20
-58.777825517623
 30
0.0
 40
2.15868889204953
100
AcDbArc
 50
231.4403140024639
 51
233.9254058253202
  0
ARC
  5
3CF1
330
1F
100
AcDbEntity
  8
AM_0
100
AcDbCircle
 10
4.757314299133668
 20
-58.70669675681688
 30
0.0
 40
2.24669186380019
100
AcDbArc
 50
233.9254004756596
 51
248.7796349477918
  0
ARC
  5
3CF2
330
1F
100
AcDbEntity
  8
AM_0
100
AcDbCircle
 10
30.85601732101495
 20
8.508895498674747
 30
0.0
 40
74.3513254007013
100
AcDbArc
 50
248.7796321068954
 51
249.2310137116323
  0
ARC
  5
3CF3
330
1F
100
AcDbEntity
  8
AM_0
100
AcDbCircle
 10
20.01435135470747
 20
-65.15108662915
 30
0.0
 40
0.0483156676865769
100
AcDbArc
 50
272.0669833168377
 51
344.9978034396178
  0
ARC
  5
3CF4
330
1F
100
AcDbEntity
  8
AM_0
100
AcDbCircle
 10
20.16956287466919
 20
-69.45226454877167
 30
0.0
 40
4.2556618081114
100
AcDbArc
 50
92.06666469550966
 51
93.02812403224199
  0
ARC
  5
3CF7
330
1F
100
AcDbEntity
  8
AM_0
100
AcDbCircle
 10
7.842945345019299
 20
-65.93185738842388
 30
0.0
 40
5.09114511413415
100
AcDbArc
 50
72.44518669446464
 51
93.02812565724241
  0
ARC
  5
3CF8
330
1F
100
AcDbEntity
  8
AM_0
100
AcDbCircle
 10
37.30834536357646
 20
27.20967394578383
 30
0.0
 40
92.5999735074416
100
AcDbArc
 50
252.4451901571144
 51
253.5891315942257
  0
ARC
  5
3CF9
330
1F
100
AcDbEntity
  8
AM_0
100
AcDbCircle
 10
2.243991787342239
 20
-91.8453939512996
 30
0.0
 40
31.5113399679915
100
AcDbArc
 50
72.17554025888636
 51
73.58913073818127
  0
ARC
  5
3CFA
330
1F
100
AcDbEntity
  8
AM_0
100
AcDbCircle
 10
8.25458071814295
 20
-73.15202063118434
 30
0.0
 40
11.8754184494072
100
AcDbArc
 50
68.42573531337395
 51
72.17553686833955
  0
ARC
  5
3CFB
330
1F
100
AcDbEntity
  8
AM_0
100
AcDbCircle
 10
13.13294039423108
 20
-60.81450161468291
 30
0.0
 40
1.39156193845118
100
AcDbArc
 50
248.4257549522136
 51
264.9249616053534
  0
ARC
  5
3CFC
330
1F
100
AcDbEntity
  8
AM_0
100
AcDbCircle
 10
12.99484748134448
 20
-62.36945755515407
 30
0.0
 40
0.169514000106186
100
AcDbArc
 50
344.9981471483195
 51
84.92509721684324
  0
ARC
  5
3D07
330
1F
100
AcDbEntity
  8
AM_0
100
AcDbCircle
 10
3.404905705197493
 20
-60.41003929104588
 30
0.0
 40
0.0719318711698782
100
AcDbArc
 50
98.29728883767749
 51
164.9977855358075
  0
ARC
  5
3D08
330
1F
100
AcDbEntity
  8
AM_0
100
AcDbCircle
 10
3.727355311369195
 20
-62.6210314185962
 30
0.0
 40
2.30631325300554
100
AcDbArc
 50
95.94561364623974
 51
98.297475285669
  0
ARC
  5
3D09
330
1F
100
AcDbEntity
  8
AM_0
100
AcDbCircle
 10
3.627558308871841
 20
-61.66278567460122
 30
0.0
 40
1.3428846909951
100
AcDbArc
 50
87.43098454904575
 51
95.94557715251024
  0
ARC
  5
3D0A
330
1F
100
AcDbEntity
  8
AM_0
100
AcDbCircle
 10
3.448655728203555
 20
-65.65012183810177
 30
0.0
 40
5.33423256488822
100
AcDbArc
 50
85.28373884458492
 51
87.43099120504832
  0
ARC
  5
3D0B
330
1F
100
AcDbEntity
  8
AM_0
100
AcDbCircle
 10
2.925488347946683
 20
-71.99150611322753
 30
0.0
 40
11.6971602785316
100
AcDbArc
 50
77.89565940199697
 51
85.28374504871141
  0
ARC
  5
3D0C
330
1F
100
AcDbEntity
  8
AM_0
100
AcDbCircle
 10
-10.27812490503114
 20
-133.5581047938936
 30
0.0
 40
74.6636712743862
100
AcDbArc
 50
76.73664026365259
 51
77.89565973551611
  0
ARC
  5
3D0D
330
1F
100
AcDbEntity
  8
AM_0
100
AcDbCircle
 10
13.31996748422708
 20
-63.06710712447563
 30
0.0
 40
0.163154906919776
100
AcDbArc
 50
254.8091360792414
 51
344.9980681065318
  0
ARC
  5
3D0E
330
1F
100
AcDbEntity
  8
AM_0
100
AcDbCircle
 10
12.82460112494416
 20
-64.89152440704444
 30
0.0
 40
1.72731758715327
100
AcDbArc
 50
74.80927926403169
 51
85.6365125932021
  0
SPLINE
  5
3D25
330
1F
100
AcDbEntity
  8
AM_0
100
AcDbSpline
210
0.0
220
0.0
230
1.0
 70
     8
 71
     3
 72
    11
 73
     7
 74
     5
 42
0.0000000001
 43
0.0000000001
 44
0.0000000001
 40
0.0
 40
0.0
 40
0.0
 40
0.0
 40
0.0042683760377839
 40
0.0102693370441174
 40
0.018706444901705
 40
0.0298083842818649
 40
0.0298083842818649
 40
0.0298083842818649
 40
0.0298083842818649
 10
-15.36840719390931
 20
-56.05498021272581
 30
0.0
 10
-15.36839990657313
 20
-56.05643783948447
 30
0.0
 10
-15.36838237388373
 20
-56.05994476116543
 30
0.0
 10
-15.36417545471038
 20
-56.06501486946744
 30
0.0
 10
-15.35797826282472
 20
-56.07069625891332
 30
0.0
 10
-15.3525470140254
 20
-56.0743496639089
 30
0.0
 10
-15.34946101939143
 20
-56.0764255010927
 30
0.0
 11
-15.36840719390931
 21
-56.05498021272581
 31
0.0
 11
-15.36798937649205
 21
-56.05922809014939
 31
0.0
 11
-15.364679038615
 21
-56.0642334069365
 31
0.0
 11
-15.358496187386
 21
-56.06997423785899
 31
0.0
 11
-15.34946101939143
 21
-56.0764255010927
 31
0.0
  0
SPLINE
  5
3D26
330
1F
100
AcDbEntity
  8
AM_0
100
AcDbSpline
210
0.0
220
0.0
230
1.0
 70
     8
 71
     3
 72
    11
 73
     7
 74
     5
 42
0.0000000001
 43
0.0000000001
 44
0.0000000001
 40
0.0
 40
0.0
 40
0.0
 40
0.0
 40
0.1031364247295739
 40
0.1810314117955204
 40
0.2303227196904939
 40
0.2510842046566894
 40
0.2510842046566894
 40
0.2510842046566894
 40
0.2510842046566894
 10
-15.12110379234454
 20
-56.07329847799588
 30
0.0
 10
-15.15504386199842
 20
-56.06685660709011
 30
0.0
 10
-15.21461756490688
 20
-56.05554943808814
 30
0.0
 10
-15.28982375431901
 20
-56.04898860202017
 30
0.0
 10
-15.34115637559121
 20
-56.04081069050617
 30
0.0
 10
-15.36217725442883
 20
-56.051740850705
 30
0.0
 10
-15.36840719390931
 20
-56.05498021272581
 30
0.0
 11
-15.12110379234454
 21
-56.07329847799588
 31
0.0
 11
-15.22277392670414
 21
-56.05596914202184
 31
0.0
 11
-15.30013866298309
 21
-56.04689574186025
 31
0.0
 11
-15.349428842965
 21
-56.04656228819323
 31
0.0
 11
-15.36840719390931
 21
-56.05498021272581
 31
0.0
  0
SPLINE
  5
3D27
330
1F
100
AcDbEntity
  8
AM_0
100
AcDbSpline
210
0.0
220
0.0
230
1.0
 70
     8
 71
     3
 72
    11
 73
     7
 74
     5
 42
0.0000000001
 43
0.0000000001
 44
0.0000000001
 40
0.0
 40
0.0
 40
0.0
 40
0.0
 40
0.2489854136812323
 40
0.4974786802801529
 40
0.7483686238510431
 40
1.003628813549674
 40
1.003628813549674
 40
1.003628813549674
 40
1.003628813549674
 10
-12.90377721936532
 20
-53.48550437878603
 30
0.0
 10
-12.98644481166953
 20
-53.4731129855162
 30
0.0
 10
-13.15161659468041
 20
-53.44835469192957
 30
0.0
 10
-13.39999801672236
 20
-53.50063429269705
 30
0.0
 10
-13.62951654193133
 20
-53.61305751011274
 30
0.0
 10
-13.74824474620153
 20
-53.73449930055708
 30
0.0
 10
-13.80812141510374
 20
-53.79574447748891
 30
0.0
 11
-12.90377721936532
 21
-53.48550437878603
 31
0.0
 11
-13.15176496129955
 21
-53.46323745092477
 31
0.0
 11
-13.39577059397567
 21
-53.51024973407851
 31
0.0
 11
-13.61953544262333
 21
-53.6237180393214
 31
0.0
 11
-13.80812141510374
 21
-53.79574447748891
 31
0.0
  0
SPLINE
  5
3D28
330
1F
100
AcDbEntity
  8
AM_0
100
AcDbSpline
210
0.0
220
0.0
230
1.0
 70
     8
 71
     3
 72
    11
 73
     7
 74
     5
 42
0.0000000001
 43
0.0000000001
 44
0.0000000001
 40
0.0
 40
0.0
 40
0.0
 40
0.0
 40
0.0735475125071703
 40
0.1472392899725419
 40
0.2210300017186004
 40
0.2948769023306319
 40
0.2948769023306319
 40
0.2948769023306319
 40
0.2948769023306319
 10
-2.031506933664446
 20
-56.75851855271978
 30
0.0
 10
-2.012870193589274
 20
-56.77446151913262
 30
0.0
 10
-1.97556015709003
 20
-56.80637872441476
 30
0.0
 10
-1.923719449917414
 20
-56.85882590109149
 30
0.0
 10
-1.874784777377021
 20
-56.91412651425402
 30
0.0
 10
-1.845329126548209
 20
-56.95357460313846
 30
0.0
 10
-1.83059569592389
 20
-56.97330615428356
 30
0.0
 11
-2.031506933664446
 21
-56.75851855271978
 31
0.0
 11
-1.976289432295317
 21
-56.80710110245261
 31
0.0
 11
-1.924237794607052
 21
-56.859265315089
 31
0.0
 11
-1.875593141159598
 21
-56.91475195159697
 31
0.0
 11
-1.83059569592389
 21
-56.97330615428356
 31
0.0
  0
SPLINE
  5
3D29
330
1F
100
AcDbEntity
  8
AM_0
100
AcDbSpline
210
0.0
220
0.0
230
1.0
 70
     8
 71
     3
 72
    11
 73
     7
 74
     5
 42
0.0000000001
 43
0.0000000001
 44
0.0000000001
 40
0.0
 40
0.0
 40
0.0
 40
0.0
 40
0.0255393480144352
 40
0.0515739668900807
 40
0.0781112473272252
 40
0.1051580077616707
 40
0.1051580077616707
 40
0.1051580077616707
 40
0.1051580077616707
 10
-1.848156469402767
 20
-56.90949798329569
 30
0.0
 10
-1.85478949378597
 20
-56.90415990770203
 30
0.0
 10
-1.868184173232254
 20
-56.89338023808131
 30
0.0
 10
-1.889237187970899
 20
-56.87804667928496
 30
0.0
 10
-1.911165212884458
 20
-56.86308471776013
 30
0.0
 10
-1.926348367080051
 20
-56.85367351274829
 30
0.0
 10
-1.934012125308954
 20
-56.84892316911586
 30
0.0
 11
-1.848156469402767
 21
-56.90949798329569
 31
0.0
 11
-1.868179587191719
 21
-56.89364449626564
 31
0.0
 11
-1.889177609108728
 21
-56.87825344511333
 31
0.0
 11
-1.911129233965397
 21
-56.86334192543384
 31
0.0
 11
-1.934012125308954
 21
-56.84892316911586
 31
0.0
  0
SPLINE
  5
3D2A
330
1F
100
AcDbEntity
  8
AM_0
100
AcDbSpline
210
0.0
220
0.0
230
1.0
 70
     8
 71
     3
 72
    11
 73
     7
 74
     5
 42
0.0000000001
 43
0.0000000001
 44
0.0000000001
 40
0.0
 40
0.0
 40
0.0
 40
0.0
 40
0.0735475125071891
 40
0.1472392899725406
 40
0.2210300017186204
 40
0.2948769023306744
 40
0.2948769023306744
 40
0.2948769023306744
 40
0.2948769023306744
 10
-1.576996328402032
 20
-57.13278472597747
 30
0.0
 10
-1.558359588326863
 20
-57.14872769239032
 30
0.0
 10
-1.521049551827635
 20
-57.18064489767248
 30
0.0
 10
-1.469208844654981
 20
-57.23309207434917
 30
0.0
 10
-1.42027417211461
 20
-57.28839268751176
 30
0.0
 10
-1.390818521285796
 20
-57.32784077639619
 30
0.0
 10
-1.376085090661476
 20
-57.34757232754132
 30
0.0
 11
-1.576996328402032
 21
-57.13278472597747
 31
0.0
 11
-1.521778827032904
 21
-57.18136727571033
 31
0.0
 11
-1.469727189344638
 21
-57.2335314883467
 31
0.0
 11
-1.421082535897185
 21
-57.28901812485469
 31
0.0
 11
-1.376085090661476
 21
-57.34757232754132
 31
0.0
  0
SPLINE
  5
3D2B
330
1F
100
AcDbEntity
  8
AM_0
100
AcDbSpline
210
0.0
220
0.0
230
1.0
 70
     8
 71
     3
 72
    11
 73
     7
 74
     5
 42
0.0000000001
 43
0.0000000001
 44
0.0000000001
 40
0.0
 40
0.0
 40
0.0
 40
0.0
 40
0.025540662657828
 40
0.051573987186239
 40
0.0781115963098857
 40
0.1051580607923145
 40
0.1051580607923145
 40
0.1051580607923145
 40
0.1051580607923145
 10
-1.393645864140353
 20
-57.28376415655342
 30
0.0
 10
-1.400279036692911
 20
-57.27842555422748
 30
0.0
 10
-1.413673331148496
 20
-57.26764537159718
 30
0.0
 10
-1.434727392045903
 20
-57.25231306708699
 30
0.0
 10
-1.45665381919792
 20
-57.23734950514049
 30
0.0
 10
-1.47183755619169
 20
-57.22793918465938
 30
0.0
 10
-1.47950152004654
 20
-57.22318934237356
 30
0.0
 11
-1.393645864140353
 21
-57.28376415655342
 31
0.0
 11
-1.413669689039821
 21
-57.26790944478069
 31
0.0
 11
-1.434667003846315
 21
-57.25251961837105
 31
0.0
 11
-1.456618369886897
 21
-57.23760713276496
 31
0.0
 11
-1.47950152004654
 21
-57.22318934237356
 31
0.0
  0
SPLINE
  5
3D2C
330
1F
100
AcDbEntity
  8
AM_0
100
AcDbSpline
210
0.0
220
0.0
230
1.0
 70
     8
 71
     3
 72
    11
 73
     7
 74
     5
 42
0.0000000001
 43
0.0000000001
 44
0.0000000001
 40
0.0
 40
0.0
 40
0.0
 40
0.0
 40
0.0735475125071972
 40
0.1472387890397652
 40
0.2210300564973878
 40
0.2948769571093483
 40
0.2948769571093483
 40
0.2948769571093483
 40
0.2948769571093483
 10
-1.122485723139619
 20
-57.50705089923523
 30
0.0
 10
-1.103849069558632
 20
-57.52299394968
 30
0.0
 10
-1.066539333151849
 20
-57.55491121460256
 30
0.0
 10
-1.014697297736472
 20
-57.60735712467766
 30
0.0
 10
-0.9657639487695877
 20
-57.66265895643915
 30
0.0
 10
-0.9363080063946069
 20
-57.70210703105877
 30
0.0
 10
-0.9215744853990628
 20
-57.72183850079901
 30
0.0
 11
-1.122485723139619
 21
-57.50705089923523
 31
0.0
 11
-1.067268221770505
 21
-57.55563344896811
 31
0.0
 11
-1.015216325266138
 21
-57.60779669567782
 31
0.0
 11
-0.9665719306347285
 21
-57.66328429811247
 31
0.0
 11
-0.9215744853990628
 21
-57.72183850079901
 31
0.0
  0
SPLINE
  5
3D2D
330
1F
100
AcDbEntity
  8
AM_0
100
AcDbSpline
210
0.0
220
0.0
230
1.0
 70
     8
 71
     3
 72
    11
 73
     7
 74
     5
 42
0.0000000001
 43
0.0000000001
 44
0.0000000001
 40
0.0
 40
0.0
 40
0.0
 40
0.0
 40
0.0255406626578457
 40
0.0515739871862345
 40
0.0781115963098854
 40
0.1051590160019349
 40
0.1051590160019349
 40
0.1051590160019349
 40
0.1051590160019349
 10
-0.9391352588779398
 20
-57.65803032981114
 30
0.0
 10
-0.9457684306109168
 20
-57.65269172618272
 30
0.0
 10
-0.9591627234115207
 20
-57.64191154092232
 30
0.0
 10
-0.9802167969866753
 20
-57.62657925655962
 30
0.0
 10
-1.00214343761511
 20
-57.61161543628585
 30
0.0
 10
-1.017327578793159
 20
-57.60220515991435
 30
0.0
 10
-1.024991880710743
 20
-57.59745525681524
 30
0.0
 11
-0.9391352588779398
 21
-57.65803032981114
 31
0.0
 11
-0.9591590837774078
 21
-57.64217561803838
 31
0.0
 11
-0.9801563985839152
 21
-57.62678579162881
 31
0.0
 11
-1.002107764624483
 21
-57.61187330602269
 31
0.0
 11
-1.024991880710743
 21
-57.59745525681524
 31
0.0
  0
SPLINE
  5
3D2E
330
1F
100
AcDbEntity
  8
AM_0
100
AcDbSpline
210
0.0
220
0.0
230
1.0
 70
     8
 71
     3
 72
    11
 73
     7
 74
     5
 42
0.0000000001
 43
0.0000000001
 44
0.0000000001
 40
0.0
 40
0.0
 40
0.0
 40
0.0
 40
0.0964157295984144
 40
0.1981711034712645
 40
0.3052531532461897
 40
0.417468437788895
 40
0.417468437788895
 40
0.417468437788895
 40
0.417468437788895
 10
-2.535630439149358
 20
-56.34339874084171
 30
0.0
 10
-2.561254103630851
 20
-56.32392961525293
 30
0.0
 10
-2.61392050865029
 20
-56.28391313539412
 30
0.0
 10
-2.703702031583045
 20
-56.2353600414405
 30
0.0
 10
-2.802146386167387
 20
-56.19291115281156
 30
0.0
 10
-2.872336192958623
 20
-56.17226278615517
 30
0.0
 10
-2.908252585492917
 20
-56.16169693797968
 30
0.0
 11
-2.535630439149358
 21
-56.34339874084171
 31
0.0
 11
-2.61383173404208
 21
-56.28700237224322
 31
0.0
 11
-2.702755505770682
 21
-56.23753805244033
 31
0.0
 11
-2.801274971741563
 21
-56.19557997563965
 31
0.0
 11
-2.908252585492917
 21
-56.16169693797968
 31
0.0
  0
SPLINE
  5
3D2F
330
1F
100
AcDbEntity
  8
AM_0
100
AcDbSpline
210
0.0
220
0.0
230
1.0
 70
     8
 71
     3
 72
    11
 73
     7
 74
     5
 42
0.0000000001
 43
0.0000000001
 44
0.0000000001
 40
0.0
 40
0.0
 40
0.0
 40
0.0
 40
0.0754339064678145
 40
0.1532221590320691
 40
0.2350144370661741
 40
0.3221064144807793
 40
0.3221064144807793
 40
0.3221064144807793
 40
0.3221064144807793
 10
-1.678268360529202
 20
-57.17592482340254
 30
0.0
 10
-1.684413626941531
 20
-57.15145334721296
 30
0.0
 10
-1.696895957919923
 20
-57.1017466225842
 30
0.0
 10
-1.734385483759005
 20
-57.03221590397684
 30
0.0
 10
-1.784233430350783
 20
-56.96631184257741
 30
0.0
 10
-1.826407638227644
 20
-56.92882802536269
 30
0.0
 10
-1.848156469402767
 20
-56.90949798329569
 30
0.0
 11
-1.678268360529202
 21
-57.17592482340254
 31
0.0
 11
-1.699602902686735
 21
-57.10357075263991
 31
0.0
 11
-1.735360613958406
 21
-57.03448820548354
 31
0.0
 11
-1.785049655037668
 21
-56.96951916714502
 31
0.0
 11
-1.848156469402767
 21
-56.90949798329569
 31
0.0
  0
SPLINE
  5
3D30
330
1F
100
AcDbEntity
  8
AM_0
100
AcDbSpline
210
0.0
220
0.0
230
1.0
 70
     8
 71
     3
 72
    11
 73
     7
 74
     5
 42
0.0000000001
 43
0.0000000001
 44
0.0000000001
 40
0.0
 40
0.0
 40
0.0
 40
0.0
 40
0.0754339064678618
 40
0.1532221590321352
 40
0.2350144370661831
 40
0.322106414480849
 40
0.322106414480849
 40
0.322106414480849
 40
0.322106414480849
 10
-1.223757755266732
 20
-57.55019099666032
 30
0.0
 10
-1.229903021679091
 20
-57.52571952047074
 30
0.0
 10
-1.242385352657541
 20
-57.47601279584197
 30
0.0
 10
-1.279874878496573
 20
-57.40648207723459
 30
0.0
 10
-1.329722825088332
 20
-57.34057801583513
 30
0.0
 10
-1.371897032965208
 20
-57.30309419862043
 30
0.0
 10
-1.393645864140353
 20
-57.28376415655342
 30
0.0
 11
-1.223757755266732
 21
-57.55019099666032
 31
0.0
 11
-1.245092297424336
 21
-57.47783692589766
 31
0.0
 11
-1.280850008695992
 21
-57.40875437874126
 31
0.0
 11
-1.330539049775197
 21
-57.34378534040278
 31
0.0
 11
-1.393645864140353
 21
-57.28376415655342
 31
0.0
  0
SPLINE
  5
3D31
330
1F
100
AcDbEntity
  8
AM_0
100
AcDbSpline
210
0.0
220
0.0
230
1.0
 70
     8
 71
     3
 72
    11
 73
     7
 74
     5
 42
0.0000000001
 43
0.0000000001
 44
0.0000000001
 40
0.0
 40
0.0
 40
0.0
 40
0.0
 40
0.0164785485404665
 40
0.0331674150687583
 40
0.0500699688698719
 40
0.0671912698718576
 40
0.0671912698718576
 40
0.0671912698718576
 40
0.0671912698718576
 10
-0.8896740465983015
 20
-57.70346065224922
 30
0.0
 10
-0.893534695727506
 20
-57.69955278616025
 30
0.0
 10
-0.9013052679832305
 20
-57.69168717734841
 30
0.0
 10
-0.9134664109922777
 20
-57.68025204468678
 30
0.0
 10
-0.9260550444986386
 20
-57.6689663000999
 30
0.0
 10
-0.9347565394462893
 20
-57.66169124424409
 30
0.0
 10
-0.9391352588779398
 20
-57.65803032981114
 30
0.0
 11
-0.8896740465983015
 21
-57.70346065224922
 31
0.0
 11
-0.9013263995717438
 21
-57.69180881839429
 31
0.0
 11
-0.9134588791534242
 21
-57.68034927192861
 31
0.0
 11
-0.9260638272681661
 21
-57.66908820590339
 31
0.0
 11
-0.9391352588779398
 21
-57.65803032981114
 31
0.0
  0
SPLINE
  5
3D32
330
1F
100
AcDbEntity
  8
AM_0
100
AcDbSpline
210
0.0
220
0.0
230
1.0
 70
     8
 71
     3
 72
    11
 73
     7
 74
     5
 42
0.0000000001
 43
0.0000000001
 44
0.0000000001
 40
0.0
 40
0.0
 40
0.0
 40
0.0
 40
0.0775890781103089
 40
0.1550804087350597
 40
0.2325334824506593
 40
0.3100058901840398
 40
0.3100058901840398
 40
0.3100058901840398
 40
0.3100058901840398
 10
13.38724719804002
 20
-52.90718529420013
 30
0.0
 10
13.36255970190577
 20
-52.89947045366851
 30
0.0
 10
13.31321581118831
 20
-52.88405049183745
 30
0.0
 10
13.23845136461836
 20
-52.86355122692245
 30
0.0
 10
13.16326209122421
 20
-52.84482965738042
 30
0.0
 10
13.11273688343067
 20
-52.83413094463036
 30
0.0
 10
13.0874711268722
 20
-52.82878092067924
 30
0.0
 11
13.38724719804002
 21
-52.90718529420013
 31
0.0
 11
13.31305510894207
 21
-52.88447848999323
 31
0.0
 11
13.2383619697517
 21
-52.86384256791831
 31
0.0
 11
13.16316707335825
 21
-52.84527630323279
 31
0.0
 11
13.0874711268722
 21
-52.82878092067924
 31
0.0
  0
SPLINE
  5
3D33
330
1F
100
AcDbEntity
  8
AM_0
100
AcDbSpline
210
0.0
220
0.0
230
1.0
 70
     8
 71
     3
 72
    11
 73
     7
 74
     0
 42
0.0000000001
 43
0.0000000001
 40
0.0
 40
0.0
 40
0.0
 40
0.0
 40
0.5176971446125729
 40
1.039930386891343
 40
1.566024725414371
 40
2.068704225319422
 40
2.068704225319422
 40
2.068704225319422
 40
2.068704225319422
 10
-0.5117742536571512
 20
-56.29329923040527
 30
0.0
 10
-0.6839722366099466
 20
-56.30485755093466
 30
0.0
 10
-1.029877012978815
 20
-56.32807546678581
 30
0.0
 10
-1.55189482278027
 20
-56.3396493944577
 30
0.0
 10
-2.069008583877618
 20
-56.33608589161437
 30
0.0
 10
-2.411555471715786
 20
-56.31937131215628
 30
0.0
 10
-2.578925382662632
 20
-56.31103396204438
 30
0.0
  0
SPLINE
  5
3D34
330
1F
100
AcDbEntity
  8
AM_0
100
AcDbSpline
210
0.0
220
0.0
230
1.0
 70
     8
 71
     3
 72
    11
 73
     7
 74
     0
 42
0.0000000001
 43
0.0000000001
 40
0.0
 40
0.0
 40
0.0
 40
0.0
 40
0.2619867489492616
 40
0.5238288996908815
 40
0.7857084746408929
 40
1.033282752667554
 40
1.033282752667554
 40
1.033282752667554
 40
1.033282752667554
 10
-12.36286961792807
 20
-52.64778193316076
 30
0.0
 10
-12.41831791243909
 20
-52.71525657431602
 30
0.0
 10
-12.52918389791331
 20
-52.85016861538361
 30
0.0
 10
-12.68853311370194
 20
-53.0580667798414
 30
0.0
 10
-12.84029573769531
 20
-53.26564272506843
 30
0.0
 10
-12.93595762248601
 20
-53.40596365841878
 30
0.0
 10
-12.98238555164418
 20
-53.47419609781224
 30
0.0
  0
SPLINE
  5
3D35
330
1F
100
AcDbEntity
  8
AM_0
100
AcDbSpline
210
0.0
220
0.0
230
1.0
 70
     8
 71
     3
 72
    11
 73
     7
 74
     5
 42
0.0000000001
 43
0.0000000001
 44
0.0000000001
 40
0.0
 40
0.0
 40
0.0
 40
0.0
 40
0.4329941367940239
 40
0.8996711447663207
 40
1.391148915548511
 40
1.898398566810102
 40
1.898398566810102
 40
1.898398566810102
 40
1.898398566810102
 10
-10.96462391513805
 20
-51.37164512442814
 30
0.0
 10
-11.08259925404116
 20
-51.45490983196113
 30
0.0
 10
-11.32772730355941
 20
-51.62791645810046
 30
0.0
 10
-11.68065741094427
 20
-51.92951070396275
 30
0.0
 10
-12.03319630406002
 20
-52.26833244421857
 30
0.0
 10
-12.25164147243544
 20
-52.51976105691091
 30
0.0
 10
-12.36258889716065
 20
-52.64746064069161
 30
0.0
 11
-10.96462391513805
 21
-51.37164512442814
 31
0.0
 11
-11.31463900484846
 21
-51.62654384838143
 31
0.0
 11
-11.67138283244172
 21
-51.92741137943801
 31
0.0
 11
-12.02411715923523
 21
-52.26965236744874
 31
0.0
 11
-12.36258889716065
 21
-52.64746064069161
 31
0.0
  0
LINE
  5
3D36
330
1F
100
AcDbEntity
  8
AM_0
100
AcDbLine
 10
-3.215619912390665
 20
-49.59013601856398
 30
0.0
 11
-3.412712387316091
 21
-49.56601026846647
 31
0.0
  0
SPLINE
  5
3D37
330
1F
100
AcDbEntity
  8
AM_0
100
AcDbSpline
210
0.0
220
0.0
230
1.0
 70
     8
 71
     3
 72
    11
 73
     7
 74
     5
 42
0.0000000001
 43
0.0000000001
 44
0.0000000001
 40
0.0
 40
0.0
 40
0.0
 40
0.0
 40
2.153889097468565
 40
4.185875789365205
 40
6.086932037119343
 40
7.870848022334433
 40
7.870848022334433
 40
7.870848022334433
 40
7.870848022334433
 10
-3.457153953134821
 20
-49.56105420626136
 30
0.0
 10
-4.176389050489558
 20
-49.52152945489567
 30
0.0
 10
-5.574153115694804
 20
-49.44471691147518
 30
0.0
 10
-7.584482210158028
 20
-49.80993757850523
 30
0.0
 10
-9.399766936520329
 20
-50.42719449346328
 30
0.0
 10
-10.45410301707416
 20
-51.06352447316544
 30
0.0
 10
-10.96451310132423
 20
-51.37157543010511
 30
0.0
 11
-3.457153953134821
 21
-49.56105420626136
 31
0.0
 11
-5.6108092192447
 21
-49.52931717818476
 31
0.0
 11
-7.614346350688223
 21
-49.86815176758216
 31
0.0
 11
-9.406158344203348
 21
-50.50330894263445
 31
0.0
 11
-10.96451310132423
 21
-51.37157543010511
 31
0.0
  0
LINE
  5
3D38
330
1F
100
AcDbEntity
  8
AM_0
100
AcDbLine
 10
-2.913343638801493
 20
-49.62437771284269
 30
0.0
 11
-3.21592487265265
 21
-49.59009571672053
 31
0.0
  0
SPLINE
  5
3D39
330
1F
100
AcDbEntity
  8
AM_0
100
AcDbSpline
210
0.0
220
0.0
230
1.0
 70
     8
 71
     3
 72
    11
 73
     7
 74
     5
 42
0.0000000001
 43
0.0000000001
 44
0.0000000001
 40
0.0
 40
0.0
 40
0.0
 40
0.0
 40
0.2445840251222695
 40
0.4894285603931324
 40
0.734605389463487
 40
0.9800762119189667
 40
0.9800762119189667
 40
0.9800762119189667
 40
0.9800762119189667
 10
-1.941992739051017
 20
-49.76906079913087
 30
0.0
 10
-2.022008307278118
 20
-49.75340190129033
 30
0.0
 10
-2.182124669525618
 20
-49.72206742708008
 30
0.0
 10
-2.423930697270283
 20
-49.68322666921826
 30
0.0
 10
-2.666844814987091
 20
-49.64981844520045
 30
0.0
 10
-2.82953921155806
 20
-49.63301477893198
 30
0.0
 10
-2.910935152639155
 20
-49.62460791146535
 30
0.0
 11
-1.941992739051017
 21
-49.76906079913087
 31
0.0
 11
-2.182285719633129
 21
-49.72344688866514
 31
0.0
 11
-2.423957079817654
 21
-49.68415566676296
 31
0.0
 11
-2.666909053002968
 21
-49.65120090628201
 31
0.0
 11
-2.910935152639155
 21
-49.62460791146535
 31
0.0
  0
SPLINE
  5
3D3A
330
1F
100
AcDbEntity
  8
AM_0
100
AcDbSpline
210
0.0
220
0.0
230
1.0
 70
     8
 71
     3
 72
    11
 73
     7
 74
     5
 42
0.0000000001
 43
0.0000000001
 44
0.0000000001
 40
0.0
 40
0.0
 40
0.0
 40
0.0
 40
0.3572981370928002
 40
0.6949944191703834
 40
1.019200196313565
 40
1.336882072977927
 40
1.336882072977927
 40
1.336882072977927
 40
1.336882072977927
 10
-2.496430243277516
 20
-59.1216011352586
 30
0.0
 10
-2.382327102286375
 20
-59.08679094815362
 30
0.0
 10
-2.160380671655932
 20
-59.01908030749626
 30
0.0
 10
-1.822210390194889
 20
-58.97532103792852
 30
0.0
 10
-1.493831861654782
 20
-58.97575782344008
 30
0.0
 10
-1.283856199975529
 20
-59.01936294661225
 30
0.0
 10
-1.179935425272319
 20
-59.04094391530569
 30
0.0
 11
-2.496430243277516
 21
-59.1216011352586
 31
0.0
 11
-2.151833959984543
 21
-59.0271799495498
 31
0.0
 11
-1.817144534613448
 21
-58.98221588085281
 31
0.0
 11
-1.492971333659057
 21
-58.98681171766435
 31
0.0
 11
-1.179935425272319
 21
-59.04094391530569
 31
0.0
  0
SPLINE
  5
3D3B
330
1F
100
AcDbEntity
  8
AM_0
100
AcDbSpline
210
0.0
220
0.0
230
1.0
 70
     8
 71
     3
 72
    11
 73
     7
 74
     5
 42
0.0000000001
 43
0.0000000001
 44
0.0000000001
 40
0.0
 40
0.0
 40
0.0
 40
0.0
 40
0.12396832442602
 40
0.2475421224780738
 40
0.3714940902397843
 40
0.4951953467127832
 40
0.4951953467127832
 40
0.4951953467127832
 40
0.4951953467127832
 10
-15.04862607168764
 20
-55.27092116947796
 30
0.0
 10
-15.07408382129284
 20
-55.30352800991226
 30
0.0
 10
-15.12491830179392
 20
-55.36863792025249
 30
0.0
 10
-15.18717178169712
 20
-55.47603299396132
 30
0.0
 10
-15.23934727048995
 20
-55.5885882177456
 30
0.0
 10
-15.26326462645712
 20
-55.66769618967532
 30
0.0
 10
-15.27521119809491
 20
-55.70721013323481
 30
0.0
 11
-15.04862607168764
 21
-55.27092116947796
 31
0.0
 11
-15.1226537690392
 21
-55.37035982134844
 31
0.0
 11
-15.18544103232384
 21
-55.47679404110053
 31
0.0
 11
-15.23665449469974
 21
-55.58967128231183
 31
0.0
 11
-15.27521119809491
 21
-55.70721013323481
 31
0.0
  0
SPLINE
  5
3D3C
330
1F
100
AcDbEntity
  8
AM_0
100
AcDbSpline
210
0.0
220
0.0
230
1.0
 70
     8
 71
     3
 72
    11
 73
     7
 74
     5
 42
0.0000000001
 43
0.0000000001
 44
0.0000000001
 40
0.0
 40
0.0
 40
0.0
 40
0.0
 40
0.2337166285311898
 40
0.4707648588663027
 40
0.7141861004065604
 40
0.9667929119734789
 40
0.9667929119734789
 40
0.9667929119734789
 40
0.9667929119734789
 10
-1.179935425272319
 20
-59.04094391530569
 30
0.0
 10
-1.105085467659639
 20
-59.06289555392496
 30
0.0
 10
-0.9543185754914172
 20
-59.10711174907304
 30
0.0
 10
-0.7377088198887134
 20
-59.20758593347959
 30
0.0
 10
-0.5264993019150941
 20
-59.3315717555779
 30
0.0
 10
-0.3959573622300162
 20
-59.43331518191344
 30
0.0
 10
-0.3294776884433333
 20
-59.48512895003304
 30
0.0
 11
-1.179935425272319
 21
-59.04094391530569
 31
0.0
 11
-0.9573538482701878
 21
-59.1122243756804
 31
0.0
 11
-0.7414172919473714
 21
-59.21001633418646
 31
0.0
 11
-0.5321249798556806
 21
-59.33431689304408
 31
0.0
 11
-0.3294776884433333
 21
-59.48512895003304
 31
0.0
  0
SPLINE
  5
3D3E
330
1F
100
AcDbEntity
  8
AM_0
100
AcDbSpline
210
0.0
220
0.0
230
1.0
 70
     8
 71
     3
 72
    11
 73
     7
 74
     5
 42
0.0000000001
 43
0.0000000001
 44
0.0000000001
 40
0.0
 40
0.0
 40
0.0
 40
0.0
 40
0.0871661160084671
 40
0.167382812437578
 40
0.2311626221347383
 40
0.2643069093196583
 40
0.2643069093196583
 40
0.2643069093196583
 40
0.2643069093196583
 10
-1.83059569592389
 20
-56.97330615428356
 30
0.0
 10
-1.814147710255976
 20
-56.99727836917803
 30
0.0
 10
-1.782563073632255
 20
-57.04331158636307
 30
0.0
 10
-1.741444898092253
 20
-57.10827550890041
 30
0.0
 10
-1.712870373225194
 20
-57.16061596381451
 30
0.0
 10
-1.689930841379991
 20
-57.18352310404001
 30
0.0
 10
-1.682086409955574
 20
-57.19135645878504
 30
0.0
 11
-1.83059569592389
 21
-56.97330615428356
 31
0.0
 11
-1.781742953223429
 21
-57.04549577480233
 31
0.0
 11
-1.739261450290073
 21
-57.11354017423773
 31
0.0
 11
-1.704765506511507
 21
-57.16718618049944
 31
0.0
 11
-1.682086409955574
 21
-57.19135645878504
 31
0.0
  0
SPLINE
  5
3D3F
330
1F
100
AcDbEntity
  8
AM_0
100
AcDbSpline
210
0.0
220
0.0
230
1.0
 70
     8
 71
     3
 72
    11
 73
     7
 74
     5
 42
0.0000000001
 43
0.0000000001
 44
0.0000000001
 40
0.0
 40
0.0
 40
0.0
 40
0.0
 40
0.0871661160084671
 40
0.167382812437578
 40
0.2311626221346905
 40
0.2643069093196312
 40
0.2643069093196312
 40
0.2643069093196312
 40
0.2643069093196312
 10
-1.376085090661476
 20
-57.34757232754132
 30
0.0
 10
-1.35963710499356
 20
-57.37154454243579
 30
0.0
 10
-1.328052468369836
 20
-57.41757775962082
 30
0.0
 10
-1.286934292829864
 20
-57.48254168215814
 30
0.0
 10
-1.258359767962755
 20
-57.53488213707223
 30
0.0
 10
-1.235420236117576
 20
-57.55778927729772
 30
0.0
 10
-1.22757580469316
 20
-57.56562263204276
 30
0.0
 11
-1.376085090661476
 21
-57.34757232754132
 31
0.0
 11
-1.327232347961015
 21
-57.41976194806009
 31
0.0
 11
-1.284750845027659
 21
-57.48780634749548
 31
0.0
 11
-1.250254901249093
 21
-57.54145235375714
 31
0.0
 11
-1.22757580469316
 21
-57.56562263204276
 31
0.0
  0
SPLINE
  5
3D40
330
1F
100
AcDbEntity
  8
AM_0
100
AcDbSpline
210
0.0
220
0.0
230
1.0
 70
     8
 71
     3
 72
    11
 73
     7
 74
     5
 42
0.0000000001
 43
0.0000000001
 44
0.0000000001
 40
0.0
 40
0.0
 40
0.0
 40
0.0
 40
0.0085436344140217
 40
0.0170629527553215
 40
0.0255582199670852
 40
0.0340297032492578
 40
0.0340297032492578
 40
0.0340297032492578
 40
0.0340297032492578
 10
-0.9215744853990628
 20
-57.72183850079901
 30
0.0
 10
-0.9199181439351484
 20
-57.7241551773368
 30
0.0
 10
-0.9166101751275099
 20
-57.72878193690986
 30
0.0
 10
-0.9117048393498461
 20
-57.73574749070786
 30
0.0
 10
-0.9068467024798833
 20
-57.74271675025916
 30
0.0
 10
-0.9036461969739932
 20
-57.74737964423439
 30
0.0
 10
-0.90204818744958
 20
-57.74970782300801
 30
0.0
 11
-0.9215744853990628
 21
-57.72183850079901
 31
0.0
 11
-0.9166137625984021
 21
-57.72879442764562
 31
0.0
 11
-0.9117058053399063
 21
-57.73575795696266
 31
0.0
 11
-0.9068506136236465
 21
-57.74272908875008
 31
0.0
 11
-0.90204818744958
 21
-57.74970782300801
 31
0.0
  0
SPLINE
  5
3D41
330
1F
100
AcDbEntity
  8
AM_0
100
AcDbSpline
210
0.0
220
0.0
230
1.0
 70
     8
 71
     3
 72
    11
 73
     7
 74
     5
 42
0.0000000001
 43
0.0000000001
 44
0.0000000001
 40
0.0
 40
0.0
 40
0.0
 40
0.0
 40
0.0027613389867686
 40
0.0059079951485101
 40
0.0109784559756818
 40
0.0184205017293824
 40
0.0184205017293824
 40
0.0184205017293824
 40
0.0184205017293824
 10
-1.682086409955574
 20
-57.19135645878504
 30
0.0
 10
-1.681080300265242
 20
-57.19142402564243
 30
0.0
 10
-1.67892768836289
 20
-57.1915685876349
 30
0.0
 10
-1.677244667940341
 20
-57.18763568323245
 30
0.0
 10
-1.677236642293426
 20
-57.18255655983894
 30
0.0
 10
-1.677883581447877
 20
-57.17839812799785
 30
0.0
 10
-1.678268360529202
 20
-57.17592482340254
 30
0.0
 11
-1.682086409955574
 21
-57.19135645878504
 31
0.0
 11
-1.679340471498776
 21
-57.19106522865039
 31
0.0
 11
-1.677723699332475
 21
-57.18836569299356
 31
0.0
 11
-1.677345146360821
 21
-57.18330938301023
 31
0.0
 11
-1.678268360529202
 21
-57.17592482340254
 31
0.0
  0
SPLINE
  5
3D42
330
1F
100
AcDbEntity
  8
AM_0
100
AcDbSpline
210
0.0
220
0.0
230
1.0
 70
     8
 71
     3
 72
    11
 73
     7
 74
     5
 42
0.0000000001
 43
0.0000000001
 44
0.0000000001
 40
0.0
 40
0.0
 40
0.0
 40
0.0
 40
0.0027613389868332
 40
0.0059079951485553
 40
0.010978455975727
 40
0.0184205017293906
 40
0.0184205017293906
 40
0.0184205017293906
 40
0.0184205017293906
 10
-1.22757580469316
 20
-57.56562263204276
 30
0.0
 10
-1.226569695002794
 20
-57.5656901989002
 30
0.0
 10
-1.224417083100402
 20
-57.56583476089272
 30
0.0
 10
-1.222734062677984
 20
-57.56190185649018
 30
0.0
 10
-1.222726037031019
 20
-57.55682273309671
 30
0.0
 10
-1.22337297618543
 20
-57.55266430125562
 30
0.0
 10
-1.223757755266732
 20
-57.55019099666032
 30
0.0
 11
-1.22757580469316
 21
-57.56562263204276
 31
0.0
 11
-1.224829866236291
 21
-57.56533140190817
 31
0.0
 11
-1.223213094070076
 21
-57.56263186625131
 31
0.0
 11
-1.222834541098422
 21
-57.55757555626798
 31
0.0
 11
-1.223757755266732
 21
-57.55019099666032
 31
0.0
  0
LINE
  5
3D45
330
1F
100
AcDbEntity
  8
AM_0
100
AcDbLine
 10
-16.21855622174275
 20
-64.97090113289823
 30
0.0
 11
-15.96988818269423
 21
-65.03753071840373
 31
0.0
  0
LINE
  5
3D7C
330
1F
100
AcDbEntity
  8
AM_0
100
AcDbLine
 10
-12.90377721936532
 20
-53.48550437878603
 30
0.0
 11
-12.7597163418066
 21
-53.52167200555365
 31
0.0
  0
LINE
  5
3D8A
330
1F
100
AcDbEntity
  8
AM_0
100
AcDbLine
 10
16.9823801727021
 20
-64.50551888411465
 30
0.0
 11
16.74899628562686
 21
-65.30616731361658
 31
0.0
  0
LINE
  5
3EDA
330
1F
100
AcDbEntity
  8
AM_0
100
AcDbLine
 10
-3.77655811313894
 20
-58.78423926779749
 30
0.0
 11
-3.668205223804549
 21
-58.37991335046078
 31
0.0
  0
LINE
  5
3EDB
330
1F
100
AcDbEntity
  8
AM_0
100
AcDbLine
 10
-2.76763259815111
 20
-56.96896526443149
 30
0.0
 11
-3.360843417867883
 21
-57.67438168156747
 31
0.0
  0
SPLINE
  5
3EDC
330
1F
100
AcDbEntity
  8
AM_0
100
AcDbSpline
210
0.0
220
0.0
230
1.0
 70
     8
 71
     3
 72
    11
 73
     7
 74
     5
 42
0.0000000001
 43
0.0000000001
 44
0.0000000001
 40
0.0
 40
0.0
 40
0.0
 40
0.0
 40
0.1450609460882006
 40
0.3282191958341464
 40
0.541558757315368
 40
0.7740739528811771
 40
0.7740739528811771
 40
0.7740739528811771
 40
0.7740739528811771
 10
-3.360843417867883
 20
-57.67438168156747
 30
0.0
 10
-3.389189519794124
 20
-57.71366645395948
 30
0.0
 10
-3.453326250114404
 20
-57.8025533442683
 30
0.0
 10
-3.529909180819286
 20
-57.96691653064649
 30
0.0
 10
-3.605863597524879
 20
-58.16239260699447
 30
0.0
 10
-3.646837273513593
 20
-58.30535686691976
 30
0.0
 10
-3.668205223804549
 20
-58.37991335046078
 30
0.0
 11
-3.360843417867883
 21
-57.67438168156747
 31
0.0
 11
-3.442419938767401
 21
-57.79433145988296
 31
0.0
 11
-3.523893150078337
 21
-57.95837127300368
 31
0.0
 11
-3.600602775071664
 21
-58.15744262183716
 31
0.0
 11
-3.668205223804549
 21
-58.37991335046078
 31
0.0
  0
SPLINE
  5
3EDD
330
1F
100
AcDbEntity
  8
AM_0
100
AcDbSpline
210
0.0
220
0.0
230
1.0
 70
     8
 71
     3
 72
    11
 73
     7
 74
     5
 42
0.0000000001
 43
0.0000000001
 44
0.0000000001
 40
0.0
 40
0.0
 40
0.0
 40
0.0
 40
0.236921092957121
 40
0.4476613616197652
 40
0.6526792904089485
 40
0.875626972379369
 40
0.875626972379369
 40
0.875626972379369
 40
0.875626972379369
 10
-2.76763259815111
 20
-56.96896526443149
 30
0.0
 10
-2.721050314008348
 20
-56.90410874225721
 30
0.0
 10
-2.63303329329301
 20
-56.7815626292705
 30
0.0
 10
-2.595815527958382
 20
-56.55927874908532
 30
0.0
 10
-2.656616945518843
 20
-56.34563323114393
 30
0.0
 10
-2.759784810559
 20
-56.24411493362935
 30
0.0
 10
-2.813529868073587
 20
-56.1912292144514
 30
0.0
 11
-2.76763259815111
 21
-56.96896526443149
 31
0.0
 11
-2.645388999151393
 21
-56.76601673206037
 31
0.0
 11
-2.611749185783154
 21
-56.55797869757495
 31
0.0
 11
-2.669236756614041
 21
-56.36118558203233
 31
0.0
 11
-2.813529868073587
 21
-56.1912292144514
 31
0.0
  0
ARC
  5
3EEB
330
1F
100
AcDbEntity
  8
AM_0
100
AcDbCircle
 10
7.613544866127253
 20
-64.64037553312789
 30
0.0
 40
14.3221770343969
100
AcDbArc
 50
75.03747175573523
 51
83.80722620283017
  0
ARC
  5
3EEC
330
1F
100
AcDbEntity
  8
AM_0
100
AcDbCircle
 10
7.710126775693805
 20
-64.27898364138366
 30
0.0
 40
13.9481021839088
100
AcDbArc
 50
66.03348254562293
 51
75.03747382449953
  0
SPLINE
  5
3EED
330
1F
100
AcDbEntity
  8
AM_0
100
AcDbSpline
210
0.0
220
0.0
230
1.0
 70
     8
 71
     3
 72
    11
 73
     7
 74
     5
 42
0.0000000001
 43
0.0000000001
 44
0.0000000001
 40
0.0
 40
0.0
 40
0.0
 40
0.0
 40
0.8438360820781188
 40
1.75769113973224
 40
2.686375566909211
 40
3.618092080589212
 40
3.618092080589212
 40
3.618092080589212
 40
3.618092080589212
 10
9.181907573096876
 20
-50.40425423364681
 30
0.0
 10
8.900573698744337
 20
-50.38427657417898
 30
0.0
 10
8.314561712816694
 20
-50.34266356925424
 30
0.0
 10
7.423321694711506
 20
-50.48444943842695
 30
0.0
 10
6.543611475382678
 20
-50.79991643964122
 30
0.0
 10
6.036115513821317
 20
-51.16078483792825
 30
0.0
 10
5.781953973892822
 20
-51.34151310921931
 30
0.0
 11
9.181907573096876
 21
-50.40425423364681
 31
0.0
 11
8.33856859968915
 21
-50.37529375456663
 31
0.0
 11
7.434888574815826
 21
-50.51128448603376
 31
0.0
 11
6.565114051431717
 21
-50.83677956088584
 31
0.0
 11
5.781953973892822
 21
-51.34151310921931
 31
0.0
  0
SPLINE
  5
3EEE
330
1F
100
AcDbEntity
  8
AM_0
100
AcDbSpline
210
0.0
220
0.0
230
1.0
 70
     8
 71
     3
 72
    11
 73
     7
 74
     5
 42
0.0000000001
 43
0.0000000001
 44
0.0000000001
 40
0.0
 40
0.0
 40
0.0
 40
0.0
 40
0.8184705918852629
 40
1.633282588636648
 40
2.432234910229111
 40
3.170987087258752
 40
3.170987087258752
 40
3.170987087258752
 40
3.170987087258752
 10
15.64864775810471
 20
-53.6409135907405
 30
0.0
 10
15.51262387066582
 20
-53.4034112388283
 30
0.0
 10
15.24118412781462
 20
-52.92946817968311
 30
0.0
 10
14.67805975384273
 20
-52.33707692042778
 30
0.0
 10
14.0496570537914
 20
-51.86045108548036
 30
0.0
 10
13.58748427034817
 20
-51.63641784439294
 30
0.0
 10
13.36544476260238
 20
-51.52878660267604
 30
0.0
 11
15.64864775810471
 21
-53.6409135907405
 31
0.0
 11
15.21377974764482
 21
-52.94752775063438
 31
0.0
 11
14.65974416409511
 21
-52.35006380844982
 31
0.0
 11
14.01969461888575
 21
-51.87187828811773
 31
0.0
 11
13.36544476260238
 21
-51.52878660267604
 31
0.0
  0
LINE
  5
3EEF
330
1F
100
AcDbEntity
  8
AM_7
  6
CENTER
 48
0.5
370
    13
100
AcDbLine
 10
12.04395444844766
 20
-48.10366718500026
 30
0.0
 11
-1.012275958646843
 21
-96.8307782433495
 31
0.0
  0
DIMENSION
  5
3FB8
330
1F
100
AcDbEntity
  8
AM_5
100
AcDbDimension
  2
*D9
 10
-29.07382490741818
 20
-52.03232508975168
 30
0.0
 11
-33.08979814571149
 21
-67.02032452666003
 31
0.0
 70
   160
 71
     5
 42
31.99999999999923
  3
AM_JIS$0
100
AcDbAlignedDimension
 13
-21.87852045494952
 23
-87.08908816952393
 33
0.0
 14
-15.04508100469752
 24
-55.79126972524855
 34
0.0
 50
75.00017515000003
100
AcDbRotatedDimension
1001
ACAD
1000
DSTYLE
1002
{
1070
   271
1070
     0
1002
}
  0
LINE
  5
41B8
330
1F
100
AcDbEntity
  8
AM_0
100
AcDbLine
 10
-64.86088116364302
 20
31.70711358143083
 30
0.0
 11
-61.72914827211471
 21
31.15510124155988
 31
0.0
  0
LINE
  5
41B9
330
1F
100
AcDbEntity
  8
AM_0
100
AcDbLine
 10
-64.84946730864574
 20
31.77188447272547
 30
0.0
 11
-61.65972592316818
 21
31.54903228888004
 31
0.0
  0
LINE
  5
41BA
330
1F
100
AcDbEntity
  8
AM_0
100
AcDbLine
 10
-67.1695991347834
 20
18.60902838344164
 30
0.0
 11
-64.03786501851026
 21
18.05701675067754
 31
0.0
  0
LINE
  5
41BB
330
1F
100
AcDbEntity
  8
AM_0
100
AcDbLine
 10
-67.1695991347834
 20
18.60902838344164
 30
0.0
 11
-64.86088116364302
 21
31.70711358143083
 31
0.0
  0
LINE
  5
41BC
330
1F
100
AcDbEntity
  8
AM_0
100
AcDbLine
 10
-64.03786501851026
 20
18.05701675067754
 30
0.0
 11
-61.72914827211471
 21
31.15510124155988
 31
0.0
  0
LINE
  5
41BD
330
1F
100
AcDbEntity
  8
AM_0
100
AcDbLine
 10
-67.18101781940986
 20
18.54425878624202
 30
0.0
 11
-64.1073134474544
 21
17.66309269147044
 31
0.0
  0
LINE
  5
41BE
330
1F
100
AcDbEntity
  8
AM_0
100
AcDbLine
 10
-64.84946730864574
 20
31.77188447272547
 30
0.0
 11
-64.84991163453111
 21
31.77200352946642
 31
0.0
  0
LINE
  5
41BF
330
1F
100
AcDbEntity
  8
AM_0
100
AcDbLine
 10
-67.18146311122109
 20
18.544378101802
 30
0.0
 11
-67.18101781940986
 21
18.54425878624202
 31
0.0
  0
LINE
  5
41C0
330
1F
100
AcDbEntity
  8
AM_0
100
AcDbLine
 10
-67.13271198078266
 20
18.82096898550204
 30
0.0
 11
-67.17004829029798
 21
18.60914873427762
 31
0.0
  0
LINE
  5
41C1
330
1F
100
AcDbEntity
  8
AM_0
100
AcDbLine
 10
-61.65972592316818
 20
31.54903228888004
 30
0.0
 11
-61.66017121497941
 21
31.54915160444002
 31
0.0
  0
LINE
  5
41C2
330
1F
100
AcDbEntity
  8
AM_0
100
AcDbLine
 10
-67.18146311122109
 20
18.544378101802
 30
0.0
 11
-64.14288712864213
 21
17.67328306456249
 31
0.0
  0
LINE
  5
41C3
330
1F
100
AcDbEntity
  8
AM_0
100
AcDbLine
 10
-64.10775873926563
 20
17.66321200703042
 30
0.0
 11
-64.1073134474544
 21
17.66309269147044
 31
0.0
  0
LINE
  5
41C5
330
1F
100
AcDbEntity
  8
AM_0
100
AcDbLine
 10
-83.44394481533861
 20
50.61595966011529
 30
0.0
 11
-55.32737853290279
 21
43.08214977199652
 31
0.0
  0
LINE
  5
41C6
330
1F
100
AcDbEntity
  8
AM_0
100
AcDbLine
 10
-55.32737853290279
 20
43.08214977199652
 30
0.0
 11
-57.90462707203156
 21
28.46060373596232
 31
0.0
  0
LINE
  5
41C7
330
1F
100
AcDbEntity
  8
AM_0
100
AcDbLine
 10
-59.77288219232894
 20
28.42787857960494
 30
0.0
 11
-57.90462707203156
 21
28.46060373596232
 31
0.0
  0
LINE
  5
41C8
330
1F
100
AcDbEntity
  8
AM_0
100
AcDbLine
 10
-62.13642626154221
 20
28.84448521925894
 30
0.0
 11
-59.77288219232894
 21
28.42787857960494
 31
0.0
  0
LINE
  5
41C9
330
1F
100
AcDbEntity
  8
AM_0
100
AcDbLine
 10
-65.62959714940457
 20
18.24397677874685
 30
0.0
 11
-89.64759383956881
 21
27.46362218770119
 31
0.0
  0
LINE
  5
41CA
330
1F
100
AcDbEntity
  8
AM_0
100
AcDbLine
 10
-82.0787387663044
 20
55.71097890494493
 30
0.0
 11
-54.40890255867056
 21
48.29686995829445
 31
0.0
  0
LINE
  5
41CB
330
1F
100
AcDbEntity
  8
AM_0
100
AcDbLine
 10
-55.32737853290279
 20
43.08214977199652
 30
0.0
 11
-54.40890255867056
 21
48.29686995829445
 31
0.0
  0
LINE
  5
41CE
330
1F
100
AcDbEntity
  8
AM_0
100
AcDbLine
 10
-54.6564345041356
 20
46.89148770662577
 30
0.0
 11
-53.27970826063634
 21
46.52259508715302
 31
0.0
  0
LINE
  5
41CF
330
1F
100
AcDbEntity
  8
AM_0
100
AcDbLine
 10
-74.41526444041197
 20
84.31145954323496
 30
0.0
 11
-43.50563763055466
 21
76.02925147561493
 31
0.0
  0
LINE
  5
41D0
330
1F
100
AcDbEntity
  8
AM_0
100
AcDbLine
 10
-51.49615694161221
 20
46.20822211904144
 30
0.0
 11
-43.50563763055466
 21
76.02925147561493
 31
0.0
  0
LINE
  5
41D2
330
1F
100
AcDbEntity
  8
AM_0
100
AcDbLine
 10
-61.53075306827819
 20
16.71392066362289
 30
0.0
 11
-59.50415883828447
 21
16.35670473379728
 31
0.0
  0
LINE
  5
41D3
330
1F
100
AcDbEntity
  8
AM_0
100
AcDbLine
 10
-64.10074853680895
 20
17.70026622485399
 30
0.0
 11
-61.53075306827819
 21
16.71392066362289
 31
0.0
  0
LINE
  5
41D4
330
1F
100
AcDbEntity
  8
AM_0
100
AcDbLine
 10
-64.10074853680895
 20
17.70026622485399
 30
0.0
 11
-64.0378659844361
 21
18.05701700949654
 31
0.0
  0
LINE
  5
41D5
330
1F
100
AcDbEntity
  8
AM_0
100
AcDbLine
 10
-61.72914923804055
 20
31.15510150037888
 30
0.0
 11
-61.66626668566768
 21
31.51185228502144
 31
0.0
  0
LINE
  5
41D6
330
1F
100
AcDbEntity
  8
AM_0
100
AcDbLine
 10
-61.66626668566768
 20
31.51185228502144
 30
0.0
 11
-58.91391699906835
 21
31.56005847107155
 31
0.0
  0
LINE
  5
41D7
330
1F
100
AcDbEntity
  8
AM_0
100
AcDbLine
 10
-58.91391699906835
 20
31.56005847107155
 30
0.0
 11
-56.88732399381948
 21
31.2028418341391
 31
0.0
  0
LINE
  5
41D8
330
1F
100
AcDbEntity
  8
AM_0
100
AcDbLine
 10
-59.50415883828447
 20
16.35670473379728
 30
0.0
 11
-56.88732399381948
 21
31.2028418341391
 31
0.0
  0
LINE
  5
41D9
330
1F
100
AcDbEntity
  8
AM_0
100
AcDbLine
 10
-58.91391699906835
 20
31.56005847107155
 30
0.0
 11
-56.81790164487295
 21
31.59677288145924
 31
0.0
  0
LINE
  5
41DA
330
1F
100
AcDbEntity
  8
AM_0
100
AcDbLine
 10
-61.53075306827819
 20
16.71392066362289
 30
0.0
 11
-59.57360726722861
 21
15.96278067459018
 31
0.0
  0
LINE
  5
41DB
330
1F
100
AcDbEntity
  8
AM_0
100
AcDbLine
 10
-61.66626668566768
 20
31.51185228502144
 30
0.0
 11
-61.66627344714856
 21
31.51185409675446
 31
0.0
  0
LINE
  5
41DC
330
1F
100
AcDbEntity
  8
AM_0
100
AcDbLine
 10
-57.35346226349866
 20
31.58753538643949
 30
0.0
 11
-56.81840585816028
 21
31.59690798497834
 31
0.0
  0
LINE
  5
41DD
330
1F
100
AcDbEntity
  8
AM_0
100
AcDbLine
 10
-56.81790164487295
 20
31.59677288145924
 30
0.0
 11
-56.81817500188504
 21
31.59684612723684
 31
0.0
  0
LINE
  5
41DE
330
1F
100
AcDbEntity
  8
AM_0
100
AcDbLine
 10
-56.81817500188504
 20
31.59684612723684
 30
0.0
 11
-56.81840585816028
 21
31.59690798497834
 31
0.0
  0
LINE
  5
41DF
330
1F
100
AcDbEntity
  8
AM_0
100
AcDbLine
 10
-60.07408202080761
 20
16.1548009819929
 30
0.0
 11
-59.5741124464418
 21
15.9629160369283
 31
0.0
  0
LINE
  5
41E0
330
1F
100
AcDbEntity
  8
AM_0
100
AcDbLine
 10
-64.10075529828983
 20
17.70026803658701
 30
0.0
 11
-64.10074853680895
 21
17.70026622485399
 31
0.0
  0
LINE
  5
41E1
330
1F
100
AcDbEntity
  8
AM_0
100
AcDbLine
 10
-59.5741124464418
 20
15.9629160369283
 30
0.0
 11
-59.57360726722861
 21
15.96278067459018
 31
0.0
  0
LINE
  5
41E2
330
1F
100
AcDbEntity
  8
AM_0
100
AcDbLine
 10
-52.89993743298003
 20
43.48817899440515
 30
0.0
 11
-52.99130351919678
 21
42.969438630367
 31
0.0
  0
LINE
  5
41E3
330
1F
100
AcDbEntity
  8
AM_0
100
AcDbLine
 10
-53.45126260077475
 20
40.35950135483662
 30
0.0
 11
-55.50201824218054
 21
28.72470701408631
 31
0.0
  0
LINE
  5
41E4
330
1F
100
AcDbEntity
  8
AM_0
100
AcDbLine
 10
-52.89993743298003
 20
43.48817899440515
 30
0.0
 11
-55.69023938251921
 21
27.65705486946494
 31
0.0
  0
LINE
  5
41E5
330
1F
100
AcDbEntity
  8
AM_0
100
AcDbLine
 10
-44.39918153418896
 20
40.445940093745
 30
0.0
 11
-45.95838351132311
 21
31.5999385084443
 31
0.0
  0
LINE
  5
41E7
330
1F
100
AcDbEntity
  8
AM_0
100
AcDbLine
 10
-54.12296817177793
 20
27.45490107756742
 30
0.0
 11
-54.13606742521634
 21
27.38058309011246
 31
0.0
  0
LINE
  5
41EA
330
1F
100
AcDbEntity
  8
AM_0
100
AcDbLine
 10
-50.43789083513212
 20
43.0542094004638
 30
0.0
 11
-52.89993743298003
 21
43.48817899440515
 31
0.0
  0
LINE
  5
41EB
330
1F
100
AcDbEntity
  8
AM_0
100
AcDbLine
 10
-46.80506522882145
 20
26.79757332864574
 30
0.0
 11
-47.96779757786601
 21
20.20292702659019
 31
0.0
  0
LINE
  5
41ED
330
1F
100
AcDbEntity
  8
AM_0
100
AcDbLine
 10
-44.14890926732167
 20
41.86688850190382
 30
0.0
 11
-44.39918153418896
 21
40.445940093745
 31
0.0
  0
LINE
  5
41F0
330
1F
100
AcDbEntity
  8
AM_0
100
AcDbLine
 10
-52.39309298209479
 20
46.36629128437559
 30
0.0
 11
-50.42415571574534
 21
46.01923940380819
 31
0.0
  0
LINE
  5
41F1
330
1F
100
AcDbEntity
  8
AM_0
100
AcDbLine
 10
-50.42415571574534
 20
46.01923940380819
 30
0.0
 11
-49.93104735017273
 21
45.93232194925323
 31
0.0
  0
LINE
  5
41F2
330
1F
100
AcDbEntity
  8
AM_0
100
AcDbLine
 10
-53.9269730461203
 20
37.66363279504106
 30
0.0
 11
-52.39309298209479
 21
46.36629128437559
 31
0.0
  0
LINE
  5
41F3
330
1F
100
AcDbEntity
  8
AM_0
100
AcDbLine
 10
-53.13795311468309
 20
42.14296286298558
 30
0.0
 11
-53.03131178185699
 21
42.74794015397514
 31
0.0
  0
LINE
  5
41F4
330
1F
100
AcDbEntity
  8
AM_0
100
AcDbLine
 10
-52.39337116873607
 20
46.36636582424818
 30
0.0
 11
-53.03120609842132
 21
42.74792115367448
 31
0.0
  0
LINE
  5
41F5
330
1F
100
AcDbEntity
  8
AM_0
100
AcDbLine
 10
-52.39337116873607
 20
46.36636582424818
 30
0.0
 11
-52.39309298209479
 21
46.36629128437559
 31
0.0
  0
LINE
  5
41F6
330
1F
100
AcDbEntity
  8
AM_0
100
AcDbLine
 10
-57.03032635636576
 20
20.05901292937269
 30
0.0
 11
-57.12692125525066
 21
19.51116092671557
 31
0.0
  0
LINE
  5
41F7
330
1F
100
AcDbEntity
  8
AM_0
100
AcDbLine
 10
-57.14326643072009
 20
19.41885616116756
 30
0.0
 11
-57.03050224412461
 21
20.05882401538093
 31
0.0
  0
LINE
  5
41F8
330
1F
100
AcDbEntity
  8
AM_0
100
AcDbLine
 10
-53.78215409007639
 20
38.48574156491483
 30
0.0
 11
-53.92706791490292
 21
37.66364579173622
 31
0.0
  0
LINE
  5
41FA
330
1F
100
AcDbEntity
  8
AM_0
100
AcDbLine
 10
-50.40745006987727
 20
46.01628913735741
 30
0.0
 11
-46.58260087524512
 21
45.34210626917194
 31
0.0
  0
LINE
  5
41FB
330
1F
100
AcDbEntity
  8
AM_0
100
AcDbLine
 10
-53.27970826063634
 20
46.52259508715302
 30
0.0
 11
-52.39337116873607
 21
46.36636582424818
 31
0.0
  0
LINE
  5
41FC
330
1F
100
AcDbEntity
  8
AM_0
100
AcDbLine
 10
-53.27970826063634
 20
46.52259508715302
 30
0.0
 11
-53.2797353065598
 21
46.52260233408507
 31
0.0
  0
LINE
  5
41FD
330
1F
100
AcDbEntity
  8
AM_0
100
AcDbLine
 10
-46.58296985891516
 20
45.34220513803074
 30
0.0
 11
-50.42407131486492
 21
46.01925302333036
 31
0.0
  0
LINE
  5
41FE
330
1F
100
AcDbEntity
  8
AM_0
100
AcDbLine
 10
-50.42407131486492
 20
46.01925302333036
 30
0.0
 11
-53.2797353065598
 21
46.52260233408507
 31
0.0
  0
LINE
  5
4200
330
1F
100
AcDbEntity
  8
AM_0
100
AcDbLine
 10
-46.32690756095049
 20
45.28542874144686
 30
0.0
 11
-46.32727654462053
 21
45.28552761030566
 31
0.0
  0
LINE
  5
4201
330
1F
100
AcDbEntity
  8
AM_0
100
AcDbLine
 10
-56.51212264575406
 20
36.36072307770132
 30
0.0
 11
-55.99459898426355
 21
36.26950286783835
 31
0.0
  0
LINE
  5
4202
330
1F
100
AcDbEntity
  8
AM_0
100
AcDbLine
 10
-53.13762878525724
 20
42.14290598220219
 30
0.0
 11
-55.42196120667147
 21
42.54555142617092
 31
0.0
  0
LINE
  5
4204
330
1F
100
AcDbEntity
  8
AM_0
100
AcDbLine
 10
-57.18974594100808
 20
19.15496610920768
 30
0.0
 11
-51.37931661933789
 21
18.13079791723917
 31
0.0
  0
LINE
  5
4205
330
1F
100
AcDbEntity
  8
AM_0
100
AcDbLine
 10
-53.91754319032158
 20
42.90415041657929
 30
0.0
 11
-53.27970826063634
 21
46.52259508715302
 31
0.0
  0
LINE
  5
4206
330
1F
100
AcDbEntity
  8
AM_0
100
AcDbLine
 10
-53.78285630014521
 20
43.66884522499544
 30
0.0
 11
-53.91754319032158
 21
42.90415041657929
 31
0.0
  0
LINE
  5
4207
330
1F
100
AcDbEntity
  8
AM_0
100
AcDbLine
 10
-53.6658121084282
 20
44.33284210135204
 30
0.0
 11
-53.78285630014521
 21
43.66884522499544
 31
0.0
  0
LINE
  5
4208
330
1F
100
AcDbEntity
  8
AM_0
100
AcDbLine
 10
-53.03120609842132
 20
42.74792115367448
 30
0.0
 11
-53.91754319032158
 21
42.90415041657929
 31
0.0
  0
LINE
  5
4209
330
1F
100
AcDbEntity
  8
AM_0
100
AcDbLine
 10
-55.86219035094483
 20
37.0207418359355
 30
0.0
 11
-56.81817500188504
 21
31.59684612723684
 31
0.0
  0
LINE
  5
420A
330
1F
100
AcDbEntity
  8
AM_0
100
AcDbLine
 10
-55.86219035094483
 20
37.0207418359355
 30
0.0
 11
-55.70473436330563
 21
37.9133687485348
 31
0.0
  0
LINE
  5
420B
330
1F
100
AcDbEntity
  8
AM_0
100
AcDbLine
 10
-55.95029237191467
 20
36.51975459249807
 30
0.0
 11
-55.70473436330563
 21
37.9133687485348
 31
0.0
  0
LINE
  5
420C
330
1F
100
AcDbEntity
  8
AM_0
100
AcDbLine
 10
-55.95029237191467
 20
36.51975459249807
 30
0.0
 11
-56.81798374856915
 21
31.59679488107442
 31
0.0
  0
LINE
  5
420D
330
1F
100
AcDbEntity
  8
AM_0
100
AcDbLine
 10
-58.67459073518484
 20
21.06311058135915
 30
0.0
 11
-58.81704208109376
 21
20.25489544284111
 31
0.0
  0
LINE
  5
420F
330
1F
100
AcDbEntity
  8
AM_0
100
AcDbLine
 10
-58.5866921945556
 20
19.33271395342981
 30
0.0
 11
-58.97010255733423
 21
19.38657407959876
 31
0.0
  0
LINE
  5
4210
330
1F
100
AcDbEntity
  8
AM_0
100
AcDbLine
 10
-55.05246230130585
 20
22.18030228591764
 30
0.0
 11
-57.45433826134688
 21
19.60425476401963
 31
0.0
  0
LINE
  5
4212
330
1F
100
AcDbEntity
  8
AM_0
100
AcDbLine
 10
-54.1721770218398
 20
36.2699682930696
 30
0.0
 11
-55.95029237191467
 21
36.51975459249807
 31
0.0
  0
LINE
  5
4214
330
1F
100
AcDbEntity
  8
AM_0
100
AcDbLine
 10
-54.30941694555777
 20
27.47000936539211
 30
0.0
 11
-54.34936190194637
 21
27.18564127469958
 31
0.0
  0
LINE
  5
4215
330
1F
100
AcDbEntity
  8
AM_0
100
AcDbLine
 10
-54.48846582474826
 20
26.19536207926875
 30
0.0
 11
-54.62756878162429
 21
25.20508262501893
 31
0.0
  0
LINE
  5
4216
330
1F
100
AcDbEntity
  8
AM_0
100
AcDbLine
 10
-54.76667244560719
 20
24.21480439551393
 30
0.0
 11
-55.04976963147816
 21
22.19943117258675
 31
0.0
  0
LINE
  5
4217
330
1F
100
AcDbEntity
  8
AM_0
100
AcDbLine
 10
-55.70473436330563
 20
37.9133687485348
 30
0.0
 11
-53.92654810312527
 21
37.66357276628973
 31
0.0
  0
LINE
  5
4218
330
1F
100
AcDbEntity
  8
AM_0
100
AcDbLine
 10
-61.72914827211471
 20
31.15510124155988
 30
0.0
 11
-61.66335160499607
 21
31.52838411500719
 31
0.0
  0
LINE
  5
4219
330
1F
100
AcDbEntity
  8
AM_0
100
AcDbLine
 10
-64.10392584094214
 20
17.68229211893895
 30
0.0
 11
-64.09409815882324
 21
17.73802145861896
 31
0.0
  0
LINE
  5
421A
330
1F
100
AcDbEntity
  8
AM_0
100
AcDbLine
 10
-64.09409815882324
 20
17.73802145861896
 30
0.0
 11
-64.07879141660187
 21
17.82484730069704
 31
0.0
  0
LINE
  5
421B
330
1F
100
AcDbEntity
  8
AM_0
100
AcDbLine
 10
-64.07879141660187
 20
17.82484730069704
 30
0.0
 11
-64.0594949875251
 21
17.93430572218614
 31
0.0
  0
LINE
  5
421C
330
1F
100
AcDbEntity
  8
AM_0
100
AcDbLine
 10
-64.0594949875251
 20
17.93430572218614
 30
0.0
 11
-64.03786501851026
 21
18.05701675067754
 31
0.0
  0
LINE
  5
421D
330
1F
100
AcDbEntity
  8
AM_0
100
AcDbLine
 10
-56.88732399381948
 20
31.2028418341391
 30
0.0
 11
-56.82152732670082
 21
31.5761247075864
 31
0.0
  0
LINE
  5
421E
330
1F
100
AcDbEntity
  8
AM_0
100
AcDbLine
 10
-56.81792584013536
 20
31.59663235534324
 30
0.0
 11
-56.81791746999542
 21
31.59668291165598
 31
0.0
  0
LINE
  5
421F
330
1F
100
AcDbEntity
  8
AM_0
100
AcDbLine
 10
-56.81791746999542
 20
31.59668291165598
 30
0.0
 11
-56.81791001501286
 21
31.59672232514649
 31
0.0
  0
LINE
  5
4220
330
1F
100
AcDbEntity
  8
AM_0
100
AcDbLine
 10
-56.81791001501286
 20
31.59672232514649
 30
0.0
 11
-56.81790566585831
 21
31.59675014752697
 31
0.0
  0
LINE
  5
4221
330
1F
100
AcDbEntity
  8
AM_0
100
AcDbLine
 10
-56.81790566585831
 20
31.59675014752697
 30
0.0
 11
-56.81790456123214
 21
31.59675813375267
 31
0.0
  0
LINE
  5
4222
330
1F
100
AcDbEntity
  8
AM_0
100
AcDbLine
 10
-56.81790456123214
 20
31.59675813375267
 30
0.0
 11
-56.81790274949913
 21
31.59676489523353
 31
0.0
  0
LINE
  5
4223
330
1F
100
AcDbEntity
  8
AM_0
100
AcDbLine
 10
-56.81790274949913
 20
31.59676489523353
 30
0.0
 11
-56.81790293896796
 21
31.59676805183005
 31
0.0
  0
LINE
  5
4224
330
1F
100
AcDbEntity
  8
AM_0
100
AcDbLine
 10
-56.81790293896796
 20
31.59676805183005
 30
0.0
 11
-56.81790268014895
 21
31.5967690177559
 31
0.0
  0
LINE
  5
4225
330
1F
100
AcDbEntity
  8
AM_0
100
AcDbLine
 10
-56.81790268014895
 20
31.5967690177559
 30
0.0
 11
-56.81790242132995
 21
31.59676998368173
 31
0.0
  0
LINE
  5
4226
330
1F
100
AcDbEntity
  8
AM_0
100
AcDbLine
 10
-56.81790242132995
 20
31.59676998368173
 30
0.0
 11
-56.81790216251095
 21
31.59677094960757
 31
0.0
  0
LINE
  5
4227
330
1F
100
AcDbEntity
  8
AM_0
100
AcDbLine
 10
-56.81790216251095
 20
31.59677094960757
 30
0.0
 11
-56.81790216251095
 21
31.59677094960757
 31
0.0
  0
LINE
  5
4228
330
1F
100
AcDbEntity
  8
AM_0
100
AcDbLine
 10
-56.81790216251095
 20
31.59677094960757
 30
0.0
 11
-56.81790190369195
 21
31.5967719155334
 31
0.0
  0
LINE
  5
4229
330
1F
100
AcDbEntity
  8
AM_0
100
AcDbLine
 10
-56.81790190369195
 20
31.5967719155334
 30
0.0
 11
-56.81790190369195
 21
31.5967719155334
 31
0.0
  0
LINE
  5
422A
330
1F
100
AcDbEntity
  8
AM_0
100
AcDbLine
 10
-56.81790190369195
 20
31.5967719155334
 30
0.0
 11
-56.81790190369195
 21
31.5967719155334
 31
0.0
  0
LINE
  5
422B
330
1F
100
AcDbEntity
  8
AM_0
100
AcDbLine
 10
-56.81790190369195
 20
31.5967719155334
 30
0.0
 11
-56.81790190369195
 21
31.5967719155334
 31
0.0
  0
LINE
  5
422C
330
1F
100
AcDbEntity
  8
AM_0
100
AcDbLine
 10
-56.81790190369195
 20
31.5967719155334
 30
0.0
 11
-56.81790190369195
 21
31.5967719155334
 31
0.0
  0
LINE
  5
422D
330
1F
100
AcDbEntity
  8
AM_0
100
AcDbLine
 10
-56.81790190369195
 20
31.5967719155334
 30
0.0
 11
-56.81790190369195
 21
31.5967719155334
 31
0.0
  0
LINE
  5
422E
330
1F
100
AcDbEntity
  8
AM_0
100
AcDbLine
 10
-56.81790190369195
 20
31.5967719155334
 30
0.0
 11
-56.81790190369195
 21
31.5967719155334
 31
0.0
  0
LINE
  5
422F
330
1F
100
AcDbEntity
  8
AM_0
100
AcDbLine
 10
-56.81790190369195
 20
31.5967719155334
 30
0.0
 11
-56.81790164487295
 21
31.59677288145924
 31
0.0
  0
LINE
  5
4230
330
1F
100
AcDbEntity
  8
AM_0
100
AcDbLine
 10
-56.81790164487295
 20
31.59677288145924
 30
0.0
 11
-56.81790164487295
 21
31.59677288145924
 31
0.0
  0
LINE
  5
4231
330
1F
100
AcDbEntity
  8
AM_0
100
AcDbLine
 10
-56.81790164487295
 20
31.59677288145924
 30
0.0
 11
-56.81790164487295
 21
31.59677288145924
 31
0.0
  0
LINE
  5
4232
330
1F
100
AcDbEntity
  8
AM_0
100
AcDbLine
 10
-56.81790164487295
 20
31.59677288145924
 30
0.0
 11
-56.81790164487295
 21
31.59677288145924
 31
0.0
  0
LINE
  5
4233
330
1F
100
AcDbEntity
  8
AM_0
100
AcDbLine
 10
-56.81790164487295
 20
31.59677288145924
 30
0.0
 11
-56.81790164487295
 21
31.59677288145924
 31
0.0
  0
LINE
  5
4234
330
1F
100
AcDbEntity
  8
AM_0
100
AcDbLine
 10
-56.81790164487295
 20
31.59677288145924
 30
0.0
 11
-56.81790164487295
 21
31.59677288145924
 31
0.0
  0
LINE
  5
4235
330
1F
100
AcDbEntity
  8
AM_0
100
AcDbLine
 10
-56.81790164487295
 20
31.59677288145924
 30
0.0
 11
-56.81790164487295
 21
31.59677288145924
 31
0.0
  0
LINE
  5
4236
330
1F
100
AcDbEntity
  8
AM_0
100
AcDbLine
 10
-56.81790164487295
 20
31.59677288145924
 30
0.0
 11
-56.81790164487295
 21
31.59677288145924
 31
0.0
  0
LINE
  5
4237
330
1F
100
AcDbEntity
  8
AM_0
100
AcDbLine
 10
-56.81790164487295
 20
31.59677288145924
 30
0.0
 11
-56.81790164487295
 21
31.59677288145924
 31
0.0
  0
LINE
  5
4238
330
1F
100
AcDbEntity
  8
AM_0
100
AcDbLine
 10
-56.81790164487295
 20
31.59677288145924
 30
0.0
 11
-56.81790164487295
 21
31.59677288145924
 31
0.0
  0
LINE
  5
4239
330
1F
100
AcDbEntity
  8
AM_0
100
AcDbLine
 10
-56.81790164487295
 20
31.59677288145924
 30
0.0
 11
-56.81790164487295
 21
31.59677288145924
 31
0.0
  0
LINE
  5
423A
330
1F
100
AcDbEntity
  8
AM_0
100
AcDbLine
 10
-56.81790164487295
 20
31.59677288145924
 30
0.0
 11
-56.81790164487295
 21
31.59677288145924
 31
0.0
  0
LINE
  5
423B
330
1F
100
AcDbEntity
  8
AM_0
100
AcDbLine
 10
-56.81790164487295
 20
31.59677288145924
 30
0.0
 11
-56.81790164487295
 21
31.59677288145924
 31
0.0
  0
LINE
  5
423C
330
1F
100
AcDbEntity
  8
AM_0
100
AcDbLine
 10
-56.81790164487295
 20
31.59677288145924
 30
0.0
 11
-56.81790164487295
 21
31.59677288145924
 31
0.0
  0
LINE
  5
423D
330
1F
100
AcDbEntity
  8
AM_0
100
AcDbLine
 10
-56.81790164487295
 20
31.59677288145924
 30
0.0
 11
-56.81790164487295
 21
31.59677288145924
 31
0.0
  0
LINE
  5
423E
330
1F
100
AcDbEntity
  8
AM_0
100
AcDbLine
 10
-56.81790164487295
 20
31.59677288145924
 30
0.0
 11
-56.81790164487295
 21
31.59677288145924
 31
0.0
  0
LINE
  5
423F
330
1F
100
AcDbEntity
  8
AM_0
100
AcDbLine
 10
-56.81790164487295
 20
31.59677288145924
 30
0.0
 11
-56.81790164487295
 21
31.59677288145924
 31
0.0
  0
LINE
  5
4240
330
1F
100
AcDbEntity
  8
AM_0
100
AcDbLine
 10
-56.81790164487295
 20
31.59677288145924
 30
0.0
 11
-56.81790164487295
 21
31.59677288145924
 31
0.0
  0
LINE
  5
4241
330
1F
100
AcDbEntity
  8
AM_0
100
AcDbLine
 10
-56.81790164487295
 20
31.59677288145924
 30
0.0
 11
-56.81790164487295
 21
31.59677288145924
 31
0.0
  0
LINE
  5
4242
330
1F
100
AcDbEntity
  8
AM_0
100
AcDbLine
 10
-56.81790164487295
 20
31.59677288145924
 30
0.0
 11
-56.81790164487295
 21
31.59677288145924
 31
0.0
  0
LINE
  5
4243
330
1F
100
AcDbEntity
  8
AM_0
100
AcDbLine
 10
-56.81790164487295
 20
31.59677288145924
 30
0.0
 11
-56.81790164487295
 21
31.59677288145924
 31
0.0
  0
LINE
  5
4244
330
1F
100
AcDbEntity
  8
AM_0
100
AcDbLine
 10
-56.81790164487295
 20
31.59677288145924
 30
0.0
 11
-56.81790164487295
 21
31.59677288145924
 31
0.0
  0
LINE
  5
4245
330
1F
100
AcDbEntity
  8
AM_0
100
AcDbLine
 10
-56.81790164487295
 20
31.59677288145924
 30
0.0
 11
-56.81790164487295
 21
31.59677288145924
 31
0.0
  0
LINE
  5
4246
330
1F
100
AcDbEntity
  8
AM_0
100
AcDbLine
 10
-56.81790164487295
 20
31.59677288145924
 30
0.0
 11
-56.81790164487295
 21
31.59677288145924
 31
0.0
  0
LINE
  5
4247
330
1F
100
AcDbEntity
  8
AM_0
100
AcDbLine
 10
-56.81790164487295
 20
31.59677288145924
 30
0.0
 11
-56.81790164487295
 21
31.59677288145924
 31
0.0
  0
LINE
  5
4248
330
1F
100
AcDbEntity
  8
AM_0
100
AcDbLine
 10
-56.81790164487295
 20
31.59677288145924
 30
0.0
 11
-56.81790164487295
 21
31.59677288145924
 31
0.0
  0
LINE
  5
4249
330
1F
100
AcDbEntity
  8
AM_0
100
AcDbLine
 10
-56.81790164487295
 20
31.59677288145924
 30
0.0
 11
-56.81790164487295
 21
31.59677288145924
 31
0.0
  0
LINE
  5
424A
330
1F
100
AcDbEntity
  8
AM_0
100
AcDbLine
 10
-56.81790164487295
 20
31.59677288145924
 30
0.0
 11
-56.81790164487295
 21
31.59677288145924
 31
0.0
  0
LINE
  5
424B
330
1F
100
AcDbEntity
  8
AM_0
100
AcDbLine
 10
-56.81790164487295
 20
31.59677288145924
 30
0.0
 11
-56.81790164487295
 21
31.59677288145924
 31
0.0
  0
LINE
  5
424C
330
1F
100
AcDbEntity
  8
AM_0
100
AcDbLine
 10
-56.81790164487295
 20
31.59677288145924
 30
0.0
 11
-56.81790164487295
 21
31.59677288145924
 31
0.0
  0
LINE
  5
424D
330
1F
100
AcDbEntity
  8
AM_0
100
AcDbLine
 10
-56.81790164487295
 20
31.59677288145924
 30
0.0
 11
-56.81790164487295
 21
31.59677288145924
 31
0.0
  0
LINE
  5
424E
330
1F
100
AcDbEntity
  8
AM_0
100
AcDbLine
 10
-56.81790164487295
 20
31.59677288145924
 30
0.0
 11
-56.81790164487295
 21
31.59677288145924
 31
0.0
  0
LINE
  5
424F
330
1F
100
AcDbEntity
  8
AM_0
100
AcDbLine
 10
-56.81790164487295
 20
31.59677288145924
 30
0.0
 11
-56.81790164487295
 21
31.59677288145924
 31
0.0
  0
LINE
  5
4250
330
1F
100
AcDbEntity
  8
AM_0
100
AcDbLine
 10
-56.81790164487295
 20
31.59677288145924
 30
0.0
 11
-56.81790164487295
 21
31.59677288145924
 31
0.0
  0
LINE
  5
4251
330
1F
100
AcDbEntity
  8
AM_0
100
AcDbLine
 10
-56.81790164487295
 20
31.59677288145924
 30
0.0
 11
-56.81790164487295
 21
31.59677288145924
 31
0.0
  0
LINE
  5
4252
330
1F
100
AcDbEntity
  8
AM_0
100
AcDbLine
 10
-56.81790164487295
 20
31.59677288145924
 30
0.0
 11
-56.81790164487295
 21
31.59677288145924
 31
0.0
  0
LINE
  5
4253
330
1F
100
AcDbEntity
  8
AM_0
100
AcDbLine
 10
-56.81790164487295
 20
31.59677288145924
 30
0.0
 11
-56.81790164487295
 21
31.59677288145924
 31
0.0
  0
LINE
  5
4254
330
1F
100
AcDbEntity
  8
AM_0
100
AcDbLine
 10
-56.81790164487295
 20
31.59677288145924
 30
0.0
 11
-56.81790164487295
 21
31.59677288145924
 31
0.0
  0
LINE
  5
4255
330
1F
100
AcDbEntity
  8
AM_0
100
AcDbLine
 10
-56.81790164487295
 20
31.59677288145924
 30
0.0
 11
-56.81790164487295
 21
31.59677288145924
 31
0.0
  0
LINE
  5
4256
330
1F
100
AcDbEntity
  8
AM_0
100
AcDbLine
 10
-56.81790164487295
 20
31.59677288145924
 30
0.0
 11
-56.81790164487295
 21
31.59677288145924
 31
0.0
  0
LINE
  5
4257
330
1F
100
AcDbEntity
  8
AM_0
100
AcDbLine
 10
-56.81790164487295
 20
31.59677288145924
 30
0.0
 11
-56.81790164487295
 21
31.59677288145924
 31
0.0
  0
LINE
  5
4258
330
1F
100
AcDbEntity
  8
AM_0
100
AcDbLine
 10
-56.81790164487295
 20
31.59677288145924
 30
0.0
 11
-56.81790164487295
 21
31.59677288145924
 31
0.0
  0
LINE
  5
4259
330
1F
100
AcDbEntity
  8
AM_0
100
AcDbLine
 10
-56.81790164487295
 20
31.59677288145924
 30
0.0
 11
-56.81790164487295
 21
31.59677288145924
 31
0.0
  0
LINE
  5
425A
330
1F
100
AcDbEntity
  8
AM_0
100
AcDbLine
 10
-56.81790164487295
 20
31.59677288145924
 30
0.0
 11
-56.81790164487295
 21
31.59677288145924
 31
0.0
  0
LINE
  5
425B
330
1F
100
AcDbEntity
  8
AM_0
100
AcDbLine
 10
-56.81790164487295
 20
31.59677288145924
 30
0.0
 11
-56.81790164487295
 21
31.59677288145924
 31
0.0
  0
LINE
  5
425C
330
1F
100
AcDbEntity
  8
AM_0
100
AcDbLine
 10
-56.81790164487295
 20
31.59677288145924
 30
0.0
 11
-56.81790164487295
 21
31.59677288145924
 31
0.0
  0
LINE
  5
425D
330
1F
100
AcDbEntity
  8
AM_0
100
AcDbLine
 10
-56.81790164487295
 20
31.59677288145924
 30
0.0
 11
-56.81790164487295
 21
31.59677288145924
 31
0.0
  0
LINE
  5
425E
330
1F
100
AcDbEntity
  8
AM_0
100
AcDbLine
 10
-56.81790164487295
 20
31.59677288145924
 30
0.0
 11
-56.81790164487295
 21
31.59677288145924
 31
0.0
  0
LINE
  5
425F
330
1F
100
AcDbEntity
  8
AM_0
100
AcDbLine
 10
-56.81790164487295
 20
31.59677288145924
 30
0.0
 11
-56.81790164487295
 21
31.59677288145924
 31
0.0
  0
LINE
  5
4260
330
1F
100
AcDbEntity
  8
AM_0
100
AcDbLine
 10
-56.81790164487295
 20
31.59677288145924
 30
0.0
 11
-56.81790164487295
 21
31.59677288145924
 31
0.0
  0
LINE
  5
4261
330
1F
100
AcDbEntity
  8
AM_0
100
AcDbLine
 10
-56.81790164487295
 20
31.59677288145924
 30
0.0
 11
-56.81790164487295
 21
31.59677288145924
 31
0.0
  0
LINE
  5
4262
330
1F
100
AcDbEntity
  8
AM_0
100
AcDbLine
 10
-56.81790164487295
 20
31.59677288145924
 30
0.0
 11
-56.81790164487295
 21
31.59677288145924
 31
0.0
  0
LINE
  5
4263
330
1F
100
AcDbEntity
  8
AM_0
100
AcDbLine
 10
-56.81790164487295
 20
31.59677288145924
 30
0.0
 11
-56.81790164487295
 21
31.59677288145924
 31
0.0
  0
LINE
  5
4264
330
1F
100
AcDbEntity
  8
AM_0
100
AcDbLine
 10
-56.81790164487295
 20
31.59677288145924
 30
0.0
 11
-56.81790164487295
 21
31.59677288145924
 31
0.0
  0
LINE
  5
4265
330
1F
100
AcDbEntity
  8
AM_0
100
AcDbLine
 10
-56.81790164487295
 20
31.59677288145924
 30
0.0
 11
-56.81790164487295
 21
31.59677288145924
 31
0.0
  0
LINE
  5
4266
330
1F
100
AcDbEntity
  8
AM_0
100
AcDbLine
 10
-56.81790164487295
 20
31.59677288145924
 30
0.0
 11
-56.81790164487295
 21
31.59677288145924
 31
0.0
  0
LINE
  5
4267
330
1F
100
AcDbEntity
  8
AM_0
100
AcDbLine
 10
-56.81790164487295
 20
31.59677288145924
 30
0.0
 11
-56.81790164487295
 21
31.59677288145924
 31
0.0
  0
LINE
  5
4268
330
1F
100
AcDbEntity
  8
AM_0
100
AcDbLine
 10
-56.81790164487295
 20
31.59677288145924
 30
0.0
 11
-56.81790164487295
 21
31.59677288145924
 31
0.0
  0
LINE
  5
4269
330
1F
100
AcDbEntity
  8
AM_0
100
AcDbLine
 10
-56.81790164487295
 20
31.59677288145924
 30
0.0
 11
-56.81790164487295
 21
31.59677288145924
 31
0.0
  0
LINE
  5
426A
330
1F
100
AcDbEntity
  8
AM_0
100
AcDbLine
 10
-56.81790164487295
 20
31.59677288145924
 30
0.0
 11
-56.81790164487295
 21
31.59677288145924
 31
0.0
  0
LINE
  5
426B
330
1F
100
AcDbEntity
  8
AM_0
100
AcDbLine
 10
-56.81790164487295
 20
31.59677288145924
 30
0.0
 11
-56.81790164487295
 21
31.59677288145924
 31
0.0
  0
LINE
  5
426C
330
1F
100
AcDbEntity
  8
AM_0
100
AcDbLine
 10
-56.81790164487295
 20
31.59677288145924
 30
0.0
 11
-56.81790164487295
 21
31.59677288145924
 31
0.0
  0
LINE
  5
426D
330
1F
100
AcDbEntity
  8
AM_0
100
AcDbLine
 10
-56.81790164487295
 20
31.59677288145924
 30
0.0
 11
-56.81790164487295
 21
31.59677288145924
 31
0.0
  0
LINE
  5
426E
330
1F
100
AcDbEntity
  8
AM_0
100
AcDbLine
 10
-56.81790164487295
 20
31.59677288145924
 30
0.0
 11
-56.81790164487295
 21
31.59677288145924
 31
0.0
  0
LINE
  5
426F
330
1F
100
AcDbEntity
  8
AM_0
100
AcDbLine
 10
-56.81790164487295
 20
31.59677288145924
 30
0.0
 11
-56.81790164487295
 21
31.59677288145924
 31
0.0
  0
LINE
  5
4270
330
1F
100
AcDbEntity
  8
AM_0
100
AcDbLine
 10
-56.81790164487295
 20
31.59677288145924
 30
0.0
 11
-56.81790164487295
 21
31.59677288145924
 31
0.0
  0
LINE
  5
4271
330
1F
100
AcDbEntity
  8
AM_0
100
AcDbLine
 10
-56.81790164487295
 20
31.59677288145924
 30
0.0
 11
-56.81790164487295
 21
31.59677288145924
 31
0.0
  0
LINE
  5
4272
330
1F
100
AcDbEntity
  8
AM_0
100
AcDbLine
 10
-56.81790164487295
 20
31.59677288145924
 30
0.0
 11
-56.81790164487295
 21
31.59677288145924
 31
0.0
  0
LINE
  5
4273
330
1F
100
AcDbEntity
  8
AM_0
100
AcDbLine
 10
-56.81790164487295
 20
31.59677288145924
 30
0.0
 11
-56.81790164487295
 21
31.59677288145924
 31
0.0
  0
LINE
  5
4274
330
1F
100
AcDbEntity
  8
AM_0
100
AcDbLine
 10
-56.81790164487295
 20
31.59677288145924
 30
0.0
 11
-56.81790164487295
 21
31.59677288145924
 31
0.0
  0
LINE
  5
4275
330
1F
100
AcDbEntity
  8
AM_0
100
AcDbLine
 10
-56.81790164487295
 20
31.59677288145924
 30
0.0
 11
-56.81790164487295
 21
31.59677288145924
 31
0.0
  0
LINE
  5
4276
330
1F
100
AcDbEntity
  8
AM_0
100
AcDbLine
 10
-56.81790164487295
 20
31.59677288145924
 30
0.0
 11
-56.81790164487295
 21
31.59677288145924
 31
0.0
  0
LINE
  5
4277
330
1F
100
AcDbEntity
  8
AM_0
100
AcDbLine
 10
-56.81790164487295
 20
31.59677288145924
 30
0.0
 11
-56.81790164487295
 21
31.59677288145924
 31
0.0
  0
LINE
  5
4278
330
1F
100
AcDbEntity
  8
AM_0
100
AcDbLine
 10
-56.81790164487295
 20
31.59677288145924
 30
0.0
 11
-56.81790164487295
 21
31.59677288145924
 31
0.0
  0
LINE
  5
4279
330
1F
100
AcDbEntity
  8
AM_0
100
AcDbLine
 10
-56.81790164487295
 20
31.59677288145924
 30
0.0
 11
-56.81790164487295
 21
31.59677288145924
 31
0.0
  0
LINE
  5
427A
330
1F
100
AcDbEntity
  8
AM_0
100
AcDbLine
 10
-56.81790164487295
 20
31.59677288145924
 30
0.0
 11
-56.81790164487295
 21
31.59677288145924
 31
0.0
  0
LINE
  5
427B
330
1F
100
AcDbEntity
  8
AM_0
100
AcDbLine
 10
-56.81790164487295
 20
31.59677288145924
 30
0.0
 11
-56.81790164487295
 21
31.59677288145924
 31
0.0
  0
LINE
  5
427C
330
1F
100
AcDbEntity
  8
AM_0
100
AcDbLine
 10
-56.81790164487295
 20
31.59677288145924
 30
0.0
 11
-56.81790164487295
 21
31.59677288145924
 31
0.0
  0
LINE
  5
427D
330
1F
100
AcDbEntity
  8
AM_0
100
AcDbLine
 10
-56.81790164487295
 20
31.59677288145924
 30
0.0
 11
-56.81790164487295
 21
31.59677288145924
 31
0.0
  0
LINE
  5
427E
330
1F
100
AcDbEntity
  8
AM_0
100
AcDbLine
 10
-56.81790164487295
 20
31.59677288145924
 30
0.0
 11
-56.81790164487295
 21
31.59677288145924
 31
0.0
  0
LINE
  5
427F
330
1F
100
AcDbEntity
  8
AM_0
100
AcDbLine
 10
-56.81790164487295
 20
31.59677288145924
 30
0.0
 11
-56.81790164487295
 21
31.59677288145924
 31
0.0
  0
LINE
  5
4280
330
1F
100
AcDbEntity
  8
AM_0
100
AcDbLine
 10
-56.81790164487295
 20
31.59677288145924
 30
0.0
 11
-56.81790164487295
 21
31.59677288145924
 31
0.0
  0
LINE
  5
4281
330
1F
100
AcDbEntity
  8
AM_0
100
AcDbLine
 10
-56.81790164487295
 20
31.59677288145924
 30
0.0
 11
-56.81790164487295
 21
31.59677288145924
 31
0.0
  0
LINE
  5
4282
330
1F
100
AcDbEntity
  8
AM_0
100
AcDbLine
 10
-56.81790164487295
 20
31.59677288145924
 30
0.0
 11
-56.81790164487295
 21
31.59677288145924
 31
0.0
  0
LINE
  5
4283
330
1F
100
AcDbEntity
  8
AM_0
100
AcDbLine
 10
-56.81790164487295
 20
31.59677288145924
 30
0.0
 11
-56.81790164487295
 21
31.59677288145924
 31
0.0
  0
LINE
  5
4284
330
1F
100
AcDbEntity
  8
AM_0
100
AcDbLine
 10
-56.81790164487295
 20
31.59677288145924
 30
0.0
 11
-56.81790164487295
 21
31.59677288145924
 31
0.0
  0
LINE
  5
4285
330
1F
100
AcDbEntity
  8
AM_0
100
AcDbLine
 10
-56.81790164487295
 20
31.59677288145924
 30
0.0
 11
-56.81790164487295
 21
31.59677288145924
 31
0.0
  0
LINE
  5
4286
330
1F
100
AcDbEntity
  8
AM_0
100
AcDbLine
 10
-56.81790164487295
 20
31.59677288145924
 30
0.0
 11
-56.81790164487295
 21
31.59677288145924
 31
0.0
  0
LINE
  5
4287
330
1F
100
AcDbEntity
  8
AM_0
100
AcDbLine
 10
-56.81790164487295
 20
31.59677288145924
 30
0.0
 11
-56.81790164487295
 21
31.59677288145924
 31
0.0
  0
LINE
  5
4288
330
1F
100
AcDbEntity
  8
AM_0
100
AcDbLine
 10
-56.81790164487295
 20
31.59677288145924
 30
0.0
 11
-56.81790164487295
 21
31.59677288145924
 31
0.0
  0
LINE
  5
4289
330
1F
100
AcDbEntity
  8
AM_0
100
AcDbLine
 10
-56.81790164487295
 20
31.59677288145924
 30
0.0
 11
-56.81790164487295
 21
31.59677288145924
 31
0.0
  0
LINE
  5
428A
330
1F
100
AcDbEntity
  8
AM_0
100
AcDbLine
 10
-56.81790164487295
 20
31.59677288145924
 30
0.0
 11
-56.81790164487295
 21
31.59677288145924
 31
0.0
  0
LINE
  5
428B
330
1F
100
AcDbEntity
  8
AM_0
100
AcDbLine
 10
-56.81790164487295
 20
31.59677288145924
 30
0.0
 11
-56.81790164487295
 21
31.59677288145924
 31
0.0
  0
LINE
  5
428C
330
1F
100
AcDbEntity
  8
AM_0
100
AcDbLine
 10
-56.81790164487295
 20
31.59677288145924
 30
0.0
 11
-56.81790164487295
 21
31.59677288145924
 31
0.0
  0
LINE
  5
428D
330
1F
100
AcDbEntity
  8
AM_0
100
AcDbLine
 10
-56.81790164487295
 20
31.59677288145924
 30
0.0
 11
-56.81790164487295
 21
31.59677288145924
 31
0.0
  0
LINE
  5
428E
330
1F
100
AcDbEntity
  8
AM_0
100
AcDbLine
 10
-56.81790164487295
 20
31.59677288145924
 30
0.0
 11
-56.81790164487295
 21
31.59677288145924
 31
0.0
  0
LINE
  5
428F
330
1F
100
AcDbEntity
  8
AM_0
100
AcDbLine
 10
-56.81790164487295
 20
31.59677288145924
 30
0.0
 11
-56.81790164487295
 21
31.59677288145924
 31
0.0
  0
LINE
  5
4290
330
1F
100
AcDbEntity
  8
AM_0
100
AcDbLine
 10
-56.81790164487295
 20
31.59677288145924
 30
0.0
 11
-56.81790164487295
 21
31.59677288145924
 31
0.0
  0
LINE
  5
4291
330
1F
100
AcDbEntity
  8
AM_0
100
AcDbLine
 10
-56.81790164487295
 20
31.59677288145924
 30
0.0
 11
-56.81790164487295
 21
31.59677288145924
 31
0.0
  0
LINE
  5
4292
330
1F
100
AcDbEntity
  8
AM_0
100
AcDbLine
 10
-56.81790164487295
 20
31.59677288145924
 30
0.0
 11
-56.81790164487295
 21
31.59677288145924
 31
0.0
  0
LINE
  5
4293
330
1F
100
AcDbEntity
  8
AM_0
100
AcDbLine
 10
-56.81790164487295
 20
31.59677288145924
 30
0.0
 11
-56.81790164487295
 21
31.59677288145924
 31
0.0
  0
LINE
  5
4294
330
1F
100
AcDbEntity
  8
AM_0
100
AcDbLine
 10
-56.81790164487295
 20
31.59677288145924
 30
0.0
 11
-56.81790164487295
 21
31.59677288145924
 31
0.0
  0
LINE
  5
4295
330
1F
100
AcDbEntity
  8
AM_0
100
AcDbLine
 10
-56.81790164487295
 20
31.59677288145924
 30
0.0
 11
-56.81790164487295
 21
31.59677288145924
 31
0.0
  0
LINE
  5
4296
330
1F
100
AcDbEntity
  8
AM_0
100
AcDbLine
 10
-56.81790164487295
 20
31.59677288145924
 30
0.0
 11
-56.81790164487295
 21
31.59677288145924
 31
0.0
  0
LINE
  5
4297
330
1F
100
AcDbEntity
  8
AM_0
100
AcDbLine
 10
-56.81790164487295
 20
31.59677288145924
 30
0.0
 11
-56.81790164487295
 21
31.59677288145924
 31
0.0
  0
LINE
  5
4298
330
1F
100
AcDbEntity
  8
AM_0
100
AcDbLine
 10
-56.81790164487295
 20
31.59677288145924
 30
0.0
 11
-56.81790164487295
 21
31.59677288145924
 31
0.0
  0
LINE
  5
4299
330
1F
100
AcDbEntity
  8
AM_0
100
AcDbLine
 10
-56.81790164487295
 20
31.59677288145924
 30
0.0
 11
-56.81790164487295
 21
31.59677288145924
 31
0.0
  0
LINE
  5
429A
330
1F
100
AcDbEntity
  8
AM_0
100
AcDbLine
 10
-56.81790164487295
 20
31.59677288145924
 30
0.0
 11
-56.81790164487295
 21
31.59677288145924
 31
0.0
  0
LINE
  5
429B
330
1F
100
AcDbEntity
  8
AM_0
100
AcDbLine
 10
-56.81790164487295
 20
31.59677288145924
 30
0.0
 11
-56.81790164487295
 21
31.59677288145924
 31
0.0
  0
LINE
  5
429C
330
1F
100
AcDbEntity
  8
AM_0
100
AcDbLine
 10
-56.81790164487295
 20
31.59677288145924
 30
0.0
 11
-56.81790164487295
 21
31.59677288145924
 31
0.0
  0
LINE
  5
429D
330
1F
100
AcDbEntity
  8
AM_0
100
AcDbLine
 10
-56.81790164487295
 20
31.59677288145924
 30
0.0
 11
-56.81790164487295
 21
31.59677288145924
 31
0.0
  0
LINE
  5
429E
330
1F
100
AcDbEntity
  8
AM_0
100
AcDbLine
 10
-56.81790164487295
 20
31.59677288145924
 30
0.0
 11
-56.81790164487295
 21
31.59677288145924
 31
0.0
  0
LINE
  5
429F
330
1F
100
AcDbEntity
  8
AM_0
100
AcDbLine
 10
-56.81790164487295
 20
31.59677288145924
 30
0.0
 11
-56.81790164487295
 21
31.59677288145924
 31
0.0
  0
LINE
  5
42A0
330
1F
100
AcDbEntity
  8
AM_0
100
AcDbLine
 10
-56.81790164487295
 20
31.59677288145924
 30
0.0
 11
-56.81790164487295
 21
31.59677288145924
 31
0.0
  0
LINE
  5
42A1
330
1F
100
AcDbEntity
  8
AM_0
100
AcDbLine
 10
-56.81790164487295
 20
31.59677288145924
 30
0.0
 11
-56.81790164487295
 21
31.59677288145924
 31
0.0
  0
LINE
  5
42A2
330
1F
100
AcDbEntity
  8
AM_0
100
AcDbLine
 10
-56.81790164487295
 20
31.59677288145924
 30
0.0
 11
-56.81790164487295
 21
31.59677288145924
 31
0.0
  0
LINE
  5
42A3
330
1F
100
AcDbEntity
  8
AM_0
100
AcDbLine
 10
-56.81790164487295
 20
31.59677288145924
 30
0.0
 11
-56.81790164487295
 21
31.59677288145924
 31
0.0
  0
LINE
  5
42A4
330
1F
100
AcDbEntity
  8
AM_0
100
AcDbLine
 10
-56.81790164487295
 20
31.59677288145924
 30
0.0
 11
-56.81790164487295
 21
31.59677288145924
 31
0.0
  0
LINE
  5
42A5
330
1F
100
AcDbEntity
  8
AM_0
100
AcDbLine
 10
-56.81790164487295
 20
31.59677288145924
 30
0.0
 11
-56.81790164487295
 21
31.59677288145924
 31
0.0
  0
LINE
  5
42A6
330
1F
100
AcDbEntity
  8
AM_0
100
AcDbLine
 10
-56.81790164487295
 20
31.59677288145924
 30
0.0
 11
-56.81790164487295
 21
31.59677288145924
 31
0.0
  0
LINE
  5
42A7
330
1F
100
AcDbEntity
  8
AM_0
100
AcDbLine
 10
-56.81790164487295
 20
31.59677288145924
 30
0.0
 11
-56.81790164487295
 21
31.59677288145924
 31
0.0
  0
LINE
  5
42A8
330
1F
100
AcDbEntity
  8
AM_0
100
AcDbLine
 10
-56.81790164487295
 20
31.59677288145924
 30
0.0
 11
-56.81790164487295
 21
31.59677288145924
 31
0.0
  0
LINE
  5
42A9
330
1F
100
AcDbEntity
  8
AM_0
100
AcDbLine
 10
-56.81790164487295
 20
31.59677288145924
 30
0.0
 11
-56.81790164487295
 21
31.59677288145924
 31
0.0
  0
LINE
  5
42AA
330
1F
100
AcDbEntity
  8
AM_0
100
AcDbLine
 10
-56.81790164487295
 20
31.59677288145924
 30
0.0
 11
-56.81790164487295
 21
31.59677288145924
 31
0.0
  0
LINE
  5
42AB
330
1F
100
AcDbEntity
  8
AM_0
100
AcDbLine
 10
-56.81790164487295
 20
31.59677288145924
 30
0.0
 11
-56.81790164487295
 21
31.59677288145924
 31
0.0
  0
LINE
  5
42AC
330
1F
100
AcDbEntity
  8
AM_0
100
AcDbLine
 10
-56.81790164487295
 20
31.59677288145924
 30
0.0
 11
-56.81790164487295
 21
31.59677288145924
 31
0.0
  0
LINE
  5
42AF
330
1F
100
AcDbEntity
  8
AM_0
100
AcDbLine
 10
-53.78215409007639
 20
38.48574156491483
 30
0.0
 11
-53.16766365925226
 21
41.97175370796634
 31
0.0
  0
LINE
  5
42B9
330
1F
100
AcDbEntity
  8
AM_0
100
AcDbLine
 10
-53.6658121084282
 20
44.33284210135204
 30
0.0
 11
-53.30505146763149
 21
46.37943844816201
 31
0.0
  0
ARC
  5
42C7
330
1F
100
AcDbEntity
  8
AM_0
100
AcDbCircle
 10
-77.55403888135952
 20
34.32933602856167
 30
0.0
 40
16.1356522563305
100
AcDbArc
 50
350.0035144031805
 51
350.0774490281878
  0
ARC
  5
42C8
330
1F
100
AcDbEntity
  8
AM_0
100
AcDbCircle
 10
-61.65956341734322
 20
31.54885830078603
 30
0.0
 40
0.0001906016789049
100
AcDbArc
 50
140.1828716779043
 51
169.8389013505561
  0
ARC
  5
42C9
330
1F
100
AcDbEntity
  8
AM_0
100
AcDbCircle
 10
-61.65973420537625
 20
31.54900137925322
 30
0.0
 40
0.0000322024843743
100
AcDbArc
 50
319.2306749236981
 51
75.00000255000001
  0
ARC
  5
42CA
330
1F
100
AcDbEntity
  8
AM_0
100
AcDbCircle
 10
-64.10631828839128
 20
17.66680667631682
 30
0.0
 40
0.0038449999999983
100
AcDbArc
 50
255.00000255
 51
19.86384721564429
  0
ARC
  5
42CB
330
1F
100
AcDbEntity
  8
AM_0
100
AcDbCircle
 10
-64.07672953669912
 20
17.67749576693757
 30
0.0
 40
0.0276160090708311
100
AcDbArc
 50
169.9981411118118
 51
199.8623325959013
  0
ARC
  5
42CC
330
1F
100
AcDbEntity
  8
AM_0
100
AcDbCircle
 10
-72.71221460306434
 20
34.37707662114088
 30
0.0
 40
16.1356522563305
100
AcDbArc
 50
350.0035144031805
 51
350.0774490281878
  0
ARC
  5
42CD
330
1F
100
AcDbEntity
  8
AM_0
100
AcDbCircle
 10
-59.55319343607495
 20
16.03896614319561
 30
0.0
 40
0.0788730000000015
100
AcDbArc
 50
255.00000255
 51
19.87442792141505
  0
ARC
  5
42CE
330
1F
100
AcDbEntity
  8
AM_0
100
AcDbCircle
 10
-58.94626148764532
 20
16.25836754075817
 30
0.0
 40
0.5664977117208829
100
AcDbArc
 50
170.0035023033092
 51
199.874564001077
  0
ARC
  5
42F6
330
1F
100
AcDbEntity
  8
AM_0
100
AcDbCircle
 10
-57.1799148570788
 20
19.21073905425072
 30
0.0
 40
0.0566324669072447
100
AcDbArc
 50
140.0133022507916
 51
260.003179386199
  0
ARC
  5
42F7
330
1F
100
AcDbEntity
  8
AM_0
100
AcDbCircle
 10
-57.50379945044683
 20
19.48238256660438
 30
0.0
 40
0.36608662140674
100
AcDbArc
 50
320.0132801144487
 51
350.0069811109047
  0
ARC
  5
42F8
330
1F
100
AcDbEntity
  8
AM_0
100
AcDbCircle
 10
-166.2484822483921
 20
61.90487887321628
 30
0.0
 40
114.82421787952
100
AcDbArc
 50
350.0029848760074
 51
350.0893018438105
  0
ARC
  5
42F9
330
1F
100
AcDbEntity
  8
AM_0
100
AcDbCircle
 10
-53.13670466199957
 20
42.14195023526671
 30
0.0
 40
0.0010725096736153
100
AcDbArc
 50
140.250980138814
 51
170.1316018640252
  0
ARC
  5
42FA
330
1F
100
AcDbEntity
  8
AM_0
100
AcDbCircle
 10
-53.13765700150501
 20
42.14274272215391
 30
0.0
 40
0.0001664361739553
100
AcDbArc
 50
320.1286878717961
 51
80.19443145695649
  0
ARC
  5
42FD
330
1F
100
AcDbEntity
  8
AM_0
100
AcDbCircle
 10
-47.10336456728987
 20
42.38765122802273
 30
0.0
 40
3.0
100
AcDbArc
 50
75.00000255000001
 51
77.50175790815359
  0
ARC
  5
42FE
330
1F
100
AcDbEntity
  8
AM_0
100
AcDbCircle
 10
-47.10336456728987
 20
42.38765122802273
 30
0.0
 40
3.00000034606348
100
AcDbArc
 50
77.50175790815359
 51
80.00350674020187
  0
ARC
  5
42FF
330
1F
100
AcDbEntity
  8
AM_0
100
AcDbCircle
 10
-47.10336456728987
 20
42.38765122802273
 30
0.0
 40
2.99999998940417
100
AcDbArc
 50
350.0035257660173
 51
7.002822797630719
  0
ARC
  5
4300
330
1F
100
AcDbEntity
  8
AM_0
100
AcDbCircle
 10
-47.10336456728987
 20
42.38765122802273
 30
0.0
 40
3.00000081647622
100
AcDbArc
 50
7.002822797630719
 51
24.00210435613397
  0
ARC
  5
4301
330
1F
100
AcDbEntity
  8
AM_0
100
AcDbCircle
 10
-47.10336456728987
 20
42.38765122802273
 30
0.0
 40
3.00000048139496
100
AcDbArc
 50
24.00210435613397
 51
49.50105076352355
  0
ARC
  5
4302
330
1F
100
AcDbEntity
  8
AM_0
100
AcDbCircle
 10
-47.10336456728987
 20
42.38765122802273
 30
0.0
 40
3.00000057510928
100
AcDbArc
 50
49.50105076352355
 51
75.00000255000001
  0
ARC
  5
4303
330
1F
100
AcDbEntity
  8
AM_0
100
AcDbCircle
 10
-47.10373355095992
 20
42.38775009688153
 30
0.0
 40
3.0
100
AcDbArc
 50
75.00000255000001
 51
77.50175790815359
  0
ARC
  5
4304
330
1F
100
AcDbEntity
  8
AM_0
100
AcDbCircle
 10
-47.10373355095992
 20
42.38775009688153
 30
0.0
 40
3.00000034606348
100
AcDbArc
 50
77.50175790815359
 51
80.00350674020187
  0
ARC
  5
4307
330
1F
100
AcDbEntity
  8
AM_0
100
AcDbCircle
 10
-57.17647618391985
 20
19.23024883989551
 30
0.0
 40
0.0764432861211504
100
AcDbArc
 50
260.0034098162572
 51
19.99503147435961
  0
ARC
  5
4308
330
1F
100
AcDbEntity
  8
AM_0
100
AcDbCircle
 10
-56.64027876404657
 20
19.42535793779524
 30
0.0
 40
0.4941488309740321
100
AcDbArc
 50
170.0005951693661
 51
199.9952333698927
  0
ARC
  5
4309
330
1F
100
AcDbEntity
  8
AM_0
100
AcDbCircle
 10
80.53196873285367
 20
22.78754958659439
 30
0.0
 40
135.90042350308
100
AcDbArc
 50
169.942350385832
 51
170.002984769052
  0
ARC
  5
430A
330
1F
100
AcDbEntity
  8
AM_0
100
AcDbCircle
 10
-53.28219859030098
 20
46.52144960028647
 30
0.0
 40
0.0022232197372277
100
AcDbArc
 50
349.9284405821902
 51
19.69841745303538
  0
ARC
  5
430B
330
1F
100
AcDbEntity
  8
AM_0
100
AcDbCircle
 10
-53.27981528163146
 20
46.52230386300119
 30
0.0
 40
0.0003089999999997
100
AcDbArc
 50
75.00000255000001
 51
199.8707299321883
  0
SPLINE
  5
4318
330
1F
100
AcDbEntity
  8
AM_0
100
AcDbSpline
210
0.0
220
0.0
230
1.0
 70
     8
 71
     3
 72
    11
 73
     7
 74
     5
 42
0.0000000001
 43
0.0000000001
 44
0.0000000001
 40
0.0
 40
0.0
 40
0.0
 40
0.0
 40
0.2585696553271593
 40
0.5219745616235123
 40
0.7947483651769405
 40
1.080925994479099
 40
1.080925994479099
 40
1.080925994479099
 40
1.080925994479099
 10
-51.03403919393497
 20
44.98031951214555
 30
0.0
 10
-51.01549586941061
 20
45.0646564961888
 30
0.0
 10
-50.97806246030699
 20
45.23490756535976
 30
0.0
 10
-50.87451582499874
 20
45.48006269876093
 30
0.0
 10
-50.7386253549837
 20
45.71912266413789
 30
0.0
 10
-50.62248452265025
 20
45.8651466021145
 30
0.0
 10
-50.56302156020188
 20
45.93990942037588
 30
0.0
 11
-51.03403919393497
 21
44.98031951214555
 31
0.0
 11
-50.9709066947095
 21
45.23106351346473
 31
0.0
 11
-50.87121305310214
 21
45.474873526557
 31
0.0
 11
-50.73517774995415
 21
45.71130521690844
 31
0.0
 11
-50.56302156020188
 21
45.93990942037588
 31
0.0
  0
SPLINE
  5
4319
330
1F
100
AcDbEntity
  8
AM_0
100
AcDbSpline
210
0.0
220
0.0
230
1.0
 70
     8
 71
     3
 72
    11
 73
     7
 74
     5
 42
0.0000000001
 43
0.0000000001
 44
0.0000000001
 40
0.0
 40
0.0
 40
0.0
 40
0.0
 40
0.0458634139265703
 40
0.1829835642656138
 40
0.410660786905464
 40
0.7280860480568105
 40
0.7280860480568105
 40
0.7280860480568105
 40
0.7280860480568105
 10
-54.13606742521634
 20
27.38058309011246
 30
0.0
 10
-54.12101196998594
 20
27.37792786155429
 30
0.0
 10
-54.06094446467313
 20
27.36733416291923
 30
0.0
 10
-53.92613582472671
 20
27.34357154602464
 30
0.0
 10
-53.70218168910942
 20
27.30409070894287
 30
0.0
 10
-53.52323965010146
 20
27.2725480782145
 30
0.0
 10
-53.41903773366913
 20
27.25418010504601
 30
0.0
 11
-54.13606742521634
 21
27.38058309011246
 31
0.0
 11
-54.09090099888029
 21
27.37261774837278
 31
0.0
 11
-53.95586328011711
 21
27.34881123371313
 31
0.0
 11
-53.73164330719493
 21
27.30928502150186
 31
0.0
 11
-53.41903773366913
 21
27.25418010504601
 31
0.0
  0
SPLINE
  5
431A
330
1F
100
AcDbEntity
  8
AM_0
100
AcDbSpline
210
0.0
220
0.0
230
1.0
 70
     8
 71
     3
 72
    11
 73
     7
 74
     5
 42
0.0000000001
 43
0.0000000001
 44
0.0000000001
 40
0.0
 40
0.0
 40
0.0
 40
0.0
 40
0.1044842590632777
 40
0.219982523071861
 40
0.3464264406203301
 40
0.4837458423813271
 40
0.4837458423813271
 40
0.4837458423813271
 40
0.4837458423813271
 10
-50.40745006987727
 20
46.01628913735741
 30
0.0
 10
-50.37315066512944
 20
46.0102437727648
 30
0.0
 10
-50.30093625059527
 20
45.99751578322938
 30
0.0
 10
-50.18721352727977
 20
45.97747261154748
 30
0.0
 10
-50.06271217386636
 20
45.9555280714277
 30
0.0
 10
-49.97612566911484
 20
45.9402670704135
 30
0.0
 10
-49.93104735017273
 20
45.93232194925323
 30
0.0
 11
-50.40745006987727
 21
46.01628913735741
 31
0.0
 11
-50.30455183673792
 21
45.99815315078924
 31
0.0
 11
-50.19080674024512
 21
45.97810565686003
 31
0.0
 11
-50.06628227508882
 21
45.95615749378104
 31
0.0
 11
-49.93104735017273
 21
45.93232194925323
 31
0.0
  0
SPLINE
  5
431B
330
1F
100
AcDbEntity
  8
AM_0
100
AcDbSpline
210
0.0
220
0.0
230
1.0
 70
     8
 71
     3
 72
    11
 73
     7
 74
     5
 42
0.0000000001
 43
0.0000000001
 44
0.0000000001
 40
0.0
 40
0.0
 40
0.0
 40
0.0
 40
0.5948795215503882
 40
1.126841514841251
 40
1.611365253041968
 40
2.069966783213865
 40
2.069966783213865
 40
2.069966783213865
 40
2.069966783213865
 10
-50.43789083513212
 20
43.0542094004638
 30
0.0
 10
-50.55038774304224
 20
43.21811744181963
 30
0.0
 10
-50.76348330530671
 20
43.5285977641792
 30
0.0
 10
-50.97298854675318
 20
44.02611855584723
 30
0.0
 10
-51.08033217639508
 20
44.51278587000803
 30
0.0
 10
-51.04918482189505
 20
44.82735700624659
 30
0.0
 10
-51.03403919393497
 20
44.98031951214555
 30
0.0
 11
-50.43789083513212
 21
43.0542094004638
 31
0.0
 11
-50.756824027582
 21
43.55636800480485
 31
0.0
 11
-50.96321933947655
 21
44.04665826325788
 31
0.0
 11
-51.05588358592316
 21
44.52223853020603
 31
0.0
 11
-51.03403919393497
 21
44.98031951214555
 31
0.0
  0
SPLINE
  5
4321
330
1F
100
AcDbEntity
  8
AM_0
100
AcDbSpline
210
0.0
220
0.0
230
1.0
 70
     8
 71
     3
 72
    11
 73
     7
 74
     5
 42
0.0000000001
 43
0.0000000001
 44
0.0000000001
 40
0.0
 40
0.0
 40
0.0
 40
0.0
 40
0.0722474180161505
 40
0.274071757410585
 40
0.563803430875881
 40
0.8817088824884611
 40
0.8817088824884611
 40
0.8817088824884611
 40
0.8817088824884611
 10
-58.97011852978564
 20
19.38657628885113
 30
0.0
 10
-58.96593442839042
 20
19.41029250242649
 30
0.0
 10
-58.95006197157382
 20
19.50026034504575
 30
0.0
 10
-58.91743866325621
 20
19.68534164507324
 30
0.0
 10
-58.87059439421084
 20
19.95106464021868
 30
0.0
 10
-58.83543623465853
 20
20.15053561007482
 30
0.0
 10
-58.81704208109376
 20
20.25489544284111
 30
0.0
 11
-58.97011852978564
 21
19.38657628885113
 31
0.0
 11
-58.9575671891922
 21
19.45772509951798
 31
0.0
 11
-58.92252457509376
 21
19.6564839462875
 31
0.0
 11
-58.87222628044407
 21
19.94181625109075
 31
0.0
 11
-58.81704208109376
 21
20.25489544284111
 31
0.0
  0
SPLINE
  5
4322
330
1F
100
AcDbEntity
  8
AM_0
100
AcDbSpline
210
0.0
220
0.0
230
1.0
 70
     8
 71
     3
 72
    11
 73
     7
 74
     5
 42
0.0000000001
 43
0.0000000001
 44
0.0000000001
 40
0.0
 40
0.0
 40
0.0
 40
0.0
 40
0.0604611154710264
 40
0.1262773163717149
 40
0.1950665157056244
 40
0.2644280121211448
 40
0.2644280121211448
 40
0.2644280121211448
 40
0.2644280121211448
 10
-58.32483528652755
 20
19.29592899309282
 30
0.0
 10
-58.34479301154548
 20
19.29873274838013
 30
0.0
 10
-58.38647613195293
 20
19.30458858962101
 30
0.0
 10
-58.45086633497599
 20
19.31363207321488
 30
0.0
 10
-58.5181940471802
 20
19.32309138648562
 30
0.0
 10
-58.56379650850418
 20
19.32949758510154
 30
0.0
 10
-58.5866921945556
 20
19.33271395342981
 30
0.0
 11
-58.32483528652755
 21
19.29592899309282
 31
0.0
 11
-58.38470850973799
 21
19.30433991613331
 31
0.0
 11
-58.44988489640376
 21
19.3134947466721
 31
0.0
 11
-58.51800516387667
 21
19.32306465285868
 31
0.0
 11
-58.5866921945556
 21
19.33271395342981
 31
0.0
  0
SPLINE
  5
4325
330
1F
100
AcDbEntity
  8
AM_0
100
AcDbSpline
210
0.0
220
0.0
230
1.0
 70
     8
 71
     3
 72
    11
 73
     7
 74
     5
 42
0.0000000001
 43
0.0000000001
 44
0.0000000001
 40
0.0
 40
0.0
 40
0.0
 40
0.0
 40
0.008440833371184
 40
0.0144787364840101
 40
0.0181066397352075
 40
0.0193174741582525
 40
0.0193174741582525
 40
0.0193174741582525
 40
0.0193174741582525
 10
-55.04976963147816
 20
22.19943117258675
 30
0.0
 10
-55.05016132776135
 20
22.19664495974429
 30
0.0
 10
-55.05083321251689
 20
22.19186571108951
 30
0.0
 10
-55.05167464569103
 20
22.18588910622074
 30
0.0
 10
-55.05217880004452
 20
22.18229878204182
 30
0.0
 10
-55.05240555793942
 20
22.18070188876455
 30
0.0
 10
-55.05246230130585
 20
22.18030228591764
 30
0.0
 11
-55.04976963147816
 21
22.19943117258675
 31
0.0
 11
-55.05094504531662
 21
22.19107257998342
 31
0.0
 11
-55.05178619210547
 21
22.18509355447089
 31
0.0
 11
-55.05229222603761
 21
22.181501116349
 31
0.0
 11
-55.05246230130585
 21
22.18030228591764
 31
0.0
  0
SPLINE
  5
4327
330
1F
100
AcDbEntity
  8
AM_0
100
AcDbSpline
210
0.0
220
0.0
230
1.0
 70
     8
 71
     3
 72
    11
 73
     7
 74
     5
 42
0.0000000001
 43
0.0000000001
 44
0.0000000001
 40
0.0
 40
0.0
 40
0.0
 40
0.0
 40
0.2394151995446352
 40
0.4787734705464978
 40
0.7181591373062501
 40
0.9575630120660235
 40
0.9575630120660235
 40
0.9575630120660235
 40
0.9575630120660235
 10
-57.45433826134688
 20
19.60425476401963
 30
0.0
 10
-57.51300809740148
 20
19.54953704627529
 30
0.0
 10
-57.63033381889987
 20
19.44011462165618
 30
0.0
 10
-57.84902273159452
 20
19.33556640374468
 30
0.0
 10
-58.08476060602702
 20
19.27917604603378
 30
0.0
 10
-58.2448083641961
 20
19.2903445358301
 30
0.0
 10
-58.32483528652755
 20
19.29592899309282
 30
0.0
 11
-57.45433826134688
 21
19.60425476401963
 31
0.0
 11
-57.63746623802189
 21
19.45003484983241
 31
0.0
 11
-57.85185600609211
 21
19.34359515214495
 31
0.0
 11
-58.08547487123194
 21
19.29136754162342
 31
0.0
 11
-58.32483528652755
 21
19.29592899309282
 31
0.0
  0
SPLINE
  5
4328
330
1F
100
AcDbEntity
  8
AM_0
100
AcDbSpline
210
0.0
220
0.0
230
1.0
 70
     8
 71
     3
 72
    11
 73
     7
 74
     5
 42
0.0000000001
 43
0.0000000001
 44
0.0000000001
 40
0.0
 40
0.0
 40
0.0
 40
0.0
 40
0.0492760926312113
 40
0.1942980192526692
 40
0.4282374066375213
 40
0.7393423866876685
 40
0.7393423866876685
 40
0.7393423866876685
 40
0.7393423866876685
 10
-54.34936190194637
 20
27.18564127469958
 30
0.0
 10
-54.35947143084964
 20
27.1726956184721
 30
0.0
 10
-54.39933379283078
 20
27.12165026912284
 30
0.0
 10
-54.48720839061121
 20
27.00915840610623
 30
0.0
 10
-54.62880529583195
 20
26.82788380251232
 30
0.0
 10
-54.74064799267451
 20
26.68470781790965
 30
0.0
 10
-54.80448650206725
 20
26.60298463261541
 30
0.0
 11
-54.34936190194637
 21
27.18564127469958
 31
0.0
 11
-54.379690985162
 21
27.14680469379577
 31
0.0
 11
-54.46896205473009
 21
27.0325154320991
 31
0.0
 11
-54.61297205019392
 21
26.84815502914741
 31
0.0
 11
-54.80448650206725
 21
26.60298463261541
 31
0.0
  0
SPLINE
  5
4329
330
1F
100
AcDbEntity
  8
AM_0
100
AcDbSpline
210
0.0
220
0.0
230
1.0
 70
     8
 71
     3
 72
    11
 73
     7
 74
     5
 42
0.0000000001
 43
0.0000000001
 44
0.0000000001
 40
0.0
 40
0.0
 40
0.0
 40
0.0
 40
0.1095452783099344
 40
0.1905418924675589
 40
0.2402523399107372
 40
0.2569700835981962
 40
0.2569700835981962
 40
0.2569700835981962
 40
0.2569700835981962
 10
-54.72501290047656
 20
26.29575682418297
 30
0.0
 10
-54.69139981422176
 20
26.28149104580572
 30
0.0
 10
-54.63293356934588
 20
26.25667730256219
 30
0.0
 10
-54.55921417126034
 20
26.22538967651184
 30
0.0
 10
-54.5139775838083
 20
26.20619206761614
 30
0.0
 10
-54.4935953485177
 20
26.19753961169684
 30
0.0
 10
-54.48846582474826
 20
26.19536207926875
 30
0.0
 11
-54.72501290047656
 21
26.29575682418297
 31
0.0
 11
-54.62417366718334
 21
26.25295942906553
 31
0.0
 11
-54.54961409417442
 21
26.22131576338462
 31
0.0
 11
-54.50385445517524
 21
26.20189453727331
 31
0.0
 11
-54.48846582474826
 21
26.19536207926875
 31
0.0
  0
SPLINE
  5
432A
330
1F
100
AcDbEntity
  8
AM_0
100
AcDbSpline
210
0.0
220
0.0
230
1.0
 70
     8
 71
     3
 72
    11
 73
     7
 74
     5
 42
0.0000000001
 43
0.0000000001
 44
0.0000000001
 40
0.0
 40
0.0
 40
0.0
 40
0.0
 40
0.0492760926312288
 40
0.194297098702756
 40
0.4282364860875993
 40
0.7393414661377464
 40
0.7393414661377464
 40
0.7393414661377464
 40
0.7393414661377464
 10
-54.62756878162429
 20
25.20508262501893
 30
0.0
 10
-54.63767830475836
 20
25.19213696428512
 30
0.0
 10
-54.67754045513053
 20
25.14109183901122
 30
0.0
 10
-54.76541540687701
 20
25.02860064184052
 30
0.0
 10
-54.9070118317149
 20
24.84732605238278
 30
0.0
 10
-55.01885458265513
 20
24.70415011003579
 30
0.0
 10
-55.08269312292617
 20
24.62242694886059
 30
0.0
 11
-54.62756878162429
 21
25.20508262501893
 31
0.0
 11
-54.65789786483995
 21
25.16624604411511
 31
0.0
 11
-54.74716867558902
 21
25.05195774834427
 31
0.0
 11
-54.89117867105284
 21
24.86759734539259
 31
0.0
 11
-55.08269312292617
 21
24.62242694886059
 31
0.0
  0
SPLINE
  5
432B
330
1F
100
AcDbEntity
  8
AM_0
100
AcDbSpline
210
0.0
220
0.0
230
1.0
 70
     8
 71
     3
 72
    11
 73
     7
 74
     5
 42
0.0000000001
 43
0.0000000001
 44
0.0000000001
 40
0.0
 40
0.0
 40
0.0
 40
0.0
 40
0.1095452783099344
 40
0.1905420315905397
 40
0.2402524790337125
 40
0.2569700835570934
 40
0.2569700835570934
 40
0.2569700835570934
 40
0.2569700835570934
 10
-55.0032195213355
 20
24.31519914042814
 30
0.0
 10
-54.96960639575205
 20
24.30093345472531
 30
0.0
 10
-54.91114003977951
 20
24.27611985456117
 30
0.0
 10
-54.83742096284289
 20
24.24483135304259
 30
0.0
 10
-54.79218484364002
 20
24.22563264105138
 30
0.0
 10
-54.77180207232206
 20
24.21698156668822
 30
0.0
 10
-54.76667244560719
 20
24.21480439551393
 30
0.0
 11
-55.0032195213355
 21
24.31519914042814
 31
0.0
 11
-54.90238028804228
 21
24.27240174531071
 31
0.0
 11
-54.82782097385235
 21
24.24075711370396
 31
0.0
 11
-54.78206133485318
 21
24.22133588759267
 31
0.0
 11
-54.76667244560719
 21
24.21480439551393
 31
0.0
  0
SPLINE
  5
432C
330
1F
100
AcDbEntity
  8
AM_0
100
AcDbSpline
210
0.0
220
0.0
230
1.0
 70
     8
 71
     3
 72
    11
 73
     7
 74
     5
 42
0.0000000001
 43
0.0000000001
 44
0.0000000001
 40
0.0
 40
0.0
 40
0.0
 40
0.0
 40
0.8933277519079934
 40
1.677895993015162
 40
2.2812351791029
 40
2.650157531666418
 40
2.650157531666418
 40
2.650157531666418
 40
2.650157531666418
 10
-53.45126260077475
 20
40.35950135483662
 30
0.0
 10
-53.39957347941183
 20
40.6527567583134
 30
0.0
 10
-53.30248820535415
 20
41.20356475165382
 30
0.0
 10
-53.17050886685483
 20
41.95243553337451
 30
0.0
 10
-53.06887020999791
 20
42.52915779739938
 30
0.0
 10
-53.01263995653275
 20
42.8483296297661
 30
0.0
 10
-52.99130351919678
 20
42.969438630367
 30
0.0
 11
-53.45126260077475
 21
40.35950135483662
 31
0.0
 11
-53.29619855923922
 21
41.23926815084091
 31
0.0
 11
-53.16002437399342
 21
42.01192843597703
 31
0.0
 11
-53.05531548433275
 21
42.60611209604776
 31
0.0
 11
-52.99130351919678
 21
42.969438630367
 31
0.0
  0
SPLINE
  5
432D
330
1F
100
AcDbEntity
  8
AM_0
100
AcDbSpline
210
0.0
220
0.0
230
1.0
 70
     8
 71
     3
 72
    11
 73
     7
 74
     5
 42
0.0000000001
 43
0.0000000001
 44
0.0000000001
 40
0.0
 40
0.0
 40
0.0
 40
0.0
 40
0.1041256045552777
 40
0.3470644525808658
 40
0.6922322019622251
 40
1.084116368789626
 40
1.084116368789626
 40
1.084116368789626
 40
1.084116368789626
 10
-55.69023938251921
 20
27.65705486946494
 30
0.0
 10
-55.68420949578677
 20
27.69123560759462
 30
0.0
 10
-55.66411108342359
 20
27.8051645419663
 30
0.0
 10
-55.62405468888961
 20
28.03240518559425
 30
0.0
 10
-55.56734150209945
 20
28.35410802063353
 30
0.0
 10
-55.52469370775599
 20
28.59606210676284
 30
0.0
 10
-55.50201824218054
 20
28.72470701408631
 30
0.0
 11
-55.69023938251921
 21
27.65705486946494
 31
0.0
 11
-55.67215110292727
 21
27.75959732733194
 31
0.0
 11
-55.62996965834296
 21
27.99884617186996
 31
0.0
 11
-55.57004640387569
 21
28.33877260330336
 31
0.0
 11
-55.50201824218054
 21
28.72470701408631
 31
0.0
  0
SPLINE
  5
432E
330
1F
100
AcDbEntity
  8
AM_0
100
AcDbSpline
210
0.0
220
0.0
230
1.0
 70
     8
 71
     3
 72
    11
 73
     7
 74
     5
 42
0.0000000001
 43
0.0000000001
 44
0.0000000001
 40
0.0
 40
0.0
 40
0.0
 40
0.0
 40
0.049069226690463
 40
0.1153262470053084
 40
0.2037592026722978
 40
0.3146991399807237
 40
0.3146991399807237
 40
0.3146991399807237
 40
0.3146991399807237
 10
-53.41903773366913
 20
27.25418010504601
 30
0.0
 10
-53.40239050675794
 20
27.25504860620629
 30
0.0
 10
-53.36326492169782
 20
27.2570898240141
 30
0.0
 10
-53.30710737811057
 20
27.30043817113426
 30
0.0
 10
-53.2464145352016
 20
27.36402705660568
 30
0.0
 10
-53.209006077201
 20
27.4192949523684
 30
0.0
 10
-53.18819034882664
 20
27.45004846554455
 30
0.0
 11
-53.41903773366913
 21
27.25418010504601
 31
0.0
 11
-53.37042499662853
 21
27.2608577397636
 31
0.0
 11
-53.3145564885517
 21
27.29647659075955
 31
0.0
 11
-53.25315964451121
 21
27.36012260548056
 31
0.0
 11
-53.18819034882664
 21
27.45004846554455
 31
0.0
  0
SPLINE
  5
432F
330
1F
100
AcDbEntity
  8
AM_0
100
AcDbSpline
210
0.0
220
0.0
230
1.0
 70
     8
 71
     3
 72
    11
 73
     7
 74
     5
 42
0.0000000001
 43
0.0000000001
 44
0.0000000001
 40
0.0
 40
0.0
 40
0.0
 40
0.0
 40
0.6283778260664504
 40
1.257564171412556
 40
1.886865788732117
 40
2.516250711256474
 40
2.516250711256474
 40
2.516250711256474
 40
2.516250711256474
 10
-53.18819034882664
 20
27.45004846554455
 30
0.0
 10
-53.39766587047881
 20
27.44147456567571
 30
0.0
 10
-53.81688644111342
 20
27.4243157340985
 30
0.0
 10
-54.44481691934957
 20
27.47636080872032
 30
0.0
 10
-55.06911327273409
 20
27.55508872204857
 30
0.0
 10
-55.48318821084661
 20
27.62306465401448
 30
0.0
 10
-55.69023938251921
 20
27.65705486946494
 30
0.0
 11
-53.18819034882664
 21
27.45004846554455
 31
0.0
 11
-53.81643826492795
 21
27.43727160339642
 31
0.0
 11
-54.44411718241061
 21
27.4807989938281
 31
0.0
 11
-55.06854648957122
 21
27.55895630903233
 31
0.0
 11
-55.69023938251921
 21
27.65705486946494
 31
0.0
  0
SPLINE
  5
4332
330
1F
100
AcDbEntity
  8
AM_0
100
AcDbSpline
210
0.0
220
0.0
230
1.0
 70
     8
 71
     3
 72
    11
 73
     7
 74
     5
 42
0.0000000001
 43
0.0000000001
 44
0.0000000001
 40
0.0
 40
0.0
 40
0.0
 40
0.0
 40
0.0544562417450967
 40
0.1009054370987094
 40
0.141956097799873
 40
0.181341221514275
 40
0.181341221514275
 40
0.181341221514275
 40
0.181341221514275
 10
-50.56302156020188
 20
45.93990942037588
 30
0.0
 10
-50.55075005574222
 20
45.9533709206258
 30
0.0
 10
-50.52801140390585
 20
45.97831459141899
 30
0.0
 10
-50.48847796050388
 20
46.0049599439166
 30
0.0
 10
-50.44765888713938
 20
46.01953894362817
 30
0.0
 10
-50.42066670516233
 20
46.01735734844026
 30
0.0
 10
-50.40745006987727
 20
46.01628913735741
 30
0.0
 11
-50.56302156020188
 21
45.93990942037588
 31
0.0
 11
-50.52464519821039
 21
45.97854537649578
 31
0.0
 11
-50.4859090500825
 21
46.00417814024087
 31
0.0
 11
-50.44683243931144
 21
46.0167549138593
 31
0.0
 11
-50.40745006987727
 21
46.01628913735741
 31
0.0
  0
SPLINE
  5
4339
330
1F
100
AcDbEntity
  8
AM_0
100
AcDbSpline
210
0.0
220
0.0
230
1.0
 70
     8
 71
     3
 72
    11
 73
     7
 74
     5
 42
0.0000000001
 43
0.0000000001
 44
0.0000000001
 40
0.0
 40
0.0
 40
0.0
 40
0.0
 40
1.123990362572563
 40
2.225082558087998
 40
3.317198041049841
 40
4.411342697998833
 40
4.411342697998833
 40
4.411342697998833
 40
4.411342697998833
 10
-51.37931661933789
 20
18.13079791723917
 30
0.0
 10
-51.00222232372761
 20
18.09869821918741
 30
0.0
 10
-50.25571597646993
 20
18.03515276485508
 30
0.0
 10
-49.18608447749642
 20
18.40928268190425
 30
0.0
 10
-48.30709945277748
 20
19.1420601870133
 30
0.0
 10
-48.0809792744882
 20
19.84902136501905
 30
0.0
 10
-47.96781424879566
 20
20.20283003648707
 30
0.0
 11
-51.37931661933789
 21
18.13079791723917
 31
0.0
 11
-50.25544081559806
 21
18.114750708006
 31
0.0
 11
-49.21363062001245
 21
18.47117116112124
 31
0.0
 11
-48.39708838627304
 21
19.19641250622287
 31
0.0
 11
-47.96781424879566
 21
20.20283003648707
 31
0.0
  0
SPLINE
  5
433A
330
1F
100
AcDbEntity
  8
AM_0
100
AcDbSpline
210
0.0
220
0.0
230
1.0
 70
     8
 71
     3
 72
    11
 73
     7
 74
     5
 42
0.0000000001
 43
0.0000000001
 44
0.0000000001
 40
0.0
 40
0.0
 40
0.0
 40
0.0
 40
0.0777718874272781
 40
0.1726831831617532
 40
0.2724727203137158
 40
0.3632417811494344
 40
0.3632417811494344
 40
0.3632417811494344
 40
0.3632417811494344
 10
-54.72501290047656
 20
26.29575682418297
 30
0.0
 10
-54.74786386879968
 20
26.30873726606211
 30
0.0
 10
-54.79860171352608
 20
26.33755878623715
 30
0.0
 10
-54.84572085353763
 20
26.42022212148224
 30
0.0
 10
-54.85268023330752
 20
26.52050854526802
 30
0.0
 10
-54.82003598533223
 20
26.57637410657884
 30
0.0
 10
-54.80448650206725
 20
26.60298463261541
 30
0.0
 11
-54.72501290047656
 21
26.29575682418297
 31
0.0
 11
-54.78933150761364
 21
26.33947848071548
 31
0.0
 11
-54.83800420717317
 21
26.42095929057636
 31
0.0
 11
-54.84267420269123
 21
26.52063949356002
 31
0.0
 11
-54.80448650206725
 21
26.60298463261541
 31
0.0
  0
SPLINE
  5
433B
330
1F
100
AcDbEntity
  8
AM_0
100
AcDbSpline
210
0.0
220
0.0
230
1.0
 70
     8
 71
     3
 72
    11
 73
     7
 74
     5
 42
0.0000000001
 43
0.0000000001
 44
0.0000000001
 40
0.0
 40
0.0
 40
0.0
 40
0.0
 40
0.0777728317666194
 40
0.1726827134439198
 40
0.272473203351538
 40
0.3632422641872626
 40
0.3632422641872626
 40
0.3632422641872626
 40
0.3632422641872626
 10
-55.0032195213355
 20
24.31519914042814
 30
0.0
 10
-55.0260708616452
 20
24.32817960475748
 30
0.0
 10
-55.07680877822707
 20
24.357000746424
 30
0.0
 10
-55.12392805532217
 20
24.43966423987932
 30
0.0
 10
-55.13088686067574
 20
24.53995058165051
 30
0.0
 10
-55.09824255563099
 20
24.5958164226479
 30
0.0
 10
-55.08269312292617
 20
24.62242694886059
 30
0.0
 11
-55.0032195213355
 21
24.31519914042814
 31
0.0
 11
-55.0675390943984
 21
24.35892105577965
 31
0.0
 11
-55.11621108685111
 21
24.4404006408957
 31
0.0
 11
-55.12088082355017
 21
24.54008180980519
 31
0.0
 11
-55.08269312292617
 21
24.62242694886059
 31
0.0
  0
LINE
  5
457D
330
1F
100
AcDbEntity
  8
AM_0
100
AcDbLine
 10
-44.88308914604761
 20
37.69850710157447
 30
0.0
 11
-45.52993717217822
 21
34.02873319077192
 31
0.0
  0
LINE
  5
457E
330
1F
100
AcDbEntity
  8
AM_0
100
AcDbLine
 10
-44.39918153418896
 20
40.445940093745
 30
0.0
 11
-44.88308914604761
 21
37.69850710157447
 31
0.0
  0
LINE
  5
457F
330
1F
100
AcDbEntity
  8
AM_0
100
AcDbLine
 10
-45.52993717217822
 20
34.02873319077192
 30
0.0
 11
-45.9575707888478
 21
31.60321437518646
 31
0.0
  0
LINE
  5
4580
330
1F
100
AcDbEntity
  8
AM_0
100
AcDbLine
 10
-44.29533031111254
 20
30.64065763912338
 30
0.0
 11
-44.07835662610179
 21
31.87143855503569
 31
0.0
  0
LINE
  5
4581
330
1F
100
AcDbEntity
  8
AM_0
100
AcDbLine
 10
-44.07835662610179
 20
31.87143855503569
 30
0.0
 11
-43.81018321870477
 21
33.3928748483635
 31
0.0
  0
LINE
  5
4582
330
1F
100
AcDbEntity
  8
AM_0
100
AcDbLine
 10
-46.72209334843522
 20
27.2675315824596
 30
0.0
 11
-46.636970948623
 21
27.75064497187059
 31
0.0
  0
ARC
  5
4583
330
1F
100
AcDbEntity
  8
AM_0
100
AcDbCircle
 10
-44.48367861893823
 20
30.33589834250198
 30
0.0
 40
0.196116876043344
100
AcDbArc
 50
302.5196700446925
 51
11.61940547968879
  0
ARC
  5
4584
330
1F
100
AcDbEntity
  8
AM_0
100
AcDbCircle
 10
-43.59879333014675
 20
30.51785006766675
 30
0.0
 40
0.7072803301803342
100
AcDbArc
 50
170.0008529331819
 51
191.6192872688059
  0
ARC
  5
4585
330
1F
100
AcDbEntity
  8
AM_0
100
AcDbCircle
 10
-25.00252493012773
 20
30.07798334737594
 30
0.0
 40
19.0975525996874
100
AcDbArc
 50
167.4084989925303
 51
170.0041544386324
  0
ARC
  5
4586
330
1F
100
AcDbEntity
  8
AM_0
100
AcDbCircle
 10
-49.83409341483335
 20
35.62462944214575
 30
0.0
 40
6.34595494764673
100
AcDbArc
 50
347.4084969056352
 51
355.2091411146978
  0
ARC
  5
4587
330
1F
100
AcDbEntity
  8
AM_0
100
AcDbCircle
 10
-46.78829880024233
 20
26.89144808121153
 30
0.0
 40
0.102343555561643
100
AcDbArc
 50
140.0162198636698
 51
260.003498439257
  0
ARC
  5
4588
330
1F
100
AcDbEntity
  8
AM_0
100
AcDbCircle
 10
-47.37363389738381
 20
27.38231894022064
 30
0.0
 40
0.6615748799863871
100
AcDbArc
 50
320.0163061603091
 51
350.0082577249086
  0
SPLINE
  5
4589
330
1F
100
AcDbEntity
  8
AM_0
100
AcDbSpline
210
0.0
220
0.0
230
1.0
 70
     8
 71
     3
 72
    11
 73
     7
 74
     5
 42
0.0000000001
 43
0.0000000001
 44
0.0000000001
 40
0.0
 40
0.0
 40
0.0
 40
0.0
 40
0.8585686804676626
 40
1.717122659251176
 40
2.575722033959764
 40
3.434350222023155
 40
3.434350222023155
 40
3.434350222023155
 40
3.434350222023155
 10
-43.51021399798376
 20
35.04968140947587
 30
0.0
 10
-43.52581073763611
 20
35.33651865122969
 30
0.0
 10
-43.55700394987036
 20
35.91018822308537
 30
0.0
 10
-43.82141655922951
 20
36.73488378373897
 30
0.0
 10
-44.22405517492526
 20
37.50166639206805
 30
0.0
 10
-44.61125017362068
 20
37.92615484589239
 30
0.0
 10
-44.80485092134008
 20
38.13840263404963
 30
0.0
 11
-43.51021399798376
 21
35.04968140947587
 31
0.0
 11
-43.59327465225798
 21
35.90422286943643
 31
0.0
 11
-43.84444686998671
 21
36.72521461819292
 31
0.0
 11
-44.25374043024901
 21
37.47998058707187
 31
0.0
 11
-44.80485092134008
 21
38.13840263404963
 31
0.0
  0
SPLINE
  5
458A
330
1F
100
AcDbEntity
  8
AM_0
100
AcDbSpline
210
0.0
220
0.0
230
1.0
 70
     8
 71
     3
 72
    11
 73
     7
 74
     5
 42
0.0000000001
 43
0.0000000001
 44
0.0000000001
 40
0.0
 40
0.0
 40
0.0
 40
0.0
 40
0.9264273733477305
 40
1.852841364019823
 40
2.779210759263987
 40
3.705498643751295
 40
3.705498643751295
 40
3.705498643751295
 40
3.705498643751295
 10
-46.89213820691123
 20
27.64649632929348
 30
0.0
 10
-46.60923833971285
 20
27.77363060824355
 30
0.0
 10
-46.04344269193665
 20
28.02789732962972
 30
0.0
 10
-45.32672669516566
 20
28.62959891791828
 30
0.0
 10
-44.73463915460731
 20
29.35421460030387
 30
0.0
 10
-44.48792598999866
 20
29.92327654979708
 30
0.0
 10
-44.36457483497357
 20
30.20779500612738
 30
0.0
 11
-46.89213820691123
 21
27.64649632929348
 31
0.0
 11
-46.0654329645037
 21
28.06461846487576
 31
0.0
 11
-45.34748238405041
 21
28.65010104031227
 31
0.0
 11
-44.77162497928225
 21
29.37573766136907
 31
0.0
 11
-44.36457483497357
 21
30.20779500612738
 31
0.0
  0
SPLINE
  5
458B
330
1F
100
AcDbEntity
  8
AM_0
100
AcDbSpline
210
0.0
220
0.0
230
1.0
 70
     8
 71
     3
 72
    11
 73
     7
 74
     5
 42
0.0000000001
 43
0.0000000001
 44
0.0000000001
 40
0.0
 40
0.0
 40
0.0
 40
0.0
 40
1.889544900024608
 40
3.436803080151608
 40
4.480990781395011
 40
4.929073930330585
 40
4.929073930330585
 40
4.929073930330585
 40
4.929073930330585
 10
-45.9575707888478
 20
31.60321437518646
 30
0.0
 10
-46.10929665182655
 20
30.99164793034772
 30
0.0
 10
-46.38526358609586
 20
29.87929889788398
 30
0.0
 10
-46.85502722034856
 20
28.46053720452703
 30
0.0
 10
-46.94035526605578
 20
27.4308591886306
 30
0.0
 10
-46.83621058867746
 20
26.9433631916997
 30
0.0
 10
-46.80493913753377
 20
26.79698310166975
 30
0.0
 11
-45.9575707888478
 21
31.60321437518646
 31
0.0
 11
-46.43823925495013
 21
29.7758288781159
 31
0.0
 11
-46.83685288342664
 21
28.28079876097353
 31
0.0
 11
-46.88558656336292
 21
27.23774891371414
 31
0.0
 11
-46.80493913753377
 21
26.79698310166975
 31
0.0
  0
LINE
  5
4634
330
1F
100
AcDbEntity
  8
AM_0
100
AcDbLine
 10
8.423772999999976
 20
26.00008334790616
 30
0.0
 11
11.88093843210433
 21
26.00008334790616
 31
0.0
  0
LINE
  5
4635
330
1F
100
AcDbEntity
  8
AM_0
100
AcDbLine
 10
25.47896458877504
 20
26.00008334790616
 30
0.0
 11
39.99999999999999
 21
26.00008334790616
 31
0.0
  0
LINE
  5
46AE
330
1F
100
AcDbEntity
  8
AM_0
100
AcDbLine
 10
-21.87852045494952
 20
-87.08908816952393
 30
0.0
 11
29.77056380425609
 21
-100.9282493624812
 31
0.0
  0
DIMENSION
  5
46D3
330
1F
100
AcDbEntity
  8
AM_5
100
AcDbDimension
  2
*D10
 10
41.36168321401553
 20
-104.0340424703211
 30
0.0
 11
42.21822891993712
 21
-87.69914507545994
 31
0.0
 70
    33
 71
     5
 42
32.00000000000001
  3
AM_JIS$0
100
AcDbAlignedDimension
 13
38.05267875849554
 23
-70.01859760312351
 33
0.0
 14
29.77056380425609
 24
-100.9282493624812
 34
0.0
1001
ACAD
1000
DSTYLE
1002
{
1070
   271
1070
     0
1002
}
  0
LINE
  5
4719
330
1F
100
AcDbEntity
  8
AM_0
100
AcDbLine
 10
-89.64759383956881
 20
27.46362218770118
 30
0.0
 11
-74.41526444041197
 21
84.31145954323495
 31
0.0
  0
LINE
  5
4892
330
1F
100
AcDbEntity
  8
AM_0
100
AcDbLine
 10
24.73127437790771
 20
-5.999916652093837
 30
0.0
 11
15.40114761436117
 21
-3.499916816711424
 31
0.0
  0
DIMENSION
  5
4894
330
1F
100
AcDbEntity
  8
AM_5
370
    13
100
AcDbDimension
  2
*D11
 10
0.2967660000003248
 20
-0.079434652094021
 30
0.0
 11
53.92684769331637
 21
-7.848223819807815
 31
0.0
 70
   162
 71
     5
 42
0.2617993781801609
  3
AM_JIS
100
AcDb2LineAngularDimension
 13
24.7312743779077
 23
-5.999916652093836
 33
0.0
 14
180.0
 24
-5.999916652093836
 34
0.0
 15
14.85809799999998
 25
-3.981131652093863
 35
0.0
 16
53.50106516724186
 26
-11.48522993940927
 36
0.0
1001
ACAD
1000
DSTYLE
1002
{
1070
   271
1070
     0
1002
}
  0
LINE
  5
48BA
330
1F
100
AcDbEntity
  8
AM_5
370
    13
100
AcDbLine
 10
22.39230647944369
 20
-5.999916652093836
 30
0.0
 11
14.85809779973662
 21
-3.981131598433524
 31
0.0
  0
ENDSEC
  0
SECTION
  2
OBJECTS
  0
DICTIONARY
  5
C
330
0
100
AcDbDictionary
281
     1
  3
ACAD_COLOR
350
1611
  3
ACAD_GROUP
350
D
  3
ACAD_LAYOUT
350
1A
  3
ACAD_MATERIAL
350
1610
  3
ACAD_MLINESTYLE
350
17
  3
ACAD_PLOTSETTINGS
350
19
  3
ACAD_PLOTSTYLENAME
350
E
  3
ACAD_TABLESTYLE
350
1612
  3
AcAmCatalogState
350
1679
  3
ACDBHEADERROUNDTRIPXREC
350
492F
  3
AcDbVariableDictionary
350
30
  3
ACDMSYSVARMGR
350
162A
  3
ACGREF_MASTER
350
1622
  3
ACGREFACAD_MASTER
350
164C
  3
AcmDictionary
350
43
  3
ACME_BOM_MANAGER_NAME
350
36
  3
ACME_COMMAND_HISTORY
350
2F
  3
ACME_SCOPE_NAME
350
2E
  3
ACMESTATEMGR
350
3B
  3
AcmeSysVarManager
350
32
  3
AcmSystemVariableManager
350
79D
  3
AD_APPL
350
1657
  3
ADSYSVARMGR
350
1656
  3
AmdtNamedDwgMgr
350
1647
  3
AMG
350
3F
  3
AMGSNAPSETTINGS
350
59
  3
AMI_MASTER
350
164F
  3
AUTOCAD_ASSEMBLIES_PROJECT
350
165F
  3
Designer_Assemblies_SysVars
350
165A
  3
DWGPROPS
350
4932
  3
GREFAM_MODULE
350
1650
  3
SAKAE_DICT
350
1605
  0
DICTIONARY
  5
1832
330
2
100
AcDbDictionary
280
     1
281
     1
  3
ACAD_LAYERSTATES
360
1833
  0
DICTIONARY
  5
10B
330
1F
100
AcDbDictionary
280
     1
281
     1
  3
ACAD_SORTENTS
360
1DD7
  0
DICTIONARY
  5
2E5D
330
2E58
100
AcDbDictionary
280
     1
281
     1
  3
ACAD_SORTENTS
360
2E5E
  0
DICTIONARY
  5
1611
102
{ACAD_REACTORS
330
C
102
}
330
C
100
AcDbDictionary
281
     1
  0
DICTIONARY
  5
D
102
{ACAD_REACTORS
330
C
102
}
330
C
100
AcDbDictionary
281
     1
  0
DICTIONARY
  5
1A
102
{ACAD_REACTORS
330
C
102
}
330
C
100
AcDbDictionary
281
     1
  3
Model
350
22
  3
ﾚｲｱｳﾄ1
350
1E
  3
ﾚｲｱｳﾄ2
350
26
  0
DICTIONARY
  5
1610
102
{ACAD_REACTORS
330
C
102
}
330
C
100
AcDbDictionary
281
     1
  0
DICTIONARY
  5
17
102
{ACAD_REACTORS
330
C
102
}
330
C
100
AcDbDictionary
281
     1
  3
Standard
350
18
  0
DICTIONARY
  5
19
102
{ACAD_REACTORS
330
C
102
}
330
C
100
AcDbDictionary
281
     1
  0
ACDBDICTIONARYWDFLT
  5
E
102
{ACAD_REACTORS
330
C
102
}
330
C
100
AcDbDictionary
281
     1
  3
Normal
350
F
100
AcDbDictionaryWithDefault
340
F
  0
DICTIONARY
  5
1612
102
{ACAD_REACTORS
330
C
102
}
330
C
100
AcDbDictionary
281
     1
  3
Standard
350
1613
  0
ACAD_PROXY_OBJECT
  5
1679
102
{ACAD_REACTORS
330
C
102
}
330
C
100
AcDbProxyObject
 90
      499
 91
      570
 95
       25
 70
     0
 93
      160
310
3FFFFFFFE00A028140283A19D2E3A32B6B8400AA
  0
DICTIONARY
  5
492F
102
{ACAD_REACTORS
330
C
102
}
330
C
100
AcDbDictionary
281
     1
  3
COLORDICT
350
4930
  3
MATERIALDICT
350
4931
  0
DICTIONARY
  5
30
102
{ACAD_REACTORS
330
C
102
}
330
C
100
AcDbDictionary
281
     1
  3
CTABLESTYLE
350
1684
  3
DIMASSOC
350
492D
  3
HIDETEXT
350
492E
  3
INDEXCTL
350
31
  0
ACAD_PROXY_OBJECT
  5
162A
102
{ACAD_REACTORS
330
C
102
}
330
C
100
AcDbProxyObject
 90
      499
 91
      507
 95
       25
 70
     0
 93
      240
310
4C51A47A0000000000000000000000000000000000000000000000000000
330
162B
330
162C
330
162D
330
162E
330
162F
330
1630
330
1631
330
1632
330
1633
330
1634
330
1635
330
1636
330
1637
330
1638
330
1639
330
163A
330
163B
330
163C
330
163D
330
163E
330
163F
330
1640
330
1641
330
1642
330
1643
330
1644
 94
        0
  0
ACAD_PROXY_OBJECT
  5
1622
102
{ACAD_REACTORS
330
C
102
}
330
C
100
AcDbProxyObject
 90
      499
 91
      534
 95
       25
 70
     0
 93
       34
310
0400004280
  0
ACAD_PROXY_OBJECT
  5
164C
102
{ACAD_REACTORS
330
C
102
}
330
C
100
AcDbProxyObject
 90
      499
 91
      540
 95
       25
 70
     0
 93
      114
310
04000041C080000000000000000000
  0
DICTIONARY
  5
43
102
{ACAD_REACTORS
330
C
102
}
330
C
100
AcDbDictionary
281
     1
  3
AcmBOMDATA
350
44
  3
AcmStdDictionary
350
7A0
  3
AMDTSECTSYM_ARROWCOLOR
350
166D
  0
ACAD_PROXY_OBJECT
  5
36
102
{ACAD_REACTORS
330
C
102
}
330
C
100
AcDbProxyObject
 90
      499
 91
      510
 95
       25
 70
     0
 93
       50
310
00010040400000
330
0
330
0
330
37
 94
        0
  0
ACAD_PROXY_OBJECT
  5
2F
102
{ACAD_REACTORS
330
C
102
}
330
C
100
AcDbProxyObject
 90
      499
 91
      505
 95
       25
 70
     0
 93
    10210
310
47805044D4F5645404052D4D5347202D205050413A2020206465736B746F702E6172782046696C6556657273696F6E3A20392E322E302E34014115539113D0101461354D1C80B4810DBDB5B585B990810D05390D1531311510B80505584C494E45805054552415345805055153415645404052D4D5347202D205050413A202
310
0206465736B746F702E6172782046696C6556657273696F6E3A20392E322E302E3401415454D05591501014B5354D1C80B481414104E88080819195CDADD1BDC0B985C9E08119A5B1955995C9CDA5BDB8E880E4B8C8B8C0B8D005055153415645404052D4D5347202D205050413A2020206465736B746F702E617278204669
310
6C6556657273696F6E3A20392E322E302E3401415454D05591501014B5354D1C80B481414104E88080819195CDADD1BDC0B985C9E08119A5B1955995C9CDA5BDB8E880E4B8C8B8C0B8D005055153415645404052D4D5347202D205050413A2020206465736B746F702E6172782046696C6556657273696F6E3A20392E322E3
310
02E3401415454D05591501014B5354D1C80B481414104E88080819195CDADD1BDC0B985C9E08119A5B1955995C9CDA5BDB8E880E4B8C8B8C0B8D005055153415645404052D4D5347202D205050413A2020206465736B746F702E6172782046696C6556657273696F6E3A20392E322E302E3401415454D05591501014B5354D
310
1C80B481414104E88080819195CDADD1BDC0B985C9E08119A5B1955995C9CDA5BDB8E880E4B8C8B8C0B8D005055153415645404052D4D5347202D205050413A2020206465736B746F702E6172782046696C6556657273696F6E3A20392E322E302E3401415454D05591501014B5354D1C80B481414104E88080819195CDADD
310
1BDC0B985C9E08119A5B1955995C9CDA5BDB8E880E4B8C8B8C0B8D005055153415645404052D4D5347202D205050413A2020206465736B746F702E6172782046696C6556657273696F6E3A20392E322E302E3401415454D05591501014B5354D1C80B481414104E88080819195CDADD1BDC0B985C9E08119A5B1955995C9CD
310
A5BDB8E880E4B8C8B8C0B8D005055153415645404052D4D5347202D205050413A2020206465736B746F702E6172782046696C6556657273696F6E3A20392E322E302E3401415454D05591501014B5354D1C80B481414104E88080819195CDADD1BDC0B985C9E08119A5B1955995C9CDA5BDB8E880E4B8C8B8C0B8D00505505
310
5524745805055153415645404052D4D5347202D205050413A2020206465736B746F702E6172782046696C6556657273696F6E3A20392E322E302E3401415454D05591501014B5354D1C80B481414104E88080819195CDADD1BDC0B985C9E08119A5B1955995C9CDA5BDB8E880E4B8C8B8C0B8D005055153415645404052D4D
310
5347202D205050413A2020206465736B746F702E6172782046696C6556657273696F6E3A20392E322E302E3401415454D05591501014B5354D1C80B481414104E88080819195CDADD1BDC0B985C9E08119A5B1955995C9CDA5BDB8E880E4B8C8B8C0B8D0050E414D4454524553455444424D4F4440805084E202D20554E444
310
F014213880B4815539113C0504554E444F80504554E444F8050A50524F50455254494553805045A4F4F4D40405184D5347202D20436F6D6D616E642043414E43454C4C45442E014154155491D1601415454D05591501014B5354D1C80B481414104E88080819195CDADD1BDC0B985C9E08119A5B1955995C9CDA5BDB8E880E
310
4B8C8B8C0B8D00
  0
ACAD_PROXY_OBJECT
  5
2E
102
{ACAD_REACTORS
330
C
102
}
330
C
100
AcDbProxyObject
 90
      499
 91
      504
 95
       25
 70
     0
 93
      586
310
09000046408000000000000000001344E200000000000000000000000000000000000000000000000000000000000000000000000000000000000000000000000000000000AAA406AA80
360
33
360
34
360
35
360
37
360
79E
360
79F
360
1623
360
1624
360
1625
360
1626
360
1627
360
1628
360
162B
360
162C
360
162D
360
162E
360
162F
360
1630
360
1631
360
1632
360
1633
360
1634
360
1635
360
1636
360
1637
360
1638
360
1639
360
163A
360
163B
360
163C
360
163D
360
163E
360
163F
360
1640
360
1641
360
1642
360
1643
360
1644
360
1652
360
1653
360
1654
360
1655
360
165B
360
165C
360
165D
360
165E
360
1663
360
1664
360
1665
360
1666
360
1667
360
1668
 94
        0
  0
ACAD_PROXY_OBJECT
  5
3B
102
{ACAD_REACTORS
330
C
102
}
330
C
100
AcDbProxyObject
 90
      499
 91
      515
 95
       25
 70
     0
 93
       50
310
09000042641280
  0
ACAD_PROXY_OBJECT
  5
32
102
{ACAD_REACTORS
330
C
102
}
330
C
100
AcDbProxyObject
 90
      499
 91
      507
 95
       25
 70
     0
 93
       48
310
903412000000
330
33
330
34
330
35
 94
        0
  0
ACAD_PROXY_OBJECT
  5
79D
102
{ACAD_REACTORS
330
C
102
}
330
C
100
AcDbProxyObject
 90
      499
 91
      507
 95
       25
 70
     0
 93
       40
310
90240E0000
330
79E
330
79F
 94
        0
  0
ACAD_PROXY_OBJECT
  5
1657
102
{ACAD_REACTORS
330
C
102
}
330
C
100
AcDbProxyObject
 90
      499
 91
      550
 95
       25
 70
     0
 93
       42
310
000900004040
330
1652
 94
        0
  0
ACAD_PROXY_OBJECT
  5
1656
102
{ACAD_REACTORS
330
C
102
}
330
C
100
AcDbProxyObject
 90
      499
 91
      507
 95
       25
 70
     0
 93
        8
310
AA
  0
ACAD_PROXY_OBJECT
  5
1647
102
{ACAD_REACTORS
330
C
102
}
330
C
100
AcDbProxyObject
 90
      499
 91
      539
 95
       25
 70
     0
 93
       42
310
000100005E80
330
1623
 94
        0
  0
DICTIONARY
  5
3F
102
{ACAD_REACTORS
330
C
102
}
330
C
100
AcDbDictionary
281
     1
  3
AcMgSettings
350
40
  3
AMGLAYCFG
350
47
  0
DICTIONARY
  5
59
102
{ACAD_REACTORS
330
C
102
}
330
C
100
AcDbDictionary
281
     1
  3
DIMENSION
350
AE3
  3
FEA
350
AE4
  3
HATCH (1)
350
AE5
  3
HATCH (2)
350
AE6
  3
SYMBOLS
350
AE7
  0
ACAD_PROXY_OBJECT
  5
164F
102
{ACAD_REACTORS
330
C
102
}
330
C
100
AcDbProxyObject
 90
      499
 91
      543
 95
       25
 70
     0
 93
       34
310
0500004280
  0
ACAD_PROXY_OBJECT
  5
165F
102
{ACAD_REACTORS
330
C
102
}
330
C
100
AcDbProxyObject
 90
      499
 91
      553
 95
       25
 70
     0
 93
       98
310
0900004E400000000000000000
330
1666
330
0
330
1667
330
0
330
0
330
0
330
0
330
0
 94
        0
  0
ACAD_PROXY_OBJECT
  5
165A
102
{ACAD_REACTORS
330
C
102
}
330
C
100
AcDbProxyObject
 90
      499
 91
      507
 95
       25
 70
     0
 93
       56
310
90441600000000
330
165B
330
165C
330
165D
330
165E
 94
        0
  0
XRECORD
  5
4932
102
{ACAD_REACTORS
330
C
102
}
330
C
100
AcDbXrecord
280
     1
  1
DWGPROPS COOKIE
  2

  3

  4

  6

  7

  8

  9

300
AmdtFileType=82
301
=
302
=
303
=
304
=
305
=
306
=
307
=
308
=
309
=
 40
0.0
 41
2451948.235903461
 42
2455463.105943287
  1

 90
        1
  0
ACAD_PROXY_OBJECT
  5
1650
102
{ACAD_REACTORS
330
C
102
}
330
C
100
AcDbProxyObject
 90
      499
 91
      544
 95
       25
 70
     0
 93
        8
310
05
  0
DICTIONARY
  5
1605
102
{ACAD_REACTORS
330
C
102
}
330
C
100
AcDbDictionary
281
     1
  3
XREC1
350
1606
  0
DICTIONARY
  5
1833
102
{ACAD_REACTORS
330
1832
102
}
330
1832
100
AcDbDictionary
281
     1
  0
SORTENTSTABLE
  5
1DD7
102
{ACAD_REACTORS
330
10B
102
}
330
10B
100
AcDbSortentsTable
330
1F
331
183C
  5
183C
331
1BB2
  5
2E62
331
2D91
  5
1C04
331
2DC3
  5
301B
331
2DC4
  5
35F8
331
2DC5
  5
35F9
331
2E3B
  5
2FD0
331
2E62
  5
35FA
331
35F9
  5
35FE
331
35FC
  5
3600
331
35FE
  5
3601
331
35FF
  5
3602
331
3600
  5
3603
331
3601
  5
3604
331
3607
  5
360A
331
3608
  5
360B
331
3609
  5
3610
331
360A
  5
3617
331
360B
  5
3619
331
3610
  5
361B
331
3616
  5
361F
331
3617
  5
3620
331
3619
  5
3621
331
361B
  5
3622
331
361F
  5
3626
331
3620
  5
3628
331
3621
  5
3629
331
3622
  5
362A
331
3626
  5
362B
331
3628
  5
3632
331
3629
  5
3633
331
362A
  5
3634
331
362B
  5
3635
331
3632
  5
3636
331
3633
  5
3637
331
3634
  5
3638
331
3635
  5
3639
331
3636
  5
363A
331
3637
  5
363B
331
3638
  5
363C
331
3639
  5
363D
331
363A
  5
363E
331
363B
  5
363F
331
363C
  5
3640
331
363D
  5
3641
331
363E
  5
3642
331
363F
  5
3643
331
3640
  5
3644
331
3641
  5
3645
331
3642
  5
3646
331
3643
  5
3647
331
3644
  5
3648
331
3645
  5
3649
331
3646
  5
364A
331
3647
  5
366B
331
3648
  5
366C
331
3649
  5
366D
331
364A
  5
366E
331
366B
  5
366F
331
366C
  5
3670
331
366D
  5
369D
331
366E
  5
369E
331
366F
  5
369F
331
3670
  5
36A0
331
369D
  5
36A1
331
369E
  5
36A2
331
369F
  5
36A3
331
36A0
  5
36A4
331
36A1
  5
36A5
331
36A2
  5
36A6
331
36A3
  5
36A7
331
36A4
  5
36A8
331
36A5
  5
36A9
331
36A6
  5
36AA
331
36A7
  5
36AB
331
36A8
  5
36AC
331
36A9
  5
36AD
331
36AA
  5
36AE
331
36AB
  5
36AF
331
36AC
  5
36B0
331
36AD
  5
36B1
331
36AE
  5
36B2
331
36AF
  5
36B3
331
36B0
  5
36B4
331
36B1
  5
36B5
331
36B2
  5
36B6
331
36B3
  5
36B7
331
36B4
  5
36B8
331
36B5
  5
36B9
331
36B6
  5
36BA
331
36B7
  5
36BB
331
36B8
  5
36BC
331
36B9
  5
36BD
331
36BA
  5
36BE
331
36BB
  5
36BF
331
36BC
  5
36C0
331
36BD
  5
36C1
331
36BE
  5
36C2
331
36BF
  5
36C3
331
36C0
  5
36C4
331
36C1
  5
36C5
331
36C2
  5
36C6
331
36C3
  5
36C7
331
36C4
  5
36C8
331
36C5
  5
36C9
331
36C6
  5
36CA
331
36C7
  5
36CB
331
36C8
  5
36CC
331
36C9
  5
36CD
331
36CA
  5
36CE
331
36CB
  5
36CF
331
36CC
  5
36D0
331
36CD
  5
36D1
331
36CE
  5
36D2
331
36CF
  5
36D3
331
36D0
  5
36D4
331
36D1
  5
36D5
331
36D2
  5
36D6
331
36D3
  5
36D7
331
36D4
  5
36D8
331
36D5
  5
36D9
331
36D6
  5
36DA
331
36D7
  5
36F9
331
36D8
  5
36FA
331
36D9
  5
3707
331
36DA
  5
370C
331
36F9
  5
3712
331
36FA
  5
3713
331
3707
  5
3715
331
370C
  5
3716
331
3712
  5
3717
331
3713
  5
3718
331
3715
  5
3719
331
3716
  5
398C
331
3717
  5
398D
331
3718
  5
398E
331
3719
  5
398F
331
398C
  5
3990
331
398D
  5
3991
331
398E
  5
3992
331
398F
  5
3993
331
3990
  5
3994
331
3991
  5
3995
331
3992
  5
3996
331
3993
  5
3997
331
3994
  5
3998
331
3995
  5
3999
331
3996
  5
399A
331
3997
  5
399B
331
3998
  5
399C
331
3999
  5
399D
331
399A
  5
399E
331
399B
  5
399F
331
399C
  5
39A0
331
399D
  5
39A3
331
399E
  5
39A5
331
399F
  5
39A9
331
39A0
  5
39AA
331
39A3
  5
39AB
331
39A5
  5
39AC
331
39A9
  5
39AD
331
39AA
  5
39AE
331
39AB
  5
39AF
331
39AC
  5
39B0
331
39AD
  5
39B1
331
39AE
  5
39B2
331
39AF
  5
39B3
331
39B0
  5
39B4
331
39B1
  5
39B5
331
39B2
  5
39B6
331
39B3
  5
39B7
331
39B4
  5
39B8
331
39B5
  5
39B9
331
39B6
  5
39BB
331
39B7
  5
39DE
331
39B8
  5
39DF
331
39B9
  5
39E0
331
39BB
  5
39EF
331
39DE
  5
3A0B
331
39DF
  5
3616
331
39E0
  5
3A8C
331
39EF
  5
3AB6
331
3A8C
  5
3C4B
331
3C4A
  5
3C4D
331
3C4B
  5
3C4E
331
3C4C
  5
3C4F
331
3C4D
  5
3C51
331
3C4E
  5
3C53
331
3C4F
  5
3C54
331
3C51
  5
3C57
331
3C53
  5
3C58
331
3C54
  5
3C59
331
3C57
  5
3C5A
331
3C58
  5
3C5B
331
3C59
  5
3C5C
331
3C5A
  5
3C5D
331
3C5B
  5
3C5E
331
3C5C
  5
3C5F
331
3C5D
  5
3C60
331
3C5E
  5
3C61
331
3C5F
  5
3C62
331
3C60
  5
3C63
331
3C61
  5
3C64
331
3C62
  5
3C67
331
3C63
  5
3C69
331
3C64
  5
3C6A
331
3C67
  5
3C6C
331
3C69
  5
3C6D
331
3C6A
  5
3C6E
331
3C6C
  5
3C6F
331
3C6D
  5
3C70
331
3C6E
  5
3C71
331
3C6F
  5
3C72
331
3C70
  5
3C73
331
3C71
  5
3C77
331
3C72
  5
3C78
331
3C73
  5
3C79
331
3C77
  5
3C7A
331
3C78
  5
3C7F
331
3C79
  5
3C81
331
3C7A
  5
3C83
331
3C7F
  5
3C84
331
3C81
  5
3C85
331
3C83
  5
3C86
331
3C84
  5
3C87
331
3C85
  5
3C88
331
3C86
  5
3C89
331
3C87
  5
3C8A
331
3C88
  5
3C8B
331
3C89
  5
3C8C
331
3C8A
  5
3C8D
331
3C8B
  5
3C8E
331
3C8C
  5
3C8F
331
3C8D
  5
3C90
331
3C8E
  5
3C91
331
3C8F
  5
3C92
331
3CAE
  5
3CB8
331
3CB3
  5
3CB9
331
3CB5
  5
3CC6
331
3CB6
  5
3CC7
331
3CB8
  5
3CC8
331
3CBF
  5
3CCA
331
3CC1
  5
3CCC
331
3CC6
  5
3CCF
331
3CC7
  5
3CD0
331
3CC8
  5
3CD1
331
3CC9
  5
3CE5
331
3CCA
  5
3CE6
331
3CCB
  5
3CE7
331
3CCC
  5
3CE8
331
3CCD
  5
3CE9
331
3CCE
  5
3CEA
331
3CCF
  5
3CEB
331
3CD0
  5
3CEC
331
3CD1
  5
3CED
331
3CE5
  5
3CEE
331
3CE6
  5
3CEF
331
3CE7
  5
3CF0
331
3CE8
  5
3CF1
331
3CE9
  5
3CF2
331
3CEA
  5
3CF3
331
3CEB
  5
3CF4
331
3CEC
  5
3CF7
331
3CED
  5
3CF8
331
3CEE
  5
3CF9
331
3CEF
  5
3CFA
331
3CF0
  5
3CFB
331
3CF1
  5
3CFC
331
3CF2
  5
3D07
331
3CF3
  5
3D08
331
3CF4
  5
3D09
331
3CF7
  5
3D0A
331
3CF8
  5
3D0B
331
3CF9
  5
3D0C
331
3CFA
  5
3D0D
331
3CFB
  5
3D0E
331
3CFC
  5
3D1F
331
3D07
  5
3D20
331
3D08
  5
3D21
331
3D09
  5
3D22
331
3D0A
  5
3D23
331
3D0B
  5
3D24
331
3D0C
  5
3D25
331
3D0D
  5
3D26
331
3D0E
  5
3D27
331
3D25
  5
3D2E
331
3D26
  5
3D2F
331
3D27
  5
3D30
331
3D28
  5
3D31
331
3D29
  5
3D32
331
3D2A
  5
3D33
331
3D2B
  5
3D34
331
3D2C
  5
3D35
331
3D2D
  5
3D36
331
3D2E
  5
3D37
331
3D2F
  5
3D38
331
3D30
  5
3D39
331
3D31
  5
3D3A
331
3D32
  5
3D3B
331
3D33
  5
3D3C
331
3D34
  5
3D3E
331
3D35
  5
3D3F
331
3D36
  5
3D40
331
3D37
  5
3D41
331
3D38
  5
3D42
331
3D39
  5
3D45
331
3D3A
  5
3D7A
331
3D3B
  5
3D7C
331
3D3C
  5
3D89
331
3D3E
  5
3D8A
331
3D3F
  5
3EDA
331
3D40
  5
3EDB
331
3D41
  5
3EDD
331
3D42
  5
3EEB
331
3D45
  5
3EEC
331
3D7C
  5
3EED
331
3D8A
  5
3CCB
331
3EDA
  5
3EEE
331
3EDB
  5
3EEF
331
3EDC
  5
3F44
331
3EDD
  5
3F4A
331
3EEB
  5
3F79
331
3EEC
  5
3F7F
331
3EED
  5
3F90
331
3EEE
  5
3FB8
331
3EEF
  5
41B8
331
3FB8
  5
41BA
331
41B8
  5
41BB
331
41B9
  5
41BC
331
41BA
  5
41BD
331
41BB
  5
41BE
331
41BC
  5
41BF
331
41BD
  5
41C0
331
41BE
  5
41C1
331
41BF
  5
41C2
331
41C0
  5
41C3
331
41C1
  5
41C4
331
41C2
  5
41C5
331
41C3
  5
41C6
331
41C5
  5
41C8
331
41C6
  5
41C9
331
41C7
  5
41CA
331
41C8
  5
41CB
331
41C9
  5
41CC
331
41CA
  5
41CE
331
41CB
  5
41CF
331
41CE
  5
41D1
331
41CF
  5
41D2
331
41D0
  5
41D3
331
41D2
  5
41D5
331
41D3
  5
41D6
331
41D4
  5
41D7
331
41D5
  5
41D8
331
41D6
  5
41D9
331
41D7
  5
41DA
331
41D8
  5
41DB
331
41D9
  5
41DC
331
41DA
  5
41DD
331
41DB
  5
41DE
331
41DC
  5
41DF
331
41DD
  5
41E0
331
41DE
  5
41E1
331
41DF
  5
41E2
331
41E0
  5
41E3
331
41E1
  5
41E4
331
41E2
  5
41E5
331
41E3
  5
41E7
331
41E4
  5
41EA
331
41E5
  5
41EB
331
41E7
  5
41ED
331
41EA
  5
41F0
331
41EB
  5
41F1
331
41ED
  5
41F2
331
41F0
  5
41F3
331
41F1
  5
41F4
331
41F2
  5
41F5
331
41F3
  5
41F6
331
41F4
  5
41F7
331
41F5
  5
41F8
331
41F6
  5
41FA
331
41F7
  5
41FB
331
41F8
  5
41FC
331
41FA
  5
41FD
331
41FB
  5
41FE
331
41FC
  5
4200
331
41FD
  5
4201
331
41FE
  5
4202
331
4200
  5
4204
331
4201
  5
4205
331
4202
  5
4206
331
4204
  5
4207
331
4205
  5
4208
331
4206
  5
4209
331
4207
  5
420A
331
4208
  5
420B
331
4209
  5
420C
331
420A
  5
420D
331
420B
  5
420F
331
420C
  5
4210
331
420D
  5
4212
331
420F
  5
4214
331
4210
  5
4215
331
4212
  5
4216
331
4214
  5
4217
331
4215
  5
4218
331
4216
  5
4219
331
4217
  5
421A
331
4218
  5
421B
331
4219
  5
421C
331
421A
  5
421D
331
421B
  5
421E
331
421C
  5
421F
331
421D
  5
4220
331
421E
  5
4221
331
421F
  5
4222
331
4220
  5
4223
331
4221
  5
4224
331
4222
  5
4225
331
4223
  5
4226
331
4224
  5
4227
331
4225
  5
4228
331
4226
  5
4229
331
4227
  5
422A
331
4228
  5
422B
331
4229
  5
422C
331
422A
  5
422D
331
422B
  5
422E
331
422C
  5
422F
331
422D
  5
4230
331
422E
  5
4231
331
422F
  5
4232
331
4230
  5
4233
331
4231
  5
4234
331
4232
  5
4235
331
4233
  5
4236
331
4234
  5
4237
331
4235
  5
4238
331
4236
  5
4239
331
4237
  5
423A
331
4238
  5
423B
331
4239
  5
423C
331
423A
  5
423D
331
423B
  5
423E
331
423C
  5
423F
331
423D
  5
4240
331
423E
  5
4241
331
423F
  5
4242
331
4240
  5
4243
331
4241
  5
4244
331
4242
  5
4245
331
4243
  5
4246
331
4244
  5
4247
331
4245
  5
4248
331
4246
  5
4249
331
4247
  5
424A
331
4248
  5
424B
331
4249
  5
424C
331
424A
  5
424D
331
424B
  5
424E
331
424C
  5
424F
331
424D
  5
4250
331
424E
  5
4251
331
424F
  5
4252
331
4250
  5
4253
331
4251
  5
4254
331
4252
  5
4255
331
4253
  5
4256
331
4254
  5
4257
331
4255
  5
4258
331
4256
  5
4259
331
4257
  5
425A
331
4258
  5
425B
331
4259
  5
425C
331
425A
  5
425D
331
425B
  5
425E
331
425C
  5
425F
331
425D
  5
4260
331
425E
  5
4261
331
425F
  5
4262
331
4260
  5
4263
331
4261
  5
4264
331
4262
  5
4265
331
4263
  5
4266
331
4264
  5
4267
331
4265
  5
4268
331
4266
  5
4269
331
4267
  5
426A
331
4268
  5
426B
331
4269
  5
426C
331
426A
  5
426D
331
426B
  5
426E
331
426C
  5
426F
331
426D
  5
4270
331
426E
  5
4271
331
426F
  5
4272
331
4270
  5
4273
331
4271
  5
4274
331
4272
  5
4275
331
4273
  5
4276
331
4274
  5
4277
331
4275
  5
4278
331
4276
  5
4279
331
4277
  5
427A
331
4278
  5
427B
331
4279
  5
427C
331
427A
  5
427D
331
427B
  5
427E
331
427C
  5
427F
331
427D
  5
4280
331
427E
  5
4281
331
427F
  5
4282
331
4280
  5
4283
331
4281
  5
4284
331
4282
  5
4285
331
4283
  5
4286
331
4284
  5
4287
331
4285
  5
4288
331
4286
  5
4289
331
4287
  5
428A
331
4288
  5
428B
331
4289
  5
428C
331
428A
  5
428D
331
428B
  5
428E
331
428C
  5
428F
331
428D
  5
4290
331
428E
  5
4291
331
428F
  5
4292
331
4290
  5
4293
331
4291
  5
4294
331
4292
  5
4295
331
4293
  5
4296
331
4294
  5
4297
331
4295
  5
4298
331
4296
  5
4299
331
4297
  5
429A
331
4298
  5
429B
331
4299
  5
429C
331
429A
  5
429D
331
429B
  5
429E
331
429C
  5
429F
331
429D
  5
42A0
331
429E
  5
42A1
331
429F
  5
42A2
331
42A0
  5
42A3
331
42A1
  5
42A4
331
42A2
  5
42A5
331
42A3
  5
42A6
331
42A4
  5
42A7
331
42A5
  5
42A8
331
42A6
  5
42A9
331
42A7
  5
42AA
331
42A8
  5
42AB
331
42A9
  5
42AC
331
42AA
  5
42AF
331
42AB
  5
42B9
331
42AC
  5
42C7
331
42AF
  5
42C8
331
42B9
  5
42C9
331
42C7
  5
42CA
331
42C8
  5
42CB
331
42C9
  5
42CC
331
42CA
  5
42CD
331
42CB
  5
42CE
331
42CC
  5
42F6
331
42CD
  5
42F7
331
42CE
  5
42F8
331
42F6
  5
42F9
331
42F7
  5
42FA
331
42F8
  5
42FD
331
42F9
  5
42FE
331
42FA
  5
42FF
331
42FD
  5
4300
331
42FE
  5
4301
331
42FF
  5
4302
331
4300
  5
4303
331
4301
  5
4304
331
4302
  5
4307
331
4303
  5
4308
331
4304
  5
4309
331
4307
  5
430A
331
4308
  5
430B
331
4309
  5
4318
331
430A
  5
4319
331
430B
  5
431A
331
4318
  5
431B
331
4319
  5
4321
331
431A
  5
4322
331
431B
  5
4325
331
4321
  5
4327
331
4322
  5
4328
331
4325
  5
4329
331
4327
  5
432A
331
4328
  5
432B
331
4329
  5
432C
331
432A
  5
432D
331
432B
  5
432E
331
432C
  5
432F
331
432D
  5
4332
331
432E
  5
4339
331
432F
  5
433A
331
4332
  5
433B
331
4339
  5
457D
331
433A
  5
457E
331
433B
  5
457F
331
457D
  5
4580
331
457E
  5
4581
331
457F
  5
4582
331
4580
  5
4583
331
4581
  5
4584
331
4582
  5
4585
331
4583
  5
4586
331
4584
  5
4587
331
4585
  5
4588
331
4586
  5
4589
331
4587
  5
458A
331
4588
  5
458B
331
4589
  5
4598
331
458A
  5
4599
331
458B
  5
459A
331
4634
  5
4634
331
4635
  5
4635
331
46AE
  5
46AE
331
46D3
  5
46D3
331
4719
  5
4719
  0
SORTENTSTABLE
  5
2E5E
102
{ACAD_REACTORS
330
2E5D
102
}
330
2E5D
100
AcDbSortentsTable
330
2E58
  0
LAYOUT
  5
22
102
{ACAD_REACTORS
330
1A
102
}
330
1A
100
AcDbPlotSettings
  1

  2
SII LP-2150 (D-SCAN C2)
  4
User118
  6
AM_VIEW1
 40
3.174999952316284
 41
3.174999952316284
 42
3.17498779296875
 43
3.17498779296875
 44
296.9259948730469
 45
419.9889831542969
 46
0.0
 47
0.0
 48
0.0
 49
0.0
140
423.0
141
300.0
142
1.0
143
1.03243210946902
 70
 11952
 72
     1
 73
     1
 74
     4
  7
sei_cad.ctb
 75
     0
147
0.9685866904258728
148
0.0
149
0.0
100
AcDbLayout
  1
Model
 70
     1
 71
     0
 10
0.0
 20
0.0
 11
12.0
 21
9.0
 12
0.0
 22
0.0
 32
0.0
 14
0.0
 24
0.0
 34
0.0
 15
0.0
 25
0.0
 35
0.0
146
0.0
 13
0.0
 23
0.0
 33
0.0
 16
1.0
 26
0.0
 36
0.0
 17
0.0
 27
1.0
 37
0.0
 76
     0
330
1F
  0
LAYOUT
  5
1E
102
{ACAD_REACTORS
330
1A
102
}
330
1A
100
AcDbPlotSettings
  1

  2
SII LP-2150 (D-SCAN C2)
  4

  6

 40
0.0
 41
0.0
 42
0.0
 43
0.0
 44
0.0
 45
0.0
 46
0.0
 47
0.0
 48
0.0
 49
0.0
140
0.0
141
0.0
142
1.0
143
1.0
 70
   688
 72
     0
 73
     0
 74
     5
  7
sei_cad.ctb
 75
    16
147
1.0
148
0.0
149
0.0
100
AcDbLayout
  1
ﾚｲｱｳﾄ1
 70
     1
 71
     1
 10
0.0
 20
0.0
 11
420.0
 21
297.0
 12
0.0
 22
0.0
 32
0.0
 14
1.000000000000000E+20
 24
1.000000000000000E+20
 34
1.000000000000000E+20
 15
-1.000000000000000E+20
 25
-1.000000000000000E+20
 35
-1.000000000000000E+20
146
0.0
 13
0.0
 23
0.0
 33
0.0
 16
1.0
 26
0.0
 36
0.0
 17
0.0
 27
1.0
 37
0.0
 76
     0
330
1B
  0
LAYOUT
  5
26
102
{ACAD_REACTORS
330
1A
102
}
330
1A
100
AcDbPlotSettings
  1

  2
SII LP-2150 (D-SCAN C2)
  4

  6

 40
0.0
 41
0.0
 42
0.0
 43
0.0
 44
0.0
 45
0.0
 46
0.0
 47
0.0
 48
0.0
 49
0.0
140
0.0
141
0.0
142
1.0
143
1.0
 70
   688
 72
     0
 73
     0
 74
     5
  7
sei_cad.ctb
 75
    16
147
1.0
148
0.0
149
0.0
100
AcDbLayout
  1
ﾚｲｱｳﾄ2
 70
     1
 71
     2
 10
0.0
 20
0.0
 11
12.0
 21
9.0
 12
0.0
 22
0.0
 32
0.0
 14
0.0
 24
0.0
 34
0.0
 15
0.0
 25
0.0
 35
0.0
146
0.0
 13
0.0
 23
0.0
 33
0.0
 16
1.0
 26
0.0
 36
0.0
 17
0.0
 27
1.0
 37
0.0
 76
     0
330
23
  0
MLINESTYLE
  5
18
102
{ACAD_REACTORS
330
17
102
}
330
17
100
AcDbMlineStyle
  2
STANDARD
 70
     0
  3

 62
   256
 51
90.0
 52
90.0
 71
     2
 49
0.5
 62
   256
  6
BYLAYER
 49
-0.5
 62
   256
  6
BYLAYER
  0
ACDBPLACEHOLDER
  5
F
102
{ACAD_REACTORS
330
E
102
}
330
E
  0
TABLESTYLE
  5
1613
102
{ACAD_REACTORS
330
1612
102
}
330
1612
100
AcDbTableStyle
  3
Standard
 70
     0
 71
     8
 40
1.5
 41
1.5
280
     0
281
     0
  7
STANDARD
140
4.5
170
     2
 62
     0
 63
     7
283
     0
274
    -2
284
     1
 64
     0
275
    -2
285
     1
 65
     0
276
    -2
286
     1
 66
     0
277
    -2
287
     1
 67
     0
278
    -2
288
     1
 68
     0
279
    -2
289
     1
 69
     0
  7
STANDARD
140
6.0
170
     5
 62
     0
 63
     7
283
     0
274
    -2
284
     1
 64
     0
275
    -2
285
     1
 65
     0
276
    -2
286
     1
 66
     0
277
    -2
287
     1
 67
     0
278
    -2
288
     1
 68
     0
279
    -2
289
     1
 69
     0
  7
STANDARD
140
4.5
170
     5
 62
     0
 63
     7
283
     0
274
    -2
284
     1
 64
     0
275
    -2
285
     1
 65
     0
276
    -2
286
     1
 66
     0
277
    -2
287
     1
 67
     0
278
    -2
288
     1
 68
     0
279
    -2
289
     1
 69
     0
  0
XRECORD
  5
4930
102
{ACAD_REACTORS
330
492F
102
}
330
492F
100
AcDbXrecord
280
     1
340
1611
  0
XRECORD
  5
4931
102
{ACAD_REACTORS
330
492F
102
}
330
492F
100
AcDbXrecord
280
     1
340
1610
  0
DICTIONARYVAR
  5
1684
102
{ACAD_REACTORS
330
30
102
}
330
30
100
DictionaryVariables
280
     0
  1
STANDARD
  0
DICTIONARYVAR
  5
492D
102
{ACAD_REACTORS
330
30
102
}
330
30
100
DictionaryVariables
280
     0
  1
1
  0
DICTIONARYVAR
  5
492E
102
{ACAD_REACTORS
330
30
102
}
330
30
100
DictionaryVariables
280
     0
  1
0
  0
DICTIONARYVAR
  5
31
102
{ACAD_REACTORS
330
30
102
}
330
30
100
DictionaryVariables
280
     0
  1
1
  0
ACAD_PROXY_OBJECT
  5
44
102
{ACAD_REACTORS
330
43
102
}
330
43
100
AcDbProxyObject
 90
      499
 91
      519
 95
       25
 70
     0
 93
      118
310
405010040CA904C415CD5B075DD168
350
45
 94
        0
  0
DICTIONARY
  5
7A0
102
{ACAD_REACTORS
330
43
102
}
330
43
100
AcDbDictionary
281
     1
  3
ANSI
350
1B45
  3
JIS
350
7A1
  0
XRECORD
  5
166D
102
{ACAD_REACTORS
330
43
102
}
330
43
100
AcDbXrecord
280
     1
 90
-1023410169
  0
ACAD_PROXY_OBJECT
  5
33
330
2E
100
AcDbProxyObject
 90
      499
 91
      508
 95
       25
 70
     0
 93
      156
310
00010143D050D351505391D5531054925390D490
330
2E
 94
        0
  0
ACAD_PROXY_OBJECT
  5
34
330
2E
100
AcDbProxyObject
 90
      499
 91
      508
 95
       25
 70
     0
 93
      148
310
000101439050D351531253915054925390D490
330
2E
 94
        0
  0
ACAD_PROXY_OBJECT
  5
35
330
2E
100
AcDbProxyObject
 90
      499
 91
      509
 95
       25
 70
     0
 93
      156
310
000101439050D35154D6535093D314D256915080
330
2E
 94
        0
  0
ACAD_PROXY_OBJECT
  5
37
330
2E
100
AcDbProxyObject
 90
      499
 91
      511
 95
       25
 70
     0
 93
       88
310
000101411093D34C402B00
330
2E
330
0
330
0
 94
        0
  0
ACAD_PROXY_OBJECT
  5
79E
330
2E
100
AcDbProxyObject
 90
      499
 91
      509
 95
       25
 70
     0
 93
      108
310
00010142505351D153D35054D4E0
330
2E
 94
        0
  0
ACAD_PROXY_OBJECT
  5
79F
330
2E
100
AcDbProxyObject
 90
      499
 91
      525
 95
       25
 70
     0
 93
      140
310
00010142105350D55494D511005034A49530
330
2E
 94
        0
  0
ACAD_PROXY_OBJECT
  5
1623
330
2E
100
AcDbProxyObject
 90
      499
 91
      535
 95
       25
 70
     0
 93
      358
310
0001014124FEA55D00507392E322E302E32014124FEA55D00507392E322E302E3240501000041505391D311658
330
2E
330
1624
330
162A
 94
        0
  0
ACAD_PROXY_OBJECT
  5
1624
330
2E
100
AcDbProxyObject
 90
      499
 91
      536
 95
       25
 70
     0
 93
       56
310
000190240E0000
330
2E
330
1625
330
1627
 94
        0
  0
ACAD_PROXY_OBJECT
  5
1625
330
2E
100
AcDbProxyObject
 90
      499
 91
      537
 95
       25
 70
     0
 93
       48
310
0001AA000000
330
2E
330
1E
330
1626
330
0
 94
        0
  0
ACAD_PROXY_OBJECT
  5
1626
330
2E
100
AcDbProxyObject
 90
      499
 91
      538
 95
       25
 70
     0
 93
       28
310
0001AAA0
330
2E
 94
        0
  0
ACAD_PROXY_OBJECT
  5
1627
330
2E
100
AcDbProxyObject
 90
      499
 91
      537
 95
       25
 70
     0
 93
       48
310
0001AA000000
330
2E
330
26
330
1628
330
0
 94
        0
  0
ACAD_PROXY_OBJECT
  5
1628
330
2E
100
AcDbProxyObject
 90
      499
 91
      538
 95
       25
 70
     0
 93
       28
310
0001AAA0
330
2E
 94
        0
  0
ACAD_PROXY_OBJECT
  5
162B
330
2E
100
AcDbProxyObject
 90
      499
 91
      509
 95
       25
 70
     0
 93
      108
310
000101421053521310D05310D010
330
2E
 94
        0
  0
ACAD_PROXY_OBJECT
  5
162C
330
2E
100
AcDbProxyObject
 90
      499
 91
      509
 95
       25
 70
     0
 93
      124
310
00010142905354915554D15112535010
330
2E
 94
        0
  0
ACAD_PROXY_OBJECT
  5
162D
330
2E
100
AcDbProxyObject
 90
      499
 91
      509
 95
       25
 70
     0
 93
      132
310
00010143105354D150D51253D391125360
330
2E
 94
        0
  0
ACAD_PROXY_OBJECT
  5
162E
330
2E
100
AcDbProxyObject
 90
      499
 91
      509
 95
       25
 70
     0
 93
      124
310
00010142905355941093D49111549010
330
2E
 94
        0
  0
ACAD_PROXY_OBJECT
  5
162F
330
2E
100
AcDbProxyObject
 90
      499
 91
      509
 95
       25
 70
     0
 93
      116
310
0001014290535115D1D0D3D313D4A0
330
2E
 94
        0
  0
ACAD_PROXY_OBJECT
  5
1630
330
2E
100
AcDbProxyObject
 90
      499
 91
      509
 95
       25
 70
     0
 93
      148
310
00010143505355925155D49151949154D21010
330
2E
 94
        0
  0
ACAD_PROXY_OBJECT
  5
1631
330
2E
100
AcDbProxyObject
 90
      499
 91
      509
 95
       25
 70
     0
 93
      172
310
00010144105350539393D51154149154D15495915010
330
2E
 94
        0
  0
ACAD_PROXY_OBJECT
  5
1632
330
2E
100
AcDbProxyObject
 90
      499
 91
      509
 95
       25
 70
     0
 93
      172
310
00010144105350555513D11253505494905391D15010
330
2E
 94
        0
  0
ACAD_PROXY_OBJECT
  5
1633
330
2E
100
AcDbProxyObject
 90
      499
 91
      509
 95
       25
 70
     0
 93
      124
310
00010142D05351561514915191125360
330
2E
 94
        0
  0
ACAD_PROXY_OBJECT
  5
1634
330
2E
100
AcDbProxyObject
 90
      499
 91
      509
 95
       25
 70
     0
 93
      132
310
00010142D05355105410539393D5115010
330
2E
 94
        0
  0
ACAD_PROXY_OBJECT
  5
1635
330
2E
100
AcDbProxyObject
 90
      499
 91
      509
 95
       25
 70
     0
 93
      108
310
00010142105350555513D0D31010
330
2E
 94
        0
  0
ACAD_PROXY_OBJECT
  5
1636
330
2E
100
AcDbProxyObject
 90
      499
 91
      509
 95
       25
 70
     0
 93
      108
310
00010142105350D3119150551050
330
2E
 94
        0
  0
ACAD_PROXY_OBJECT
  5
1637
330
2E
100
AcDbProxyObject
 90
      499
 91
      509
 95
       25
 70
     0
 93
      108
310
00010142105350D315925155D3F0
330
2E
 94
        0
  0
ACAD_PROXY_OBJECT
  5
1638
330
2E
100
AcDbProxyObject
 90
      499
 91
      509
 95
       25
 70
     0
 93
      148
310
0001014350535212511156915493D112535010
330
2E
 94
        0
  0
ACAD_PROXY_OBJECT
  5
1639
330
2E
100
AcDbProxyObject
 90
      499
 91
      509
 95
       25
 70
     0
 93
      124
310
00010142905352105510D21254D3D010
330
2E
 94
        0
  0
ACAD_PROXY_OBJECT
  5
163A
330
2E
100
AcDbProxyObject
 90
      499
 91
      509
 95
       25
 70
     0
 93
      148
310
00010143905354D25391D31152105513105660
330
2E
 94
        0
  0
ACAD_PROXY_OBJECT
  5
163B
330
2E
100
AcDbProxyObject
 90
      499
 91
      509
 95
       25
 70
     0
 93
      124
310
00010142D0535115D1D193111254D420
330
2E
 94
        0
  0
ACAD_PROXY_OBJECT
  5
163C
330
2E
100
AcDbProxyObject
 90
      499
 91
      509
 95
       25
 70
     0
 93
      100
310
00010142105350555513D213A0
330
2E
 94
        0
  0
ACAD_PROXY_OBJECT
  5
163D
330
2E
100
AcDbProxyObject
 90
      499
 91
      509
 95
       25
 70
     0
 93
      116
310
000101425053521390D3D553951010
330
2E
 94
        0
  0
ACAD_PROXY_OBJECT
  5
163E
330
2E
100
AcDbProxyObject
 90
      499
 91
      509
 95
       25
 70
     0
 93
      108
310
0001014210535213941493D29010
330
2E
 94
        0
  0
ACAD_PROXY_OBJECT
  5
163F
330
2E
100
AcDbProxyObject
 90
      499
 91
      509
 95
       25
 70
     0
 93
      108
310
0001014210535213951654115070
330
2E
 94
        0
  0
ACAD_PROXY_OBJECT
  5
1640
330
2E
100
AcDbProxyObject
 90
      499
 91
      509
 95
       25
 70
     0
 93
      108
310
000101421053521395925155D0F0
330
2E
 94
        0
  0
ACAD_PROXY_OBJECT
  5
1641
330
2E
100
AcDbProxyObject
 90
      499
 91
      509
 95
       25
 70
     0
 93
      140
310
00010143505354D150D51253D390D3D41660
330
2E
 94
        0
  0
ACAD_PROXY_OBJECT
  5
1642
330
2E
100
AcDbProxyObject
 90
      499
 91
      509
 95
       25
 70
     0
 93
      108
310
00010142105350D3141493D29030
330
2E
 94
        0
  0
ACAD_PROXY_OBJECT
  5
1643
330
2E
100
AcDbProxyObject
 90
      499
 91
      508
 95
       25
 70
     0
 93
      212
310
00010143905350555513D2105510D21493D500000000000002E400
330
2E
 94
        0
  0
ACAD_PROXY_OBJECT
  5
1644
330
2E
100
AcDbProxyObject
 90
      499
 91
      509
 95
       25
 70
     0
 93
      156
310
00010143905350555513D2105510D21111551010
330
2E
 94
        0
  0
ACAD_PROXY_OBJECT
  5
1652
330
2E
100
AcDbProxyObject
 90
      499
 91
      546
 95
       25
 70
     0
 93
      698
310
0001000000009AA6A9AA4051E547565204175672032342030343A33343A353120323031302028555443290141CE4B8C8B8C0B8C80518546875205365702032332031313A33323A333320323031300141CE4B8C8B8C0B8C80
330
2E
330
1653
330
1654
330
1656
330
0
 94
        0
  0
ACAD_PROXY_OBJECT
  5
1653
330
2E
100
AcDbProxyObject
 90
      499
 91
      547
 95
       25
 70
     0
 93
       70
310
0001AAA80820000000
330
2E
330
1653
330
1653
 94
        0
  0
ACAD_PROXY_OBJECT
  5
1654
330
2E
100
AcDbProxyObject
 90
      499
 91
      548
 95
       25
 70
     0
 93
       48
310
000100000000
330
2E
330
0
330
1655
330
0
330
0
 94
        0
  0
ACAD_PROXY_OBJECT
  5
1655
330
2E
100
AcDbProxyObject
 90
      499
 91
      549
 95
       25
 70
     0
 93
       40
310
000100AAAA
330
2E
330
0
 94
        0
  0
ACAD_PROXY_OBJECT
  5
165B
330
2E
100
AcDbProxyObject
 90
      499
 91
      525
 95
       25
 70
     0
 93
      180
310
00010143105050D3D35411119390535140504434F4D500
330
2E
 94
        0
  0
ACAD_PROXY_OBJECT
  5
165C
330
2E
100
AcDbProxyObject
 90
      499
 91
      525
 95
       25
 70
     0
 93
      212
310
0001014390505193D311115491119390535140506466F6C6465720
330
2E
 94
        0
  0
ACAD_PROXY_OBJECT
  5
165D
330
2E
100
AcDbProxyObject
 90
      499
 91
      525
 95
       25
 70
     0
 93
      180
310
00010143105050539393D1119390535140504284156290
330
2E
 94
        0
  0
ACAD_PROXY_OBJECT
  5
165E
330
2E
100
AcDbProxyObject
 90
      499
 91
      525
 95
       25
 70
     0
 93
      436
310
00010143905050D3D35415925155D31254D50052295BD96CA0A90B396CA0A894591A496CA0A8DB691A496CA0A89BA96CA0A95E28F95310
330
2E
 94
        0
  0
ACAD_PROXY_OBJECT
  5
1663
330
2E
100
AcDbProxyObject
 90
      499
 91
      554
 95
       25
 70
     0
 93
       32
310
00010000
330
2E
340
1660
330
1665
330
1660
 94
        0
  0
ACAD_PROXY_OBJECT
  5
1664
330
2E
100
AcDbProxyObject
 90
      499
 91
      555
 95
       25
 70
     0
 93
       18
310
000180
330
2E
 94
        0
  0
ACAD_PROXY_OBJECT
  5
1665
330
2E
100
AcDbProxyObject
 90
      499
 91
      556
 95
       25
 70
     0
 93
      154
310
0001014211940C4C548B4D4D5050055401550000
330
2E
330
1663
330
1664
 94
        0
  0
ACAD_PROXY_OBJECT
  5
1666
330
2E
100
AcDbProxyObject
 90
      499
 91
      557
 95
       25
 70
     0
 93
      178
310
000100AAAAAAA1B6EE4AC073CF9060D2ADEC7D6EDDF840
330
2E
330
1665
 94
        0
  0
ACAD_PROXY_OBJECT
  5
1667
330
2E
100
AcDbProxyObject
 90
      499
 91
      558
 95
       25
 70
     0
 93
      108
310
000190140A000000000000AAAAA0
330
2E
330
1668
330
1668
330
1668
330
1668
330
1668
330
0
 94
        0
  0
ACAD_PROXY_OBJECT
  5
1668
330
2E
100
AcDbProxyObject
 90
      499
 91
      559
 95
       25
 70
     0
 93
       51
310
00010000AAAA80
330
2E
330
1667
330
1665
 94
        0
  0
DICTIONARY
  5
40
102
{ACAD_REACTORS
330
3F
102
}
330
3F
100
AcDbDictionary
281
     1
  3
DWGSETTINGS
350
41
  3
FEM
350
54
  3
Shaft
350
53
  3
TRANSSETTINGS
350
42
  0
ACAD_PROXY_OBJECT
  5
47
102
{ACAD_REACTORS
330
3F
102
}
330
3F
100
AcDbProxyObject
 90
      499
 91
      521
 95
       25
 70
     0
 93
    23232
310
41502491013041105357CC201C00030C011E441013141105357CC603800030C011E441013241105357CCA01400030C011E441013341105357CCE01800030C010D9013441105357CD200C00030C010D9013541105357CD600C00030C010D9013641105357CDA00800030C011E9013741105357CDE01000030C010D901384110
310
5357CE200400030C011E9013941105357CE63F400030C0241102324141505357CC4C201C00030C011E902344141505357CC4C600C00030C010D902495041505357CC4CA01C00030C011E40902304E41505357CC13A01C00030C011E902314E41505357CC53A03800030C011E902324E41505357CC93A01400030C011E90233
310
4E41505357CCD3A01800030C010D902344E41505357CD13A00C00030C010D902354E41505357CD53A00C00030C010D902364E41505357CD93A00800030C011E902374E41505357CDD3A01000030C010D902384E41505357CE13A00400030C011E902394E41505357CE53A3F400030C024110332414E41905357CC4C13A01C0
310
0030C011E90334414E41905357CC4C53A00C00030C010D90349504E41905357CC4C93A01C00030C011E409044B4C494E41505357D0D3200400030C011E42504494E464F42105357D410549151A01000030C010D42D055241484D3541905357D093D4A01C00030C011E425045649455742105357D5925155D4E00400030C011
310
E42D06424548494E4441905357D25395A3F400030C0243505545241494C41505357D514A00C00030C010D4250348494441905357D21251201C00030C011E4250356495341905357D59254E01C00030C011E4250650415244494D42505357D41054911253600C00030C010D4250652454644494D42505357D49151911253601
310
000030C010D425774110531514901348070000C300479034110915312501348000000C0003FFFFFFFD034110921395901398000000C0003FFFFFFFE415092139594D06424548494E448000000C0003FFFFFFFE411093125110234418000000C0003FFFFFFFD03411093D05410234418000000C0003FFFFFFFD03411093D48C
310
9055241484D358010000C30047A411093D48CD055241484D358020000C30047A411093D48D5055241484D358000000C0003FFFFFFFE411093D48DD055241484D3581E0000C30047903411094105410234418000000C0003FFFFFFFD03411094115610234418000000C0003FFFFFFFD034110951112501358000000C0003FFF
310
FFFFD034110D0530C901348000000C0003FFFFFFFE4110D0530CD01348020000C30047A4110D0530D501348070000C30047A4110D0530DD013481E0000C30047A4110D15393901378000000C0003FFFFFFFE4110D15395D01378000000C0003FFFFFFFE4110D312539044B4C494E8000000C0003FFFFFFFE4110D3D38C5013
310
08000000C0003FFFFFFFD034110D3D38C901318000000C0003FFFFFFFD034110D3D38CD01328000000C0003FFFFFFFD034110D3D38D101328000000C0003FFFFFFFD034111115494101348000000C0003FFFFFFFD034111115510501348000000C0003FFFFFFFE4111125051D01358000000C0003FFFFFFFE4111125312501
310
358000000C0003FFFFFFFE411112535410650415244494D8000000C0003FFFFFFFE411112535490652454644494D8000000C0003FFFFFFFE411156135410234418000000C0003FFFFFFFD034111915353901388000000C0003FFFFFFFE415191535413901388030000C3004364151915354D410234418000000C0003FFFFFF
310
FE4151915354D510234418030000C300436415191535593901328000000C0003FFFFFFFE415191535595101328030000C3004364111931055101308000000C0003FFFFFFFD03411194905490234418000000C0003FFFFFFFD034111D49312501358000000C0003FFFFFFFD034111D5931250234418000000C0003FFFFFFFD0
310
34112105510D01388000000C0003FFFFFFFD014112125113901338000000C0003FFFFFFFD034112125115D01338000000C0003FFFFFFFD034112131253901348000000C0003FFFFFFFD01411213D0D3901378000000C0003FFFFFFFE411213D0D5D01378000000C0003FFFFFFFE4112539193D04494E464F8000000C0003FF
310
FFFFFE4113105112501348000000C0003FFFFFFFD034113115051101358000000C0003FFFFFFFE419397D0921395902394E8000000C0003FFFFFFFE419397D0D3D38C502304E8000000C0003FFFFFFFD03419397D0D3D38C902314E8000000C0003FFFFFFFD03419397D0D3D38CD02324E8000000C0003FFFFFFFD03419397
310
D0D3D38D102324E8000000C0003FFFFFFFD03419397D0D15393902374E8000000C0003FFFFFFFE419397D0D15395D02374E8000000C0003FFFFFFFE419397D1125312502354E8000000C0003FFFFFFFE419397D2105510D02384E8000000C0003FFFFFFFD01419397D2125113902334E8000000C0003FFFFFFFD03419397D2
310
125115D02334E8000000C0003FFFFFFFD03419397D3115051102354E8000000C0003FFFFFFFE419397D391D25410349504E8000000C0003FFFFFFFE419397D412105390334414E8000000C0003FFFFFFFE419397D510D3D3902304E8000000C0003FFFFFFFD03419397D5121312502344E8000000C0003FFFFFFFD01419397
310
D5131153902304E8000000C0003FFFFFFFD03419397D516150CD02364E8000000C0003FFFFFFFD03419397D594131250332414E8000000C0003FFFFFFFE411391D25410249508000000C0003FFFFFFFE411410530C9055241484D358010000C30047A411410530CD055241484D358020000C30047A411410530D5055241484
310
D358000000C0003FFFFFFFE411410530DD055241484D3581E0000C30047903411412105390234418000000C0003FFFFFFFE411413D4D3901368070000C30047A419413D4D49151901368050000C30047903411413D4D6101368000000C0003FFFFFFFD03411414D150D0234418000000C0003FFFFFFFD03411490D1D390137
310
8000000C0003FFFFFFFE411490D1D5D01378000000C0003FFFFFFFE4114919112501348000000C0003FFFFFFFD034114945514901348070000C30047903411494D093D01348000000C0003FFFFFFFD034114D09492D01348000000C0003FFFFFFFD014114D0D153901378000000C0003FFFFFFFD034114D150D51013480000
310
00C0003FFFFFFFD014114D15313901378000000C0003FFFFFFFD034114D15315D01378000000C0003FFFFFFFD034114D4D654D01308000000C0003FFFFFFFD034114D51312501348070000C300479034114D6508C501358000000C0003FFFFFFFD034114D6508C901358000000C0003FFFFFFFD034114D6508CD0135802000
310
0C30047A4114D6508D501358070000C300479034114D65353901378000000C0003FFFFFFFD034114D65355D01378000000C0003FFFFFFFD03411510D3D3901308000000C0003FFFFFFFD034115121312501348000000C0003FFFFFFFD01411512550C9055241484D358010000C30047A411512550CD055241484D358020000
310
C30047A411512550D5055241484D358000000C0003FFFFFFFE411512550DD055241484D3581E0000C300479034115131153901308000000C0003FFFFFFFD03415514905253105545241494C8000000C0003FFFFFFFE41151492D3901378000000C0003FFFFFFFD0341151492D5D01378000000C0003FFFFFFFD03411514931
310
2501348000000C0003FFFFFFFD01411516150C501368030000C300436411516150C901368030000C300436411516150CD01368000000C0003FFFFFFFE411516150D501368070000C30047A411516150DD013681E0000C30047A4115925155D04564945578000000C0003FFFFFFFE41159151121034849448000000C0003FFF
310
FFFFD0241159151159035649538000000C0003FFFFFFFD02411594131250232418000000C0003FFFFFFFE4116925690501348000000C0003FFFFFFFD01411354D653501358020000C30047AAAA3F400030C01013F90A4051E4091E40D0D4110D4151E4190D41D1E4391E4791E7F6
340
16
340
16
340
16
340
48
340
16
340
16
340
16
340
49
340
16
340
16
340
49
340
4A
340
16
340
16
340
16
340
16
340
48
340
16
340
16
340
16
340
49
340
16
340
16
340
49
340
4A
340
16
340
4B
340
16
340
16
340
16
340
16
340
16
340
48
340
16
340
16
340
16
340
4C
340
15
340
15
340
15
340
15
340
15
340
15
340
15
340
15
340
15
340
15
340
15
340
15
340
15
340
15
340
15
340
15
340
4D
340
15
340
15
340
15
340
15
340
15
340
15
340
15
340
15
340
15
340
15
340
15
340
15
340
15
340
15
340
15
340
16
340
15
340
15
340
15
340
15
340
15
340
15
340
15
340
15
340
4C
340
15
340
15
340
4D
340
15
340
15
340
15
340
15
340
15
340
15
340
15
340
15
340
15
340
4D
340
15
340
15
340
15
340
4C
340
15
340
15
340
15
340
15
340
15
340
15
340
15
340
15
340
15
340
15
340
15
340
15
340
15
340
15
340
15
340
15
340
15
340
15
340
15
340
4D
340
15
340
15
340
4D
340
15
340
15
340
16
340
15
340
4D
340
15
340
15
340
4C
340
15
340
15
340
16
340
15
340
4D
340
15
340
15
340
15
340
15
340
15
340
15
340
15
340
15
340
15
340
4D
340
15
340
15
340
15
340
15
340
15
340
15
340
15
340
15
340
15
340
15
340
15
340
50
340
16
 94
        0
  0
ACAD_PROXY_OBJECT
  5
AE3
102
{ACAD_REACTORS
330
59
102
}
330
59
100
AcDbProxyObject
 90
      499
 91
      522
 95
       25
 70
     0
 93
      253
310
43D1444494D454E53494F4E2C414D44545F2A5F44494D404A9012A404A9012A0
  0
ACAD_PROXY_OBJECT
  5
AE4
102
{ACAD_REACTORS
330
59
102
}
330
59
100
AcDbProxyObject
 90
      499
 91
      522
 95
       25
 70
     0
 93
      181
310
43D012A42D05357D191504B505357CA9012A404A9012A8
  0
ACAD_PROXY_OBJECT
  5
AE5
102
{ACAD_REACTORS
330
59
102
}
330
59
100
AcDbProxyObject
 90
      499
 91
      522
 95
       25
 70
     0
 93
      133
310
43D054841544348404A9012A404A9012A8
  0
ACAD_PROXY_OBJECT
  5
AE6
102
{ACAD_REACTORS
330
59
102
}
330
59
100
AcDbProxyObject
 90
      499
 91
      522
 95
       25
 70
     0
 93
      549
310
43D044C494E4549CE0B0E138B0A8B4E0B0A8B4E138B105357CE0B105357CE138B0A8B505357CE0B0A8B505357CE139012A404A910494E534552542C5354445041525432448
  0
ACAD_PROXY_OBJECT
  5
AE7
102
{ACAD_REACTORS
330
59
102
}
330
59
100
AcDbProxyObject
 90
      499
 91
      522
 95
       25
 70
     0
 93
      909
310
43D6641434D46434652414D452C41434D444154554D5441524745542C41434D444154554D49442C41434D57454C4453594D2C41434D5355524653594D2C41434D4645415449442C41434D504152545245462C41434D42414C4C4F4F4E2C414D44544544474553594D404A9012A404A9012A8
  0
XRECORD
  5
1606
102
{ACAD_REACTORS
330
1605
102
}
330
1605
100
AcDbXrecord
280
     1
  1
PV
 40
1.0
 50
-12318.5925953127
 51
-8794.902155258136
 52
12318.5925953127
 53
8794.902155258136
  0
ACAD_PROXY_OBJECT
  5
45
102
{ACAD_REACTORS
330
44
102
}
330
44
100
AcDbProxyObject
 90
      499
 91
      520
 95
       25
 70
     0
 93
      157
310
057356C1D77406406AA8FFFFFFFF05DD01009010
330
1F
330
0
330
1665
 94
        0
  0
ACAD_PROXY_OBJECT
  5
1B45
102
{ACAD_REACTORS
330
7A0
102
}
330
7A0
100
AcDbProxyObject
 90
      499
 91
      576
 95
       25
 70
     0
 93
     2395
310
5DCB81E85EB51B8BE3F8030000C30041105394D2501640600800030C0200800030C00B81E85EB51B8BE3F48821E8720B1B6A9BAB9332A32BC3A29BA3220480A1282C6DA8C868CA6E8C88120286A0B1B6ABB2B63234B733A9BA3220480A1082C6DA92C8A6E8C88120285A0B1B6A230BA3AB6A9BA3220480A1282C6DA849E9AA
310
6E8C8812028820B6B23A2232BA30B4B629BCB6A9BA3220480A2282DAC8E8A6CAC6E8D2DEDCA6F2DAA6E8C88120288A0B6B23A21B2B73A32B92634B732A9BA3220480A2282DAC8E8A8D0E4CAC2C898D2DCCAA6E8C88120285A0B6B23A2737BA32A9BA3220480A1682C682DACE98C2F2A6E8C88120285A0B1A0B6B3A234B6A9B
310
A3220480A2282C682DACE90DED8CA86D0C2E4E8A6E8C88120286A0B1A0B6B3AA34BA3632A9BA3220480A02812020
340
190A
360
1B46
360
1B47
360
1B48
360
1B49
360
1B4A
360
1B4B
360
1B4C
360
1B4D
360
1B4E
360
1B4F
360
1B50
360
1B56
360
1B57
360
1B58
360
1B59
340
0
340
0
 94
        0
  0
ACAD_PROXY_OBJECT
  5
7A1
102
{ACAD_REACTORS
330
7A0
102
}
330
7A0
100
AcDbProxyObject
 90
      499
 91
      526
 95
       25
 70
     0
 93
     2379
310
5DC33333333333309408000000C00040D29254D01640600800030C0200800030C003333333333330940C8121E8720B1B6A9BAB9332A32BC3A29BA3220480A1282C6DA8C868CA6E8C88120286A0B1B6ABB2B63234B733A9BA3220480A1082C6DA92C8A6E8C88120285A0B1B6A230BA3AB6A9BA3220480A1282C6DA849E9AA6E
310
8C88120286A0B1A0B6B3AA34BA3632A9BA3220480A2082DAC8E888CAE8C2D2D8A6F2DAA6E8C88120288A0B6B23A29B2B1BA34B7B729BCB6A9BA3220480A2282DAC8E886CADCE8CAE498D2DCCAA6E8C88120288A0B6B23A2A343932B0B22634B732A9BA3220480A1682DAC8E89CDEE8CAA6E8C88120285A0B1A0B6B3A630BCA
310
9BA3220480A1682C682DACE88D2DAA6E8C88120288A0B1A0B6B3A437B632A1B430B93A29BA3220480C812020
340
7A2
360
7A3
360
7A4
360
7A5
360
7A6
360
7A7
360
7A8
360
166A
360
166B
360
166C
360
166E
360
166F
360
1670
360
1676
360
1677
360
1678
340
0
340
0
 94
        0
  0
ACAD_PROXY_OBJECT
  5
41
102
{ACAD_REACTORS
330
40
102
}
330
40
100
AcDbProxyObject
 90
      499
 91
      518
 95
       25
 70
     0
 93
     2908
310
4050B44574753455454494E4753A0E8482A68AA6A88882A069492A684A1A0A723A0A92920ACA0A8419983E1A1ABE1B1820C868A9C829C8E82A12686AF87260F862666A8321A2A72224A0A50556CBEEB04240D2020E868A9C889282A682A106260F86460F8666083A1A2A72224A9AA250000000000000042020C868A9C988A9
310
C94000000000000048808321A2A727A323250000000000000122020E868A9C9E8C8C62940000000000000488083A1A2A727A3231925000000000000012202128698929C82A4A482B282A0A66645C60608421A624A722AA2CA820A82AC2624A722A1288AE8EAAA68682988A94283A620A9AA27A12520A82199CA120A109A829
310
68AAC928AAE9FA04832829A1A0A622830020000419491559254D2505404C1055343414C4541503313A314214D510539110549110540D29254D0954494D455354414D504A0986ACFB1732B734141D5915494D253D3905414C4D4B8C0C1107B44574753455454494E4753454E447D0
  0
ACAD_PROXY_OBJECT
  5
54
102
{ACAD_REACTORS
330
40
102
}
330
40
100
AcDbProxyObject
 90
      499
 91
      518
 95
       25
 70
     0
 93
      411
310
4050346454D21092DCC6E486DECACC942842630BCA3B937BAB820A8320A6AFA322A0A20F688AE8EA68AA8A8929C8EA68A9C88FA0
  0
ACAD_PROXY_OBJECT
  5
53
102
{ACAD_REACTORS
330
40
102
}
330
40
100
AcDbProxyObject
 90
      499
 91
      518
 95
       25
 70
     0
 93
      591
310
40505536861667421292DCE8CAE4E4EAE0E89FC84A634B3B43A2634B732A7E80A1A98D2CED0E898D2DCCAACD2CAEE9FA028229B4B232A7E80A20F688AE8EA68AA8A8929C8EA68A9C88FA
  0
ACAD_PROXY_OBJECT
  5
42
102
{ACAD_REACTORS
330
40
102
}
330
40
100
AcDbProxyObject
 90
      499
 91
      518
 95
       25
 70
     0
 93
      852
310
4050D5452414E5353455454494E4753A2488A482AE929C8EA8A4829CA69882A8929E9C0C00800050D4F524947494E414C4C595F4F4E0600400028529A7AAA921A2A620A723A0A81A52827212AAA0A48AA68AA4AC8A0C0080001107B44574753455454494E4753454E447D0
  0
ACAD_PROXY_OBJECT
  5
1B46
330
1B45
100
AcDbProxyObject
 90
      499
 91
      577
 95
       25
 70
     0
 93
       96
310
5DC20E80A0280A0280A02808
  0
ACAD_PROXY_OBJECT
  5
1B47
330
1B45
100
AcDbProxyObject
 90
      499
 91
      578
 95
       25
 70
     0
 93
      332
310
5DD0E4050140501405014050140501405014050142501405014050140501405012000000000000000400
340
190B
 94
        0
  0
ACAD_PROXY_OBJECT
  5
1B48
330
1B45
100
AcDbProxyObject
 90
      499
 91
      579
 95
       25
 70
     0
 93
      403
310
5DCC199999999999E99F91F4050140501405014050140501405014050140501405014050140501405014050140501405014040
340
0
 94
        0
  0
ACAD_PROXY_OBJECT
  5
1B49
330
1B45
100
AcDbProxyObject
 90
      499
 91
      580
 95
       25
 70
     0
 93
       10
310
5DC0
  0
ACAD_PROXY_OBJECT
  5
1B4A
330
1B45
100
AcDbProxyObject
 90
      499
 91
      581
 95
       25
 70
     0
 93
      257
310
5DE290EA22A7D90F49F9353333333333727F44D4CCCCCCCCCDC9FC010000618000
340
1907
340
1908
 94
        0
  0
ACAD_PROXY_OBJECT
  5
1B4B
330
1B45
100
AcDbProxyObject
 90
      499
 91
      582
 95
       25
 70
     0
 93
    13023
310
5DD0E411255115350141236025B6901405014069011309A4F2590CB64FD3347454E545241434F2C4A504E2C302C8D8096DA2C47454E54524154582C25732C2847454E4D53472067656E647767203232322940690120281A8AA2CA0282484A4BE52028120280A03202261349E4B2196C9FA668E8A9CA8A482869E5894A09C58
310
605921292F94588E8A9CA8A482A8B0584AE658508E8A9C9AA68E40CECADCC8EECE406464665280D202405044E414D454050496BC914F4051C40640A8B95C2E97CBE502404CD1D15395149050D3CB1294138B0C0B25AF2453CB11D15395149055160B095CCB0A11D1539354D1C819D95B991DD9C80C8C8D8A50192C3D494628
310
4953424C414E4B28504152543A4E414D45292C424C4F434B3A4E414D452C504152543A4E414D452940480A0A888AA686A480A09251B1DBE80A3A80C81D10782C06030180C8099A3A2A72A2920A1A7962528271618164946C76F9623A2A72A2920AA2C1612B9961423A2A726A9A39033B2B7323BB39019189B94A0248090142
310
14D51053911054911014122D2E29A50147501904A383BFDFEFF5FBFCFD3347454E545241434F2C4A504E2C302C8B4B8A692C47454E54524154582C25732C2847454E4D53472067656E64776720323138294049012028426A0AA22A924A0A62028246EF4BDFA028EA0320B41396D838E9017D9FA668E8A9CA8A482869E5894A
310
09C5860591BBD2F7E588E8A9CA8A482A8B0584AE658508E8A9C9AA68E40CECADCC8EECE406464625280D202405044E4F544540504928D8B4C4051D40641A8B95C2E97CBE5F23F4CD1D15395149050D3CB1294138B0C0B24A362D30B11D15395149055160B095CCB0A11D1539354D1C819D95B991DD9C80C8C8D4A501A40480
310
A0CAC8A9C889EA480A1106F1072706BF02B680A3A80C83D172B85D2F97CBE47E9BA3A2A72A2920A1A79625282716181641BC41C9C1AFC0AD9623A2A72A2920AA2C1612B9961423A2A726A9A39033B2B7323BB39019191A14A0348090141911154D0D48C90141A43825AF880C90147501908A20F0580C0603019013447454E5
310
45241434F2C4A504E2C302C90E096BE20322C47454E54524154582C25732C2847454E4D53472067656E6477672033362940490120284A9AA20A72220A922192028345A5C53490192028EA0321347077FBFDFEBF7F9FA6A8E8A9CA8A482869E5894A09C586059169714D24064588E8A9CA8A482A8B0584AE658508E8A9C9AA6
310
8E40CECADCC8EECE4064646052809202405094D4154455249414C32405068DDE97BF20324051D40642A8272DB071D202FB3F4D11D15395149050D3CB1294138B0C0B2377A5EFC80C8B11D15395149055160B095CCB0A11D1539354D1C819D95B991DD9C80D0C0A501240480A089A82A6A680A091D7F2F9480A3A80A0485A06
310
81172B85D2F97CBE47E9923A2A72A2920A1A796252827161816475FCBE51623A2A72A2920AA2C1612B9961423A2A726A9A39033B2B7323BB3901A1914A024809014154149250D150141226FE29A501475014090C409022E570BA5F2F97C8FD3247454E545241434F2C4A504E2C302C89BF8A692C47454E54524154582C2573
310
2C2847454E4D53472067656E6477672034332940490120281A224A6A02824850CB202028EA028121A81A045CAE174BE5F2F91FA648E8A9CA8A482869E5894A09C58605921432C80588E8A9CA8A482A8B0584AE658508E8A9C9AA68E40CECADCC8EECE406868528092024050E441022E07A17AD46E338FE07800030C0001018
310
ACD56AB55AADF63F2B355AAD56AB7D8FD073D3C4954454D3E405018ACD56AB55AADF63F2B355AAD56AB7D8FD073D3C4954454D3E40501890C7E3F1783CEE3F2431F8FC5E0F3B8FD073D3C4954454D3E40501890C7E3F1783CEE3F2431F8FC5E0F3B8FD073D3C4954454D3E405029012B355AAD56AB7D8FCACD56AB55AADF63
310
F41CF4F125511534F901418F4F1455164F9014062B355AAD56AB7D8FCACD56AB55AADF63F41CF4F125511534F9014061309A4F2590CBA4FC4C2693C96432E93F41CF4F125511534F901901002B355AAD56AB7D8FCACD56AB55AADF63FA2000000000000008204018000618048220681A048120280C88214844882034852034
310
8452028521485214814000000000000F0BF0000000000003C2FD018020000C3008070000C3000EF7D3E365DBA88FC3BDF4F8D976EA23F2E07A17AD46E2F8FF20341A405024150741A4069703D0BD6A3717C7F0040001860100400018601002000186002026280A02
340
0
340
0
 94
        0
  0
ACAD_PROXY_OBJECT
  5
1B4C
330
1B45
100
AcDbProxyObject
 90
      499
 91
      583
 95
       25
 70
     0
 93
      994
310
5DC0B81E85EB51B8CE3F4BCF511155105253080F11115510525317D3105091530F971414D0D05311480F11115510525317D05094D4D0D053114F92341C9A9999999999B93F26A666666666724FC000000000000E03F4000000000000004000000000000005100000000000000244081E0000C3002E07A17AD46E338FC0
340
1646
340
190A
 94
        0
  0
ACAD_PROXY_OBJECT
  5
1B4D
330
1B45
100
AcDbProxyObject
 90
      499
 91
      584
 95
       25
 70
     0
 93
      823
310
5DC031703D0BD6A3719C7E999EA9A2A1AA24A7A7101E29A2A1AA24A7A72FA620A122A62FA324A929AA1F169E29A2A1AA24A7A72FA620A122A62FA620A9AA1F1353333333333B27E3FFFE01C00030C008840F000061801353333333333B27F1703D0BD6A3719C7E
340
1646
340
190A
 94
        0
  0
ACAD_PROXY_OBJECT
  5
1B4E
330
1B45
100
AcDbProxyObject
 90
      499
 91
      585
 95
       25
 70
     0
 93
      280
310
5DC2B8716D9CEF7C33F0A5723F0BD4A2F0FC295C8FC2F528BC3FA199999999999F99FC
  0
ACAD_PROXY_OBJECT
  5
1B4F
330
1B45
100
AcDbProxyObject
 90
      499
 91
      586
 95
       25
 70
     0
 93
       14
310
5DE4
340
0
 94
        0
  0
ACAD_PROXY_OBJECT
  5
1B50
330
1B45
100
AcDbProxyObject
 90
      499
 91
      587
 95
       25
 70
     0
 93
     7123
310
5DD084050BA4050AA405024050E836583938376838C815B8367203140405013D3C696628657175616C28486F6C653A7461707065642C223022292C22252563222C486F6C653A6E6F6D696E616C2022202220696628657175616C28486F6C653A756E6974732C223122292C2278222C222D222920222022293E3C6966286571
310
75616C28486F6C653A7461707065642C223022292C486F6C653A6469612C486F6C653A706974636864657363293E207B5C46414D4744543B787D203C696628657175616C28486F6C653A7465726D696E6174696F6E2C223022292C486F6C653A64657074682C228AD192CA22293E5C507B5C46414D4744543B767D2525633C
310
486F6C653A63746469613E207B5C46414D4744543B787D203C486F6C653A637464657074683E406901405034050E836583938376838C815B83672031405FE3D3C696628657175616C28486F6C653A7461707065642C223022292C22252563222C486F6C653A6E6F6D696E616C2022202220696628657175616C28486F6C653
310
A756E6974732C223122292C2278222C222D222920222022293E3C696628657175616C28486F6C653A7461707065642C223022292C486F6C653A6469612C486F6C653A706974636864657363293E207B5C46414D4744543B787D203C696628657175616C28486F6C653A7465726D696E6174696F6E2C223022292C486F6C653
310
A64657074682C228AD192CA22293E5C507B5C46414D4744543B777D2525633C486F6C653A63746469613E2058203C486F6C653A6374616E676C653E252564406901405014050E836583938376838C815B83672031405CF3D3C696628657175616C28486F6C653A7461707065642C223022292C22252563222C486F6C653A6E
310
6F6D696E616C2022202220696628657175616C28486F6C653A756E6974732C223122292C2278222C222D222920222022293E3C696628657175616C28486F6C653A7461707065642C223022292C486F6C653A6469612C486F6C653A706974636864657363293E5C507B5C46414D4744543B787D203C696628657175616C2848
310
6F6C653A7465726D696E6174696F6E2C223022292C486F6C653A64657074682C228AD192CA22293E4069014051E4090E836583938376838C815B83672032405173D3C535444503A444553433E203C535444503A5354443E40690E836583938376838C815B836720314050C3D3C535444503A444553433E40690240515AAABB
310
A060
360
1B51
330
1B51
360
1B52
330
1B52
360
1B53
330
1B53
360
1B54
360
1B55
330
1B54
330
1B55
 94
        0
  0
ACAD_PROXY_OBJECT
  5
1B56
330
1B45
100
AcDbProxyObject
 90
      499
 91
      567
 95
       25
 70
     0
 93
       26
310
5DD02A80
340
0
 94
        0
  0
ACAD_PROXY_OBJECT
  5
1B57
330
1B45
100
AcDbProxyObject
 90
      499
 91
      568
 95
       25
 70
     0
 93
      258
310
5DD02000000000000380FC000000000000E03F408F0F9023C3E40DB18CCCFFFF80
340
190C
340
0
340
0
340
190D
340
190E
340
0
340
190F
340
1910
340
1911
340
0
 94
        0
  0
ACAD_PROXY_OBJECT
  5
1B58
330
1B45
100
AcDbProxyObject
 90
      499
 91
      588
 95
       25
 70
     0
 93
    13993
310
5DD1D023FFFFFFFD010300002E07A17AD46E2F8FE00800030C01010300002E07A17AD46E2F8FE00800030C00050C8DC0955782CC838A83588367014ED1D15395149050D3CB1294138B0C0B23702555E0B320E2A0D620D9CB11D15395149055160B095CCB0A11D1539354D1C819D95B991A5B5E880CCC0A78000C0000000000
310
00000000000000000000007B14AE47E17AA43F2E07A17AD46E2F8FE00800030C007B14AE47E17AA43F2E07A17AD46E2F8FE00800030C020143CF4F111959985D5B1D151A5D1B194F8050A8C8A8365815B8375838B014E51D15395149050D3CB1294138B0C0B2322A0D96056E0DD60E2CB11D15395149055160B095CCB0A11D
310
1539354D1C819D95B991A5B5E880CCC4A78000C000000000000000000000000000000007B14AE47E17AA43F2E07A17AD46E2F8FE00800030C007B14AE47E17AA43F2E07A17AD46E2F8FE00800030C020143CF4F111959985D5B1D151A5D1B194F90D4410F4450240D0441507431014391244D05449074510C4350F00014123
310
2D24D7C053247454E545241434F2C4A504E2C302C8CB4935F2C47454E54524154582C25732C2847454E4D53472067656E64696D7A20312900010104002214000282465A49AF80A648E8A9CA8A482869E5894A09C586059196926BE588E8A9CA8A482A8B0584AE658508E8A9C9AA68E40CECADCC8D2DAF44062520002020800
310
43E80005028C8A014C11D15395149050D3CB1294138B0C0B23228B11D15395149055160B095CCB0A11D1539354D1C819D95B991A5B5E880C8A4054E3D3C4946284953424C414E4B28486F6C654974656D292C4F726967696E2C20486F6C654974656D293E3C4946284953424C414E4B28486F6C654974656D292C22222C204
310
86F6C65496E646578293E010104002234000280AC00A5E8E8A9CA8A482869E5894A09C586058B0588E8A9CA8A482A8B0584AE658508E8A9C9AA68E40CECADCC8D2DAF4406652000202000040A800050159014BD1D15395149050D3CB1294138B0C0B164B11D15395149055160B095CCB0A11D1539354D1C819D95B991A5B5E
310
880D0A4000404000081D0000A02A40297A3A2A72A2920A1A796252827161816291623A2A72A2920AA2C1612B9961423A2A726A9A39033B2B73234B6BD101B148000808000104A000140A0F4C053047454E545241434F2C4A504E2C302C83D32C47454E54524154582C25732C2847454E4D53472067656E64696D7A20372900
310
0101030020B400028141E980A608E8A9CA8A482869E5894A09C58605907A6588E8A9CA8A482A8B0584AE658508E8A9C9AA68E40CECADCC8D2DAF4407052000202020041E800050490E096BE014CD1D15395149050D3CB1294138B0C0B243825AF8B11D15395149055160B095CCB0A11D1539354D1C819D95B991A5B5E880C8
310
C0A400040010008650000A091B012DB40299A3A2A72A2920A1A79625282716181646C04B6D1623A2A72A2920AA2C1612B9961423A2A726A9A39033B2B73234B6BD10189A148000808280501A00014320D0E0E4E0D9A0D8A0D3A0D60053B47454E545241434F2C4A504E2C302C8343839383668362834E83582C47454E54524
310
154582C25732C2847454E4D53472067656E64696D7A203135290001010500A1D4000281464500A628E8A9CA8A482869E5894A09C5860591914588E8A9CA8A482A8B0584AE658508E8A9C9AA68E40CECADCC8D2DAF440626C52000202080044A800050E8C8A8343839383668362834E8358014F51D15395149050D3CB129413
310
8B0C0B2322A0D0E0E4E0D9A0D8A0D3A0D60B11D15395149055160B095CCB0A11D1539354D1C819D95B991A5B5E880C4DCA4000404140089D0000A0921292F940299A3A2A72A2920A1A796252827161816484A4BE51623A2A72A2920AA2C1612B9961423A2A726A9A39033B2B73234B6BD10189C948000808300114A0001412
310
2D2E29A4053347454E545241434F2C4A504E2C302C8B4B8A692C47454E54524154582C25732C2847454E4D53472067656E64696D7A20323129000100040021B4878030026A6666666667A4FE064D4CCCCCCCCCF49FC049A9999999999E93F809353333333333D27F0226A6666666667A4FE044D4CCCCCCCCCF49FC0D818000
310
00000000000810026A666666666764FE004D4CCCCCCCCCF49FC009A9999999999E93F801353333333333D27F032E07A17AD46E378FE0633B333333333032050F006004D4CCCCCCCCCF49FC0C9A9999999999E93F819353333333333D27F0326A6666666667A4FE064D4CCCCCCCCCF49FC0C9A9999999999E93F81B03000000
310
00000000102004D4CCCCCCCCCEC9FC009A9999999999E93F819353333333333D27F0026A6666666667A4FE065C0F42F5A8DC6F1FC0C6766666666660640A088800000021E000000890000002260000008220E000200890000002060002008100008000
340
0
340
0
340
0
340
0
340
190A
340
190A
 94
        0
  0
ACAD_PROXY_OBJECT
  5
1B59
330
1B45
100
AcDbProxyObject
 90
      499
 91
      560
 95
       25
 70
     0
 93
     5214
310
5DD9741105394D2506414E53495F4342905394D257D512551554D15414E53495F54525F5265766973696F6E6C697374614191143202831372E307832322E30696E63682941905394D257D0D1146202832382E307834302E30696E63682941905394D257D191142202831312E307831372E30696E63682941905394D257D091
310
144202832322E307833342E30696E63682941905394D257D111145202833342E307834342E30696E63682941905394D257D1510412028382E357831312E30696E63682941905394D257D050543905B9CDA482557247A25E4C81110D0C414E53495F5449544C45444343505B9CDA482557247A25E4C81050B414E53495F5449
310
544C454143905B9CDA482557247A25E4C81050D0C414E53495F5449544C454143425554C82557247A25E4D0A414E53495F544954555343505B9CDA482557247A25E4C81110B414E53495F5449544C454442110979A97F0838A8358836720415F42525F45505394D257D09497D4995D9A5CDA5BDB9B1A5CDD18510979A97F08
310
38A8358836720415F54525F45505394D257D51497D4995D9A5CDA5BDB9B1A5CDD18510979A97F0838A8358836720445F42525F45505394D257D09497D4995D9A5CDA5BDB9B1A5CDD19110979A97F0838A8358836720445F54525F45505394D257D51497D4995D9A5CDA5BDB9B1A5CDD19110979A97F0838A8358836720415F
310
424C5F45505394D257D09317D4995D9A5CDA5BDB9B1A5CDD18510979A97F0838A8358836720415F544C5F45505394D257D51317D4995D9A5CDA5BDB9B1A5CDD18510979A97F0838A8358836720445F424C5F45505394D257D09317D4995D9A5CDA5BDB9B1A5CDD19110979A97F0838A8358836720445F544C5F45505394D25
310
7D51317D4995D9A5CDA5BDB9B1A5CDD190
  0
ACAD_PROXY_OBJECT
  5
7A3
330
7A1
100
AcDbProxyObject
 90
      499
 91
      527
 95
       25
 70
     0
 93
       86
310
5DEA0C80A0280A0280A034
  0
ACAD_PROXY_OBJECT
  5
7A4
330
7A1
100
AcDbProxyObject
 90
      499
 91
      528
 95
       25
 70
     0
 93
      282
310
5DD0E4050140501405014050140501405014050141101405014041000000000000001000
340
7A9
 94
        0
  0
ACAD_PROXY_OBJECT
  5
7A5
330
7A1
100
AcDbProxyObject
 90
      499
 91
      529
 95
       25
 70
     0
 93
      323
310
5DCC199999999999E99F91740501405014050140501405014050140501405014050140501405014040
340
0
 94
        0
  0
ACAD_PROXY_OBJECT
  5
7A6
330
7A1
100
AcDbProxyObject
 90
      499
 91
      530
 95
       25
 70
     0
 93
       10
310
5DC0
  0
ACAD_PROXY_OBJECT
  5
7A7
330
7A1
100
AcDbProxyObject
 90
      499
 91
      531
 95
       25
 70
     0
 93
      257
310
5DE0C16A22A7D90F49F80000000000001081400000000000004204010000618000
340
7AA
340
7AB
 94
        0
  0
ACAD_PROXY_OBJECT
  5
7A8
330
7A1
100
AcDbProxyObject
 90
      499
 91
      532
 95
       25
 70
     0
 93
     5277
310
5DD06411255115350141236025B6901405014069010000000000000910240690120281A8AA2CA0282484A4BE52028120280A032020000000000001220480D202405044E414D454050496BC914F4051C40640A80000000000004E4090193C3D3C4946284953424C414E4B28504152543A4E414D45292C424C4F434B3A4E414D
310
452C504152543A4E414D45293E3C41435F44455343524950544E3E40480A109A82A88AA492829880A091BBD2F7E80A3A80C81D0E27A15AF46E08A81203480901411393D5115014124A363B7D0147501904A0000000000000F902406428F4F1050D7D393D5114F901202832B22A72227A92028366EF6EE06F582028EA0320B4
310
0000000000001F20480C879E9E20A1AFAB27222FA620A122A61F20240506445020000000000000490201C00030C00010180000000000003E400000000000000F901073D3C4954454D3E4050180000000000003E400000000000000F901073D3C4954454D3E40501800000000000034400000000000000D101073D3C4954454
310
D3E40501800000000000034400000000000000D101073D3C4954454D3E405029010000000000000F9000000000000003E4041CF4F125511534F901418F4F1455164F9014060000000000000F9000000000000003E4041CF4F125511534F901800000000000034400000000000000D101073D3C4954454D3E40640400000000
310
0000003E400000000000000F90288800000000000020810000001800120881A068120480A032208521122080D21480D211480A1485214852050000000000003C2FC000000000000F0BF40600800030C0200400030C00CDCCCCCCCCCCEC3F3373333333333B0FC3333333333330940C80D069014090341504901A1999999999
310
9984A040100006180400800061804010000618008098A02808
340
0
340
0
 94
        0
  0
ACAD_PROXY_OBJECT
  5
166A
330
7A1
100
AcDbProxyObject
 90
      499
 91
      560
 95
       25
 70
     0
 93
     3042
310
5DD9740D29254D064A49535F413342929254D7D512551311505134A49535F42525F5265766973696F6E6C6973744190F4134522028323937783231306D6D2941D29254D7D04D1490E41312028353934783834316D6D2941929254D7D04C50F41344C2028323130783239376D6D2941D29254D7D04D1310E413320283239377
310
83432306D6D2941929254D7D04CD0E41322028343230783539346D6D2941929254D7D04C90F4130202838343178313138396D6D2941929254D7D04C10243129254C82557247A25E4C81050A4A49535F5449544C454143129254C82557247A25E4C81090A4A49535F5449544C45424110E979A97F0838A835883675F42525F4
310
4D29254D7D09497D4995D9A5CDA5BDB9B1A5CDD10E979A97F0838A835883675F54525F44D29254D7D51497D4995D9A5CDA5BDB9B1A5CDD10E979A97F0838A835883675F424C5F44D29254D7D09317D4995D9A5CDA5BDB9B1A5CDD10E979A97F0838A835883675F544C5F44D29254D7D51317D4995D9A5CDA5BDB9B1A5CDD00
  0
ACAD_PROXY_OBJECT
  5
166B
330
7A1
100
AcDbProxyObject
 90
      499
 91
      561
 95
       25
 70
     0
 93
      898
310
5DC4000000000000124048CF4F11115510525317D3105091530F880A0F11115510525317D05094D4D0D053114F8A50241C9A9999999999B93F26A666666666724FC000000000000E03F400000000000000400000000000000510000000000000024408070000C300000000000000049000
340
16
340
7A2
 94
        0
  0
ACAD_PROXY_OBJECT
  5
166C
330
7A1
100
AcDbProxyObject
 90
      499
 91
      562
 95
       25
 70
     0
 93
      823
310
5DC0B00000000000002480959E9E29A2A1AA24A7A72FA620A122A62FA324A929AA1F169E29A2A1AA24A7A72FA620A122A62FA620A9AA1F000000000000048803FFFE01C00030C008140380006180000000000000048800000000000000A2000000000000002480
340
118
340
7A2
 94
        0
  0
ACAD_PROXY_OBJECT
  5
166E
330
7A1
100
AcDbProxyObject
 90
      499
 91
      563
 95
       25
 70
     0
 93
      152
310
5DE8273108AC1C5A0640A3D0A5723F0BD1F200
  0
ACAD_PROXY_OBJECT
  5
166F
330
7A1
100
AcDbProxyObject
 90
      499
 91
      564
 95
       25
 70
     0
 93
       14
310
5DE0
340
0
 94
        0
  0
ACAD_PROXY_OBJECT
  5
1670
330
7A1
100
AcDbProxyObject
 90
      499
 91
      565
 95
       25
 70
     0
 93
     6059
310
5DD084050BA4050AA405024050E836583938376838C815B83672031405983D3C486F6C653A6469613E3C696628657175616C28486F6C653A7465726D696E6174696F6E2C223022292C2220905B82B320222C22208368838A838B22293E3C696628657175616C28486F6C653A7465726D696E6174696F6E2C223022292C486F
310
6C653A64657074682C2222293E2C203C486F6C653A63746469613E2082B482AE82E882CC905B82B3203C486F6C653A637464657074683E406901405034050E836583938376838C815B83672031405EF3D3C486F6C653A6374616E676C653E252564202525633C486F6C653A63746469613E208E4D8C8A2C203C69662865717
310
5616C28486F6C653A7461707065642C223022292C22252563222C486F6C653A6E6F6D696E616C202220782022293E3C696628657175616C28486F6C653A7461707065642C223022292C486F6C653A6469612C486F6C653A706974636864657363293E203C696628657175616C28486F6C653A7465726D696E6174696F6E2C2
310
23022292C22905B82B320222C222022293E3C696628657175616C28486F6C653A7465726D696E6174696F6E2C223022292C486F6C653A64657074682C2222293E406901405014050E836583938376838C815B83672031405C73D3C696628657175616C28486F6C653A7461707065642C223022292C22252563222C486F6C65
310
3A6E6F6D696E616C202220782022293E3C696628657175616C28486F6C653A7461707065642C223022292C486F6C653A6469612C486F6C653A706974636864657363293E203C696628657175616C28486F6C653A7465726D696E6174696F6E2C223022292C22905B82B320222C222022293E3C696628657175616C28486F6C
310
653A7465726D696E6174696F6E2C223022292C486F6C653A64657074682C2222293E4069014051E4090E836583938376838C815B83672032405173D3C535444503A444553433E203C535444503A5354443E40690E836583938376838C815B836720314050C3D3C535444503A444553433E40690240515AAABBA120
360
1674
330
1674
360
1675
330
1675
360
1673
330
1673
360
1672
360
1671
330
1672
330
1671
 94
        0
  0
ACAD_PROXY_OBJECT
  5
1676
330
7A1
100
AcDbProxyObject
 90
      499
 91
      567
 95
       25
 70
     0
 93
       26
310
5DD02A80
340
47
 94
        0
  0
ACAD_PROXY_OBJECT
  5
1677
330
7A1
100
AcDbProxyObject
 90
      499
 91
      568
 95
       25
 70
     0
 93
      250
310
5DD020000000000000A1000000000000002440408F0F9023C3E409A0DCFFFF80
340
69
340
0
340
0
340
70
340
71
340
72
340
73
340
74
340
79
340
0
 94
        0
  0
ACAD_PROXY_OBJECT
  5
1678
330
7A1
100
AcDbProxyObject
 90
      499
 91
      569
 95
       25
 70
     0
 93
    13889
310
5DD1D003FFFFFFFD030300030CCCCCCCCCCCC250200800030C01030300030CCCCCCCCCCCC250200800030C00050C8DC0955782CC838A83588367014ED1D15395149050D3CB1294138B0C0B23702555E0B320E2A0D620D9CB11D15395149055160B095CCB0A11D1539354D1C819D95B991A5B5E880CCC0A78000C0000000000
310
00000000000000000000010CCCCCCCCCCCC250200800030C010CCCCCCCCCCCC250200800030C020143CF4F111959985D5B1D151A5D1B194F8050A8C8A8365815B8375838B014E51D15395149050D3CB1294138B0C0B2322A0D96056E0DD60E2CB11D15395149055160B095CCB0A11D1539354D1C819D95B991A5B5E880CCC4
310
A78000C000000000000000000000000000000010CCCCCCCCCCCC250200800030C010CCCCCCCCCCCC250200800030C020143CF4F111959985D5B1D151A5D1B194F90D44111409034110541D0C4350F4050E44D03449074510F000141232D24D7C053247454E545241434F2C4A504E2C302C8CB4935F2C47454E54524154582C
310
25732C2847454E4D53472067656E64696D7A20312900010104002214000281464500A608E8A9CA8A482869E5894A09C5860591914588E8A9CA8A482A8B0584AE658508E8A9C9AA68E40CECADCC8D2DAF4406452029E9E9E27B934B3B4B71F1E24A31427A91424A9A12620A7259427B934B3B4B7149624A9A12620A7259424B
310
A32B6949496111116111711149F1E24BA32B69F00808200111A000140560052F47454E545241434F2C4A504E2C302C582C47454E54524154582C25732C2847454E4D53472067656E64696D7A20332900010100002054000280AC80A5E8E8A9CA8A482869E5894A09C586058B2588E8A9CA8A482A8B0584AE658508E8A9C9AA
310
68E40CECADCC8D2DAF4406852000202000040E800050152014BD1D15395149050D3CB1294138B0C0B148B11D15395149055160B095CCB0A11D1539354D1C819D95B991A5B5E880D8A400040400008250000A0507A6029823A2A72A2920A1A79625282716181641E99623A2A72A2920AA2C1612B9961423A2A726A9A39033B2
310
B73234B6BD101B948000808180105A000140A0F4C053047454E545241434F2C4A504E2C302C83D32C47454E54524154582C25732C2847454E4D53472067656E64696D7A203829000101010020F400028248704B5F00A668E8A9CA8A482869E5894A09C58605921C12D7C588E8A9CA8A482A8B0584AE658508E8A9C9AA68E40
310
CECADCC8D2DAF440646052000200080043280005048B4B8A69014CD1D15395149050D3CB1294138B0C0B22D2E29A4B11D15395149055160B095CCB0A11D1539354D1C819D95B991A5B5E880C8C4A4000400100086D0000A09196926BE029923A2A72A2920A1A796252827161816465A49AF9623A2A72A2920AA2C1612B9961
310
423A2A726A9A39033B2B73234B6BD10189480A02620202080043E80005048D8096DA014CD1D15395149050D3CB1294138B0C0B236025B68B11D15395149055160B095CCB0A11D1539354D1C819D95B991A5B5E880C4D0A4000404140280D0000A190687072706CD06C5069D06B0029DA3A2A72A2920A1A7962528271618164
310
1A1C1C9C1B341B141A741AC1623A2A72A2920AA2C1612B9961423A2A726A9A39033B2B73234B6BD10189A94800080820050EA000143A322A0D0E0E4E0D9A0D8A0D3A0D60053D47454E545241434F2C4A504E2C302C8C8A8343839383668362834E83582C47454E54524154582C25732C2847454E4D53472067656E64696D7A
310
2031372900010105002274000281464500A628E8A9CA8A482869E5894A09C5860591914588E8A9CA8A482A8B0584AE658508E8A9C9AA68E40CECADCC8D2DAF440626C52000202080044A8000504909497CA014CD1D15395149050D3CB1294138B0C0B242525F28B11D15395149055160B095CCB0A11D1539354D1C819D95B9
310
91A5B5E880C4E4A400040418008A521E000000000000001CA040C00000000000034408080000000000006881010000000000000D102040000000000001A204080000000000003440818000000000000728103000000000000125020600000000004028A040000000000000034408000000000000004881000000000000000D
310
102000000000000001A204000000000000003440818000000000000508143C0000000000000039408180000000000006881030000000000000D102060000000000001A2040C00000000000034408180000000000006881030000000000000E5020600000000000024A040C0000000000805140800000000000000688100000
310
00000000009102000000000000001A2040000000000000034408180000000000006881030000000000000A10284220000000878000002020000008380000020400000081800000208000000828000002028900000000
340
0
340
0
340
0
340
0
340
7A2
340
7A2
 94
        0
  0
ACAD_PROXY_OBJECT
  5
1B51
330
1B50
100
AcDbProxyObject
 90
      499
 91
      566
 95
       25
 70
     0
 93
     2256
310
5DE0143A0D960E4E0DDA0E32056E0D9C80C40405013D3C696628657175616C28486F6C653A7461707065642C223022292C22252563222C486F6C653A6E6F6D696E616C2022202220696628657175616C28486F6C653A756E6974732C223122292C2278222C222D222920222022293E3C696628657175616C28486F6C653A74
310
61707065642C223022292C486F6C653A6469612C486F6C653A706974636864657363293E207B5C46414D4744543B787D203C696628657175616C28486F6C653A7465726D696E6174696F6E2C223022292C486F6C653A64657074682C228AD192CA22293E5C507B5C46414D4744543B767D2525633C486F6C653A6374646961
310
3E207B5C46414D4744543B787D203C486F6C653A637464657074683E
  0
ACAD_PROXY_OBJECT
  5
1B52
330
1B50
100
AcDbProxyObject
 90
      499
 91
      566
 95
       25
 70
     0
 93
     2192
310
5DE0143A0D960E4E0DDA0E32056E0D9C80C405FE3D3C696628657175616C28486F6C653A7461707065642C223022292C22252563222C486F6C653A6E6F6D696E616C2022202220696628657175616C28486F6C653A756E6974732C223122292C2278222C222D222920222022293E3C696628657175616C28486F6C653A7461
310
707065642C223022292C486F6C653A6469612C486F6C653A706974636864657363293E207B5C46414D4744543B787D203C696628657175616C28486F6C653A7465726D696E6174696F6E2C223022292C486F6C653A64657074682C228AD192CA22293E5C507B5C46414D4744543B777D2525633C486F6C653A63746469613E
310
2058203C486F6C653A6374616E676C653E252564
  0
ACAD_PROXY_OBJECT
  5
1B53
330
1B50
100
AcDbProxyObject
 90
      499
 91
      566
 95
       25
 70
     0
 93
     1816
310
5DE0143A0D960E4E0DDA0E32056E0D9C80C405CF3D3C696628657175616C28486F6C653A7461707065642C223022292C22252563222C486F6C653A6E6F6D696E616C2022202220696628657175616C28486F6C653A756E6974732C223122292C2278222C222D222920222022293E3C696628657175616C28486F6C653A7461
310
707065642C223022292C486F6C653A6469612C486F6C653A706974636864657363293E5C507B5C46414D4744543B787D203C696628657175616C28486F6C653A7465726D696E6174696F6E2C223022292C486F6C653A64657074682C228AD192CA22293E
  0
ACAD_PROXY_OBJECT
  5
1B54
330
1B50
100
AcDbProxyObject
 90
      499
 91
      566
 95
       25
 70
     0
 93
      344
310
5DE0143A0D960E4E0DDA0E32056E0D9C80C805173D3C535444503A444553433E203C535444503A5354443E
  0
ACAD_PROXY_OBJECT
  5
1B55
330
1B50
100
AcDbProxyObject
 90
      499
 91
      566
 95
       25
 70
     0
 93
      256
310
5DE0143A0D960E4E0DDA0E32056E0D9C80C4050C3D3C535444503A444553433E
  0
ACAD_PROXY_OBJECT
  5
1674
330
1670
100
AcDbProxyObject
 90
      499
 91
      566
 95
       25
 70
     0
 93
     1376
310
5DE0143A0D960E4E0DDA0E32056E0D9C80C405983D3C486F6C653A6469613E3C696628657175616C28486F6C653A7465726D696E6174696F6E2C223022292C2220905B82B320222C22208368838A838B22293E3C696628657175616C28486F6C653A7465726D696E6174696F6E2C223022292C486F6C653A64657074682C22
310
22293E2C203C486F6C653A63746469613E2082B482AE82E882CC905B82B3203C486F6C653A637464657074683E
  0
ACAD_PROXY_OBJECT
  5
1675
330
1670
100
AcDbProxyObject
 90
      499
 91
      566
 95
       25
 70
     0
 93
     2072
310
5DE0143A0D960E4E0DDA0E32056E0D9C80C405EF3D3C486F6C653A6374616E676C653E252564202525633C486F6C653A63746469613E208E4D8C8A2C203C696628657175616C28486F6C653A7461707065642C223022292C22252563222C486F6C653A6E6F6D696E616C202220782022293E3C696628657175616C28486F6C
310
653A7461707065642C223022292C486F6C653A6469612C486F6C653A706974636864657363293E203C696628657175616C28486F6C653A7465726D696E6174696F6E2C223022292C22905B82B320222C222022293E3C696628657175616C28486F6C653A7465726D696E6174696F6E2C223022292C486F6C653A6465707468
310
2C2222293E
  0
ACAD_PROXY_OBJECT
  5
1673
330
1670
100
AcDbProxyObject
 90
      499
 91
      566
 95
       25
 70
     0
 93
     1752
310
5DE0143A0D960E4E0DDA0E32056E0D9C80C405C73D3C696628657175616C28486F6C653A7461707065642C223022292C22252563222C486F6C653A6E6F6D696E616C202220782022293E3C696628657175616C28486F6C653A7461707065642C223022292C486F6C653A6469612C486F6C653A706974636864657363293E20
310
3C696628657175616C28486F6C653A7465726D696E6174696F6E2C223022292C22905B82B320222C222022293E3C696628657175616C28486F6C653A7465726D696E6174696F6E2C223022292C486F6C653A64657074682C2222293E
  0
ACAD_PROXY_OBJECT
  5
1672
330
1670
100
AcDbProxyObject
 90
      499
 91
      566
 95
       25
 70
     0
 93
      344
310
5DE0143A0D960E4E0DDA0E32056E0D9C80C805173D3C535444503A444553433E203C535444503A5354443E
  0
ACAD_PROXY_OBJECT
  5
1671
330
1670
100
AcDbProxyObject
 90
      499
 91
      566
 95
       25
 70
     0
 93
      256
310
5DE0143A0D960E4E0DDA0E32056E0D9C80C4050C3D3C535444503A444553433E
  0
ENDSEC
  0
EOF
