  0
SECTION
  2
HEADER
  9
$ACADVER
  1
AC1015
  9
$ACADMAINTVER
 70
     6
  9
$DWGCODEPAGE
  3
ANSI_932
  9
$INSBASE
 10
0.0
 20
0.0
 30
0.0
  9
$EXTMIN
 10
-62.16812015879907
 20
-100.0944240128372
 30
-0.0015258207003583
  9
$EXTMAX
 10
179.7134409014991
 20
83.0154949872433
 30
0.0000000349246037
  9
$LIMMIN
 10
-215.0
 20
-153.5
  9
$LIMMAX
 10
215.0
 20
153.5
  9
$ORTHOMODE
 70
     1
  9
$REGENMODE
 70
     1
  9
$FILLMODE
 70
     1
  9
$QTEXTMODE
 70
     0
  9
$MIRRTEXT
 70
     1
  9
$LTSCALE
 40
1.0
  9
$ATTMODE
 70
     1
  9
$TEXTSIZE
 40
2.5
  9
$TRACEWID
 40
1.0
  9
$TEXTSTYLE
  7
STANDARD
  9
$CLAYER
  8
AM_0
  9
$CELTYPE
  6
ByLayer
  9
$CECOLOR
 62
   256
  9
$CELTSCALE
 40
1.0
  9
$DISPSILH
 70
     0
  9
$DIMSCALE
 40
1.0
  9
$DIMASZ
 40
2.5
  9
$DIMEXO
 40
0.0
  9
$DIMDLI
 40
10.0
  9
$DIMRND
 40
0.0
  9
$DIMDLE
 40
0.0
  9
$DIMEXE
 40
1.0
  9
$DIMTP
 40
0.1
  9
$DIMTM
 40
0.1000000001
  9
$DIMTXT
 40
3.8
  9
$DIMCEN
 40
0.0
  9
$DIMTSZ
 40
0.0
  9
$DIMTOL
 70
     0
  9
$DIMLIM
 70
     0
  9
$DIMTIH
 70
     0
  9
$DIMTOH
 70
     0
  9
$DIMSE1
 70
     0
  9
$DIMSE2
 70
     0
  9
$DIMTAD
 70
     3
  9
$DIMZIN
 70
     1
  9
$DIMBLK
  1
Open30
  9
$DIMASO
 70
     1
  9
$DIMSHO
 70
     1
  9
$DIMPOST
  1

  9
$DIMAPOST
  1
"
  9
$DIMALT
 70
     0
  9
$DIMALTD
 70
     2
  9
$DIMALTF
 40
0.0393701
  9
$DIMLFAC
 40
1.0
  9
$DIMTOFL
 70
     1
  9
$DIMTVP
 40
0.0
  9
$DIMTIX
 70
     0
  9
$DIMSOXD
 70
     0
  9
$DIMSAH
 70
     0
  9
$DIMBLK1
  1

  9
$DIMBLK2
  1

  9
$DIMSTYLE
  2
AM_JIS
  9
$DIMCLRD
 70
     3
  9
$DIMCLRE
 70
     3
  9
$DIMCLRT
 70
     2
  9
$DIMTFAC
 40
0.71
  9
$DIMGAP
 40
1.5
  9
$DIMJUST
 70
     0
  9
$DIMSD1
 70
     0
  9
$DIMSD2
 70
     0
  9
$DIMTOLJ
 70
     0
  9
$DIMTZIN
 70
     8
  9
$DIMALTZ
 70
     0
  9
$DIMALTTZ
 70
     0
  9
$DIMUPT
 70
     0
  9
$DIMDEC
 70
     0
  9
$DIMTDEC
 70
     2
  9
$DIMALTU
 70
     2
  9
$DIMALTTD
 70
     2
  9
$DIMTXSTY
  7
STANDARD
  9
$DIMAUNIT
 70
     1
  9
$DIMADEC
 70
     0
  9
$DIMALTRND
 40
0.0
  9
$DIMAZIN
 70
     2
  9
$DIMDSEP
 70
    46
  9
$DIMATFIT
 70
     3
  9
$DIMFRAC
 70
     0
  9
$DIMLDRBLK
  1
Open30
  9
$DIMLUNIT
 70
     2
  9
$DIMLWD
 70
    13
  9
$DIMLWE
 70
    13
  9
$DIMTMOVE
 70
     0
  9
$LUNITS
 70
     2
  9
$LUPREC
 70
     2
  9
$SKETCHINC
 40
1.0
  9
$FILLETRAD
 40
2.5
  9
$AUNITS
 70
     1
  9
$AUPREC
 70
     5
  9
$MENU
  1
.
  9
$ELEVATION
 40
0.0
  9
$PELEVATION
 40
0.0
  9
$THICKNESS
 40
0.0
  9
$LIMCHECK
 70
     0
  9
$CHAMFERA
 40
2.5
  9
$CHAMFERB
 40
2.5
  9
$CHAMFERC
 40
20.0
  9
$CHAMFERD
 40
0.0
  9
$SKPOLY
 70
     0
  9
$TDCREATE
 40
2451948.610903461
  9
$TDUCREATE
 40
2451948.235903461
  9
$TDUPDATE
 40
2455463.486653461
  9
$TDUUPDATE
 40
2455463.111653461
  9
$TDINDWG
 40
0.278975625
  9
$TDUSRTIMER
 40
0.2789415509
  9
$USRTIMER
 70
     1
  9
$ANGBASE
 50
0.0
  9
$ANGDIR
 70
     0
  9
$PDMODE
 70
     0
  9
$PDSIZE
 40
0.0
  9
$PLINEWID
 40
0.0
  9
$SPLFRAME
 70
     0
  9
$SPLINETYPE
 70
     6
  9
$SPLINESEGS
 70
     8
  9
$HANDSEED
  5
409E
  9
$SURFTAB1
 70
     6
  9
$SURFTAB2
 70
     6
  9
$SURFTYPE
 70
     6
  9
$SURFU
 70
     6
  9
$SURFV
 70
     6
  9
$UCSBASE
  2

  9
$UCSNAME
  2

  9
$UCSORG
 10
0.0
 20
0.0
 30
0.0
  9
$UCSXDIR
 10
1.0
 20
0.0
 30
0.0
  9
$UCSYDIR
 10
0.0
 20
1.0
 30
0.0
  9
$UCSORTHOREF
  2

  9
$UCSORTHOVIEW
 70
     0
  9
$UCSORGTOP
 10
0.0
 20
0.0
 30
0.0
  9
$UCSORGBOTTOM
 10
0.0
 20
0.0
 30
0.0
  9
$UCSORGLEFT
 10
0.0
 20
0.0
 30
0.0
  9
$UCSORGRIGHT
 10
0.0
 20
0.0
 30
0.0
  9
$UCSORGFRONT
 10
0.0
 20
0.0
 30
0.0
  9
$UCSORGBACK
 10
0.0
 20
0.0
 30
0.0
  9
$PUCSBASE
  2

  9
$PUCSNAME
  2

  9
$PUCSORG
 10
0.0
 20
0.0
 30
0.0
  9
$PUCSXDIR
 10
1.0
 20
0.0
 30
0.0
  9
$PUCSYDIR
 10
0.0
 20
1.0
 30
0.0
  9
$PUCSORTHOREF
  2

  9
$PUCSORTHOVIEW
 70
     0
  9
$PUCSORGTOP
 10
0.0
 20
0.0
 30
0.0
  9
$PUCSORGBOTTOM
 10
0.0
 20
0.0
 30
0.0
  9
$PUCSORGLEFT
 10
0.0
 20
0.0
 30
0.0
  9
$PUCSORGRIGHT
 10
0.0
 20
0.0
 30
0.0
  9
$PUCSORGFRONT
 10
0.0
 20
0.0
 30
0.0
  9
$PUCSORGBACK
 10
0.0
 20
0.0
 30
0.0
  9
$USERI1
 70
     0
  9
$USERI2
 70
     0
  9
$USERI3
 70
     0
  9
$USERI4
 70
     0
  9
$USERI5
 70
     0
  9
$USERR1
 40
0.0
  9
$USERR2
 40
0.0
  9
$USERR3
 40
0.0
  9
$USERR4
 40
0.0
  9
$USERR5
 40
0.0
  9
$WORLDVIEW
 70
     1
  9
$SHADEDGE
 70
     3
  9
$SHADEDIF
 70
    70
  9
$TILEMODE
 70
     1
  9
$MAXACTVP
 70
    64
  9
$PINSBASE
 10
0.0
 20
0.0
 30
0.0
  9
$PLIMCHECK
 70
     0
  9
$PEXTMIN
 10
1.000000000000000E+20
 20
1.000000000000000E+20
 30
1.000000000000000E+20
  9
$PEXTMAX
 10
-1.000000000000000E+20
 20
-1.000000000000000E+20
 30
-1.000000000000000E+20
  9
$PLIMMIN
 10
0.0
 20
0.0
  9
$PLIMMAX
 10
420.0
 20
297.0
  9
$UNITMODE
 70
     0
  9
$VISRETAIN
 70
     1
  9
$PLINEGEN
 70
     0
  9
$PSLTSCALE
 70
     1
  9
$TREEDEPTH
 70
  3020
  9
$CMLSTYLE
  2
Standard
  9
$CMLJUST
 70
     0
  9
$CMLSCALE
 40
20.0
  9
$PROXYGRAPHICS
 70
     1
  9
$MEASUREMENT
 70
     1
  9
$CELWEIGHT
370
    13
  9
$ENDCAPS
280
     0
  9
$JOINSTYLE
280
     0
  9
$LWDISPLAY
290
     0
  9
$INSUNITS
 70
     4
  9
$HYPERLINKBASE
  1

  9
$STYLESHEET
  1
sei_cad.ctb
  9
$XEDIT
290
     1
  9
$CEPSNTYPE
380
     0
  9
$PSTYLEMODE
290
     1
  9
$FINGERPRINTGUID
  2
{403304E0-8DA2-11D3-AB8C-000629E2A613}
  9
$VERSIONGUID
  2
{7AE178B4-A202-4553-9623-66E45A851508}
  9
$EXTNAMES
290
     1
  9
$PSVPSCALE
 40
0.0
  9
$OLESTARTUP
290
     0
  0
ENDSEC
  0
SECTION
  2
CLASSES
  0
CLASS
  1
ACDBDICTIONARYWDFLT
  2
AcDbDictionaryWithDefault
  3
ObjectDBX Classes
 90
        0
280
     0
281
     0
  0
CLASS
  1
ACDBPLACEHOLDER
  2
AcDbPlaceHolder
  3
ObjectDBX Classes
 90
        0
280
     0
281
     0
  0
CLASS
  1
LAYOUT
  2
AcDbLayout
  3
ObjectDBX Classes
 90
        0
280
     0
281
     0
  0
CLASS
  1
ACME_DOCUMENT
  2
AcMeDbDoc
  3
AcMeServices
 90
        0
280
     1
281
     0
  0
CLASS
  1
ACMESCOPE
  2
AcMeScope
  3
AcMeServices
 90
        0
280
     1
281
     0
  0
CLASS
  1
ACMECOMMANDHISTORY
  2
AcMeCommandHistory
  3
AcMeServices
 90
        0
280
     1
281
     0
  0
CLASS
  1
DICTIONARYVAR
  2
AcDbDictionaryVar
  3
ObjectDBX Classes
 90
        0
280
     0
281
     0
  0
CLASS
  1
ACIMSYSVARMAN
  2
AcImSysVarManager
  3
AcMeServices
 90
        0
280
     1
281
     0
  0
CLASS
  1
ACIMREALSYSVAR
  2
AcImRealSysVar
  3
AcMeServices
 90
        0
280
     1
281
     0
  0
CLASS
  1
ACIMINTSYSVAR
  2
AcImIntSysVar
  3
AcMeServices
 90
        0
280
     1
281
     0
  0
CLASS
  1
ACMEDRAWINGMAN
  2
AcMeDrawingMan
  3
AcMeServices
 90
        0
280
     1
281
     0
  0
CLASS
  1
ACMEVIEW
  2
AcMeView
  3
AcMeServices
 90
        0
280
     1
281
     0
  0
CLASS
  1
ACDBENTITYCACHE
  2
AcMeEntityCache
  3
AcMeServices
 90
        0
280
     1
281
     0
  0
CLASS
  1
GSMANAGER
  2
AcMeGSManager
  3
AcMeServices
 90
        0
280
     1
281
     0
  0
CLASS
  1
AMDTINTERNALREACTOR
  2
AmdtInternalReactor
  3
AcMeServices
 90
        0
280
     1
281
     0
  0
CLASS
  1
ACMESTATEMGR
  2
AcMeStateMgr
  3
AcMeServices
 90
        0
280
     1
281
     0
  0
CLASS
  1
ACME_DATABASE
  2
AcMeDbDatabase
  3
AcMeServices
 90
        0
280
     1
281
     0
  0
CLASS
  1
ACRFINSADJUSTERMGR
  2
AcRfInsAdjusterMgr
  3
AcMeServices
 90
        0
280
     1
281
     0
  0
CLASS
  1
AMGSETTINGSOBJ
  2
AmgSettingsObj
  3
"AcadM|Product Description: AutoCAD Mechanical 2000|Company: Autodesk"
 90
        0
280
     1
281
     0
  0
CLASS
  1
ACMDATADICTIONARY
  2
AcmDataDictionary
  3
"AcmSymBB|Product Description: AutoCAD Mechanical 2004 DX|Company: Autodesk"
 90
        0
280
     1
281
     0
  0
CLASS
  1
ACMDATAENTRYBLOCK
  2
AcmDataEntryBlock
  3
"AcmSymBB|Product Description: AutoCAD Mechanical 2004 DX|Company: Autodesk"
 90
        0
280
     1
281
     0
  0
CLASS
  1
AMGOBJPROPCFG
  2
AmgObjPropCfg
  3
"AmgLay|Product Description: AutoCAD Mechanical 2000|Company: Autodesk"
 90
        1
280
     1
281
     0
  0
CLASS
  1
ACAMGFILTERDAT
  2
AcAmgFilterDat
  3
"AcadM|Product Description: AutoCAD Mechanical 2000|Company: Autodesk"
 90
        0
280
     1
281
     0
  0
CLASS
  1
LAYER_INDEX
  2
AcDbLayerIndex
  3
ObjectDBX Classes
 90
        0
280
     0
281
     0
  0
CLASS
  1
IDBUFFER
  2
AcDbIdBuffer
  3
ObjectDBX Classes
 90
        0
280
     0
281
     0
  0
CLASS
  1
ACIMSTRSYSVAR
  2
AcImStrSysVar
  3
AcMeServices
 90
        0
280
     1
281
     0
  0
CLASS
  1
ACMSTANDARDJIS
  2
AcmStandardJIS
  3
"Amdt_StdImp|Product Description: AutoCAD Mechanical 2004 DX|Company: Autodesk"
 90
        0
280
     1
281
     0
  0
CLASS
  1
ACMSURFSTANDARDJIS
  2
AcmSurfTextStdJIS
  3
"Amdt_StdImp|Product Description: AutoCAD Mechanical 2004 DX|Company: Autodesk"
 90
        0
280
     1
281
     0
  0
CLASS
  1
ACMFCFSTANDARDJIS
  2
AcmFCFStdJIS
  3
"Amdt_StdImp|Product Description: AutoCAD Mechanical 2004 DX|Company: Autodesk"
 90
        0
280
     1
281
     0
  0
CLASS
  1
ACMWELDSTANDARDJIS
  2
AcmWeldingStdJIS
  3
"Amdt_StdImp|Product Description: AutoCAD Mechanical 2004 DX|Company: Autodesk"
 90
        0
280
     1
281
     0
  0
CLASS
  1
ACMIDSTANDARDJIS
  2
AcmIdStdJIS
  3
"Amdt_StdImp|Product Description: AutoCAD Mechanical 2004 DX|Company: Autodesk"
 90
        0
280
     1
281
     0
  0
CLASS
  1
ACMDATUMSTANDARDJIS
  2
AcmDatumStdJIS
  3
"Amdt_StdImp|Product Description: AutoCAD Mechanical 2004 DX|Company: Autodesk"
 90
        0
280
     1
281
     0
  0
CLASS
  1
ACMBOMSTANDARDJIS
  2
AcmBOMStdJIS
  3
"Amdt_StdImp|Product Description: AutoCAD Mechanical 2004 DX|Company: Autodesk"
 90
        0
280
     1
281
     0
  0
CLASS
  1
TABLESTYLE
  2
AcDbTableStyle
  3
ObjectDBX Classes
 90
     2047
280
     0
281
     0
  0
CLASS
  1
ACGREFMASTER
  2
AcGrefMaster
  3
AcAttribServices
 90
        0
280
     1
281
     0
  0
CLASS
  1
AM_DRAWING_MGR
  2
AcDmDwgMgr
  3
AcMechDwgViewMgmt
 90
        0
280
     1
281
     0
  0
CLASS
  1
AM_DWG_DOCUMENT
  2
AcDmDwgDocument
  3
AcMechDwgViewMgmt
 90
        0
280
     1
281
     0
  0
CLASS
  1
AM_DWG_SHEET
  2
AcDmSheet
  3
AcMechDwgViewMgmt
 90
        0
280
     1
281
     0
  0
CLASS
  1
AM_VIEWDIMPARMAP
  2
AcDmViewDimParMap
  3
AcMechDwgViewMgmt
 90
        0
280
     1
281
     0
  0
CLASS
  1
AM_DWGMGR_NAME
  2
AcDmDwgMgrName
  3
AcMechDwgViewMgmt
 90
        0
280
     1
281
     0
  0
CLASS
  1
ACGREFACADMASTER
  2
AcGrefacadMaster
  3
AcGrefServices
 90
        0
280
     1
281
     0
  0
CLASS
  1
AMDTMENUSTATEMGR
  2
AmdtMenuStateMgr
  3
McadcomServices
 90
        0
280
     1
281
     0
  0
CLASS
  1
AMDTMCOMMENUSTATE
  2
AmdtMcomMenuState
  3
McadcomServices
 90
        0
280
     1
281
     0
  0
CLASS
  1
AMIMASTER
  2
AmiMaster
  3
AmiServices
 90
        0
280
     1
281
     0
  0
CLASS
  1
MAPIAMMOUDLE
  2
MApiAmModule
  3
MApiAmServices
 90
        0
280
     1
281
     0
  0
CLASS
  1
AMDTADMENUSTATE
  2
AmdtAdMenuState
  3
DesignerServices
 90
        0
280
     1
281
     0
  0
CLASS
  1
ADAPPL
  2
AcAdAppl
  3
DesignerServices
 90
        0
280
     1
281
     0
  0
CLASS
  1
DEPMGR
  2
AcAdDepMgr
  3
DesignerServices
 90
        0
280
     1
281
     0
  0
CLASS
  1
PARAMMGR
  2
AcAdParamMgr
  3
DesignerServices
 90
        0
280
     1
281
     0
  0
CLASS
  1
PARAMSCOPE
  2
AcAdParamScope
  3
DesignerServices
 90
        0
280
     1
281
     0
  0
CLASS
  1
NAMEDAPPL
  2
AcAdNamedAppl
  3
DesignerServices
 90
        0
280
     1
281
     0
  0
CLASS
  1
AMDTDMMENUSTATE
  2
AmdtDmMenuState
  3
AcMechDwgViewMgmt
 90
        0
280
     1
281
     0
  0
CLASS
  1
AMDTAMMENUSTATE
  2
AmdtAmMenuState
  3
DesignerAssemblies
 90
        0
280
     1
281
     0
  0
CLASS
  1
ACAMPROJECT
  2
AcAmProject
  3
DesignerAssemblies
 90
        0
280
     1
281
     0
  0
CLASS
  1
ACAMGRCOMPDEF
  2
AcAmGrCompDef
  3
DesignerAssemblies
 90
        0
280
     1
281
     0
  0
CLASS
  1
ACCMCONTEXT
  2
AcCmContext
  3
DesignerAssemblies
 90
        0
280
     1
281
     0
  0
CLASS
  1
ACAMCOMPDEF
  2
AcAmCompDef
  3
DesignerAssemblies
 90
        0
280
     1
281
     0
  0
CLASS
  1
ACAMCOMPDEFMGR
  2
AcAmCompDefMgr
  3
DesignerAssemblies
 90
        0
280
     1
281
     0
  0
CLASS
  1
AMCONTEXTMGR
  2
AcAmContextMgr
  3
DesignerAssemblies
 90
        0
280
     1
281
     0
  0
CLASS
  1
ACAMCONTEXTMODELER
  2
AcAmContextModeler
  3
DesignerAssemblies
 90
        0
280
     1
281
     0
  0
CLASS
  1
ACAMGTITLESTD
  2
AcAmgTitleStd
  3
"TITLEAPP"
 90
        0
280
     1
281
     0
  0
CLASS
  1
ACMDETAILSTANDARDJIS
  2
AmdtDetailSymStdJIS
  3
"Amdt_StdImp|Product Description: AutoCAD Mechanical 2004 DX|Company: Autodesk"
 90
        0
280
     1
281
     0
  0
CLASS
  1
ACMSECTIONSTANDARDJIS
  2
AmdtSectionSymStdJIS
  3
"Amdt_StdImp|Product Description: AutoCAD Mechanical 2004 DX|Company: Autodesk"
 90
        0
280
     1
281
     0
  0
CLASS
  1
ACMCENTERLINESTANDARDJIS
  2
AmdtCenterLineStdJIS
  3
"Amdt_StdImp|Product Description: AutoCAD Mechanical 2004 DX|Company: Autodesk"
 90
        0
280
     1
281
     0
  0
CLASS
  1
ACMTHREADLINESTANDARDJIS
  2
AmdtThreadLineStdJIS
  3
"Amdt_StdImp|Product Description: AutoCAD Mechanical 2004 DX|Company: Autodesk"
 90
        0
280
     1
281
     0
  0
CLASS
  1
ACMNOTESTANDARDJIS
  2
AmdtNoteStdJIS
  3
"Amdt_StdImp|Product Description: AutoCAD Mechanical 2004 DX|Company: Autodesk"
 90
        0
280
     1
281
     0
  0
CLASS
  1
AMDTNOTETEMPLATEDB
  2
AmdtNoteTemplateDB
  3
AMDT_STDIMP_MODULE_NAME
 90
        0
280
     1
281
     0
  0
CLASS
  1
ACAMGLAYSTD
  2
AcAmgLayStd
  3
"AcAmgLayStd|Product Description: AutoCAD Mechanical 2000|Company: Autodesk"
 90
        0
280
     1
281
     0
  0
CLASS
  1
ACAMGDIMSTD
  2
AcAmgDimStd
  3
"AcAmgDimStd|Product Description: AutoCAD Mechanical 2000|Company: Autodesk"
 90
        0
280
     1
281
     0
  0
CLASS
  1
ACAMGHOLECHARTSTDJIS
  2
AcAmgHoleChartStdJIS
  3
ACMSYMBB_MODULE_NAME
 90
        0
280
     1
281
     0
  0
CLASS
  1
CATALOGSTATE
  2
AcAmCatalogState
  3
DesignerAssemblies
 90
        0
280
     1
281
     0
  0
CLASS
  1
ACAMGRCOMPDEFSET
  2
AcAmGrCompDefSet
  3
DesignerAssemblies
 90
        0
280
     1
281
     0
  0
CLASS
  1
AMDTBROWSERDBTAB
  2
AmdtBrowserDbTab
  3
McadcomServices
 90
        0
280
     1
281
     0
  0
CLASS
  1
CBROWSERAPPOBJECT
  2
CBrowserAppObject
  3
McadcomServices
 90
        0
280
     1
281
     0
  0
CLASS
  1
DM_PLACEHOLDER
  2
AcDmSelsetPlaceholder
  3
AcMechDwgViewMgmt
 90
        0
280
     1
281
     0
  0
CLASS
  1
SORTENTSTABLE
  2
AcDbSortentsTable
  3
ObjectDBX Classes
 90
        0
280
     0
281
     0
  0
CLASS
  1
ACMSTANDARDANSI
  2
AcmStandardANSI
  3
"Amdt_StdImp|Product Description: AutoCAD Mechanical 2004 DX|Company: Autodesk"
 90
        0
280
     1
281
     0
  0
CLASS
  1
ACMSURFSTANDARDANSI
  2
AcmSurfTextStdANSI
  3
"Amdt_StdImp|Product Description: AutoCAD Mechanical 2004 DX|Company: Autodesk"
 90
        0
280
     1
281
     0
  0
CLASS
  1
ACMFCFSTANDARDANSI
  2
AcmFCFStdANSI
  3
"Amdt_StdImp|Product Description: AutoCAD Mechanical 2004 DX|Company: Autodesk"
 90
        0
280
     1
281
     0
  0
CLASS
  1
ACMWELDSTANDARDANSI
  2
AcmWeldingStdANSI
  3
"Amdt_StdImp|Product Description: AutoCAD Mechanical 2004 DX|Company: Autodesk"
 90
        0
280
     1
281
     0
  0
CLASS
  1
ACMIDSTANDARDANSI
  2
AcmIdStdANSI
  3
"Amdt_StdImp|Product Description: AutoCAD Mechanical 2004 DX|Company: Autodesk"
 90
        0
280
     1
281
     0
  0
CLASS
  1
ACMDATUMSTANDARDANSI
  2
AcmDatumStdANSI
  3
"Amdt_StdImp|Product Description: AutoCAD Mechanical 2004 DX|Company: Autodesk"
 90
        0
280
     1
281
     0
  0
CLASS
  1
ACMBOMSTANDARDANSI
  2
AcmBOMStdANSI
  3
"Amdt_StdImp|Product Description: AutoCAD Mechanical 2004 DX|Company: Autodesk"
 90
        0
280
     1
281
     0
  0
CLASS
  1
ACMDETAILSTANDARDANSI
  2
AmdtDetailSymStdANSI
  3
"Amdt_StdImp|Product Description: AutoCAD Mechanical 2004 DX|Company: Autodesk"
 90
        0
280
     1
281
     0
  0
CLASS
  1
ACMSECTIONSTANDARDANSI
  2
AmdtSectionSymStdANSI
  3
"Amdt_StdImp|Product Description: AutoCAD Mechanical 2004 DX|Company: Autodesk"
 90
        0
280
     1
281
     0
  0
CLASS
  1
ACMCENTERLINESTANDARDANSI
  2
AmdtCenterLineStdANSI
  3
"Amdt_StdImp|Product Description: AutoCAD Mechanical 2004 DX|Company: Autodesk"
 90
        0
280
     1
281
     0
  0
CLASS
  1
ACMTHREADLINESTANDARDANSI
  2
AmdtThreadLineStdANSI
  3
"Amdt_StdImp|Product Description: AutoCAD Mechanical 2004 DX|Company: Autodesk"
 90
        0
280
     1
281
     0
  0
CLASS
  1
ACMNOTESTANDARDANSI
  2
AmdtNoteStdANSI
  3
"Amdt_StdImp|Product Description: AutoCAD Mechanical 2004 DX|Company: Autodesk"
 90
        0
280
     1
281
     0
  0
CLASS
  1
ACAMGHOLECHARTSTDANSI
  2
AcAmgHoleChartStdANSI
  3
ACMSYMBB_MODULE_NAME
 90
        0
280
     1
281
     0
  0
CLASS
  1
AMDTNOTE
  2
AmdtNote
  3
"AcmSymBB|Product Description: AutoCAD Mechanical 2004 DX|Company: Autodesk"
 90
     1023
280
     1
281
     1
  0
ENDSEC
  0
SECTION
  2
TABLES
  0
TABLE
  2
VPORT
  5
8
330
0
100
AcDbSymbolTable
 70
    11
  0
VPORT
  5
4097
330
8
100
AcDbSymbolTableRecord
100
AcDbViewportTableRecord
  2
*Active
 70
     0
 10
0.0
 20
0.0
 11
1.0
 21
1.0
 12
58.77266037135
 22
-8.53946451279694
 13
0.0
 23
0.0
 14
2.5
 24
2.5
 15
10.0
 25
10.0
 16
0.0
 26
0.0
 36
1.0
 17
0.0
 27
0.0
 37
0.0
 40
184.7232222511825
 41
1.697058823529412
 42
50.0
 43
0.0
 44
0.0
 50
0.0
 51
0.0
 71
     0
 72
  2000
 73
     1
 74
     3
 75
     0
 76
     0
 77
     0
 78
     0
281
     0
 65
     1
110
0.0
120
0.0
130
0.0
111
1.0
121
0.0
131
0.0
112
0.0
122
1.0
132
0.0
 79
     0
146
0.0
  0
ENDTAB
  0
TABLE
  2
LTYPE
  5
5
330
0
100
AcDbSymbolTable
 70
    15
  0
LTYPE
  5
14
330
5
100
AcDbSymbolTableRecord
100
AcDbLinetypeTableRecord
  2
ByBlock
 70
     0
  3

 72
    65
 73
     0
 40
0.0
  0
LTYPE
  5
15
330
5
100
AcDbSymbolTableRecord
100
AcDbLinetypeTableRecord
  2
ByLayer
 70
     0
  3

 72
    65
 73
     0
 40
0.0
  0
LTYPE
  5
16
330
5
100
AcDbSymbolTableRecord
100
AcDbLinetypeTableRecord
  2
Continuous
 70
     0
  3
Solid line
 72
    65
 73
     0
 40
0.0
  0
LTYPE
  5
48
330
5
100
AcDbSymbolTableRecord
100
AcDbLinetypeTableRecord
  2
AM_ISO02W050
 70
     0
  3
__ __ __ __ __ __ __ __ __ __ __ __ __ __ __
 72
    65
 73
     2
 40
7.5
 49
6.0
 74
     0
 49
-1.5
 74
     0
  0
LTYPE
  5
49
330
5
100
AcDbSymbolTableRecord
100
AcDbLinetypeTableRecord
  2
AM_ISO08W050
 70
     0
  3
____ . ____ . ____ . ____ . ____ . ____ . ____
 72
    65
 73
     4
 40
18.0
 49
12.0
 74
     0
 49
-1.5
 74
     0
 49
3.0
 74
     0
 49
-1.5
 74
     0
  0
LTYPE
  5
4A
330
5
100
AcDbSymbolTableRecord
100
AcDbLinetypeTableRecord
  2
AM_ISO09W050
 70
     0
  3
_____ . . _____ . . _____ . . ____ .. ____
 72
    65
 73
     6
 40
22.5
 49
12.0
 74
     0
 49
-1.5
 74
     0
 49
3.0
 74
     0
 49
-1.5
 74
     0
 49
3.0
 74
     0
 49
-1.5
 74
     0
  0
LTYPE
  5
4B
330
5
100
AcDbSymbolTableRecord
100
AcDbLinetypeTableRecord
  2
Amconstr
 70
     0
  3
_______________________
 72
    65
 73
     2
 40
9999.0
 49
9999.0
 74
     0
 49
0.0
 74
     0
  0
LTYPE
  5
4C
330
5
100
AcDbSymbolTableRecord
100
AcDbLinetypeTableRecord
  2
AM_ISO02W050x2
 70
     0
  3
 _ _ _ _ _ _ _ _ _ _ _ _
 72
    65
 73
     2
 40
3.75
 49
3.0
 74
     0
 49
-0.75
 74
     0
  0
LTYPE
  5
4D
330
5
100
AcDbSymbolTableRecord
100
AcDbLinetypeTableRecord
  2
AM_ISO08W050x2
 70
     0
  3
__ . __ . __ . __ . __ . __
 72
    65
 73
     4
 40
9.0
 49
6.0
 74
     0
 49
-0.75
 74
     0
 49
1.5
 74
     0
 49
-0.75
 74
     0
  0
LTYPE
  5
50
330
5
100
AcDbSymbolTableRecord
100
AcDbLinetypeTableRecord
  2
Amzigzag
 70
     0
  3
/\/-/\/-/\/-/\/-/\/-/\/
 72
    65
 73
     2
 40
11.0001
 49
0.0001
 74
     4
 75
   135
340
4F
 46
0.04
 50
0.0
 44
0.0
 45
0.0
 49
-11.0
 74
     0
  0
LTYPE
  5
118
330
5
100
AcDbSymbolTableRecord
100
AcDbLinetypeTableRecord
  2
CENTER
 70
     0
  3
____ _ ____ _ ____ _ ____ _ ____ _ ____ _ ____
 72
    65
 73
     4
 40
17.5
 49
13.0
 74
     0
 49
-1.5
 74
     0
 49
1.5
 74
     0
 49
-1.5
 74
     0
  0
LTYPE
  5
7AA
330
5
100
AcDbSymbolTableRecord
100
AcDbLinetypeTableRecord
  2
ACJISTGB
 70
     0
  3
__ . . __ . .
 72
    65
 73
     6
 40
9.0
 49
4.0
 74
     0
 49
-1.0
 74
     0
 49
1.0
 74
     0
 49
-1.0
 74
     0
 49
1.0
 74
     0
 49
-1.0
 74
     0
  0
LTYPE
  5
7AB
330
5
100
AcDbSymbolTableRecord
100
AcDbLinetypeTableRecord
  2
ACJISTGL
 70
     0
  3
_ _ _ _ _
 72
    65
 73
     2
 40
3.0
 49
2.0
 74
     0
 49
-1.0
 74
     0
  0
LTYPE
  5
1645
330
5
100
AcDbSymbolTableRecord
100
AcDbLinetypeTableRecord
  2
HIDDEN
 70
     0
  3
Hidden __ __ __ __ __ __ __ __ __ __ __ __ __ _
 72
    65
 73
     2
 40
9.524999999999999
 49
6.35
 74
     0
 49
-3.175
 74
     0
  0
LTYPE
  5
1646
330
5
100
AcDbSymbolTableRecord
100
AcDbLinetypeTableRecord
  2
PHANTOM2
 70
     0
  3
Phantom (.5x) ___ _ _ ___ _ _ ___ _ _ ___ _ _
 72
    65
 73
     6
 40
31.75
 49
15.875
 74
     0
 49
-3.175
 74
     0
 49
3.175
 74
     0
 49
-3.175
 74
     0
 49
3.175
 74
     0
 49
-3.175
 74
     0
  0
LTYPE
  5
1907
330
5
100
AcDbSymbolTableRecord
100
AcDbLinetypeTableRecord
  2
ACANSTGB
 70
     0
  3
__ . . __ . .
 72
    65
 73
     6
 40
0.35433070866
 49
0.15748031496
 74
     0
 49
-0.03937007874
 74
     0
 49
0.03937007874
 74
     0
 49
-0.03937007874
 74
     0
 49
0.03937007874
 74
     0
 49
-0.03937007874
 74
     0
  0
LTYPE
  5
1908
330
5
100
AcDbSymbolTableRecord
100
AcDbLinetypeTableRecord
  2
ACANSTGL
 70
     0
  3
_ _ _ _ _
 72
    65
 73
     2
 40
0.11811023622
 49
0.07874015748
 74
     0
 49
-0.03937007874
 74
     0
  0
ENDTAB
  0
TABLE
  2
LAYER
  5
2
102
{ACAD_XDICTIONARY
360
1832
102
}
330
0
100
AcDbSymbolTable
 70
     6
  0
LAYER
  5
10
330
2
100
AcDbSymbolTableRecord
100
AcDbLayerTableRecord
  2
0
 70
     0
 62
     7
  6
Continuous
370
    -3
390
F
  0
LAYER
  5
68
330
2
100
AcDbSymbolTableRecord
100
AcDbLayerTableRecord
  2
AM_5
 70
     0
 62
     3
  6
Continuous
370
    13
390
F
  0
LAYER
  5
7B
330
2
100
AcDbSymbolTableRecord
100
AcDbLayerTableRecord
  2
Defpoints
 70
     0
 62
     7
  6
Continuous
290
     0
370
    -3
390
F
  0
LAYER
  5
5A3
330
2
100
AcDbSymbolTableRecord
100
AcDbLayerTableRecord
  2
AM_7
 70
     0
 62
     4
  6
AM_ISO08W050
370
    13
390
F
  0
LAYER
  5
5A4
330
2
100
AcDbSymbolTableRecord
100
AcDbLayerTableRecord
  2
AM_6
 70
     0
 62
     2
  6
Continuous
370
    30
390
F
  0
LAYER
  5
5F1
330
2
100
AcDbSymbolTableRecord
100
AcDbLayerTableRecord
  2
AM_0
 70
     0
 62
     7
  6
Continuous
370
    30
390
F
  0
ENDTAB
  0
TABLE
  2
STYLE
  5
3
330
0
100
AcDbSymbolTable
 70
     7
  0
STYLE
  5
11
330
3
100
AcDbSymbolTableRecord
100
AcDbTextStyleTableRecord
  2
STANDARD
 70
     0
 40
0.0
 41
1.0
 50
0.0
 71
     0
 42
2.5
  3
ISOCP.SHX
  4
EXTFONT.SHX
  0
STYLE
  5
4F
330
3
100
AcDbSymbolTableRecord
100
AcDbTextStyleTableRecord
  2

 70
     1
 40
0.0
 41
1.0
 50
0.0
 71
     0
 42
2.5
  3
ltypeshp.shx
  4

  0
STYLE
  5
7A2
330
3
100
AcDbSymbolTableRecord
100
AcDbTextStyleTableRecord
  2
ACJISTS
 70
     0
 40
1.0
 41
1.0
 50
0.0
 71
     0
 42
2.5
  3
isocp.shx
  4
bigfont.shx
  0
STYLE
  5
7A9
330
3
100
AcDbSymbolTableRecord
100
AcDbTextStyleTableRecord
  2
ACJISGDT
 70
     0
 40
0.0
 41
1.0
 50
0.0
 71
     0
 42
2.5
  3
amgdt.shx
  4

  0
STYLE
  5
182F
330
3
100
AcDbSymbolTableRecord
100
AcDbTextStyleTableRecord
  2
ACISOTS
 70
     0
 40
1.0
 41
1.0
 50
0.0
 71
     0
 42
1.0
  3
isocp.shx
  4
extfont.shx
  0
STYLE
  5
190A
330
3
100
AcDbSymbolTableRecord
100
AcDbTextStyleTableRecord
  2
ACANSTS
 70
     0
 40
1.0
 41
1.0
 50
0.0
 71
     0
 42
2.5
  3
romans.shx
  4
extfont.shx
  0
STYLE
  5
190B
330
3
100
AcDbSymbolTableRecord
100
AcDbTextStyleTableRecord
  2
ACANSGDT
 70
     0
 40
0.0
 41
1.0
 50
0.0
 71
     0
 42
2.5
  3
amgdtans.shx
  4

  0
ENDTAB
  0
TABLE
  2
VIEW
  5
6
330
0
100
AcDbSymbolTable
 70
     6
  0
VIEW
  5
4F5
330
6
100
AcDbSymbolTableRecord
100
AcDbViewTableRecord
  2
AM_VIEW1
 70
     0
 40
150.0
 10
113.2040050062578
 20
225.0
 41
226.4080100125157
 11
0.0
 21
0.0
 31
1.0
 12
0.0
 22
0.0
 32
0.0
 42
50.0
 43
0.0
 44
0.0
 50
0.0
 71
     0
281
     0
 72
     0
  0
VIEW
  5
4F6
330
6
100
AcDbSymbolTableRecord
100
AcDbViewTableRecord
  2
AM_VIEW2
 70
     0
 40
150.0
 10
309.7959949937422
 20
225.0
 41
226.4080100125157
 11
0.0
 21
0.0
 31
1.0
 12
0.0
 22
0.0
 32
0.0
 42
50.0
 43
0.0
 44
0.0
 50
0.0
 71
     0
281
     0
 72
     0
  0
VIEW
  5
4F7
330
6
100
AcDbSymbolTableRecord
100
AcDbViewTableRecord
  2
AM_VIEW3
 70
     0
 40
150.0
 10
113.2040050062578
 20
75.0
 41
226.4080100125157
 11
0.0
 21
0.0
 31
1.0
 12
0.0
 22
0.0
 32
0.0
 42
50.0
 43
0.0
 44
0.0
 50
0.0
 71
     0
281
     0
 72
     0
  0
VIEW
  5
4F8
330
6
100
AcDbSymbolTableRecord
100
AcDbViewTableRecord
  2
AM_VIEW4
 70
     0
 40
150.0
 10
309.7959949937422
 20
75.0
 41
226.4080100125157
 11
0.0
 21
0.0
 31
1.0
 12
0.0
 22
0.0
 32
0.0
 42
50.0
 43
0.0
 44
0.0
 50
0.0
 71
     0
281
     0
 72
     0
  0
VIEW
  5
4F9
330
6
100
AcDbSymbolTableRecord
100
AcDbViewTableRecord
  2
AM_VIEW5
 70
     0
 40
150.0
 10
211.5
 20
150.0
 41
226.4080100125157
 11
0.0
 21
0.0
 31
1.0
 12
0.0
 22
0.0
 32
0.0
 42
50.0
 43
0.0
 44
0.0
 50
0.0
 71
     0
281
     0
 72
     0
  0
VIEW
  5
4FA
330
6
100
AcDbSymbolTableRecord
100
AcDbViewTableRecord
  2
AM_VIEW6
 70
     0
 40
299.9970000000001
 10
211.5
 20
150.0
 41
452.8114918648312
 11
0.0
 21
0.0
 31
1.0
 12
0.0
 22
0.0
 32
0.0
 42
50.0
 43
0.0
 44
0.0
 50
0.0
 71
     0
281
     0
 72
     0
  0
ENDTAB
  0
TABLE
  2
UCS
  5
7
330
0
100
AcDbSymbolTable
 70
     0
  0
ENDTAB
  0
TABLE
  2
APPID
  5
9
330
0
100
AcDbSymbolTable
 70
    32
  0
APPID
  5
12
330
9
100
AcDbSymbolTableRecord
100
AcDbRegAppTableRecord
  2
ACAD
 70
     0
  0
APPID
  5
2C
330
9
100
AcDbSymbolTableRecord
100
AcDbRegAppTableRecord
  2
MCAD_NO_VIS
 70
     0
  0
APPID
  5
2D
330
9
100
AcDbSymbolTableRecord
100
AcDbRegAppTableRecord
  2
ACAD_TEMP_GRAPHIC
 70
     0
  0
APPID
  5
B5
330
9
100
AcDbSymbolTableRecord
100
AcDbRegAppTableRecord
  2
GENIUS_GENDTOL_13
 70
     0
  0
APPID
  5
12C
330
9
100
AcDbSymbolTableRecord
100
AcDbRegAppTableRecord
  2
GENIUS_GENCFG_13
 70
     0
  0
APPID
  5
12D
330
9
100
AcDbSymbolTableRecord
100
AcDbRegAppTableRecord
  2
GENIUS_GENCFG0_13
 70
     0
  0
APPID
  5
12E
330
9
100
AcDbSymbolTableRecord
100
AcDbRegAppTableRecord
  2
GENIUS_GENCFG1_13
 70
     0
  0
APPID
  5
12F
330
9
100
AcDbSymbolTableRecord
100
AcDbRegAppTableRecord
  2
GENIUS_GENCFG2_13
 70
     0
  0
APPID
  5
130
330
9
100
AcDbSymbolTableRecord
100
AcDbRegAppTableRecord
  2
GENIUS_GENCFG3_13
 70
     0
  0
APPID
  5
131
330
9
100
AcDbSymbolTableRecord
100
AcDbRegAppTableRecord
  2
GENIUS_GENCFG4_13
 70
     0
  0
APPID
  5
53B
330
9
100
AcDbSymbolTableRecord
100
AcDbRegAppTableRecord
  2
GENIUS_GENBLLY_14
 70
     0
  0
APPID
  5
53C
330
9
100
AcDbSymbolTableRecord
100
AcDbRegAppTableRecord
  2
GENIUS_GENODEF_13
 70
     0
  0
APPID
  5
53D
330
9
100
AcDbSymbolTableRecord
100
AcDbRegAppTableRecord
  2
GENIUS_GENOBJ-N-CEN_13
 70
     0
  0
APPID
  5
549
330
9
100
AcDbSymbolTableRecord
100
AcDbRegAppTableRecord
  2
GENIUS_GENTRA_14
 70
     0
  0
APPID
  5
553
330
9
100
AcDbSymbolTableRecord
100
AcDbRegAppTableRecord
  2
GENIUS_GENOBJ-N-TIT_13
 70
     0
  0
APPID
  5
554
330
9
100
AcDbSymbolTableRecord
100
AcDbRegAppTableRecord
  2
GENIUS_GENTITLE_13
 70
     0
  0
APPID
  5
555
330
9
100
AcDbSymbolTableRecord
100
AcDbRegAppTableRecord
  2
GENIUS_GENOENT_13
 70
     0
  0
APPID
  5
556
330
9
100
AcDbSymbolTableRecord
100
AcDbRegAppTableRecord
  2
GENIUS_GENOREF_13
 70
     0
  0
APPID
  5
557
330
9
100
AcDbSymbolTableRecord
100
AcDbRegAppTableRecord
  2
GENIUS_GENOLIS_13
 70
     0
  0
APPID
  5
558
330
9
100
AcDbSymbolTableRecord
100
AcDbRegAppTableRecord
  2
GENIUS_GENZVEED_13
 70
     0
  0
APPID
  5
559
330
9
100
AcDbSymbolTableRecord
100
AcDbRegAppTableRecord
  2
GENIUS_GENSCREG_15
 70
     0
  0
APPID
  5
55A
330
9
100
AcDbSymbolTableRecord
100
AcDbRegAppTableRecord
  2
GENIUS_GENOBJ-N-SDF_13
 70
     0
  0
APPID
  5
567
330
9
100
AcDbSymbolTableRecord
100
AcDbRegAppTableRecord
  2
GENIUS_GENREC_14
 70
     0
  0
APPID
  5
568
330
9
100
AcDbSymbolTableRecord
100
AcDbRegAppTableRecord
  2
GENIUS_GENOBJ-N-REC_13
 70
     0
  0
APPID
  5
609
330
9
100
AcDbSymbolTableRecord
100
AcDbRegAppTableRecord
  2
GENIUS_GENOBJ-N-HTC_13
 70
     0
  0
APPID
  5
60A
330
9
100
AcDbSymbolTableRecord
100
AcDbRegAppTableRecord
  2
GENIUS_GENHATCH_13
 70
     0
  0
APPID
  5
1648
330
9
100
AcDbSymbolTableRecord
100
AcDbRegAppTableRecord
  2
AD_DRAW
 70
     0
  0
APPID
  5
164B
330
9
100
AcDbSymbolTableRecord
100
AcDbRegAppTableRecord
  2
ACATTRIBSERVICES
 70
     0
  0
APPID
  5
1669
330
9
100
AcDbSymbolTableRecord
100
AcDbRegAppTableRecord
  2
DESIGNERASSEMBLIES
 70
     0
  0
APPID
  5
167C
330
9
100
AcDbSymbolTableRecord
100
AcDbRegAppTableRecord
  2
ACADM_DIM_EDIT
 70
     0
  0
APPID
  5
167D
330
9
100
AcDbSymbolTableRecord
100
AcDbRegAppTableRecord
  2
AMDT_DM_ADJ
 70
     0
  0
APPID
  5
2B0B
330
9
100
AcDbSymbolTableRecord
100
AcDbRegAppTableRecord
  2
GENIUS_GENOBJ-N-CRS_13
 70
     0
  0
ENDTAB
  0
TABLE
  2
DIMSTYLE
  5
A
330
0
100
AcDbSymbolTable
 70
    15
100
AcDbDimStyleTable
  0
DIMSTYLE
105
69
102
{ACAD_REACTORS
330
3EF0
102
}
330
A
100
AcDbSymbolTableRecord
100
AcDbDimStyleTableRecord
  2
AM_JIS
 70
     0
  4
"
 41
2.5
 42
0.0
 43
10.0
 44
1.0
 47
0.1
 48
0.1000000001
 73
     0
 74
     0
 77
     3
 78
     1
 79
     2
140
3.8
141
0.0
143
0.0393701
146
0.71
147
1.5
172
     1
176
     3
177
     3
178
     2
271
     2
272
     2
275
     1
283
     0
284
     8
340
11
341
6A
342
6A
371
    13
372
    13
  0
DIMSTYLE
105
70
330
A
100
AcDbSymbolTableRecord
100
AcDbDimStyleTableRecord
  2
AM_JIS$3
 70
     0
  4
"
 41
2.5
 42
0.0
 43
10.0
 44
1.0
 47
0.1
 48
0.1000000001
 73
     0
 74
     0
 77
     3
 78
     1
 79
     2
140
3.8
141
0.0
143
0.0393701
146
0.71
147
1.5
172
     1
176
     3
177
     3
178
     2
271
     2
272
     2
275
     1
283
     0
284
     8
288
     1
289
     0
340
11
341
6A
342
6A
371
    13
372
    13
  0
DIMSTYLE
105
71
330
A
100
AcDbSymbolTableRecord
100
AcDbDimStyleTableRecord
  2
AM_JIS$4
 70
     0
  4
"
 41
2.5
 42
0.0
 43
10.0
 44
1.0
 47
0.1
 48
0.1000000001
 73
     0
 74
     0
 77
     3
 78
     1
 79
     2
140
3.8
141
0.0
143
0.0393701
146
0.71
147
1.5
172
     1
176
     3
177
     3
178
     2
271
     2
272
     2
275
     1
283
     0
284
     8
288
     1
289
     0
340
11
341
6A
342
6A
371
    13
372
    13
  0
DIMSTYLE
105
72
330
A
100
AcDbSymbolTableRecord
100
AcDbDimStyleTableRecord
  2
AM_JIS$6
 70
     0
  4
"
 41
2.5
 42
0.0
 43
10.0
 44
1.0
 47
0.1
 48
0.1000000001
 73
     0
 74
     0
 78
     1
 79
     2
140
3.8
141
0.0
143
0.0393701
146
0.71
147
1.5
172
     1
176
     3
177
     3
178
     2
271
     2
272
     2
275
     1
283
     0
284
     8
340
11
341
6A
342
6A
371
    13
372
    13
  0
DIMSTYLE
105
73
330
A
100
AcDbSymbolTableRecord
100
AcDbDimStyleTableRecord
  2
AM_JIS$7
 70
     0
  4
"
 41
2.5
 42
0.0
 43
10.0
 44
1.0
 47
0.1
 48
0.1000000001
 73
     0
 74
     0
 77
     3
 78
     1
 79
     2
140
5.0
141
0.0
143
0.0393701
146
0.71
147
1.5
172
     1
176
     3
177
     3
178
     2
271
     2
272
     2
275
     1
283
     0
284
     8
340
11
341
6A
342
6A
371
    13
372
    13
  0
DIMSTYLE
105
74
330
A
100
AcDbSymbolTableRecord
100
AcDbDimStyleTableRecord
  2
AM_JIS$SF
 70
     0
  4
"
 41
2.5
 42
1.0
 43
10.0
 44
1.0
 47
0.1
 48
0.1
 73
     0
 74
     0
 75
     1
 76
     1
 77
     3
 78
     8
 79
     2
140
3.5
141
0.0
143
0.0393701
146
0.71
147
1.5
176
   256
177
   256
178
     2
271
     2
272
     3
274
     4
340
11
341
6A
342
6A
343
6A
344
6A
371
    -1
372
    -1
  0
DIMSTYLE
105
79
330
A
100
AcDbSymbolTableRecord
100
AcDbDimStyleTableRecord
  2
AM_JIS$SH
 70
     0
  4
"
 41
2.5
 42
1.0
 43
10.0
 44
1.0
 47
0.1
 48
0.1
 73
     0
 74
     0
 75
     1
 76
     1
 77
     3
 78
     8
 79
     2
140
3.5
141
0.0
143
0.0393701
144
2.0
146
0.71
147
1.5
173
     1
176
   256
177
   256
178
     2
271
     2
272
     3
274
     4
340
11
341
6A
342
6A
343
75
344
6A
371
    -1
372
    -1
  0
DIMSTYLE
105
124
330
A
100
AcDbSymbolTableRecord
100
AcDbDimStyleTableRecord
  2
STANDARD
 70
     0
340
11
  0
DIMSTYLE
105
927
102
{ACAD_REACTORS
330
3351
330
337E
330
338D
330
33AD
330
3BB8
330
3BF4
330
3F12
102
}
330
A
100
AcDbSymbolTableRecord
100
AcDbDimStyleTableRecord
  2
AM_JIS$0
 70
     0
  4
"
 41
2.5
 42
0.0
 43
10.0
 44
1.0
 47
0.1
 48
0.1000000001
 73
     0
 74
     0
 77
     3
 78
     1
 79
     2
140
3.8
141
0.0
143
0.0393701
146
0.71
147
1.5
172
     1
176
     3
177
     3
178
     2
271
     2
272
     2
275
     1
283
     0
284
     8
289
     0
340
11
341
6A
342
6A
371
    13
372
    13
  0
DIMSTYLE
105
190C
330
A
100
AcDbSymbolTableRecord
100
AcDbDimStyleTableRecord
  2
AM_ANSI
 70
     0
  4
mm
 41
0.1
 42
0.05
 43
0.5
 44
0.1
 47
0.1
 48
0.1
 78
     7
 79
     2
140
0.12
141
0.0
146
0.71
147
0.06
176
   256
177
   256
178
     2
274
     4
284
     7
340
11
371
    -1
372
    -1
  0
DIMSTYLE
105
190D
330
A
100
AcDbSymbolTableRecord
100
AcDbDimStyleTableRecord
  2
AM_ANSI$3
 70
     0
  4
mm
 41
0.1
 42
0.05
 43
0.5
 44
0.1
 47
0.1
 48
0.1
 78
     7
 79
     2
140
0.12
141
0.0
146
0.71
147
0.06
176
   256
177
   256
178
     2
274
     4
284
     7
288
     1
289
     0
340
11
371
    -1
372
    -1
  0
DIMSTYLE
105
190E
330
A
100
AcDbSymbolTableRecord
100
AcDbDimStyleTableRecord
  2
AM_ANSI$4
 70
     0
  4
mm
 41
0.1
 42
0.05
 43
0.5
 44
0.1
 47
0.1
 48
0.1
 78
     7
 79
     2
140
0.12
141
0.0
146
0.71
147
0.06
176
   256
177
   256
178
     2
274
     4
284
     7
288
     1
289
     0
340
11
371
    -1
372
    -1
  0
DIMSTYLE
105
190F
330
A
100
AcDbSymbolTableRecord
100
AcDbDimStyleTableRecord
  2
AM_ANSI$7
 70
     0
  4
mm
 41
0.1
 42
0.05
 43
0.5
 44
0.1
 47
0.1
 48
0.1
 78
     7
 79
     2
140
0.24
141
0.0
146
0.71
147
0.06
176
   256
177
   256
178
     2
274
     4
284
     7
340
11
371
    -1
372
    -1
  0
DIMSTYLE
105
1910
330
A
100
AcDbSymbolTableRecord
100
AcDbDimStyleTableRecord
  2
AM_ANSI$SF
 70
     0
  4
mm
 41
0.1
 42
0.05
 43
0.5
 44
0.1
 47
0.1
 48
0.1
 75
     1
 76
     1
 78
     7
 79
     2
140
0.12
141
0.0
146
0.71
147
0.06
176
   256
177
   256
178
     2
274
     4
284
     7
340
11
371
    -1
372
    -1
  0
DIMSTYLE
105
1911
330
A
100
AcDbSymbolTableRecord
100
AcDbDimStyleTableRecord
  2
AM_ANSI$SH
 70
     0
  4
mm
 41
0.1
 42
0.05
 43
0.5
 44
0.1
 47
0.1
 48
0.1
 75
     1
 76
     1
 78
     7
 79
     2
140
0.12
141
0.0
146
0.71
147
0.06
173
     1
176
   256
177
   256
178
     2
274
     4
284
     7
340
11
343
75
371
    -1
372
    -1
  0
ENDTAB
  0
TABLE
  2
BLOCK_RECORD
  5
1
330
0
100
AcDbSymbolTable
 70
    13
  0
BLOCK_RECORD
  5
1F
102
{ACAD_XDICTIONARY
360
10B
102
}
330
1
100
AcDbSymbolTableRecord
100
AcDbBlockTableRecord
  2
*Model_Space
340
22
  0
BLOCK_RECORD
  5
1B
330
1
100
AcDbSymbolTableRecord
100
AcDbBlockTableRecord
  2
*Paper_Space
340
1E
  0
BLOCK_RECORD
  5
23
330
1
100
AcDbSymbolTableRecord
100
AcDbBlockTableRecord
  2
*Paper_Space0
340
26
  0
BLOCK_RECORD
  5
6A
330
1
100
AcDbSymbolTableRecord
100
AcDbBlockTableRecord
  2
_Open30
340
0
102
{BLKREFS
331
3FFD
331
3FFE
331
3FC5
331
3FC6
331
3FEA
331
3FEB
331
3FF4
331
3FF5
331
4044
331
4045
331
403B
331
403C
331
3F9C
331
3F9D
331
3F8A
331
3F8B
102
}
  0
BLOCK_RECORD
  5
75
330
1
100
AcDbSymbolTableRecord
100
AcDbBlockTableRecord
  2
GENAXEH
340
0
  0
BLOCK_RECORD
  5
1660
330
1
100
AcDbSymbolTableRecord
100
AcDbBlockTableRecord
  2
*U3
340
0
  0
BLOCK_RECORD
  5
2E58
102
{ACAD_XDICTIONARY
360
2E5D
102
}
330
1
100
AcDbSymbolTableRecord
100
AcDbBlockTableRecord
  2
A$C4828096E
340
0
102
{BLKREFS
331
3E2D
102
}
  0
BLOCK_RECORD
  5
3352
330
1
100
AcDbSymbolTableRecord
100
AcDbBlockTableRecord
  2
*D5
340
0
  0
BLOCK_RECORD
  5
337F
330
1
100
AcDbSymbolTableRecord
100
AcDbBlockTableRecord
  2
*D6
340
0
  0
BLOCK_RECORD
  5
338E
330
1
100
AcDbSymbolTableRecord
100
AcDbBlockTableRecord
  2
*D7
340
0
  0
BLOCK_RECORD
  5
33AE
330
1
100
AcDbSymbolTableRecord
100
AcDbBlockTableRecord
  2
*D8
340
0
  0
BLOCK_RECORD
  5
3BB9
330
1
100
AcDbSymbolTableRecord
100
AcDbBlockTableRecord
  2
*D9
340
0
  0
BLOCK_RECORD
  5
3BF5
330
1
100
AcDbSymbolTableRecord
100
AcDbBlockTableRecord
  2
*D10
340
0
  0
BLOCK_RECORD
  5
3EF1
330
1
100
AcDbSymbolTableRecord
100
AcDbBlockTableRecord
  2
*D11
340
0
  0
BLOCK_RECORD
  5
3F13
330
1
100
AcDbSymbolTableRecord
100
AcDbBlockTableRecord
  2
*D12
340
0
  0
ENDTAB
  0
ENDSEC
  0
SECTION
  2
BLOCKS
  0
BLOCK
  5
20
330
1F
100
AcDbEntity
  8
0
100
AcDbBlockBegin
  2
*Model_Space
 70
     0
 71
     0
 10
0.0
 20
0.0
 30
0.0
  3
*Model_Space
  1

  0
ENDBLK
  5
21
330
1F
100
AcDbEntity
  8
0
100
AcDbBlockEnd
  0
BLOCK
  5
1C
330
1B
100
AcDbEntity
 67
     1
  8
0
100
AcDbBlockBegin
  2
*Paper_Space
 70
     0
 71
     0
 10
0.0
 20
0.0
 30
0.0
  3
*Paper_Space
  1

  0
ENDBLK
  5
1D
330
1B
100
AcDbEntity
 67
     1
  8
0
100
AcDbBlockEnd
  0
BLOCK
  5
24
330
23
100
AcDbEntity
  8
0
100
AcDbBlockBegin
  2
*Paper_Space0
 70
     0
 71
     0
 10
0.0
 20
0.0
 30
0.0
  3
*Paper_Space0
  1

  0
ENDBLK
  5
25
330
23
100
AcDbEntity
  8
0
100
AcDbBlockEnd
  0
BLOCK
  5
6E
330
6A
100
AcDbEntity
  8
0
100
AcDbBlockBegin
  2
_Open30
 70
     0
 71
     0
 10
0.0
 20
0.0
 30
0.0
  3
_Open30
  1

  0
LINE
  5
6B
330
6A
100
AcDbEntity
  8
0
 62
     0
370
    -2
100
AcDbLine
 10
-1.0
 20
0.26794919
 30
0.0
 11
0.0
 21
0.0
 31
0.0
  0
LINE
  5
6C
330
6A
100
AcDbEntity
  8
0
 62
     0
370
    -2
100
AcDbLine
 10
0.0
 20
0.0
 30
0.0
 11
-1.0
 21
-0.26794919
 31
0.0
  0
LINE
  5
6D
330
6A
100
AcDbEntity
  8
0
 62
     0
370
    -2
100
AcDbLine
 10
0.0
 20
0.0
 30
0.0
 11
-1.0
 21
0.0
 31
0.0
  0
ENDBLK
  5
6F
330
6A
100
AcDbEntity
  8
0
100
AcDbBlockEnd
  0
BLOCK
  5
77
330
75
100
AcDbEntity
  8
0
100
AcDbBlockBegin
  2
GENAXEH
 70
     0
 71
     0
 10
0.0
 20
0.0
 30
0.0
  3
GENAXEH
  1

  0
LINE
  5
76
330
75
100
AcDbEntity
  8
0
100
AcDbLine
 10
-1.0
 20
0.0
 30
0.0
 11
1.0
 21
0.0
 31
0.0
  0
ENDBLK
  5
78
330
75
100
AcDbEntity
  8
0
100
AcDbBlockEnd
  0
BLOCK
  5
1661
330
1660
100
AcDbEntity
  8
0
100
AcDbBlockBegin
  2
*U3
 70
     1
 71
     0
 10
0.0
 20
0.0
 30
0.0
  3
*U3
  1

  0
ENDBLK
  5
1662
330
1660
100
AcDbEntity
  8
0
100
AcDbBlockEnd
  0
BLOCK
  5
2E5F
330
2E58
100
AcDbEntity
  8
0
370
    13
100
AcDbBlockBegin
  2
A$C4828096E
 70
     0
 71
     0
 10
0.0
 20
0.0
 30
0.0
  3
A$C4828096E
  1

  0
LINE
  5
2E59
330
2E58
100
AcDbEntity
  8
AM_5
100
AcDbLine
 10
-0.0000001351605761
 20
-0.0000002982438616
 30
0.0
 11
1.772890097231255
 21
6.616597031493654
 31
0.0
  0
LINE
  5
2E5A
330
2E58
100
AcDbEntity
  8
AM_5
100
AcDbLine
 10
1.772890097231255
 20
6.616597031493654
 30
0.0
 11
2.588160788039147
 21
9.659265876555438
 31
0.0
  0
LINE
  5
2E5B
330
2E58
100
AcDbEntity
  8
AM_5
100
AcDbLine
 10
2.17346504822774
 20
6.509264609317881
 30
0.0
 11
2.588160788039147
 21
9.659265876555438
 31
0.0
  0
LINE
  5
2E5C
330
2E58
100
AcDbEntity
  8
AM_5
100
AcDbLine
 10
2.588160788039147
 20
9.659265876555438
 30
0.0
 11
1.37231514623474
 21
6.723929453669427
 31
0.0
  0
ENDBLK
  5
2E60
330
2E58
100
AcDbEntity
  8
0
370
    13
100
AcDbBlockEnd
  0
BLOCK
  5
335C
330
3352
100
AcDbEntity
  8
0
370
    13
100
AcDbBlockBegin
  2
*D5
 70
     1
 71
     0
 10
0.0
 20
0.0
 30
0.0
  3
*D5
  1

  0
LINE
  5
3FFA
330
3352
100
AcDbEntity
  8
AM_5
 62
     3
370
    13
100
AcDbLine
 10
160.0
 20
12.49999898603898
 30
0.0
 11
179.6947587193231
 21
12.49999898603897
 31
0.0
  0
LINE
  5
3FFB
330
3352
100
AcDbEntity
  8
AM_5
 62
     3
370
    13
100
AcDbLine
 10
160.0
 20
-12.50000101396102
 30
0.0
 11
179.6947587193231
 21
-12.50000101396103
 31
0.0
  0
LINE
  5
3FFC
330
3352
100
AcDbEntity
  8
AM_5
 62
     3
370
    13
100
AcDbLine
 10
178.6947587193231
 20
9.999998986038969
 30
0.0
 11
178.6947587193231
 21
-10.00000101396103
 31
0.0
  0
INSERT
  5
3FFD
330
3352
100
AcDbEntity
  8
AM_5
 62
     3
370
    13
100
AcDbBlockReference
  2
_Open30
 10
178.6947587193231
 20
12.49999898603897
 30
0.0
 41
2.5
 42
2.5
 43
2.5
 50
90.0
  0
INSERT
  5
3FFE
330
3352
100
AcDbEntity
  8
AM_5
 62
     3
370
    13
100
AcDbBlockReference
  2
_Open30
 10
178.6947587193231
 20
-12.50000101396103
 30
0.0
 41
2.5
 42
2.5
 43
2.5
 50
270.0
  0
MTEXT
  5
3FFF
330
3352
100
AcDbEntity
  8
AM_5
 62
     2
370
    13
100
AcDbMText
 10
175.2943847035751
 20
-0.2190872852496564
 30
0.0
 40
3.8
 41
0.0
 71
     5
 72
     1
  1
25
 11
6.123031769111886E-17
 21
1.0
 31
0.0
 73
     1
 44
1.0
  0
POINT
  5
4000
330
3352
100
AcDbEntity
  8
Defpoints
 62
     0
370
    13
100
AcDbPoint
 10
160.0
 20
12.49999898603898
 30
0.0
  0
POINT
  5
4001
330
3352
100
AcDbEntity
  8
Defpoints
 62
     0
370
    13
100
AcDbPoint
 10
160.0
 20
-12.50000101396102
 30
0.0
  0
POINT
  5
4002
330
3352
100
AcDbEntity
  8
Defpoints
 62
     0
370
    13
100
AcDbPoint
 10
178.6947587193231
 20
-12.50000101396103
 30
0.0
  0
ENDBLK
  5
335D
330
3352
100
AcDbEntity
  8
0
370
    13
100
AcDbBlockEnd
  0
BLOCK
  5
3389
330
337F
100
AcDbEntity
  8
0
370
    13
100
AcDbBlockBegin
  2
*D6
 70
     1
 71
     0
 10
0.0
 20
0.0
 30
0.0
  3
*D6
  1

  0
LINE
  5
3FC2
330
337F
100
AcDbEntity
  8
AM_5
 62
     3
370
    13
100
AcDbLine
 10
0.0
 20
0.0
 30
0.0
 11
-0.0000000000000029
 21
-47.53018231665681
 31
0.0
  0
LINE
  5
3FC3
330
337F
100
AcDbEntity
  8
AM_5
 62
     3
370
    13
100
AcDbLine
 10
160.0
 20
-12.50000101396102
 30
0.0
 11
160.0
 21
-47.53018231665681
 31
0.0
  0
LINE
  5
3FC4
330
337F
100
AcDbEntity
  8
AM_5
 62
     3
370
    13
100
AcDbLine
 10
2.499999999999997
 20
-46.53018231665681
 30
0.0
 11
157.5
 21
-46.53018231665681
 31
0.0
  0
INSERT
  5
3FC5
330
337F
100
AcDbEntity
  8
AM_5
 62
     3
370
    13
100
AcDbBlockReference
  2
_Open30
 10
-0.0000000000000028
 20
-46.53018231665681
 30
0.0
 41
2.5
 42
2.5
 43
2.5
 50
180.0
  0
INSERT
  5
3FC6
330
337F
100
AcDbEntity
  8
AM_5
 62
     3
370
    13
100
AcDbBlockReference
  2
_Open30
 10
160.0
 20
-46.53018231665681
 30
0.0
 41
2.5
 42
2.5
 43
2.5
  0
MTEXT
  5
3FC7
330
337F
100
AcDbEntity
  8
AM_5
 62
     2
370
    13
100
AcDbMText
 10
74.97723624974219
 20
-43.13018231665681
 30
0.0
 40
3.8
 41
0.0
 71
     5
 72
     1
  1
160
 73
     1
 44
1.0
  0
POINT
  5
3FC8
330
337F
100
AcDbEntity
  8
Defpoints
 62
     0
370
    13
100
AcDbPoint
 10
0.0
 20
0.0
 30
0.0
  0
POINT
  5
3FC9
330
337F
100
AcDbEntity
  8
Defpoints
 62
     0
370
    13
100
AcDbPoint
 10
160.0
 20
-12.50000101396102
 30
0.0
  0
POINT
  5
3FCA
330
337F
100
AcDbEntity
  8
Defpoints
 62
     0
370
    13
100
AcDbPoint
 10
160.0
 20
-46.53018231665681
 30
0.0
  0
ENDBLK
  5
338A
330
337F
100
AcDbEntity
  8
0
370
    13
100
AcDbBlockEnd
  0
BLOCK
  5
3398
330
338E
100
AcDbEntity
  8
0
370
    13
100
AcDbBlockBegin
  2
*D7
 70
     1
 71
     0
 10
0.0
 20
0.0
 30
0.0
  3
*D7
  1

  0
LINE
  5
3FE7
330
338E
100
AcDbEntity
  8
AM_5
 62
     3
370
    13
100
AcDbLine
 10
0.0
 20
0.0
 30
0.0
 11
-14.12163165732932
 21
0.000000000000004
 31
0.0
  0
LINE
  5
3FE8
330
338E
100
AcDbEntity
  8
AM_5
 62
     3
370
    13
100
AcDbLine
 10
13.79999909260382
 20
12.49999898603898
 30
0.0
 11
-14.12163165732931
 21
12.49999898603898
 31
0.0
  0
LINE
  5
3FE9
330
338E
100
AcDbEntity
  8
AM_5
 62
     3
370
    13
100
AcDbLine
 10
-13.12163165732932
 20
2.500000000000004
 30
0.0
 11
-13.12163165732932
 21
9.999998986038984
 31
0.0
  0
INSERT
  5
3FEA
330
338E
100
AcDbEntity
  8
AM_5
 62
     3
370
    13
100
AcDbBlockReference
  2
_Open30
 10
-13.12163165732932
 20
0.0000000000000037
 30
0.0
 41
2.5
 42
2.5
 43
2.5
 50
270.0
  0
INSERT
  5
3FEB
330
338E
100
AcDbEntity
  8
AM_5
 62
     3
370
    13
100
AcDbBlockReference
  2
_Open30
 10
-13.12163165732931
 20
12.49999898603898
 30
0.0
 41
2.5
 42
2.5
 43
2.5
 50
90.0
  0
MTEXT
  5
3FEC
330
338E
100
AcDbEntity
  8
AM_5
 62
     2
370
    13
100
AcDbMText
 10
-16.52200567307735
 20
6.520078928158569
 30
0.0
 40
3.8
 41
0.0
 71
     5
 72
     1
  1
12.5
 11
6.123031769111886E-17
 21
1.0
 31
0.0
 73
     1
 44
1.0
  0
POINT
  5
3FED
330
338E
100
AcDbEntity
  8
Defpoints
 62
     0
370
    13
100
AcDbPoint
 10
0.0
 20
0.0
 30
0.0
  0
POINT
  5
3FEE
330
338E
100
AcDbEntity
  8
Defpoints
 62
     0
370
    13
100
AcDbPoint
 10
13.79999909260382
 20
12.49999898603898
 30
0.0
  0
POINT
  5
3FEF
330
338E
100
AcDbEntity
  8
Defpoints
 62
     0
370
    13
100
AcDbPoint
 10
-13.12163165732931
 20
12.49999898603898
 30
0.0
  0
ENDBLK
  5
3399
330
338E
100
AcDbEntity
  8
0
370
    13
100
AcDbBlockEnd
  0
BLOCK
  5
33B8
330
33AE
100
AcDbEntity
  8
0
370
    13
100
AcDbBlockBegin
  2
*D8
 70
     1
 71
     0
 10
0.0
 20
0.0
 30
0.0
  3
*D8
  1

  0
LINE
  5
3FF1
330
33AE
100
AcDbEntity
  8
AM_5
 62
     3
370
    13
100
AcDbLine
 10
0.0
 20
0.0
 30
0.0
 11
0.0000000000000015
 21
24.52153554612323
 31
0.0
  0
LINE
  5
3FF2
330
33AE
100
AcDbEntity
  8
AM_5
 62
     3
370
    13
100
AcDbLine
 10
34.98162399999998
 20
12.49999898603898
 30
0.0
 11
34.98162399999998
 21
24.52153554612323
 31
0.0
  0
LINE
  5
3FF3
330
33AE
100
AcDbEntity
  8
AM_5
 62
     3
370
    13
100
AcDbLine
 10
2.500000000000001
 20
23.52153554612323
 30
0.0
 11
32.48162399999998
 21
23.52153554612323
 31
0.0
  0
INSERT
  5
3FF4
330
33AE
100
AcDbEntity
  8
AM_5
 62
     3
370
    13
100
AcDbBlockReference
  2
_Open30
 10
0.0000000000000014
 20
23.52153554612323
 30
0.0
 41
2.5
 42
2.5
 43
2.5
 50
180.0
  0
INSERT
  5
3FF5
330
33AE
100
AcDbEntity
  8
AM_5
 62
     3
370
    13
100
AcDbBlockReference
  2
_Open30
 10
34.98162399999998
 20
23.52153554612323
 30
0.0
 41
2.5
 42
2.5
 43
2.5
  0
MTEXT
  5
3FF6
330
33AE
100
AcDbEntity
  8
AM_5
 62
     2
370
    13
100
AcDbMText
 10
17.424598300659
 20
26.92153554612323
 30
0.0
 40
3.8
 41
0.0
 71
     5
 72
     1
  1
35
 73
     1
 44
1.0
  0
POINT
  5
3FF7
330
33AE
100
AcDbEntity
  8
Defpoints
 62
     0
370
    13
100
AcDbPoint
 10
0.0
 20
0.0
 30
0.0
  0
POINT
  5
3FF8
330
33AE
100
AcDbEntity
  8
Defpoints
 62
     0
370
    13
100
AcDbPoint
 10
34.98162399999998
 20
12.49999898603898
 30
0.0
  0
POINT
  5
3FF9
330
33AE
100
AcDbEntity
  8
Defpoints
 62
     0
370
    13
100
AcDbPoint
 10
34.98162399999998
 20
23.52153554612323
 30
0.0
  0
ENDBLK
  5
33B9
330
33AE
100
AcDbEntity
  8
0
370
    13
100
AcDbBlockEnd
  0
BLOCK
  5
3BCF
330
3BB9
100
AcDbEntity
  8
0
370
    13
100
AcDbBlockBegin
  2
*D9
 70
     1
 71
     0
 10
0.0
 20
0.0
 30
0.0
  3
*D9
  1

  0
LINE
  5
4041
330
3BB9
100
AcDbEntity
  8
AM_5
 62
     3
370
    13
100
AcDbLine
 10
-12.54784045128929
 20
-90.87086059448728
 30
0.0
 11
-3.355451747168125
 21
-100.0632482012164
 31
0.0
  0
LINE
  5
4042
330
3BB9
100
AcDbEntity
  8
AM_5
 62
     3
370
    13
100
AcDbLine
 10
5.129828023189731
 20
-73.19319000963901
 30
0.0
 11
14.32221672731089
 21
-82.38557761636815
 31
0.0
  0
LINE
  5
4043
330
3BB9
100
AcDbEntity
  8
AM_5
 62
     3
370
    13
100
AcDbLine
 10
-2.294791723114152
 20
-97.58837440375244
 30
0.0
 11
11.84734305646906
 21
-83.44623793587381
 31
0.0
  0
INSERT
  5
4044
330
3BB9
100
AcDbEntity
  8
AM_5
 62
     3
370
    13
100
AcDbBlockReference
  2
_Open30
 10
-4.062558570562054
 20
-99.35614146223728
 30
0.0
 41
2.5
 42
2.5
 43
2.5
 50
225.0000034199998
  0
INSERT
  5
4045
330
3BB9
100
AcDbEntity
  8
AM_5
 62
     3
370
    13
100
AcDbBlockReference
  2
_Open30
 10
13.61510990391696
 20
-81.67847087738898
 30
0.0
 41
2.5
 42
2.5
 43
2.5
 50
45.0000034199998
  0
MTEXT
  5
4046
330
3BB9
100
AcDbEntity
  8
AM_5
 62
     2
100
AcDbMText
 10
2.371847998050598
 20
-88.11287878822807
 30
0.0
 40
3.8
 41
0.0
 71
     5
 72
     1
  1
25
 11
0.7071067389791608
 21
0.7071068233939317
 31
0.0
 73
     1
 44
1.0
  0
POINT
  5
4047
330
3BB9
100
AcDbEntity
  8
Defpoints
 62
     0
370
    13
100
AcDbPoint
 10
-12.54784045128929
 20
-90.87086059448728
 30
0.0
  0
POINT
  5
4048
330
3BB9
100
AcDbEntity
  8
Defpoints
 62
     0
370
    13
100
AcDbPoint
 10
5.129828023189731
 20
-73.19319000963901
 30
0.0
  0
POINT
  5
4049
330
3BB9
100
AcDbEntity
  8
Defpoints
 62
     0
370
    13
100
AcDbPoint
 10
13.61510990391696
 20
-81.67847087738898
 30
0.0
  0
ENDBLK
  5
3BD0
330
3BB9
100
AcDbEntity
  8
0
370
    13
100
AcDbBlockEnd
  0
BLOCK
  5
3C0B
330
3BF5
100
AcDbEntity
  8
0
370
    13
100
AcDbBlockBegin
  2
*D10
 70
     1
 71
     0
 10
0.0
 20
0.0
 30
0.0
  3
*D10
  1

  0
LINE
  5
4038
330
3BF5
100
AcDbEntity
  8
AM_5
 62
     3
370
    13
100
AcDbLine
 10
-51.05935351001943
 20
-52.3593521332811
 30
0.0
 11
-62.13708268544689
 21
-41.28162428031859
 31
0.0
  0
LINE
  5
4039
330
3BF5
100
AcDbEntity
  8
AM_5
 62
     3
370
    13
100
AcDbLine
 10
-39.66254121693851
 20
-28.40082611684659
 30
0.0
 11
-44.45941421096792
 21
-23.60395369547032
 31
0.0
  0
LINE
  5
403A
330
3BF5
100
AcDbEntity
  8
AM_5
 62
     3
370
    13
100
AcDbLine
 10
-59.66220901460505
 20
-40.22096396081291
 30
0.0
 11
-45.52007423502189
 21
-26.07882749293432
 31
0.0
  0
INSERT
  5
403B
330
3BF5
100
AcDbEntity
  8
AM_5
 62
     3
370
    13
100
AcDbBlockReference
  2
_Open30
 10
-61.42997586205295
 20
-41.98873101929775
 30
0.0
 41
2.5
 42
2.5
 43
2.5
 50
225.0000034199998
  0
INSERT
  5
403C
330
3BF5
100
AcDbEntity
  8
AM_5
 62
     3
370
    13
100
AcDbBlockReference
  2
_Open30
 10
-43.75230738757399
 20
-24.31106043444948
 30
0.0
 41
2.5
 42
2.5
 43
2.5
 50
45.00000341999985
  0
MTEXT
  5
403D
330
3BF5
100
AcDbEntity
  8
AM_5
 62
     2
100
AcDbMText
 10
-54.86461059504275
 20
-30.61450963125706
 30
0.0
 40
3.8
 41
0.0
 71
     5
 72
     1
  1
25
 11
0.7071067389791603
 21
0.7071068233939323
 31
0.0
 73
     1
 44
1.0
  0
POINT
  5
403E
330
3BF5
100
AcDbEntity
  8
Defpoints
 62
     0
370
    13
100
AcDbPoint
 10
-51.05935351001943
 20
-52.3593521332811
 30
0.0
  0
POINT
  5
403F
330
3BF5
100
AcDbEntity
  8
Defpoints
 62
     0
370
    13
100
AcDbPoint
 10
-39.66254121693851
 20
-28.40082611684659
 30
0.0
  0
POINT
  5
4040
330
3BF5
100
AcDbEntity
  8
Defpoints
 62
     0
370
    13
100
AcDbPoint
 10
-43.75230738757399
 20
-24.31106043444948
 30
0.0
  0
ENDBLK
  5
3C0C
330
3BF5
100
AcDbEntity
  8
0
370
    13
100
AcDbBlockEnd
  0
BLOCK
  5
3EFC
330
3EF1
100
AcDbEntity
  8
0
370
    13
100
AcDbBlockBegin
  2
*D11
 70
     1
 71
     0
 10
0.0
 20
0.0
 30
0.0
  3
*D11
  1

  0
LINE
  5
3F9A
330
3EF1
100
AcDbEntity
  8
AM_5
 62
     3
370
    13
100
AcDbLine
 10
12.49999952844252
 20
-12.50000101396103
 30
0.0
 11
42.03779574835778
 21
-42.03780074419184
 31
0.0
  0
ARC
  5
3F9B
330
3EF1
100
AcDbEntity
  8
AM_5
 62
     3
370
    13
100
AcDbCircle
 10
12.49999952844252
 20
-12.50000101396103
 30
0.0
 40
40.77275449898491
100
AcDbArc
 50
318.5136639551579
 51
356.4863326402846
  0
INSERT
  5
3F9C
330
3EF1
100
AcDbEntity
  8
AM_5
 62
     3
370
    13
100
AcDbBlockReference
  2
_Open30
 10
41.33068900918804
 20
-41.33069392098848
 30
0.0
 41
2.5
 42
2.5
 43
2.5
 50
226.7568302753001
  0
INSERT
  5
3F9D
330
3EF1
100
AcDbEntity
  8
AM_5
 62
     3
370
    13
100
AcDbBlockReference
  2
_Open30
 10
53.27275402742743
 20
-12.50000101396103
 30
0.0
 41
2.5
 42
2.5
 43
2.5
 50
88.24316632014231
  0
MTEXT
  5
3F9E
330
3EF1
100
AcDbEntity
  8
AM_5
 62
     2
370
    13
100
AcDbMText
 10
47.70697892679327
 20
-25.03759968697263
 30
0.0
 40
3.8
 41
0.0
 71
     5
 72
     1
  1
45°
 11
0.3354743004921444
 21
0.942049358425187
 31
0.0
 73
     1
 44
1.0
  0
POINT
  5
3F9F
330
3EF1
100
AcDbEntity
  8
Defpoints
 62
     0
370
    13
100
AcDbPoint
 10
47.81023989924729
 20
-32.8863796622272
 30
0.0
  0
POINT
  5
3FA0
330
3EF1
100
AcDbEntity
  8
Defpoints
 62
     0
370
    13
100
AcDbPoint
 10
8.53204599999998
 20
-8.532047013961005
 30
0.0
  0
POINT
  5
3FA1
330
3EF1
100
AcDbEntity
  8
Defpoints
 62
     0
370
    13
100
AcDbPoint
 10
35.00000000000001
 20
-12.50000101396103
 30
0.0
  0
POINT
  5
3FA2
330
3EF1
100
AcDbEntity
  8
Defpoints
 62
     0
370
    13
100
AcDbPoint
 10
160.0
 20
-12.50000101396103
 30
0.0
  0
POINT
  5
3FA3
330
3EF1
100
AcDbEntity
  8
Defpoints
 62
     0
370
    13
100
AcDbPoint
 10
0.1070740076381753
 20
-0.1070740203630294
 30
0.0
  0
ENDBLK
  5
3EFD
330
3EF1
100
AcDbEntity
  8
0
370
    13
100
AcDbBlockEnd
  0
BLOCK
  5
3F1F
330
3F13
100
AcDbEntity
  8
0
370
    13
100
AcDbBlockBegin
  2
*D12
 70
     1
 71
     0
 10
0.0
 20
0.0
 30
0.0
  3
*D12
  1

  0
LINE
  5
3F86
330
3F13
100
AcDbEntity
  8
AM_5
 62
     3
370
    13
100
AcDbLine
 10
33.00000049878585
 20
-14.50000101396103
 30
0.0
 11
42.29082397459683
 21
-14.50000101396103
 31
0.0
  0
LINE
  5
3F87
330
3F13
100
AcDbEntity
  8
AM_5
 62
     3
370
    13
100
AcDbLine
 10
41.29082397459683
 20
-10.00000101396103
 30
0.0
 11
41.29082397459683
 21
-7.500001013961027
 31
0.0
  0
LINE
  5
3F88
330
3F13
100
AcDbEntity
  8
AM_5
 62
     3
370
    13
100
AcDbLine
 10
41.29082397459683
 20
-17.00000101396103
 30
0.0
 11
41.29082397459683
 21
-24.34472148640197
 31
0.0
  0
LINE
  5
3F89
330
3F13
100
AcDbEntity
  8
AM_5
 62
     3
370
    13
100
AcDbLine
 10
41.29082397459683
 20
-12.50000101396103
 30
0.0
 11
41.29082397459683
 21
-14.50000101396103
 31
0.0
  0
INSERT
  5
3F8A
330
3F13
100
AcDbEntity
  8
AM_5
 62
     3
370
    13
100
AcDbBlockReference
  2
_Open30
 10
41.29082397459683
 20
-12.50000101396103
 30
0.0
 41
2.5
 42
2.5
 43
2.5
 50
270.0
  0
INSERT
  5
3F8B
330
3F13
100
AcDbEntity
  8
AM_5
 62
     3
370
    13
100
AcDbBlockReference
  2
_Open30
 10
41.29082397459683
 20
-14.50000101396103
 30
0.0
 41
2.5
 42
2.5
 43
2.5
 50
90.0
  0
MTEXT
  5
3F8C
330
3F13
100
AcDbEntity
  8
AM_5
 62
     2
370
    13
100
AcDbMText
 10
37.89044995884881
 20
-21.92236125018149
 30
0.0
 40
3.8
 41
0.0
 71
     5
 72
     1
  1
2
 11
6.123031769111886E-17
 21
1.0
 31
0.0
 73
     1
 44
1.0
  0
POINT
  5
3F8D
330
3F13
100
AcDbEntity
  8
Defpoints
 62
     0
370
    13
100
AcDbPoint
 10
33.00000049878585
 20
-14.50000101396103
 30
0.0
  0
POINT
  5
3F8E
330
3F13
100
AcDbEntity
  8
Defpoints
 62
     0
370
    13
100
AcDbPoint
 10
35.0
 20
-12.50000101396103
 30
0.0
  0
POINT
  5
3F8F
330
3F13
100
AcDbEntity
  8
Defpoints
 62
     0
370
    13
100
AcDbPoint
 10
41.29082397459683
 20
-12.50000101396103
 30
0.0
  0
ENDBLK
  5
3F20
330
3F13
100
AcDbEntity
  8
0
370
    13
100
AcDbBlockEnd
  0
ENDSEC
  0
SECTION
  2
ENTITIES
  0
MTEXT
  5
2E3B
330
1F
100
AcDbEntity
  8
AM_5
 62
     2
370
    13
100
AcDbMText
 10
58.05642293843363
 20
96.00167122089064
 30
0.0
 40
3.15
 41
0.0
 71
     7
 72
     5
  1

  7
ACJISTS
 73
     1
 44
1.0
  0
LINE
  5
31E2
330
1F
100
AcDbEntity
  8
AM_0
100
AcDbLine
 10
31.11224299999998
 20
-12.14656501396104
 30
0.0
 11
34.13883399999997
 21
-0.7756230139610238
 31
0.0
  0
LINE
  5
31E5
330
1F
100
AcDbEntity
  8
AM_0
100
AcDbLine
 10
11.31317899999999
 20
8.849500986038947
 30
0.0
 11
8.938665999999984
 21
6.474987986038968
 31
0.0
  0
LINE
  5
31E7
330
1F
100
AcDbEntity
  8
AM_0
100
AcDbLine
 10
33.15824099999998
 20
4.467513986038966
 30
0.0
 11
24.29336999999998
 21
9.596966986038979
 31
0.0
  0
LINE
  5
31EB
330
1F
100
AcDbEntity
  8
AM_0
100
AcDbLine
 10
16.665482
 20
-5.956601013961063
 30
0.0
 11
17.20392799999999
 21
-11.98011101396105
 31
0.0
  0
LINE
  5
31EE
330
1F
100
AcDbEntity
  8
AM_0
100
AcDbLine
 10
27.79867199999998
 20
-14.789432013961
 30
0.0
 11
26.99636199999998
 21
-14.78789401396102
 31
0.0
  0
LINE
  5
31EF
330
1F
100
AcDbEntity
  8
AM_0
100
AcDbLine
 10
27.05198299999998
 20
-14.73227301396105
 30
0.0
 11
26.99636199999998
 21
-14.78789401396102
 31
0.0
  0
LINE
  5
31F0
330
1F
100
AcDbEntity
  8
AM_0
100
AcDbLine
 10
20.19203399999998
 20
-14.71912201396106
 30
0.0
 11
27.05198299999998
 21
-14.73227301396105
 31
0.0
  0
LINE
  5
31F1
330
1F
100
AcDbEntity
  8
AM_0
100
AcDbLine
 10
29.91425199999998
 20
-13.91649301396103
 30
0.0
 11
30.33449999999999
 21
-13.49624501396102
 31
0.0
  0
LINE
  5
31F2
330
1F
100
AcDbEntity
  8
AM_0
100
AcDbLine
 10
15.77360699999997
 20
-2.222484013961037
 30
0.0
 11
15.66333899999998
 21
-2.332752013960999
 31
0.0
  0
LINE
  5
31F3
330
1F
100
AcDbEntity
  8
AM_0
100
AcDbLine
 10
15.66333899999998
 20
-2.332752013960999
 30
0.0
 11
15.64027899999999
 21
-2.355811013961045
 31
0.0
  0
LINE
  5
31F4
330
1F
100
AcDbEntity
  8
AM_0
100
AcDbLine
 10
27.01118699999998
 20
-14.73219501396102
 30
0.0
 11
26.99636199999998
 21
-14.78789401396102
 31
0.0
  0
LINE
  5
31F6
330
1F
100
AcDbEntity
  8
AM_0
100
AcDbLine
 10
160.0
 20
-12.50000101396103
 30
0.0
 11
160.0
 21
12.49999898603898
 31
0.0
  0
LINE
  5
31F7
330
1F
100
AcDbEntity
  8
AM_0
100
AcDbLine
 10
35.0
 20
-12.50000101396103
 30
0.0
 11
160.0
 21
-12.50000101396103
 31
0.0
  0
LINE
  5
31FC
330
1F
100
AcDbEntity
  8
AM_0
100
AcDbLine
 10
33.00000049878585
 20
-14.50000101396103
 30
0.0
 11
35.0
 21
-12.50000101396102
 31
0.0
  0
LINE
  5
31FE
330
1F
100
AcDbEntity
  8
AM_0
100
AcDbLine
 10
13.79999909260382
 20
12.49999898603898
 30
0.0
 11
9.595891999999992
 21
8.295889986038958
 31
0.0
  0
LINE
  5
3200
330
1F
100
AcDbEntity
  8
AM_0
100
AcDbLine
 10
33.00000049878585
 20
-14.50000101396102
 30
0.0
 11
29.08756323582102
 21
-14.50000101396102
 31
0.0
  0
LINE
  5
3201
330
1F
100
AcDbEntity
  8
AM_0
100
AcDbLine
 10
160.0
 20
12.49999898603898
 30
0.0
 11
13.79999909260382
 21
12.49999898603898
 31
0.0
  0
LINE
  5
3204
330
1F
100
AcDbEntity
  8
AM_0
100
AcDbLine
 10
6.201381999999995
 20
3.792032986038976
 30
0.0
 11
3.092783999999995
 21
1.92112498603899
 31
0.0
  0
LINE
  5
3207
330
1F
100
AcDbEntity
  8
AM_0
100
AcDbLine
 10
6.622744999999981
 20
2.74637598603897
 30
0.0
 11
12.37047699999999
 21
-3.001356013961072
 31
0.0
  0
LINE
  5
320B
330
1F
100
AcDbEntity
  8
AM_0
100
AcDbLine
 10
15.74493899999999
 20
-2.251152013961018
 30
0.0
 11
11.74329599999999
 21
-4.551459013961051
 31
0.0
  0
LINE
  5
320D
330
1F
100
AcDbEntity
  8
AM_0
100
AcDbLine
 10
7.668866999999978
 20
3.518874986038952
 30
0.0
 11
13.525274
 21
-2.337531013961041
 31
0.0
  0
LINE
  5
320E
330
1F
100
AcDbEntity
  8
AM_0
100
AcDbLine
 10
8.952071999999987
 20
5.373249986038957
 30
0.0
 11
6.201980999999989
 21
3.792385986038994
 31
0.0
  0
LINE
  5
3211
330
1F
100
AcDbEntity
  8
AM_0
100
AcDbLine
 10
14.41655699999998
 20
-1.825185013961004
 30
0.0
 11
8.560150999999991
 21
4.031220986038989
 31
0.0
  0
LINE
  5
3213
330
1F
100
AcDbEntity
  8
AM_0
100
AcDbLine
 10
9.005792999999983
 20
4.287393986038978
 30
0.0
 11
14.86219899999998
 21
-1.569012013961014
 31
0.0
  0
LINE
  5
3216
330
1F
100
AcDbEntity
  8
AM_0
100
AcDbLine
 10
9.618101999999993
 20
-5.864886013961041
 30
0.0
 11
10.75879199999997
 21
-5.207536013961033
 31
0.0
  0
LINE
  5
321A
330
1F
100
AcDbEntity
  8
AM_0
100
AcDbLine
 10
2.942656999999997
 20
0.8105589860389273
 30
0.0
 11
9.618101999999993
 21
-5.864886013961041
 31
0.0
  0
LINE
  5
321B
330
1F
100
AcDbEntity
  8
AM_0
100
AcDbLine
 10
2.957517999999993
 20
1.815368986038948
 30
0.0
 11
2.941063999999983
 21
1.798913986038997
 31
0.0
  0
LINE
  5
321C
330
1F
100
AcDbEntity
  8
AM_0
100
AcDbLine
 10
0.116392999999988
 20
0.4471269860389384
 30
0.0
 11
8.498763999999994
 21
8.829496986038976
 31
0.0
  0
LINE
  5
321D
330
1F
100
AcDbEntity
  8
AM_0
100
AcDbLine
 10
9.063366999999971
 20
8.828414986038979
 30
0.0
 11
10.17773
 21
7.714051986038953
 31
0.0
  0
LINE
  5
321E
330
1F
100
AcDbEntity
  8
AM_0
100
AcDbLine
 10
14.78541299999998
 20
-2.84436501396101
 30
0.0
 11
9.096648999999985
 21
-8.533129013961002
 31
0.0
  0
LINE
  5
321F
330
1F
100
AcDbEntity
  8
AM_0
100
AcDbLine
 10
8.53204599999998
 20
-8.532047013961005
 30
0.0
 11
0.1070740076381753
 21
-0.1070740203630294
 31
0.0
  0
LINE
  5
3220
330
1F
100
AcDbEntity
  8
AM_0
100
AcDbLine
 10
27.33248099999997
 20
-3.23455701396108
 30
0.0
 11
27.020715
 21
-5.517150013961043
 31
0.0
  0
LINE
  5
3221
330
1F
100
AcDbEntity
  8
AM_0
100
AcDbLine
 10
25.51053099999999
 20
-1.815683013961007
 30
0.0
 11
27.33248099999997
 21
-3.23455701396108
 31
0.0
  0
LINE
  5
3222
330
1F
100
AcDbEntity
  8
AM_0
100
AcDbLine
 10
23.37681499999999
 20
-2.679401013961069
 30
0.0
 11
25.51053099999999
 21
-1.815683013961007
 31
0.0
  0
LINE
  5
3223
330
1F
100
AcDbEntity
  8
AM_0
100
AcDbLine
 10
23.06504899999999
 20
-4.961994013961032
 30
0.0
 11
23.37681499999999
 21
-2.679401013961069
 31
0.0
  0
LINE
  5
3224
330
1F
100
AcDbEntity
  8
AM_0
100
AcDbLine
 10
24.886999
 20
-6.380869013961046
 30
0.0
 11
23.06504899999999
 21
-4.961994013961032
 31
0.0
  0
LINE
  5
3225
330
1F
100
AcDbEntity
  8
AM_0
100
AcDbLine
 10
27.020715
 20
-5.517150013961043
 30
0.0
 11
24.886999
 21
-6.380869013961046
 31
0.0
  0
LINE
  5
3226
330
1F
100
AcDbEntity
  8
AM_0
100
AcDbLine
 10
25.51053099999999
 20
-1.815683013961007
 30
0.0
 11
25.35602799999998
 21
-1.97018601396104
 31
0.0
  0
LINE
  5
3227
330
1F
100
AcDbEntity
  8
AM_0
100
AcDbLine
 10
23.363519
 20
-2.776744013961036
 30
0.0
 11
25.35602799999998
 21
-1.97018601396104
 31
0.0
  0
LINE
  5
3228
330
1F
100
AcDbEntity
  8
AM_0
100
AcDbLine
 10
27.33248099999997
 20
-3.23455701396108
 30
0.0
 11
27.177978
 21
-3.389060013961057
 31
0.0
  0
LINE
  5
3229
330
1F
100
AcDbEntity
  8
AM_0
100
AcDbLine
 10
27.177978
 20
-3.389060013961057
 30
0.0
 11
26.87950799999999
 21
-5.574311013961051
 31
0.0
  0
LINE
  5
322A
330
1F
100
AcDbEntity
  8
AM_0
100
AcDbLine
 10
25.35602799999998
 20
-1.97018601396104
 30
0.0
 11
27.177978
 21
-3.389060013961057
 31
0.0
  0
ARC
  5
322B
330
1F
100
AcDbEntity
  8
AM_0
100
AcDbCircle
 10
28.21317999999999
 20
-11.37492401396105
 30
0.0
 40
3.00000022124016
100
AcDbArc
 50
314.9999864952559
 51
345.0952017161152
  0
ARC
  5
322C
330
1F
100
AcDbEntity
  8
AM_0
100
AcDbCircle
 10
21.38283099999998
 20
5.502385986038973
 30
0.0
 40
5.00000033346079
100
AcDbArc
 50
60.36885955105871
 51
89.57136626803673
  0
ARC
  5
323F
330
1F
100
AcDbEntity
  8
AM_0
100
AcDbCircle
 10
25.064076
 20
-4.186597013961034
 30
0.0
 40
6.21721345010037
100
AcDbArc
 50
78.25648762428943
 51
134.9999934835379
  0
ARC
  5
3240
330
1F
100
AcDbEntity
  8
AM_0
100
AcDbCircle
 10
25.05247499999999
 20
-4.24240401396105
 30
0.0
 40
6.27421342485996
100
AcDbArc
 50
21.94915103036675
 51
78.25649013139289
  0
ARC
  5
3241
330
1F
100
AcDbEntity
  8
AM_0
100
AcDbCircle
 10
25.118246
 20
-4.178547013961065
 30
0.0
 40
6.270074775338251
100
AcDbArc
 50
222.4117643560779
 51
265.084193081452
  0
ARC
  5
3242
330
1F
100
AcDbEntity
  8
AM_0
100
AcDbCircle
 10
25.11347699999999
 20
-4.233989013961036
 30
0.0
 40
6.21442852887737
100
AcDbArc
 50
265.084198001972
 51
308.1039672012478
  0
ARC
  5
3243
330
1F
100
AcDbEntity
  8
AM_0
100
AcDbCircle
 10
25.05350099999998
 20
-4.176022013961074
 30
0.0
 40
6.20225773063688
100
AcDbArc
 50
134.9999934678253
 51
137.5293349121694
  0
ARC
  5
3244
330
1F
100
AcDbEntity
  8
AM_0
100
AcDbCircle
 10
25.05377299999998
 20
-4.176271013961014
 30
0.0
 40
6.20262676540069
100
AcDbArc
 50
137.5293348168136
 51
140.0585211880547
  0
ARC
  5
3245
330
1F
100
AcDbEntity
  8
AM_0
100
AcDbCircle
 10
25.054126
 20
-4.176567013961062
 30
0.0
 40
6.20308675304836
100
AcDbArc
 50
140.0585182724072
 51
143.8523429614651
  0
ARC
  5
3246
330
1F
100
AcDbEntity
  8
AM_0
100
AcDbCircle
 10
25.05566499999998
 20
-4.177690013961069
 30
0.0
 40
6.204992386455441
100
AcDbArc
 50
143.8523520587793
 51
147.6450031421837
  0
ARC
  5
3247
330
1F
100
AcDbEntity
  8
AM_0
100
AcDbCircle
 10
24.93201599999998
 20
-4.364727013961044
 30
0.0
 40
6.249796713925099
100
AcDbArc
 50
45.25020539708245
 51
133.990708758415
  0
ARC
  5
3248
330
1F
100
AcDbEntity
  8
AM_0
100
AcDbCircle
 10
24.931713
 20
-4.365032013961013
 30
0.0
 40
6.250225946199699
100
AcDbArc
 50
316.5136423838999
 51
45.25020115075661
  0
ARC
  5
3283
330
1F
100
AcDbEntity
  8
AM_0
100
AcDbCircle
 10
24.29181199999999
 20
9.594274986038954
 30
0.0
 40
0.0031097602801495
100
AcDbArc
 50
16.28452504959084
 51
59.93980773827267
  0
ARC
  5
3284
330
1F
100
AcDbEntity
  8
AM_0
100
AcDbCircle
 10
24.28347399999998
 20
9.591837986038968
 30
0.0
 40
0.011797197379039
100
AcDbArc
 50
4.234062763570599
 51
16.29031794436263
  0
ARC
  5
3285
330
1F
100
AcDbEntity
  8
AM_0
100
AcDbCircle
 10
24.27427299999999
 20
9.591156986038982
 30
0.0
 40
0.0210226432686298
100
AcDbArc
 50
353.0686856410902
 51
4.233576244438082
  0
ARC
  5
3286
330
1F
100
AcDbEntity
  8
AM_0
100
AcDbCircle
 10
24.23053599999997
 20
9.59647498603897
 30
0.0
 40
0.0650821586919185
100
AcDbArc
 50
349.4501081118347
 51
353.0678241047393
  0
ARC
  5
3297
330
1F
100
AcDbEntity
  8
AM_0
100
AcDbCircle
 10
20.192859
 20
-11.712929013961
 30
0.0
 40
3.00084900384625
100
AcDbArc
 50
185.1081207978176
 51
202.0917530606756
  0
ARC
  5
3298
330
1F
100
AcDbEntity
  8
AM_0
100
AcDbCircle
 10
20.20162499999998
 20
-11.709371013961
 30
0.0
 40
3.01030956732044
100
AcDbArc
 50
202.0917524648396
 51
219.0227985421072
  0
ARC
  5
3299
330
1F
100
AcDbEntity
  8
AM_0
100
AcDbCircle
 10
20.20290599999998
 20
-11.70833201396101
 30
0.0
 40
3.01195906082569
100
AcDbArc
 50
219.0228106962376
 51
244.4079600086945
  0
ARC
  5
329A
330
1F
100
AcDbEntity
  8
AM_0
100
AcDbCircle
 10
20.19778499999998
 20
-11.71902501396107
 30
0.0
 40
3.000102579975561
100
AcDbArc
 50
244.4079531065327
 51
269.8901676764546
  0
ARC
  5
329D
330
1F
100
AcDbEntity
  8
AM_0
100
AcDbCircle
 10
27.80441099999999
 20
-11.795602013961
 30
0.0
 40
2.99383550066148
100
AcDbArc
 50
269.8901674190386
 51
272.1401362051371
  0
ARC
  5
329E
330
1F
100
AcDbEntity
  8
AM_0
100
AcDbCircle
 10
27.80447799999999
 20
-11.79739701396102
 30
0.0
 40
2.99203901195489
100
AcDbArc
 50
272.1401377130346
 51
274.3914852623909
  0
ARC
  5
329F
330
1F
100
AcDbEntity
  8
AM_0
100
AcDbCircle
 10
27.80453999999997
 20
-11.79820201396103
 30
0.0
 40
2.99123181685757
100
AcDbArc
 50
274.3914818444766
 51
276.2206916387603
  0
ARC
  5
32A0
330
1F
100
AcDbEntity
  8
AM_0
100
AcDbCircle
 10
27.80469399999998
 20
-11.79962201396103
 30
0.0
 40
2.98980335548042
100
AcDbArc
 50
276.2207065032663
 51
278.0507786459472
  0
ARC
  5
32A1
330
1F
100
AcDbEntity
  8
AM_0
100
AcDbCircle
 10
27.80479299999999
 20
-11.80031801396103
 30
0.0
 40
2.98910049003141
100
AcDbArc
 50
278.0507681222206
 51
279.8808638486917
  0
ARC
  5
32A2
330
1F
100
AcDbEntity
  8
AM_0
100
AcDbCircle
 10
27.80502899999999
 20
-11.80167401396102
 30
0.0
 40
2.98772487108251
100
AcDbArc
 50
279.8808674992801
 51
281.7117988302994
  0
ARC
  5
32A3
330
1F
100
AcDbEntity
  8
AM_0
100
AcDbCircle
 10
27.80516499999999
 20
-11.80233101396107
 30
0.0
 40
2.98705341446667
100
AcDbArc
 50
281.7118025728544
 51
283.5427356238538
  0
ARC
  5
32A4
330
1F
100
AcDbEntity
  8
AM_0
100
AcDbCircle
 10
27.80546999999999
 20
-11.80359501396106
 30
0.0
 40
2.98575316567211
100
AcDbArc
 50
283.5427254909362
 51
285.3744453719226
  0
ARC
  5
32A5
330
1F
100
AcDbEntity
  8
AM_0
100
AcDbCircle
 10
27.80563599999999
 20
-11.80420101396101
 30
0.0
 40
2.98512457629979
100
AcDbArc
 50
285.3744570211889
 51
287.2061792783985
  0
ARC
  5
32A6
330
1F
100
AcDbEntity
  8
AM_0
100
AcDbCircle
 10
27.805993
 20
-11.80535101396106
 30
0.0
 40
2.98392075386998
100
AcDbArc
 50
287.2061631442747
 51
289.0386370904056
  0
ARC
  5
32A7
330
1F
100
AcDbEntity
  8
AM_0
100
AcDbCircle
 10
27.80617999999998
 20
-11.80589501396105
 30
0.0
 40
2.98334577071348
100
AcDbArc
 50
289.0386502462519
 51
290.8711051963028
  0
ARC
  5
32A8
330
1F
100
AcDbEntity
  8
AM_0
100
AcDbCircle
 10
27.80656799999997
 20
-11.80691201396104
 30
0.0
 40
2.98225691095134
100
AcDbArc
 50
290.8711010131931
 51
292.7042509716863
  0
ARC
  5
32A9
330
1F
100
AcDbEntity
  8
AM_0
100
AcDbCircle
 10
27.80676599999998
 20
-11.80738501396104
 30
0.0
 40
2.98174392614423
100
AcDbArc
 50
292.7042492242359
 51
294.5373746939536
  0
ARC
  5
32AA
330
1F
100
AcDbEntity
  8
AM_0
100
AcDbCircle
 10
27.807163
 20
-11.80825401396101
 30
0.0
 40
2.98078927687618
100
AcDbArc
 50
294.5373696389407
 51
296.3711034044104
  0
ARC
  5
32AB
330
1F
100
AcDbEntity
  8
AM_0
100
AcDbCircle
 10
27.80735899999999
 20
-11.80865001396103
 30
0.0
 40
2.98034730862713
100
AcDbArc
 50
296.3711090407114
 51
298.2048389244002
  0
ARC
  5
32AC
330
1F
100
AcDbEntity
  8
AM_0
100
AcDbCircle
 10
27.80773999999997
 20
-11.80936101396105
 30
0.0
 40
2.97954018533666
100
AcDbArc
 50
298.2048442145833
 51
300.0390556794761
  0
ARC
  5
32AD
330
1F
100
AcDbEntity
  8
AM_0
100
AcDbCircle
 10
27.80792199999999
 20
-11.80967601396105
 30
0.0
 40
2.97917709126833
100
AcDbArc
 50
300.0390582057929
 51
301.8732778993868
  0
ARC
  5
32AE
330
1F
100
AcDbEntity
  8
AM_0
100
AcDbCircle
 10
27.80826299999998
 20
-11.81022301396104
 30
0.0
 40
2.978531365795741
100
AcDbArc
 50
301.873263583702
 51
303.7078923488324
  0
ARC
  5
32AF
330
1F
100
AcDbEntity
  8
AM_0
100
AcDbCircle
 10
27.80841799999999
 20
-11.81045601396102
 30
0.0
 40
2.97825178444419
100
AcDbArc
 50
303.7078993593879
 51
305.5425106067933
  0
ARC
  5
32B0
330
1F
100
AcDbEntity
  8
AM_0
100
AcDbCircle
 10
27.80869199999998
 20
-11.81084001396107
 30
0.0
 40
2.97777987882667
100
AcDbArc
 50
305.542515845863
 51
307.3774267855098
  0
ARC
  5
32B1
330
1F
100
AcDbEntity
  8
AM_0
100
AcDbCircle
 10
27.808809
 20
-11.81099301396102
 30
0.0
 40
2.97758821682801
100
AcDbArc
 50
307.3774249788386
 51
309.2123286981998
  0
ARC
  5
32B2
330
1F
100
AcDbEntity
  8
AM_0
100
AcDbCircle
 10
27.80899399999998
 20
-11.81121901396102
 30
0.0
 40
2.97729540595353
100
AcDbArc
 50
309.2123197830571
 51
311.047426367301
  0
ARC
  5
32B3
330
1F
100
AcDbEntity
  8
AM_0
100
AcDbCircle
 10
27.80906199999998
 20
-11.81129801396105
 30
0.0
 40
2.97719147075528
100
AcDbArc
 50
311.047437812076
 51
313.0236693972108
  0
ARC
  5
32B4
330
1F
100
AcDbEntity
  8
AM_0
100
AcDbCircle
 10
27.80913599999997
 20
-11.81137701396108
 30
0.0
 40
2.97708319293717
100
AcDbArc
 50
313.0236655945376
 51
315.0
  0
ARC
  5
32B7
330
1F
100
AcDbEntity
  8
AM_0
100
AcDbCircle
 10
6.683645999999982
 20
-6.853440013961063
 30
0.0
 40
10.0224717888691
100
AcDbArc
 50
15.8989387310112
 51
26.66379990141339
  0
ARC
  5
32B8
330
1F
100
AcDbEntity
  8
AM_0
100
AcDbCircle
 10
6.706955999999991
 20
-6.846800013961001
 30
0.0
 40
9.99823456177525
100
AcDbArc
 50
5.108129378927915
 51
15.89893631358354
  0
ARC
  5
32CB
330
1F
100
AcDbEntity
  8
AM_0
100
AcDbCircle
 10
0.3970789999999909
 20
0.1664409860389924
 30
0.0
 40
0.3969499479682511
100
AcDbArc
 50
135.0
 51
148.5552648230603
  0
ARC
  5
32CC
330
1F
100
AcDbEntity
  8
AM_0
100
AcDbCircle
 10
0.3976239999999791
 20
0.1661079860389236
 30
0.0
 40
0.397588201213265
100
AcDbArc
 50
148.5552960226735
 51
162.0889892726067
  0
ARC
  5
32CD
330
1F
100
AcDbEntity
  8
AM_0
100
AcDbCircle
 10
0.3982029999999952
 20
0.165920986038941
 30
0.0
 40
0.39819642254169
100
AcDbArc
 50
162.0890077271202
 51
175.6200994962955
  0
ARC
  5
32CE
330
1F
100
AcDbEntity
  8
AM_0
100
AcDbCircle
 10
0.3995909999999867
 20
0.1658139860389838
 30
0.0
 40
0.39958901057587
100
AcDbArc
 50
175.6200009907567
 51
189.1043222427556
  0
ARC
  5
32CF
330
1F
100
AcDbEntity
  8
AM_0
100
AcDbCircle
 10
0.4001759999999877
 20
0.1659079860389738
 30
0.0
 40
0.400181577891834
100
AcDbArc
 50
189.1043579979351
 51
198.0930697663998
  0
ARC
  5
32D0
330
1F
100
AcDbEntity
  8
AM_0
100
AcDbCircle
 10
0.4009089999999844
 20
0.1661469860389389
 30
0.0
 40
0.40095264125455
100
AcDbArc
 50
198.0930041315619
 51
207.0644230659914
  0
ARC
  5
32D1
330
1F
100
AcDbEntity
  8
AM_0
100
AcDbCircle
 10
0.4011659999999893
 20
0.1662789860389466
 30
0.0
 40
0.401240972051711
100
AcDbArc
 50
207.0645105212785
 51
216.0355097904602
  0
ARC
  5
32D2
330
1F
100
AcDbEntity
  8
AM_0
100
AcDbCircle
 10
0.4014039999999852
 20
0.1664519860389646
 30
0.0
 40
0.4015357788952311
100
AcDbArc
 50
216.035493337462
 51
225.0
  0
ARC
  5
32D3
330
1F
100
AcDbEntity
  8
AM_0
100
AcDbCircle
 10
8.779455999999982
 20
8.548804986038931
 30
0.0
 40
0.396958580380875
100
AcDbArc
 50
116.9234965205188
 51
135.0
  0
ARC
  5
32D4
330
1F
100
AcDbEntity
  8
AM_0
100
AcDbCircle
 10
8.779946999999993
 20
8.547838986038983
 30
0.0
 40
0.39804273718534
100
AcDbArc
 50
98.89557872821482
 51
116.9235506828259
  0
ARC
  5
32D5
330
1F
100
AcDbEntity
  8
AM_0
100
AcDbCircle
 10
8.780147
 20
8.546556986038922
 30
0.0
 40
0.39934030217097
100
AcDbArc
 50
71.8786579172513
 51
98.89548595384356
  0
ARC
  5
32D6
330
1F
100
AcDbEntity
  8
AM_0
100
AcDbCircle
 10
8.779484999999994
 20
8.544532986038973
 30
0.0
 40
0.4014697745135971
100
AcDbArc
 50
45.0
 51
71.87870942313906
  0
ARC
  5
32D7
330
1F
100
AcDbEntity
  8
AM_0
100
AcDbCircle
 10
8.815965999999975
 20
-8.248128013961036
 30
0.0
 40
0.401522807522813
100
AcDbArc
 50
224.9998990985474
 51
242.9238424968859
  0
ARC
  5
32D8
330
1F
100
AcDbEntity
  8
AM_0
100
AcDbCircle
 10
8.815471000000002
 20
-8.249095013961039
 30
0.0
 40
0.400436669554627
100
AcDbArc
 50
242.9239276983469
 51
260.895532264608
  0
ARC
  5
32D9
330
1F
100
AcDbEntity
  8
AM_0
100
AcDbCircle
 10
8.81526599999998
 20
-8.250377013961042
 30
0.0
 40
0.399137616424461
100
AcDbArc
 50
260.8954690961935
 51
287.8781809780105
  0
ARC
  5
32DA
330
1F
100
AcDbEntity
  8
AM_0
100
AcDbCircle
 10
8.815916999999985
 20
-8.252398013961056
 30
0.0
 40
0.3970145520922361
100
AcDbArc
 50
287.8783067066577
 51
315.0001020472947
  0
ARC
  5
32DB
330
1F
100
AcDbEntity
  8
AM_0
100
AcDbCircle
 10
24.94414399999999
 20
-4.356103013961047
 30
0.0
 40
6.00928416861776
100
AcDbArc
 50
0.2196764135635912
 51
93.61451128467265
  0
ARC
  5
32DC
330
1F
100
AcDbEntity
  8
AM_0
100
AcDbCircle
 10
24.94145899999998
 20
-4.313598013961041
 30
0.0
 40
5.9666939863064
100
AcDbArc
 50
93.61451124580331
 51
187.4160664635867
  0
ARC
  5
32DD
330
1F
100
AcDbEntity
  8
AM_0
100
AcDbCircle
 10
24.98654299999998
 20
-4.30772901396108
 30
0.0
 40
6.01215775126535
100
AcDbArc
 50
187.4160735975405
 51
273.5872760827415
  0
ARC
  5
32DE
330
1F
100
AcDbEntity
  8
AM_0
100
AcDbCircle
 10
24.98956499999997
 20
-4.355929013961031
 30
0.0
 40
5.96386329142344
100
AcDbArc
 50
273.5872735970964
 51
0.2196778397506711
  0
ARC
  5
32DF
330
1F
100
AcDbEntity
  8
AM_0
100
AcDbCircle
 10
25.19050199999998
 20
-4.107874013961009
 30
0.0
 40
2.50348439874508
100
AcDbArc
 50
0.2196643363251103
 51
93.61449168619417
  0
ARC
  5
32E0
330
1F
100
AcDbEntity
  8
AM_0
100
AcDbCircle
 10
25.18938399999999
 20
-4.090166013961039
 30
0.0
 40
2.48574063496114
100
AcDbArc
 50
93.61450524863126
 51
187.4160754513672
  0
ARC
  5
32E1
330
1F
100
AcDbEntity
  8
AM_0
100
AcDbCircle
 10
25.20816600000001
 20
-4.08772201396107
 30
0.0
 40
2.50468059368555
100
AcDbArc
 50
187.4160592404708
 51
273.5872746740569
  0
ARC
  5
32E2
330
1F
100
AcDbEntity
  8
AM_0
100
AcDbCircle
 10
25.20942499999998
 20
-4.107802013961077
 30
0.0
 40
2.48456111661295
100
AcDbArc
 50
273.5872712029342
 51
0.2196769873500512
  0
SPLINE
  5
32EE
330
1F
100
AcDbEntity
  8
AM_0
100
AcDbSpline
210
0.0
220
0.0
230
1.0
 70
     8
 71
     3
 72
    11
 73
     7
 74
     5
 42
0.0000000001
 43
0.0000000001
 44
0.0000000001
 40
0.0
 40
0.0
 40
0.0
 40
0.0
 40
0.3721515124744186
 40
0.6875385313401351
 40
0.9040565714615251
 40
1.005406610218316
 40
1.005406610218316
 40
1.005406610218316
 40
1.005406610218316
 10
6.531288999999987
 20
2.864947986038942
 30
0.0
 10
6.469946010696283
 20
2.973635372415591
 30
0.0
 10
6.356616715072956
 20
3.174431992877361
 30
0.0
 10
6.248900961779425
 20
3.44954318302815
 30
0.0
 10
6.159241502282462
 20
3.655908566714439
 30
0.0
 10
6.191194126677639
 20
3.759123589727292
 30
0.0
 10
6.201381999999995
 20
3.792032986038976
 30
0.0
 11
6.531288999999987
 21
2.864947986038942
 31
0.0
 11
6.356462999999991
 21
3.19347898603894
 31
0.0
 11
6.232924999999995
 21
3.483663986038948
 31
0.0
 11
6.178641999999982
 21
3.693266986038964
 31
0.0
 11
6.201381999999995
 21
3.792032986038976
 31
0.0
  0
SPLINE
  5
32EF
330
1F
100
AcDbEntity
  8
AM_0
100
AcDbSpline
210
0.0
220
0.0
230
1.0
 70
     8
 71
     3
 72
    11
 73
     7
 74
     5
 42
0.0000000001
 43
0.0000000001
 44
0.0000000001
 40
0.0
 40
0.0
 40
0.0
 40
0.0
 40
0.0372482196218345
 40
0.0746166835587061
 40
0.1122124162953068
 40
0.1501422923562464
 40
0.1501422923562464
 40
0.1501422923562464
 40
0.1501422923562464
 10
6.531288999999987
 20
2.864947986038942
 30
0.0
 10
6.537722241396022
 20
2.854322635754055
 30
0.0
 10
6.550609491911033
 20
2.833037634539044
 30
0.0
 10
6.572640963350628
 20
2.802766493215818
 30
0.0
 10
6.596476917830538
 20
2.773603479572771
 30
0.0
 10
6.613963184803577
 20
2.755478546893347
 30
0.0
 10
6.622744999999981
 20
2.74637598603897
 30
0.0
 11
6.531288999999987
 21
2.864947986038942
 31
0.0
 11
6.551027999999988
 21
2.833359986039
 31
0.0
 11
6.57287199999999
 21
2.80304098603898
 31
0.0
 11
6.596787999999989
 21
2.774032986038947
 31
0.0
 11
6.622744999999981
 21
2.74637598603897
 31
0.0
  0
SPLINE
  5
32F1
330
1F
100
AcDbEntity
  8
AM_0
100
AcDbSpline
210
0.0
220
0.0
230
1.0
 70
     8
 71
     3
 72
    11
 73
     7
 74
     5
 42
0.0000000001
 43
0.0000000001
 44
0.0000000001
 40
0.0
 40
0.0
 40
0.0
 40
0.0
 40
0.5930394346280973
 40
1.102477893899667
 40
1.521221990547015
 40
1.906528913529162
 40
1.906528913529162
 40
1.906528913529162
 40
1.906528913529162
 10
11.74329599999999
 20
-4.551459013961051
 30
0.0
 10
11.90679800922818
 20
-4.437467973768402
 30
0.0
 10
12.21075309257824
 20
-4.225555249964739
 30
0.0
 10
12.5058187748525
 20
-3.80532106077481
 30
0.0
 10
12.60366589203935
 20
-3.340666332978663
 30
0.0
 10
12.44602136830682
 20
-3.111279704948225
 30
0.0
 10
12.37047699999999
 20
-3.001356013961072
 30
0.0
 11
11.74329599999999
 21
-4.551459013961051
 31
0.0
 11
12.20772799999999
 21
-4.182679013961035
 31
0.0
 11
12.49000499999998
 21
-3.758595013961042
 31
0.0
 11
12.54715399999998
 21
-3.343769013961037
 31
0.0
 11
12.37047699999999
 21
-3.001356013961072
 31
0.0
  0
SPLINE
  5
32F2
330
1F
100
AcDbEntity
  8
AM_0
100
AcDbSpline
210
0.0
220
0.0
230
1.0
 70
     8
 71
     3
 72
    11
 73
     7
 74
     5
 42
0.0000000001
 43
0.0000000001
 44
0.0000000001
 40
0.0
 40
0.0
 40
0.0
 40
0.0
 40
0.1865190576992054
 40
0.369468476462949
 40
0.5430376794944812
 40
0.701758804821252
 40
0.701758804821252
 40
0.701758804821252
 40
0.701758804821252
 10
13.525274
 20
-2.337531013961041
 30
0.0
 10
13.56955324985106
 20
-2.381181016078496
 30
0.0
 10
13.65726432443616
 20
-2.467645637865021
 30
0.0
 10
13.79019575719419
 20
-2.590536928773565
 30
0.0
 10
13.91885273910414
 20
-2.704367616113761
 30
0.0
 10
14.00480514693609
 20
-2.774246708299032
 30
0.0
 10
14.04586099999999
 20
-2.807625013961001
 30
0.0
 11
13.525274
 21
-2.337531013961041
 31
0.0
 11
13.65880799999999
 21
-2.467754013961041
 31
0.0
 11
13.79295299999998
 21
-2.592155013961019
 31
0.0
 11
13.92337299999998
 21
-2.706684013961024
 31
0.0
 11
14.04586099999999
 21
-2.807625013961001
 31
0.0
  0
SPLINE
  5
32F3
330
1F
100
AcDbEntity
  8
AM_0
100
AcDbSpline
210
0.0
220
0.0
230
1.0
 70
     8
 71
     3
 72
    11
 73
     7
 74
     5
 42
0.0000000001
 43
0.0000000001
 44
0.0000000001
 40
0.0
 40
0.0
 40
0.0
 40
0.0
 40
0.3006545373165089
 40
0.5579004553268873
 40
0.7846750032858427
 40
1.006084079958469
 40
1.006084079958469
 40
1.006084079958469
 40
1.006084079958469
 10
14.382263
 20
-2.753476013961063
 30
0.0
 10
14.43341820740619
 20
-2.666635310927155
 30
0.0
 10
14.52834281343074
 20
-2.505491999417706
 30
0.0
 10
14.58639588000193
 20
-2.246642229089167
 30
0.0
 10
14.55734602075256
 20
-2.003283137009688
 30
0.0
 10
14.46311062435962
 20
-1.884075352676661
 30
0.0
 10
14.41655699999998
 20
-1.825185013961004
 30
0.0
 11
14.382263
 21
-2.753476013961063
 31
0.0
 11
14.52014799999998
 21
-2.486304013961046
 31
0.0
 11
14.57290499999999
 21
-2.234526013961045
 31
0.0
 11
14.53772399999998
 21
-2.010497013961071
 31
0.0
 11
14.41655699999998
 21
-1.825185013961004
 31
0.0
  0
SPLINE
  5
32F4
330
1F
100
AcDbEntity
  8
AM_0
100
AcDbSpline
210
0.0
220
0.0
230
1.0
 70
     8
 71
     3
 72
    11
 73
     7
 74
     5
 42
0.0000000001
 43
0.0000000001
 44
0.0000000001
 40
0.0
 40
0.0
 40
0.0
 40
0.0
 40
0.1865190576992156
 40
0.3694685297290893
 40
0.5430376412120506
 40
0.7017587665388575
 40
0.7017587665388575
 40
0.7017587665388575
 40
0.7017587665388575
 10
14.86219899999998
 20
-1.569012013961014
 30
0.0
 10
14.90647810603342
 20
-1.612662173047758
 30
0.0
 10
14.9941889083809
 20
-1.699127118234364
 30
0.0
 10
15.12712240188319
 20
-1.822016141085971
 30
0.0
 10
15.25577740765431
 20
-1.935849035459083
 30
0.0
 10
15.34173003213896
 20
-2.005727837630529
 30
0.0
 10
15.38278599999998
 20
-2.039106013961032
 30
0.0
 11
14.86219899999998
 21
-1.569012013961014
 31
0.0
 11
14.99573299999999
 21
-1.699235013961015
 31
0.0
 11
15.12987899999999
 21
-1.823635013961052
 31
0.0
 11
15.26029799999998
 21
-1.938165013960997
 31
0.0
 11
15.38278599999998
 21
-2.039106013961032
 31
0.0
  0
SPLINE
  5
32F5
330
1F
100
AcDbEntity
  8
AM_0
100
AcDbSpline
210
0.0
220
0.0
230
1.0
 70
     8
 71
     3
 72
    11
 73
     7
 74
     5
 42
0.0000000001
 43
0.0000000001
 44
0.0000000001
 40
0.0
 40
0.0
 40
0.0
 40
0.0
 40
0.1835324143250991
 40
0.3839697454238688
 40
0.6004147884440418
 40
0.8312585380778474
 40
0.8312585380778474
 40
0.8312585380778474
 40
0.8312585380778474
 10
9.551004999999975
 20
4.990644986038944
 30
0.0
 10
9.491385132194452
 20
5.004791912441934
 30
0.0
 10
9.366653893041558
 20
5.03438881906718
 30
0.0
 10
9.166146845235565
 20
5.046936040507147
 30
0.0
 10
8.949984251767022
 20
5.041037350171123
 30
0.0
 10
8.802346292083024
 20
5.019299033997722
 30
0.0
 10
8.726150999999987
 20
5.008079986038979
 30
0.0
 11
9.551004999999975
 21
4.990644986038944
 31
0.0
 11
9.371346999999986
 21
5.028156986038994
 31
0.0
 11
9.171513999999988
 21
5.043709986038948
 31
0.0
 11
8.955171999999976
 21
5.037031986038983
 31
0.0
 11
8.726150999999987
 21
5.008079986038979
 31
0.0
  0
SPLINE
  5
32F6
330
1F
100
AcDbEntity
  8
AM_0
100
AcDbSpline
210
0.0
220
0.0
230
1.0
 70
     8
 71
     3
 72
    11
 73
     7
 74
     5
 42
0.0000000001
 43
0.0000000001
 44
0.0000000001
 40
0.0
 40
0.0
 40
0.0
 40
0.0
 40
0.1436519574283412
 40
0.3059833924401552
 40
0.4819962212453411
 40
0.6662220907533792
 40
0.6662220907533792
 40
0.6662220907533792
 40
0.6662220907533792
 10
8.560903999999994
 20
4.782776986038925
 30
0.0
 10
8.590699872086336
 20
4.74528441901001
 30
0.0
 10
8.654166059285636
 20
4.665424018524204
 30
0.0
 10
8.760253668320452
 20
4.544697168081837
 30
0.0
 10
8.878335318879639
 20
4.416612310669821
 30
0.0
 10
8.962666222762971
 20
4.331116497325156
 30
0.0
 10
9.005792999999983
 20
4.287393986038978
 30
0.0
 11
8.560903999999994
 21
4.782776986038925
 31
0.0
 11
8.65114699999998
 21
4.671008986038942
 31
0.0
 11
8.757698999999988
 21
4.54854198603897
 31
0.0
 11
8.877178999999984
 21
4.419293986038952
 31
0.0
 11
9.005792999999983
 21
4.287393986038978
 31
0.0
  0
SPLINE
  5
32F7
330
1F
100
AcDbEntity
  8
AM_0
100
AcDbSpline
210
0.0
220
0.0
230
1.0
 70
     8
 71
     3
 72
    11
 73
     7
 74
     5
 42
0.0000000001
 43
0.0000000001
 44
0.0000000001
 40
0.0
 40
0.0
 40
0.0
 40
0.0
 40
0.2438504499278207
 40
0.5277706077556765
 40
0.8572337235820129
 40
1.228218657575303
 40
1.228218657575303
 40
1.228218657575303
 40
1.228218657575303
 10
8.560150999999991
 20
4.031220986038989
 30
0.0
 10
8.49540014464397
 20
4.081576459938592
 30
0.0
 10
8.35525851975026
 20
4.190561860915649
 30
0.0
 10
8.072513813742962
 20
4.263137201807476
 30
0.0
 10
7.744334727294659
 20
4.286955064972427
 30
0.0
 10
7.512182815541564
 20
4.255971241752974
 30
0.0
 10
7.389225999999979
 20
4.239560986038953
 30
0.0
 11
8.560150999999991
 21
4.031220986038989
 31
0.0
 11
8.358653999999987
 21
4.168559986038986
 31
0.0
 11
8.087067999999988
 21
4.251334986038955
 31
0.0
 11
7.758480999999989
 21
4.275345986038929
 31
0.0
 11
7.389225999999979
 21
4.239560986038953
 31
0.0
  0
SPLINE
  5
32F8
330
1F
100
AcDbEntity
  8
AM_0
100
AcDbSpline
210
0.0
220
0.0
230
1.0
 70
     8
 71
     3
 72
    11
 73
     7
 74
     5
 42
0.0000000001
 43
0.0000000001
 44
0.0000000001
 40
0.0
 40
0.0
 40
0.0
 40
0.0
 40
0.1436518075939061
 40
0.3059839970327482
 40
0.4819954127136359
 40
0.6662212822217047
 40
0.6662212822217047
 40
0.6662212822217047
 40
0.6662212822217047
 10
7.223977999999988
 20
4.014256986038959
 30
0.0
 10
7.253774343956833
 20
3.976764867045691
 30
0.0
 10
7.317241727859522
 20
3.896905179799583
 30
0.0
 10
7.423327900968479
 20
3.77617746525013
 30
0.0
 10
7.54140971243841
 20
3.648093027072916
 30
0.0
 10
7.625740243995274
 20
3.562597514845989
 30
0.0
 10
7.668866999999978
 20
3.518874986038952
 30
0.0
 11
7.223977999999988
 21
4.014256986038959
 31
0.0
 11
7.314221999999987
 21
3.902489986038972
 31
0.0
 11
7.420773999999994
 21
3.780021986038946
 31
0.0
 11
7.540252999999993
 21
3.650774986038982
 31
0.0
 11
7.668866999999978
 21
3.518874986038952
 31
0.0
  0
SPLINE
  5
32FC
330
1F
100
AcDbEntity
  8
AM_0
100
AcDbSpline
210
0.0
220
0.0
230
1.0
 70
     8
 71
     3
 72
    11
 73
     7
 74
     5
 42
0.0000000001
 43
0.0000000001
 44
0.0000000001
 40
0.0
 40
0.0
 40
0.0
 40
0.0
 40
0.2731069308037094
 40
0.5459136961321969
 40
0.8183469948494857
 40
1.090637117828695
 40
1.090637117828695
 40
1.090637117828695
 40
1.090637117828695
 10
2.942656999999997
 20
0.8105589860389273
 30
0.0
 10
2.885225151879079
 20
0.8828350547693056
 30
0.0
 10
2.770424577645659
 20
1.02730775528405
 30
0.0
 10
2.720955662638628
 20
1.304910790616227
 30
0.0
 10
2.769485793646362
 20
1.582473364411663
 30
0.0
 10
2.883881287163657
 20
1.726779755383132
 30
0.0
 10
2.941063999999983
 20
1.798913986038997
 30
0.0
 11
2.942656999999997
 21
0.8105589860389273
 31
0.0
 11
2.79083399999999
 21
1.037576986038971
 31
0.0
 11
2.737286999999981
 21
1.305076986038955
 31
0.0
 11
2.790019999999984
 21
1.572357986038924
 31
0.0
 11
2.941063999999983
 21
1.798913986038997
 31
0.0
  0
SPLINE
  5
32FD
330
1F
100
AcDbEntity
  8
AM_0
100
AcDbSpline
210
0.0
220
0.0
230
1.0
 70
     8
 71
     3
 72
    11
 73
     7
 74
     5
 42
0.0000000001
 43
0.0000000001
 44
0.0000000001
 40
0.0
 40
0.0
 40
0.0
 40
0.0
 40
2.036161712764982
 40
4.072208044922457
 40
6.096157903723591
 40
8.122966411585415
 40
8.122966411585415
 40
8.122966411585415
 40
8.122966411585415
 10
19.81400699999999
 20
-0.857005013961043
 30
0.0
 10
19.5027338767326
 20
-1.46730746633575
 30
0.0
 10
18.88020526871929
 20
-2.687877787845887
 30
0.0
 10
18.75192070960342
 20
-4.764668372241966
 30
0.0
 10
19.24663103176915
 20
-6.782777284866846
 30
0.0
 10
20.07464489882651
 20
-7.865620380898539
 30
0.0
 10
20.48894399999999
 20
-8.407424013961077
 30
0.0
 11
19.81400699999999
 21
-0.857005013961043
 31
0.0
 11
19.01440399999999
 21
-2.729594013961048
 31
0.0
 11
18.85613999999998
 21
-4.759480013961024
 31
0.0
 11
19.37091899999999
 21
-6.716870013961056
 31
0.0
 11
20.48894399999999
 21
-8.407424013961077
 31
0.0
  0
SPLINE
  5
3300
330
1F
100
AcDbEntity
  8
AM_0
100
AcDbSpline
210
0.0
220
0.0
230
1.0
 70
     8
 71
     3
 72
    11
 73
     7
 74
     5
 42
0.0000000001
 43
0.0000000001
 44
0.0000000001
 40
0.0
 40
0.0
 40
0.0
 40
0.0
 40
1.792151748577679
 40
3.601630950475276
 40
5.423742527267435
 40
7.244072625823435
 40
7.244072625823435
 40
7.244072625823435
 40
7.244072625823435
 10
29.50559199999999
 20
-8.630283013961048
 30
0.0
 10
29.89349230902909
 20
-8.169593696780368
 30
0.0
 10
30.67304334861425
 20
-7.24376087898015
 30
0.0
 10
31.25977171941961
 20
-5.498476016424233
 30
0.0
 10
31.40382364898485
 20
-3.653981725715446
 30
0.0
 10
31.04915539487845
 20
-2.482606949031276
 30
0.0
 10
30.87190799999999
 20
-1.897206013961068
 30
0.0
 11
29.50559199999999
 21
-8.630283013961048
 31
0.0
 11
30.57274499999998
 21
-7.190494013961029
 31
0.0
 11
31.18469499999999
 21
-5.487634013961042
 31
0.0
 11
31.29103299999999
 21
-3.66862801396104
 31
0.0
 11
30.87190799999999
 21
-1.897206013961068
 31
0.0
  0
LINE
  5
3301
330
1F
100
AcDbEntity
  8
AM_0
100
AcDbLine
 10
28.94834099999997
 20
-9.124075013961033
 30
0.0
 11
29.50559199999998
 21
-8.630283013961048
 31
0.0
  0
SPLINE
  5
3306
330
1F
100
AcDbEntity
  8
AM_0
100
AcDbSpline
210
0.0
220
0.0
230
1.0
 70
     8
 71
     3
 72
    11
 73
     7
 74
     5
 42
0.0000000001
 43
0.0000000001
 44
0.0000000001
 40
0.0
 40
0.0
 40
0.0
 40
0.0
 40
2.154188332008142
 40
4.196434574352343
 40
5.975401404614219
 40
7.509999274843747
 40
7.509999274843747
 40
7.509999274843747
 40
7.509999274843747
 10
21.42023599999999
 20
10.50224598603893
 30
0.0
 10
20.70210885197561
 20
10.50545814835385
 30
0.0
 10
19.30317193082847
 20
10.5117155534268
 30
0.0
 10
17.31223819500439
 20
10.47501691772346
 30
0.0
 10
15.52544545159058
 20
10.43392422960631
 30
0.0
 10
14.42919093687138
 20
10.29337088860381
 30
0.0
 10
13.92148699999999
 20
10.22827698603896
 30
0.0
 11
21.42023599999999
 21
10.50224598603893
 31
0.0
 11
19.26604799999998
 21
10.50344198603898
 31
0.0
 11
17.22404799999998
 21
10.47172898603895
 31
0.0
 11
15.44657399999998
 21
10.39886498603897
 31
0.0
 11
13.92148699999999
 21
10.22827698603896
 31
0.0
  0
SPLINE
  5
3307
330
1F
100
AcDbEntity
  8
AM_0
100
AcDbSpline
210
0.0
220
0.0
230
1.0
 70
     8
 71
     3
 72
    11
 73
     7
 74
     5
 42
0.0000000001
 43
0.0000000001
 44
0.0000000001
 40
0.0
 40
0.0
 40
0.0
 40
0.0
 40
0.748404804694644
 40
1.49485033861187
 40
2.242234748082669
 40
2.99005950988252
 40
2.99005950988252
 40
2.99005950988252
 40
2.99005950988252
 10
11.31317899999999
 20
8.849500986038947
 30
0.0
 10
11.49743774833373
 20
9.018462128735017
 30
0.0
 10
11.86547286864708
 20
9.355942085821232
 30
0.0
 10
12.5060382285367
 20
9.748115458276658
 30
0.0
 10
13.19116415989362
 20
10.05498822123392
 30
0.0
 10
13.67707368507986
 20
10.17032340869292
 30
0.0
 10
13.92009999999999
 20
10.22800798603896
 30
0.0
 11
11.31317899999999
 21
8.849500986038947
 31
0.0
 11
11.88074799999998
 21
9.337327986038986
 31
0.0
 11
12.51321199999998
 21
9.733774986038952
 31
0.0
 11
13.19825599999999
 21
10.03260298603897
 31
0.0
 11
13.92009999999999
 21
10.22800798603896
 31
0.0
  0
LINE
  5
3308
330
1F
100
AcDbEntity
  8
AM_0
100
AcDbLine
 10
24.29451899999998
 20
9.58456498603897
 30
0.0
 11
23.83276099999998
 21
9.850045986038936
 31
0.0
  0
SPLINE
  5
3309
330
1F
100
AcDbEntity
  8
AM_0
100
AcDbSpline
210
0.0
220
0.0
230
1.0
 70
     8
 71
     3
 72
    11
 73
     7
 74
     5
 42
0.0000000001
 43
0.0000000001
 44
0.0000000001
 40
0.0
 40
0.0
 40
0.0
 40
0.0
 40
1.459977157698036
 40
2.64316579560154
 40
4.212135756291035
 40
5.801823508530738
 40
5.801823508530738
 40
5.801823508530738
 40
5.801823508530738
 10
34.13883399999999
 20
-0.7756230139610238
 30
0.0
 10
34.26058461326919
 20
-0.3045310701579384
 30
0.0
 10
34.48100385400171
 20
0.5483412545070858
 30
0.0
 10
34.76048680547363
 20
1.927082996442537
 30
0.0
 10
34.42002750318783
 20
3.445421094085707
 30
0.0
 10
33.58241248711443
 20
4.12432137525779
 30
0.0
 10
33.16085799999999
 20
4.465997986038929
 30
0.0
 11
34.13883399999999
 21
-0.7756230139610238
 31
0.0
 11
34.49034399999999
 21
0.6414069860389873
 31
0.0
 11
34.66125199999999
 21
1.812186986038967
 31
0.0
 11
34.27609699999999
 21
3.333147986038966
 31
0.0
 11
33.16085799999999
 21
4.465997986038929
 31
0.0
  0
SPLINE
  5
330B
330
1F
100
AcDbEntity
  8
AM_0
100
AcDbSpline
210
0.0
220
0.0
230
1.0
 70
     8
 71
     3
 72
    11
 73
     7
 74
     5
 42
0.0000000001
 43
0.0000000001
 44
0.0000000001
 40
0.0
 40
0.0
 40
0.0
 40
0.0
 40
0.0299766293635548
 40
0.0567043696533694
 40
0.0801824232779852
 40
0.1002948037437478
 40
0.1002948037437478
 40
0.1002948037437478
 40
0.1002948037437478
 10
15.84933099999998
 20
-2.156785013961041
 30
0.0
 10
15.84155070855687
 20
-2.163055627863523
 30
0.0
 10
15.82683335936293
 20
-2.174917241935191
 30
0.0
 10
15.80644171752192
 20
-2.192196852744464
 30
0.0
 10
15.78884894063397
 20
-2.207695833950958
 30
0.0
 10
15.77841921608813
 20
-2.217815060087786
 30
0.0
 10
15.77360699999998
 20
-2.222484013961037
 30
0.0
 11
15.84933099999998
 21
-2.156785013961041
 31
0.0
 11
15.82607299999998
 21
-2.175697013961042
 31
0.0
 11
15.80567399999998
 21
-2.192967013961038
 31
0.0
 11
15.78814499999999
 21
-2.208586013961053
 31
0.0
 11
15.77360699999998
 21
-2.222484013961037
 31
0.0
  0
SPLINE
  5
330C
330
1F
100
AcDbEntity
  8
AM_0
100
AcDbSpline
210
0.0
220
0.0
230
1.0
 70
     8
 71
     3
 72
    11
 73
     7
 74
     5
 42
0.0000000001
 43
0.0000000001
 44
0.0000000001
 40
0.0
 40
0.0
 40
0.0
 40
0.0
 40
0.8070714726280681
 40
1.623530039137106
 40
2.447395845239629
 40
3.276556113291584
 40
3.276556113291584
 40
3.276556113291584
 40
3.276556113291584
 10
15.84933099999998
 20
-2.156785013961041
 30
0.0
 10
15.71697315598757
 20
-1.92239643414299
 30
0.0
 10
15.45071800640356
 20
-1.450893087696919
 30
0.0
 10
14.97977570948981
 20
-0.7834271537584742
 30
0.0
 10
14.46110991920365
 20
-0.1428832242422357
 30
0.0
 10
14.07373621162492
 20
0.2494054300423697
 30
0.0
 10
13.87942899999999
 20
0.446177986038947
 30
0.0
 11
15.84933099999998
 21
-2.156785013961041
 31
0.0
 11
15.44085199999998
 21
-1.460718013961014
 31
0.0
 11
14.97404699999999
 21
-0.7908690139610144
 31
0.0
 11
14.45223899999999
 21
-0.1533180139610408
 31
0.0
 11
13.87942899999999
 21
0.446177986038947
 31
0.0
  0
SPLINE
  5
330E
330
1F
100
AcDbEntity
  8
AM_0
100
AcDbSpline
210
0.0
220
0.0
230
1.0
 70
     8
 71
     3
 72
    11
 73
     7
 74
     5
 42
0.0000000001
 43
0.0000000001
 44
0.0000000001
 40
0.0
 40
0.0
 40
0.0
 40
0.0
 40
0.2573352200865453
 40
0.5111935398241664
 40
0.7657153312880112
 40
1.018236222008019
 40
1.018236222008019
 40
1.018236222008019
 40
1.018236222008019
 10
9.505885999999975
 20
5.726580986038925
 30
0.0
 10
9.480982757045016
 20
5.643882091882789
 30
0.0
 10
9.431512743127115
 20
5.47960166253075
 30
0.0
 10
9.445181230056008
 20
5.220644733841509
 30
0.0
 10
9.520035222228984
 20
4.973819615682213
 30
0.0
 10
9.622555262871718
 20
4.837961821114472
 30
0.0
 10
9.673612999999989
 20
4.770300986038933
 30
0.0
 11
9.505885999999975
 21
5.726580986038925
 31
0.0
 11
9.446024999999992
 21
5.47630498603894
 31
0.0
 11
9.455376999999999
 21
5.222618986038924
 31
0.0
 11
9.533495999999985
 21
4.980381986038992
 31
0.0
 11
9.673612999999989
 21
4.770300986038933
 31
0.0
  0
SPLINE
  5
330F
330
1F
100
AcDbEntity
  8
AM_0
100
AcDbSpline
210
0.0
220
0.0
230
1.0
 70
     8
 71
     3
 72
    11
 73
     7
 74
     5
 42
0.0000000001
 43
0.0000000001
 44
0.0000000001
 40
0.0
 40
0.0
 40
0.0
 40
0.0
 40
0.0987530552945014
 40
0.1875267127047705
 40
0.2660408820501863
 40
0.3340644410058759
 40
0.3340644410058759
 40
0.3340644410058759
 40
0.3340644410058759
 10
9.505885999999975
 20
5.726580986038925
 30
0.0
 10
9.477866334513347
 20
5.709304456505263
 30
0.0
 10
9.424658504698614
 20
5.676497261014118
 30
0.0
 10
9.349470179167081
 20
5.629476393416301
 30
0.0
 10
9.283173159773272
 20
5.587556504889814
 30
0.0
 10
9.242174695627218
 20
5.561003176268962
 30
0.0
 10
9.223142999999993
 20
5.54867698603897
 30
0.0
 11
9.505885999999975
 21
5.726580986038925
 31
0.0
 11
9.421884999999975
 21
5.674657986038938
 31
0.0
 11
9.346611999999993
 21
5.627596986038952
 31
0.0
 11
9.280299999999983
 21
5.585558986038961
 31
0.0
 11
9.223142999999993
 21
5.54867698603897
 31
0.0
  0
SPLINE
  5
3310
330
1F
100
AcDbEntity
  8
AM_0
100
AcDbSpline
210
0.0
220
0.0
230
1.0
 70
     8
 71
     3
 72
    11
 73
     7
 74
     5
 42
0.0000000001
 43
0.0000000001
 44
0.0000000001
 40
0.0
 40
0.0
 40
0.0
 40
0.0
 40
1.49548828876624
 40
3.004565413954978
 40
4.51968830191425
 40
6.033255337877321
 40
6.033255337877321
 40
6.033255337877321
 40
6.033255337877321
 10
9.673612999999989
 20
4.770300986038933
 30
0.0
 10
10.00851081284564
 20
4.401003190388774
 30
0.0
 10
10.68134950589576
 20
3.659051954397707
 30
0.0
 10
11.73258936046138
 20
2.579594482053376
 30
0.0
 10
12.7970842209905
 20
1.504988160697293
 30
0.0
 10
13.51877098493762
 20
0.7989938200743695
 30
0.0
 10
13.87942899999999
 20
0.446177986038947
 30
0.0
 11
9.673612999999989
 21
4.770300986038933
 31
0.0
 11
10.68474699999999
 21
3.668441986038943
 31
0.0
 11
11.73268499999998
 21
2.582559986038973
 31
0.0
 11
12.80025199999999
 21
1.507432986038964
 31
0.0
 11
13.87942899999999
 21
0.446177986038947
 31
0.0
  0
LINE
  5
3311
330
1F
100
AcDbEntity
  8
AM_0
100
AcDbLine
 10
9.223142999999993
 20
5.54867698603897
 30
0.0
 11
9.025556999999992
 21
5.415502986038973
 31
0.0
  0
SPLINE
  5
3312
330
1F
100
AcDbEntity
  8
AM_0
100
AcDbSpline
210
0.0
220
0.0
230
1.0
 70
     8
 71
     3
 72
    11
 73
     7
 74
     5
 42
0.0000000001
 43
0.0000000001
 44
0.0000000001
 40
0.0
 40
0.0
 40
0.0
 40
0.0
 40
0.0255671552582862
 40
0.0497418993727395
 40
0.072525068599189
 40
0.0939168566497193
 40
0.0939168566497193
 40
0.0939168566497193
 40
0.0939168566497193
 10
9.025556999999992
 20
5.415502986038973
 30
0.0
 10
9.018590438420612
 20
5.410593963614053
 30
0.0
 10
9.005036720709166
 20
5.401043268708343
 30
0.0
 10
8.985372623215735
 20
5.386980491646892
 30
0.0
 10
8.966910261082928
 20
5.37363025299535
 30
0.0
 10
8.955058993676738
 20
5.364890987979768
 30
0.0
 10
8.949319999999986
 20
5.36065898603897
 30
0.0
 11
9.025556999999992
 21
5.415502986038973
 31
0.0
 11
9.004674999999992
 21
5.400750986038929
 31
0.0
 11
8.985007999999993
 21
5.386692986038952
 31
0.0
 11
8.966555999999983
 21
5.373328986038928
 31
0.0
 11
8.949319999999986
 21
5.36065898603897
 31
0.0
  0
SPLINE
  5
3313
330
1F
100
AcDbEntity
  8
AM_0
100
AcDbSpline
210
0.0
220
0.0
230
1.0
 70
     8
 71
     3
 72
    11
 73
     7
 74
     5
 42
0.0000000001
 43
0.0000000001
 44
0.0000000001
 40
0.0
 40
0.0
 40
0.0
 40
0.0
 40
0.3239720294053397
 40
0.6480835128257515
 40
0.9721988258673165
 40
1.294538960771406
 40
1.294538960771406
 40
1.294538960771406
 40
1.294538960771406
 10
8.781214999999989
 20
5.275044986038949
 30
0.0
 10
8.736359512867107
 20
5.374403740652536
 30
0.0
 10
8.646629230521596
 20
5.573164018933841
 30
0.0
 10
8.641403849676477
 20
5.904612252664402
 30
0.0
 10
8.731193562774642
 20
6.223418302670513
 30
0.0
 10
8.869635242027929
 20
6.391285079966426
 30
0.0
 10
8.938665999999984
 20
6.474987986038968
 30
0.0
 11
8.781214999999989
 21
5.275044986038949
 31
0.0
 11
8.668200999999982
 21
5.578665986038971
 31
0.0
 11
8.65726699999999
 21
5.90259298603894
 31
0.0
 11
8.751124999999988
 21
6.212820986038992
 31
0.0
 11
8.938665999999984
 21
6.474987986038968
 31
0.0
  0
SPLINE
  5
3314
330
1F
100
AcDbEntity
  8
AM_0
100
AcDbSpline
210
0.0
220
0.0
230
1.0
 70
     8
 71
     3
 72
    11
 73
     7
 74
     5
 42
0.0000000001
 43
0.0000000001
 44
0.0000000001
 40
0.0
 40
0.0
 40
0.0
 40
0.0
 40
0.0833690162350627
 40
0.1714003834685653
 40
0.2728466220878554
 40
0.3788958350599556
 40
0.3788958350599556
 40
0.3788958350599556
 40
0.3788958350599556
 10
14.04586099999999
 20
-2.807625013961001
 30
0.0
 10
14.06943641071152
 20
-2.8231104330924
 30
0.0
 10
14.1179056696625
 20
-2.854947282046089
 30
0.0
 10
14.21196282322379
 20
-2.861055713568243
 30
0.0
 10
14.30957253159639
 20
-2.830803709818131
 30
0.0
 10
14.3576771344567
 20
-2.779630314172182
 30
0.0
 10
14.382263
 20
-2.753476013961063
 30
0.0
 11
14.04586099999999
 21
-2.807625013961001
 31
0.0
 11
14.11909899999998
 21
-2.847457013961048
 31
0.0
 11
14.20674799999998
 21
-2.855653013961046
 31
0.0
 11
14.303169
 21
-2.824120013961078
 31
0.0
 11
14.382263
 21
-2.753476013961063
 31
0.0
  0
SPLINE
  5
3315
330
1F
100
AcDbEntity
  8
AM_0
100
AcDbSpline
210
0.0
220
0.0
230
1.0
 70
     8
 71
     3
 72
    11
 73
     7
 74
     5
 42
0.0000000001
 43
0.0000000001
 44
0.0000000001
 40
0.0
 40
0.0
 40
0.0
 40
0.0
 40
0.0833694169465282
 40
0.1713997885236165
 40
0.2728457163127605
 40
0.3788956751105069
 40
0.3788956751105069
 40
0.3788956751105069
 40
0.3788956751105069
 10
15.38278599999998
 20
-2.039106013961032
 30
0.0
 10
15.40636179495999
 20
-2.054591033717807
 30
0.0
 10
15.45483144268481
 20
-2.086426798064072
 30
0.0
 10
15.54888792183372
 20
-2.092535574904729
 30
0.0
 10
15.64649785030403
 20
-2.062284687394785
 30
0.0
 10
15.69460282370809
 20
-2.011111392028188
 30
0.0
 10
15.71918899999999
 20
-1.984957013961036
 30
0.0
 11
15.38278599999998
 21
-2.039106013961032
 31
0.0
 11
15.45602499999998
 21
-2.078937013961081
 31
0.0
 11
15.54367299999998
 21
-2.087133013961079
 31
0.0
 11
15.64009399999998
 21
-2.055601013961052
 31
0.0
 11
15.71918899999999
 21
-1.984957013961036
 31
0.0
  0
SPLINE
  5
3316
330
1F
100
AcDbEntity
  8
AM_0
100
AcDbSpline
210
0.0
220
0.0
230
1.0
 70
     8
 71
     3
 72
    11
 73
     7
 74
     5
 42
0.0000000001
 43
0.0000000001
 44
0.0000000001
 40
0.0
 40
0.0
 40
0.0
 40
0.0
 40
0.0700407445563311
 40
0.1439617948532517
 40
0.2397449877943943
 40
0.3398276066100566
 40
0.3398276066100566
 40
0.3398276066100566
 40
0.3398276066100566
 10
8.560903999999994
 20
4.782776986038925
 30
0.0
 10
8.547854201593355
 20
4.803599632510113
 30
0.0
 10
8.521031636913421
 20
4.846398514483392
 30
0.0
 10
8.554361401673306
 20
4.92966906364792
 30
0.0
 10
8.630517893965227
 20
4.982278924796841
 30
0.0
 10
8.693810190897128
 20
4.999354689633988
 30
0.0
 10
8.726150999999987
 20
5.008079986038979
 30
0.0
 11
8.560903999999994
 21
4.782776986038925
 31
0.0
 11
8.532840999999991
 21
4.846949986038965
 31
0.0
 11
8.555934999999977
 21
4.917170986038968
 31
0.0
 11
8.63121799999999
 21
4.976389986038953
 31
0.0
 11
8.726150999999987
 21
5.008079986038979
 31
0.0
  0
SPLINE
  5
3317
330
1F
100
AcDbEntity
  8
AM_0
100
AcDbSpline
210
0.0
220
0.0
230
1.0
 70
     8
 71
     3
 72
    11
 73
     7
 74
     5
 42
0.0000000001
 43
0.0000000001
 44
0.0000000001
 40
0.0
 40
0.0
 40
0.0
 40
0.0
 40
0.0700416607812636
 40
0.1439627110782427
 40
0.2397452857617325
 40
0.339829169764088
 40
0.339829169764088
 40
0.339829169764088
 40
0.339829169764088
 10
7.223977999999988
 20
4.014256986038959
 30
0.0
 10
7.210928172788206
 20
4.035079953151021
 30
0.0
 10
7.184105729066066
 20
4.077879206691104
 30
0.0
 10
7.217435084727523
 20
4.16115005490736
 30
0.0
 10
7.293592703075499
 20
4.213758835401429
 30
0.0
 10
7.356884926463073
 20
4.230835267298571
 30
0.0
 10
7.389225999999979
 20
4.239560986038953
 30
0.0
 11
7.223977999999988
 21
4.014256986038959
 31
0.0
 11
7.195914999999985
 21
4.078430986038939
 31
0.0
 11
7.219008999999986
 21
4.148651986038999
 31
0.0
 11
7.294291999999985
 21
4.207869986038986
 31
0.0
 11
7.389225999999979
 21
4.239560986038953
 31
0.0
  0
SPLINE
  5
3318
330
1F
100
AcDbEntity
  8
AM_0
100
AcDbSpline
210
0.0
220
0.0
230
1.0
 70
     8
 71
     3
 72
    11
 73
     7
 74
     5
 42
0.0000000001
 43
0.0000000001
 44
0.0000000001
 40
0.0
 40
0.0
 40
0.0
 40
0.0
 40
1.404163833108172
 40
2.82183817678692
 40
4.249828411397795
 40
5.684641846746446
 40
5.684641846746446
 40
5.684641846746446
 40
5.684641846746446
 10
10.75879199999999
 20
-5.207536013961033
 30
0.0
 10
11.16194517223313
 20
-4.969748836544829
 30
0.0
 10
11.97213055493313
 20
-4.491886553410694
 30
0.0
 10
13.19377266259244
 20
-3.77468704321909
 30
0.0
 10
14.42518104348987
 20
-3.053945838553168
 30
0.0
 10
15.24969663154325
 20
-2.573527631434055
 30
0.0
 10
15.66293699999999
 20
-2.332746013961014
 30
0.0
 11
10.75879199999999
 21
-5.207536013961033
 31
0.0
 11
11.96849199999998
 21
-4.494583013961005
 31
0.0
 11
13.19096499999999
 21
-3.776697013961041
 31
0.0
 11
14.423453
 21
-3.055497013961031
 31
0.0
 11
15.66293699999999
 21
-2.332746013961014
 31
0.0
  0
SPLINE
  5
3319
330
1F
100
AcDbEntity
  8
AM_0
100
AcDbSpline
210
0.0
220
0.0
230
1.0
 70
     8
 71
     3
 72
    11
 73
     7
 74
     5
 42
0.0000000001
 43
0.0000000001
 44
0.0000000001
 40
0.0
 40
0.0
 40
0.0
 40
0.0
 40
0.043767821101805
 40
0.0874718884868901
 40
0.1312811234608131
 40
0.1753623672386367
 40
0.1753623672386367
 40
0.1753623672386367
 40
0.1753623672386367
 10
3.095585999999983
 20
1.92280298603896
 30
0.0
 10
3.08318096425407
 20
1.915114305946177
 30
0.0
 10
3.058388962364863
 20
1.899748145357035
 30
0.0
 10
3.023117088749935
 20
1.873784879722666
 30
0.0
 10
2.989205965390345
 20
1.845904452693775
 30
0.0
 10
2.968102425969597
 20
1.825568453952837
 30
0.0
 10
2.957517999999993
 20
1.815368986038948
 30
0.0
 11
3.095585999999983
 21
1.92280298603896
 31
0.0
 11
3.058693999999989
 21
1.89925298603896
 31
0.0
 11
3.02338499999999
 21
1.873497986038956
 31
0.0
 11
2.989659999999986
 21
1.845535986038954
 31
0.0
 11
2.957517999999993
 21
1.815368986038948
 31
0.0
  0
LINE
  5
3347
330
1F
100
AcDbEntity
  8
AM_7
  6
CENTER
 48
0.5
100
AcDbLine
 10
25.19050199999998
 20
-4.107874013961009
 30
0.0
 11
34.53818347542469
 21
-4.107874013961009
 31
0.0
1001
GENIUS_GENOREF_13
1005
334B
  0
LINE
  5
3348
330
1F
100
AcDbEntity
  8
AM_7
  6
CENTER
 48
0.5
100
AcDbLine
 10
25.19050199999998
 20
-4.107874013961009
 30
0.0
 11
25.19050199999998
 21
5.23980746146367
 31
0.0
1001
GENIUS_GENOREF_13
1005
334B
  0
LINE
  5
3349
330
1F
100
AcDbEntity
  8
AM_7
  6
CENTER
 48
0.5
100
AcDbLine
 10
25.19050199999998
 20
-4.107874013961009
 30
0.0
 11
15.84282052457527
 21
-4.107874013961009
 31
0.0
1001
GENIUS_GENOREF_13
1005
334B
  0
LINE
  5
334A
330
1F
100
AcDbEntity
  8
AM_7
  6
CENTER
 48
0.5
100
AcDbLine
 10
25.19050199999998
 20
-4.107874013961009
 30
0.0
 11
25.19050199999998
 21
-13.45555548938575
 31
0.0
1001
GENIUS_GENOREF_13
1005
334B
  0
POINT
  5
334B
330
1F
100
AcDbEntity
  8
0
 60
     1
370
    13
100
AcDbPoint
 10
0.0
 20
0.0
 30
0.0
1001
GENIUS_GENODEF_13
1002
{
1000
HIER
1070
    10
1002
}
1002
{
1000
MANEDIT
1070
     0
1002
}
1002
{
1000
NOSEL
1070
     0
1002
}
1002
{
1000
BEHIND
1070
     0
1002
}
1002
{
1000
OTHER
1070
     0
1002
}
1002
{
1000
REACTOR
1002
}
1001
GENIUS_GENOBJ-N-CRS_13
1002
{
1000
OWNER
1000
GEN
1002
}
1001
GENIUS_GENOLIS_13
1002
{
1000
ENT
1005
334A
1005
3349
1005
3348
1005
3347
1002
}
1001
GENIUS_GENOENT_13
1002
{
1000
MYREF
1005
334B
1002
}
1002
{
1000
GRP
1005
0
1002
}
  0
DIMENSION
  5
3351
330
1F
100
AcDbEntity
  8
AM_5
370
    13
100
AcDbDimension
  2
*D5
 10
178.6947587193231
 20
-12.50000101396103
 30
0.0
 11
178.6947587193231
 21
-0.2190872852496568
 31
0.0
 70
   160
 71
     5
 42
25.0
  3
AM_JIS$0
100
AcDbAlignedDimension
 13
160.0
 23
12.49999898603898
 33
0.0
 14
160.0
 24
-12.50000101396102
 34
0.0
 50
90.0
100
AcDbRotatedDimension
1001
ACAD
1000
DSTYLE
1002
{
1070
   271
1070
     0
1002
}
  0
LINE
  5
3372
330
1F
100
AcDbEntity
  8
AM_5
370
    13
100
AcDbLine
 10
0.0
 20
0.0
 30
0.0
 11
0.0
 21
0.1767384099565561
 31
0.0
  0
LINE
  5
337B
330
1F
100
AcDbEntity
  8
AM_0
100
AcDbLine
 10
14.50000043129836
 20
-14.50000101396103
 30
0.0
 11
8.532046510259306
 21
-8.532047524220275
 31
0.0
  0
LINE
  5
337D
330
1F
100
AcDbEntity
  8
AM_5
370
    13
100
AcDbLine
 10
0.1168581785658489
 20
-0.1168581924533783
 30
0.0
 11
0.0
 21
0.0
 31
0.0
  0
DIMENSION
  5
337E
330
1F
100
AcDbEntity
  8
AM_5
370
    13
100
AcDbDimension
  2
*D6
 10
160.0
 20
-46.53018231665681
 30
0.0
 11
74.97723624974219
 21
-46.53018231665681
 31
0.0
 70
   160
 71
     5
 42
160.0
  3
AM_JIS$0
100
AcDbAlignedDimension
 13
0.0
 23
0.0
 33
0.0
 14
160.0
 24
-12.50000101396102
 34
0.0
100
AcDbRotatedDimension
1001
ACAD
1000
DSTYLE
1002
{
1070
   271
1070
     0
1002
}
  0
DIMENSION
  5
338D
330
1F
100
AcDbEntity
  8
AM_5
370
    13
100
AcDbDimension
  2
*D7
 10
-13.12163165732931
 20
12.49999898603898
 30
0.0
 11
-13.12163165732932
 21
6.520078928158569
 31
0.0
 70
   160
 71
     5
 42
12.49999898603898
  3
AM_JIS$0
100
AcDbAlignedDimension
 13
0.0
 23
0.0
 33
0.0
 14
13.79999909260382
 24
12.49999898603898
 34
0.0
 50
90.0
100
AcDbRotatedDimension
1001
ACAD
1000
DSTYLE
1002
{
1070
   271
1070
     1
1002
}
  0
DIMENSION
  5
33AD
330
1F
100
AcDbEntity
  8
AM_5
370
    13
100
AcDbDimension
  2
*D8
 10
34.98162399999998
 20
23.52153554612323
 30
0.0
 11
17.424598300659
 21
23.52153554612323
 31
0.0
 70
   160
 71
     5
 42
34.98162399999998
  3
AM_JIS$0
100
AcDbAlignedDimension
 13
0.0
 23
0.0
 33
0.0
 14
34.98162399999998
 24
12.49999898603898
 34
0.0
100
AcDbRotatedDimension
1001
ACAD
1000
DSTYLE
1002
{
1070
   271
1070
     0
1002
}
  0
LINE
  5
33D8
330
1F
100
AcDbEntity
  8
AM_0
100
AcDbLine
 10
35.0
 20
-12.50000101396103
 30
0.0
 11
35.0
 21
12.49999898603898
 31
0.0
  0
LINE
  5
36A0
330
1F
100
AcDbEntity
  8
AM_0
100
AcDbLine
 10
-36.03089088387559
 20
-36.57431876734108
 30
0.0
 11
-35.94280163713766
 21
-36.66240800356286
 31
0.0
  0
LINE
  5
36A2
330
1F
100
AcDbEntity
  8
AM_0
100
AcDbLine
 10
-35.38118779548681
 20
-35.61613459283024
 30
0.0
 11
-36.03089088387559
 21
-36.57431876734108
 31
0.0
  0
LINE
  5
36A3
330
1F
100
AcDbEntity
  8
AM_0
100
AcDbLine
 10
-35.38118779548681
 20
-35.61613459283024
 30
0.0
 11
-33.90693600564201
 21
-34.14188262698843
 31
0.0
  0
LINE
  5
36A4
330
1F
100
AcDbEntity
  8
AM_0
100
AcDbLine
 10
-25.49236480725419
 20
-42.55645282084038
 30
0.0
 11
-33.90693600564201
 21
-34.14188262698843
 31
0.0
  0
LINE
  5
36A5
330
1F
100
AcDbEntity
  8
AM_0
100
AcDbLine
 10
-25.85342552899145
 20
-42.91751358568132
 30
0.0
 11
-25.49236480725419
 21
-42.55645282084038
 31
0.0
  0
LINE
  5
36A6
330
1F
100
AcDbEntity
  8
AM_0
100
AcDbLine
 10
-34.2144991865943
 20
-33.88376038594265
 30
0.0
 11
-35.38118779548681
 21
-35.61613459283024
 31
0.0
  0
LINE
  5
36A7
330
1F
100
AcDbEntity
  8
AM_0
100
AcDbLine
 10
-25.6362122123404
 20
-43.13472687640137
 30
0.0
 11
-25.23424252949131
 21
-42.8640159709779
 31
0.0
  0
LINE
  5
36A8
330
1F
100
AcDbEntity
  8
AM_0
100
AcDbLine
 10
-25.57058279963387
 20
-43.200356281273
 30
0.0
 11
-25.23424252949131
 21
-42.8640159709779
 31
0.0
  0
LINE
  5
36A9
330
1F
100
AcDbEntity
  8
AM_0
100
AcDbLine
 10
-36.03822570207903
 20
-36.58165358642015
 30
0.0
 11
-36.03089088387559
 21
-36.57431876734108
 31
0.0
  0
LINE
  5
36AA
330
1F
100
AcDbEntity
  8
AM_0
100
AcDbLine
 10
-36.54485990813451
 20
-36.99193889141588
 30
0.0
 11
-36.11662193753618
 21
-36.35156882267609
 31
0.0
  0
LINE
  5
36AB
330
1F
100
AcDbEntity
  8
AM_0
100
AcDbLine
 10
-36.11662193753618
 20
-36.35156882267609
 30
0.0
 11
-34.94993332864367
 21
-34.6191946157885
 31
0.0
  0
LINE
  5
36AC
330
1F
100
AcDbEntity
  8
AM_0
100
AcDbLine
 10
-34.2144991865943
 20
-33.88376038594265
 30
0.0
 11
-34.94993332864367
 21
-34.6191946157885
 31
0.0
  0
LINE
  5
36AD
330
1F
100
AcDbEntity
  8
AM_0
100
AcDbLine
 10
-22.46739790858719
 20
-45.0894753005831
 30
0.0
 11
-18.94580089583177
 21
-48.1298348453679
 31
0.0
  0
LINE
  5
36AE
330
1F
100
AcDbEntity
  8
AM_0
100
AcDbLine
 10
-16.09317004149356
 20
-51.00432061424601
 30
0.0
 11
-12.95697517428588
 21
-54.74122490923156
 31
0.0
  0
LINE
  5
36AF
330
1F
100
AcDbEntity
  8
AM_0
100
AcDbLine
 10
-14.50542524901566
 20
-53.59994970707635
 30
0.0
 11
-12.95697517428588
 21
-54.74122490923156
 31
0.0
  0
LINE
  5
36B0
330
1F
100
AcDbEntity
  8
AM_0
100
AcDbLine
 10
-14.87623202293632
 20
-53.97075652526416
 30
0.0
 11
-16.07944002499026
 21
-53.08393933456568
 31
0.0
  0
LINE
  5
36B1
330
1F
100
AcDbEntity
  8
AM_0
100
AcDbLine
 10
-24.89338028988776
 20
-42.88946472368673
 30
0.0
 11
-23.87278820396482
 21
-44.89815067425843
 31
0.0
  0
LINE
  5
36B2
330
1F
100
AcDbEntity
  8
AM_0
100
AcDbLine
 10
-19.99766891889395
 20
-47.84503775253643
 30
0.0
 11
-19.20770474454757
 21
-48.4272765000801
 31
0.0
  0
LINE
  5
36B3
330
1F
100
AcDbEntity
  8
AM_0
100
AcDbLine
 10
-23.27845290199768
 20
-45.42695690955884
 30
0.0
 11
-22.48848802054452
 21
-46.00919494999573
 31
0.0
  0
LINE
  5
36B6
330
1F
100
AcDbEntity
  8
AM_0
100
AcDbLine
 10
-20.94775198742012
 20
-43.56982919799998
 30
0.0
 11
-22.46739790858719
 21
-45.0894753005831
 31
0.0
  0
LINE
  5
36B9
330
1F
100
AcDbEntity
  8
AM_0
100
AcDbLine
 10
-13.22413985127905
 20
-55.81223714023508
 30
0.0
 11
-13.59093596375804
 21
-55.3751857743863
 31
0.0
  0
LINE
  5
36BA
330
1F
100
AcDbEntity
  8
AM_0
100
AcDbLine
 10
-12.95697517428588
 20
-54.74122490923156
 30
0.0
 11
-13.59093596375804
 21
-55.3751857743863
 31
0.0
  0
LINE
  5
36BC
330
1F
100
AcDbEntity
  8
AM_0
100
AcDbLine
 10
-17.33565570438058
 20
-38.26355403237221
 30
0.0
 11
-19.867777641134
 21
-36.07745366641069
 31
0.0
  0
LINE
  5
36BD
330
1F
100
AcDbEntity
  8
AM_0
100
AcDbLine
 10
-11.60782178101793
 20
-43.20866112408396
 30
0.0
 11
-13.53227167505342
 21
-41.54719294129751
 31
0.0
  0
LINE
  5
36BE
330
1F
100
AcDbEntity
  8
AM_0
100
AcDbLine
 10
-7.767350634553321
 20
-47.7248472544801
 30
0.0
 11
-11.27034161424005
 21
-43.55089017943226
 31
0.0
  0
LINE
  5
36BF
330
1F
100
AcDbEntity
  8
AM_0
100
AcDbLine
 10
-16.2354843401482
 20
-53.23998366835224
 30
0.0
 11
-15.40639744605464
 21
-52.41089667528189
 31
0.0
  0
LINE
  5
36C1
330
1F
100
AcDbEntity
  8
AM_0
100
AcDbLine
 10
-23.37373436872063
 20
-41.36981862110349
 30
0.0
 11
-24.67235781516477
 21
-42.66844222257794
 31
0.0
  0
LINE
  5
36C2
330
1F
100
AcDbEntity
  8
AM_0
100
AcDbLine
 10
-24.67235781516477
 20
-42.66844222257794
 30
0.0
 11
-24.89338028988776
 21
-42.88946472368673
 31
0.0
  0
LINE
  5
36C3
330
1F
100
AcDbEntity
  8
AM_0
100
AcDbLine
 10
-19.99766891889395
 20
-47.84503775253643
 30
0.0
 11
-20.46178479098352
 21
-48.30915368003241
 31
0.0
  0
LINE
  5
36C4
330
1F
100
AcDbEntity
  8
AM_0
100
AcDbLine
 10
-13.39497046467202
 20
-56.16372932475815
 30
0.0
 11
-15.13938603848787
 21
-54.23391057223114
 31
0.0
  0
LINE
  5
36C5
330
1F
100
AcDbEntity
  8
AM_0
100
AcDbLine
 10
-15.13938603848787
 20
-54.23391057223114
 30
0.0
 11
-13.59093596375804
 21
-55.3751857743863
 31
0.0
  0
LINE
  5
36C6
330
1F
100
AcDbEntity
  8
AM_0
100
AcDbLine
 10
-13.39497046467202
 20
-56.16372932475815
 30
0.0
 11
-13.1108245418989
 21
-56.37315665871529
 31
0.0
  0
LINE
  5
36C7
330
1F
100
AcDbEntity
  8
AM_0
100
AcDbLine
 10
-14.50542524901566
 20
-53.59994970707635
 30
0.0
 11
-15.13938603848787
 21
-54.23391057223114
 31
0.0
  0
LINE
  5
36C8
330
1F
100
AcDbEntity
  8
AM_0
100
AcDbLine
 10
-29.55785734036151
 20
-34.52412732273746
 30
0.0
 11
-29.9577587990148
 21
-33.73705810217746
 31
0.0
  0
LINE
  5
36C9
330
1F
100
AcDbEntity
  8
AM_0
100
AcDbLine
 10
-12.73391964553296
 20
-56.56465812312581
 30
0.0
 11
-7.943994152036378
 21
-51.77473205780541
 31
0.0
  0
LINE
  5
36CA
330
1F
100
AcDbEntity
  8
AM_0
100
AcDbLine
 10
-22.62511589175681
 20
-46.14582283751872
 30
0.0
 11
-22.48848802054452
 21
-46.00919494999573
 31
0.0
  0
LINE
  5
36CC
330
1F
100
AcDbEntity
  8
AM_0
100
AcDbLine
 10
-23.31121739985501
 20
-45.45972141132768
 30
0.0
 11
-23.27845290199768
 21
-45.42695690955884
 31
0.0
  0
LINE
  5
36CE
330
1F
100
AcDbEntity
  8
AM_0
100
AcDbLine
 10
-36.09957570271739
 20
-36.5466546328405
 30
0.0
 11
-36.76702860288133
 21
-37.21410761268533
 31
0.0
  0
LINE
  5
36D1
330
1F
100
AcDbEntity
  8
AM_0
100
AcDbLine
 10
-19.89828641367312
 20
-48.87265199007209
 30
0.0
 11
-25.57058279963387
 21
-43.20035628127295
 31
0.0
  0
LINE
  5
36D2
330
1F
100
AcDbEntity
  8
AM_0
100
AcDbLine
 10
-19.89828641367312
 20
-48.87265199007209
 30
0.0
 11
-35.40135523743591
 21
-68.01734853660483
 31
0.0
  0
LINE
  5
36D3
330
1F
100
AcDbEntity
  8
AM_0
100
AcDbLine
 10
-29.95935236798594
 20
-73.45935075638575
 30
0.0
 11
-13.2726798460515
 21
-56.7726762423876
 31
0.0
  0
LINE
  5
36D5
330
1F
100
AcDbEntity
  8
AM_0
100
AcDbLine
 10
-13.2726798460515
 20
-56.7726762423876
 30
0.0
 11
-19.89828641367312
 21
-48.87265199007209
 31
0.0
  0
LINE
  5
36D6
330
1F
100
AcDbEntity
  8
AM_0
100
AcDbLine
 10
-12.91489797279909
 20
-56.50642930471133
 30
0.0
 11
-13.79086321964648
 21
-57.30890645819022
 31
0.0
  0
LINE
  5
36D7
330
1F
100
AcDbEntity
  8
AM_0
100
AcDbLine
 10
-12.11631282071987
 20
-55.94705122458254
 30
0.0
 11
5.12982802318891
 21
-73.19319000963816
 31
0.0
  0
LINE
  5
36DA
330
1F
100
AcDbEntity
  8
AM_0
100
AcDbLine
 10
-13.79086321964648
 20
-57.30890645819022
 30
0.0
 11
-13.79909465027212
 21
-57.29909110945187
 31
0.0
  0
LINE
  5
36DB
330
1F
100
AcDbEntity
  8
AM_0
100
AcDbLine
 10
-26.28291801398363
 20
-41.76589970848761
 30
0.0
 11
-26.11109036930496
 21
-41.59407204329602
 31
0.0
  0
LINE
  5
36DC
330
1F
100
AcDbEntity
  8
AM_0
100
AcDbLine
 10
-24.47211589484009
 20
-40.76686590592124
 30
0.0
 11
-25.49222347063777
 21
-41.13679312203016
 31
0.0
  0
LINE
  5
36E0
330
1F
100
AcDbEntity
  8
AM_0
100
AcDbLine
 10
-31.14770001337449
 20
-33.6923485185377
 30
0.0
 11
-33.10647131478252
 21
-34.40266921696434
 31
0.0
  0
LINE
  5
36E2
330
1F
100
AcDbEntity
  8
AM_0
100
AcDbLine
 10
-30.10281113412161
 20
-33.97917359403425
 30
0.0
 11
-24.3550784709207
 21
-39.72690557106785
 31
0.0
  0
LINE
  5
36E3
330
1F
100
AcDbEntity
  8
AM_0
100
AcDbLine
 10
-23.97247496786052
 20
-40.4736845553752
 30
0.0
 11
-24.12302438957157
 21
-40.07101482964026
 31
0.0
  0
LINE
  5
36E4
330
1F
100
AcDbEntity
  8
AM_0
100
AcDbLine
 10
-23.81779179924676
 20
-40.8874077740669
 30
0.0
 11
-23.88932768239987
 21
-40.69607387573603
 31
0.0
  0
LINE
  5
36E5
330
1F
100
AcDbEntity
  8
AM_0
100
AcDbLine
 10
-23.6631093377399
 20
-41.30113028565188
 30
0.0
 11
-23.73464451378617
 21
-41.10979709442768
 31
0.0
  0
LINE
  5
36E6
330
1F
100
AcDbEntity
  8
AM_0
100
AcDbLine
 10
-23.56566788641548
 20
-41.56175216171141
 30
0.0
 11
-23.57996134517241
 21
-41.52352031311943
 31
0.0
  0
LINE
  5
36E7
330
1F
100
AcDbEntity
  8
AM_0
100
AcDbLine
 10
-23.89363323786033
 20
-40.99311034288633
 30
0.0
 11
-23.87550514022898
 21
-41.01123843835353
 31
0.0
  0
LINE
  5
36E8
330
1F
100
AcDbEntity
  8
AM_0
100
AcDbLine
 10
-23.73895006924663
 20
-41.40683356157808
 30
0.0
 11
-23.72082197161528
 21
-41.42496165704529
 31
0.0
  0
ARC
  5
3738
330
1F
100
AcDbEntity
  8
AM_0
100
AcDbCircle
 10
-13.56830560190495
 20
-45.47945476582009
 30
0.0
 40
2.99999997541234
100
AcDbArc
 50
40.00503068067292
 51
49.19440017468728
  0
ARC
  5
3739
330
1F
100
AcDbEntity
  8
AM_0
100
AcDbCircle
 10
-10.06531462221822
 20
-49.65341184086799
 30
0.0
 40
3.0
100
AcDbArc
 50
315.00000342
 51
40.00503068067292
  0
ARC
  5
373C
330
1F
100
AcDbEntity
  8
AM_0
100
AcDbCircle
 10
-28.80944141067609
 20
-45.87352982025664
 30
0.0
 40
4.69105568918309
100
AcDbArc
 50
43.56331046861649
 51
45.00000342000001
  0
ARC
  5
373D
330
1F
100
AcDbEntity
  8
AM_0
100
AcDbCircle
 10
-27.63324288604967
 20
-44.75488540799836
 30
0.0
 40
3.06784653988576
100
AcDbArc
 50
41.3665938137127
 51
43.56329658353415
  0
ARC
  5
373E
330
1F
100
AcDbEntity
  8
AM_0
100
AcDbCircle
 10
-25.09004509284075
 20
-42.51538827761522
 30
0.0
 40
0.320840877445498
100
AcDbArc
 50
221.3666792646989
 51
241.3496052497162
  0
ARC
  5
373F
330
1F
100
AcDbEntity
  8
AM_0
100
AcDbCircle
 10
-25.26417011868465
 20
-42.83408838535735
 30
0.0
 40
0.0423240000000007
100
AcDbArc
 50
315.00000342
 51
61.34928344313535
  0
ARC
  5
3740
330
1F
100
AcDbEntity
  8
AM_0
100
AcDbCircle
 10
-29.79408530455437
 20
-60.69521774689849
 30
0.0
 40
16.6004251096185
100
AcDbArc
 50
48.57041714271875
 51
49.19441699784835
  0
ARC
  5
3741
330
1F
100
AcDbEntity
  8
AM_0
100
AcDbCircle
 10
-32.392078881519
 20
-63.63899677014814
 30
0.0
 40
20.5266706827866
100
AcDbArc
 50
48.06576905426896
 51
48.5704156028736
  0
ARC
  5
3742
330
1F
100
AcDbEntity
  8
AM_0
100
AcDbCircle
 10
-40.17908189242583
 20
-72.30733017006787
 30
0.0
 40
32.1790278255325
100
AcDbArc
 50
44.77833557149975
 51
48.06577014005439
  0
ARC
  5
3743
330
1F
100
AcDbEntity
  8
AM_0
100
AcDbCircle
 10
-33.06394972870776
 20
-65.24703894795039
 30
0.0
 40
22.1554144336142
100
AcDbArc
 50
40.00503853302273
 51
44.77833402990909
  0
ARC
  5
3744
330
1F
100
AcDbEntity
  8
AM_0
100
AcDbCircle
 10
41.85920258675692
 20
27.86136265984237
 30
0.0
 40
97.27068878216721
100
AcDbArc
 50
226.6655441867662
 51
226.7702526571401
  0
ARC
  5
3745
330
1F
100
AcDbEntity
  8
AM_0
100
AcDbCircle
 10
40.12036631104796
 20
26.01161505708717
 30
0.0
 40
94.7319651817589
100
AcDbArc
 50
226.770252443952
 51
226.877766498795
  0
ARC
  5
3746
330
1F
100
AcDbEntity
  8
AM_0
100
AcDbCircle
 10
39.22042873956393
 20
25.05066820144566
 30
0.0
 40
93.41541428218341
100
AcDbArc
 50
226.8777663742559
 51
226.9852785874662
  0
ARC
  5
3747
330
1F
100
AcDbEntity
  8
AM_0
100
AcDbCircle
 10
37.35839255097751
 20
23.05490799076915
 30
0.0
 40
90.6859020462451
100
AcDbArc
 50
226.9852789382971
 51
227.0960262171291
  0
ARC
  5
3748
330
1F
100
AcDbEntity
  8
AM_0
100
AcDbCircle
 10
36.40168279433142
 20
22.02550895267927
 30
0.0
 40
89.2805705068117
100
AcDbArc
 50
227.096026257645
 51
227.2067708594862
  0
ARC
  5
3749
330
1F
100
AcDbEntity
  8
AM_0
100
AcDbCircle
 10
34.43527694539152
 20
19.9014802727724
 30
0.0
 40
86.3860500261179
100
AcDbArc
 50
227.20677081771
 51
227.3212261639092
  0
ARC
  5
374A
330
1F
100
AcDbEntity
  8
AM_0
100
AcDbCircle
 10
33.43140811972701
 20
18.81278820694485
 30
0.0
 40
84.9051709394393
100
AcDbArc
 50
227.321225769591
 51
227.4356775184079
  0
ARC
  5
374B
330
1F
100
AcDbEntity
  8
AM_0
100
AcDbCircle
 10
31.38017138388885
 20
16.5792958567128
 30
0.0
 40
81.8726697849692
100
AcDbArc
 50
227.4356777942142
 51
227.5543684970019
  0
ARC
  5
374C
330
1F
100
AcDbEntity
  8
AM_0
100
AcDbCircle
 10
30.33905146884875
 20
15.44094580073931
 30
0.0
 40
80.33001921404879
100
AcDbArc
 50
227.554368356534
 51
227.6730554886129
  0
ARC
  5
374D
330
1F
100
AcDbEntity
  8
AM_0
100
AcDbCircle
 10
28.22299567395457
 20
13.11762684379698
 30
0.0
 40
77.1874881617431
100
AcDbArc
 50
227.6730555585282
 51
227.7965736418809
  0
ARC
  5
374E
330
1F
100
AcDbEntity
  8
AM_0
100
AcDbCircle
 10
27.15470659742864
 20
11.93961021709754
 30
0.0
 40
75.5972157838609
100
AcDbArc
 50
227.7965738958698
 51
227.920087039386
  0
ARC
  5
374F
330
1F
100
AcDbEntity
  8
AM_0
100
AcDbCircle
 10
24.99406701702797
 20
9.546697100982783
 30
0.0
 40
72.3731821106725
100
AcDbArc
 50
227.9200870534313
 51
228.049102678279
  0
ARC
  5
3750
330
1F
100
AcDbEntity
  8
AM_0
100
AcDbCircle
 10
22.53910345154002
 20
6.815479334442784
 30
0.0
 40
68.7007983703606
100
AcDbArc
 50
228.0491021066021
 51
228.5603616764112
  0
ARC
  5
3751
330
1F
100
AcDbEntity
  8
AM_0
100
AcDbCircle
 10
13.73328409769157
 20
-3.158842167375724
 30
0.0
 40
55.39555416856
100
AcDbArc
 50
228.560362289574
 51
229.1944171823613
  0
ARC
  5
3752
330
1F
100
AcDbEntity
  8
AM_0
100
AcDbCircle
 10
-24.3320907182556
 20
-46.7350090582305
 30
0.0
 40
1.67700462397991
100
AcDbArc
 50
55.32038282219124
 51
59.49416438169011
  0
ARC
  5
3753
330
1F
100
AcDbEntity
  8
AM_0
100
AcDbCircle
 10
-25.70473971850642
 20
-48.71887287520872
 30
0.0
 40
4.08944720480214
100
AcDbArc
 50
53.60815276321122
 51
55.3203776678851
  0
ARC
  5
3754
330
1F
100
AcDbEntity
  8
AM_0
100
AcDbCircle
 10
-22.49636024947493
 20
-45.85614805163885
 30
0.0
 40
0.0517320000000012
100
AcDbArc
 50
135.00000342
 51
196.0855670044538
  0
ARC
  5
3755
330
1F
100
AcDbEntity
  8
AM_0
100
AcDbCircle
 10
-21.89478068045311
 20
-45.68268623702397
 30
0.0
 40
0.6778215146223959
100
AcDbArc
 50
196.0846692774197
 51
201.2415246075372
  0
ARC
  5
3756
330
1F
100
AcDbEntity
  8
AM_0
100
AcDbCircle
 10
-21.99152914933056
 20
-45.72029371695635
 30
0.0
 40
0.574020351815158
100
AcDbArc
 50
201.2414750454909
 51
205.7070131078663
  0
ARC
  5
3757
330
1F
100
AcDbEntity
  8
AM_0
100
AcDbCircle
 10
-21.54078889436316
 20
-45.50329888236132
 30
0.0
 40
1.074274711955
100
AcDbArc
 50
205.7070248897755
 51
208.0939713126101
  0
ARC
  5
376E
330
1F
100
AcDbEntity
  8
AM_0
100
AcDbCircle
 10
-27.90159181464757
 20
-60.22289434573304
 30
0.0
 40
14.6533362856372
100
AcDbArc
 50
44.51996849018961
 51
53.60815890341181
  0
ARC
  5
376F
330
1F
100
AcDbEntity
  8
AM_0
100
AcDbCircle
 10
-38.51782016811659
 20
-70.66270647099077
 30
0.0
 40
29.5427288297666
100
AcDbArc
 50
40.00503882304381
 51
44.51996595526393
  0
ARC
  5
3770
330
1F
100
AcDbEntity
  8
AM_0
100
AcDbCircle
 10
-25.61589038083291
 20
-59.83476753974628
 30
0.0
 40
12.6992114119939
100
AcDbArc
 50
38.54868705161189
 51
40.00503632674614
  0
ARC
  5
3771
330
1F
100
AcDbEntity
  8
AM_0
100
AcDbCircle
 10
-18.32967082810093
 20
-54.02893040628908
 30
0.0
 40
3.382734476615041
100
AcDbArc
 50
33.08522064577745
 51
38.54867838844058
  0
ARC
  5
3772
330
1F
100
AcDbEntity
  8
AM_0
100
AcDbCircle
 10
-17.23160192187272
 20
-53.31351222645242
 30
0.0
 40
2.07217050627428
100
AcDbArc
 50
30.66279366379459
 51
33.08522964972011
  0
ARC
  5
3773
330
1F
100
AcDbEntity
  8
AM_0
100
AcDbCircle
 10
-15.90837183586278
 20
-52.52899697273182
 30
0.0
 40
0.5338590634399699
100
AcDbArc
 50
21.27977905310955
 51
30.66274947038649
  0
ARC
  5
3774
330
1F
100
AcDbEntity
  8
AM_0
100
AcDbCircle
 10
-15.85367429918257
 20
-52.50769325636338
 30
0.0
 40
0.475159338438169
100
AcDbArc
 50
16.15840564515307
 51
21.27974835094826
  0
ARC
  5
3775
330
1F
100
AcDbEntity
  8
AM_0
100
AcDbCircle
 10
-15.43182642163758
 20
-52.38546770273473
 30
0.0
 40
0.0359619999999996
100
AcDbArc
 50
315.00000342
 51
16.15926477057835
  0
ARC
  5
3776
330
1F
100
AcDbEntity
  8
AM_0
100
AcDbCircle
 10
43.37884850792396
 20
29.38100876242561
 30
0.0
 40
97.2706887821673
100
AcDbArc
 50
226.6655441867662
 51
226.7702526571401
  0
ARC
  5
3777
330
1F
100
AcDbEntity
  8
AM_0
100
AcDbCircle
 10
41.64001152510828
 20
27.53126045256352
 30
0.0
 40
94.7319641822361
100
AcDbArc
 50
226.7702524626359
 51
226.8777665186131
  0
ARC
  5
3778
330
1F
100
AcDbEntity
  8
AM_0
100
AcDbCircle
 10
40.74007395362422
 20
26.57031359692206
 30
0.0
 40
93.41541328272041
100
AcDbArc
 50
226.8777663943531
 51
226.9852786087139
  0
ARC
  5
3779
330
1F
100
AcDbEntity
  8
AM_0
100
AcDbCircle
 10
38.87803847214455
 20
24.57455409335228
 30
0.0
 40
90.6859020462451
100
AcDbArc
 50
226.9852789382971
 51
227.0960262171291
  0
ARC
  5
377A
330
1F
100
AcDbEntity
  8
AM_0
100
AcDbCircle
 10
37.92132871549855
 20
23.54515505526251
 30
0.0
 40
89.2805705068117
100
AcDbArc
 50
227.096026257645
 51
227.2067708594862
  0
ARC
  5
377B
330
1F
100
AcDbEntity
  8
AM_0
100
AcDbCircle
 10
35.9549221594519
 20
21.42112566824881
 30
0.0
 40
86.3860490268595
100
AcDbArc
 50
227.2067708432491
 51
227.3212261907721
  0
ARC
  5
377C
330
1F
100
AcDbEntity
  8
AM_0
100
AcDbCircle
 10
34.95105404089405
 20
20.33243430952803
 30
0.0
 40
84.9051709394393
100
AcDbArc
 50
227.321225769591
 51
227.435677489729
  0
ARC
  5
377D
330
1F
100
AcDbEntity
  8
AM_0
100
AcDbCircle
 10
32.89981659794917
 20
18.09894125218915
 30
0.0
 40
81.8726697849693
100
AcDbArc
 50
227.4356777942142
 51
227.5543685281911
  0
ARC
  5
377E
330
1F
100
AcDbEntity
  8
AM_0
100
AcDbCircle
 10
31.85869739001579
 20
16.9605919033225
 30
0.0
 40
80.33001921404879
100
AcDbArc
 50
227.554368356534
 51
227.6730554886129
  0
ARC
  5
377F
330
1F
100
AcDbEntity
  8
AM_0
100
AcDbCircle
 10
29.74264088801486
 20
14.63727223927333
 30
0.0
 40
77.1874871628312
100
AcDbArc
 50
227.6730555931461
 51
227.796573678098
  0
ARC
  5
3780
330
1F
100
AcDbEntity
  8
AM_0
100
AcDbCircle
 10
28.67435251859568
 20
13.45925631968066
 30
0.0
 40
75.5972157838609
100
AcDbArc
 50
227.7965738958698
 51
227.920087039386
  0
ARC
  5
3781
330
1F
100
AcDbEntity
  8
AM_0
100
AcDbCircle
 10
26.51371223108829
 20
11.06634249645913
 30
0.0
 40
72.37318111197091
100
AcDbArc
 50
227.920087093761
 51
228.049102678279
  0
ARC
  5
3782
330
1F
100
AcDbEntity
  8
AM_0
100
AcDbCircle
 10
24.05874866560033
 20
8.33512472991913
 30
0.0
 40
68.7007983703606
100
AcDbArc
 50
228.0491021066021
 51
228.5603617282019
  0
ARC
  5
3783
330
1F
100
AcDbEntity
  8
AM_0
100
AcDbCircle
 10
15.25292931175186
 20
-1.639196771899378
 30
0.0
 40
55.3955531704901
100
AcDbArc
 50
228.5603623538042
 51
229.1944172580112
  0
ARC
  5
3788
330
1F
100
AcDbEntity
  8
AM_0
100
AcDbCircle
 10
-12.82115046458732
 20
-56.47742731448511
 30
0.0
 40
0.123363133107099
100
AcDbArc
 50
219.9117907516969
 51
315.00000342
  0
ARC
  5
3789
330
1F
100
AcDbEntity
  8
AM_0
100
AcDbCircle
 10
-13.77694806720787
 20
-57.27693462424821
 30
0.0
 40
1.12273517583177
100
AcDbArc
 50
39.9118772636767
 51
53.6081764080123
  0
ARC
  5
3794
330
1F
100
AcDbEntity
  8
AM_0
100
AcDbCircle
 10
-22.05676506899475
 20
-63.22501412422389
 30
0.0
 40
11.5310243565763
100
AcDbArc
 50
39.24146856512265
 51
40.00504121141854
  0
ARC
  5
3795
330
1F
100
AcDbEntity
  8
AM_0
100
AcDbCircle
 10
-19.31990557741834
 20
-60.98958638180676
 30
0.0
 40
7.997252931012059
100
AcDbArc
 50
38.14052120153611
 51
39.2414728601717
  0
ARC
  5
3796
330
1F
100
AcDbEntity
  8
AM_0
100
AcDbCircle
 10
-18.22301684111712
 20
-60.12826166749017
 30
0.0
 40
6.60260509444
100
AcDbArc
 50
37.06234788025706
 51
38.1405164588395
  0
ARC
  5
3797
330
1F
100
AcDbEntity
  8
AM_0
100
AcDbCircle
 10
-16.11755841179076
 20
-58.53809011379769
 30
0.0
 40
3.9641197025592
100
AcDbArc
 50
35.26664392920001
 51
37.06235045304303
  0
ARC
  5
3798
330
1F
100
AcDbEntity
  8
AM_0
100
AcDbCircle
 10
-15.41214871665506
 20
-58.03924886498146
 30
0.0
 40
3.10014954353189
100
AcDbArc
 50
33.56441154708018
 51
35.2666493882187
  0
ARC
  5
3799
330
1F
100
AcDbEntity
  8
AM_0
100
AcDbCircle
 10
-14.04330530089591
 20
-57.13101608478155
 30
0.0
 40
1.45740167267812
100
AcDbArc
 50
29.94437119732801
 51
33.56439721384142
  0
ARC
  5
379A
330
1F
100
AcDbEntity
  8
AM_0
100
AcDbCircle
 10
-13.754232280512
 20
-56.96449312766401
 30
0.0
 40
1.12379557582373
100
AcDbArc
 50
26.95104889234697
 51
29.94434564754983
  0
ARC
  5
379B
330
1F
100
AcDbEntity
  8
AM_0
100
AcDbCircle
 10
-13.02828961092022
 20
-56.59538758719361
 30
0.0
 40
0.30940515150527
100
AcDbArc
 50
16.10911096939402
 51
26.95102108584709
  0
ARC
  5
379C
330
1F
100
AcDbEntity
  8
AM_0
100
AcDbCircle
 10
-12.90989518905327
 20
-56.5611940175088
 30
0.0
 40
0.186171762845495
100
AcDbArc
 50
6.843139825826667
 51
16.10899870147201
  0
ARC
  5
379D
330
1F
100
AcDbEntity
  8
AM_0
100
AcDbCircle
 10
-12.7558682413311
 20
-56.54270952994784
 30
0.0
 40
0.0310400000000008
100
AcDbArc
 50
315.00000342
 51
6.842673157069776
  0
ARC
  5
379E
330
1F
100
AcDbEntity
  8
AM_0
100
AcDbCircle
 10
-22.3877748043541
 20
-45.96473348379675
 30
0.0
 40
0.205295856940657
100
AcDbArc
 50
37.47114520772799
 51
135.00000342
  0
ARC
  5
379F
330
1F
100
AcDbEntity
  8
AM_0
100
AcDbCircle
 10
-20.82390499172418
 20
-44.76597526430328
 30
0.0
 40
1.76516349551112
100
AcDbArc
 50
217.471390629622
 51
232.5878129375593
  0
ARC
  5
37A0
330
1F
100
AcDbEntity
  8
AM_0
100
AcDbCircle
 10
-30.88066322720449
 20
-57.9138677351815
 30
0.0
 40
14.7879459282341
100
AcDbArc
 50
47.67898576797307
 51
52.58780275326026
  0
ARC
  5
37A1
330
1F
100
AcDbEntity
  8
AM_0
100
AcDbCircle
 10
-55.01108077587453
 20
-84.41331805446578
 30
0.0
 40
50.62783951648561
100
AcDbArc
 50
46.24435996933306
 51
47.67898511291959
  0
ARC
  5
37AA
330
1F
100
AcDbEntity
  8
AM_0
100
AcDbCircle
 10
-21.90906885622839
 20
-51.22717768430471
 30
0.0
 40
14.3220494611618
100
AcDbArc
 50
45.03983669414923
 51
53.80451836422344
  0
ARC
  5
37AB
330
1F
100
AcDbEntity
  8
AM_0
100
AcDbCircle
 10
-21.64035698173073
 20
-50.95809242532539
 30
0.0
 40
13.9417696558382
100
AcDbArc
 50
36.03705944477888
 51
45.03983825163743
  0
SPLINE
  5
3835
330
1F
100
AcDbEntity
  8
AM_0
100
AcDbSpline
210
0.0
220
0.0
230
1.0
 70
     8
 71
     3
 72
    11
 73
     7
 74
     5
 42
0.0000000001
 43
0.0000000001
 44
0.0000000001
 40
0.0
 40
0.0
 40
0.0
 40
0.0
 40
0.1450271952876763
 40
0.3281558311942536
 40
0.5414757587326585
 40
0.7739806943211218
 40
0.7739806943211218
 40
0.7739806943211218
 40
0.7739806943211218
 10
-25.49222347063777
 20
-41.13679312203016
 30
0.0
 10
-25.53640518769829
 20
-41.15663460762897
 30
0.0
 10
-25.63637601080375
 20
-41.20153031967728
 30
0.0
 10
-25.78485708177437
 20
-41.30556733592809
 30
0.0
 10
-25.94835521091077
 20
-41.43686838862745
 30
0.0
 10
-26.05531111916428
 20
-41.54018877637747
 30
0.0
 10
-26.11109036930496
 20
-41.59407204329602
 30
0.0
 11
-25.49222347063777
 21
-41.13679312203016
 31
0.0
 11
-25.62281831118365
 21
-41.19986351917339
 31
0.0
 11
-25.77537164343003
 21
-41.30117283814025
 31
0.0
 11
-25.94132181879921
 21
-41.43520988816721
 31
0.0
 11
-26.11109036930496
 21
-41.59407204329602
 31
0.0
  0
SPLINE
  5
383A
330
1F
100
AcDbEntity
  8
AM_0
100
AcDbSpline
210
0.0
220
0.0
230
1.0
 70
     8
 71
     3
 72
    11
 73
     7
 74
     5
 42
0.0000000001
 43
0.0000000001
 44
0.0000000001
 40
0.0
 40
0.0
 40
0.0
 40
0.0
 40
0.2489506756789585
 40
0.4974138986557616
 40
0.7482751623056079
 40
1.003506718679426
 40
1.003506718679426
 40
1.003506718679426
 40
1.003506718679426
 10
-30.20949375458154
 20
-33.87582711590471
 30
0.0
 10
-30.27488468707085
 20
-33.82377394180645
 30
0.0
 10
-30.40553851469167
 20
-33.71976951524684
 30
0.0
 10
-30.64675379533903
 20
-33.64087137529158
 30
0.0
 10
-30.90170261876424
 20
-33.62346791158889
 30
0.0
 10
-31.06523017550147
 20
-33.66925651589001
 30
0.0
 10
-31.14770001337449
 20
-33.6923485185377
 30
0.0
 11
-30.20949375458154
 21
-33.87582711590471
 31
0.0
 11
-30.41310445366774
 21
-33.73258214343224
 31
0.0
 11
-30.64789926521199
 21
-33.65130871823112
 31
0.0
 11
-30.89839042904684
 21
-33.63768702815025
 31
0.0
 11
-31.14770001337449
 21
-33.6923485185377
 31
0.0
  0
SPLINE
  5
383B
330
1F
100
AcDbEntity
  8
AM_0
100
AcDbSpline
210
0.0
220
0.0
230
1.0
 70
     8
 71
     3
 72
    11
 73
     7
 74
     5
 42
0.0000000001
 43
0.0000000001
 44
0.0000000001
 40
0.0
 40
0.0
 40
0.0
 40
0.0
 40
0.0363086408035336
 40
0.0732010030754092
 40
0.1106266250207924
 40
0.1485379139067729
 40
0.1485379139067729
 40
0.1485379139067729
 40
0.1485379139067729
 10
-30.20949375458154
 20
-33.87582711590471
 30
0.0
 10
-30.2006811317657
 20
-33.88412285964495
 30
0.0
 10
-30.18291420864304
 20
-33.90084771493019
 30
0.0
 10
-30.15634062864676
 20
-33.9264151346484
 30
0.0
 10
-30.1295628375614
 20
-33.95253939454751
 30
0.0
 10
-30.11176661032193
 20
-33.97025745379088
 30
0.0
 10
-30.10281113412161
 20
-33.97917359403425
 30
0.0
 11
-30.20949375458154
 21
-33.87582711590471
 31
0.0
 11
-30.18310099248537
 21
-33.90076182075427
 31
0.0
 11
-30.15649821963784
 21
-33.92632231509265
 31
0.0
 11
-30.12972291270067
 21
-33.95247112226275
 31
0.0
 11
-30.10281113412161
 21
-33.97917359403425
 31
0.0
  0
SPLINE
  5
383C
330
1F
100
AcDbEntity
  8
AM_0
100
AcDbSpline
210
0.0
220
0.0
230
1.0
 70
     8
 71
     3
 72
    11
 73
     7
 74
     5
 42
0.0000000001
 43
0.0000000001
 44
0.0000000001
 40
0.0
 40
0.0
 40
0.0
 40
0.0
 40
0.2367307803413226
 40
0.4473034892900292
 40
0.6521549660164727
 40
0.8749114966502607
 40
0.8749114966502607
 40
0.8749114966502607
 40
0.8749114966502607
 10
-24.47211589484009
 20
-40.76686590592124
 30
0.0
 10
-24.39940144082132
 20
-40.734024625145
 30
0.0
 10
-24.26200727113405
 20
-40.67197093080588
 30
0.0
 10
-24.11870567747228
 20
-40.4982588625204
 30
0.0
 10
-24.06449574971753
 20
-40.28303934114433
 30
0.0
 10
-24.10297772959098
 20
-40.14363540138552
 30
0.0
 10
-24.12302438957157
 20
-40.07101482964026
 30
0.0
 11
-24.47211589484009
 21
-40.76686590592124
 31
0.0
 11
-24.26492583661324
 21
-40.65235065744764
 31
0.0
 11
-24.13183562221217
 21
-40.48917020339547
 31
0.0
 11
-24.08318456622395
 21
-40.29017974566386
 31
0.0
 11
-24.12302438957157
 21
-40.07101482964026
 31
0.0
  0
SPLINE
  5
383D
330
1F
100
AcDbEntity
  8
AM_0
100
AcDbSpline
210
0.0
220
0.0
230
1.0
 70
     8
 71
     3
 72
    11
 73
     7
 74
     5
 42
0.0000000001
 43
0.0000000001
 44
0.0000000001
 40
0.0
 40
0.0
 40
0.0
 40
0.0
 40
0.0733922062959889
 40
0.146928572387982
 40
0.2205642644468614
 40
0.2942545857176814
 40
0.2942545857176814
 40
0.2942545857176814
 40
0.2942545857176814
 10
-23.97247496786052
 20
-40.4736845553752
 30
0.0
 10
-23.96433515382836
 20
-40.49676505679685
 30
0.0
 10
-23.94803953722806
 20
-40.54297139524927
 30
0.0
 10
-23.92942802076516
 20
-40.61416722767994
 30
0.0
 10
-23.91474722729343
 20
-40.6863766804114
 30
0.0
 10
-23.90897433359084
 20
-40.73516427387001
 30
0.0
 10
-23.90608681643083
 20
-40.75956711593938
 30
0.0
 11
-23.97247496786052
 21
-40.4736845553752
 31
0.0
 11
-23.9490280099519
 21
-40.54323062722563
 31
0.0
 11
-23.93009451453746
 21
-40.61428778653703
 31
0.0
 11
-23.91575509181057
 21
-40.68651379363178
 31
0.0
 11
-23.90608681643083
 21
-40.75956711593938
 31
0.0
  0
SPLINE
  5
383E
330
1F
100
AcDbEntity
  8
AM_0
100
AcDbSpline
210
0.0
220
0.0
230
1.0
 70
     8
 71
     3
 72
    11
 73
     7
 74
     5
 42
0.0000000001
 43
0.0000000001
 44
0.0000000001
 40
0.0
 40
0.0
 40
0.0
 40
0.0
 40
0.025523769705982
 40
0.0515419241370474
 40
0.078062948796774
 40
0.105093635062523
 40
0.105093635062523
 40
0.105093635062523
 40
0.105093635062523
 10
-23.88932768239987
 20
-40.69607387573603
 30
0.0
 10
-23.89239647282217
 20
-40.68813748286236
 30
0.0
 10
-23.89859349485147
 20
-40.67211097251028
 30
0.0
 10
-23.90914187030028
 20
-40.64831515744862
 30
0.0
 10
-23.92063014924578
 20
-40.62440167255839
 30
0.0
 10
-23.92906164042854
 20
-40.60866557879054
 30
0.0
 10
-23.93331750805582
 20
-40.60072265023911
 30
0.0
 11
-23.88932768239987
 21
-40.69607387573603
 31
0.0
 11
-23.89872230451128
 21
-40.67234195850654
 31
0.0
 11
-23.90919314314878
 21
-40.64852377431407
 31
0.0
 11
-23.92072817749572
 21
-40.62464265768153
 31
0.0
 11
-23.93331750805582
 21
-40.60072265023911
 31
0.0
  0
SPLINE
  5
383F
330
1F
100
AcDbEntity
  8
AM_0
100
AcDbSpline
210
0.0
220
0.0
230
1.0
 70
     8
 71
     3
 72
    11
 73
     7
 74
     5
 42
0.0000000001
 43
0.0000000001
 44
0.0000000001
 40
0.0
 40
0.0
 40
0.0
 40
0.0
 40
0.0733922062960246
 40
0.1469285723879078
 40
0.220564264446843
 40
0.2942537919524456
 40
0.2942537919524456
 40
0.2942537919524456
 40
0.2942537919524456
 10
-23.81779179924676
 20
-40.8874077740669
 30
0.0
 10
-23.80965198151891
 20
-40.91048827499666
 30
0.0
 10
-23.79335635752
 20
-40.95669461246428
 30
0.0
 10
-23.7747448966558
 20
-41.02789045229532
 30
0.0
 10
-23.76006394425774
 20
-41.10009961733417
 30
0.0
 10
-23.75429158781162
 20
-41.14888701484561
 30
0.0
 10
-23.75140435492396
 20
-41.17328962752436
 30
0.0
 11
-23.81779179924676
 21
-40.8874077740669
 31
0.0
 11
-23.7943448413382
 21
-40.95695384591738
 31
0.0
 11
-23.77541134592376
 21
-41.02801100522868
 31
0.0
 11
-23.76107192319687
 21
-41.10023701232348
 31
0.0
 11
-23.75140435492396
 21
-41.17328962752436
 31
0.0
  0
SPLINE
  5
3840
330
1F
100
AcDbEntity
  8
AM_0
100
AcDbSpline
210
0.0
220
0.0
230
1.0
 70
     8
 71
     3
 72
    11
 73
     7
 74
     5
 42
0.0000000001
 43
0.0000000001
 44
0.0000000001
 40
0.0
 40
0.0
 40
0.0
 40
0.0
 40
0.0255242902741647
 40
0.0515418755964092
 40
0.0780629002561093
 40
0.105093586521906
 40
0.105093586521906
 40
0.105093586521906
 40
0.105093586521906
 10
-23.73464451378617
 20
-41.10979709442768
 30
0.0
 10
-23.7377140110715
 20
-41.10186080040555
 30
0.0
 10
-23.74391232826368
 20
-41.08583483162085
 30
0.0
 10
-23.75445825658834
 20
-41.06203797733613
 30
0.0
 10
-23.76594711648052
 20
-41.03812494993366
 30
0.0
 10
-23.77437851738401
 20
-41.02238881716711
 30
0.0
 10
-23.77863433944206
 20
-41.01444586893075
 30
0.0
 11
-23.73464451378617
 21
-41.10979709442768
 31
0.0
 11
-23.74404055011114
 21
-41.08606517719835
 31
0.0
 11
-23.75450997453508
 21
-41.06224699300577
 31
0.0
 11
-23.76604500888207
 21
-41.03836587637329
 31
0.0
 11
-23.77863433944206
 21
-41.01444586893075
 31
0.0
  0
SPLINE
  5
3841
330
1F
100
AcDbEntity
  8
AM_0
100
AcDbSpline
210
0.0
220
0.0
230
1.0
 70
     8
 71
     3
 72
    11
 73
     7
 74
     5
 42
0.0000000001
 43
0.0000000001
 44
0.0000000001
 40
0.0
 40
0.0
 40
0.0
 40
0.0
 40
0.0733931022508
 40
0.1469291042361932
 40
0.2205650717045585
 40
0.2942545992102175
 40
0.2942545992102175
 40
0.2942545992102175
 40
0.2942545992102175
 10
-23.6631093377399
 20
-41.30113028565188
 30
0.0
 10
-23.6549690507644
 20
-41.32421095984593
 30
0.0
 10
-23.6386726273015
 20
-41.37041724736474
 30
0.0
 10
-23.62006408034745
 20
-41.44161411055089
 30
0.0
 10
-23.60538020157273
 20
-41.51382261963865
 30
0.0
 10
-23.59960822419663
 20
-41.56261019179917
 30
0.0
 10
-23.59672118631026
 20
-41.58701284621611
 30
0.0
 11
-23.6631093377399
 21
-41.30113028565188
 31
0.0
 11
-23.6396616727245
 21
-41.37067706460908
 31
0.0
 11
-23.62072959152361
 21
-41.44173422392043
 31
0.0
 11
-23.60638875458317
 21
-41.51396023101518
 31
0.0
 11
-23.59672118631026
 21
-41.58701284621611
 31
0.0
  0
SPLINE
  5
3842
330
1F
100
AcDbEntity
  8
AM_0
100
AcDbSpline
210
0.0
220
0.0
230
1.0
 70
     8
 71
     3
 72
    11
 73
     7
 74
     5
 42
0.0000000001
 43
0.0000000001
 44
0.0000000001
 40
0.0
 40
0.0
 40
0.0
 40
0.0
 40
0.0255242902742384
 40
0.0515415128200932
 40
0.0780625374797686
 40
0.1050935201662752
 40
0.1050935201662752
 40
0.1050935201662752
 40
0.1050935201662752
 10
-23.57996134517241
 20
-41.52352031311943
 30
0.0
 10
-23.5830307530601
 20
-41.51558398021211
 30
0.0
 10
-23.58922884610377
 20
-41.49955804570454
 30
0.0
 10
-23.59977610015985
 20
-41.47576190017867
 30
0.0
 10
-23.61126484060343
 20
-41.45184886874097
 30
0.0
 10
-23.6196956328727
 20
-41.43611229937444
 30
0.0
 10
-23.62395117082836
 20
-41.42816908762251
 30
0.0
 11
-23.57996134517241
 21
-41.52352031311943
 31
0.0
 11
-23.58935738149744
 21
-41.49978839589005
 31
0.0
 11
-23.59982751302816
 21
-41.47597091880431
 31
0.0
 11
-23.61136254737509
 21
-41.45208980217183
 31
0.0
 11
-23.62395117082836
 21
-41.42816908762251
 31
0.0
  0
SPLINE
  5
3843
330
1F
100
AcDbEntity
  8
AM_0
100
AcDbSpline
210
0.0
220
0.0
230
1.0
 70
     8
 71
     3
 72
    11
 73
     7
 74
     5
 42
0.0000000001
 43
0.0000000001
 44
0.0000000001
 40
0.0
 40
0.0
 40
0.0
 40
0.0
 40
0.0965145760235486
 40
0.1983856646257619
 40
0.3055978090964497
 40
0.4179583066478712
 40
0.4179583066478712
 40
0.4179583066478712
 40
0.4179583066478712
 10
-24.12302438957157
 20
-40.07101482964026
 30
0.0
 10
-24.13547976987366
 20
-40.04130599148598
 30
0.0
 10
-24.16108179809782
 20
-39.98023948893967
 30
0.0
 10
-24.21459908959583
 20
-39.89318918783337
 30
0.0
 10
-24.27869742544857
 20
-39.80709218637928
 30
0.0
 10
-24.32922322704908
 20
-39.75404901328315
 30
0.0
 10
-24.3550784709207
 20
-39.72690557106785
 30
0.0
 11
-24.12302438957157
 21
-40.07101482964026
 31
0.0
 11
-24.16255378521588
 21
-39.98296660271319
 31
0.0
 11
-24.21486908563962
 21
-39.89555477265242
 31
0.0
 11
-24.27927803324029
 21
-39.80984636354935
 31
0.0
 11
-24.3550784709207
 21
-39.72690557106785
 31
0.0
  0
SPLINE
  5
3844
330
1F
100
AcDbEntity
  8
AM_0
100
AcDbSpline
210
0.0
220
0.0
230
1.0
 70
     8
 71
     3
 72
    11
 73
     7
 74
     5
 42
0.0000000001
 43
0.0000000001
 44
0.0000000001
 40
0.0
 40
0.0
 40
0.0
 40
0.0
 40
0.075309801652884
 40
0.1529703661112694
 40
0.2346259611002471
 40
0.3215676360092854
 40
0.3215676360092854
 40
0.3215676360092854
 40
0.3215676360092854
 10
-23.87550514022898
 20
-41.01123843835353
 30
0.0
 10
-23.86860640910467
 20
-40.98701197053364
 30
0.0
 10
-23.85459360595517
 20
-40.93780281620506
 30
0.0
 10
-23.85228764439902
 20
-40.85897512918023
 30
0.0
 10
-23.86246138379731
 20
-40.77711181830537
 30
0.0
 10
-23.88018699740222
 20
-40.72364530702405
 30
0.0
 10
-23.88932768239987
 20
-40.69607387573603
 30
0.0
 11
-23.87550514022898
 21
-41.01123843835353
 31
0.0
 11
-23.85784091009803
 21
-40.93802955092258
 31
0.0
 11
-23.85426295441589
 21
-40.8604514515315
 31
0.0
 11
-23.86476703048395
 21
-40.77947429068377
 31
0.0
 11
-23.88932768239987
 21
-40.69607387573603
 31
0.0
  0
SPLINE
  5
3845
330
1F
100
AcDbEntity
  8
AM_0
100
AcDbSpline
210
0.0
220
0.0
230
1.0
 70
     8
 71
     3
 72
    11
 73
     7
 74
     5
 42
0.0000000001
 43
0.0000000001
 44
0.0000000001
 40
0.0
 40
0.0
 40
0.0
 40
0.0
 40
0.075309801652884
 40
0.1529703661113288
 40
0.2346253508336521
 40
0.3215675042979023
 40
0.3215675042979023
 40
0.3215675042979023
 40
0.3215675042979023
 10
-23.72082197161528
 20
-41.42496165704529
 30
0.0
 10
-23.71392326601747
 20
-41.40073519320463
 30
0.0
 10
-23.69991051471776
 20
-41.35152604695868
 30
0.0
 10
-23.69760415407717
 20
-41.27269850181958
 30
0.0
 10
-23.70777950149074
 20
-41.19083549042312
 30
0.0
 10
-23.72550422852233
 20
-41.13736879432408
 30
0.0
 10
-23.73464451378617
 20
-41.10979709442768
 30
0.0
 11
-23.72082197161528
 21
-41.42496165704529
 31
0.0
 11
-23.70315774148433
 21
-41.35175276961434
 31
0.0
 11
-23.69957978580213
 21
-41.2741746702232
 31
0.0
 11
-23.71008456897697
 21
-41.1931982164823
 31
0.0
 11
-23.73464451378617
 21
-41.10979709442768
 31
0.0
  0
SPLINE
  5
3846
330
1F
100
AcDbEntity
  8
AM_0
100
AcDbSpline
210
0.0
220
0.0
230
1.0
 70
     8
 71
     3
 72
    11
 73
     7
 74
     5
 42
0.0000000001
 43
0.0000000001
 44
0.0000000001
 40
0.0
 40
0.0
 40
0.0
 40
0.0
 40
0.010244098837877
 40
0.0205686044918935
 40
0.0309750658020475
 40
0.0414640795783144
 40
0.0414640795783144
 40
0.0414640795783144
 40
0.0414640795783144
 10
-23.56672218256328
 20
-41.56280645798506
 30
0.0
 10
-23.56771900963022
 20
-41.55954040024275
 30
0.0
 10
-23.56972048794578
 20
-41.55298264918896
 30
0.0
 10
-23.57294847407212
 20
-41.54317451628879
 30
0.0
 10
-23.5763426955476
 20
-41.53333631057558
 30
0.0
 10
-23.57875195584852
 20
-41.5268009188032
 30
0.0
 10
-23.57996134517241
 20
-41.52352031311943
 30
0.0
 11
-23.56672218256328
 21
-41.56280645798506
 31
0.0
 11
-23.56974789306416
 21
-41.55301939320725
 31
0.0
 11
-23.57296310818389
 21
-41.54320828681023
 31
0.0
 11
-23.57636782792223
 21
-41.53337455300749
 31
0.0
 11
-23.57996134517241
 21
-41.52352031311943
 31
0.0
  0
SPLINE
  5
3847
330
1F
100
AcDbEntity
  8
AM_0
100
AcDbSpline
210
0.0
220
0.0
230
1.0
 70
     8
 71
     3
 72
    11
 73
     7
 74
     5
 42
0.0000000001
 43
0.0000000001
 44
0.0000000001
 40
0.0
 40
0.0
 40
0.0
 40
0.0
 40
0.7603280691497166
 40
1.914901380278129
 40
3.386032823808888
 40
5.048706504482311
 40
5.048706504482311
 40
5.048706504482311
 40
5.048706504482311
 10
-17.34690153120577
 20
-38.25388364070398
 30
0.0
 10
-17.17658592909892
 20
-38.44146887791472
 30
0.0
 10
-16.74764269421081
 20
-38.91390603265023
 30
0.0
 10
-15.95159227625434
 20
-39.71836630819033
 30
0.0
 10
-14.7903609389661
 20
-40.55765513297533
 30
0.0
 10
-13.96956289181384
 20
-41.20318768462968
 30
0.0
 10
-13.53407974718316
 20
-41.54568185421408
 30
0.0
 11
-17.34690153120577
 21
-38.25388364070398
 31
0.0
 11
-16.83260505815285
 21
-38.8138817751136
 31
0.0
 11
-16.00789647152912
 21
-39.62190113002976
 31
0.0
 11
-14.84835231210643
 21
-40.52726573420512
 31
0.0
 11
-13.53407974718316
 21
-41.54568185421408
 31
0.0
  0
SPLINE
  5
384A
330
1F
100
AcDbEntity
  8
AM_0
100
AcDbSpline
210
0.0
220
0.0
230
1.0
 70
     8
 71
     3
 72
    11
 73
     7
 74
     5
 42
0.0000000001
 43
0.0000000001
 44
0.0000000001
 40
0.0
 40
0.0
 40
0.0
 40
0.0
 40
0.2087076098492879
 40
0.4178093206720351
 40
0.6273046769021788
 40
0.8371431658716719
 40
0.8371431658716719
 40
0.8371431658716719
 40
0.8371431658716719
 10
-22.77679980882321
 20
-40.78290935048574
 30
0.0
 10
-22.82675453028748
 20
-40.83132851847255
 30
0.0
 10
-22.92675830233209
 20
-40.92825828398844
 30
0.0
 10
-23.07612697130268
 20
-41.07458933895492
 30
0.0
 10
-23.22525439798135
 20
-41.22170360159649
 30
0.0
 10
-23.32421405288648
 20
-41.32042002202478
 30
0.0
 10
-23.37373436872063
 20
-41.36981862110349
 30
0.0
 11
-22.77679980882321
 21
-40.78290935048574
 31
0.0
 11
-22.92653461080856
 21
-40.92829970602355
 31
0.0
 11
-23.07594838626186
 21
-41.07458384451365
 31
0.0
 11
-23.22503618543577
 21
-41.22176105884887
 31
0.0
 11
-23.37373436872063
 21
-41.36981862110349
 31
0.0
  0
SPLINE
  5
384B
330
1F
100
AcDbEntity
  8
AM_0
100
AcDbSpline
210
0.0
220
0.0
230
1.0
 70
     8
 71
     3
 72
    11
 73
     7
 74
     5
 42
0.0000000001
 43
0.0000000001
 44
0.0000000001
 40
0.0
 40
0.0
 40
0.0
 40
0.0
 40
0.4190510406823648
 40
0.8415835133422076
 40
1.267822130369071
 40
1.696761721645077
 40
1.696761721645077
 40
1.696761721645077
 40
1.696761721645077
 10
-22.77679980882321
 20
-40.78290935048574
 30
0.0
 10
-22.89917548836533
 20
-40.71553941268735
 30
0.0
 10
-23.14494353172583
 20
-40.58023983473211
 30
0.0
 10
-23.5074912728502
 20
-40.36293893867902
 30
0.0
 10
-23.86750654202517
 20
-40.13525206537247
 30
0.0
 10
-24.10294482246313
 20
-39.97450634496489
 30
0.0
 10
-24.22103576397835
 20
-39.89387963705588
 30
0.0
 11
-22.77679980882321
 21
-40.78290935048574
 31
0.0
 11
-23.14266040513938
 21
-40.57858167551206
 31
0.0
 11
-23.50554903237718
 21
-40.36214338251955
 31
0.0
 11
-23.86537376665113
 21
-40.13365811111316
 31
0.0
 11
-24.22103576397835
 21
-39.89387963705588
 31
0.0
  0
SPLINE
  5
384D
330
1F
100
AcDbEntity
  8
AM_0
100
AcDbSpline
210
0.0
220
0.0
230
1.0
 70
     8
 71
     3
 72
    11
 73
     7
 74
     5
 42
0.0000000001
 43
0.0000000001
 44
0.0000000001
 40
0.0
 40
0.0
 40
0.0
 40
0.0
 40
0.1375365922836136
 40
0.3275729422644074
 40
0.5588882712268636
 40
0.8115082064219849
 40
0.8115082064219849
 40
0.8115082064219849
 40
0.8115082064219849
 10
-29.9577587990148
 20
-33.73705810217746
 30
0.0
 10
-29.93262306268806
 20
-33.7753988010986
 30
0.0
 10
-29.87275690657773
 20
-33.86671541252206
 30
0.0
 10
-29.77100563536278
 20
-34.02276963778323
 30
0.0
 10
-29.64765537066438
 20
-34.21053578438789
 30
0.0
 10
-29.55826904212313
 20
-34.34481785010775
 30
0.0
 10
-29.51160832075014
 20
-34.41491467762262
 30
0.0
 11
-29.9577587990148
 21
-33.73705810217746
 31
0.0
 11
-29.88239181587481
 21
-33.85210649229816
 31
0.0
 11
-29.77843862426322
 21
-34.01118995551099
 31
0.0
 11
-29.65136798861276
 21
-34.20447687945671
 31
0.0
 11
-29.51160832075014
 21
-34.41491467762262
 31
0.0
  0
SPLINE
  5
384E
330
1F
100
AcDbEntity
  8
AM_0
100
AcDbSpline
210
0.0
220
0.0
230
1.0
 70
     8
 71
     3
 72
    11
 73
     7
 74
     5
 42
0.0000000001
 43
0.0000000001
 44
0.0000000001
 40
0.0
 40
0.0
 40
0.0
 40
0.0
 40
0.1523704535990947
 40
0.3047598257908482
 40
0.4571770475080912
 40
0.609630857037382
 40
0.609630857037382
 40
0.609630857037382
 40
0.609630857037382
 10
-29.51160832075014
 20
-34.41491467762262
 30
0.0
 10
-29.48333471313162
 20
-34.45710789295839
 30
0.0
 10
-29.42678398739202
 20
-34.54149956241627
 30
0.0
 10
-29.34079142456134
 20
-34.66731379366517
 30
0.0
 10
-29.25401564168336
 20
-34.79262290303512
 30
0.0
 10
-29.1953960145338
 20
-34.87563621680571
 30
0.0
 10
-29.16608268346526
 20
-34.91714785493753
 30
0.0
 11
-29.51160832075014
 21
-34.41491467762262
 31
0.0
 11
-29.42659427911387
 21
-34.54136374980055
 31
0.0
 11
-29.34066877687216
 21
-34.66721814512113
 31
0.0
 11
-29.25383181402491
 21
-34.7924792777979
 31
0.0
 11
-29.16608268346526
 21
-34.91714785493753
 31
0.0
  0
SPLINE
  5
384F
330
1F
100
AcDbEntity
  8
AM_0
100
AcDbSpline
210
0.0
220
0.0
230
1.0
 70
     8
 71
     3
 72
    11
 73
     7
 74
     5
 42
0.0000000001
 43
0.0000000001
 44
0.0000000001
 40
0.0
 40
0.0
 40
0.0
 40
0.0
 40
0.0681911126540809
 40
0.1383012554937709
 40
0.2103484676951835
 40
0.2841473282961681
 40
0.2841473282961681
 40
0.2841473282961681
 40
0.2841473282961681
 10
-29.9577587990148
 20
-33.73705810217746
 30
0.0
 10
-29.97654753310931
 20
-33.74985183114954
 30
0.0
 10
-30.01465375272171
 20
-33.77579932944398
 30
0.0
 10
-30.07175804653099
 20
-33.81649299467613
 30
0.0
 10
-30.12982117086417
 20
-33.85904911544316
 30
0.0
 10
-30.16849829928879
 20
-33.88850460174865
 30
0.0
 10
-30.18806912457198
 20
-33.90340922883956
 30
0.0
 11
-29.9577587990148
 21
-33.73705810217746
 31
0.0
 11
-30.01398863505885
 21
-33.77563573019501
 31
0.0
 11
-30.07114195243797
 21
-33.81624275472973
 31
0.0
 11
-30.12921945825899
 21
-33.85887846867479
 31
0.0
 11
-30.18806912457198
 21
-33.90340922883956
 31
0.0
  0
SPLINE
  5
3851
330
1F
100
AcDbEntity
  8
AM_0
100
AcDbSpline
210
0.0
220
0.0
230
1.0
 70
     8
 71
     3
 72
    11
 73
     7
 74
     5
 42
0.0000000001
 43
0.0000000001
 44
0.0000000001
 40
0.0
 40
0.0
 40
0.0
 40
0.0
 40
0.3448869708600179
 40
0.7215575966991349
 40
1.1219381101735
 40
1.538129124642837
 40
1.538129124642837
 40
1.538129124642837
 40
1.538129124642837
 10
-28.87960270755791
 20
-33.3448690398115
 30
0.0
 10
-28.9920281146937
 20
-33.3690021023877
 30
0.0
 10
-29.22723968670101
 20
-33.41949225163879
 30
0.0
 10
-29.5874626695953
 20
-33.52073820696283
 30
0.0
 10
-29.96567944183372
 20
-33.64449255420699
 30
0.0
 10
-30.21866240902544
 20
-33.74509458754139
 30
0.0
 10
-30.34760302739862
 20
-33.79636953514648
 30
0.0
 11
-28.87960270755791
 21
-33.3448690398115
 31
0.0
 11
-29.21607027247642
 21
-33.42060938854854
 31
0.0
 11
-29.57910030215537
 21
-33.52105817112619
 31
0.0
 11
-29.95926352763995
 21
-33.64667854192311
 31
0.0
 11
-30.34760302739862
 21
-33.79636953514648
 31
0.0
  0
SPLINE
  5
3852
330
1F
100
AcDbEntity
  8
AM_0
100
AcDbSpline
210
0.0
220
0.0
230
1.0
 70
     8
 71
     3
 72
    11
 73
     7
 74
     5
 42
0.0000000001
 43
0.0000000001
 44
0.0000000001
 40
0.0
 40
0.0
 40
0.0
 40
0.0
 40
2.361424963008751
 40
4.564728961050137
 40
6.599205423022536
 40
8.491927728405228
 40
8.491927728405228
 40
8.491927728405228
 40
8.491927728405228
 10
-20.86018154809254
 20
-35.3125077310803
 30
0.0
 10
-21.51792393687915
 20
-34.87355331288775
 30
0.0
 10
-22.78936629818082
 20
-34.02503685494725
 30
0.0
 10
-24.90444604425354
 20
-33.34524439558531
 30
0.0
 10
-26.95032783932799
 20
-33.0810464457959
 30
0.0
 10
-28.25228585882358
 20
-33.25909446010731
 30
0.0
 10
-28.87976746343581
 20
-33.34490510226721
 30
0.0
 11
-20.86018154809254
 21
-35.3125077310803
 31
0.0
 11
-22.88467853977191
 21
-34.09688452193939
 31
0.0
 11
-24.97369616605344
 21
-33.39648901590709
 31
0.0
 11
-26.99531729552295
 21
-33.16814172951604
 31
0.0
 11
-28.87976746343581
 21
-33.34490510226721
 31
0.0
  0
SPLINE
  5
3856
330
1F
100
AcDbEntity
  8
AM_0
100
AcDbSpline
210
0.0
220
0.0
230
1.0
 70
     8
 71
     3
 72
    11
 73
     7
 74
     5
 42
0.0000000001
 43
0.0000000001
 44
0.0000000001
 40
0.0
 40
0.0
 40
0.0
 40
0.0
 40
0.0652573325611662
 40
0.1303113151372243
 40
0.1951702609580754
 40
0.2598369097734061
 40
0.2598369097734061
 40
0.2598369097734061
 40
0.2598369097734061
 10
-20.65094298554219
 20
-35.46568118953144
 30
0.0
 10
-20.66869475972554
 20
-35.45310936347056
 30
0.0
 10
-20.70414299135044
 20
-35.42800488672636
 30
0.0
 10
-20.75678953575439
 20
-35.3897834747966
 30
0.0
 10
-20.80897254614432
 20
-35.35126214555287
 30
0.0
 10
-20.84340044730645
 20
-35.32520744305741
 30
0.0
 10
-20.86058884161689
 20
-35.31219943254803
 30
0.0
 11
-20.65094298554219
 21
-35.46568118953144
 31
0.0
 11
-20.70412378170589
 21
-35.42786158651404
 31
0.0
 11
-20.75679121836838
 21
-35.38967570215334
 31
0.0
 11
-20.80894670974321
 21
-35.35112070802234
 31
0.0
 11
-20.86058884161689
 21
-35.31219943254803
 31
0.0
  0
SPLINE
  5
3857
330
1F
100
AcDbEntity
  8
AM_0
100
AcDbSpline
210
0.0
220
0.0
230
1.0
 70
     8
 71
     3
 72
    11
 73
     7
 74
     5
 42
0.0000000001
 43
0.0000000001
 44
0.0000000001
 40
0.0
 40
0.0
 40
0.0
 40
0.0
 40
0.2474782742990054
 40
0.495180229838294
 40
0.743163899020406
 40
0.9914116085768027
 40
0.9914116085768027
 40
0.9914116085768027
 40
0.9914116085768027
 10
-19.867777641134
 20
-36.07745366641069
 30
0.0
 10
-19.93059935958853
 20
-36.02398166271666
 30
0.0
 10
-20.05629957740063
 20
-35.91698932508974
 30
0.0
 10
-20.24992096397654
 20
-35.76241717164204
 30
0.0
 10
-20.44693676113485
 20
-35.61177348778526
 30
0.0
 10
-20.5814208201307
 20
-35.51545259496372
 30
0.0
 10
-20.64869862852412
 20
-35.46726652280086
 30
0.0
 11
-19.867777641134
 21
-36.07745366641069
 31
0.0
 11
-20.05707013597332
 21
-35.91803645389109
 31
0.0
 11
-20.25037899705892
 21
-35.76315603871933
 31
0.0
 11
-20.44763280660281
 21
-35.61286686811332
 31
0.0
 11
-20.64869862852412
 21
-35.46726652280086
 31
0.0
  0
SPLINE
  5
3859
330
1F
100
AcDbEntity
  8
AM_0
100
AcDbSpline
210
0.0
220
0.0
230
1.0
 70
     8
 71
     3
 72
    11
 73
     7
 74
     5
 42
0.0000000001
 43
0.0000000001
 44
0.0000000001
 40
0.0
 40
0.0
 40
0.0
 40
0.0
 40
0.7963538240807078
 40
1.592707648161336
 40
2.389061472242123
 40
3.185414196917602
 40
3.185414196917602
 40
3.185414196917602
 40
3.185414196917602
 10
-38.77068623023864
 20
-39.69043952061986
 30
0.0
 10
-38.60371476540851
 20
-39.48407840711026
 30
0.0
 10
-38.26977183574827
 20
-39.07135618009108
 30
0.0
 10
-37.76885736716451
 20
-38.45227289951298
 30
0.0
 10
-37.26794342546641
 20
-37.83318966402365
 30
0.0
 10
-36.93400013357215
 20
-37.42046820150102
 30
0.0
 10
-36.76702860288133
 20
-37.21410761268533
 30
0.0
 11
-38.77068623023864
 21
-39.69043952061986
 31
0.0
 11
-38.26977182339935
 21
-39.07135619008284
 31
0.0
 11
-37.76885741656012
 21
-38.45227285954587
 31
0.0
 11
-37.26794300972078
 21
-37.83318952900879
 31
0.0
 11
-36.76702860288133
 21
-37.21410761268533
 31
0.0
  0
SPLINE
  5
385A
330
1F
100
AcDbEntity
  8
AM_0
100
AcDbSpline
210
0.0
220
0.0
230
1.0
 70
     8
 71
     3
 72
    11
 73
     7
 74
     5
 42
0.0000000001
 43
0.0000000001
 44
0.0000000001
 40
0.0
 40
0.0
 40
0.0
 40
0.0
 40
0.3135884341361634
 40
0.6105751236695548
 40
0.8940315949539858
 40
1.167702188567869
 40
1.167702188567869
 40
1.167702188567869
 40
1.167702188567869
 10
-25.76201221639825
 20
-42.28315535890033
 30
0.0
 10
-25.65862020094549
 20
-42.29922132078185
 30
0.0
 10
-25.45730986628531
 20
-42.33050269341823
 30
0.0
 10
-25.1705619559549
 20
-42.41394802363702
 30
0.0
 10
-24.90543314150835
 20
-42.5203972949197
 30
0.0
 10
-24.74618032101871
 20
-42.61644790694463
 30
0.0
 10
-24.66795254020529
 20
-42.66362965356223
 30
0.0
 11
-25.76201221639825
 21
-42.28315535890033
 31
0.0
 11
-25.45328090716917
 21
-42.33813430692294
 31
0.0
 11
-25.16779078202119
 21
-42.41996634345503
 31
0.0
 11
-24.90593852786729
 21
-42.52850651163044
 31
0.0
 11
-24.66795254020529
 21
-42.66362965356223
 31
0.0
  0
SPLINE
  5
385B
330
1F
100
AcDbEntity
  8
AM_0
100
AcDbSpline
210
0.0
220
0.0
230
1.0
 70
     8
 71
     3
 72
    11
 73
     7
 74
     5
 42
0.0000000001
 43
0.0000000001
 44
0.0000000001
 40
0.0
 40
0.0
 40
0.0
 40
0.0
 40
0.0977329394881418
 40
0.1948038449388046
 40
0.2919021141818483
 40
0.389717040716557
 40
0.389717040716557
 40
0.389717040716557
 40
0.389717040716557
 10
-33.11305235745122
 20
-34.40507833016068
 30
0.0
 10
-33.1433500805873
 20
-34.41710942072981
 30
0.0
 10
-33.20374029284032
 20
-34.4410901043555
 30
0.0
 10
-33.28993200610785
 20
-34.48656016763138
 30
0.0
 10
-33.37259042546386
 20
-34.53822613497923
 30
0.0
 10
-33.42371321535119
 20
-34.57839129541831
 30
0.0
 10
-33.44936859449125
 20
-34.59854771531553
 30
0.0
 11
-33.11305235745122
 21
-34.40507833016068
 31
0.0
 11
-33.20322331904485
 21
-34.44277349094125
 31
0.0
 11
-33.28933265886273
 21
-34.48758355991174
 31
0.0
 11
-33.37138108401153
 21
-34.53950782996532
 31
0.0
 11
-33.44936859449125
 21
-34.59854771531553
 31
0.0
  0
SPLINE
  5
385E
330
1F
100
AcDbEntity
  8
AM_0
100
AcDbSpline
210
0.0
220
0.0
230
1.0
 70
     8
 71
     3
 72
    11
 73
     7
 74
     5
 42
0.0000000001
 43
0.0000000001
 44
0.0000000001
 40
0.0
 40
0.0
 40
0.0
 40
0.0
 40
0.0871932717416124
 40
0.1674596322483254
 40
0.2312123997569179
 40
0.2643354751727054
 40
0.2643354751727054
 40
0.2643354751727054
 40
0.2643354751727054
 10
-23.90608681643083
 20
-40.75956711593938
 30
0.0
 10
-23.90382037248281
 20
-40.7885602184639
 30
0.0
 10
-23.89946753811306
 20
-40.84424311909964
 30
0.0
 10
-23.89636980051442
 20
-40.92108043939024
 30
0.0
 10
-23.89778997169823
 20
-40.98069563262114
 30
0.0
 10
-23.88938607077677
 20
-41.01198901579518
 30
0.0
 10
-23.88651267080824
 20
-41.02268861911836
 30
0.0
 11
-23.90608681643083
 21
-40.75956711593938
 31
0.0
 11
-23.89985932181763
 21
-40.84653771411973
 31
0.0
 11
-23.89710655033018
 21
-40.92675685696065
 31
0.0
 11
-23.89405962340895
 21
-40.99043677217213
 31
0.0
 11
-23.88651267080824
 21
-41.02268861911836
 31
0.0
  0
SPLINE
  5
385F
330
1F
100
AcDbEntity
  8
AM_0
100
AcDbSpline
210
0.0
220
0.0
230
1.0
 70
     8
 71
     3
 72
    11
 73
     7
 74
     5
 42
0.0000000001
 43
0.0000000001
 44
0.0000000001
 40
0.0
 40
0.0
 40
0.0
 40
0.0
 40
0.0871932717416165
 40
0.1674603631925948
 40
0.2312123906113329
 40
0.2643354660271333
 40
0.2643354660271333
 40
0.2643354660271333
 40
0.2643354660271333
 10
-23.75140435492396
 20
-41.17328962752436
 30
0.0
 10
-23.74913803636411
 20
-41.20228273484351
 30
0.0
 10
-23.74478542381086
 20
-41.25796588773788
 30
0.0
 10
-23.74168611580761
 20
-41.33480314425512
 30
0.0
 10
-23.74310758017712
 20
-41.39441839027406
 30
0.0
 10
-23.73470364346046
 20
-41.42571152916371
 30
0.0
 10
-23.73183020930132
 20
-41.43641113070333
 30
0.0
 11
-23.75140435492396
 21
-41.17328962752436
 31
0.0
 11
-23.74517686031071
 21
-41.26026022570471
 31
0.0
 11
-23.74242338171648
 21
-41.34048007565241
 31
0.0
 11
-23.73937716190208
 21
-41.40415928375711
 31
0.0
 11
-23.73183020930132
 21
-41.43641113070333
 31
0.0
  0
SPLINE
  5
3860
330
1F
100
AcDbEntity
  8
AM_0
100
AcDbSpline
210
0.0
220
0.0
230
1.0
 70
     8
 71
     3
 72
    11
 73
     7
 74
     5
 42
0.0000000001
 43
0.0000000001
 44
0.0000000001
 40
0.0
 40
0.0
 40
0.0
 40
0.0
 40
0.0027585394686367
 40
0.0059014885614282
 40
0.0109672229602754
 40
0.0184037109082577
 40
0.0184037109082577
 40
0.0184037109082577
 40
0.0184037109082577
 10
-23.88651267080824
 20
-41.02268861911836
 30
0.0
 10
-23.885675732662
 20
-41.02324937453335
 30
0.0
 10
-23.88388522686977
 20
-41.02444902808371
 30
0.0
 10
-23.88046653178451
 20
-41.02188454394148
 30
0.0
 10
-23.87792372965987
 20
-41.01749343708926
 30
0.0
 10
-23.87640719512059
 20
-41.01357134865842
 30
0.0
 10
-23.87550514022898
 20
-41.01123843835353
 30
0.0
 11
-23.88651267080824
 21
-41.02268861911836
 31
0.0
 11
-23.88399112795973
 21
-41.02380726189563
 31
0.0
 11
-23.88124543241968
 21
-41.02227778976408
 31
0.0
 11
-23.8783936710211
 21
-41.01809101034246
 31
0.0
 11
-23.87550514022898
 21
-41.01123843835353
 31
0.0
  0
SPLINE
  5
3861
330
1F
100
AcDbEntity
  8
AM_0
100
AcDbSpline
210
0.0
220
0.0
230
1.0
 70
     8
 71
     3
 72
    11
 73
     7
 74
     5
 42
0.0000000001
 43
0.0000000001
 44
0.0000000001
 40
0.0
 40
0.0
 40
0.0
 40
0.0
 40
0.0027585394686078
 40
0.0059017623369386
 40
0.010967683181161
 40
0.0184037942615587
 40
0.0184037942615587
 40
0.0184037942615587
 40
0.0184037942615587
 10
-23.73183020930132
 20
-41.43641113070333
 30
0.0
 10
-23.73099332210925
 20
-41.43697179804386
 30
0.0
 10
-23.72920284226778
 20
-41.43817131881615
 30
0.0
 10
-23.72578290179165
 20
-41.43560840203276
 30
0.0
 10
-23.72324207891455
 20
-41.43121551830441
 30
0.0
 10
-23.72172457255957
 20
-41.42729409126407
 30
0.0
 10
-23.72082197161528
 20
-41.42496165704529
 30
0.0
 11
-23.73183020930132
 21
-41.43641113070333
 31
0.0
 11
-23.72930866645287
 21
-41.43752977348066
 31
0.0
 11
-23.72656226380597
 21
-41.43600100845583
 31
0.0
 11
-23.72371120951424
 21
-41.43181352192744
 31
0.0
 11
-23.72082197161528
 21
-41.42496165704529
 31
0.0
  0
SPLINE
  5
3862
330
1F
100
AcDbEntity
  8
AM_0
100
AcDbSpline
210
0.0
220
0.0
230
1.0
 70
     8
 71
     3
 72
    11
 73
     7
 74
     5
 42
0.0000000001
 43
0.0000000001
 44
0.0000000001
 40
0.0
 40
0.0
 40
0.0
 40
0.0
 40
0.8437636745368726
 40
1.757631551353348
 40
2.68641015723206
 40
3.618235141875089
 40
3.618235141875089
 40
3.618235141875089
 40
3.618235141875089
 10
-13.43226991690271
 20
-39.68303884280488
 30
0.0
 10
-13.66588169628112
 20
-39.5250545904175
 30
0.0
 10
-14.15251491668925
 20
-39.19595994579982
 30
0.0
 10
-14.99515265325544
 20
-38.87288030959198
 30
0.0
 10
-15.91476352892279
 20
-38.70594634315236
 30
0.0
 10
-16.53478591878905
 20
-38.76455413427608
 30
0.0
 10
-16.84530469713529
 20
-38.7939060093031
 30
0.0
 11
-13.43226991690271
 21
-39.68303884280488
 31
0.0
 11
-14.14801049855866
 21
-39.23621386785521
 31
0.0
 11
-14.99853764680755
 21
-38.9019115101479
 31
0.0
 11
-15.91458034884856
 21
-38.74862919944178
 31
0.0
 11
-16.84530469713529
 21
-38.7939060093031
 31
0.0
  0
SPLINE
  5
3863
330
1F
100
AcDbEntity
  8
AM_0
100
AcDbSpline
210
0.0
220
0.0
230
1.0
 70
     8
 71
     3
 72
    11
 73
     7
 74
     5
 42
0.0000000001
 43
0.0000000001
 44
0.0000000001
 40
0.0
 40
0.0
 40
0.0
 40
0.0
 40
0.8184284809536383
 40
1.633176909740053
 40
2.432001432611625
 40
3.170619969087662
 40
3.170619969087662
 40
3.170619969087662
 40
3.170619969087662
 10
-9.451214538017025
 20
-45.71727291535922
 30
0.0
 10
-9.450350970533986
 20
-45.44359199004688
 30
0.0
 10
-9.448627718586961
 20
-44.89746074185817
 30
0.0
 10
-9.640320842167402
 20
-44.10300461545953
 30
0.0
 10
-9.94635864755535
 20
-43.37621631830069
 30
0.0
 10
-10.23458707662986
 20
-42.95121340039722
 30
0.0
 10
-10.37305780512899
 20
-42.74703345935075
 30
0.0
 11
-9.451214538017025
 21
-45.71727291535922
 31
0.0
 11
-9.481384004762147
 21
-44.8994006871277
 31
0.0
 11
-9.662674917163242
 21
-44.10507795215739
 31
0.0
 11
-9.978001451868733
 21
-43.37112305241789
 31
0.0
 11
-10.37305780512899
 21
-42.74703345935075
 31
0.0
  0
LINE
  5
38A6
330
1F
100
AcDbEntity
  8
AM_0
100
AcDbLine
 10
-28.15525882911065
 20
-44.44152965486126
 30
0.0
 11
-35.79201252176516
 21
-36.80477687388634
 31
0.0
  0
LINE
  5
38A7
330
1F
100
AcDbEntity
  8
AM_0
100
AcDbLine
 10
-38.05266317187129
 20
-39.06542779387013
 30
0.0
 11
-30.07150300768352
 21
-47.04658700526289
 31
0.0
  0
LINE
  5
38AA
330
1F
100
AcDbEntity
  8
AM_0
100
AcDbLine
 10
-38.7706862302387
 20
-39.69043952061986
 30
0.0
 11
-38.1032333300747
 21
-39.02298654077504
 31
0.0
  0
LINE
  5
38AC
330
1F
100
AcDbEntity
  8
AM_0
100
AcDbLine
 10
-36.09957570271739
 20
-36.5466546328405
 30
0.0
 11
-36.76702860288133
 21
-37.21410761268533
 31
0.0
  0
LINE
  5
38B1
330
1F
100
AcDbEntity
  8
AM_0
100
AcDbLine
 10
-36.03089159098231
 20
-36.57431947444786
 30
0.0
 11
-35.94280234424438
 21
-36.66240871066964
 31
0.0
  0
LINE
  5
38B2
330
1F
100
AcDbEntity
  8
AM_0
100
AcDbLine
 10
-28.01289135499944
 20
-44.59231875323769
 30
0.0
 11
-27.92480210826152
 21
-44.68040798945953
 31
0.0
  0
LINE
  5
38B3
330
1F
100
AcDbEntity
  8
AM_0
100
AcDbLine
 10
-35.38118779548681
 20
-35.61613459283018
 30
0.0
 11
-36.03089159098231
 21
-36.57431947444786
 31
0.0
  0
LINE
  5
38B4
330
1F
100
AcDbEntity
  8
AM_0
100
AcDbLine
 10
-35.38118779548681
 20
-35.61613459283018
 30
0.0
 11
-33.90693600564195
 21
-34.14188262698838
 31
0.0
  0
LINE
  5
38B6
330
1F
100
AcDbEntity
  8
AM_0
100
AcDbLine
 10
-26.96661659709899
 20
-44.03070478668218
 30
0.0
 11
-25.49236480725413
 21
-42.55645282084038
 31
0.0
  0
LINE
  5
38B7
330
1F
100
AcDbEntity
  8
AM_0
100
AcDbLine
 10
-27.92480210826152
 20
-44.68040798945953
 30
0.0
 11
-26.96661659709899
 21
-44.03070478668218
 31
0.0
  0
LINE
  5
38B8
330
1F
100
AcDbEntity
  8
AM_0
100
AcDbLine
 10
-26.96661659709899
 20
-44.03070478668218
 30
0.0
 11
-25.23424252949125
 21
-42.8640159709779
 31
0.0
  0
LINE
  5
38B9
330
1F
100
AcDbEntity
  8
AM_0
100
AcDbLine
 10
-34.21449918659424
 20
-33.88376038594254
 30
0.0
 11
-35.38118779548681
 21
-35.61613459283018
 31
0.0
  0
LINE
  5
38BD
330
1F
100
AcDbEntity
  8
AM_0
100
AcDbLine
 10
-36.54485990813451
 20
-36.99193889141588
 30
0.0
 11
-36.11662193753618
 21
-36.35156882267609
 31
0.0
  0
LINE
  5
38BE
330
1F
100
AcDbEntity
  8
AM_0
100
AcDbLine
 10
-36.11662193753618
 20
-36.35156882267609
 30
0.0
 11
-34.94993332864367
 21
-34.6191946157885
 31
0.0
  0
LINE
  5
38BF
330
1F
100
AcDbEntity
  8
AM_0
100
AcDbLine
 10
-34.21449918659424
 20
-33.88376038594254
 30
0.0
 11
-34.94993332864367
 21
-34.6191946157885
 31
0.0
  0
ARC
  5
38D6
330
1F
100
AcDbEntity
  8
AM_0
100
AcDbCircle
 10
-37.2240133161706
 20
-37.45896033351141
 30
0.0
 40
4.691056
100
AcDbArc
 50
45.00000342000001
 51
46.43669637138351
  0
ARC
  5
38D7
330
1F
100
AcDbEntity
  8
AM_0
100
AcDbCircle
 10
-36.10536975143434
 20
-36.2827609682339
 30
0.0
 40
3.06784640760387
100
AcDbArc
 50
46.43669158611527
 51
48.63339438760631
  0
ARC
  5
38D8
330
1F
100
AcDbEntity
  8
AM_0
100
AcDbCircle
 10
-33.86587292465951
 20
-33.73956290767274
 30
0.0
 40
0.320840909040601
100
AcDbArc
 50
208.6505729488881
 51
228.6335057963761
  0
ARC
  5
38D9
330
1F
100
AcDbEntity
  8
AM_0
100
AcDbCircle
 10
-34.18457159740099
 20
-33.91368797156315
 30
0.0
 40
0.0423234915856446
100
AcDbArc
 50
28.65034232454162
 51
135.00000342
  0
SPLINE
  5
38DC
330
1F
100
AcDbEntity
  8
AM_0
100
AcDbSpline
210
0.0
220
0.0
230
1.0
 70
     8
 71
     3
 72
    11
 73
     7
 74
     5
 42
0.0000000001
 43
0.0000000001
 44
0.0000000001
 40
0.0
 40
0.0
 40
0.0
 40
0.0
 40
0.7963538240807434
 40
1.592707648161451
 40
2.389060372836894
 40
3.185414196917602
 40
3.185414196917602
 40
3.185414196917602
 40
3.185414196917602
 10
-36.09957570271739
 20
-36.5466546328405
 30
0.0
 10
-36.26654719224534
 20
-36.75301572636654
 30
0.0
 10
-36.60049017130121
 20
-37.16573791341858
 30
0.0
 10
-37.10140403890598
 20
-37.78482120885854
 30
0.0
 10
-37.60231938837658
 20
-38.4039033052858
 30
0.0
 10
-37.93626193933794
 20
-38.81662536731473
 30
0.0
 10
-38.1032333300747
 20
-39.02298654077504
 30
0.0
 11
-36.09957570271739
 21
-36.5466546328405
 31
0.0
 11
-36.60049010955673
 21
-37.16573796337752
 31
0.0
 11
-37.10140451639602
 21
-37.78482129391455
 31
0.0
 11
-37.60231892323542
 21
-38.40390321023801
 31
0.0
 11
-38.1032333300747
 21
-39.02298654077504
 31
0.0
  0
SPLINE
  5
38DD
330
1F
100
AcDbEntity
  8
AM_0
100
AcDbSpline
210
0.0
220
0.0
230
1.0
 70
     8
 71
     3
 72
    11
 73
     7
 74
     5
 42
0.0000000001
 43
0.0000000001
 44
0.0000000001
 40
0.0
 40
0.0
 40
0.0
 40
0.0
 40
0.0569332416080477
 40
0.1112166384803962
 40
0.1628587176116617
 40
0.2118695469149934
 40
0.2118695469149934
 40
0.2118695469149934
 40
0.2118695469149934
 10
-35.79201252176516
 20
-36.80477687388634
 30
0.0
 10
-35.80548581867921
 20
-36.79141142701128
 30
0.0
 10
-35.83180532464279
 20
-36.76530260145966
 30
0.0
 10
-35.87092145154218
 20
-36.72765837783191
 30
0.0
 10
-35.90853150261792
 20
-36.69226068771953
 30
0.0
 10
-35.933402347056
 20
-36.66974058315063
 30
0.0
 10
-35.94551268475355
 20
-36.65877488908291
 30
0.0
 11
-35.79201252176516
 21
-36.80477687388634
 31
0.0
 11
-35.83253539956847
 21
-36.76478574518836
 31
0.0
 11
-35.87162709310768
 21
-36.72712241192858
 31
0.0
 11
-35.90928548106267
 21
-36.69178475278665
 31
0.0
 11
-35.94551268475355
 21
-36.65877488908291
 31
0.0
  0
SPLINE
  5
38DE
330
1F
100
AcDbEntity
  8
AM_0
100
AcDbSpline
210
0.0
220
0.0
230
1.0
 70
     8
 71
     3
 72
    11
 73
     7
 74
     5
 42
0.0000000001
 43
0.0000000001
 44
0.0000000001
 40
0.0
 40
0.0
 40
0.0
 40
0.0
 40
0.0786705652769588
 40
0.1385130836898652
 40
0.1769085110869046
 40
0.1924439284935664
 40
0.1924439284935664
 40
0.1924439284935664
 40
0.1924439284935664
 10
-35.94551268475355
 20
-36.65877488908291
 30
0.0
 10
-35.96509708725376
 20
-36.64117366145123
 30
0.0
 10
-35.99957880189477
 20
-36.61018366783154
 30
0.0
 10
-36.04636636126595
 20
-36.57565579264522
 30
0.0
 10
-36.07633872778241
 20
-36.54966521931137
 30
0.0
 10
-36.09437899148814
 20
-36.54732791964155
 30
0.0
 10
-36.09957570271739
 20
-36.5466546328405
 30
0.0
 11
-35.94551268475355
 21
-36.65877488908291
 31
0.0
 11
-36.00495986203036
 21
-36.60724731437949
 31
0.0
 11
-36.05200084996356
 21
-36.57025714725
 31
0.0
 11
-36.08430361028734
 21
-36.54950285804353
 31
0.0
 11
-36.09957570271739
 21
-36.5466546328405
 31
0.0
  0
SPLINE
  5
38DF
330
1F
100
AcDbEntity
  8
AM_0
100
AcDbSpline
210
0.0
220
0.0
230
1.0
 70
    24
 71
     3
 72
    11
 73
     7
 74
     5
 42
0.0000000001
 43
0.0000000001
 44
0.0000000001
 40
0.0
 40
0.0
 40
0.0
 40
0.0
 40
0.7992609999999918
 40
1.598521999999984
 40
2.397782000000019
 40
3.197042999999971
 40
3.197042999999971
 40
3.197042999999971
 40
3.197042999999971
 10
-38.05266317187129
 20
-39.06542779387013
 30
0.0
 10
-37.8642755587702
 20
-38.87704015827926
 30
0.0
 10
-37.48750033256803
 20
-38.50026488709752
 30
0.0
 10
-36.92233772896711
 20
-37.93510221602705
 30
0.0
 10
-36.35717512536611
 20
-37.36993954495672
 30
0.0
 10
-35.98040013486622
 20
-36.99316450947723
 30
0.0
 10
-35.79201252176516
 20
-36.80477687388634
 30
0.0
 11
-38.05266317187129
 21
-39.06542779387013
 31
0.0
 11
-37.48750033256805
 21
-38.5002648870975
 31
0.0
 11
-36.92233749326486
 21
-37.93510198032482
 31
0.0
 11
-36.35717536106834
 21
-37.36993978065897
 31
0.0
 11
-35.79201252176516
 21
-36.80477687388634
 31
0.0
  0
SPLINE
  5
38E0
330
1F
100
AcDbEntity
  8
AM_0
100
AcDbSpline
210
0.0
220
0.0
230
1.0
 70
     8
 71
     3
 72
    11
 73
     7
 74
     5
 42
0.0000000001
 43
0.0000000001
 44
0.0000000001
 40
0.0
 40
0.0
 40
0.0
 40
0.0
 40
0.0251547961629741
 40
0.0465671963086663
 40
0.0609351446659996
 40
0.0663920706321585
 40
0.0663920706321585
 40
0.0663920706321585
 40
0.0663920706321585
 10
-38.05266317187129
 20
-39.06542779387013
 30
0.0
 10
-38.0586227887076
 20
-39.05950259812096
 30
0.0
 10
-38.06965538246599
 20
-39.04853372555165
 30
0.0
 10
-38.08505434921786
 20
-39.03552649698396
 30
0.0
 10
-38.0952168686059
 20
-39.02574865028731
 30
0.0
 10
-38.10150302462792
 20
-39.0235827256569
 30
0.0
 10
-38.1032333300747
 20
-39.02298654077504
 30
0.0
 11
-38.05266317187129
 21
-39.06542779387013
 31
0.0
 11
-38.07075662123138
 21
-39.04795235795984
 31
0.0
 11
-38.08675420589854
 21
-39.0337197136231
 31
0.0
 11
-38.09814852509298
 21
-39.0249671465657
 31
0.0
 11
-38.1032333300747
 21
-39.02298654077504
 31
0.0
  0
SPLINE
  5
38E1
330
1F
100
AcDbEntity
  8
AM_0
100
AcDbSpline
210
0.0
220
0.0
230
1.0
 70
    24
 71
     3
 72
    11
 73
     7
 74
     5
 42
0.0000000001
 43
0.0000000001
 44
0.0000000001
 40
0.0
 40
0.0
 40
0.0
 40
0.0
 40
0.7992609999999516
 40
1.598521999999984
 40
2.397781999999979
 40
3.197042999999971
 40
3.197042999999971
 40
3.197042999999971
 40
3.197042999999971
 10
-30.41590947921678
 20
-46.70218057484505
 30
0.0
 10
-30.22752186611572
 20
-46.51379293925417
 30
0.0
 10
-29.85074663991357
 20
-46.1370176680724
 30
0.0
 10
-29.28558403631261
 20
-45.57185499700204
 30
0.0
 10
-28.72042143271165
 20
-45.0066923259316
 30
0.0
 10
-28.34364644221174
 20
-44.62991729045213
 30
0.0
 10
-28.15525882911065
 20
-44.44152965486126
 30
0.0
 11
-30.41590947921678
 21
-46.70218057484505
 31
0.0
 11
-29.8507466399136
 21
-46.13701766807242
 31
0.0
 11
-29.28558380061035
 21
-45.57185476129973
 31
0.0
 11
-28.72042166841389
 21
-45.00669256163388
 31
0.0
 11
-28.15525882911065
 21
-44.44152965486126
 31
0.0
  0
SPLINE
  5
38E2
330
1F
100
AcDbEntity
  8
AM_0
100
AcDbSpline
210
0.0
220
0.0
230
1.0
 70
     8
 71
     3
 72
    11
 73
     7
 74
     5
 42
0.0000000001
 43
0.0000000001
 44
0.0000000001
 40
0.0
 40
0.0
 40
0.0
 40
0.0
 40
0.0569332416080177
 40
0.1112166384803751
 40
0.1628587176116027
 40
0.2118685479928751
 40
0.2118685479928751
 40
0.2118685479928751
 40
0.2118685479928751
 10
-28.15525882911065
 20
-44.44152965486126
 30
0.0
 10
-28.14189338033744
 20
-44.45500294991544
 30
0.0
 10
-28.11578455107783
 20
-44.48132245224582
 30
0.0
 10
-28.07814032680847
 20
-44.52043857832594
 30
0.0
 10
-28.04274284622561
 20
-44.55804836973752
 30
0.0
 10
-28.02022299104952
 20
-44.5829189909509
 30
0.0
 10
-28.00925753308916
 20
-44.59502909331309
 30
0.0
 11
-28.15525882911065
 21
-44.44152965486126
 31
0.0
 11
-28.11526769557507
 21
-44.4820525278904
 31
0.0
 11
-28.0776043576485
 21
-44.52114421693335
 31
0.0
 11
-28.04226669401088
 21
-44.55880260066965
 31
0.0
 11
-28.00925753308916
 21
-44.59502909331309
 31
0.0
  0
SPLINE
  5
38E3
330
1F
100
AcDbEntity
  8
AM_0
100
AcDbSpline
210
0.0
220
0.0
230
1.0
 70
     8
 71
     3
 72
    11
 73
     7
 74
     5
 42
0.0000000001
 43
0.0000000001
 44
0.0000000001
 40
0.0
 40
0.0
 40
0.0
 40
0.0
 40
0.0786715627403301
 40
0.1385130882305933
 40
0.1769085156275713
 40
0.1924447578051401
 40
0.1924447578051401
 40
0.1924447578051401
 40
0.1924447578051401
 10
-28.00925753308916
 20
-44.59502909331309
 30
0.0
 10
-27.99165607473848
 20
-44.61461371434105
 30
0.0
 10
-27.96066606680432
 20
-44.64909537767552
 30
0.0
 10
-27.92613795850843
 20
-44.69588298132872
 30
0.0
 10
-27.90014812256894
 20
-44.72585543874018
 30
0.0
 10
-27.89781007814089
 20
-44.74389585376388
 30
0.0
 10
-27.89713655134777
 20
-44.74909280499873
 30
0.0
 11
-28.00925753308916
 21
-44.59502909331309
 31
0.0
 11
-27.95772924418206
 21
-44.65447697154531
 31
0.0
 11
-27.92073977854356
 21
-44.70151724795585
 31
0.0
 11
-27.89998548548083
 21
-44.73382000580193
 31
0.0
 11
-27.89713655134777
 21
-44.74909280499873
 31
0.0
  0
SPLINE
  5
38E4
330
1F
100
AcDbEntity
  8
AM_0
100
AcDbSpline
210
0.0
220
0.0
230
1.0
 70
     8
 71
     3
 72
    11
 73
     7
 74
     0
 42
0.0000000001
 43
0.0000000001
 40
0.0057799046909545
 40
0.0057799046909545
 40
0.0057799046909545
 40
0.0057799046909545
 40
0.796353824080752
 40
1.592706653681395
 40
2.389060477762144
 40
3.18541430184284
 40
3.18541430184284
 40
3.18541430184284
 40
3.18541430184284
 10
-30.36897564535745
 20
-46.74911440310143
 30
0.0
 10
-30.16411232318585
 20
-46.58335477288699
 30
0.0
 10
-29.7528881756122
 20
-46.2506238487772
 30
0.0
 10
-29.13530281154969
 20
-45.75092158710947
 30
0.0
 10
-28.51621982797819
 20
-45.25000727846157
 30
0.0
 10
-28.10349764355799
 20
-44.91606429615308
 30
0.0
 10
-27.89713655134777
 20
-44.74909280499873
 30
0.0
  0
SPLINE
  5
38E9
330
1F
100
AcDbEntity
  8
AM_0
100
AcDbSpline
210
0.0
220
0.0
230
1.0
 70
     8
 71
     3
 72
    11
 73
     7
 74
     5
 42
0.0000000001
 43
0.0000000001
 44
0.0000000001
 40
0.0
 40
0.0
 40
0.0
 40
0.0
 40
0.7963538240807078
 40
1.592706548756187
 40
2.389060372836894
 40
3.185414196917638
 40
3.185414196917638
 40
3.185414196917638
 40
3.185414196917638
 10
-38.7706862302387
 20
-39.69043952061986
 30
0.0
 10
-38.60371483950193
 20
-39.48407834715955
 30
0.0
 10
-38.26977228854057
 20
-39.07135628513059
 30
0.0
 10
-37.76885693906992
 20
-38.45227418870339
 30
0.0
 10
-37.26794307146515
 20
-37.83319089326341
 30
0.0
 10
-36.93400009240927
 20
-37.42046870621135
 30
0.0
 10
-36.76702860288133
 20
-37.21410761268533
 30
0.0
 11
-38.7706862302387
 21
-39.69043952061986
 31
0.0
 11
-38.26977182339941
 21
-39.07135619008284
 31
0.0
 11
-37.76885741655995
 21
-38.45227427375937
 31
0.0
 11
-37.26794300972067
 21
-37.83319094322235
 31
0.0
 11
-36.76702860288133
 21
-37.21410761268533
 31
0.0
  0
LINE
  5
38EE
330
1F
100
AcDbEntity
  8
AM_0
100
AcDbLine
 10
-37.90904694761274
 20
-39.2090440009838
 30
0.0
 11
-51.05935351001943
 21
-52.35935213328108
 31
0.0
  0
LINE
  5
38F1
330
1F
100
AcDbEntity
  8
AM_0
100
AcDbLine
 10
-38.77068623023853
 20
-39.69043952061975
 30
0.0
 11
-38.58056429731219
 21
-39.88056143084936
 31
0.0
  0
LINE
  5
3B26
330
1F
100
AcDbEntity
  8
AM_0
100
AcDbLine
 10
-30.07150300768346
 20
-47.04658700526284
 30
0.0
 11
-27.24307605176686
 21
-44.21815971168712
 31
0.0
  0
LINE
  5
3B91
330
1F
100
AcDbEntity
  8
AM_5
370
    13
100
AcDbLine
 10
-34.94993444952223
 20
-34.61919628014101
 30
0.0
 11
0.1433668301100113
 21
0.4741008129311126
 31
0.0
  0
LINE
  5
3BA5
330
1F
100
AcDbEntity
  8
AM_7
  6
CENTER
 48
0.5
100
AcDbLine
 10
-9.14221522194385
 20
-38.44058714008105
 30
0.0
 11
-40.41565045147488
 21
-69.71401863875445
 31
0.0
  0
DIMENSION
  5
3BB8
330
1F
100
AcDbEntity
  8
AM_5
100
AcDbDimension
  2
*D9
 10
13.61510990391696
 20
-81.67847087738898
 30
0.0
 11
2.371847998050598
 21
-88.11287878822807
 31
0.0
 70
    33
 71
     5
 42
24.99999999999999
  3
AM_JIS$0
100
AcDbAlignedDimension
 13
-12.54784045128928
 23
-90.8708605944873
 33
0.0
 14
5.129828023189731
 24
-73.19319000963901
 34
0.0
1001
ACAD
1000
DSTYLE
1002
{
1070
   271
1070
     0
1002
}
  0
LINE
  5
3BE2
330
1F
100
AcDbEntity
  8
AM_5
370
    13
100
AcDbLine
 10
-34.19144100313572
 20
-33.8719256775068
 30
0.0
 11
-39.66254121693851
 21
-28.40082611684659
 31
0.0
  0
DIMENSION
  5
3BF4
330
1F
100
AcDbEntity
  8
AM_5
100
AcDbDimension
  2
*D10
 10
-43.75230738757399
 20
-24.31106043444948
 30
0.0
 11
-52.46018292641589
 21
-33.01893701284212
 31
0.0
 70
   160
 71
     5
 42
24.99999999999994
  3
AM_JIS$0
100
AcDbAlignedDimension
 13
-51.05935351001942
 23
-52.35935213328109
 33
0.0
 14
-39.66254121693851
 24
-28.40082611684659
 34
0.0
 50
45.00000341999985
100
AcDbRotatedDimension
1001
ACAD
1000
DSTYLE
1002
{
1070
   271
1070
     0
1002
}
  0
LINE
  5
3D01
330
1F
100
AcDbEntity
  8
AM_0
100
AcDbLine
 10
-12.88302227535027
 20
40.55950161837609
 30
0.0
 11
-15.27757133816041
 21
37.70436692840906
 31
0.0
  0
LINE
  5
3D02
330
1F
100
AcDbEntity
  8
AM_0
100
AcDbLine
 10
-22.62773096283851
 20
42.79041515658241
 30
0.0
 11
-24.79391424996831
 21
40.20757174525272
 31
0.0
  0
LINE
  5
3D04
330
1F
100
AcDbEntity
  8
AM_0
100
AcDbLine
 10
-23.42041577484875
 20
38.16502459283583
 30
0.0
 11
-23.61944015671989
 21
37.92771883815249
 31
0.0
  0
LINE
  5
3D05
330
1F
100
AcDbEntity
  8
AM_0
100
AcDbLine
 10
-16.91195859403197
 20
45.13304824101886
 30
0.0
 11
-19.11407023957841
 21
46.97991909892073
 31
0.0
  0
LINE
  5
3D06
330
1F
100
AcDbEntity
  8
AM_0
100
AcDbLine
 10
-19.11407023957841
 20
46.97991909892073
 30
0.0
 11
-20.27597953493151
 21
45.59452006893184
 31
0.0
  0
LINE
  5
3D09
330
1F
100
AcDbEntity
  8
AM_0
100
AcDbLine
 10
-15.71845329002153
 20
52.42923629542122
 30
0.0
 11
-15.02887140898056
 21
51.85089652843647
 31
0.0
  0
LINE
  5
3D0A
330
1F
100
AcDbEntity
  8
AM_0
100
AcDbLine
 10
-15.71845329002153
 20
52.42923629542122
 30
0.0
 11
-15.58475991325534
 21
52.58864433478505
 31
0.0
  0
LINE
  5
3D0D
330
1F
100
AcDbEntity
  8
AM_0
100
AcDbLine
 10
-15.45600276546841
 20
51.34160779368779
 30
0.0
 11
-13.15739649533182
 21
49.41380857040542
 31
0.0
  0
LINE
  5
3D0E
330
1F
100
AcDbEntity
  8
AM_0
100
AcDbLine
 10
-15.02887140898056
 20
51.85089652843647
 30
0.0
 11
-15.45600276546841
 21
51.34160779368779
 31
0.0
  0
LINE
  5
3D0F
330
1F
100
AcDbEntity
  8
AM_0
100
AcDbLine
 10
-11.09036811895319
 20
42.69696955876918
 30
0.0
 11
-12.88302227535027
 21
40.55950161837609
 31
0.0
  0
LINE
  5
3D10
330
1F
100
AcDbEntity
  8
AM_0
100
AcDbLine
 10
-15.27757133816041
 20
37.70436692840906
 30
0.0
 11
-16.86025368627489
 21
35.81726076295684
 31
0.0
  0
LINE
  5
3D11
330
1F
100
AcDbEntity
  8
AM_0
100
AcDbLine
 10
-19.99638093338373
 20
32.07790596967266
 30
0.0
 11
-21.14584585737524
 21
30.70734416201196
 31
0.0
  0
LINE
  5
3D13
330
1F
100
AcDbEntity
  8
AM_0
100
AcDbLine
 10
-24.1121295187402
 20
37.66325804432483
 30
0.0
 11
-24.3311367632293
 21
37.84693538170291
 31
0.0
  0
LINE
  5
3D14
330
1F
100
AcDbEntity
  8
AM_0
100
AcDbLine
 10
-19.11407023957841
 20
46.97991909892073
 30
0.0
 11
-15.45600276546841
 21
51.34160779368779
 31
0.0
  0
LINE
  5
3D15
330
1F
100
AcDbEntity
  8
AM_0
100
AcDbLine
 10
-18.12525360094472
 20
48.15893203398593
 30
0.0
 11
-19.28880423125625
 21
49.13478104227704
 31
0.0
  0
LINE
  5
3D18
330
1F
100
AcDbEntity
  8
AM_0
100
AcDbLine
 10
-17.14574177978639
 20
49.32685117020901
 30
0.0
 11
-17.83532366082736
 21
49.90519093719377
 31
0.0
  0
LINE
  5
3D19
330
1F
100
AcDbEntity
  8
AM_0
100
AcDbLine
 10
-15.71845329002153
 20
52.42923629542122
 30
0.0
 11
-17.83532366082736
 21
49.90519093719377
 31
0.0
  0
LINE
  5
3D1A
330
1F
100
AcDbEntity
  8
AM_0
100
AcDbLine
 10
-11.84130178703262
 20
49.58248967826285
 30
0.0
 11
-15.51907181925125
 21
52.66696843551483
 31
0.0
  0
LINE
  5
3D1B
330
1F
100
AcDbEntity
  8
AM_0
100
AcDbLine
 10
-29.82942138608391
 20
34.07468371946436
 30
0.0
 11
-25.3722513507943
 21
30.33653711515774
 31
0.0
  0
LINE
  5
3D1C
330
1F
100
AcDbEntity
  8
AM_0
100
AcDbLine
 10
-29.86282296771438
 20
45.63013646860554
 30
0.0
 11
-36.80289946442449
 21
37.35515318900684
 31
0.0
  0
LINE
  5
3D1D
330
1F
100
AcDbEntity
  8
AM_0
100
AcDbLine
 10
-34.36637695950097
 20
35.31168615374872
 30
0.0
 11
-27.42630046279092
 21
43.58666943334742
 31
0.0
  0
LINE
  5
3D1F
330
1F
100
AcDbEntity
  8
AM_0
100
AcDbLine
 10
-30.65890433169076
 20
34.44925510279904
 30
0.0
 11
-30.82836106544099
 21
34.581581641561
 31
0.0
  0
LINE
  5
3D20
330
1F
100
AcDbEntity
  8
AM_0
100
AcDbLine
 10
-25.87234584178546
 20
35.24147236863644
 30
0.0
 11
-29.5424159385847
 21
34.11843455436792
 31
0.0
  0
LINE
  5
3D22
330
1F
100
AcDbEntity
  8
AM_0
100
AcDbLine
 10
-21.95907033176312
 20
43.58769011286461
 30
0.0
 11
-22.75429608976421
 21
44.20867336223341
 31
0.0
  0
LINE
  5
3D24
330
1F
100
AcDbEntity
  8
AM_0
100
AcDbLine
 10
-22.75429608976421
 20
44.20867336223341
 30
0.0
 11
-24.37930796812574
 21
42.27109461933492
 31
0.0
  0
LINE
  5
3D25
330
1F
100
AcDbEntity
  8
AM_0
100
AcDbLine
 10
-24.15170910075275
 20
37.44490063951855
 30
0.0
 11
-24.45944336275349
 21
37.05082011260708
 31
0.0
  0
LINE
  5
3D26
330
1F
100
AcDbEntity
  8
AM_0
100
AcDbLine
 10
-25.07491117964824
 20
36.26265835167726
 30
0.0
 11
-25.86045584216336
 21
35.2566984996613
 31
0.0
  0
LINE
  5
3D27
330
1F
100
AcDbEntity
  8
AM_0
100
AcDbLine
 10
-21.84496885431341
 20
45.29290782095177
 30
0.0
 11
-21.04974380341903
 21
44.6719238644763
 31
0.0
  0
LINE
  5
3D28
330
1F
100
AcDbEntity
  8
AM_0
100
AcDbLine
 10
-22.75429608976421
 20
44.20867336223341
 30
0.0
 11
-21.84496885431341
 21
45.29290782095177
 31
0.0
  0
LINE
  5
3D29
330
1F
100
AcDbEntity
  8
AM_0
100
AcDbLine
 10
-22.63881358687118
 20
45.14040464013203
 30
0.0
 11
-22.1870989106491
 21
44.88497012040818
 31
0.0
  0
LINE
  5
3D2A
330
1F
100
AcDbEntity
  8
AM_0
100
AcDbLine
 10
-32.28328407647709
 20
32.84680820466792
 30
0.0
 11
-33.85999085563699
 21
34.16916425996055
 31
0.0
  0
LINE
  5
3D2B
330
1F
100
AcDbEntity
  8
AM_0
100
AcDbLine
 10
-33.85999085563699
 20
34.16916425996055
 30
0.0
 11
-34.57963610697689
 21
35.05740629993841
 31
0.0
  0
LINE
  5
3D2C
330
1F
100
AcDbEntity
  8
AM_0
100
AcDbLine
 10
-27.21303990110144
 20
43.84094928715797
 30
0.0
 11
-27.29309357545574
 21
43.74549764512187
 31
0.0
  0
LINE
  5
3D2D
330
1F
100
AcDbEntity
  8
AM_0
100
AcDbLine
 10
-27.29309357545574
 20
43.74549764512187
 30
0.0
 11
-27.42630046279092
 21
43.58666943334742
 31
0.0
  0
LINE
  5
3D2E
330
1F
100
AcDbEntity
  8
AM_0
100
AcDbLine
 10
-34.36637695950097
 20
35.31168615374872
 30
0.0
 11
-34.50337535312863
 21
35.1483367009904
 31
0.0
  0
LINE
  5
3D2F
330
1F
100
AcDbEntity
  8
AM_0
100
AcDbLine
 10
-34.50337535312863
 20
35.1483367009904
 30
0.0
 11
-34.57963610697689
 21
35.05740629993841
 31
0.0
  0
LINE
  5
3D30
330
1F
100
AcDbEntity
  8
AM_0
100
AcDbLine
 10
-27.21303990110144
 20
43.84094928715797
 30
0.0
 11
-26.2130551151279
 21
43.28696936720473
 31
0.0
  0
LINE
  5
3D31
330
1F
100
AcDbEntity
  8
AM_0
100
AcDbLine
 10
-26.2130551151279
 20
43.28696936720473
 30
0.0
 11
-24.63634833596788
 21
41.9646133119121
 31
0.0
  0
LINE
  5
3D32
330
1F
100
AcDbEntity
  8
AM_0
100
AcDbLine
 10
-32.28328407647709
 20
32.84680820466792
 30
0.0
 11
-24.63634833596788
 21
41.9646133119121
 31
0.0
  0
LINE
  5
3D33
330
1F
100
AcDbEntity
  8
AM_0
100
AcDbLine
 10
-33.85999085563699
 20
34.16916425996055
 30
0.0
 11
-32.5403237372125
 21
32.540327604352
 31
0.0
  0
LINE
  5
3D34
330
1F
100
AcDbEntity
  8
AM_0
100
AcDbLine
 10
-26.2130551151279
 20
43.28696936720473
 30
0.0
 11
-24.37930796812574
 21
42.27109461933492
 31
0.0
  0
LINE
  5
3D36
330
1F
100
AcDbEntity
  8
AM_0
100
AcDbLine
 10
-34.62585825977911
 20
35.00229439466978
 30
0.0
 11
-34.65306702360621
 21
35.03589398597683
 31
0.0
  0
LINE
  5
3D37
330
1F
100
AcDbEntity
  8
AM_0
100
AcDbLine
 10
-36.66465090609611
 20
37.51999322293409
 30
0.0
 11
-48.41727024156872
 21
52.03326838881696
 31
0.0
  0
LINE
  5
3D39
330
1F
100
AcDbEntity
  8
AM_0
100
AcDbLine
 10
-39.07526914132302
 20
61.37527059779364
 30
0.0
 11
-22.73076433197721
 21
45.0307677282525
 31
0.0
  0
LINE
  5
3D3A
330
1F
100
AcDbEntity
  8
AM_0
100
AcDbLine
 10
-22.73076433197721
 20
45.0307677282525
 30
0.0
 11
-24.83399461393898
 21
42.5229858268018
 31
0.0
  0
LINE
  5
3D3D
330
1F
100
AcDbEntity
  8
AM_0
100
AcDbLine
 10
-9.703890866262697
 20
55.39131120136369
 30
0.0
 11
0.1924803033179217
 21
65.28768354546935
 31
0.0
  0
LINE
  5
3D3E
330
1F
100
AcDbEntity
  8
AM_0
100
AcDbLine
 10
-9.703890866262697
 20
55.39131120136369
 30
0.0
 11
-12.15688260731653
 21
57.63851054854661
 31
0.0
  0
LINE
  5
3D40
330
1F
100
AcDbEntity
  8
AM_0
100
AcDbLine
 10
-12.15688260731653
 20
57.63851054854661
 30
0.0
 11
-22.73076433197721
 21
45.0307677282525
 31
0.0
  0
LINE
  5
3D41
330
1F
100
AcDbEntity
  8
AM_0
100
AcDbLine
 10
-13.83806395624831
 20
51.25713762072451
 30
0.0
 11
-9.703890866262697
 21
55.39131120136369
 31
0.0
  0
LINE
  5
3D47
330
1F
100
AcDbEntity
  8
AM_0
100
AcDbLine
 10
-11.96801414442135
 20
41.65051016039536
 30
0.0
 11
-12.29085927887823
 21
41.26556686641368
 31
0.0
  0
LINE
  5
3D48
330
1F
100
AcDbEntity
  8
AM_0
100
AcDbLine
 10
-19.37303594428127
 20
32.82115089411525
 30
0.0
 11
-20.00050972958698
 21
32.07298379912379
 31
0.0
  0
LINE
  5
3D4A
330
1F
100
AcDbEntity
  8
AM_0
100
AcDbLine
 10
-15.58475991325534
 20
52.58864433478505
 30
0.0
 11
-15.51907181925125
 21
52.66696843551483
 31
0.0
  0
LINE
  5
3D4D
330
1F
100
AcDbEntity
  8
AM_0
100
AcDbLine
 10
-32.5403237372125
 20
32.540327604352
 30
0.0
 11
-32.28328407647709
 21
32.84680820466792
 31
0.0
  0
LINE
  5
3D4E
330
1F
100
AcDbEntity
  8
AM_0
100
AcDbLine
 10
-24.63634833596788
 20
41.9646133119121
 30
0.0
 11
-24.37930796812574
 21
42.27109461933492
 31
0.0
  0
LINE
  5
3D4F
330
1F
100
AcDbEntity
  8
AM_0
100
AcDbLine
 10
-12.99534035612581
 20
37.61783982123916
 30
0.0
 11
-16.20833929729886
 21
33.78682913530918
 31
0.0
  0
LINE
  5
3D53
330
1F
100
AcDbEntity
  8
AM_0
100
AcDbLine
 10
-30.45049025513256
 20
34.28650600419519
 30
0.0
 11
-30.65890433169076
 21
34.44925510279904
 31
0.0
  0
LINE
  5
3D54
330
1F
100
AcDbEntity
  8
AM_0
100
AcDbLine
 10
-25.86045584216336
 20
35.2566984996613
 30
0.0
 11
-25.87234584178546
 21
35.24147236863644
 31
0.0
  0
LINE
  5
3D55
330
1F
100
AcDbEntity
  8
AM_0
100
AcDbLine
 10
-23.53624057675134
 20
38.23306310755515
 30
0.0
 11
-24.22169078210496
 21
37.95592741323605
 31
0.0
  0
LINE
  5
3D56
330
1F
100
AcDbEntity
  8
AM_0
100
AcDbLine
 10
-24.30642195533321
 20
37.65010655377193
 30
0.0
 11
-24.15170910075275
 21
37.44490063951855
 31
0.0
  0
LINE
  5
3D57
330
1F
100
AcDbEntity
  8
AM_0
100
AcDbLine
 10
-24.45944336275349
 20
37.05082011260708
 30
0.0
 11
-25.14489286100039
 21
36.77368512539476
 31
0.0
  0
LINE
  5
3D58
330
1F
100
AcDbEntity
  8
AM_0
100
AcDbLine
 10
-25.22962403422858
 20
36.46786426593064
 30
0.0
 11
-25.07491117964824
 21
36.26265835167726
 31
0.0
  0
LINE
  5
3D59
330
1F
100
AcDbEntity
  8
AM_0
100
AcDbLine
 10
-22.62773096283851
 20
42.79041515658241
 30
0.0
 11
-20.27597953493151
 21
45.59452006893184
 31
0.0
  0
LINE
  5
3D5A
330
1F
100
AcDbEntity
  8
AM_0
100
AcDbLine
 10
-25.41920236836799
 20
39.46201033887951
 30
0.0
 11
-24.79391424996831
 21
40.20757174525272
 31
0.0
  0
LINE
  5
3D5B
330
1F
100
AcDbEntity
  8
AM_0
100
AcDbLine
 10
-34.62341662023638
 20
35.0052055534328
 30
0.0
 11
-34.59739226410292
 21
35.03623481474915
 31
0.0
  0
LINE
  5
3D5C
330
1F
100
AcDbEntity
  8
AM_0
100
AcDbLine
 10
-34.58443453325455
 20
35.0516858057938
 30
0.0
 11
-34.50478249552359
 21
35.1466580294084
 31
0.0
  0
LINE
  5
3D5D
330
1F
100
AcDbEntity
  8
AM_0
100
AcDbLine
 10
-34.50478249552359
 20
35.1466580294084
 30
0.0
 11
-34.36637695950097
 21
35.31168615374872
 31
0.0
  0
LINE
  5
3D5E
330
1F
100
AcDbEntity
  8
AM_0
100
AcDbLine
 10
-36.84516252663892
 20
37.30476122173764
 30
0.0
 11
-36.80289946442449
 21
37.35515318900684
 31
0.0
  0
LINE
  5
3D5F
330
1F
100
AcDbEntity
  8
AM_0
100
AcDbLine
 10
-27.42630046279092
 20
43.58666943334742
 30
0.0
 11
-27.29021070131282
 21
43.74893489135627
 31
0.0
  0
LINE
  5
3D60
330
1F
100
AcDbEntity
  8
AM_0
100
AcDbLine
 10
-27.29021070131282
 20
43.74893489135627
 30
0.0
 11
-27.20970589286409
 21
43.84492534878643
 31
0.0
  0
LINE
  5
3D61
330
1F
100
AcDbEntity
  8
AM_0
100
AcDbLine
 10
-27.19342122484559
 20
43.86434250196419
 30
0.0
 11
-27.1692608020555
 21
43.89315003366335
 31
0.0
  0
LINE
  5
3D62
330
1F
100
AcDbEntity
  8
AM_0
100
AcDbLine
 10
-29.82055990550001
 20
45.68052843587464
 30
0.0
 11
-29.86282296771438
 21
45.63013646860554
 31
0.0
  0
ARC
  5
3D63
330
1F
100
AcDbEntity
  8
AM_0
100
AcDbCircle
 10
-23.44445212751188
 20
32.63514338529433
 30
0.0
 40
3.00000010506667
100
AcDbArc
 50
230.0140517427255
 51
320.0140517427247
  0
ARC
  5
3D64
330
1F
100
AcDbEntity
  8
AM_0
100
AcDbCircle
 10
-16.73533643507469
 20
39.73973340646251
 30
0.0
 40
4.300000355530799
100
AcDbArc
 50
330.431511757683
 51
15.68654043973364
  0
ARC
  5
3D65
330
1F
100
AcDbEntity
  8
AM_0
100
AcDbCircle
 10
-18.94906557880734
 20
37.10019841323651
 30
0.0
 40
4.30000014642662
100
AcDbArc
 50
260.7056266854889
 51
309.596599962574
  0
SPLINE
  5
3DA1
330
1F
100
AcDbEntity
  8
AM_0
100
AcDbSpline
210
0.0
220
0.0
230
1.0
 70
     8
 71
     3
 72
    11
 73
     7
 74
     5
 42
0.0000000001
 43
0.0000000001
 44
0.0000000001
 40
0.0
 40
0.0
 40
0.0
 40
0.0
 40
0.8684937977331301
 40
1.734910456001567
 40
2.598775142324603
 40
3.459770052810142
 40
3.459770052810142
 40
3.459770052810142
 40
3.459770052810142
 10
-20.27597953493151
 20
45.59452006893184
 30
0.0
 10
-20.0122328208342
 20
45.47323088350584
 30
0.0
 10
-19.48537018437346
 20
45.23094259481024
 30
0.0
 10
-18.63295062549227
 20
45.04818355379616
 30
0.0
 10
-17.76515753717438
 20
44.99436193309312
 30
0.0
 10
-17.1960426156214
 20
45.08687077630023
 30
0.0
 10
-16.91195859403197
 20
45.13304824101886
 30
0.0
 11
-20.27597953493151
 21
45.59452006893184
 31
0.0
 11
-19.47416355877598
 21
45.26079470717059
 31
0.0
 11
-18.62912781039293
 21
45.06950328112191
 31
0.0
 11
-17.76633449821313
 21
45.02649285524865
 31
0.0
 11
-16.91195859403197
 21
45.13304824101886
 31
0.0
  0
SPLINE
  5
3DA5
330
1F
100
AcDbEntity
  8
AM_0
100
AcDbSpline
210
0.0
220
0.0
230
1.0
 70
     8
 71
     3
 72
    11
 73
     7
 74
     5
 42
0.0000000001
 43
0.0000000001
 44
0.0000000001
 40
0.0
 40
0.0
 40
0.0
 40
0.0
 40
0.3794357467358956
 40
0.7738146644330438
 40
1.196218071829307
 40
1.657069306802148
 40
1.657069306802148
 40
1.657069306802148
 40
1.657069306802148
 10
-14.60422955690368
 20
48.67698271245558
 30
0.0
 10
-14.51673018291003
 20
48.7689873375718
 30
0.0
 10
-14.33828548098761
 20
48.95661997029828
 30
0.0
 10
-13.99428160322896
 20
49.16569062931895
 30
0.0
 10
-13.59791644837789
 20
49.32684325220267
 30
0.0
 10
-13.30843680235952
 20
49.38399092361945
 30
0.0
 10
-13.15739649533182
 20
49.41380857040542
 30
0.0
 11
-14.60422955690368
 21
48.67698271245558
 31
0.0
 11
-14.33113149861211
 21
48.94040051075024
 31
0.0
 11
-13.99802623444586
 21
49.15152988745729
 31
0.0
 11
-13.60630747182395
 21
49.3095838326467
 31
0.0
 11
-13.15739649533182
 21
49.41380857040542
 31
0.0
  0
SPLINE
  5
3DA6
330
1F
100
AcDbEntity
  8
AM_0
100
AcDbSpline
210
0.0
220
0.0
230
1.0
 70
     8
 71
     3
 72
    11
 73
     7
 74
     5
 42
0.0000000001
 43
0.0000000001
 44
0.0000000001
 40
0.0
 40
0.0
 40
0.0
 40
0.0
 40
0.103160840021743
 40
0.2054435068672558
 40
0.3071368533800747
 40
0.4085328167366703
 40
0.4085328167366703
 40
0.4085328167366703
 40
0.4085328167366703
 10
-14.82932637391863
 20
48.3370163653052
 30
0.0
 10
-14.81314509242347
 20
48.36736941619246
 30
0.0
 10
-14.78092027518399
 20
48.42781713275898
 30
0.0
 10
-14.72645287742129
 20
48.51458435301515
 30
0.0
 10
-14.66819746583168
 20
48.59814383909721
 30
0.0
 10
-14.62553136792705
 20
48.65072875465518
 30
0.0
 10
-14.60422955690368
 20
48.67698271245558
 30
0.0
 11
-14.82932637391863
 21
48.3370163653052
 31
0.0
 11
-14.77972142437241
 21
48.42746805348463
 31
0.0
 11
-14.72565958056921
 21
48.51429581967511
 31
0.0
 11
-14.66715710596381
 21
48.59747632935148
 31
0.0
 11
-14.60422955690368
 21
48.67698271245558
 31
0.0
  0
SPLINE
  5
3DA7
330
1F
100
AcDbEntity
  8
AM_0
100
AcDbSpline
210
0.0
220
0.0
230
1.0
 70
     8
 71
     3
 72
    11
 73
     7
 74
     5
 42
0.0000000001
 43
0.0000000001
 44
0.0000000001
 40
0.0
 40
0.0
 40
0.0
 40
0.0
 40
0.6043880106305608
 40
1.210195863985036
 40
1.81728862315786
 40
2.425529799222907
 40
2.425529799222907
 40
2.425529799222907
 40
2.425529799222907
 10
-16.74817145256739
 20
45.17116130624424
 30
0.0
 10
-16.64786655249311
 20
45.34588459396127
 30
0.0
 10
-16.44702111368191
 20
45.69574163350845
 30
0.0
 10
-16.13430907115781
 20
46.21458978838162
 30
0.0
 10
-15.81363910698764
 20
46.73007004031041
 30
0.0
 10
-15.59245576637666
 20
47.06948339077189
 30
0.0
 10
-15.48175959364707
 20
47.2393504285227
 30
0.0
 11
-16.74817145256739
 21
45.17116130624424
 31
0.0
 11
-16.44541098732103
 21
45.69424922244741
 31
0.0
 11
-16.13331812654761
 21
46.21348057881971
 31
0.0
 11
-15.81204843372396
 21
46.72859940269734
 31
0.0
 11
-15.48175959364707
 21
47.2393504285227
 31
0.0
  0
SPLINE
  5
3DAF
330
1F
100
AcDbEntity
  8
AM_0
100
AcDbSpline
210
0.0
220
0.0
230
1.0
 70
     8
 71
     3
 72
    11
 73
     7
 74
     5
 42
0.0000000001
 43
0.0000000001
 44
0.0000000001
 40
0.0
 40
0.0
 40
0.0
 40
0.0
 40
0.2394173996391806
 40
0.478777997181878
 40
0.7181657859953468
 40
0.9575712644623069
 40
0.9575712644623069
 40
0.9575712644623069
 40
0.9575712644623069
 10
-29.5424159385847
 20
34.11843455436792
 30
0.0
 10
-29.62058202635536
 20
34.10036924327176
 30
0.0
 10
-29.7768956568884
 20
34.06424290709853
 30
0.0
 10
-30.01856532727779
 20
34.08300355815156
 30
0.0
 10
-30.25092971859941
 20
34.15199600281866
 30
0.0
 10
-30.38396843785742
 20
34.24166823271645
 30
0.0
 10
-30.45049025513256
 20
34.28650600419519
 30
0.0
 11
-29.5424159385847
 21
34.11843455436792
 31
0.0
 11
-29.77811442524964
 21
34.07639987066693
 31
0.0
 11
-30.01700620952138
 21
34.09137354968914
 31
0.0
 11
-30.24545473709841
 21
34.16291223629219
 31
0.0
 11
-30.45049025513256
 21
34.28650600419519
 31
0.0
  0
LINE
  5
3DB0
330
1F
100
AcDbEntity
  8
AM_0
100
AcDbLine
 10
-16.91195859403197
 20
45.13304824101886
 30
0.0
 11
-16.81699202708776
 21
45.05029907558594
 31
0.0
  0
LINE
  5
3DB1
330
1F
100
AcDbEntity
  8
AM_0
100
AcDbLine
 10
-16.74817145256739
 20
45.17116130624424
 30
0.0
 11
-16.81699202708776
 21
45.05029907558594
 31
0.0
  0
SPLINE
  5
3DB2
330
1F
100
AcDbEntity
  8
AM_0
100
AcDbSpline
210
0.0
220
0.0
230
1.0
 70
     8
 71
     3
 72
    11
 73
     7
 74
     5
 42
0.0000000001
 43
0.0000000001
 44
0.0000000001
 40
0.0
 40
0.0
 40
0.0
 40
0.0
 40
0.6128031457238427
 40
1.225303237389121
 40
1.839004337939773
 40
2.452395013979865
 40
2.452395013979865
 40
2.452395013979865
 40
2.452395013979865
 10
-23.36426300942404
 20
38.13608837246818
 30
0.0
 10
-23.54911422934619
 20
38.22340400224485
 30
0.0
 10
-23.91872525335359
 20
38.39799208095592
 30
0.0
 10
-24.43839330398977
 20
38.72542525345942
 30
0.0
 10
-24.93608222763473
 20
39.08379211919312
 30
0.0
 10
-25.25818948323597
 20
39.33595886301106
 30
0.0
 10
-25.41920236836799
 20
39.46201033887951
 30
0.0
 11
-23.36426300942404
 21
38.13608837246818
 31
0.0
 11
-23.91297293806835
 21
38.40893468381614
 31
0.0
 11
-24.4343708701708
 21
38.7303387265556
 31
0.0
 11
-24.93369646619877
 21
39.08713417211004
 31
0.0
 11
-25.41920236836799
 21
39.46201033887951
 31
0.0
  0
SPLINE
  5
3DB5
330
1F
100
AcDbEntity
  8
AM_0
100
AcDbSpline
210
0.0
220
0.0
230
1.0
 70
     8
 71
     3
 72
    11
 73
     7
 74
     5
 42
0.0000000001
 43
0.0000000001
 44
0.0000000001
 40
0.0
 40
0.0
 40
0.0
 40
0.0
 40
0.2210877596814947
 40
0.3982011335102481
 40
0.5233397370064904
 40
0.5936624166198059
 40
0.5936624166198059
 40
0.5936624166198059
 40
0.5936624166198059
 10
-22.74708959491423
 20
37.97956113068824
 30
0.0
 10
-22.80454005180022
 20
37.93289151126419
 30
0.0
 10
-22.90801406178451
 20
37.84883486614769
 30
0.0
 10
-23.0549109378159
 20
37.75874611738118
 30
0.0
 10
-23.16749835927673
 20
37.69436816924292
 30
0.0
 10
-23.23348073447195
 20
37.69934717532397
 30
0.0
 10
-23.25721974486399
 20
37.70113851243104
 30
0.0
 11
-22.74708959491423
 21
37.97956113068824
 31
0.0
 11
-22.92199881317711
 21
37.84433331236801
 31
0.0
 11
-23.07173078979994
 21
37.74973160854813
 31
0.0
 11
-23.18689797545378
 21
37.70078072057288
 31
0.0
 11
-23.25721974486399
 21
37.70113851243104
 31
0.0
  0
SPLINE
  5
3DB6
330
1F
100
AcDbEntity
  8
AM_0
100
AcDbSpline
210
0.0
220
0.0
230
1.0
 70
     8
 71
     3
 72
    11
 73
     7
 74
     5
 42
0.0000000001
 43
0.0000000001
 44
0.0000000001
 40
0.0
 40
0.0
 40
0.0
 40
0.0
 40
0.1592065030957724
 40
0.318782523302458
 40
0.4786802777113832
 40
0.6388585196825537
 40
0.6388585196825537
 40
0.6388585196825537
 40
0.6388585196825537
 10
-22.74708959491423
 20
37.97956113068824
 30
0.0
 10
-22.79979809704059
 20
37.98597585797941
 30
0.0
 10
-22.90533743733517
 20
37.99882020109612
 30
0.0
 10
-23.06130576510066
 20
38.03340934390079
 30
0.0
 10
-23.21509078424074
 20
38.07778303766972
 30
0.0
 10
-23.31450989352689
 20
38.1166419099911
 30
0.0
 10
-23.36426300942404
 20
38.13608837246818
 30
0.0
 11
-22.74708959491423
 21
37.97956113068824
 31
0.0
 11
-22.90479845004214
 21
38.00134708125802
 31
0.0
 11
-23.06078550086218
 21
38.03500040503843
 31
0.0
 11
-23.21420151210296
 21
38.08006501820648
 31
0.0
 11
-23.36426300942404
 21
38.13608837246818
 31
0.0
  0
SPLINE
  5
3DB7
330
1F
100
AcDbEntity
  8
AM_0
100
AcDbSpline
210
0.0
220
0.0
230
1.0
 70
     8
 71
     3
 72
    11
 73
     7
 74
     5
 42
0.0000000001
 43
0.0000000001
 44
0.0000000001
 40
0.0
 40
0.0
 40
0.0
 40
0.0
 40
0.1885890481895115
 40
0.3217940350218655
 40
0.4012541137091824
 40
0.4276649613290524
 40
0.4276649613290524
 40
0.4276649613290524
 40
0.4276649613290524
 10
-23.25721974486399
 20
37.70113851243104
 30
0.0
 10
-23.31229530528134
 20
37.73148934142613
 30
0.0
 10
-23.40627206049557
 20
37.78327769192872
 30
0.0
 10
-23.51862605188498
 20
37.85599015481256
 30
0.0
 10
-23.58413696987
 20
37.90137497656232
 30
0.0
 10
-23.61275159485876
 20
37.92203015460595
 30
0.0
 10
-23.61988987660087
 20
37.92718285118565
 30
0.0
 11
-23.25721974486399
 21
37.70113851243104
 31
0.0
 11
-23.42111649567752
 21
37.79443205009466
 31
0.0
 11
-23.53317524709965
 21
37.86644874778847
 31
0.0
 11
-23.59845039808008
 21
37.91175943934661
 31
0.0
 11
-23.61988987660087
 21
37.92718285118565
 31
0.0
  0
SPLINE
  5
3DB8
330
1F
100
AcDbEntity
  8
AM_0
100
AcDbSpline
210
0.0
220
0.0
230
1.0
 70
     8
 71
     3
 72
    11
 73
     7
 74
     5
 42
0.0000000001
 43
0.0000000001
 44
0.0000000001
 40
0.0
 40
0.0
 40
0.0
 40
0.0
 40
0.2924510683072111
 40
0.5153641070398429
 40
0.6688996474856618
 40
0.7602664932722482
 40
0.7602664932722482
 40
0.7602664932722482
 40
0.7602664932722482
 10
-23.44949618762715
 20
37.14204755391324
 30
0.0
 10
-23.44937702556082
 20
37.23982816348413
 30
0.0
 10
-23.44916703538276
 20
37.41213943876515
 30
0.0
 10
-23.46977853252454
 20
37.63203445285292
 30
0.0
 10
-23.48935675437823
 20
37.79190085867217
 30
0.0
 10
-23.53878701897402
 20
37.85813078285974
 30
0.0
 10
-23.55722819234106
 20
37.88283948154901
 30
0.0
 11
-23.44949618762715
 21
37.14204755391324
 31
0.0
 11
-23.45432008744038
 21
37.43445883506468
 31
0.0
 11
-23.47337309283901
 21
37.65655612415731
 31
0.0
 11
-23.50735806784141
 21
37.80628315462968
 31
0.0
 11
-23.55722819234106
 21
37.88283948154901
 31
0.0
  0
SPLINE
  5
3DB9
330
1F
100
AcDbEntity
  8
AM_0
100
AcDbSpline
210
0.0
220
0.0
230
1.0
 70
     8
 71
     3
 72
    11
 73
     7
 74
     5
 42
0.0000000001
 43
0.0000000001
 44
0.0000000001
 40
0.0
 40
0.0
 40
0.0
 40
0.0
 40
0.210480812961534
 40
0.4971443064517878
 40
0.8548815214364203
 40
1.277445716798539
 40
1.277445716798539
 40
1.277445716798539
 40
1.277445716798539
 10
-14.82932637391863
 20
48.3370163653052
 30
0.0
 10
-14.86199788455587
 20
48.27492268311157
 30
0.0
 10
-14.9391662272088
 20
48.12826076112995
 30
0.0
 10
-15.08070590300541
 20
47.8808806355046
 30
0.0
 10
-15.26365596127763
 20
47.57583504231951
 30
0.0
 10
-15.40514023943133
 20
47.35755677626925
 30
0.0
 10
-15.48175959364707
 20
47.2393504285227
 30
0.0
 11
-14.82932637391863
 21
48.3370163653052
 31
0.0
 11
-14.92826262239763
 21
48.15123748770645
 31
0.0
 11
-15.06969103490619
 21
47.90189041506403
 31
0.0
 11
-15.25415608404595
 21
47.59538012056999
 31
0.0
 11
-15.48175959364707
 21
47.2393504285227
 31
0.0
  0
SPLINE
  5
3DBF
330
1F
100
AcDbEntity
  8
AM_0
100
AcDbSpline
210
0.0
220
0.0
230
1.0
 70
     8
 71
     3
 72
    11
 73
     7
 74
     5
 42
0.0000000001
 43
0.0000000001
 44
0.0000000001
 40
0.0
 40
0.0
 40
0.0
 40
0.0
 40
0.2108046536156417
 40
0.4215844073776983
 40
0.6323825710367258
 40
0.8431817116730128
 40
0.8431817116730128
 40
0.8431817116730128
 40
0.8431817116730128
 10
-23.44949618762715
 20
37.14204755391324
 30
0.0
 10
-23.50585090772084
 20
37.18402359975587
 30
0.0
 10
-23.61855369139352
 20
37.26797073330866
 30
0.0
 10
-23.78511158950206
 20
37.39718754616548
 30
0.0
 10
-23.94999212797758
 20
37.528536883925
 30
0.0
 10
-24.058083638325
 20
37.61835092148216
 30
0.0
 10
-24.1121295187402
 20
37.66325804432483
 30
0.0
 11
-23.44949618762715
 21
37.14204755391324
 31
0.0
 11
-23.6181439908726
 21
37.26852490542922
 31
0.0
 11
-23.78482745163043
 21
37.39753935619262
 31
0.0
 11
-23.94953384197905
 21
37.52909797727216
 31
0.0
 11
-24.1121295187402
 21
37.66325804432483
 31
0.0
  0
SPLINE
  5
3DC0
330
1F
100
AcDbEntity
  8
AM_0
100
AcDbSpline
210
0.0
220
0.0
230
1.0
 70
     8
 71
     3
 72
    11
 73
     7
 74
     5
 42
0.0000000001
 43
0.0000000001
 44
0.0000000001
 40
0.0
 40
0.0
 40
0.0
 40
0.0
 40
1.889545658295934
 40
3.43680328119425
 40
4.481004108300849
 40
4.929116922848639
 40
4.929116922848639
 40
4.929116922848639
 40
4.929116922848639
 10
-16.86025368627489
 20
35.81726076295684
 30
0.0
 10
-17.29734753364774
 20
35.36340625182472
 30
0.0
 10
-18.0923564090594
 20
34.53791221509932
 30
0.0
 10
-19.20834866009327
 20
33.54386918381785
 30
0.0
 10
-19.79691530001698
 20
32.69465819474951
 30
0.0
 10
-19.9503172930495
 20
32.22033578172476
 30
0.0
 10
-19.99638093338373
 20
32.07790596967266
 30
0.0
 11
-16.86025368627489
 21
35.81726076295684
 31
0.0
 11
-18.18995164517511
 21
34.47476825538683
 31
0.0
 11
-19.28244216369225
 21
33.37910835442892
 31
0.0
 11
-19.84596661815206
 21
32.50002044269547
 31
0.0
 11
-19.99638093338373
 21
32.07790596967266
 31
0.0
  0
SPLINE
  5
3DC1
330
1F
100
AcDbEntity
  8
AM_0
100
AcDbSpline
210
0.0
220
0.0
230
1.0
 70
     8
 71
     3
 72
    11
 73
     7
 74
     5
 42
0.0000000001
 43
0.0000000001
 44
0.0000000001
 40
0.0
 40
0.0
 40
0.0
 40
0.0
 40
1.89388812882919
 40
3.796392440824242
 40
5.713949420467881
 40
7.64435244864721
 40
7.64435244864721
 40
7.64435244864721
 40
7.64435244864721
 10
-11.09036811895319
 20
42.69696955876918
 30
0.0
 10
-10.74074398429873
 20
43.23422062023607
 30
0.0
 10
-10.03990511122735
 20
44.31116694960484
 30
0.0
 10
-9.922735432005652
 20
46.282494996514
 30
0.0
 10
-10.48936685287815
 20
48.1757920333776
 30
0.0
 10
-11.38965496689812
 20
49.11254803968802
 30
0.0
 10
-11.84130178703262
 20
49.58248967826285
 30
0.0
 11
-11.09036811895319
 21
42.69696955876918
 31
0.0
 11
-10.19653716335384
 21
44.3666636826531
 31
0.0
 11
-10.03583736032775
 21
46.26236888928918
 31
0.0
 11
-10.61751340645523
 21
48.0895737895512
 31
0.0
 11
-11.84130178703262
 21
49.58248967826285
 31
0.0
  0
SPLINE
  5
3DC2
330
1F
100
AcDbEntity
  8
AM_0
100
AcDbSpline
210
0.0
220
0.0
230
1.0
 70
     8
 71
     3
 72
    11
 73
     7
 74
     5
 42
0.0000000001
 43
0.0000000001
 44
0.0000000001
 40
0.0
 40
0.0
 40
0.0
 40
0.0
 40
0.7950002270773675
 40
1.589999457981449
 40
2.384999685058773
 40
3.179999912136067
 40
3.179999912136067
 40
3.179999912136067
 40
3.179999912136067
 10
-34.36637695950097
 20
35.31168615374872
 30
0.0
 10
-34.56942055415168
 20
35.48197513985269
 30
0.0
 10
-34.97550748902981
 20
35.82255289868041
 30
0.0
 10
-35.58463813289102
 20
36.33341950728816
 30
0.0
 10
-36.19376865640228
 20
36.84428625939485
 30
0.0
 10
-36.59985586175042
 20
37.18486421246951
 30
0.0
 10
-36.80289946442449
 20
37.35515318900684
 30
0.0
 11
-34.36637695950097
 21
35.31168615374872
 31
0.0
 11
-34.97550776250856
 21
35.82255308933998
 31
0.0
 11
-35.58463785840937
 21
36.33341931782445
 31
0.0
 11
-36.1937686614169
 21
36.8442862534157
 31
0.0
 11
-36.80289946442449
 21
37.35515318900684
 31
0.0
  0
SPLINE
  5
3DC3
330
1F
100
AcDbEntity
  8
AM_0
100
AcDbSpline
210
0.0
220
0.0
230
1.0
 70
     8
 71
     3
 72
    11
 73
     7
 74
     5
 42
0.0000000001
 43
0.0000000001
 44
0.0000000001
 40
0.0
 40
0.0
 40
0.0
 40
0.0
 40
0.7993793505877127
 40
1.598758701175344
 40
2.398137051911155
 40
3.197516402498867
 40
3.197516402498867
 40
3.197516402498867
 40
3.197516402498867
 10
-36.84516252663892
 20
37.30476122173764
 30
0.0
 10
-36.66001697588145
 20
37.11313152343082
 30
0.0
 10
-36.28972587436651
 20
36.72987212681721
 30
0.0
 10
-35.73428944704191
 20
36.15498327798959
 30
0.0
 10
-35.17885304623503
 20
35.58009440354155
 30
0.0
 10
-34.80856217276171
 20
35.1968352500316
 30
0.0
 10
-34.62341662023638
 20
35.0052055534328
 30
0.0
 11
-36.84516252663892
 21
37.30476122173764
 31
0.0
 11
-36.28972587326157
 21
36.72987212788473
 31
0.0
 11
-35.73428921988423
 21
36.15498303403194
 31
0.0
 11
-35.17885327361373
 21
35.58009464728571
 31
0.0
 11
-34.62341662023638
 21
35.0052055534328
 31
0.0
  0
SPLINE
  5
3DC4
330
1F
100
AcDbEntity
  8
AM_0
100
AcDbSpline
210
0.0
220
0.0
230
1.0
 70
     8
 71
     3
 72
    11
 73
     7
 74
     5
 42
0.0000000001
 43
0.0000000001
 44
0.0000000001
 40
0.0
 40
0.0
 40
0.0
 40
0.0
 40
0.7993792422035907
 40
1.598758484407181
 40
2.398136745030422
 40
3.197515987234012
 40
3.197515987234012
 40
3.197515987234012
 40
3.197515987234012
 10
-29.82055990550001
 20
45.68052843587464
 30
0.0
 10
-29.59961825144231
 20
45.5315801814795
 30
0.0
 10
-29.15773494332692
 20
45.23368367268921
 30
0.0
 10
-28.49491030966583
 20
44.78683900753718
 30
0.0
 10
-27.8320854471589
 20
44.33999468184251
 30
0.0
 10
-27.3902024408568
 20
44.042098310689
 30
0.0
 10
-27.1692608020555
 20
43.89315003366335
 30
0.0
 11
-29.82055990550001
 21
45.68052843587464
 31
0.0
 11
-29.15773495286217
 21
45.23368365854515
 31
0.0
 11
-28.49491000022434
 21
44.78683888121566
 31
0.0
 11
-27.83208575469334
 21
44.33999481099284
 31
0.0
 11
-27.1692608020555
 21
43.89315003366335
 31
0.0
  0
SPLINE
  5
3DC5
330
1F
100
AcDbEntity
  8
AM_0
100
AcDbSpline
210
0.0
220
0.0
230
1.0
 70
     8
 71
     3
 72
    11
 73
     7
 74
     5
 42
0.0000000001
 43
0.0000000001
 44
0.0000000001
 40
0.0
 40
0.0
 40
0.0
 40
0.0
 40
0.795000227077324
 40
1.590000454154618
 40
2.384999685058699
 40
3.179999912136023
 40
3.179999912136023
 40
3.179999912136023
 40
3.179999912136023
 10
-29.86282296771438
 20
45.63013646860554
 30
0.0
 10
-29.65977936504035
 20
45.45984749206816
 30
0.0
 10
-29.2536921596923
 20
45.11926953899339
 30
0.0
 10
-28.64456163618087
 20
44.60840278688689
 30
0.0
 10
-28.03543099231972
 20
44.09753617827914
 30
0.0
 10
-27.62934405744162
 20
43.75695841945139
 30
0.0
 10
-27.42630046279092
 20
43.58666943334742
 30
0.0
 11
-29.86282296771438
 21
45.63013646860554
 31
0.0
 11
-29.25369216470685
 21
45.11926953301429
 31
0.0
 11
-28.64456136169926
 21
44.60840259742315
 31
0.0
 11
-28.03543126579845
 21
44.09753636893868
 31
0.0
 11
-27.42630046279092
 21
43.58666943334742
 31
0.0
  0
SPLINE
  5
3DC6
330
1F
100
AcDbEntity
  8
AM_0
100
AcDbSpline
210
0.0
220
0.0
230
1.0
 70
     8
 71
     3
 72
    11
 73
     7
 74
     5
 42
0.0000000001
 43
0.0000000001
 44
0.0000000001
 40
0.0
 40
0.0
 40
0.0
 40
0.0
 40
0.0777012879687571
 40
0.1725154632011644
 40
0.2723671173936867
 40
0.3632448934338625
 40
0.3632448934338625
 40
0.3632448934338625
 40
0.3632448934338625
 10
-24.30642195533321
 20
37.65010655377193
 30
0.0
 10
-24.31971569524028
 20
37.67274834738414
 30
0.0
 10
-24.34923098073552
 20
37.72301855029618
 30
0.0
 10
-24.3487856859522
 20
37.8181185762958
 30
0.0
 10
-24.30473671731837
 20
37.90852210959694
 30
0.0
 10
-24.24849062860483
 20
37.9406291947556
 30
0.0
 10
-24.22169078210496
 20
37.95592741323605
 30
0.0
 11
-24.30642195533321
 21
37.65010655377193
 31
0.0
 11
-24.34025843317724
 21
37.72005355455906
 31
0.0
 11
-24.34174548436383
 21
37.81485606773128
 31
0.0
 11
-24.29600063063546
 21
37.90361282072706
 31
0.0
 11
-24.22169078210496
 21
37.95592741323605
 31
0.0
  0
SPLINE
  5
3DC7
330
1F
100
AcDbEntity
  8
AM_0
100
AcDbSpline
210
0.0
220
0.0
230
1.0
 70
     8
 71
     3
 72
    11
 73
     7
 74
     5
 42
0.0000000001
 43
0.0000000001
 44
0.0000000001
 40
0.0
 40
0.0
 40
0.0
 40
0.0
 40
0.0777012879688067
 40
0.172515463201213
 40
0.2723671173937614
 40
0.3632448934338907
 40
0.3632448934338907
 40
0.3632448934338907
 40
0.3632448934338907
 10
-25.22962403422858
 20
36.46786426593064
 30
0.0
 10
-25.2429177741357
 20
36.49050605954285
 30
0.0
 10
-25.27243305963104
 20
36.54077626245486
 30
0.0
 10
-25.27198776484761
 20
36.63587628845453
 30
0.0
 10
-25.22793879621374
 20
36.72627982175562
 30
0.0
 10
-25.17169270750024
 20
36.7583869069143
 30
0.0
 10
-25.14489286100039
 20
36.77368512539476
 30
0.0
 11
-25.22962403422858
 21
36.46786426593064
 31
0.0
 11
-25.26346051207273
 21
36.53781126671777
 31
0.0
 11
-25.26494756325926
 21
36.63261377988999
 31
0.0
 11
-25.21920270953083
 21
36.72137053288577
 31
0.0
 11
-25.14489286100039
 21
36.77368512539476
 31
0.0
  0
SPLINE
  5
3DC8
330
1F
100
AcDbEntity
  8
AM_0
100
AcDbSpline
210
0.0
220
0.0
230
1.0
 70
     8
 71
     3
 72
    11
 73
     7
 74
     5
 42
0.0000000001
 43
0.0000000001
 44
0.0000000001
 40
0.0
 40
0.0
 40
0.0
 40
0.0
 40
0.3960874911695846
 40
0.8035589028023855
 40
1.223295248201538
 40
1.654121241047791
 40
1.654121241047791
 40
1.654121241047791
 40
1.654121241047791
 10
-23.44925194563572
 20
44.16844601621222
 30
0.0
 10
-23.46146745047734
 20
44.03664459390496
 30
0.0
 10
-23.4862495450563
 20
43.76925365463479
 30
0.0
 10
-23.61008292028483
 20
43.37807556757558
 30
0.0
 10
-23.79366328757281
 20
42.99847646953945
 30
0.0
 10
-23.96660852639349
 20
42.77295649001836
 30
0.0
 10
-24.05420857740992
 20
42.65872633343247
 30
0.0
 11
-23.44925194563572
 21
44.16844601621222
 31
0.0
 11
-23.49964105865652
 21
43.77557677848802
 31
0.0
 11
-23.61781272078778
 21
43.3856172811461
 31
0.0
 11
-23.80393522408636
 21
43.00940322849135
 31
0.0
 11
-24.05420857740992
 21
42.65872633343247
 31
0.0
  0
SPLINE
  5
3DC9
330
1F
100
AcDbEntity
  8
AM_0
100
AcDbSpline
210
0.0
220
0.0
230
1.0
 70
     8
 71
     3
 72
    11
 73
     7
 74
     5
 42
0.0000000001
 43
0.0000000001
 44
0.0000000001
 40
0.0
 40
0.0
 40
0.0
 40
0.0
 40
0.4361798544682889
 40
0.8800958550641904
 40
1.328190629620806
 40
1.776808810385904
 40
1.776808810385904
 40
1.776808810385904
 40
1.776808810385904
 10
-24.33569574626822
 20
42.32309454750464
 30
0.0
 10
-24.24721688644503
 20
42.43885032069738
 30
0.0
 10
-24.06868989352346
 20
42.67241492746003
 30
0.0
 10
-23.87115210316813
 20
43.07107059261553
 30
0.0
 10
-23.7220984779083
 20
43.49415509652565
 30
0.0
 10
-23.67206141767631
 20
43.78935026201633
 30
0.0
 10
-23.6470282843878
 20
43.93703399662411
 30
0.0
 11
-24.33569574626822
 21
42.32309454750464
 31
0.0
 11
-24.08195898417401
 21
42.67787690474063
 31
0.0
 11
-23.88006800079049
 21
43.07322668204358
 31
0.0
 11
-23.73455747118706
 21
43.49703750394349
 31
0.0
 11
-23.6470282843878
 21
43.93703399662411
 31
0.0
  0
LINE
  5
3DF0
330
1F
100
AcDbEntity
  8
AM_5
370
    13
100
AcDbLine
 10
0.1180937876738497
 20
-0.1180938017083122
 30
0.0
 11
-32.5403237372125
 21
32.540327604352
 31
0.0
  0
ACAD_PROXY_ENTITY
  5
3E2A
330
1F
100
AcDbEntity
  8
AM_5
370
    13
100
AcDbProxyEntity
 90
      498
 91
      589
 95
       25
 70
     0
 92
      668
310
9C020000270000000C00000016000000000000C00C00000013000000010000000C00000016000000000000C00C000000170000000D0000003C0000000600000002000000205157A2CF9E47C00052D260CE8CFBBF000000000000000014732965D13245C02A8D4BBE1D431AC000000000000000000C00000016000000000000
310
C00C00000010000000FFFFFFFF0C00000012000000FFFFFFFF0C00000017000000000000000C00000014000000010000000C00000013000000020000000C00000016000000000000C00C000000170000000D0000003C000000060000000200000014732965D13245C02A8D4BBE1D431AC0000000000000000070CDFF2CB615
310
44C000B5DAF6F99521C000000000000000000C00000016000000000000C00C00000010000000FFFFFFFF0C00000012000000FFFFFFFF0C00000017000000000000000C00000014000000010000000C00000013000000030000000C00000016000000000000C00C000000170000000D0000003C0000000600000002000000D2
310
A73D495A5845C03B003E57656F1BC0000000000000000070CDFF2CB61544C000B5DAF6F99521C000000000000000000C00000016000000000000C00C00000010000000FFFFFFFF0C00000012000000FFFFFFFF0C00000017000000000000000C00000014000000010000000C00000013000000040000000C00000016000000
310
000000C00C000000170000000D0000003C000000060000000200000070CDFF2CB61544C000B5DAF6F99521C00000000000000000553E1581480D45C0191A5925D61619C000000000000000000C00000016000000000000C00C00000010000000FFFFFFFF0C00000012000000FFFFFFFF0C00000017000000000000000C0000
310
0014000000010000000C00000013000000050000000C00000016000000000000C0
 93
     1609
310
5DC70CDFF2CB61544C0002D76BDBE654870217393F3BA8A8398FCBFAA00DE99A0E6BF8BFAA00DE99A0E63F17393F3BA8A8398FEA54051F8000000C800AA081455E8B3E791F000052D260CE8CFBBF9018FFFFFFFF1C337FCB2D855130000B5DAF6F99521C0A8FFFFFFFF1FFFFFFFF040A2AF459F3C8F800029693067467DDFC
310
5409C870248675DBCF9E47C000210DC048CB780FEA45CE4FCEEA2A0E63F2FEA8037A66839AFE83333333333330940425050000000000003C2FC000000000000F0BF4040101521340020500
340
7A1
340
1670
330
0
330
0
340
0
340
0
340
7A2
330
0
330
0
 94
        0
  0
TEXT
  5
3E2B
330
1F
100
AcDbEntity
  8
AM_6
 62
     0
100
AcDbText
 10
-40.58814048454664
 20
9.314485819665094
 30
0.0
 40
3.5
  1
+5%%D
 50
315.00017515
100
AcDbText
  0
TEXT
  5
3E2C
330
1F
100
AcDbEntity
  8
AM_6
 62
     0
100
AcDbText
 10
-39.84774190439597
 20
-10.57716789543474
 30
0.0
 40
3.5
  1
0%%D
 50
315.00017515
100
AcDbText
  0
INSERT
  5
3E2D
330
1F
100
AcDbEntity
  8
AM_5
370
    13
100
AcDbBlockReference
  2
A$C4828096E
 10
-47.24071122506246
 20
-1.721876314391238
 30
0.0
 50
330.0
  0
TEXT
  5
3E30
330
1F
100
AcDbEntity
  8
AM_6
  6
Continuous
 62
     0
370
    30
100
AcDbText
 10
56.1727528467942
 20
-78.35648185551167
 30
0.0
 40
3.8
  1
FP14R-44A
  7
ACISOTS
100
AcDbText
  0
LINE
  5
3EEB
330
1F
100
AcDbEntity
  8
AM_0
100
AcDbLine
 10
19.08050815125626
 20
-14.50000101396102
 30
0.0
 11
14.50000043129836
 21
-14.50000101396103
 31
0.0
  0
DIMENSION
  5
3EF0
330
1F
100
AcDbEntity
  8
AM_5
370
    13
100
AcDbDimension
  2
*D11
 10
0.1070740076381753
 20
-0.1070740203630294
 30
0.0
 11
50.9099467454389
 21
-26.17821230864592
 31
0.0
 70
   162
 71
     5
 42
0.7853982228181868
  3
AM_JIS
100
AcDb2LineAngularDimension
 13
35.0
 23
-12.50000101396103
 33
0.0
 14
160.0
 24
-12.50000101396103
 34
0.0
 15
8.53204599999998
 25
-8.532047013961005
 35
0.0
 16
47.81023989924729
 26
-32.8863796622272
 36
0.0
1001
ACAD
1000
DSTYLE
1002
{
1070
   271
1070
     0
1002
}
  0
DIMENSION
  5
3F12
330
1F
100
AcDbEntity
  8
AM_5
370
    13
100
AcDbDimension
  2
*D12
 10
41.29082397459683
 20
-12.50000101396103
 30
0.0
 11
41.29082397459683
 21
-21.92236125018149
 31
0.0
 70
   160
 71
     5
 42
2.0
  3
AM_JIS$0
100
AcDbAlignedDimension
 13
33.00000049878585
 23
-14.50000101396103
 33
0.0
 14
35.0
 24
-12.50000101396103
 34
0.0
 50
90.0
100
AcDbRotatedDimension
1001
ACAD
1000
DSTYLE
1002
{
1070
    76
1070
     1
1070
   271
1070
     0
1002
}
  0
LINE
  5
401A
330
1F
100
AcDbEntity
  8
AM_0
100
AcDbLine
 10
-12.54784045129017
 20
-90.87086059448643
 30
0.0
 11
-51.05935351001942
 21
-52.35935213328109
 31
0.0
  0
LINE
  5
4060
330
1F
100
AcDbEntity
  8
AM_0
100
AcDbLine
 10
-17.48519027535965
 20
82.96535202611909
 30
0.0
 11
-48.41727024156872
 21
52.03326838881696
 31
0.0
  0
ENDSEC
  0
SECTION
  2
OBJECTS
  0
DICTIONARY
  5
C
330
0
100
AcDbDictionary
281
     1
  3
ACAD_COLOR
350
1611
  3
ACAD_GROUP
350
D
  3
ACAD_LAYOUT
350
1A
  3
ACAD_MATERIAL
350
1610
  3
ACAD_MLINESTYLE
350
17
  3
ACAD_PLOTSETTINGS
350
19
  3
ACAD_PLOTSTYLENAME
350
E
  3
ACAD_TABLESTYLE
350
1612
  3
AcAmCatalogState
350
1679
  3
ACDBHEADERROUNDTRIPXREC
350
409A
  3
AcDbVariableDictionary
350
30
  3
ACDMSYSVARMGR
350
162A
  3
ACGREF_MASTER
350
1622
  3
ACGREFACAD_MASTER
350
164C
  3
AcmDictionary
350
43
  3
ACME_BOM_MANAGER_NAME
350
36
  3
ACME_COMMAND_HISTORY
350
2F
  3
ACME_SCOPE_NAME
350
2E
  3
ACMESTATEMGR
350
3B
  3
AcmeSysVarManager
350
32
  3
AcmSystemVariableManager
350
79D
  3
AD_APPL
350
1657
  3
ADSYSVARMGR
350
1656
  3
AmdtNamedDwgMgr
350
1647
  3
AMG
350
3F
  3
AMGSNAPSETTINGS
350
59
  3
AMI_MASTER
350
164F
  3
AUTOCAD_ASSEMBLIES_PROJECT
350
165F
  3
Designer_Assemblies_SysVars
350
165A
  3
DWGPROPS
350
409D
  3
GREFAM_MODULE
350
1650
  3
SAKAE_DICT
350
1605
  0
DICTIONARY
  5
1832
330
2
100
AcDbDictionary
280
     1
281
     1
  3
ACAD_LAYERSTATES
360
1833
  0
DICTIONARY
  5
10B
330
1F
100
AcDbDictionary
280
     1
281
     1
  3
ACAD_SORTENTS
360
1DD7
  0
DICTIONARY
  5
2E5D
330
2E58
100
AcDbDictionary
280
     1
281
     1
  3
ACAD_SORTENTS
360
2E5E
  0
DICTIONARY
  5
1611
102
{ACAD_REACTORS
330
C
102
}
330
C
100
AcDbDictionary
281
     1
  0
DICTIONARY
  5
D
102
{ACAD_REACTORS
330
C
102
}
330
C
100
AcDbDictionary
281
     1
  0
DICTIONARY
  5
1A
102
{ACAD_REACTORS
330
C
102
}
330
C
100
AcDbDictionary
281
     1
  3
Model
350
22
  3
ﾚｲｱｳﾄ1
350
1E
  3
ﾚｲｱｳﾄ2
350
26
  0
DICTIONARY
  5
1610
102
{ACAD_REACTORS
330
C
102
}
330
C
100
AcDbDictionary
281
     1
  0
DICTIONARY
  5
17
102
{ACAD_REACTORS
330
C
102
}
330
C
100
AcDbDictionary
281
     1
  3
Standard
350
18
  0
DICTIONARY
  5
19
102
{ACAD_REACTORS
330
C
102
}
330
C
100
AcDbDictionary
281
     1
  0
ACDBDICTIONARYWDFLT
  5
E
102
{ACAD_REACTORS
330
C
102
}
330
C
100
AcDbDictionary
281
     1
  3
Normal
350
F
100
AcDbDictionaryWithDefault
340
F
  0
DICTIONARY
  5
1612
102
{ACAD_REACTORS
330
C
102
}
330
C
100
AcDbDictionary
281
     1
  3
Standard
350
1613
  0
ACAD_PROXY_OBJECT
  5
1679
102
{ACAD_REACTORS
330
C
102
}
330
C
100
AcDbProxyObject
 90
      499
 91
      570
 95
       25
 70
     0
 93
      160
310
3FFFFFFFE00A028140283A19D2E3A32B6B8400AA
  0
DICTIONARY
  5
409A
102
{ACAD_REACTORS
330
C
102
}
330
C
100
AcDbDictionary
281
     1
  3
COLORDICT
350
409B
  3
MATERIALDICT
350
409C
  0
DICTIONARY
  5
30
102
{ACAD_REACTORS
330
C
102
}
330
C
100
AcDbDictionary
281
     1
  3
CTABLESTYLE
350
1684
  3
DIMASSOC
350
4098
  3
HIDETEXT
350
4099
  3
INDEXCTL
350
31
  0
ACAD_PROXY_OBJECT
  5
162A
102
{ACAD_REACTORS
330
C
102
}
330
C
100
AcDbProxyObject
 90
      499
 91
      507
 95
       25
 70
     0
 93
      240
310
4C51A47A0000000000000000000000000000000000000000000000000000
330
162B
330
162C
330
162D
330
162E
330
162F
330
1630
330
1631
330
1632
330
1633
330
1634
330
1635
330
1636
330
1637
330
1638
330
1639
330
163A
330
163B
330
163C
330
163D
330
163E
330
163F
330
1640
330
1641
330
1642
330
1643
330
1644
 94
        0
  0
ACAD_PROXY_OBJECT
  5
1622
102
{ACAD_REACTORS
330
C
102
}
330
C
100
AcDbProxyObject
 90
      499
 91
      534
 95
       25
 70
     0
 93
       34
310
0400004280
  0
ACAD_PROXY_OBJECT
  5
164C
102
{ACAD_REACTORS
330
C
102
}
330
C
100
AcDbProxyObject
 90
      499
 91
      540
 95
       25
 70
     0
 93
      114
310
04000041C080000000000000000000
  0
DICTIONARY
  5
43
102
{ACAD_REACTORS
330
C
102
}
330
C
100
AcDbDictionary
281
     1
  3
AcmBOMDATA
350
44
  3
AcmStdDictionary
350
7A0
  3
AMDTSECTSYM_ARROWCOLOR
350
166D
  0
ACAD_PROXY_OBJECT
  5
36
102
{ACAD_REACTORS
330
C
102
}
330
C
100
AcDbProxyObject
 90
      499
 91
      510
 95
       25
 70
     0
 93
       50
310
00010040400000
330
0
330
0
330
37
 94
        0
  0
ACAD_PROXY_OBJECT
  5
2F
102
{ACAD_REACTORS
330
C
102
}
330
C
100
AcDbProxyObject
 90
      499
 91
      505
 95
       25
 70
     0
 93
     6474
310
47805055153415645404052D4D5347202D205050413A2020206465736B746F702E6172782046696C6556657273696F6E3A20392E322E302E34014115539113E014156131253916014115539113E014193D19194D15510101461354D1C80B4810DBDB5B585B990810D05390D1531311510B8050545524153458050545524153
310
4580505455241534580505455241534580506455854454E4440405184D5347202D20436F6D6D616E642043414E43454C4C45442E014115539113E01415613125391601411514925350101461354D1C80B4810DBDB5B585B990810D05390D1531311510B805054552415345805045452494D40405184D5347202D20436F6D6D
310
616E642043414E43454C4C45442E014253505510D2141493D4201415454D05591501014B5354D1C80B481414104E88080819195CDADD1BDC0B985C9E08119A5B1955995C9CDA5BDB8E880E4B8C8B8C0B8D005055153415645404052D4D5347202D205050413A2020206465736B746F702E6172782046696C6556657273696F
310
6E3A20392E322E302E34014154155491D1601415454D05591501014B5354D1C80B481414104E88080819195CDADD1BDC0B985C9E08119A5B1955995C9CDA5BDB8E880E4B8C8B8C0B8D005055153415645404052D4D5347202D205050413A2020206465736B746F702E6172782046696C6556657273696F6E3A20392E322E30
310
2E3401415454D05591501014B5354D1C80B481414104E88080819195CDADD1BDC0B985C9E08119A5B1955995C9CDA5BDB8E880E4B8C8B8C0B8D005055153415645404052D4D5347202D205050413A2020206465736B746F702E6172782046696C6556657273696F6E3A20392E322E302E34014390535115149154D15511109
310
353D1102014213880B4815539113C05084E202D20554E444F014115539113E014115539113E0142941493D4115495125154E01411693D3D350101461354D1C80B4810DBDB5B585B990810D05390D1531311510B80505505552474540405184D5347202D20436F6D6D616E642043414E43454C4C45442E01415454D05591501
310
014B5354D1C80B481414104E88080819195CDADD1BDC0B985C9E08119A5B1955995C9CDA5BDB8E880E4B8C8B8C0B8D00
  0
ACAD_PROXY_OBJECT
  5
2E
102
{ACAD_REACTORS
330
C
102
}
330
C
100
AcDbProxyObject
 90
      499
 91
      504
 95
       25
 70
     0
 93
      586
310
09000046408000000000000000001344E200000000000000000000000000000000000000000000000000000000000000000000000000000000000000000000000000000000AAA406AA80
360
33
360
34
360
35
360
37
360
79E
360
79F
360
1623
360
1624
360
1625
360
1626
360
1627
360
1628
360
162B
360
162C
360
162D
360
162E
360
162F
360
1630
360
1631
360
1632
360
1633
360
1634
360
1635
360
1636
360
1637
360
1638
360
1639
360
163A
360
163B
360
163C
360
163D
360
163E
360
163F
360
1640
360
1641
360
1642
360
1643
360
1644
360
1652
360
1653
360
1654
360
1655
360
165B
360
165C
360
165D
360
165E
360
1663
360
1664
360
1665
360
1666
360
1667
360
1668
 94
        0
  0
ACAD_PROXY_OBJECT
  5
3B
102
{ACAD_REACTORS
330
C
102
}
330
C
100
AcDbProxyObject
 90
      499
 91
      515
 95
       25
 70
     0
 93
       50
310
09000042641280
  0
ACAD_PROXY_OBJECT
  5
32
102
{ACAD_REACTORS
330
C
102
}
330
C
100
AcDbProxyObject
 90
      499
 91
      507
 95
       25
 70
     0
 93
       48
310
903412000000
330
33
330
34
330
35
 94
        0
  0
ACAD_PROXY_OBJECT
  5
79D
102
{ACAD_REACTORS
330
C
102
}
330
C
100
AcDbProxyObject
 90
      499
 91
      507
 95
       25
 70
     0
 93
       40
310
90240E0000
330
79E
330
79F
 94
        0
  0
ACAD_PROXY_OBJECT
  5
1657
102
{ACAD_REACTORS
330
C
102
}
330
C
100
AcDbProxyObject
 90
      499
 91
      550
 95
       25
 70
     0
 93
       42
310
000900004040
330
1652
 94
        0
  0
ACAD_PROXY_OBJECT
  5
1656
102
{ACAD_REACTORS
330
C
102
}
330
C
100
AcDbProxyObject
 90
      499
 91
      507
 95
       25
 70
     0
 93
        8
310
AA
  0
ACAD_PROXY_OBJECT
  5
1647
102
{ACAD_REACTORS
330
C
102
}
330
C
100
AcDbProxyObject
 90
      499
 91
      539
 95
       25
 70
     0
 93
       42
310
000100005E80
330
1623
 94
        0
  0
DICTIONARY
  5
3F
102
{ACAD_REACTORS
330
C
102
}
330
C
100
AcDbDictionary
281
     1
  3
AcMgSettings
350
40
  3
AMGLAYCFG
350
47
  0
DICTIONARY
  5
59
102
{ACAD_REACTORS
330
C
102
}
330
C
100
AcDbDictionary
281
     1
  3
DIMENSION
350
AE3
  3
FEA
350
AE4
  3
HATCH (1)
350
AE5
  3
HATCH (2)
350
AE6
  3
SYMBOLS
350
AE7
  0
ACAD_PROXY_OBJECT
  5
164F
102
{ACAD_REACTORS
330
C
102
}
330
C
100
AcDbProxyObject
 90
      499
 91
      543
 95
       25
 70
     0
 93
       34
310
0500004280
  0
ACAD_PROXY_OBJECT
  5
165F
102
{ACAD_REACTORS
330
C
102
}
330
C
100
AcDbProxyObject
 90
      499
 91
      553
 95
       25
 70
     0
 93
       98
310
0900004E400000000000000000
330
1666
330
0
330
1667
330
0
330
0
330
0
330
0
330
0
 94
        0
  0
ACAD_PROXY_OBJECT
  5
165A
102
{ACAD_REACTORS
330
C
102
}
330
C
100
AcDbProxyObject
 90
      499
 91
      507
 95
       25
 70
     0
 93
       56
310
90441600000000
330
165B
330
165C
330
165D
330
165E
 94
        0
  0
XRECORD
  5
409D
102
{ACAD_REACTORS
330
C
102
}
330
C
100
AcDbXrecord
280
     1
  1
DWGPROPS COOKIE
  2

  3

  4

  6

  7

  8

  9

300
AmdtFileType=82
301
=
302
=
303
=
304
=
305
=
306
=
307
=
308
=
309
=
 40
0.0
 41
2451948.235903461
 42
2455463.111653461
  1

 90
        1
  0
ACAD_PROXY_OBJECT
  5
1650
102
{ACAD_REACTORS
330
C
102
}
330
C
100
AcDbProxyObject
 90
      499
 91
      544
 95
       25
 70
     0
 93
        8
310
05
  0
DICTIONARY
  5
1605
102
{ACAD_REACTORS
330
C
102
}
330
C
100
AcDbDictionary
281
     1
  3
XREC1
350
1606
  0
DICTIONARY
  5
1833
102
{ACAD_REACTORS
330
1832
102
}
330
1832
100
AcDbDictionary
281
     1
  0
SORTENTSTABLE
  5
1DD7
102
{ACAD_REACTORS
330
10B
102
}
330
10B
100
AcDbSortentsTable
330
1F
331
2E3B
  5
2E38
331
31E2
  5
31E2
331
31E5
  5
31E5
331
31E7
  5
31E7
331
31EB
  5
31EB
331
31EE
  5
31EE
331
31EF
  5
31EF
331
31F0
  5
31F0
331
31F1
  5
31F1
331
31F2
  5
31F2
331
31F3
  5
31F3
331
31F4
  5
31F4
331
31F6
  5
31F6
331
31F7
  5
31F7
331
31FC
  5
31FC
331
31FE
  5
31FE
331
3200
  5
3200
331
3201
  5
3207
331
3204
  5
320D
331
3207
  5
320E
331
320B
  5
3211
331
320D
  5
3213
331
320E
  5
3216
331
3211
  5
321A
331
3213
  5
321B
331
3216
  5
321C
331
321A
  5
321D
331
321B
  5
321E
331
321C
  5
321F
331
321D
  5
3220
331
321E
  5
3221
331
321F
  5
3222
331
3220
  5
3224
331
3221
  5
3225
331
3222
  5
3226
331
3223
  5
3227
331
3224
  5
3228
331
3225
  5
3229
331
3226
  5
322A
331
3227
  5
322B
331
3228
  5
322C
331
3229
  5
323F
331
322A
  5
3240
331
322B
  5
3241
331
322C
  5
3242
331
323F
  5
3243
331
3240
  5
3244
331
3241
  5
3245
331
3242
  5
3246
331
3243
  5
3247
331
3244
  5
3248
331
3245
  5
3283
331
3246
  5
3284
331
3247
  5
3285
331
3248
  5
3286
331
3283
  5
3297
331
3284
  5
3298
331
3285
  5
3299
331
3286
  5
329A
331
3297
  5
329D
331
3298
  5
329E
331
3299
  5
329F
331
329A
  5
32A0
331
329D
  5
32A1
331
329E
  5
32A2
331
329F
  5
32A3
331
32A0
  5
32A4
331
32A1
  5
32A5
331
32A2
  5
32A6
331
32A3
  5
32A7
331
32A4
  5
32A8
331
32A5
  5
32A9
331
32A6
  5
32AA
331
32A7
  5
32AB
331
32A8
  5
32AC
331
32A9
  5
32AD
331
32AA
  5
32AE
331
32AB
  5
32AF
331
32AC
  5
32B0
331
32AD
  5
32B1
331
32AE
  5
32B2
331
32AF
  5
32B3
331
32B0
  5
32B4
331
32B1
  5
32B7
331
32B2
  5
32B8
331
32B3
  5
32CB
331
32B4
  5
32CC
331
32B7
  5
32CD
331
32B8
  5
32CE
331
32CB
  5
32CF
331
32CC
  5
32D0
331
32CD
  5
32D1
331
32CE
  5
32D2
331
32CF
  5
32D3
331
32D0
  5
32D4
331
32D1
  5
32D5
331
32D2
  5
32D6
331
32D3
  5
32D7
331
32D4
  5
32D8
331
32D5
  5
32D9
331
32D6
  5
32DA
331
32D7
  5
32DB
331
32D8
  5
32DC
331
32D9
  5
32DD
331
32DA
  5
32DE
331
32DB
  5
32DF
331
32DC
  5
32E0
331
32DD
  5
32E1
331
32DE
  5
32E2
331
32DF
  5
32EE
331
32E0
  5
32EF
331
32E1
  5
32F1
331
32E2
  5
32F2
331
32EE
  5
32F3
331
32EF
  5
32F4
331
32F1
  5
32F5
331
32F2
  5
32F6
331
32F3
  5
32F7
331
32F4
  5
32F8
331
32F5
  5
32FC
331
32F6
  5
32FD
331
32F7
  5
3300
331
32F8
  5
3301
331
32FC
  5
3306
331
32FD
  5
3307
331
3300
  5
3308
331
3301
  5
3309
331
3306
  5
330B
331
3307
  5
330C
331
3308
  5
330E
331
3309
  5
330F
331
330B
  5
3310
331
330C
  5
3311
331
330E
  5
3312
331
330F
  5
3313
331
3310
  5
3314
331
3311
  5
3315
331
3312
  5
3316
331
3313
  5
3317
331
3314
  5
3318
331
3315
  5
3319
331
3316
  5
3347
331
3317
  5
3348
331
3318
  5
3349
331
3319
  5
334A
331
3347
  5
3351
331
3348
  5
3365
331
3349
  5
337B
331
334A
  5
337D
331
3351
  5
337E
331
3372
  5
338D
331
337B
  5
33AD
331
337D
  5
3223
331
337E
  5
33D8
331
338D
  5
340A
331
33AD
  5
36A0
331
33D8
  5
36A2
331
36A0
  5
36A4
331
36A2
  5
36A5
331
36A3
  5
36A6
331
36A4
  5
36A7
331
36A5
  5
36A8
331
36A6
  5
36A9
331
36A7
  5
36AA
331
36A8
  5
36AB
331
36A9
  5
36AC
331
36AA
  5
36AD
331
36AB
  5
36AE
331
36AC
  5
36AF
331
36AD
  5
36B0
331
36AE
  5
36B1
331
36AF
  5
36B2
331
36B0
  5
36B3
331
36B1
  5
36B6
331
36B2
  5
36B9
331
36B3
  5
36BA
331
36B6
  5
36BC
331
36B9
  5
36BD
331
36BA
  5
36BE
331
36BC
  5
36BF
331
36BD
  5
36C1
331
36BE
  5
36C2
331
36BF
  5
36C3
331
36C1
  5
36C4
331
36C2
  5
36C5
331
36C3
  5
36C6
331
36C4
  5
36C7
331
36C5
  5
36C8
331
36C6
  5
36C9
331
36C7
  5
36CA
331
36C8
  5
36CC
331
36C9
  5
36CE
331
36CA
  5
36CF
331
36CC
  5
36D1
331
36CE
  5
36D2
331
36D1
  5
36D6
331
36D2
  5
36D7
331
36D3
  5
36D8
331
36D5
  5
36DB
331
36D6
  5
36DC
331
36D7
  5
36E0
331
36DA
  5
36E3
331
36DB
  5
36E4
331
36DC
  5
36E5
331
36E0
  5
36E6
331
36E2
  5
36E7
331
36E3
  5
36E8
331
36E4
  5
36EC
331
36E5
  5
36ED
331
36E6
  5
373A
331
36E7
  5
373B
331
36E8
  5
373E
331
3738
  5
373F
331
3739
  5
3740
331
373C
  5
3741
331
373D
  5
3742
331
373E
  5
3743
331
373F
  5
3744
331
3740
  5
3745
331
3741
  5
3746
331
3742
  5
3747
331
3743
  5
3748
331
3744
  5
3749
331
3745
  5
374A
331
3746
  5
374B
331
3747
  5
374C
331
3748
  5
374D
331
3749
  5
374E
331
374A
  5
374F
331
374B
  5
3750
331
374C
  5
3751
331
374D
  5
3752
331
374E
  5
3753
331
374F
  5
3754
331
3750
  5
3755
331
3751
  5
3756
331
3752
  5
3757
331
3753
  5
376E
331
3754
  5
376F
331
3755
  5
3770
331
3756
  5
3771
331
3757
  5
3772
331
376E
  5
3773
331
376F
  5
3774
331
3770
  5
3775
331
3771
  5
3776
331
3772
  5
3777
331
3773
  5
3778
331
3774
  5
3779
331
3775
  5
377A
331
3776
  5
377B
331
3777
  5
377C
331
3778
  5
377D
331
3779
  5
377E
331
377A
  5
377F
331
377B
  5
3780
331
377C
  5
3781
331
377D
  5
3782
331
377E
  5
3783
331
377F
  5
3788
331
3780
  5
3789
331
3781
  5
3794
331
3782
  5
3795
331
3783
  5
3796
331
3788
  5
3797
331
3789
  5
3798
331
3794
  5
3799
331
3795
  5
379A
331
3796
  5
379B
331
3797
  5
379C
331
3798
  5
379D
331
3799
  5
379E
331
379A
  5
379F
331
379B
  5
37A0
331
379C
  5
37A1
331
379D
  5
37AA
331
379E
  5
37AB
331
379F
  5
37AC
331
37A0
  5
37AD
331
37A1
  5
37AE
331
37AA
  5
37AF
331
37AB
  5
383B
331
3835
  5
383E
331
383A
  5
383F
331
383B
  5
3840
331
383C
  5
3841
331
383D
  5
3842
331
383E
  5
3843
331
383F
  5
3844
331
3840
  5
3845
331
3841
  5
3846
331
3842
  5
3847
331
3843
  5
384A
331
3844
  5
384B
331
3845
  5
384D
331
3846
  5
384E
331
3847
  5
384F
331
384A
  5
3851
331
384B
  5
3852
331
384D
  5
3856
331
384E
  5
3857
331
384F
  5
3858
331
3851
  5
3859
331
3852
  5
385B
331
3856
  5
385E
331
3857
  5
385F
331
3859
  5
3860
331
385A
  5
3861
331
385B
  5
3862
331
385E
  5
3863
331
385F
  5
3864
331
3860
  5
3865
331
3861
  5
38A8
331
3862
  5
38A9
331
3863
  5
38AC
331
38A6
  5
38B2
331
38A7
  5
38B3
331
38AA
  5
38B4
331
38AC
  5
38B6
331
38B1
  5
38B7
331
38B2
  5
38B8
331
38B3
  5
38B9
331
38B4
  5
38BA
331
38B6
  5
38BB
331
38B7
  5
38BF
331
38B8
  5
38C0
331
38B9
  5
38C1
331
38BD
  5
38D8
331
38BE
  5
38D9
331
38BF
  5
38DC
331
38D6
  5
38DD
331
38D7
  5
38DE
331
38D8
  5
38DF
331
38D9
  5
38E0
331
38DC
  5
38E1
331
38DD
  5
38E2
331
38DE
  5
38E3
331
38DF
  5
38E4
331
38E0
  5
38E5
331
38E1
  5
38E6
331
38E2
  5
38EF
331
38E3
  5
38F1
331
38E4
  5
3B26
331
38E9
  5
3B90
331
38EE
  5
36D5
331
38F1
  5
3BA5
331
3B26
  5
3BB8
331
3B91
  5
3BE2
331
3BA5
  5
3BF4
331
3BB8
  5
3D01
331
3BE2
  5
3D02
331
3BF4
  5
3D04
331
3D01
  5
3D05
331
3D02
  5
3D06
331
3D04
  5
3D09
331
3D05
  5
3D0A
331
3D06
  5
3D0D
331
3D09
  5
3D0E
331
3D0A
  5
3D0F
331
3D0D
  5
3D10
331
3D0E
  5
3D11
331
3D0F
  5
3D13
331
3D10
  5
3D14
331
3D11
  5
3D15
331
3D13
  5
3D18
331
3D14
  5
3D19
331
3D15
  5
3D1A
331
3D18
  5
3D1B
331
3D19
  5
3D1C
331
3D1A
  5
3D1D
331
3D1B
  5
3D1F
331
3D1C
  5
3D20
331
3D1D
  5
3D22
331
3D1F
  5
3D24
331
3D20
  5
3D25
331
3D22
  5
3D26
331
3D24
  5
3D27
331
3D25
  5
3D28
331
3D26
  5
3D29
331
3D27
  5
3D2A
331
3D28
  5
3D2B
331
3D29
  5
3D2C
331
3D2A
  5
3D2D
331
3D2B
  5
3D2E
331
3D2C
  5
3D2F
331
3D2D
  5
3D30
331
3D2E
  5
3D31
331
3D2F
  5
3D32
331
3D30
  5
3D33
331
3D31
  5
3D34
331
3D32
  5
3D36
331
3D33
  5
3D37
331
3D34
  5
3D38
331
3D36
  5
3D39
331
3D37
  5
3D3A
331
3D39
  5
3D3E
331
3D3A
  5
3D3F
331
3D3D
  5
3D40
331
3D3E
  5
3D41
331
3D40
  5
3D47
331
3D41
  5
3D48
331
3D47
  5
3D4D
331
3D48
  5
3D4E
331
3D4A
  5
3D4F
331
3D4D
  5
3D50
331
3D4E
  5
3D53
331
3D4F
  5
3D54
331
3D53
  5
3D56
331
3D54
  5
3D57
331
3D55
  5
3D58
331
3D56
  5
3D59
331
3D57
  5
3D5A
331
3D58
  5
3D5B
331
3D59
  5
3D5C
331
3D5A
  5
3D5D
331
3D5B
  5
3D5E
331
3D5C
  5
3D5F
331
3D5D
  5
3D60
331
3D5E
  5
3D61
331
3D5F
  5
3D62
331
3D60
  5
3D63
331
3D61
  5
3D64
331
3D62
  5
3D65
331
3D63
  5
3DA1
331
3D64
  5
3DA5
331
3D65
  5
3DA6
331
3DA1
  5
3DA7
331
3DA5
  5
3DAF
331
3DA6
  5
3DB0
331
3DA7
  5
3DB1
331
3DAF
  5
3DB2
331
3DB0
  5
3DB5
331
3DB1
  5
3DB6
331
3DB2
  5
3DB7
331
3DB5
  5
3DB8
331
3DB6
  5
3DB9
331
3DB7
  5
3DBF
331
3DB8
  5
3DC0
331
3DB9
  5
3DC1
331
3DBF
  5
3DC2
331
3DC0
  5
3DC3
331
3DC1
  5
3DC4
331
3DC2
  5
3DC5
331
3DC3
  5
3DC6
331
3DC4
  5
3DC7
331
3DC5
  5
3DC8
331
3DC6
  5
3DC9
331
3DC7
  5
3DF0
331
3DC8
  5
3E2A
331
3DC9
  5
3E2B
331
3DF0
  5
3E2C
331
3E2A
  5
3E2D
331
3E2B
  5
3E30
331
3E2C
  5
3EE9
331
3E2D
  5
3EEA
331
3E30
  5
3EEB
331
3EEB
  5
3204
331
3EF0
  5
3EF0
331
3F12
  5
3F12
331
401A
  5
401A
331
4060
  5
4060
  0
SORTENTSTABLE
  5
2E5E
102
{ACAD_REACTORS
330
2E5D
102
}
330
2E5D
100
AcDbSortentsTable
330
2E58
  0
LAYOUT
  5
22
102
{ACAD_REACTORS
330
1A
102
}
330
1A
100
AcDbPlotSettings
  1

  2
SII LP-2150 (D-SCAN C2)
  4
User118
  6
AM_VIEW1
 40
3.174999952316284
 41
3.174999952316284
 42
3.17498779296875
 43
3.17498779296875
 44
296.9259948730469
 45
419.9889831542969
 46
0.0
 47
0.0
 48
0.0
 49
0.0
140
423.0
141
300.0
142
1.0
143
1.03243210946902
 70
 11952
 72
     1
 73
     1
 74
     4
  7
sei_cad.ctb
 75
     0
147
0.9685866904258728
148
0.0
149
0.0
100
AcDbLayout
  1
Model
 70
     1
 71
     0
 10
0.0
 20
0.0
 11
12.0
 21
9.0
 12
0.0
 22
0.0
 32
0.0
 14
0.0
 24
0.0
 34
0.0
 15
0.0
 25
0.0
 35
0.0
146
0.0
 13
0.0
 23
0.0
 33
0.0
 16
1.0
 26
0.0
 36
0.0
 17
0.0
 27
1.0
 37
0.0
 76
     0
330
1F
  0
LAYOUT
  5
1E
102
{ACAD_REACTORS
330
1A
102
}
330
1A
100
AcDbPlotSettings
  1

  2
SII LP-2150 (D-SCAN C2)
  4

  6

 40
0.0
 41
0.0
 42
0.0
 43
0.0
 44
0.0
 45
0.0
 46
0.0
 47
0.0
 48
0.0
 49
0.0
140
0.0
141
0.0
142
1.0
143
1.0
 70
   688
 72
     0
 73
     0
 74
     5
  7
sei_cad.ctb
 75
    16
147
1.0
148
0.0
149
0.0
100
AcDbLayout
  1
ﾚｲｱｳﾄ1
 70
     1
 71
     1
 10
0.0
 20
0.0
 11
420.0
 21
297.0
 12
0.0
 22
0.0
 32
0.0
 14
1.000000000000000E+20
 24
1.000000000000000E+20
 34
1.000000000000000E+20
 15
-1.000000000000000E+20
 25
-1.000000000000000E+20
 35
-1.000000000000000E+20
146
0.0
 13
0.0
 23
0.0
 33
0.0
 16
1.0
 26
0.0
 36
0.0
 17
0.0
 27
1.0
 37
0.0
 76
     0
330
1B
  0
LAYOUT
  5
26
102
{ACAD_REACTORS
330
1A
102
}
330
1A
100
AcDbPlotSettings
  1

  2
SII LP-2150 (D-SCAN C2)
  4

  6

 40
0.0
 41
0.0
 42
0.0
 43
0.0
 44
0.0
 45
0.0
 46
0.0
 47
0.0
 48
0.0
 49
0.0
140
0.0
141
0.0
142
1.0
143
1.0
 70
   688
 72
     0
 73
     0
 74
     5
  7
sei_cad.ctb
 75
    16
147
1.0
148
0.0
149
0.0
100
AcDbLayout
  1
ﾚｲｱｳﾄ2
 70
     1
 71
     2
 10
0.0
 20
0.0
 11
12.0
 21
9.0
 12
0.0
 22
0.0
 32
0.0
 14
0.0
 24
0.0
 34
0.0
 15
0.0
 25
0.0
 35
0.0
146
0.0
 13
0.0
 23
0.0
 33
0.0
 16
1.0
 26
0.0
 36
0.0
 17
0.0
 27
1.0
 37
0.0
 76
     0
330
23
  0
MLINESTYLE
  5
18
102
{ACAD_REACTORS
330
17
102
}
330
17
100
AcDbMlineStyle
  2
STANDARD
 70
     0
  3

 62
   256
 51
90.0
 52
90.0
 71
     2
 49
0.5
 62
   256
  6
BYLAYER
 49
-0.5
 62
   256
  6
BYLAYER
  0
ACDBPLACEHOLDER
  5
F
102
{ACAD_REACTORS
330
E
102
}
330
E
  0
TABLESTYLE
  5
1613
102
{ACAD_REACTORS
330
1612
102
}
330
1612
100
AcDbTableStyle
  3
Standard
 70
     0
 71
     8
 40
1.5
 41
1.5
280
     0
281
     0
  7
STANDARD
140
4.5
170
     2
 62
     0
 63
     7
283
     0
274
    -2
284
     1
 64
     0
275
    -2
285
     1
 65
     0
276
    -2
286
     1
 66
     0
277
    -2
287
     1
 67
     0
278
    -2
288
     1
 68
     0
279
    -2
289
     1
 69
     0
  7
STANDARD
140
6.0
170
     5
 62
     0
 63
     7
283
     0
274
    -2
284
     1
 64
     0
275
    -2
285
     1
 65
     0
276
    -2
286
     1
 66
     0
277
    -2
287
     1
 67
     0
278
    -2
288
     1
 68
     0
279
    -2
289
     1
 69
     0
  7
STANDARD
140
4.5
170
     5
 62
     0
 63
     7
283
     0
274
    -2
284
     1
 64
     0
275
    -2
285
     1
 65
     0
276
    -2
286
     1
 66
     0
277
    -2
287
     1
 67
     0
278
    -2
288
     1
 68
     0
279
    -2
289
     1
 69
     0
  0
XRECORD
  5
409B
102
{ACAD_REACTORS
330
409A
102
}
330
409A
100
AcDbXrecord
280
     1
340
1611
  0
XRECORD
  5
409C
102
{ACAD_REACTORS
330
409A
102
}
330
409A
100
AcDbXrecord
280
     1
340
1610
  0
DICTIONARYVAR
  5
1684
102
{ACAD_REACTORS
330
30
102
}
330
30
100
DictionaryVariables
280
     0
  1
STANDARD
  0
DICTIONARYVAR
  5
4098
102
{ACAD_REACTORS
330
30
102
}
330
30
100
DictionaryVariables
280
     0
  1
1
  0
DICTIONARYVAR
  5
4099
102
{ACAD_REACTORS
330
30
102
}
330
30
100
DictionaryVariables
280
     0
  1
0
  0
DICTIONARYVAR
  5
31
102
{ACAD_REACTORS
330
30
102
}
330
30
100
DictionaryVariables
280
     0
  1
1
  0
ACAD_PROXY_OBJECT
  5
44
102
{ACAD_REACTORS
330
43
102
}
330
43
100
AcDbProxyObject
 90
      499
 91
      519
 95
       25
 70
     0
 93
      118
310
405010040CA904C415CD5B075DD138
350
45
 94
        0
  0
DICTIONARY
  5
7A0
102
{ACAD_REACTORS
330
43
102
}
330
43
100
AcDbDictionary
281
     1
  3
ANSI
350
1B45
  3
JIS
350
7A1
  0
XRECORD
  5
166D
102
{ACAD_REACTORS
330
43
102
}
330
43
100
AcDbXrecord
280
     1
 90
-1023410169
  0
ACAD_PROXY_OBJECT
  5
33
330
2E
100
AcDbProxyObject
 90
      499
 91
      508
 95
       25
 70
     0
 93
      156
310
00010143D050D351505391D5531054925390D490
330
2E
 94
        0
  0
ACAD_PROXY_OBJECT
  5
34
330
2E
100
AcDbProxyObject
 90
      499
 91
      508
 95
       25
 70
     0
 93
      148
310
000101439050D351531253915054925390D490
330
2E
 94
        0
  0
ACAD_PROXY_OBJECT
  5
35
330
2E
100
AcDbProxyObject
 90
      499
 91
      509
 95
       25
 70
     0
 93
      156
310
000101439050D35154D6535093D314D256915080
330
2E
 94
        0
  0
ACAD_PROXY_OBJECT
  5
37
330
2E
100
AcDbProxyObject
 90
      499
 91
      511
 95
       25
 70
     0
 93
       88
310
000101411093D34C402B00
330
2E
330
0
330
0
 94
        0
  0
ACAD_PROXY_OBJECT
  5
79E
330
2E
100
AcDbProxyObject
 90
      499
 91
      509
 95
       25
 70
     0
 93
      108
310
00010142505351D153D35054D4E0
330
2E
 94
        0
  0
ACAD_PROXY_OBJECT
  5
79F
330
2E
100
AcDbProxyObject
 90
      499
 91
      525
 95
       25
 70
     0
 93
      140
310
00010142105350D55494D511005034A49530
330
2E
 94
        0
  0
ACAD_PROXY_OBJECT
  5
1623
330
2E
100
AcDbProxyObject
 90
      499
 91
      535
 95
       25
 70
     0
 93
      358
310
0001014124FEA55D00507392E322E302E32014124FEA55D00507392E322E302E3240501000041505391D311658
330
2E
330
1624
330
162A
 94
        0
  0
ACAD_PROXY_OBJECT
  5
1624
330
2E
100
AcDbProxyObject
 90
      499
 91
      536
 95
       25
 70
     0
 93
       56
310
000190240E0000
330
2E
330
1625
330
1627
 94
        0
  0
ACAD_PROXY_OBJECT
  5
1625
330
2E
100
AcDbProxyObject
 90
      499
 91
      537
 95
       25
 70
     0
 93
       48
310
0001AA000000
330
2E
330
1E
330
1626
330
0
 94
        0
  0
ACAD_PROXY_OBJECT
  5
1626
330
2E
100
AcDbProxyObject
 90
      499
 91
      538
 95
       25
 70
     0
 93
       28
310
0001AAA0
330
2E
 94
        0
  0
ACAD_PROXY_OBJECT
  5
1627
330
2E
100
AcDbProxyObject
 90
      499
 91
      537
 95
       25
 70
     0
 93
       48
310
0001AA000000
330
2E
330
26
330
1628
330
0
 94
        0
  0
ACAD_PROXY_OBJECT
  5
1628
330
2E
100
AcDbProxyObject
 90
      499
 91
      538
 95
       25
 70
     0
 93
       28
310
0001AAA0
330
2E
 94
        0
  0
ACAD_PROXY_OBJECT
  5
162B
330
2E
100
AcDbProxyObject
 90
      499
 91
      509
 95
       25
 70
     0
 93
      108
310
000101421053521310D05310D010
330
2E
 94
        0
  0
ACAD_PROXY_OBJECT
  5
162C
330
2E
100
AcDbProxyObject
 90
      499
 91
      509
 95
       25
 70
     0
 93
      124
310
00010142905354915554D15112535010
330
2E
 94
        0
  0
ACAD_PROXY_OBJECT
  5
162D
330
2E
100
AcDbProxyObject
 90
      499
 91
      509
 95
       25
 70
     0
 93
      132
310
00010143105354D150D51253D391125360
330
2E
 94
        0
  0
ACAD_PROXY_OBJECT
  5
162E
330
2E
100
AcDbProxyObject
 90
      499
 91
      509
 95
       25
 70
     0
 93
      124
310
00010142905355941093D49111549010
330
2E
 94
        0
  0
ACAD_PROXY_OBJECT
  5
162F
330
2E
100
AcDbProxyObject
 90
      499
 91
      509
 95
       25
 70
     0
 93
      116
310
0001014290535115D1D0D3D313D4A0
330
2E
 94
        0
  0
ACAD_PROXY_OBJECT
  5
1630
330
2E
100
AcDbProxyObject
 90
      499
 91
      509
 95
       25
 70
     0
 93
      148
310
00010143505355925155D49151949154D21010
330
2E
 94
        0
  0
ACAD_PROXY_OBJECT
  5
1631
330
2E
100
AcDbProxyObject
 90
      499
 91
      509
 95
       25
 70
     0
 93
      172
310
00010144105350539393D51154149154D15495915010
330
2E
 94
        0
  0
ACAD_PROXY_OBJECT
  5
1632
330
2E
100
AcDbProxyObject
 90
      499
 91
      509
 95
       25
 70
     0
 93
      172
310
00010144105350555513D11253505494905391D15010
330
2E
 94
        0
  0
ACAD_PROXY_OBJECT
  5
1633
330
2E
100
AcDbProxyObject
 90
      499
 91
      509
 95
       25
 70
     0
 93
      124
310
00010142D05351561514915191125360
330
2E
 94
        0
  0
ACAD_PROXY_OBJECT
  5
1634
330
2E
100
AcDbProxyObject
 90
      499
 91
      509
 95
       25
 70
     0
 93
      132
310
00010142D05355105410539393D5115010
330
2E
 94
        0
  0
ACAD_PROXY_OBJECT
  5
1635
330
2E
100
AcDbProxyObject
 90
      499
 91
      509
 95
       25
 70
     0
 93
      108
310
00010142105350555513D0D31010
330
2E
 94
        0
  0
ACAD_PROXY_OBJECT
  5
1636
330
2E
100
AcDbProxyObject
 90
      499
 91
      509
 95
       25
 70
     0
 93
      108
310
00010142105350D3119150551050
330
2E
 94
        0
  0
ACAD_PROXY_OBJECT
  5
1637
330
2E
100
AcDbProxyObject
 90
      499
 91
      509
 95
       25
 70
     0
 93
      108
310
00010142105350D315925155D3F0
330
2E
 94
        0
  0
ACAD_PROXY_OBJECT
  5
1638
330
2E
100
AcDbProxyObject
 90
      499
 91
      509
 95
       25
 70
     0
 93
      148
310
0001014350535212511156915493D112535010
330
2E
 94
        0
  0
ACAD_PROXY_OBJECT
  5
1639
330
2E
100
AcDbProxyObject
 90
      499
 91
      509
 95
       25
 70
     0
 93
      124
310
00010142905352105510D21254D3D010
330
2E
 94
        0
  0
ACAD_PROXY_OBJECT
  5
163A
330
2E
100
AcDbProxyObject
 90
      499
 91
      509
 95
       25
 70
     0
 93
      148
310
00010143905354D25391D31152105513105660
330
2E
 94
        0
  0
ACAD_PROXY_OBJECT
  5
163B
330
2E
100
AcDbProxyObject
 90
      499
 91
      509
 95
       25
 70
     0
 93
      124
310
00010142D0535115D1D193111254D420
330
2E
 94
        0
  0
ACAD_PROXY_OBJECT
  5
163C
330
2E
100
AcDbProxyObject
 90
      499
 91
      509
 95
       25
 70
     0
 93
      100
310
00010142105350555513D213A0
330
2E
 94
        0
  0
ACAD_PROXY_OBJECT
  5
163D
330
2E
100
AcDbProxyObject
 90
      499
 91
      509
 95
       25
 70
     0
 93
      116
310
000101425053521390D3D553951010
330
2E
 94
        0
  0
ACAD_PROXY_OBJECT
  5
163E
330
2E
100
AcDbProxyObject
 90
      499
 91
      509
 95
       25
 70
     0
 93
      108
310
0001014210535213941493D29010
330
2E
 94
        0
  0
ACAD_PROXY_OBJECT
  5
163F
330
2E
100
AcDbProxyObject
 90
      499
 91
      509
 95
       25
 70
     0
 93
      108
310
0001014210535213951654115070
330
2E
 94
        0
  0
ACAD_PROXY_OBJECT
  5
1640
330
2E
100
AcDbProxyObject
 90
      499
 91
      509
 95
       25
 70
     0
 93
      108
310
000101421053521395925155D0F0
330
2E
 94
        0
  0
ACAD_PROXY_OBJECT
  5
1641
330
2E
100
AcDbProxyObject
 90
      499
 91
      509
 95
       25
 70
     0
 93
      140
310
00010143505354D150D51253D390D3D41660
330
2E
 94
        0
  0
ACAD_PROXY_OBJECT
  5
1642
330
2E
100
AcDbProxyObject
 90
      499
 91
      509
 95
       25
 70
     0
 93
      108
310
00010142105350D3141493D29030
330
2E
 94
        0
  0
ACAD_PROXY_OBJECT
  5
1643
330
2E
100
AcDbProxyObject
 90
      499
 91
      508
 95
       25
 70
     0
 93
      212
310
00010143905350555513D2105510D21493D500000000000002E400
330
2E
 94
        0
  0
ACAD_PROXY_OBJECT
  5
1644
330
2E
100
AcDbProxyObject
 90
      499
 91
      509
 95
       25
 70
     0
 93
      156
310
00010143905350555513D2105510D21111551010
330
2E
 94
        0
  0
ACAD_PROXY_OBJECT
  5
1652
330
2E
100
AcDbProxyObject
 90
      499
 91
      546
 95
       25
 70
     0
 93
      698
310
0001000000009AA6A9AA4051E547565204175672032342030343A33343A353120323031302028555443290141CE4B8C8B8C0B8C80518546875205365702032332031313A34303A343620323031300141CE4B8C8B8C0B8C80
330
2E
330
1653
330
1654
330
1656
330
0
 94
        0
  0
ACAD_PROXY_OBJECT
  5
1653
330
2E
100
AcDbProxyObject
 90
      499
 91
      547
 95
       25
 70
     0
 93
       70
310
0001AAA80820000000
330
2E
330
1653
330
1653
 94
        0
  0
ACAD_PROXY_OBJECT
  5
1654
330
2E
100
AcDbProxyObject
 90
      499
 91
      548
 95
       25
 70
     0
 93
       48
310
000100000000
330
2E
330
0
330
1655
330
0
330
0
 94
        0
  0
ACAD_PROXY_OBJECT
  5
1655
330
2E
100
AcDbProxyObject
 90
      499
 91
      549
 95
       25
 70
     0
 93
       40
310
000100AAAA
330
2E
330
0
 94
        0
  0
ACAD_PROXY_OBJECT
  5
165B
330
2E
100
AcDbProxyObject
 90
      499
 91
      525
 95
       25
 70
     0
 93
      180
310
00010143105050D3D35411119390535140504434F4D500
330
2E
 94
        0
  0
ACAD_PROXY_OBJECT
  5
165C
330
2E
100
AcDbProxyObject
 90
      499
 91
      525
 95
       25
 70
     0
 93
      212
310
0001014390505193D311115491119390535140506466F6C6465720
330
2E
 94
        0
  0
ACAD_PROXY_OBJECT
  5
165D
330
2E
100
AcDbProxyObject
 90
      499
 91
      525
 95
       25
 70
     0
 93
      180
310
00010143105050539393D1119390535140504284156290
330
2E
 94
        0
  0
ACAD_PROXY_OBJECT
  5
165E
330
2E
100
AcDbProxyObject
 90
      499
 91
      525
 95
       25
 70
     0
 93
      436
310
00010143905050D3D35415925155D31254D50052295BD96CA0A90B396CA0A894591A496CA0A8DB691A496CA0A89BA96CA0A95E28F95310
330
2E
 94
        0
  0
ACAD_PROXY_OBJECT
  5
1663
330
2E
100
AcDbProxyObject
 90
      499
 91
      554
 95
       25
 70
     0
 93
       32
310
00010000
330
2E
340
1660
330
1665
330
1660
 94
        0
  0
ACAD_PROXY_OBJECT
  5
1664
330
2E
100
AcDbProxyObject
 90
      499
 91
      555
 95
       25
 70
     0
 93
       18
310
000180
330
2E
 94
        0
  0
ACAD_PROXY_OBJECT
  5
1665
330
2E
100
AcDbProxyObject
 90
      499
 91
      556
 95
       25
 70
     0
 93
      162
310
0001014251940C4D148B4D0D105050055401550000
330
2E
330
1663
330
1664
 94
        0
  0
ACAD_PROXY_OBJECT
  5
1666
330
2E
100
AcDbProxyObject
 90
      499
 91
      557
 95
       25
 70
     0
 93
      178
310
000100AAAAAAA1B6EE4AC073CF9060D2ADEC7D6EDDF840
330
2E
330
1665
 94
        0
  0
ACAD_PROXY_OBJECT
  5
1667
330
2E
100
AcDbProxyObject
 90
      499
 91
      558
 95
       25
 70
     0
 93
      108
310
000190140A000000000000AAAAA0
330
2E
330
1668
330
1668
330
1668
330
1668
330
1668
330
0
 94
        0
  0
ACAD_PROXY_OBJECT
  5
1668
330
2E
100
AcDbProxyObject
 90
      499
 91
      559
 95
       25
 70
     0
 93
       51
310
00010000AAAA80
330
2E
330
1667
330
1665
 94
        0
  0
DICTIONARY
  5
40
102
{ACAD_REACTORS
330
3F
102
}
330
3F
100
AcDbDictionary
281
     1
  3
DWGSETTINGS
350
41
  3
FEM
350
54
  3
Shaft
350
53
  3
TRANSSETTINGS
350
42
  0
ACAD_PROXY_OBJECT
  5
47
102
{ACAD_REACTORS
330
3F
102
}
330
3F
100
AcDbProxyObject
 90
      499
 91
      521
 95
       25
 70
     0
 93
    23232
310
41502491013041105357CC201C00030C011E441013141105357CC603800030C011E441013241105357CCA01400030C011E441013341105357CCE01800030C010D9013441105357CD200C00030C010D9013541105357CD600C00030C010D9013641105357CDA00800030C011E9013741105357CDE01000030C010D901384110
310
5357CE200400030C011E9013941105357CE63F400030C0241102324141505357CC4C201C00030C011E902344141505357CC4C600C00030C010D902495041505357CC4CA01C00030C011E40902304E41505357CC13A01C00030C011E902314E41505357CC53A03800030C011E902324E41505357CC93A01400030C011E90233
310
4E41505357CCD3A01800030C010D902344E41505357CD13A00C00030C010D902354E41505357CD53A00C00030C010D902364E41505357CD93A00800030C011E902374E41505357CDD3A01000030C010D902384E41505357CE13A00400030C011E902394E41505357CE53A3F400030C024110332414E41905357CC4C13A01C0
310
0030C011E90334414E41905357CC4C53A00C00030C010D90349504E41905357CC4C93A01C00030C011E409044B4C494E41505357D0D3200400030C011E42504494E464F42105357D410549151A01000030C010D42D055241484D3541905357D093D4A01C00030C011E425045649455742105357D5925155D4E00400030C011
310
E42D06424548494E4441905357D25395A3F400030C0243505545241494C41505357D514A00C00030C010D4250348494441905357D21251201C00030C011E4250356495341905357D59254E01C00030C011E4250650415244494D42505357D41054911253600C00030C010D4250652454644494D42505357D49151911253601
310
000030C010D425774110531514901348070000C300479034110915312501348000000C0003FFFFFFFD034110921395901398000000C0003FFFFFFFE415092139594D06424548494E448000000C0003FFFFFFFE411093125110234418000000C0003FFFFFFFD03411093D05410234418000000C0003FFFFFFFD03411093D48C
310
9055241484D358010000C30047A411093D48CD055241484D358020000C30047A411093D48D5055241484D358000000C0003FFFFFFFE411093D48DD055241484D3581E0000C30047903411094105410234418000000C0003FFFFFFFD03411094115610234418000000C0003FFFFFFFD034110951112501358000000C0003FFF
310
FFFFD034110D0530C901348000000C0003FFFFFFFE4110D0530CD01348020000C30047A4110D0530D501348070000C30047A4110D0530DD013481E0000C30047A4110D15393901378000000C0003FFFFFFFE4110D15395D01378000000C0003FFFFFFFE4110D312539044B4C494E8000000C0003FFFFFFFE4110D3D38C5013
310
08000000C0003FFFFFFFD034110D3D38C901318000000C0003FFFFFFFD034110D3D38CD01328000000C0003FFFFFFFD034110D3D38D101328000000C0003FFFFFFFD034111115494101348000000C0003FFFFFFFD034111115510501348000000C0003FFFFFFFE4111125051D01358000000C0003FFFFFFFE4111125312501
310
358000000C0003FFFFFFFE411112535410650415244494D8000000C0003FFFFFFFE411112535490652454644494D8000000C0003FFFFFFFE411156135410234418000000C0003FFFFFFFD034111915353901388000000C0003FFFFFFFE415191535413901388030000C3004364151915354D410234418000000C0003FFFFFF
310
FE4151915354D510234418030000C300436415191535593901328000000C0003FFFFFFFE415191535595101328030000C3004364111931055101308000000C0003FFFFFFFD03411194905490234418000000C0003FFFFFFFD034111D49312501358000000C0003FFFFFFFD034111D5931250234418000000C0003FFFFFFFD0
310
34112105510D01388000000C0003FFFFFFFD014112125113901338000000C0003FFFFFFFD034112125115D01338000000C0003FFFFFFFD034112131253901348000000C0003FFFFFFFD01411213D0D3901378000000C0003FFFFFFFE411213D0D5D01378000000C0003FFFFFFFE4112539193D04494E464F8000000C0003FF
310
FFFFFE4113105112501348000000C0003FFFFFFFD034113115051101358000000C0003FFFFFFFE419397D0921395902394E8000000C0003FFFFFFFE419397D0D3D38C502304E8000000C0003FFFFFFFD03419397D0D3D38C902314E8000000C0003FFFFFFFD03419397D0D3D38CD02324E8000000C0003FFFFFFFD03419397
310
D0D3D38D102324E8000000C0003FFFFFFFD03419397D0D15393902374E8000000C0003FFFFFFFE419397D0D15395D02374E8000000C0003FFFFFFFE419397D1125312502354E8000000C0003FFFFFFFE419397D2105510D02384E8000000C0003FFFFFFFD01419397D2125113902334E8000000C0003FFFFFFFD03419397D2
310
125115D02334E8000000C0003FFFFFFFD03419397D3115051102354E8000000C0003FFFFFFFE419397D391D25410349504E8000000C0003FFFFFFFE419397D412105390334414E8000000C0003FFFFFFFE419397D510D3D3902304E8000000C0003FFFFFFFD03419397D5121312502344E8000000C0003FFFFFFFD01419397
310
D5131153902304E8000000C0003FFFFFFFD03419397D516150CD02364E8000000C0003FFFFFFFD03419397D594131250332414E8000000C0003FFFFFFFE411391D25410249508000000C0003FFFFFFFE411410530C9055241484D358010000C30047A411410530CD055241484D358020000C30047A411410530D5055241484
310
D358000000C0003FFFFFFFE411410530DD055241484D3581E0000C30047903411412105390234418000000C0003FFFFFFFE411413D4D3901368070000C30047A419413D4D49151901368050000C30047903411413D4D6101368000000C0003FFFFFFFD03411414D150D0234418000000C0003FFFFFFFD03411490D1D390137
310
8000000C0003FFFFFFFE411490D1D5D01378000000C0003FFFFFFFE4114919112501348000000C0003FFFFFFFD034114945514901348070000C30047903411494D093D01348000000C0003FFFFFFFD034114D09492D01348000000C0003FFFFFFFD014114D0D153901378000000C0003FFFFFFFD034114D150D51013480000
310
00C0003FFFFFFFD014114D15313901378000000C0003FFFFFFFD034114D15315D01378000000C0003FFFFFFFD034114D4D654D01308000000C0003FFFFFFFD034114D51312501348070000C300479034114D6508C501358000000C0003FFFFFFFD034114D6508C901358000000C0003FFFFFFFD034114D6508CD0135802000
310
0C30047A4114D6508D501358070000C300479034114D65353901378000000C0003FFFFFFFD034114D65355D01378000000C0003FFFFFFFD03411510D3D3901308000000C0003FFFFFFFD034115121312501348000000C0003FFFFFFFD01411512550C9055241484D358010000C30047A411512550CD055241484D358020000
310
C30047A411512550D5055241484D358000000C0003FFFFFFFE411512550DD055241484D3581E0000C300479034115131153901308000000C0003FFFFFFFD03415514905253105545241494C8000000C0003FFFFFFFE41151492D3901378000000C0003FFFFFFFD0341151492D5D01378000000C0003FFFFFFFD03411514931
310
2501348000000C0003FFFFFFFD01411516150C501368030000C300436411516150C901368030000C300436411516150CD01368000000C0003FFFFFFFE411516150D501368070000C30047A411516150DD013681E0000C30047A4115925155D04564945578000000C0003FFFFFFFE41159151121034849448000000C0003FFF
310
FFFFD0241159151159035649538000000C0003FFFFFFFD02411594131250232418000000C0003FFFFFFFE4116925690501348000000C0003FFFFFFFD01411354D653501358020000C30047AAAA3F400030C01013F90A4051E4091E40D0D4110D4151E4190D41D1E4391E4791E7F6
340
16
340
16
340
16
340
48
340
16
340
16
340
16
340
49
340
16
340
16
340
49
340
4A
340
16
340
16
340
16
340
16
340
48
340
16
340
16
340
16
340
49
340
16
340
16
340
49
340
4A
340
16
340
4B
340
16
340
16
340
16
340
16
340
16
340
48
340
16
340
16
340
16
340
4C
340
15
340
15
340
15
340
15
340
15
340
15
340
15
340
15
340
15
340
15
340
15
340
15
340
15
340
15
340
15
340
15
340
4D
340
15
340
15
340
15
340
15
340
15
340
15
340
15
340
15
340
15
340
15
340
15
340
15
340
15
340
15
340
15
340
16
340
15
340
15
340
15
340
15
340
15
340
15
340
15
340
15
340
4C
340
15
340
15
340
4D
340
15
340
15
340
15
340
15
340
15
340
15
340
15
340
15
340
15
340
4D
340
15
340
15
340
15
340
4C
340
15
340
15
340
15
340
15
340
15
340
15
340
15
340
15
340
15
340
15
340
15
340
15
340
15
340
15
340
15
340
15
340
15
340
15
340
15
340
4D
340
15
340
15
340
4D
340
15
340
15
340
16
340
15
340
4D
340
15
340
15
340
4C
340
15
340
15
340
16
340
15
340
4D
340
15
340
15
340
15
340
15
340
15
340
15
340
15
340
15
340
15
340
4D
340
15
340
15
340
15
340
15
340
15
340
15
340
15
340
15
340
15
340
15
340
15
340
50
340
16
 94
        0
  0
ACAD_PROXY_OBJECT
  5
AE3
102
{ACAD_REACTORS
330
59
102
}
330
59
100
AcDbProxyObject
 90
      499
 91
      522
 95
       25
 70
     0
 93
      253
310
43D1444494D454E53494F4E2C414D44545F2A5F44494D404A9012A404A9012A0
  0
ACAD_PROXY_OBJECT
  5
AE4
102
{ACAD_REACTORS
330
59
102
}
330
59
100
AcDbProxyObject
 90
      499
 91
      522
 95
       25
 70
     0
 93
      181
310
43D012A42D05357D191504B505357CA9012A404A9012A8
  0
ACAD_PROXY_OBJECT
  5
AE5
102
{ACAD_REACTORS
330
59
102
}
330
59
100
AcDbProxyObject
 90
      499
 91
      522
 95
       25
 70
     0
 93
      133
310
43D054841544348404A9012A404A9012A8
  0
ACAD_PROXY_OBJECT
  5
AE6
102
{ACAD_REACTORS
330
59
102
}
330
59
100
AcDbProxyObject
 90
      499
 91
      522
 95
       25
 70
     0
 93
      549
310
43D044C494E4549CE0B0E138B0A8B4E0B0A8B4E138B105357CE0B105357CE138B0A8B505357CE0B0A8B505357CE139012A404A910494E534552542C5354445041525432448
  0
ACAD_PROXY_OBJECT
  5
AE7
102
{ACAD_REACTORS
330
59
102
}
330
59
100
AcDbProxyObject
 90
      499
 91
      522
 95
       25
 70
     0
 93
      909
310
43D6641434D46434652414D452C41434D444154554D5441524745542C41434D444154554D49442C41434D57454C4453594D2C41434D5355524653594D2C41434D4645415449442C41434D504152545245462C41434D42414C4C4F4F4E2C414D44544544474553594D404A9012A404A9012A8
  0
XRECORD
  5
1606
102
{ACAD_REACTORS
330
1605
102
}
330
1605
100
AcDbXrecord
280
     1
  1
PV
 40
1.0
 50
-12318.5925953127
 51
-8794.902155258136
 52
12318.5925953127
 53
8794.902155258136
  0
ACAD_PROXY_OBJECT
  5
45
102
{ACAD_REACTORS
330
44
102
}
330
44
100
AcDbProxyObject
 90
      499
 91
      520
 95
       25
 70
     0
 93
      157
310
057356C1D77406406AA8FFFFFFFF05DD01009010
330
1F
330
0
330
1665
 94
        0
  0
ACAD_PROXY_OBJECT
  5
1B45
102
{ACAD_REACTORS
330
7A0
102
}
330
7A0
100
AcDbProxyObject
 90
      499
 91
      576
 95
       25
 70
     0
 93
     2395
310
5DCB81E85EB51B8BE3F8030000C30041105394D2501640600800030C0200800030C00B81E85EB51B8BE3F48821E8720B1B6A9BAB9332A32BC3A29BA3220480A1282C6DA8C868CA6E8C88120286A0B1B6ABB2B63234B733A9BA3220480A1082C6DA92C8A6E8C88120285A0B1B6A230BA3AB6A9BA3220480A1282C6DA849E9AA
310
6E8C8812028820B6B23A2232BA30B4B629BCB6A9BA3220480A2282DAC8E8A6CAC6E8D2DEDCA6F2DAA6E8C88120288A0B6B23A21B2B73A32B92634B732A9BA3220480A2282DAC8E8A8D0E4CAC2C898D2DCCAA6E8C88120285A0B6B23A2737BA32A9BA3220480A1682C682DACE98C2F2A6E8C88120285A0B1A0B6B3A234B6A9B
310
A3220480A2282C682DACE90DED8CA86D0C2E4E8A6E8C88120286A0B1A0B6B3AA34BA3632A9BA3220480A02812020
340
190A
360
1B46
360
1B47
360
1B48
360
1B49
360
1B4A
360
1B4B
360
1B4C
360
1B4D
360
1B4E
360
1B4F
360
1B50
360
1B56
360
1B57
360
1B58
360
1B59
340
0
340
0
 94
        0
  0
ACAD_PROXY_OBJECT
  5
7A1
102
{ACAD_REACTORS
330
7A0
102
}
330
7A0
100
AcDbProxyObject
 90
      499
 91
      526
 95
       25
 70
     0
 93
     2379
310
5DC33333333333309408000000C00040D29254D01640600800030C0200800030C003333333333330940C8121E8720B1B6A9BAB9332A32BC3A29BA3220480A1282C6DA8C868CA6E8C88120286A0B1B6ABB2B63234B733A9BA3220480A1082C6DA92C8A6E8C88120285A0B1B6A230BA3AB6A9BA3220480A1282C6DA849E9AA6E
310
8C88120286A0B1A0B6B3AA34BA3632A9BA3220480A2082DAC8E888CAE8C2D2D8A6F2DAA6E8C88120288A0B6B23A29B2B1BA34B7B729BCB6A9BA3220480A2282DAC8E886CADCE8CAE498D2DCCAA6E8C88120288A0B6B23A2A343932B0B22634B732A9BA3220480A1682DAC8E89CDEE8CAA6E8C88120285A0B1A0B6B3A630BCA
310
9BA3220480A1682C682DACE88D2DAA6E8C88120288A0B1A0B6B3A437B632A1B430B93A29BA3220480C812020
340
7A2
360
7A3
360
7A4
360
7A5
360
7A6
360
7A7
360
7A8
360
166A
360
166B
360
166C
360
166E
360
166F
360
1670
360
1676
360
1677
360
1678
340
0
340
0
 94
        0
  0
ACAD_PROXY_OBJECT
  5
41
102
{ACAD_REACTORS
330
40
102
}
330
40
100
AcDbProxyObject
 90
      499
 91
      518
 95
       25
 70
     0
 93
     2908
310
4050B44574753455454494E4753A0E8482A68AA6A88882A069492A684A1A0A723A0A92920ACA0A8419983E1A1ABE1B1820C868A9C829C8E82A12686AF87260F862666A8321A2A72224A0A5049336AA37C1B152020E868A9C889282A682A106260F86460F8666083A1A2A72224A9AA250000000000000042020C868A9C988A9
310
C94000000000000048808321A2A727A323250000000000000122020E868A9C9E8C8C62940000000000000488083A1A2A727A3231925000000000000012202128698929C82A4A482B282A0A646A5C60608421A624A722AA2CA820A82AC2624A722A1288AE8EAAA68682988A94283A620A9AA27A12520A8219999A212109A829
310
68AAC928AAE9FA04832829A1A0A622830020000419491559254D2505404C1055343414C4541503313A314214D510539110549110540D29254D0954494D455354414D504A02CB6D2B1732B734141D5915494D253D3905414C4D4B8C0C1107B44574753455454494E4753454E447D0
  0
ACAD_PROXY_OBJECT
  5
54
102
{ACAD_REACTORS
330
40
102
}
330
40
100
AcDbProxyObject
 90
      499
 91
      518
 95
       25
 70
     0
 93
      411
310
4050346454D21092DCC6E486DECACC942842630BCA3B937BAB820A8320A6AFA322A0A20F688AE8EA68AA8A8929C8EA68A9C88FA0
  0
ACAD_PROXY_OBJECT
  5
53
102
{ACAD_REACTORS
330
40
102
}
330
40
100
AcDbProxyObject
 90
      499
 91
      518
 95
       25
 70
     0
 93
      591
310
40505536861667421292DCE8CAE4E4EAE0E89FC84A634B3B43A2634B732A7E80A1A98D2CED0E898D2DCCAACD2CAEE9FA028229B4B232A7E80A20F688AE8EA68AA8A8929C8EA68A9C88FA
  0
ACAD_PROXY_OBJECT
  5
42
102
{ACAD_REACTORS
330
40
102
}
330
40
100
AcDbProxyObject
 90
      499
 91
      518
 95
       25
 70
     0
 93
      852
310
4050D5452414E5353455454494E4753A2488A482AE929C8EA8A4829CA69882A8929E9C0C00800050D4F524947494E414C4C595F4F4E0600400028529A7AAA921A2A620A723A0A81A52827212AAA0A48AA68AA4AC8A0C0080001107B44574753455454494E4753454E447D0
  0
ACAD_PROXY_OBJECT
  5
1B46
330
1B45
100
AcDbProxyObject
 90
      499
 91
      577
 95
       25
 70
     0
 93
       96
310
5DC20E80A0280A0280A02808
  0
ACAD_PROXY_OBJECT
  5
1B47
330
1B45
100
AcDbProxyObject
 90
      499
 91
      578
 95
       25
 70
     0
 93
      332
310
5DD0E4050140501405014050140501405014050142501405014050140501405012000000000000000400
340
190B
 94
        0
  0
ACAD_PROXY_OBJECT
  5
1B48
330
1B45
100
AcDbProxyObject
 90
      499
 91
      579
 95
       25
 70
     0
 93
      403
310
5DCC199999999999E99F91F4050140501405014050140501405014050140501405014050140501405014050140501405014040
340
0
 94
        0
  0
ACAD_PROXY_OBJECT
  5
1B49
330
1B45
100
AcDbProxyObject
 90
      499
 91
      580
 95
       25
 70
     0
 93
       10
310
5DC0
  0
ACAD_PROXY_OBJECT
  5
1B4A
330
1B45
100
AcDbProxyObject
 90
      499
 91
      581
 95
       25
 70
     0
 93
      257
310
5DE290EA22A7D90F49F9353333333333727F44D4CCCCCCCCCDC9FC010000618000
340
1907
340
1908
 94
        0
  0
ACAD_PROXY_OBJECT
  5
1B4B
330
1B45
100
AcDbProxyObject
 90
      499
 91
      582
 95
       25
 70
     0
 93
    13023
310
5DD0E411255115350141236025B6901405014069011309A4F2590CB64FD3347454E545241434F2C4A504E2C302C8D8096DA2C47454E54524154582C25732C2847454E4D53472067656E647767203232322940690120281A8AA2CA0282484A4BE52028120280A03202261349E4B2196C9FA668E8A9CA8A482869E5894A09C58
310
605921292F94588E8A9CA8A482A8B0584AE658508E8A9C9AA68E40CECADCC8EECE406464665280D202405044E414D454050496BC914F4051C40640A8B95C2E97CBE502404CD1D15395149050D3CB1294138B0C0B25AF2453CB11D15395149055160B095CCB0A11D1539354D1C819D95B991DD9C80C8C8D8A50192C3D494628
310
4953424C414E4B28504152543A4E414D45292C424C4F434B3A4E414D452C504152543A4E414D452940480A0A888AA686A480A09251B1DBE80A3A80C81D10782C06030180C8099A3A2A72A2920A1A7962528271618164946C76F9623A2A72A2920AA2C1612B9961423A2A726A9A39033B2B7323BB39019189B94A0248090142
310
14D51053911054911014122D2E29A50147501904A383BFDFEFF5FBFCFD3347454E545241434F2C4A504E2C302C8B4B8A692C47454E54524154582C25732C2847454E4D53472067656E64776720323138294049012028426A0AA22A924A0A62028246EF4BDFA028EA0320B41396D838E9017D9FA668E8A9CA8A482869E5894A
310
09C5860591BBD2F7E588E8A9CA8A482A8B0584AE658508E8A9C9AA68E40CECADCC8EECE406464625280D202405044E4F544540504928D8B4C4051D40641A8B95C2E97CBE5F23F4CD1D15395149050D3CB1294138B0C0B24A362D30B11D15395149055160B095CCB0A11D1539354D1C819D95B991DD9C80C8C8D4A501A40480
310
A0CAC8A9C889EA480A1106F1072706BF02B680A3A80C83D172B85D2F97CBE47E9BA3A2A72A2920A1A79625282716181641BC41C9C1AFC0AD9623A2A72A2920AA2C1612B9961423A2A726A9A39033B2B7323BB39019191A14A0348090141911154D0D48C90141A43825AF880C90147501908A20F0580C0603019013447454E5
310
45241434F2C4A504E2C302C90E096BE20322C47454E54524154582C25732C2847454E4D53472067656E6477672033362940490120284A9AA20A72220A922192028345A5C53490192028EA0321347077FBFDFEBF7F9FA6A8E8A9CA8A482869E5894A09C586059169714D24064588E8A9CA8A482A8B0584AE658508E8A9C9AA6
310
8E40CECADCC8EECE4064646052809202405094D4154455249414C32405068DDE97BF20324051D40642A8272DB071D202FB3F4D11D15395149050D3CB1294138B0C0B2377A5EFC80C8B11D15395149055160B095CCB0A11D1539354D1C819D95B991DD9C80D0C0A501240480A089A82A6A680A091D7F2F9480A3A80A0485A06
310
81172B85D2F97CBE47E9923A2A72A2920A1A796252827161816475FCBE51623A2A72A2920AA2C1612B9961423A2A726A9A39033B2B7323BB3901A1914A024809014154149250D150141226FE29A501475014090C409022E570BA5F2F97C8FD3247454E545241434F2C4A504E2C302C89BF8A692C47454E54524154582C2573
310
2C2847454E4D53472067656E6477672034332940490120281A224A6A02824850CB202028EA028121A81A045CAE174BE5F2F91FA648E8A9CA8A482869E5894A09C58605921432C80588E8A9CA8A482A8B0584AE658508E8A9C9AA68E40CECADCC8EECE406868528092024050E441022E07A17AD46E338FE07800030C0001018
310
ACD56AB55AADF63F2B355AAD56AB7D8FD073D3C4954454D3E405018ACD56AB55AADF63F2B355AAD56AB7D8FD073D3C4954454D3E40501890C7E3F1783CEE3F2431F8FC5E0F3B8FD073D3C4954454D3E40501890C7E3F1783CEE3F2431F8FC5E0F3B8FD073D3C4954454D3E405029012B355AAD56AB7D8FCACD56AB55AADF63
310
F41CF4F125511534F901418F4F1455164F9014062B355AAD56AB7D8FCACD56AB55AADF63F41CF4F125511534F9014061309A4F2590CBA4FC4C2693C96432E93F41CF4F125511534F901901002B355AAD56AB7D8FCACD56AB55AADF63FA2000000000000008204018000618048220681A048120280C88214844882034852034
310
8452028521485214814000000000000F0BF0000000000003C2FD018020000C3008070000C3000EF7D3E365DBA88FC3BDF4F8D976EA23F2E07A17AD46E2F8FF20341A405024150741A4069703D0BD6A3717C7F0040001860100400018601002000186002026280A02
340
0
340
0
 94
        0
  0
ACAD_PROXY_OBJECT
  5
1B4C
330
1B45
100
AcDbProxyObject
 90
      499
 91
      583
 95
       25
 70
     0
 93
      994
310
5DC0B81E85EB51B8CE3F4BCF511155105253080F11115510525317D3105091530F971414D0D05311480F11115510525317D05094D4D0D053114F92341C9A9999999999B93F26A666666666724FC000000000000E03F4000000000000004000000000000005100000000000000244081E0000C3002E07A17AD46E338FC0
340
1646
340
190A
 94
        0
  0
ACAD_PROXY_OBJECT
  5
1B4D
330
1B45
100
AcDbProxyObject
 90
      499
 91
      584
 95
       25
 70
     0
 93
      823
310
5DC031703D0BD6A3719C7E999EA9A2A1AA24A7A7101E29A2A1AA24A7A72FA620A122A62FA324A929AA1F169E29A2A1AA24A7A72FA620A122A62FA620A9AA1F1353333333333B27E3FFFE01C00030C008840F000061801353333333333B27F1703D0BD6A3719C7E
340
1646
340
190A
 94
        0
  0
ACAD_PROXY_OBJECT
  5
1B4E
330
1B45
100
AcDbProxyObject
 90
      499
 91
      585
 95
       25
 70
     0
 93
      280
310
5DC2B8716D9CEF7C33F0A5723F0BD4A2F0FC295C8FC2F528BC3FA199999999999F99FC
  0
ACAD_PROXY_OBJECT
  5
1B4F
330
1B45
100
AcDbProxyObject
 90
      499
 91
      586
 95
       25
 70
     0
 93
       14
310
5DE4
340
0
 94
        0
  0
ACAD_PROXY_OBJECT
  5
1B50
330
1B45
100
AcDbProxyObject
 90
      499
 91
      587
 95
       25
 70
     0
 93
     7123
310
5DD084050BA4050AA405024050E836583938376838C815B8367203140405013D3C696628657175616C28486F6C653A7461707065642C223022292C22252563222C486F6C653A6E6F6D696E616C2022202220696628657175616C28486F6C653A756E6974732C223122292C2278222C222D222920222022293E3C6966286571
310
75616C28486F6C653A7461707065642C223022292C486F6C653A6469612C486F6C653A706974636864657363293E207B5C46414D4744543B787D203C696628657175616C28486F6C653A7465726D696E6174696F6E2C223022292C486F6C653A64657074682C228AD192CA22293E5C507B5C46414D4744543B767D2525633C
310
486F6C653A63746469613E207B5C46414D4744543B787D203C486F6C653A637464657074683E406901405034050E836583938376838C815B83672031405FE3D3C696628657175616C28486F6C653A7461707065642C223022292C22252563222C486F6C653A6E6F6D696E616C2022202220696628657175616C28486F6C653
310
A756E6974732C223122292C2278222C222D222920222022293E3C696628657175616C28486F6C653A7461707065642C223022292C486F6C653A6469612C486F6C653A706974636864657363293E207B5C46414D4744543B787D203C696628657175616C28486F6C653A7465726D696E6174696F6E2C223022292C486F6C653
310
A64657074682C228AD192CA22293E5C507B5C46414D4744543B777D2525633C486F6C653A63746469613E2058203C486F6C653A6374616E676C653E252564406901405014050E836583938376838C815B83672031405CF3D3C696628657175616C28486F6C653A7461707065642C223022292C22252563222C486F6C653A6E
310
6F6D696E616C2022202220696628657175616C28486F6C653A756E6974732C223122292C2278222C222D222920222022293E3C696628657175616C28486F6C653A7461707065642C223022292C486F6C653A6469612C486F6C653A706974636864657363293E5C507B5C46414D4744543B787D203C696628657175616C2848
310
6F6C653A7465726D696E6174696F6E2C223022292C486F6C653A64657074682C228AD192CA22293E4069014051E4090E836583938376838C815B83672032405173D3C535444503A444553433E203C535444503A5354443E40690E836583938376838C815B836720314050C3D3C535444503A444553433E40690240515AAABB
310
A060
360
1B51
330
1B51
360
1B52
330
1B52
360
1B53
330
1B53
360
1B54
360
1B55
330
1B54
330
1B55
 94
        0
  0
ACAD_PROXY_OBJECT
  5
1B56
330
1B45
100
AcDbProxyObject
 90
      499
 91
      567
 95
       25
 70
     0
 93
       26
310
5DD02A80
340
0
 94
        0
  0
ACAD_PROXY_OBJECT
  5
1B57
330
1B45
100
AcDbProxyObject
 90
      499
 91
      568
 95
       25
 70
     0
 93
      258
310
5DD02000000000000380FC000000000000E03F408F0F9023C3E40DB18CCCFFFF80
340
190C
340
0
340
0
340
190D
340
190E
340
0
340
190F
340
1910
340
1911
340
0
 94
        0
  0
ACAD_PROXY_OBJECT
  5
1B58
330
1B45
100
AcDbProxyObject
 90
      499
 91
      588
 95
       25
 70
     0
 93
    13993
310
5DD1D023FFFFFFFD010300002E07A17AD46E2F8FE00800030C01010300002E07A17AD46E2F8FE00800030C00050C8DC0955782CC838A83588367014ED1D15395149050D3CB1294138B0C0B23702555E0B320E2A0D620D9CB11D15395149055160B095CCB0A11D1539354D1C819D95B991A5B5E880CCC0A78000C0000000000
310
00000000000000000000007B14AE47E17AA43F2E07A17AD46E2F8FE00800030C007B14AE47E17AA43F2E07A17AD46E2F8FE00800030C020143CF4F111959985D5B1D151A5D1B194F8050A8C8A8365815B8375838B014E51D15395149050D3CB1294138B0C0B2322A0D96056E0DD60E2CB11D15395149055160B095CCB0A11D
310
1539354D1C819D95B991A5B5E880CCC4A78000C000000000000000000000000000000007B14AE47E17AA43F2E07A17AD46E2F8FE00800030C007B14AE47E17AA43F2E07A17AD46E2F8FE00800030C020143CF4F111959985D5B1D151A5D1B194F90D4410F4450240D0441507431014391244D05449074510C4350F00014123
310
2D24D7C053247454E545241434F2C4A504E2C302C8CB4935F2C47454E54524154582C25732C2847454E4D53472067656E64696D7A20312900010104002214000282465A49AF80A648E8A9CA8A482869E5894A09C586059196926BE588E8A9CA8A482A8B0584AE658508E8A9C9AA68E40CECADCC8D2DAF44062520002020800
310
43E80005028C8A014C11D15395149050D3CB1294138B0C0B23228B11D15395149055160B095CCB0A11D1539354D1C819D95B991A5B5E880C8A4054E3D3C4946284953424C414E4B28486F6C654974656D292C4F726967696E2C20486F6C654974656D293E3C4946284953424C414E4B28486F6C654974656D292C22222C204
310
86F6C65496E646578293E010104002234000280AC00A5E8E8A9CA8A482869E5894A09C586058B0588E8A9CA8A482A8B0584AE658508E8A9C9AA68E40CECADCC8D2DAF4406652000202000040A800050159014BD1D15395149050D3CB1294138B0C0B164B11D15395149055160B095CCB0A11D1539354D1C819D95B991A5B5E
310
880D0A4000404000081D0000A02A40297A3A2A72A2920A1A796252827161816291623A2A72A2920AA2C1612B9961423A2A726A9A39033B2B73234B6BD101B148000808000104A000140A0F4C053047454E545241434F2C4A504E2C302C83D32C47454E54524154582C25732C2847454E4D53472067656E64696D7A20372900
310
0101030020B400028141E980A608E8A9CA8A482869E5894A09C58605907A6588E8A9CA8A482A8B0584AE658508E8A9C9AA68E40CECADCC8D2DAF4407052000202020041E800050490E096BE014CD1D15395149050D3CB1294138B0C0B243825AF8B11D15395149055160B095CCB0A11D1539354D1C819D95B991A5B5E880C8
310
C0A400040010008650000A091B012DB40299A3A2A72A2920A1A79625282716181646C04B6D1623A2A72A2920AA2C1612B9961423A2A726A9A39033B2B73234B6BD10189A148000808280501A00014320D0E0E4E0D9A0D8A0D3A0D60053B47454E545241434F2C4A504E2C302C8343839383668362834E83582C47454E54524
310
154582C25732C2847454E4D53472067656E64696D7A203135290001010500A1D4000281464500A628E8A9CA8A482869E5894A09C5860591914588E8A9CA8A482A8B0584AE658508E8A9C9AA68E40CECADCC8D2DAF440626C52000202080044A800050E8C8A8343839383668362834E8358014F51D15395149050D3CB129413
310
8B0C0B2322A0D0E0E4E0D9A0D8A0D3A0D60B11D15395149055160B095CCB0A11D1539354D1C819D95B991A5B5E880C4DCA4000404140089D0000A0921292F940299A3A2A72A2920A1A796252827161816484A4BE51623A2A72A2920AA2C1612B9961423A2A726A9A39033B2B73234B6BD10189C948000808300114A0001412
310
2D2E29A4053347454E545241434F2C4A504E2C302C8B4B8A692C47454E54524154582C25732C2847454E4D53472067656E64696D7A20323129000100040021B4878030026A6666666667A4FE064D4CCCCCCCCCF49FC049A9999999999E93F809353333333333D27F0226A6666666667A4FE044D4CCCCCCCCCF49FC0D818000
310
00000000000810026A666666666764FE004D4CCCCCCCCCF49FC009A9999999999E93F801353333333333D27F032E07A17AD46E378FE0633B333333333032050F006004D4CCCCCCCCCF49FC0C9A9999999999E93F819353333333333D27F0326A6666666667A4FE064D4CCCCCCCCCF49FC0C9A9999999999E93F81B03000000
310
00000000102004D4CCCCCCCCCEC9FC009A9999999999E93F819353333333333D27F0026A6666666667A4FE065C0F42F5A8DC6F1FC0C6766666666660640A088800000021E000000890000002260000008220E000200890000002060002008100008000
340
0
340
0
340
0
340
0
340
190A
340
190A
 94
        0
  0
ACAD_PROXY_OBJECT
  5
1B59
330
1B45
100
AcDbProxyObject
 90
      499
 91
      560
 95
       25
 70
     0
 93
     5214
310
5DD9741105394D2506414E53495F4342905394D257D512551554D15414E53495F54525F5265766973696F6E6C697374614191143202831372E307832322E30696E63682941905394D257D0D1146202832382E307834302E30696E63682941905394D257D191142202831312E307831372E30696E63682941905394D257D091
310
144202832322E307833342E30696E63682941905394D257D111145202833342E307834342E30696E63682941905394D257D1510412028382E357831312E30696E63682941905394D257D050543905B9CDA482557247A25E4C81110D0C414E53495F5449544C45444343505B9CDA482557247A25E4C81050B414E53495F5449
310
544C454143905B9CDA482557247A25E4C81050D0C414E53495F5449544C454143425554C82557247A25E4D0A414E53495F544954555343505B9CDA482557247A25E4C81110B414E53495F5449544C454442110979A97F0838A8358836720415F42525F45505394D257D09497D4995D9A5CDA5BDB9B1A5CDD18510979A97F08
310
38A8358836720415F54525F45505394D257D51497D4995D9A5CDA5BDB9B1A5CDD18510979A97F0838A8358836720445F42525F45505394D257D09497D4995D9A5CDA5BDB9B1A5CDD19110979A97F0838A8358836720445F54525F45505394D257D51497D4995D9A5CDA5BDB9B1A5CDD19110979A97F0838A8358836720415F
310
424C5F45505394D257D09317D4995D9A5CDA5BDB9B1A5CDD18510979A97F0838A8358836720415F544C5F45505394D257D51317D4995D9A5CDA5BDB9B1A5CDD18510979A97F0838A8358836720445F424C5F45505394D257D09317D4995D9A5CDA5BDB9B1A5CDD19110979A97F0838A8358836720445F544C5F45505394D25
310
7D51317D4995D9A5CDA5BDB9B1A5CDD190
  0
ACAD_PROXY_OBJECT
  5
7A3
330
7A1
100
AcDbProxyObject
 90
      499
 91
      527
 95
       25
 70
     0
 93
       86
310
5DEA0C80A0280A0280A034
  0
ACAD_PROXY_OBJECT
  5
7A4
330
7A1
100
AcDbProxyObject
 90
      499
 91
      528
 95
       25
 70
     0
 93
      282
310
5DD0E4050140501405014050140501405014050141101405014041000000000000001000
340
7A9
 94
        0
  0
ACAD_PROXY_OBJECT
  5
7A5
330
7A1
100
AcDbProxyObject
 90
      499
 91
      529
 95
       25
 70
     0
 93
      323
310
5DCC199999999999E99F91740501405014050140501405014050140501405014050140501405014040
340
0
 94
        0
  0
ACAD_PROXY_OBJECT
  5
7A6
330
7A1
100
AcDbProxyObject
 90
      499
 91
      530
 95
       25
 70
     0
 93
       10
310
5DC0
  0
ACAD_PROXY_OBJECT
  5
7A7
330
7A1
100
AcDbProxyObject
 90
      499
 91
      531
 95
       25
 70
     0
 93
      257
310
5DE0C16A22A7D90F49F80000000000001081400000000000004204010000618000
340
7AA
340
7AB
 94
        0
  0
ACAD_PROXY_OBJECT
  5
7A8
330
7A1
100
AcDbProxyObject
 90
      499
 91
      532
 95
       25
 70
     0
 93
     5277
310
5DD06411255115350141236025B6901405014069010000000000000910240690120281A8AA2CA0282484A4BE52028120280A032020000000000001220480D202405044E414D454050496BC914F4051C40640A80000000000004E4090193C3D3C4946284953424C414E4B28504152543A4E414D45292C424C4F434B3A4E414D
310
452C504152543A4E414D45293E3C41435F44455343524950544E3E40480A109A82A88AA492829880A091BBD2F7E80A3A80C81D0E27A15AF46E08A81203480901411393D5115014124A363B7D0147501904A0000000000000F902406428F4F1050D7D393D5114F901202832B22A72227A92028366EF6EE06F582028EA0320B4
310
0000000000001F20480C879E9E20A1AFAB27222FA620A122A61F20240506445020000000000000490201C00030C00010180000000000003E400000000000000F901073D3C4954454D3E4050180000000000003E400000000000000F901073D3C4954454D3E40501800000000000034400000000000000D101073D3C4954454
310
D3E40501800000000000034400000000000000D101073D3C4954454D3E405029010000000000000F9000000000000003E4041CF4F125511534F901418F4F1455164F9014060000000000000F9000000000000003E4041CF4F125511534F901800000000000034400000000000000D101073D3C4954454D3E40640400000000
310
0000003E400000000000000F90288800000000000020810000001800120881A068120480A032208521122080D21480D211480A1485214852050000000000003C2FC000000000000F0BF40600800030C0200400030C00CDCCCCCCCCCCEC3F3373333333333B0FC3333333333330940C80D069014090341504901A1999999999
310
9984A040100006180400800061804010000618008098A02808
340
0
340
0
 94
        0
  0
ACAD_PROXY_OBJECT
  5
166A
330
7A1
100
AcDbProxyObject
 90
      499
 91
      560
 95
       25
 70
     0
 93
     3042
310
5DD9740D29254D064A49535F413342929254D7D512551311505134A49535F42525F5265766973696F6E6C6973744190F4134522028323937783231306D6D2941D29254D7D04D1490E41312028353934783834316D6D2941929254D7D04C50F41344C2028323130783239376D6D2941D29254D7D04D1310E413320283239377
310
83432306D6D2941929254D7D04CD0E41322028343230783539346D6D2941929254D7D04C90F4130202838343178313138396D6D2941929254D7D04C10243129254C82557247A25E4C81050A4A49535F5449544C454143129254C82557247A25E4C81090A4A49535F5449544C45424110E979A97F0838A835883675F42525F4
310
4D29254D7D09497D4995D9A5CDA5BDB9B1A5CDD10E979A97F0838A835883675F54525F44D29254D7D51497D4995D9A5CDA5BDB9B1A5CDD10E979A97F0838A835883675F424C5F44D29254D7D09317D4995D9A5CDA5BDB9B1A5CDD10E979A97F0838A835883675F544C5F44D29254D7D51317D4995D9A5CDA5BDB9B1A5CDD00
  0
ACAD_PROXY_OBJECT
  5
166B
330
7A1
100
AcDbProxyObject
 90
      499
 91
      561
 95
       25
 70
     0
 93
      898
310
5DC4000000000000124048CF4F11115510525317D3105091530F880A0F11115510525317D05094D4D0D053114F8A50241C9A9999999999B93F26A666666666724FC000000000000E03F400000000000000400000000000000510000000000000024408070000C300000000000000049000
340
16
340
7A2
 94
        0
  0
ACAD_PROXY_OBJECT
  5
166C
330
7A1
100
AcDbProxyObject
 90
      499
 91
      562
 95
       25
 70
     0
 93
      823
310
5DC0B00000000000002480959E9E29A2A1AA24A7A72FA620A122A62FA324A929AA1F169E29A2A1AA24A7A72FA620A122A62FA620A9AA1F000000000000048803FFFE01C00030C008140380006180000000000000048800000000000000A2000000000000002480
340
118
340
7A2
 94
        0
  0
ACAD_PROXY_OBJECT
  5
166E
330
7A1
100
AcDbProxyObject
 90
      499
 91
      563
 95
       25
 70
     0
 93
      152
310
5DE8273108AC1C5A0640A3D0A5723F0BD1F200
  0
ACAD_PROXY_OBJECT
  5
166F
330
7A1
100
AcDbProxyObject
 90
      499
 91
      564
 95
       25
 70
     0
 93
       14
310
5DE0
340
0
 94
        0
  0
ACAD_PROXY_OBJECT
  5
1670
330
7A1
100
AcDbProxyObject
 90
      499
 91
      565
 95
       25
 70
     0
 93
     6059
310
5DD084050BA4050AA405024050E836583938376838C815B83672031405983D3C486F6C653A6469613E3C696628657175616C28486F6C653A7465726D696E6174696F6E2C223022292C2220905B82B320222C22208368838A838B22293E3C696628657175616C28486F6C653A7465726D696E6174696F6E2C223022292C486F
310
6C653A64657074682C2222293E2C203C486F6C653A63746469613E2082B482AE82E882CC905B82B3203C486F6C653A637464657074683E406901405034050E836583938376838C815B83672031405EF3D3C486F6C653A6374616E676C653E252564202525633C486F6C653A63746469613E208E4D8C8A2C203C69662865717
310
5616C28486F6C653A7461707065642C223022292C22252563222C486F6C653A6E6F6D696E616C202220782022293E3C696628657175616C28486F6C653A7461707065642C223022292C486F6C653A6469612C486F6C653A706974636864657363293E203C696628657175616C28486F6C653A7465726D696E6174696F6E2C2
310
23022292C22905B82B320222C222022293E3C696628657175616C28486F6C653A7465726D696E6174696F6E2C223022292C486F6C653A64657074682C2222293E406901405014050E836583938376838C815B83672031405C73D3C696628657175616C28486F6C653A7461707065642C223022292C22252563222C486F6C65
310
3A6E6F6D696E616C202220782022293E3C696628657175616C28486F6C653A7461707065642C223022292C486F6C653A6469612C486F6C653A706974636864657363293E203C696628657175616C28486F6C653A7465726D696E6174696F6E2C223022292C22905B82B320222C222022293E3C696628657175616C28486F6C
310
653A7465726D696E6174696F6E2C223022292C486F6C653A64657074682C2222293E4069014051E4090E836583938376838C815B83672032405173D3C535444503A444553433E203C535444503A5354443E40690E836583938376838C815B836720314050C3D3C535444503A444553433E40690240515AAABBA120
360
1674
330
1674
360
1675
330
1675
360
1673
330
1673
360
1672
360
1671
330
1672
330
1671
 94
        0
  0
ACAD_PROXY_OBJECT
  5
1676
330
7A1
100
AcDbProxyObject
 90
      499
 91
      567
 95
       25
 70
     0
 93
       26
310
5DD02A80
340
47
 94
        0
  0
ACAD_PROXY_OBJECT
  5
1677
330
7A1
100
AcDbProxyObject
 90
      499
 91
      568
 95
       25
 70
     0
 93
      250
310
5DD020000000000000A1000000000000002440408F0F9023C3E409A0DCFFFF80
340
69
340
0
340
0
340
70
340
71
340
72
340
73
340
74
340
79
340
0
 94
        0
  0
ACAD_PROXY_OBJECT
  5
1678
330
7A1
100
AcDbProxyObject
 90
      499
 91
      569
 95
       25
 70
     0
 93
    13889
310
5DD1D003FFFFFFFD030300030CCCCCCCCCCCC250200800030C01030300030CCCCCCCCCCCC250200800030C00050C8DC0955782CC838A83588367014ED1D15395149050D3CB1294138B0C0B23702555E0B320E2A0D620D9CB11D15395149055160B095CCB0A11D1539354D1C819D95B991A5B5E880CCC0A78000C0000000000
310
00000000000000000000010CCCCCCCCCCCC250200800030C010CCCCCCCCCCCC250200800030C020143CF4F111959985D5B1D151A5D1B194F8050A8C8A8365815B8375838B014E51D15395149050D3CB1294138B0C0B2322A0D96056E0DD60E2CB11D15395149055160B095CCB0A11D1539354D1C819D95B991A5B5E880CCC4
310
A78000C000000000000000000000000000000010CCCCCCCCCCCC250200800030C010CCCCCCCCCCCC250200800030C020143CF4F111959985D5B1D151A5D1B194F90D44111409034110541D0C4350F4050E44D03449074510F000141232D24D7C053247454E545241434F2C4A504E2C302C8CB4935F2C47454E54524154582C
310
25732C2847454E4D53472067656E64696D7A20312900010104002214000281464500A608E8A9CA8A482869E5894A09C5860591914588E8A9CA8A482A8B0584AE658508E8A9C9AA68E40CECADCC8D2DAF4406452029E9E9E27B934B3B4B71F1E24A31427A91424A9A12620A7259427B934B3B4B7149624A9A12620A7259424B
310
A32B6949496111116111711149F1E24BA32B69F00808200111A000140560052F47454E545241434F2C4A504E2C302C582C47454E54524154582C25732C2847454E4D53472067656E64696D7A20332900010100002054000280AC80A5E8E8A9CA8A482869E5894A09C586058B2588E8A9CA8A482A8B0584AE658508E8A9C9AA
310
68E40CECADCC8D2DAF4406852000202000040E800050152014BD1D15395149050D3CB1294138B0C0B148B11D15395149055160B095CCB0A11D1539354D1C819D95B991A5B5E880D8A400040400008250000A0507A6029823A2A72A2920A1A79625282716181641E99623A2A72A2920AA2C1612B9961423A2A726A9A39033B2
310
B73234B6BD101B948000808180105A000140A0F4C053047454E545241434F2C4A504E2C302C83D32C47454E54524154582C25732C2847454E4D53472067656E64696D7A203829000101010020F400028248704B5F00A668E8A9CA8A482869E5894A09C58605921C12D7C588E8A9CA8A482A8B0584AE658508E8A9C9AA68E40
310
CECADCC8D2DAF440646052000200080043280005048B4B8A69014CD1D15395149050D3CB1294138B0C0B22D2E29A4B11D15395149055160B095CCB0A11D1539354D1C819D95B991A5B5E880C8C4A4000400100086D0000A09196926BE029923A2A72A2920A1A796252827161816465A49AF9623A2A72A2920AA2C1612B9961
310
423A2A726A9A39033B2B73234B6BD10189480A02620202080043E80005048D8096DA014CD1D15395149050D3CB1294138B0C0B236025B68B11D15395149055160B095CCB0A11D1539354D1C819D95B991A5B5E880C4D0A4000404140280D0000A190687072706CD06C5069D06B0029DA3A2A72A2920A1A7962528271618164
310
1A1C1C9C1B341B141A741AC1623A2A72A2920AA2C1612B9961423A2A726A9A39033B2B73234B6BD10189A94800080820050EA000143A322A0D0E0E4E0D9A0D8A0D3A0D60053D47454E545241434F2C4A504E2C302C8C8A8343839383668362834E83582C47454E54524154582C25732C2847454E4D53472067656E64696D7A
310
2031372900010105002274000281464500A628E8A9CA8A482869E5894A09C5860591914588E8A9CA8A482A8B0584AE658508E8A9C9AA68E40CECADCC8D2DAF440626C52000202080044A8000504909497CA014CD1D15395149050D3CB1294138B0C0B242525F28B11D15395149055160B095CCB0A11D1539354D1C819D95B9
310
91A5B5E880C4E4A400040418008A521E000000000000001CA040C00000000000034408080000000000006881010000000000000D102040000000000001A204080000000000003440818000000000000728103000000000000125020600000000004028A040000000000000034408000000000000004881000000000000000D
310
102000000000000001A204000000000000003440818000000000000508143C0000000000000039408180000000000006881030000000000000D102060000000000001A2040C00000000000034408180000000000006881030000000000000E5020600000000000024A040C0000000000805140800000000000000688100000
310
00000000009102000000000000001A2040000000000000034408180000000000006881030000000000000A10284220000000878000002020000008380000020400000081800000208000000828000002028900000000
340
0
340
0
340
0
340
0
340
7A2
340
7A2
 94
        0
  0
ACAD_PROXY_OBJECT
  5
1B51
330
1B50
100
AcDbProxyObject
 90
      499
 91
      566
 95
       25
 70
     0
 93
     2256
310
5DE0143A0D960E4E0DDA0E32056E0D9C80C40405013D3C696628657175616C28486F6C653A7461707065642C223022292C22252563222C486F6C653A6E6F6D696E616C2022202220696628657175616C28486F6C653A756E6974732C223122292C2278222C222D222920222022293E3C696628657175616C28486F6C653A74
310
61707065642C223022292C486F6C653A6469612C486F6C653A706974636864657363293E207B5C46414D4744543B787D203C696628657175616C28486F6C653A7465726D696E6174696F6E2C223022292C486F6C653A64657074682C228AD192CA22293E5C507B5C46414D4744543B767D2525633C486F6C653A6374646961
310
3E207B5C46414D4744543B787D203C486F6C653A637464657074683E
  0
ACAD_PROXY_OBJECT
  5
1B52
330
1B50
100
AcDbProxyObject
 90
      499
 91
      566
 95
       25
 70
     0
 93
     2192
310
5DE0143A0D960E4E0DDA0E32056E0D9C80C405FE3D3C696628657175616C28486F6C653A7461707065642C223022292C22252563222C486F6C653A6E6F6D696E616C2022202220696628657175616C28486F6C653A756E6974732C223122292C2278222C222D222920222022293E3C696628657175616C28486F6C653A7461
310
707065642C223022292C486F6C653A6469612C486F6C653A706974636864657363293E207B5C46414D4744543B787D203C696628657175616C28486F6C653A7465726D696E6174696F6E2C223022292C486F6C653A64657074682C228AD192CA22293E5C507B5C46414D4744543B777D2525633C486F6C653A63746469613E
310
2058203C486F6C653A6374616E676C653E252564
  0
ACAD_PROXY_OBJECT
  5
1B53
330
1B50
100
AcDbProxyObject
 90
      499
 91
      566
 95
       25
 70
     0
 93
     1816
310
5DE0143A0D960E4E0DDA0E32056E0D9C80C405CF3D3C696628657175616C28486F6C653A7461707065642C223022292C22252563222C486F6C653A6E6F6D696E616C2022202220696628657175616C28486F6C653A756E6974732C223122292C2278222C222D222920222022293E3C696628657175616C28486F6C653A7461
310
707065642C223022292C486F6C653A6469612C486F6C653A706974636864657363293E5C507B5C46414D4744543B787D203C696628657175616C28486F6C653A7465726D696E6174696F6E2C223022292C486F6C653A64657074682C228AD192CA22293E
  0
ACAD_PROXY_OBJECT
  5
1B54
330
1B50
100
AcDbProxyObject
 90
      499
 91
      566
 95
       25
 70
     0
 93
      344
310
5DE0143A0D960E4E0DDA0E32056E0D9C80C805173D3C535444503A444553433E203C535444503A5354443E
  0
ACAD_PROXY_OBJECT
  5
1B55
330
1B50
100
AcDbProxyObject
 90
      499
 91
      566
 95
       25
 70
     0
 93
      256
310
5DE0143A0D960E4E0DDA0E32056E0D9C80C4050C3D3C535444503A444553433E
  0
ACAD_PROXY_OBJECT
  5
1674
330
1670
100
AcDbProxyObject
 90
      499
 91
      566
 95
       25
 70
     0
 93
     1376
310
5DE0143A0D960E4E0DDA0E32056E0D9C80C405983D3C486F6C653A6469613E3C696628657175616C28486F6C653A7465726D696E6174696F6E2C223022292C2220905B82B320222C22208368838A838B22293E3C696628657175616C28486F6C653A7465726D696E6174696F6E2C223022292C486F6C653A64657074682C22
310
22293E2C203C486F6C653A63746469613E2082B482AE82E882CC905B82B3203C486F6C653A637464657074683E
  0
ACAD_PROXY_OBJECT
  5
1675
330
1670
100
AcDbProxyObject
 90
      499
 91
      566
 95
       25
 70
     0
 93
     2072
310
5DE0143A0D960E4E0DDA0E32056E0D9C80C405EF3D3C486F6C653A6374616E676C653E252564202525633C486F6C653A63746469613E208E4D8C8A2C203C696628657175616C28486F6C653A7461707065642C223022292C22252563222C486F6C653A6E6F6D696E616C202220782022293E3C696628657175616C28486F6C
310
653A7461707065642C223022292C486F6C653A6469612C486F6C653A706974636864657363293E203C696628657175616C28486F6C653A7465726D696E6174696F6E2C223022292C22905B82B320222C222022293E3C696628657175616C28486F6C653A7465726D696E6174696F6E2C223022292C486F6C653A6465707468
310
2C2222293E
  0
ACAD_PROXY_OBJECT
  5
1673
330
1670
100
AcDbProxyObject
 90
      499
 91
      566
 95
       25
 70
     0
 93
     1752
310
5DE0143A0D960E4E0DDA0E32056E0D9C80C405C73D3C696628657175616C28486F6C653A7461707065642C223022292C22252563222C486F6C653A6E6F6D696E616C202220782022293E3C696628657175616C28486F6C653A7461707065642C223022292C486F6C653A6469612C486F6C653A706974636864657363293E20
310
3C696628657175616C28486F6C653A7465726D696E6174696F6E2C223022292C22905B82B320222C222022293E3C696628657175616C28486F6C653A7465726D696E6174696F6E2C223022292C486F6C653A64657074682C2222293E
  0
ACAD_PROXY_OBJECT
  5
1672
330
1670
100
AcDbProxyObject
 90
      499
 91
      566
 95
       25
 70
     0
 93
      344
310
5DE0143A0D960E4E0DDA0E32056E0D9C80C805173D3C535444503A444553433E203C535444503A5354443E
  0
ACAD_PROXY_OBJECT
  5
1671
330
1670
100
AcDbProxyObject
 90
      499
 91
      566
 95
       25
 70
     0
 93
      256
310
5DE0143A0D960E4E0DDA0E32056E0D9C80C4050C3D3C535444503A444553433E
  0
ENDSEC
  0
EOF
