  0
SECTION
  2
HEADER
  9
$ACADVER
  1
AC1015
  9
$ACADMAINTVER
 70
     6
  9
$DWGCODEPAGE
  3
ANSI_932
  9
$INSBASE
 10
0.0
 20
0.0
 30
0.0
  9
$EXTMIN
 10
-76.6685474217735
 20
-119.3128959739265
 30
-0.0015258207003583
  9
$EXTMAX
 10
180.10711765977
 20
38.97460995646497
 30
0.0000000349246037
  9
$LIMMIN
 10
-215.0
 20
-153.5
  9
$LIMMAX
 10
215.0
 20
153.5
  9
$ORTHOMODE
 70
     1
  9
$REGENMODE
 70
     1
  9
$FILLMODE
 70
     1
  9
$QTEXTMODE
 70
     0
  9
$MIRRTEXT
 70
     1
  9
$LTSCALE
 40
1.0
  9
$ATTMODE
 70
     1
  9
$TEXTSIZE
 40
2.5
  9
$TRACEWID
 40
1.0
  9
$TEXTSTYLE
  7
STANDARD
  9
$CLAYER
  8
AM_0
  9
$CELTYPE
  6
ByLayer
  9
$CECOLOR
 62
   256
  9
$CELTSCALE
 40
1.0
  9
$DISPSILH
 70
     0
  9
$DIMSCALE
 40
1.0
  9
$DIMASZ
 40
2.5
  9
$DIMEXO
 40
0.0
  9
$DIMDLI
 40
10.0
  9
$DIMRND
 40
0.0
  9
$DIMDLE
 40
0.0
  9
$DIMEXE
 40
1.0
  9
$DIMTP
 40
0.1
  9
$DIMTM
 40
0.1000000001
  9
$DIMTXT
 40
3.8
  9
$DIMCEN
 40
0.0
  9
$DIMTSZ
 40
0.0
  9
$DIMTOL
 70
     0
  9
$DIMLIM
 70
     0
  9
$DIMTIH
 70
     0
  9
$DIMTOH
 70
     0
  9
$DIMSE1
 70
     0
  9
$DIMSE2
 70
     0
  9
$DIMTAD
 70
     3
  9
$DIMZIN
 70
     1
  9
$DIMBLK
  1
Open30
  9
$DIMASO
 70
     1
  9
$DIMSHO
 70
     1
  9
$DIMPOST
  1

  9
$DIMAPOST
  1
"
  9
$DIMALT
 70
     0
  9
$DIMALTD
 70
     2
  9
$DIMALTF
 40
0.0393701
  9
$DIMLFAC
 40
1.0
  9
$DIMTOFL
 70
     1
  9
$DIMTVP
 40
0.0
  9
$DIMTIX
 70
     0
  9
$DIMSOXD
 70
     0
  9
$DIMSAH
 70
     0
  9
$DIMBLK1
  1

  9
$DIMBLK2
  1

  9
$DIMSTYLE
  2
AM_JIS
  9
$DIMCLRD
 70
     3
  9
$DIMCLRE
 70
     3
  9
$DIMCLRT
 70
     2
  9
$DIMTFAC
 40
0.71
  9
$DIMGAP
 40
1.5
  9
$DIMJUST
 70
     0
  9
$DIMSD1
 70
     0
  9
$DIMSD2
 70
     0
  9
$DIMTOLJ
 70
     0
  9
$DIMTZIN
 70
     8
  9
$DIMALTZ
 70
     0
  9
$DIMALTTZ
 70
     0
  9
$DIMUPT
 70
     0
  9
$DIMDEC
 70
     0
  9
$DIMTDEC
 70
     2
  9
$DIMALTU
 70
     2
  9
$DIMALTTD
 70
     2
  9
$DIMTXSTY
  7
STANDARD
  9
$DIMAUNIT
 70
     1
  9
$DIMADEC
 70
     0
  9
$DIMALTRND
 40
0.0
  9
$DIMAZIN
 70
     2
  9
$DIMDSEP
 70
    46
  9
$DIMATFIT
 70
     3
  9
$DIMFRAC
 70
     0
  9
$DIMLDRBLK
  1
Open30
  9
$DIMLUNIT
 70
     2
  9
$DIMLWD
 70
    13
  9
$DIMLWE
 70
    13
  9
$DIMTMOVE
 70
     0
  9
$LUNITS
 70
     2
  9
$LUPREC
 70
     2
  9
$SKETCHINC
 40
1.0
  9
$FILLETRAD
 40
2.5
  9
$AUNITS
 70
     1
  9
$AUPREC
 70
     5
  9
$MENU
  1
.
  9
$ELEVATION
 40
0.0
  9
$PELEVATION
 40
0.0
  9
$THICKNESS
 40
0.0
  9
$LIMCHECK
 70
     0
  9
$CHAMFERA
 40
2.5
  9
$CHAMFERB
 40
2.5
  9
$CHAMFERC
 40
20.0
  9
$CHAMFERD
 40
0.0
  9
$SKPOLY
 70
     0
  9
$TDCREATE
 40
2451948.610903461
  9
$TDUCREATE
 40
2451948.235903461
  9
$TDUPDATE
 40
2455464.567740336
  9
$TDUUPDATE
 40
2455464.192740336
  9
$TDINDWG
 40
0.4416181366
  9
$TDUSRTIMER
 40
0.4415840625
  9
$USRTIMER
 70
     1
  9
$ANGBASE
 50
0.0
  9
$ANGDIR
 70
     0
  9
$PDMODE
 70
     0
  9
$PDSIZE
 40
0.0
  9
$PLINEWID
 40
0.0
  9
$SPLFRAME
 70
     0
  9
$SPLINETYPE
 70
     6
  9
$SPLINESEGS
 70
     8
  9
$HANDSEED
  5
6308
  9
$SURFTAB1
 70
     6
  9
$SURFTAB2
 70
     6
  9
$SURFTYPE
 70
     6
  9
$SURFU
 70
     6
  9
$SURFV
 70
     6
  9
$UCSBASE
  2

  9
$UCSNAME
  2

  9
$UCSORG
 10
0.0
 20
0.0
 30
0.0
  9
$UCSXDIR
 10
1.0
 20
0.0
 30
0.0
  9
$UCSYDIR
 10
0.0
 20
1.0
 30
0.0
  9
$UCSORTHOREF
  2

  9
$UCSORTHOVIEW
 70
     0
  9
$UCSORGTOP
 10
0.0
 20
0.0
 30
0.0
  9
$UCSORGBOTTOM
 10
0.0
 20
0.0
 30
0.0
  9
$UCSORGLEFT
 10
0.0
 20
0.0
 30
0.0
  9
$UCSORGRIGHT
 10
0.0
 20
0.0
 30
0.0
  9
$UCSORGFRONT
 10
0.0
 20
0.0
 30
0.0
  9
$UCSORGBACK
 10
0.0
 20
0.0
 30
0.0
  9
$PUCSBASE
  2

  9
$PUCSNAME
  2

  9
$PUCSORG
 10
0.0
 20
0.0
 30
0.0
  9
$PUCSXDIR
 10
1.0
 20
0.0
 30
0.0
  9
$PUCSYDIR
 10
0.0
 20
1.0
 30
0.0
  9
$PUCSORTHOREF
  2

  9
$PUCSORTHOVIEW
 70
     0
  9
$PUCSORGTOP
 10
0.0
 20
0.0
 30
0.0
  9
$PUCSORGBOTTOM
 10
0.0
 20
0.0
 30
0.0
  9
$PUCSORGLEFT
 10
0.0
 20
0.0
 30
0.0
  9
$PUCSORGRIGHT
 10
0.0
 20
0.0
 30
0.0
  9
$PUCSORGFRONT
 10
0.0
 20
0.0
 30
0.0
  9
$PUCSORGBACK
 10
0.0
 20
0.0
 30
0.0
  9
$USERI1
 70
     0
  9
$USERI2
 70
     0
  9
$USERI3
 70
     0
  9
$USERI4
 70
     0
  9
$USERI5
 70
     0
  9
$USERR1
 40
0.0
  9
$USERR2
 40
0.0
  9
$USERR3
 40
0.0
  9
$USERR4
 40
0.0
  9
$USERR5
 40
0.0
  9
$WORLDVIEW
 70
     1
  9
$SHADEDGE
 70
     3
  9
$SHADEDIF
 70
    70
  9
$TILEMODE
 70
     1
  9
$MAXACTVP
 70
    64
  9
$PINSBASE
 10
0.0
 20
0.0
 30
0.0
  9
$PLIMCHECK
 70
     0
  9
$PEXTMIN
 10
1.000000000000000E+20
 20
1.000000000000000E+20
 30
1.000000000000000E+20
  9
$PEXTMAX
 10
-1.000000000000000E+20
 20
-1.000000000000000E+20
 30
-1.000000000000000E+20
  9
$PLIMMIN
 10
0.0
 20
0.0
  9
$PLIMMAX
 10
420.0
 20
297.0
  9
$UNITMODE
 70
     0
  9
$VISRETAIN
 70
     1
  9
$PLINEGEN
 70
     0
  9
$PSLTSCALE
 70
     1
  9
$TREEDEPTH
 70
  3020
  9
$CMLSTYLE
  2
Standard
  9
$CMLJUST
 70
     0
  9
$CMLSCALE
 40
20.0
  9
$PROXYGRAPHICS
 70
     1
  9
$MEASUREMENT
 70
     1
  9
$CELWEIGHT
370
    13
  9
$ENDCAPS
280
     0
  9
$JOINSTYLE
280
     0
  9
$LWDISPLAY
290
     0
  9
$INSUNITS
 70
     4
  9
$HYPERLINKBASE
  1

  9
$STYLESHEET
  1
sei_cad.ctb
  9
$XEDIT
290
     1
  9
$CEPSNTYPE
380
     0
  9
$PSTYLEMODE
290
     1
  9
$FINGERPRINTGUID
  2
{403304E0-8DA2-11D3-AB8C-000629E2A613}
  9
$VERSIONGUID
  2
{D5C46465-071E-4D3C-8394-74222B571BC9}
  9
$EXTNAMES
290
     1
  9
$PSVPSCALE
 40
0.0
  9
$OLESTARTUP
290
     0
  0
ENDSEC
  0
SECTION
  2
CLASSES
  0
CLASS
  1
ACDBDICTIONARYWDFLT
  2
AcDbDictionaryWithDefault
  3
ObjectDBX Classes
 90
        0
280
     0
281
     0
  0
CLASS
  1
ACDBPLACEHOLDER
  2
AcDbPlaceHolder
  3
ObjectDBX Classes
 90
        0
280
     0
281
     0
  0
CLASS
  1
LAYOUT
  2
AcDbLayout
  3
ObjectDBX Classes
 90
        0
280
     0
281
     0
  0
CLASS
  1
ACME_DOCUMENT
  2
AcMeDbDoc
  3
AcMeServices
 90
        0
280
     1
281
     0
  0
CLASS
  1
ACMESCOPE
  2
AcMeScope
  3
AcMeServices
 90
        0
280
     1
281
     0
  0
CLASS
  1
ACMECOMMANDHISTORY
  2
AcMeCommandHistory
  3
AcMeServices
 90
        0
280
     1
281
     0
  0
CLASS
  1
DICTIONARYVAR
  2
AcDbDictionaryVar
  3
ObjectDBX Classes
 90
        0
280
     0
281
     0
  0
CLASS
  1
ACIMSYSVARMAN
  2
AcImSysVarManager
  3
AcMeServices
 90
        0
280
     1
281
     0
  0
CLASS
  1
ACIMREALSYSVAR
  2
AcImRealSysVar
  3
AcMeServices
 90
        0
280
     1
281
     0
  0
CLASS
  1
ACIMINTSYSVAR
  2
AcImIntSysVar
  3
AcMeServices
 90
        0
280
     1
281
     0
  0
CLASS
  1
ACMEDRAWINGMAN
  2
AcMeDrawingMan
  3
AcMeServices
 90
        0
280
     1
281
     0
  0
CLASS
  1
ACMEVIEW
  2
AcMeView
  3
AcMeServices
 90
        0
280
     1
281
     0
  0
CLASS
  1
ACDBENTITYCACHE
  2
AcMeEntityCache
  3
AcMeServices
 90
        0
280
     1
281
     0
  0
CLASS
  1
GSMANAGER
  2
AcMeGSManager
  3
AcMeServices
 90
        0
280
     1
281
     0
  0
CLASS
  1
AMDTINTERNALREACTOR
  2
AmdtInternalReactor
  3
AcMeServices
 90
        0
280
     1
281
     0
  0
CLASS
  1
ACMESTATEMGR
  2
AcMeStateMgr
  3
AcMeServices
 90
        0
280
     1
281
     0
  0
CLASS
  1
ACME_DATABASE
  2
AcMeDbDatabase
  3
AcMeServices
 90
        0
280
     1
281
     0
  0
CLASS
  1
ACRFINSADJUSTERMGR
  2
AcRfInsAdjusterMgr
  3
AcMeServices
 90
        0
280
     1
281
     0
  0
CLASS
  1
AMGSETTINGSOBJ
  2
AmgSettingsObj
  3
"AcadM|Product Description: AutoCAD Mechanical 2000|Company: Autodesk"
 90
        0
280
     1
281
     0
  0
CLASS
  1
ACMDATADICTIONARY
  2
AcmDataDictionary
  3
"AcmSymBB|Product Description: AutoCAD Mechanical 2004 DX|Company: Autodesk"
 90
        0
280
     1
281
     0
  0
CLASS
  1
ACMDATAENTRYBLOCK
  2
AcmDataEntryBlock
  3
"AcmSymBB|Product Description: AutoCAD Mechanical 2004 DX|Company: Autodesk"
 90
        0
280
     1
281
     0
  0
CLASS
  1
AMGOBJPROPCFG
  2
AmgObjPropCfg
  3
"AmgLay|Product Description: AutoCAD Mechanical 2000|Company: Autodesk"
 90
        1
280
     1
281
     0
  0
CLASS
  1
ACAMGFILTERDAT
  2
AcAmgFilterDat
  3
"AcadM|Product Description: AutoCAD Mechanical 2000|Company: Autodesk"
 90
        0
280
     1
281
     0
  0
CLASS
  1
LAYER_INDEX
  2
AcDbLayerIndex
  3
ObjectDBX Classes
 90
        0
280
     0
281
     0
  0
CLASS
  1
IDBUFFER
  2
AcDbIdBuffer
  3
ObjectDBX Classes
 90
        0
280
     0
281
     0
  0
CLASS
  1
ACIMSTRSYSVAR
  2
AcImStrSysVar
  3
AcMeServices
 90
        0
280
     1
281
     0
  0
CLASS
  1
ACMSTANDARDJIS
  2
AcmStandardJIS
  3
"Amdt_StdImp|Product Description: AutoCAD Mechanical 2004 DX|Company: Autodesk"
 90
        0
280
     1
281
     0
  0
CLASS
  1
ACMSURFSTANDARDJIS
  2
AcmSurfTextStdJIS
  3
"Amdt_StdImp|Product Description: AutoCAD Mechanical 2004 DX|Company: Autodesk"
 90
        0
280
     1
281
     0
  0
CLASS
  1
ACMFCFSTANDARDJIS
  2
AcmFCFStdJIS
  3
"Amdt_StdImp|Product Description: AutoCAD Mechanical 2004 DX|Company: Autodesk"
 90
        0
280
     1
281
     0
  0
CLASS
  1
ACMWELDSTANDARDJIS
  2
AcmWeldingStdJIS
  3
"Amdt_StdImp|Product Description: AutoCAD Mechanical 2004 DX|Company: Autodesk"
 90
        0
280
     1
281
     0
  0
CLASS
  1
ACMIDSTANDARDJIS
  2
AcmIdStdJIS
  3
"Amdt_StdImp|Product Description: AutoCAD Mechanical 2004 DX|Company: Autodesk"
 90
        0
280
     1
281
     0
  0
CLASS
  1
ACMDATUMSTANDARDJIS
  2
AcmDatumStdJIS
  3
"Amdt_StdImp|Product Description: AutoCAD Mechanical 2004 DX|Company: Autodesk"
 90
        0
280
     1
281
     0
  0
CLASS
  1
ACMBOMSTANDARDJIS
  2
AcmBOMStdJIS
  3
"Amdt_StdImp|Product Description: AutoCAD Mechanical 2004 DX|Company: Autodesk"
 90
        0
280
     1
281
     0
  0
CLASS
  1
TABLESTYLE
  2
AcDbTableStyle
  3
ObjectDBX Classes
 90
     2047
280
     0
281
     0
  0
CLASS
  1
ACGREFMASTER
  2
AcGrefMaster
  3
AcAttribServices
 90
        0
280
     1
281
     0
  0
CLASS
  1
AM_DRAWING_MGR
  2
AcDmDwgMgr
  3
AcMechDwgViewMgmt
 90
        0
280
     1
281
     0
  0
CLASS
  1
AM_DWG_DOCUMENT
  2
AcDmDwgDocument
  3
AcMechDwgViewMgmt
 90
        0
280
     1
281
     0
  0
CLASS
  1
AM_DWG_SHEET
  2
AcDmSheet
  3
AcMechDwgViewMgmt
 90
        0
280
     1
281
     0
  0
CLASS
  1
AM_VIEWDIMPARMAP
  2
AcDmViewDimParMap
  3
AcMechDwgViewMgmt
 90
        0
280
     1
281
     0
  0
CLASS
  1
AM_DWGMGR_NAME
  2
AcDmDwgMgrName
  3
AcMechDwgViewMgmt
 90
        0
280
     1
281
     0
  0
CLASS
  1
ACGREFACADMASTER
  2
AcGrefacadMaster
  3
AcGrefServices
 90
        0
280
     1
281
     0
  0
CLASS
  1
AMDTMENUSTATEMGR
  2
AmdtMenuStateMgr
  3
McadcomServices
 90
        0
280
     1
281
     0
  0
CLASS
  1
AMDTMCOMMENUSTATE
  2
AmdtMcomMenuState
  3
McadcomServices
 90
        0
280
     1
281
     0
  0
CLASS
  1
AMIMASTER
  2
AmiMaster
  3
AmiServices
 90
        0
280
     1
281
     0
  0
CLASS
  1
MAPIAMMOUDLE
  2
MApiAmModule
  3
MApiAmServices
 90
        0
280
     1
281
     0
  0
CLASS
  1
AMDTADMENUSTATE
  2
AmdtAdMenuState
  3
DesignerServices
 90
        0
280
     1
281
     0
  0
CLASS
  1
ADAPPL
  2
AcAdAppl
  3
DesignerServices
 90
        0
280
     1
281
     0
  0
CLASS
  1
DEPMGR
  2
AcAdDepMgr
  3
DesignerServices
 90
        0
280
     1
281
     0
  0
CLASS
  1
PARAMMGR
  2
AcAdParamMgr
  3
DesignerServices
 90
        0
280
     1
281
     0
  0
CLASS
  1
PARAMSCOPE
  2
AcAdParamScope
  3
DesignerServices
 90
        0
280
     1
281
     0
  0
CLASS
  1
NAMEDAPPL
  2
AcAdNamedAppl
  3
DesignerServices
 90
        0
280
     1
281
     0
  0
CLASS
  1
AMDTDMMENUSTATE
  2
AmdtDmMenuState
  3
AcMechDwgViewMgmt
 90
        0
280
     1
281
     0
  0
CLASS
  1
AMDTAMMENUSTATE
  2
AmdtAmMenuState
  3
DesignerAssemblies
 90
        0
280
     1
281
     0
  0
CLASS
  1
ACAMPROJECT
  2
AcAmProject
  3
DesignerAssemblies
 90
        0
280
     1
281
     0
  0
CLASS
  1
ACAMGRCOMPDEF
  2
AcAmGrCompDef
  3
DesignerAssemblies
 90
        0
280
     1
281
     0
  0
CLASS
  1
ACCMCONTEXT
  2
AcCmContext
  3
DesignerAssemblies
 90
        0
280
     1
281
     0
  0
CLASS
  1
ACAMCOMPDEF
  2
AcAmCompDef
  3
DesignerAssemblies
 90
        0
280
     1
281
     0
  0
CLASS
  1
ACAMCOMPDEFMGR
  2
AcAmCompDefMgr
  3
DesignerAssemblies
 90
        0
280
     1
281
     0
  0
CLASS
  1
AMCONTEXTMGR
  2
AcAmContextMgr
  3
DesignerAssemblies
 90
        0
280
     1
281
     0
  0
CLASS
  1
ACAMCONTEXTMODELER
  2
AcAmContextModeler
  3
DesignerAssemblies
 90
        0
280
     1
281
     0
  0
CLASS
  1
ACAMGTITLESTD
  2
AcAmgTitleStd
  3
"TITLEAPP"
 90
        0
280
     1
281
     0
  0
CLASS
  1
ACMDETAILSTANDARDJIS
  2
AmdtDetailSymStdJIS
  3
"Amdt_StdImp|Product Description: AutoCAD Mechanical 2004 DX|Company: Autodesk"
 90
        0
280
     1
281
     0
  0
CLASS
  1
ACMSECTIONSTANDARDJIS
  2
AmdtSectionSymStdJIS
  3
"Amdt_StdImp|Product Description: AutoCAD Mechanical 2004 DX|Company: Autodesk"
 90
        0
280
     1
281
     0
  0
CLASS
  1
ACMCENTERLINESTANDARDJIS
  2
AmdtCenterLineStdJIS
  3
"Amdt_StdImp|Product Description: AutoCAD Mechanical 2004 DX|Company: Autodesk"
 90
        0
280
     1
281
     0
  0
CLASS
  1
ACMTHREADLINESTANDARDJIS
  2
AmdtThreadLineStdJIS
  3
"Amdt_StdImp|Product Description: AutoCAD Mechanical 2004 DX|Company: Autodesk"
 90
        0
280
     1
281
     0
  0
CLASS
  1
ACMNOTESTANDARDJIS
  2
AmdtNoteStdJIS
  3
"Amdt_StdImp|Product Description: AutoCAD Mechanical 2004 DX|Company: Autodesk"
 90
        0
280
     1
281
     0
  0
CLASS
  1
AMDTNOTETEMPLATEDB
  2
AmdtNoteTemplateDB
  3
AMDT_STDIMP_MODULE_NAME
 90
        0
280
     1
281
     0
  0
CLASS
  1
ACAMGLAYSTD
  2
AcAmgLayStd
  3
"AcAmgLayStd|Product Description: AutoCAD Mechanical 2000|Company: Autodesk"
 90
        0
280
     1
281
     0
  0
CLASS
  1
ACAMGDIMSTD
  2
AcAmgDimStd
  3
"AcAmgDimStd|Product Description: AutoCAD Mechanical 2000|Company: Autodesk"
 90
        0
280
     1
281
     0
  0
CLASS
  1
ACAMGHOLECHARTSTDJIS
  2
AcAmgHoleChartStdJIS
  3
ACMSYMBB_MODULE_NAME
 90
        0
280
     1
281
     0
  0
CLASS
  1
CATALOGSTATE
  2
AcAmCatalogState
  3
DesignerAssemblies
 90
        0
280
     1
281
     0
  0
CLASS
  1
ACAMGRCOMPDEFSET
  2
AcAmGrCompDefSet
  3
DesignerAssemblies
 90
        0
280
     1
281
     0
  0
CLASS
  1
AMDTBROWSERDBTAB
  2
AmdtBrowserDbTab
  3
McadcomServices
 90
        0
280
     1
281
     0
  0
CLASS
  1
CBROWSERAPPOBJECT
  2
CBrowserAppObject
  3
McadcomServices
 90
        0
280
     1
281
     0
  0
CLASS
  1
DM_PLACEHOLDER
  2
AcDmSelsetPlaceholder
  3
AcMechDwgViewMgmt
 90
        0
280
     1
281
     0
  0
CLASS
  1
SORTENTSTABLE
  2
AcDbSortentsTable
  3
ObjectDBX Classes
 90
        0
280
     0
281
     0
  0
CLASS
  1
ACMSTANDARDANSI
  2
AcmStandardANSI
  3
"Amdt_StdImp|Product Description: AutoCAD Mechanical 2004 DX|Company: Autodesk"
 90
        0
280
     1
281
     0
  0
CLASS
  1
ACMSURFSTANDARDANSI
  2
AcmSurfTextStdANSI
  3
"Amdt_StdImp|Product Description: AutoCAD Mechanical 2004 DX|Company: Autodesk"
 90
        0
280
     1
281
     0
  0
CLASS
  1
ACMFCFSTANDARDANSI
  2
AcmFCFStdANSI
  3
"Amdt_StdImp|Product Description: AutoCAD Mechanical 2004 DX|Company: Autodesk"
 90
        0
280
     1
281
     0
  0
CLASS
  1
ACMWELDSTANDARDANSI
  2
AcmWeldingStdANSI
  3
"Amdt_StdImp|Product Description: AutoCAD Mechanical 2004 DX|Company: Autodesk"
 90
        0
280
     1
281
     0
  0
CLASS
  1
ACMIDSTANDARDANSI
  2
AcmIdStdANSI
  3
"Amdt_StdImp|Product Description: AutoCAD Mechanical 2004 DX|Company: Autodesk"
 90
        0
280
     1
281
     0
  0
CLASS
  1
ACMDATUMSTANDARDANSI
  2
AcmDatumStdANSI
  3
"Amdt_StdImp|Product Description: AutoCAD Mechanical 2004 DX|Company: Autodesk"
 90
        0
280
     1
281
     0
  0
CLASS
  1
ACMBOMSTANDARDANSI
  2
AcmBOMStdANSI
  3
"Amdt_StdImp|Product Description: AutoCAD Mechanical 2004 DX|Company: Autodesk"
 90
        0
280
     1
281
     0
  0
CLASS
  1
ACMDETAILSTANDARDANSI
  2
AmdtDetailSymStdANSI
  3
"Amdt_StdImp|Product Description: AutoCAD Mechanical 2004 DX|Company: Autodesk"
 90
        0
280
     1
281
     0
  0
CLASS
  1
ACMSECTIONSTANDARDANSI
  2
AmdtSectionSymStdANSI
  3
"Amdt_StdImp|Product Description: AutoCAD Mechanical 2004 DX|Company: Autodesk"
 90
        0
280
     1
281
     0
  0
CLASS
  1
ACMCENTERLINESTANDARDANSI
  2
AmdtCenterLineStdANSI
  3
"Amdt_StdImp|Product Description: AutoCAD Mechanical 2004 DX|Company: Autodesk"
 90
        0
280
     1
281
     0
  0
CLASS
  1
ACMTHREADLINESTANDARDANSI
  2
AmdtThreadLineStdANSI
  3
"Amdt_StdImp|Product Description: AutoCAD Mechanical 2004 DX|Company: Autodesk"
 90
        0
280
     1
281
     0
  0
CLASS
  1
ACMNOTESTANDARDANSI
  2
AmdtNoteStdANSI
  3
"Amdt_StdImp|Product Description: AutoCAD Mechanical 2004 DX|Company: Autodesk"
 90
        0
280
     1
281
     0
  0
CLASS
  1
ACAMGHOLECHARTSTDANSI
  2
AcAmgHoleChartStdANSI
  3
ACMSYMBB_MODULE_NAME
 90
        0
280
     1
281
     0
  0
CLASS
  1
AMDTNOTE
  2
AmdtNote
  3
"AcmSymBB|Product Description: AutoCAD Mechanical 2004 DX|Company: Autodesk"
 90
     1023
280
     1
281
     1
  0
ENDSEC
  0
SECTION
  2
TABLES
  0
TABLE
  2
VPORT
  5
8
330
0
100
AcDbSymbolTable
 70
     9
  0
VPORT
  5
6301
330
8
100
AcDbSymbolTableRecord
100
AcDbViewportTableRecord
  2
*Active
 70
     0
 10
0.0
 20
0.0
 11
1.0
 21
1.0
 12
51.71928511899822
 22
-40.16914300873077
 13
0.0
 23
0.0
 14
2.5
 24
2.5
 15
10.0
 25
10.0
 16
0.0
 26
0.0
 36
1.0
 17
0.0
 27
0.0
 37
0.0
 40
159.6821095068707
 41
1.697058823529412
 42
50.0
 43
0.0
 44
0.0
 50
0.0
 51
0.0
 71
     0
 72
  2000
 73
     1
 74
     3
 75
     0
 76
     0
 77
     0
 78
     0
281
     0
 65
     1
110
0.0
120
0.0
130
0.0
111
1.0
121
0.0
131
0.0
112
0.0
122
1.0
132
0.0
 79
     0
146
0.0
  0
ENDTAB
  0
TABLE
  2
LTYPE
  5
5
330
0
100
AcDbSymbolTable
 70
    15
  0
LTYPE
  5
14
330
5
100
AcDbSymbolTableRecord
100
AcDbLinetypeTableRecord
  2
ByBlock
 70
     0
  3

 72
    65
 73
     0
 40
0.0
  0
LTYPE
  5
15
330
5
100
AcDbSymbolTableRecord
100
AcDbLinetypeTableRecord
  2
ByLayer
 70
     0
  3

 72
    65
 73
     0
 40
0.0
  0
LTYPE
  5
16
330
5
100
AcDbSymbolTableRecord
100
AcDbLinetypeTableRecord
  2
Continuous
 70
     0
  3
Solid line
 72
    65
 73
     0
 40
0.0
  0
LTYPE
  5
48
330
5
100
AcDbSymbolTableRecord
100
AcDbLinetypeTableRecord
  2
AM_ISO02W050
 70
     0
  3
__ __ __ __ __ __ __ __ __ __ __ __ __ __ __
 72
    65
 73
     2
 40
7.5
 49
6.0
 74
     0
 49
-1.5
 74
     0
  0
LTYPE
  5
49
330
5
100
AcDbSymbolTableRecord
100
AcDbLinetypeTableRecord
  2
AM_ISO08W050
 70
     0
  3
____ . ____ . ____ . ____ . ____ . ____ . ____
 72
    65
 73
     4
 40
18.0
 49
12.0
 74
     0
 49
-1.5
 74
     0
 49
3.0
 74
     0
 49
-1.5
 74
     0
  0
LTYPE
  5
4A
330
5
100
AcDbSymbolTableRecord
100
AcDbLinetypeTableRecord
  2
AM_ISO09W050
 70
     0
  3
_____ . . _____ . . _____ . . ____ .. ____
 72
    65
 73
     6
 40
22.5
 49
12.0
 74
     0
 49
-1.5
 74
     0
 49
3.0
 74
     0
 49
-1.5
 74
     0
 49
3.0
 74
     0
 49
-1.5
 74
     0
  0
LTYPE
  5
4B
330
5
100
AcDbSymbolTableRecord
100
AcDbLinetypeTableRecord
  2
Amconstr
 70
     0
  3
_______________________
 72
    65
 73
     2
 40
9999.0
 49
9999.0
 74
     0
 49
0.0
 74
     0
  0
LTYPE
  5
4C
330
5
100
AcDbSymbolTableRecord
100
AcDbLinetypeTableRecord
  2
AM_ISO02W050x2
 70
     0
  3
 _ _ _ _ _ _ _ _ _ _ _ _
 72
    65
 73
     2
 40
3.75
 49
3.0
 74
     0
 49
-0.75
 74
     0
  0
LTYPE
  5
4D
330
5
100
AcDbSymbolTableRecord
100
AcDbLinetypeTableRecord
  2
AM_ISO08W050x2
 70
     0
  3
__ . __ . __ . __ . __ . __
 72
    65
 73
     4
 40
9.0
 49
6.0
 74
     0
 49
-0.75
 74
     0
 49
1.5
 74
     0
 49
-0.75
 74
     0
  0
LTYPE
  5
50
330
5
100
AcDbSymbolTableRecord
100
AcDbLinetypeTableRecord
  2
Amzigzag
 70
     0
  3
/\/-/\/-/\/-/\/-/\/-/\/
 72
    65
 73
     2
 40
11.0001
 49
0.0001
 74
     4
 75
   135
340
4F
 46
0.04
 50
0.0
 44
0.0
 45
0.0
 49
-11.0
 74
     0
  0
LTYPE
  5
118
330
5
100
AcDbSymbolTableRecord
100
AcDbLinetypeTableRecord
  2
CENTER
 70
     0
  3
____ _ ____ _ ____ _ ____ _ ____ _ ____ _ ____
 72
    65
 73
     4
 40
17.5
 49
13.0
 74
     0
 49
-1.5
 74
     0
 49
1.5
 74
     0
 49
-1.5
 74
     0
  0
LTYPE
  5
7AA
330
5
100
AcDbSymbolTableRecord
100
AcDbLinetypeTableRecord
  2
ACJISTGB
 70
     0
  3
__ . . __ . .
 72
    65
 73
     6
 40
9.0
 49
4.0
 74
     0
 49
-1.0
 74
     0
 49
1.0
 74
     0
 49
-1.0
 74
     0
 49
1.0
 74
     0
 49
-1.0
 74
     0
  0
LTYPE
  5
7AB
330
5
100
AcDbSymbolTableRecord
100
AcDbLinetypeTableRecord
  2
ACJISTGL
 70
     0
  3
_ _ _ _ _
 72
    65
 73
     2
 40
3.0
 49
2.0
 74
     0
 49
-1.0
 74
     0
  0
LTYPE
  5
1645
330
5
100
AcDbSymbolTableRecord
100
AcDbLinetypeTableRecord
  2
HIDDEN
 70
     0
  3
Hidden __ __ __ __ __ __ __ __ __ __ __ __ __ _
 72
    65
 73
     2
 40
9.524999999999999
 49
6.35
 74
     0
 49
-3.175
 74
     0
  0
LTYPE
  5
1646
330
5
100
AcDbSymbolTableRecord
100
AcDbLinetypeTableRecord
  2
PHANTOM2
 70
     0
  3
Phantom (.5x) ___ _ _ ___ _ _ ___ _ _ ___ _ _
 72
    65
 73
     6
 40
31.75
 49
15.875
 74
     0
 49
-3.175
 74
     0
 49
3.175
 74
     0
 49
-3.175
 74
     0
 49
3.175
 74
     0
 49
-3.175
 74
     0
  0
LTYPE
  5
1907
330
5
100
AcDbSymbolTableRecord
100
AcDbLinetypeTableRecord
  2
ACANSTGB
 70
     0
  3
__ . . __ . .
 72
    65
 73
     6
 40
0.35433070866
 49
0.15748031496
 74
     0
 49
-0.03937007874
 74
     0
 49
0.03937007874
 74
     0
 49
-0.03937007874
 74
     0
 49
0.03937007874
 74
     0
 49
-0.03937007874
 74
     0
  0
LTYPE
  5
1908
330
5
100
AcDbSymbolTableRecord
100
AcDbLinetypeTableRecord
  2
ACANSTGL
 70
     0
  3
_ _ _ _ _
 72
    65
 73
     2
 40
0.11811023622
 49
0.07874015748
 74
     0
 49
-0.03937007874
 74
     0
  0
ENDTAB
  0
TABLE
  2
LAYER
  5
2
102
{ACAD_XDICTIONARY
360
1832
102
}
330
0
100
AcDbSymbolTable
 70
     6
  0
LAYER
  5
10
330
2
100
AcDbSymbolTableRecord
100
AcDbLayerTableRecord
  2
0
 70
     0
 62
     7
  6
Continuous
370
    -3
390
F
  0
LAYER
  5
68
330
2
100
AcDbSymbolTableRecord
100
AcDbLayerTableRecord
  2
AM_5
 70
     0
 62
     3
  6
Continuous
370
    13
390
F
  0
LAYER
  5
7B
330
2
100
AcDbSymbolTableRecord
100
AcDbLayerTableRecord
  2
Defpoints
 70
     0
 62
     7
  6
Continuous
290
     0
370
    -3
390
F
  0
LAYER
  5
5A3
330
2
100
AcDbSymbolTableRecord
100
AcDbLayerTableRecord
  2
AM_7
 70
     0
 62
     4
  6
AM_ISO08W050
370
    13
390
F
  0
LAYER
  5
5A4
330
2
100
AcDbSymbolTableRecord
100
AcDbLayerTableRecord
  2
AM_6
 70
     0
 62
     2
  6
Continuous
370
    30
390
F
  0
LAYER
  5
5F1
330
2
100
AcDbSymbolTableRecord
100
AcDbLayerTableRecord
  2
AM_0
 70
     0
 62
     7
  6
Continuous
370
    30
390
F
  0
ENDTAB
  0
TABLE
  2
STYLE
  5
3
330
0
100
AcDbSymbolTable
 70
     7
  0
STYLE
  5
11
330
3
100
AcDbSymbolTableRecord
100
AcDbTextStyleTableRecord
  2
STANDARD
 70
     0
 40
0.0
 41
1.0
 50
0.0
 71
     0
 42
2.5
  3
ISOCP.SHX
  4
EXTFONT.SHX
  0
STYLE
  5
4F
330
3
100
AcDbSymbolTableRecord
100
AcDbTextStyleTableRecord
  2

 70
     1
 40
0.0
 41
1.0
 50
0.0
 71
     0
 42
2.5
  3
ltypeshp.shx
  4

  0
STYLE
  5
7A2
330
3
100
AcDbSymbolTableRecord
100
AcDbTextStyleTableRecord
  2
ACJISTS
 70
     0
 40
1.0
 41
1.0
 50
0.0
 71
     0
 42
2.5
  3
isocp.shx
  4
bigfont.shx
  0
STYLE
  5
7A9
330
3
100
AcDbSymbolTableRecord
100
AcDbTextStyleTableRecord
  2
ACJISGDT
 70
     0
 40
0.0
 41
1.0
 50
0.0
 71
     0
 42
2.5
  3
amgdt.shx
  4

  0
STYLE
  5
182F
330
3
100
AcDbSymbolTableRecord
100
AcDbTextStyleTableRecord
  2
ACISOTS
 70
     0
 40
1.0
 41
1.0
 50
0.0
 71
     0
 42
1.0
  3
isocp.shx
  4
extfont.shx
  0
STYLE
  5
190A
330
3
100
AcDbSymbolTableRecord
100
AcDbTextStyleTableRecord
  2
ACANSTS
 70
     0
 40
1.0
 41
1.0
 50
0.0
 71
     0
 42
2.5
  3
romans.shx
  4
extfont.shx
  0
STYLE
  5
190B
330
3
100
AcDbSymbolTableRecord
100
AcDbTextStyleTableRecord
  2
ACANSGDT
 70
     0
 40
0.0
 41
1.0
 50
0.0
 71
     0
 42
2.5
  3
amgdtans.shx
  4

  0
ENDTAB
  0
TABLE
  2
VIEW
  5
6
330
0
100
AcDbSymbolTable
 70
     6
  0
VIEW
  5
4F5
330
6
100
AcDbSymbolTableRecord
100
AcDbViewTableRecord
  2
AM_VIEW1
 70
     0
 40
150.0
 10
113.2040050062578
 20
225.0
 41
226.4080100125157
 11
0.0
 21
0.0
 31
1.0
 12
0.0
 22
0.0
 32
0.0
 42
50.0
 43
0.0
 44
0.0
 50
0.0
 71
     0
281
     0
 72
     0
  0
VIEW
  5
4F6
330
6
100
AcDbSymbolTableRecord
100
AcDbViewTableRecord
  2
AM_VIEW2
 70
     0
 40
150.0
 10
309.7959949937422
 20
225.0
 41
226.4080100125157
 11
0.0
 21
0.0
 31
1.0
 12
0.0
 22
0.0
 32
0.0
 42
50.0
 43
0.0
 44
0.0
 50
0.0
 71
     0
281
     0
 72
     0
  0
VIEW
  5
4F7
330
6
100
AcDbSymbolTableRecord
100
AcDbViewTableRecord
  2
AM_VIEW3
 70
     0
 40
150.0
 10
113.2040050062578
 20
75.0
 41
226.4080100125157
 11
0.0
 21
0.0
 31
1.0
 12
0.0
 22
0.0
 32
0.0
 42
50.0
 43
0.0
 44
0.0
 50
0.0
 71
     0
281
     0
 72
     0
  0
VIEW
  5
4F8
330
6
100
AcDbSymbolTableRecord
100
AcDbViewTableRecord
  2
AM_VIEW4
 70
     0
 40
150.0
 10
309.7959949937422
 20
75.0
 41
226.4080100125157
 11
0.0
 21
0.0
 31
1.0
 12
0.0
 22
0.0
 32
0.0
 42
50.0
 43
0.0
 44
0.0
 50
0.0
 71
     0
281
     0
 72
     0
  0
VIEW
  5
4F9
330
6
100
AcDbSymbolTableRecord
100
AcDbViewTableRecord
  2
AM_VIEW5
 70
     0
 40
150.0
 10
211.5
 20
150.0
 41
226.4080100125157
 11
0.0
 21
0.0
 31
1.0
 12
0.0
 22
0.0
 32
0.0
 42
50.0
 43
0.0
 44
0.0
 50
0.0
 71
     0
281
     0
 72
     0
  0
VIEW
  5
4FA
330
6
100
AcDbSymbolTableRecord
100
AcDbViewTableRecord
  2
AM_VIEW6
 70
     0
 40
299.9970000000001
 10
211.5
 20
150.0
 41
452.8114918648312
 11
0.0
 21
0.0
 31
1.0
 12
0.0
 22
0.0
 32
0.0
 42
50.0
 43
0.0
 44
0.0
 50
0.0
 71
     0
281
     0
 72
     0
  0
ENDTAB
  0
TABLE
  2
UCS
  5
7
330
0
100
AcDbSymbolTable
 70
     0
  0
ENDTAB
  0
TABLE
  2
APPID
  5
9
330
0
100
AcDbSymbolTable
 70
    32
  0
APPID
  5
12
330
9
100
AcDbSymbolTableRecord
100
AcDbRegAppTableRecord
  2
ACAD
 70
     0
  0
APPID
  5
2C
330
9
100
AcDbSymbolTableRecord
100
AcDbRegAppTableRecord
  2
MCAD_NO_VIS
 70
     0
  0
APPID
  5
2D
330
9
100
AcDbSymbolTableRecord
100
AcDbRegAppTableRecord
  2
ACAD_TEMP_GRAPHIC
 70
     0
  0
APPID
  5
B5
330
9
100
AcDbSymbolTableRecord
100
AcDbRegAppTableRecord
  2
GENIUS_GENDTOL_13
 70
     0
  0
APPID
  5
12C
330
9
100
AcDbSymbolTableRecord
100
AcDbRegAppTableRecord
  2
GENIUS_GENCFG_13
 70
     0
  0
APPID
  5
12D
330
9
100
AcDbSymbolTableRecord
100
AcDbRegAppTableRecord
  2
GENIUS_GENCFG0_13
 70
     0
  0
APPID
  5
12E
330
9
100
AcDbSymbolTableRecord
100
AcDbRegAppTableRecord
  2
GENIUS_GENCFG1_13
 70
     0
  0
APPID
  5
12F
330
9
100
AcDbSymbolTableRecord
100
AcDbRegAppTableRecord
  2
GENIUS_GENCFG2_13
 70
     0
  0
APPID
  5
130
330
9
100
AcDbSymbolTableRecord
100
AcDbRegAppTableRecord
  2
GENIUS_GENCFG3_13
 70
     0
  0
APPID
  5
131
330
9
100
AcDbSymbolTableRecord
100
AcDbRegAppTableRecord
  2
GENIUS_GENCFG4_13
 70
     0
  0
APPID
  5
53B
330
9
100
AcDbSymbolTableRecord
100
AcDbRegAppTableRecord
  2
GENIUS_GENBLLY_14
 70
     0
  0
APPID
  5
53C
330
9
100
AcDbSymbolTableRecord
100
AcDbRegAppTableRecord
  2
GENIUS_GENODEF_13
 70
     0
  0
APPID
  5
53D
330
9
100
AcDbSymbolTableRecord
100
AcDbRegAppTableRecord
  2
GENIUS_GENOBJ-N-CEN_13
 70
     0
  0
APPID
  5
549
330
9
100
AcDbSymbolTableRecord
100
AcDbRegAppTableRecord
  2
GENIUS_GENTRA_14
 70
     0
  0
APPID
  5
553
330
9
100
AcDbSymbolTableRecord
100
AcDbRegAppTableRecord
  2
GENIUS_GENOBJ-N-TIT_13
 70
     0
  0
APPID
  5
554
330
9
100
AcDbSymbolTableRecord
100
AcDbRegAppTableRecord
  2
GENIUS_GENTITLE_13
 70
     0
  0
APPID
  5
555
330
9
100
AcDbSymbolTableRecord
100
AcDbRegAppTableRecord
  2
GENIUS_GENOENT_13
 70
     0
  0
APPID
  5
556
330
9
100
AcDbSymbolTableRecord
100
AcDbRegAppTableRecord
  2
GENIUS_GENOREF_13
 70
     0
  0
APPID
  5
557
330
9
100
AcDbSymbolTableRecord
100
AcDbRegAppTableRecord
  2
GENIUS_GENOLIS_13
 70
     0
  0
APPID
  5
558
330
9
100
AcDbSymbolTableRecord
100
AcDbRegAppTableRecord
  2
GENIUS_GENZVEED_13
 70
     0
  0
APPID
  5
559
330
9
100
AcDbSymbolTableRecord
100
AcDbRegAppTableRecord
  2
GENIUS_GENSCREG_15
 70
     0
  0
APPID
  5
55A
330
9
100
AcDbSymbolTableRecord
100
AcDbRegAppTableRecord
  2
GENIUS_GENOBJ-N-SDF_13
 70
     0
  0
APPID
  5
567
330
9
100
AcDbSymbolTableRecord
100
AcDbRegAppTableRecord
  2
GENIUS_GENREC_14
 70
     0
  0
APPID
  5
568
330
9
100
AcDbSymbolTableRecord
100
AcDbRegAppTableRecord
  2
GENIUS_GENOBJ-N-REC_13
 70
     0
  0
APPID
  5
609
330
9
100
AcDbSymbolTableRecord
100
AcDbRegAppTableRecord
  2
GENIUS_GENOBJ-N-HTC_13
 70
     0
  0
APPID
  5
60A
330
9
100
AcDbSymbolTableRecord
100
AcDbRegAppTableRecord
  2
GENIUS_GENHATCH_13
 70
     0
  0
APPID
  5
1648
330
9
100
AcDbSymbolTableRecord
100
AcDbRegAppTableRecord
  2
AD_DRAW
 70
     0
  0
APPID
  5
164B
330
9
100
AcDbSymbolTableRecord
100
AcDbRegAppTableRecord
  2
ACATTRIBSERVICES
 70
     0
  0
APPID
  5
1669
330
9
100
AcDbSymbolTableRecord
100
AcDbRegAppTableRecord
  2
DESIGNERASSEMBLIES
 70
     0
  0
APPID
  5
167C
330
9
100
AcDbSymbolTableRecord
100
AcDbRegAppTableRecord
  2
ACADM_DIM_EDIT
 70
     0
  0
APPID
  5
167D
330
9
100
AcDbSymbolTableRecord
100
AcDbRegAppTableRecord
  2
AMDT_DM_ADJ
 70
     0
  0
APPID
  5
2B0B
330
9
100
AcDbSymbolTableRecord
100
AcDbRegAppTableRecord
  2
GENIUS_GENOBJ-N-CRS_13
 70
     0
  0
ENDTAB
  0
TABLE
  2
DIMSTYLE
  5
A
330
0
100
AcDbSymbolTable
 70
    15
100
AcDbDimStyleTable
  0
DIMSTYLE
105
69
102
{ACAD_REACTORS
330
591B
330
613A
102
}
330
A
100
AcDbSymbolTableRecord
100
AcDbDimStyleTableRecord
  2
AM_JIS
 70
     0
  4
"
 41
2.5
 42
0.0
 43
10.0
 44
1.0
 47
0.1
 48
0.1000000001
 73
     0
 74
     0
 77
     3
 78
     1
 79
     2
140
3.8
141
0.0
143
0.0393701
146
0.71
147
1.5
172
     1
176
     3
177
     3
178
     2
271
     2
272
     2
275
     1
283
     0
284
     8
340
11
341
6A
342
6A
371
    13
372
    13
  0
DIMSTYLE
105
70
330
A
100
AcDbSymbolTableRecord
100
AcDbDimStyleTableRecord
  2
AM_JIS$3
 70
     0
  4
"
 41
2.5
 42
0.0
 43
10.0
 44
1.0
 47
0.1
 48
0.1000000001
 73
     0
 74
     0
 77
     3
 78
     1
 79
     2
140
3.8
141
0.0
143
0.0393701
146
0.71
147
1.5
172
     1
176
     3
177
     3
178
     2
271
     2
272
     2
275
     1
283
     0
284
     8
288
     1
289
     0
340
11
341
6A
342
6A
371
    13
372
    13
  0
DIMSTYLE
105
71
330
A
100
AcDbSymbolTableRecord
100
AcDbDimStyleTableRecord
  2
AM_JIS$4
 70
     0
  4
"
 41
2.5
 42
0.0
 43
10.0
 44
1.0
 47
0.1
 48
0.1000000001
 73
     0
 74
     0
 77
     3
 78
     1
 79
     2
140
3.8
141
0.0
143
0.0393701
146
0.71
147
1.5
172
     1
176
     3
177
     3
178
     2
271
     2
272
     2
275
     1
283
     0
284
     8
288
     1
289
     0
340
11
341
6A
342
6A
371
    13
372
    13
  0
DIMSTYLE
105
72
330
A
100
AcDbSymbolTableRecord
100
AcDbDimStyleTableRecord
  2
AM_JIS$6
 70
     0
  4
"
 41
2.5
 42
0.0
 43
10.0
 44
1.0
 47
0.1
 48
0.1000000001
 73
     0
 74
     0
 78
     1
 79
     2
140
3.8
141
0.0
143
0.0393701
146
0.71
147
1.5
172
     1
176
     3
177
     3
178
     2
271
     2
272
     2
275
     1
283
     0
284
     8
340
11
341
6A
342
6A
371
    13
372
    13
  0
DIMSTYLE
105
73
330
A
100
AcDbSymbolTableRecord
100
AcDbDimStyleTableRecord
  2
AM_JIS$7
 70
     0
  4
"
 41
2.5
 42
0.0
 43
10.0
 44
1.0
 47
0.1
 48
0.1000000001
 73
     0
 74
     0
 77
     3
 78
     1
 79
     2
140
5.0
141
0.0
143
0.0393701
146
0.71
147
1.5
172
     1
176
     3
177
     3
178
     2
271
     2
272
     2
275
     1
283
     0
284
     8
340
11
341
6A
342
6A
371
    13
372
    13
  0
DIMSTYLE
105
74
330
A
100
AcDbSymbolTableRecord
100
AcDbDimStyleTableRecord
  2
AM_JIS$SF
 70
     0
  4
"
 41
2.5
 42
1.0
 43
10.0
 44
1.0
 47
0.1
 48
0.1
 73
     0
 74
     0
 75
     1
 76
     1
 77
     3
 78
     8
 79
     2
140
3.5
141
0.0
143
0.0393701
146
0.71
147
1.5
176
   256
177
   256
178
     2
271
     2
272
     3
274
     4
340
11
341
6A
342
6A
343
6A
344
6A
371
    -1
372
    -1
  0
DIMSTYLE
105
79
330
A
100
AcDbSymbolTableRecord
100
AcDbDimStyleTableRecord
  2
AM_JIS$SH
 70
     0
  4
"
 41
2.5
 42
1.0
 43
10.0
 44
1.0
 47
0.1
 48
0.1
 73
     0
 74
     0
 75
     1
 76
     1
 77
     3
 78
     8
 79
     2
140
3.5
141
0.0
143
0.0393701
144
2.0
146
0.71
147
1.5
173
     1
176
   256
177
   256
178
     2
271
     2
272
     3
274
     4
340
11
341
6A
342
6A
343
75
344
6A
371
    -1
372
    -1
  0
DIMSTYLE
105
124
330
A
100
AcDbSymbolTableRecord
100
AcDbDimStyleTableRecord
  2
STANDARD
 70
     0
340
11
  0
DIMSTYLE
105
927
102
{ACAD_REACTORS
330
589A
330
58D0
330
590D
330
61A1
330
6202
330
62C0
102
}
330
A
100
AcDbSymbolTableRecord
100
AcDbDimStyleTableRecord
  2
AM_JIS$0
 70
     0
  4
"
 41
2.5
 42
0.0
 43
10.0
 44
1.0
 47
0.1
 48
0.1000000001
 73
     0
 74
     0
 77
     3
 78
     1
 79
     2
140
3.8
141
0.0
143
0.0393701
146
0.71
147
1.5
172
     1
176
     3
177
     3
178
     2
271
     2
272
     2
275
     1
283
     0
284
     8
289
     0
340
11
341
6A
342
6A
371
    13
372
    13
  0
DIMSTYLE
105
190C
330
A
100
AcDbSymbolTableRecord
100
AcDbDimStyleTableRecord
  2
AM_ANSI
 70
     0
  4
mm
 41
0.1
 42
0.05
 43
0.5
 44
0.1
 47
0.1
 48
0.1
 78
     7
 79
     2
140
0.12
141
0.0
146
0.71
147
0.06
176
   256
177
   256
178
     2
274
     4
284
     7
340
11
371
    -1
372
    -1
  0
DIMSTYLE
105
190D
330
A
100
AcDbSymbolTableRecord
100
AcDbDimStyleTableRecord
  2
AM_ANSI$3
 70
     0
  4
mm
 41
0.1
 42
0.05
 43
0.5
 44
0.1
 47
0.1
 48
0.1
 78
     7
 79
     2
140
0.12
141
0.0
146
0.71
147
0.06
176
   256
177
   256
178
     2
274
     4
284
     7
288
     1
289
     0
340
11
371
    -1
372
    -1
  0
DIMSTYLE
105
190E
330
A
100
AcDbSymbolTableRecord
100
AcDbDimStyleTableRecord
  2
AM_ANSI$4
 70
     0
  4
mm
 41
0.1
 42
0.05
 43
0.5
 44
0.1
 47
0.1
 48
0.1
 78
     7
 79
     2
140
0.12
141
0.0
146
0.71
147
0.06
176
   256
177
   256
178
     2
274
     4
284
     7
288
     1
289
     0
340
11
371
    -1
372
    -1
  0
DIMSTYLE
105
190F
330
A
100
AcDbSymbolTableRecord
100
AcDbDimStyleTableRecord
  2
AM_ANSI$7
 70
     0
  4
mm
 41
0.1
 42
0.05
 43
0.5
 44
0.1
 47
0.1
 48
0.1
 78
     7
 79
     2
140
0.24
141
0.0
146
0.71
147
0.06
176
   256
177
   256
178
     2
274
     4
284
     7
340
11
371
    -1
372
    -1
  0
DIMSTYLE
105
1910
330
A
100
AcDbSymbolTableRecord
100
AcDbDimStyleTableRecord
  2
AM_ANSI$SF
 70
     0
  4
mm
 41
0.1
 42
0.05
 43
0.5
 44
0.1
 47
0.1
 48
0.1
 75
     1
 76
     1
 78
     7
 79
     2
140
0.12
141
0.0
146
0.71
147
0.06
176
   256
177
   256
178
     2
274
     4
284
     7
340
11
371
    -1
372
    -1
  0
DIMSTYLE
105
1911
330
A
100
AcDbSymbolTableRecord
100
AcDbDimStyleTableRecord
  2
AM_ANSI$SH
 70
     0
  4
mm
 41
0.1
 42
0.05
 43
0.5
 44
0.1
 47
0.1
 48
0.1
 75
     1
 76
     1
 78
     7
 79
     2
140
0.12
141
0.0
146
0.71
147
0.06
173
     1
176
   256
177
   256
178
     2
274
     4
284
     7
340
11
343
75
371
    -1
372
    -1
  0
ENDTAB
  0
TABLE
  2
BLOCK_RECORD
  5
1
330
0
100
AcDbSymbolTable
 70
    12
  0
BLOCK_RECORD
  5
1F
102
{ACAD_XDICTIONARY
360
10B
102
}
330
1
100
AcDbSymbolTableRecord
100
AcDbBlockTableRecord
  2
*Model_Space
340
22
  0
BLOCK_RECORD
  5
1B
330
1
100
AcDbSymbolTableRecord
100
AcDbBlockTableRecord
  2
*Paper_Space
340
1E
  0
BLOCK_RECORD
  5
23
330
1
100
AcDbSymbolTableRecord
100
AcDbBlockTableRecord
  2
*Paper_Space0
340
26
  0
BLOCK_RECORD
  5
6A
330
1
100
AcDbSymbolTableRecord
100
AcDbBlockTableRecord
  2
_Open30
340
0
102
{BLKREFS
331
621B
331
621C
331
6224
331
6225
331
622D
331
622E
331
6236
331
6237
331
6243
331
6244
331
6286
331
6287
331
628F
331
6290
331
62D1
331
62D2
102
}
  0
BLOCK_RECORD
  5
75
330
1
100
AcDbSymbolTableRecord
100
AcDbBlockTableRecord
  2
GENAXEH
340
0
  0
BLOCK_RECORD
  5
1660
330
1
100
AcDbSymbolTableRecord
100
AcDbBlockTableRecord
  2
*U3
340
0
  0
BLOCK_RECORD
  5
589B
330
1
100
AcDbSymbolTableRecord
100
AcDbBlockTableRecord
  2
*D4
340
0
  0
BLOCK_RECORD
  5
58D1
330
1
100
AcDbSymbolTableRecord
100
AcDbBlockTableRecord
  2
*D5
340
0
  0
BLOCK_RECORD
  5
590E
330
1
100
AcDbSymbolTableRecord
100
AcDbBlockTableRecord
  2
*D6
340
0
  0
BLOCK_RECORD
  5
591C
330
1
100
AcDbSymbolTableRecord
100
AcDbBlockTableRecord
  2
*D7
340
0
  0
BLOCK_RECORD
  5
613B
330
1
100
AcDbSymbolTableRecord
100
AcDbBlockTableRecord
  2
*D8
340
0
  0
BLOCK_RECORD
  5
61A2
330
1
100
AcDbSymbolTableRecord
100
AcDbBlockTableRecord
  2
*D9
340
0
  0
BLOCK_RECORD
  5
6203
330
1
100
AcDbSymbolTableRecord
100
AcDbBlockTableRecord
  2
*D10
340
0
  0
BLOCK_RECORD
  5
62C1
330
1
100
AcDbSymbolTableRecord
100
AcDbBlockTableRecord
  2
*D11
340
0
  0
ENDTAB
  0
ENDSEC
  0
SECTION
  2
BLOCKS
  0
BLOCK
  5
20
330
1F
100
AcDbEntity
  8
0
100
AcDbBlockBegin
  2
*Model_Space
 70
     0
 71
     0
 10
0.0
 20
0.0
 30
0.0
  3
*Model_Space
  1

  0
ENDBLK
  5
21
330
1F
100
AcDbEntity
  8
0
100
AcDbBlockEnd
  0
BLOCK
  5
1C
330
1B
100
AcDbEntity
 67
     1
  8
0
100
AcDbBlockBegin
  2
*Paper_Space
 70
     0
 71
     0
 10
0.0
 20
0.0
 30
0.0
  3
*Paper_Space
  1

  0
ENDBLK
  5
1D
330
1B
100
AcDbEntity
 67
     1
  8
0
100
AcDbBlockEnd
  0
BLOCK
  5
24
330
23
100
AcDbEntity
  8
0
100
AcDbBlockBegin
  2
*Paper_Space0
 70
     0
 71
     0
 10
0.0
 20
0.0
 30
0.0
  3
*Paper_Space0
  1

  0
ENDBLK
  5
25
330
23
100
AcDbEntity
  8
0
100
AcDbBlockEnd
  0
BLOCK
  5
6E
330
6A
100
AcDbEntity
  8
0
100
AcDbBlockBegin
  2
_Open30
 70
     0
 71
     0
 10
0.0
 20
0.0
 30
0.0
  3
_Open30
  1

  0
LINE
  5
6B
330
6A
100
AcDbEntity
  8
0
 62
     0
370
    -2
100
AcDbLine
 10
-1.0
 20
0.26794919
 30
0.0
 11
0.0
 21
0.0
 31
0.0
  0
LINE
  5
6C
330
6A
100
AcDbEntity
  8
0
 62
     0
370
    -2
100
AcDbLine
 10
0.0
 20
0.0
 30
0.0
 11
-1.0
 21
-0.26794919
 31
0.0
  0
LINE
  5
6D
330
6A
100
AcDbEntity
  8
0
 62
     0
370
    -2
100
AcDbLine
 10
0.0
 20
0.0
 30
0.0
 11
-1.0
 21
0.0
 31
0.0
  0
ENDBLK
  5
6F
330
6A
100
AcDbEntity
  8
0
100
AcDbBlockEnd
  0
BLOCK
  5
77
330
75
100
AcDbEntity
  8
0
100
AcDbBlockBegin
  2
GENAXEH
 70
     0
 71
     0
 10
0.0
 20
0.0
 30
0.0
  3
GENAXEH
  1

  0
LINE
  5
76
330
75
100
AcDbEntity
  8
0
100
AcDbLine
 10
-1.0
 20
0.0
 30
0.0
 11
1.0
 21
0.0
 31
0.0
  0
ENDBLK
  5
78
330
75
100
AcDbEntity
  8
0
100
AcDbBlockEnd
  0
BLOCK
  5
1661
330
1660
100
AcDbEntity
  8
0
100
AcDbBlockBegin
  2
*U3
 70
     1
 71
     0
 10
0.0
 20
0.0
 30
0.0
  3
*U3
  1

  0
ENDBLK
  5
1662
330
1660
100
AcDbEntity
  8
0
100
AcDbBlockEnd
  0
BLOCK
  5
58A5
330
589B
100
AcDbEntity
  8
0
370
    13
100
AcDbBlockBegin
  2
*D4
 70
     1
 71
     0
 10
0.0
 20
0.0
 30
0.0
  3
*D4
  1

  0
LINE
  5
6218
330
589B
100
AcDbEntity
  8
AM_5
 62
     3
370
    13
100
AcDbLine
 10
160.0
 20
25.0
 30
0.0
 11
178.7702528983464
 21
25.0
 31
0.0
  0
LINE
  5
6219
330
589B
100
AcDbEntity
  8
AM_5
 62
     3
370
    13
100
AcDbLine
 10
160.0
 20
0.0000000000000568
 30
0.0
 11
178.7702528983464
 21
0.0000000000000515
 31
0.0
  0
LINE
  5
621A
330
589B
100
AcDbEntity
  8
AM_5
 62
     3
370
    13
100
AcDbLine
 10
177.7702528983464
 20
22.5
 30
0.0
 11
177.7702528983464
 21
2.500000000000052
 31
0.0
  0
INSERT
  5
621B
330
589B
100
AcDbEntity
  8
AM_5
 62
     3
370
    13
100
AcDbBlockReference
  2
_Open30
 10
177.7702528983464
 20
25.0
 30
0.0
 41
2.5
 42
2.5
 43
2.5
 50
90.0
  0
INSERT
  5
621C
330
589B
100
AcDbEntity
  8
AM_5
 62
     3
370
    13
100
AcDbBlockReference
  2
_Open30
 10
177.7702528983464
 20
0.0000000000000518
 30
0.0
 41
2.5
 42
2.5
 43
2.5
 50
270.0
  0
MTEXT
  5
621D
330
589B
100
AcDbEntity
  8
AM_5
 62
     2
370
    13
100
AcDbMText
 10
174.3698788825983
 20
12.50000000000005
 30
0.0
 40
3.8
 41
0.0
 71
     5
 72
     1
  1
25
 11
6.123031769111886E-17
 21
1.0
 31
0.0
 73
     1
 44
1.0
  0
POINT
  5
621E
330
589B
100
AcDbEntity
  8
Defpoints
 62
     0
370
    13
100
AcDbPoint
 10
160.0
 20
25.0
 30
0.0
  0
POINT
  5
621F
330
589B
100
AcDbEntity
  8
Defpoints
 62
     0
370
    13
100
AcDbPoint
 10
160.0
 20
0.0000000000000568
 30
0.0
  0
POINT
  5
6220
330
589B
100
AcDbEntity
  8
Defpoints
 62
     0
370
    13
100
AcDbPoint
 10
177.7702528983464
 20
0.0000000000000518
 30
0.0
  0
ENDBLK
  5
58A6
330
589B
100
AcDbEntity
  8
0
370
    13
100
AcDbBlockEnd
  0
BLOCK
  5
58DB
330
58D1
100
AcDbEntity
  8
0
370
    13
100
AcDbBlockBegin
  2
*D5
 70
     1
 71
     0
 10
0.0
 20
0.0
 30
0.0
  3
*D5
  1

  0
LINE
  5
6221
330
58D1
100
AcDbEntity
  8
AM_5
 62
     3
370
    13
100
AcDbLine
 10
-0.2698973013521027
 20
0.0
 30
0.0
 11
-14.20134344725466
 21
0.0000000000000039
 31
0.0
  0
LINE
  5
6222
330
58D1
100
AcDbEntity
  8
AM_5
 62
     3
370
    13
100
AcDbLine
 10
13.09964799999995
 20
25.0
 30
0.0
 11
-14.20134344725466
 21
25.00000000000001
 31
0.0
  0
LINE
  5
6223
330
58D1
100
AcDbEntity
  8
AM_5
 62
     3
370
    13
100
AcDbLine
 10
-13.20134344725466
 20
2.500000000000004
 30
0.0
 11
-13.20134344725466
 21
22.50000000000001
 31
0.0
  0
INSERT
  5
6224
330
58D1
100
AcDbEntity
  8
AM_5
 62
     3
370
    13
100
AcDbBlockReference
  2
_Open30
 10
-13.20134344725466
 20
0.0000000000000037
 30
0.0
 41
2.5
 42
2.5
 43
2.5
 50
270.0
  0
INSERT
  5
6225
330
58D1
100
AcDbEntity
  8
AM_5
 62
     3
370
    13
100
AcDbBlockReference
  2
_Open30
 10
-13.20134344725466
 20
25.00000000000001
 30
0.0
 41
2.5
 42
2.5
 43
2.5
 50
90.0
  0
MTEXT
  5
6226
330
58D1
100
AcDbEntity
  8
AM_5
 62
     2
370
    13
100
AcDbMText
 10
-16.60171746300269
 20
12.5
 30
0.0
 40
3.8
 41
0.0
 71
     5
 72
     1
  1
25
 11
6.123031769111886E-17
 21
1.0
 31
0.0
 73
     1
 44
1.0
  0
POINT
  5
6227
330
58D1
100
AcDbEntity
  8
Defpoints
 62
     0
370
    13
100
AcDbPoint
 10
-0.2698973013521027
 20
0.0
 30
0.0
  0
POINT
  5
6228
330
58D1
100
AcDbEntity
  8
Defpoints
 62
     0
370
    13
100
AcDbPoint
 10
13.09964799999995
 20
25.0
 30
0.0
  0
POINT
  5
6229
330
58D1
100
AcDbEntity
  8
Defpoints
 62
     0
370
    13
100
AcDbPoint
 10
-13.20134344725466
 20
25.00000000000001
 30
0.0
  0
ENDBLK
  5
58DC
330
58D1
100
AcDbEntity
  8
0
370
    13
100
AcDbBlockEnd
  0
BLOCK
  5
5918
330
590E
100
AcDbEntity
  8
0
370
    13
100
AcDbBlockBegin
  2
*D6
 70
     1
 71
     0
 10
0.0
 20
0.0
 30
0.0
  3
*D6
  1

  0
LINE
  5
622A
330
590E
100
AcDbEntity
  8
AM_5
 62
     3
370
    13
100
AcDbLine
 10
0.0
 20
-0.5527904844252589
 30
0.0
 11
-0.0000000000000017
 21
-28.82762495440238
 31
0.0
  0
LINE
  5
622B
330
590E
100
AcDbEntity
  8
AM_5
 62
     3
370
    13
100
AcDbLine
 10
160.0
 20
0.0000000000000568
 30
0.0
 11
160.0
 21
-28.82762495440238
 31
0.0
  0
LINE
  5
622C
330
590E
100
AcDbEntity
  8
AM_5
 62
     3
370
    13
100
AcDbLine
 10
2.499999999999998
 20
-27.82762495440238
 30
0.0
 11
157.5
 21
-27.82762495440238
 31
0.0
  0
INSERT
  5
622D
330
590E
100
AcDbEntity
  8
AM_5
 62
     3
370
    13
100
AcDbBlockReference
  2
_Open30
 10
-0.0000000000000017
 20
-27.82762495440238
 30
0.0
 41
2.5
 42
2.5
 43
2.5
 50
180.0
  0
INSERT
  5
622E
330
590E
100
AcDbEntity
  8
AM_5
 62
     3
370
    13
100
AcDbBlockReference
  2
_Open30
 10
160.0
 20
-27.82762495440238
 30
0.0
 41
2.5
 42
2.5
 43
2.5
  0
MTEXT
  5
622F
330
590E
100
AcDbEntity
  8
AM_5
 62
     2
370
    13
100
AcDbMText
 10
78.42964560985024
 20
-24.42762495440238
 30
0.0
 40
3.8
 41
0.0
 71
     5
 72
     1
  1
160
 73
     1
 44
1.0
  0
POINT
  5
6230
330
590E
100
AcDbEntity
  8
Defpoints
 62
     0
370
    13
100
AcDbPoint
 10
0.0
 20
-0.5527904844252589
 30
0.0
  0
POINT
  5
6231
330
590E
100
AcDbEntity
  8
Defpoints
 62
     0
370
    13
100
AcDbPoint
 10
160.0
 20
0.0000000000000568
 30
0.0
  0
POINT
  5
6232
330
590E
100
AcDbEntity
  8
Defpoints
 62
     0
370
    13
100
AcDbPoint
 10
160.0
 20
-27.82762495440238
 30
0.0
  0
ENDBLK
  5
5919
330
590E
100
AcDbEntity
  8
0
370
    13
100
AcDbBlockEnd
  0
BLOCK
  5
5928
330
591C
100
AcDbEntity
  8
0
370
    13
100
AcDbBlockBegin
  2
*D7
 70
     1
 71
     0
 10
0.0
 20
0.0
 30
0.0
  3
*D7
  1

  0
LINE
  5
6233
330
591C
100
AcDbEntity
  8
AM_5
 62
     3
370
    13
100
AcDbLine
 10
0.0
 20
-0.5527904844252589
 30
0.0
 11
-0.0000000000000053
 21
-16.78552466490024
 31
0.0
  0
LINE
  5
6234
330
591C
100
AcDbEntity
  8
AM_5
 62
     3
370
    13
100
AcDbLine
 10
15.51683099999997
 20
0.2638049999999339
 30
0.0
 11
16.77592688526173
 21
0.2857826038466866
 31
0.0
  0
ARC
  5
6235
330
591C
100
AcDbEntity
  8
AM_5
 62
     3
370
    13
100
AcDbCircle
 10
0.0
 20
-0.0070423347163834
 30
0.0
 40
15.77848233018385
100
AcDbArc
 50
279.0876740411924
 51
351.9123261143292
  0
INSERT
  5
6236
330
591C
100
AcDbEntity
  8
AM_5
 62
     3
370
    13
100
AcDbBlockReference
  2
_Open30
 10
-0.0000000000000036
 20
-15.78552466490024
 30
0.0
 41
2.5
 42
2.5
 43
2.5
 50
184.5438370205962
  0
INSERT
  5
6237
330
591C
100
AcDbEntity
  8
AM_5
 62
     3
370
    13
100
AcDbBlockReference
  2
_Open30
 10
15.77607919015271
 20
0.2683301946954755
 30
0.0
 41
2.5
 42
2.5
 43
2.5
 50
86.45616313492538
  0
MTEXT
  5
6238
330
591C
100
AcDbEntity
  8
AM_5
 62
     2
370
    13
100
AcDbMText
 10
9.928709170759003
 20
-7.399441065924004
 30
0.0
 40
3.8
 41
0.0
 71
     5
 72
     1
  1
91°
 11
0.5971975024096367
 21
0.8020942233401834
 31
0.0
 73
     1
 44
1.0
  0
POINT
  5
6239
330
591C
100
AcDbEntity
  8
Defpoints
 62
     0
370
    13
100
AcDbPoint
 10
7.968604443823587
 20
-13.62548012551306
 30
0.0
  0
POINT
  5
623A
330
591C
100
AcDbEntity
  8
Defpoints
 62
     0
370
    13
100
AcDbPoint
 10
0.0
 20
0.4344628827398083
 30
0.0
  0
POINT
  5
623B
330
591C
100
AcDbEntity
  8
Defpoints
 62
     0
370
    13
100
AcDbPoint
 10
0.4070070000000214
 20
0.0000619999999572
 30
0.0
  0
POINT
  5
623C
330
591C
100
AcDbEntity
  8
Defpoints
 62
     0
370
    13
100
AcDbPoint
 10
15.51683099999997
 20
0.2638049999999339
 30
0.0
  0
POINT
  5
623D
330
591C
100
AcDbEntity
  8
Defpoints
 62
     0
370
    13
100
AcDbPoint
 10
0.0
 20
-0.5527904844252589
 30
0.0
  0
ENDBLK
  5
5929
330
591C
100
AcDbEntity
  8
0
370
    13
100
AcDbBlockEnd
  0
BLOCK
  5
614B
330
613B
100
AcDbEntity
  8
0
370
    13
100
AcDbBlockBegin
  2
*D8
 70
     1
 71
     0
 10
0.0
 20
0.0
 30
0.0
  3
*D8
  1

  0
LINE
  5
623E
330
613B
100
AcDbEntity
  8
AM_5
 62
     3
370
    13
100
AcDbLine
 10
-51.65459616476744
 20
-1.939064043688177
 30
0.0
 11
-51.65459616476741
 21
-18.99803541462275
 31
0.0
  0
LINE
  5
623F
330
613B
100
AcDbEntity
  8
AM_5
 62
     3
370
    13
100
AcDbLine
 10
-51.65459616476745
 20
-0.0000028218618713
 30
0.0
 11
-49.99880978589966
 21
-18.9257422753987
 31
0.0
  0
ARC
  5
6240
330
613B
100
AcDbEntity
  8
AM_5
 62
     3
370
    13
100
AcDbCircle
 10
-51.65459616476745
 20
-0.0000028218618713
 30
0.0
 40
17.99803259276088
100
AcDbArc
 50
254.0699417188689
 51
262.0349708594345
  0
ARC
  5
6241
330
613B
100
AcDbEntity
  8
AM_5
 62
     3
370
    13
100
AcDbCircle
 10
-51.65459616476745
 20
-0.0000028218618713
 30
0.0
 40
17.99803259276088
100
AcDbArc
 50
282.9650253184778
 51
290.9300544590435
  0
ARC
  5
6242
330
613B
100
AcDbEntity
  8
AM_5
 62
     3
370
    13
100
AcDbCircle
 10
-51.65459616476745
 20
-0.0000028218618713
 30
0.0
 40
17.99803259276088
100
AcDbArc
 50
270.0000000000001
 51
274.9999961779123
  0
INSERT
  5
6243
330
613B
100
AcDbEntity
  8
AM_5
 62
     3
370
    13
100
AcDbBlockReference
  2
_Open30
 10
-51.65459616476741
 20
-17.99803541462275
 30
0.0
 41
2.5
 42
2.5
 43
2.5
 50
356.0174854297173
  0
INSERT
  5
6244
330
613B
100
AcDbEntity
  8
AM_5
 62
     3
370
    13
100
AcDbBlockReference
  2
_Open30
 10
-50.08596546219315
 20
-17.92954757149297
 30
0.0
 41
2.5
 42
2.5
 43
2.5
 50
188.9825107481951
  0
MTEXT
  5
6245
330
613B
100
AcDbEntity
  8
AM_5
 62
     2
370
    13
100
AcDbMText
 10
-54.09211669239335
 20
-14.39309315218049
 30
0.0
 40
3.8
 41
0.0
 71
     5
 72
     1
  1
5°
 11
0.9859609669220841
 21
-0.1669759614617295
 31
0.0
 73
     1
 44
1.0
  0
POINT
  5
6246
330
613B
100
AcDbEntity
  8
Defpoints
 62
     0
370
    13
100
AcDbPoint
 10
-50.60810443799072
 20
-17.96758563858685
 30
0.0
  0
POINT
  5
6247
330
613B
100
AcDbEntity
  8
Defpoints
 62
     0
370
    13
100
AcDbPoint
 10
-52.32893716476742
 20
7.707756000000019
 30
0.0
  0
POINT
  5
6248
330
613B
100
AcDbEntity
  8
Defpoints
 62
     0
370
    13
100
AcDbPoint
 10
-51.65459616476744
 20
0.0
 30
0.0
  0
POINT
  5
6249
330
613B
100
AcDbEntity
  8
Defpoints
 62
     0
370
    13
100
AcDbPoint
 10
-51.65459616476744
 20
-1.939064043688177
 30
0.0
  0
POINT
  5
624A
330
613B
100
AcDbEntity
  8
Defpoints
 62
     0
370
    13
100
AcDbPoint
 10
-51.70635816476744
 20
0.5916400000000399
 30
0.0
  0
ENDBLK
  5
614C
330
613B
100
AcDbEntity
  8
0
370
    13
100
AcDbBlockEnd
  0
BLOCK
  5
61AC
330
61A2
100
AcDbEntity
  8
0
370
    13
100
AcDbBlockBegin
  2
*D9
 70
     1
 71
     0
 10
0.0
 20
0.0
 30
0.0
  3
*D9
  1

  0
LINE
  5
6283
330
61A2
100
AcDbEntity
  8
AM_5
 62
     3
370
    13
100
AcDbLine
 10
160.0014795581795
 20
-70.48187075217368
 30
0.0
 11
180.1007240967692
 21
-70.48187075217368
 31
0.0
  0
LINE
  5
6284
330
61A2
100
AcDbEntity
  8
AM_5
 62
     3
370
    13
100
AcDbLine
 10
160.0014795581795
 20
-102.4818707521737
 30
0.0
 11
180.1007240967692
 21
-102.4818707521737
 31
0.0
  0
LINE
  5
6285
330
61A2
100
AcDbEntity
  8
AM_5
 62
     3
370
    13
100
AcDbLine
 10
179.1007240967692
 20
-72.98187075217368
 30
0.0
 11
179.1007240967692
 21
-99.98187075217368
 31
0.0
  0
INSERT
  5
6286
330
61A2
100
AcDbEntity
  8
AM_5
 62
     3
370
    13
100
AcDbBlockReference
  2
_Open30
 10
179.1007240967692
 20
-70.48187075217368
 30
0.0
 41
2.5
 42
2.5
 43
2.5
 50
90.0
  0
INSERT
  5
6287
330
61A2
100
AcDbEntity
  8
AM_5
 62
     3
370
    13
100
AcDbBlockReference
  2
_Open30
 10
179.1007240967692
 20
-102.4818707521737
 30
0.0
 41
2.5
 42
2.5
 43
2.5
 50
270.0
  0
MTEXT
  5
6288
330
61A2
100
AcDbEntity
  8
AM_5
 62
     2
370
    13
100
AcDbMText
 10
175.7003500810212
 20
-86.48187075217365
 30
0.0
 40
3.8
 41
0.0
 71
     5
 72
     1
  1
32
 11
6.123031769111886E-17
 21
1.0
 31
0.0
 73
     1
 44
1.0
  0
POINT
  5
6289
330
61A2
100
AcDbEntity
  8
Defpoints
 62
     0
370
    13
100
AcDbPoint
 10
160.0014795581795
 20
-70.48187075217368
 30
0.0
  0
POINT
  5
628A
330
61A2
100
AcDbEntity
  8
Defpoints
 62
     0
370
    13
100
AcDbPoint
 10
160.0014795581795
 20
-102.4818707521737
 30
0.0
  0
POINT
  5
628B
330
61A2
100
AcDbEntity
  8
Defpoints
 62
     0
370
    13
100
AcDbPoint
 10
179.1007240967692
 20
-102.4818707521737
 30
0.0
  0
ENDBLK
  5
61AD
330
61A2
100
AcDbEntity
  8
0
370
    13
100
AcDbBlockEnd
  0
BLOCK
  5
620D
330
6203
100
AcDbEntity
  8
0
370
    13
100
AcDbBlockBegin
  2
*D10
 70
     1
 71
     0
 10
0.0
 20
0.0
 30
0.0
  3
*D10
  1

  0
LINE
  5
628C
330
6203
100
AcDbEntity
  8
AM_5
 62
     3
370
    13
100
AcDbLine
 10
-2.239368535476842
 20
-70.48187075217368
 30
0.0
 11
-16.22870360316482
 21
-70.48187075217368
 31
0.0
  0
LINE
  5
628D
330
6203
100
AcDbEntity
  8
AM_5
 62
     3
370
    13
100
AcDbLine
 10
1.501479558179454
 20
-102.4818707521737
 30
0.0
 11
-16.22870360316483
 21
-102.4818707521737
 31
0.0
  0
LINE
  5
628E
330
6203
100
AcDbEntity
  8
AM_5
 62
     3
370
    13
100
AcDbLine
 10
-15.22870360316483
 20
-72.98187075217368
 30
0.0
 11
-15.22870360316483
 21
-99.98187075217368
 31
0.0
  0
INSERT
  5
628F
330
6203
100
AcDbEntity
  8
AM_5
 62
     3
370
    13
100
AcDbBlockReference
  2
_Open30
 10
-15.22870360316483
 20
-70.48187075217368
 30
0.0
 41
2.5
 42
2.5
 43
2.5
 50
90.0
  0
INSERT
  5
6290
330
6203
100
AcDbEntity
  8
AM_5
 62
     3
370
    13
100
AcDbBlockReference
  2
_Open30
 10
-15.22870360316483
 20
-102.4818707521737
 30
0.0
 41
2.5
 42
2.5
 43
2.5
 50
270.0
  0
MTEXT
  5
6291
330
6203
100
AcDbEntity
  8
AM_5
 62
     2
370
    13
100
AcDbMText
 10
-18.62907761891285
 20
-86.48187075217368
 30
0.0
 40
3.8
 41
0.0
 71
     5
 72
     1
  1
32
 11
6.123031769111886E-17
 21
1.0
 31
0.0
 73
     1
 44
1.0
  0
POINT
  5
6292
330
6203
100
AcDbEntity
  8
Defpoints
 62
     0
370
    13
100
AcDbPoint
 10
-2.239368535476842
 20
-70.48187075217368
 30
0.0
  0
POINT
  5
6293
330
6203
100
AcDbEntity
  8
Defpoints
 62
     0
370
    13
100
AcDbPoint
 10
1.501479558179454
 20
-102.4818707521737
 30
0.0
  0
POINT
  5
6294
330
6203
100
AcDbEntity
  8
Defpoints
 62
     0
370
    13
100
AcDbPoint
 10
-15.22870360316483
 20
-102.4818707521737
 30
0.0
  0
ENDBLK
  5
620E
330
6203
100
AcDbEntity
  8
0
370
    13
100
AcDbBlockEnd
  0
BLOCK
  5
62CB
330
62C1
100
AcDbEntity
  8
0
370
    13
100
AcDbBlockBegin
  2
*D11
 70
     1
 71
     0
 10
0.0
 20
0.0
 30
0.0
  3
*D11
  1

  0
LINE
  5
62CE
330
62C1
100
AcDbEntity
  8
AM_5
 62
     3
370
    13
100
AcDbLine
 10
0.0
 20
0.0
 30
0.0
 11
0.0000000000000021
 21
34.85483026758129
 31
0.0
  0
LINE
  5
62CF
330
62C1
100
AcDbEntity
  8
AM_5
 62
     3
370
    13
100
AcDbLine
 10
34.49832399999997
 20
25.0
 30
0.0
 11
34.49832399999997
 21
34.85483026758129
 31
0.0
  0
LINE
  5
62D0
330
62C1
100
AcDbEntity
  8
AM_5
 62
     3
370
    13
100
AcDbLine
 10
2.500000000000002
 20
33.85483026758129
 30
0.0
 11
31.99832399999997
 21
33.85483026758129
 31
0.0
  0
INSERT
  5
62D1
330
62C1
100
AcDbEntity
  8
AM_5
 62
     3
370
    13
100
AcDbBlockReference
  2
_Open30
 10
0.0000000000000021
 20
33.85483026758129
 30
0.0
 41
2.5
 42
2.5
 43
2.5
 50
180.0
  0
INSERT
  5
62D2
330
62C1
100
AcDbEntity
  8
AM_5
 62
     3
370
    13
100
AcDbBlockReference
  2
_Open30
 10
34.49832399999997
 20
33.85483026758129
 30
0.0
 41
2.5
 42
2.5
 43
2.5
  0
MTEXT
  5
62D3
330
62C1
100
AcDbEntity
  8
AM_5
 62
     2
370
    13
100
AcDbMText
 10
17.24916199999998
 20
37.25483026758129
 30
0.0
 40
3.8
 41
0.0
 71
     5
 72
     1
  1
34.5
 73
     1
 44
1.0
  0
POINT
  5
62D4
330
62C1
100
AcDbEntity
  8
Defpoints
 62
     0
370
    13
100
AcDbPoint
 10
0.0
 20
0.0
 30
0.0
  0
POINT
  5
62D5
330
62C1
100
AcDbEntity
  8
Defpoints
 62
     0
370
    13
100
AcDbPoint
 10
34.49832399999997
 20
25.0
 30
0.0
  0
POINT
  5
62D6
330
62C1
100
AcDbEntity
  8
Defpoints
 62
     0
370
    13
100
AcDbPoint
 10
34.49832399999997
 20
33.85483026758129
 30
0.0
  0
ENDBLK
  5
62CC
330
62C1
100
AcDbEntity
  8
0
370
    13
100
AcDbBlockEnd
  0
ENDSEC
  0
SECTION
  2
ENTITIES
  0
MTEXT
  5
2E3B
330
1F
100
AcDbEntity
  8
AM_5
 62
     2
370
    13
100
AcDbMText
 10
58.05642293843363
 20
96.00167122089064
 30
0.0
 40
3.15
 41
0.0
 71
     7
 72
     5
  1

  7
ACJISTS
 73
     1
 44
1.0
  0
LINE
  5
559D
330
1F
100
AcDbEntity
  8
AM_0
100
AcDbLine
 10
32.48722899999996
 20
9.878682999999967
 30
0.0
 11
28.620001
 21
23.26167899999996
 31
0.0
  0
LINE
  5
559E
330
1F
100
AcDbEntity
  8
AM_0
100
AcDbLine
 10
3.499056999999993
 20
16.38390099999998
 30
0.0
 11
3.126606999999979
 21
11.09302700000001
 31
0.0
  0
LINE
  5
559F
330
1F
100
AcDbEntity
  8
AM_0
100
AcDbLine
 10
32.581771
 20
8.327382999999998
 30
0.0
 11
32.57711699999999
 21
9.255097999999975
 31
0.0
  0
LINE
  5
55A0
330
1F
100
AcDbEntity
  8
AM_0
100
AcDbLine
 10
13.25411999999994
 20
24.65443900000003
 30
0.0
 11
5.568855999999983
 21
20.069929
 31
0.0
  0
LINE
  5
55A1
330
1F
100
AcDbEntity
  8
AM_0
100
AcDbLine
 10
26.07856699999996
 20
25.339631
 30
0.0
 11
14.91303899999997
 21
25.14473599999997
 31
0.0
  0
LINE
  5
55A2
330
1F
100
AcDbEntity
  8
AM_0
100
AcDbLine
 10
3.125104999999962
 20
11.04703699999999
 30
0.0
 11
3.128851999999938
 21
10.30008599999997
 31
0.0
  0
LINE
  5
55A4
330
1F
100
AcDbEntity
  8
AM_0
100
AcDbLine
 10
4.144513999999958
 20
9.678301999999974
 30
0.0
 11
11.53401699999995
 21
9.807285999999976
 31
0.0
  0
LINE
  5
55A5
330
1F
100
AcDbEntity
  8
AM_0
100
AcDbLine
 10
34.49833999999999
 20
25.0
 30
0.0
 11
160.0
 21
25.0
 31
0.0
  0
LINE
  5
55A6
330
1F
100
AcDbEntity
  8
AM_0
100
AcDbLine
 10
160.0
 20
0.0
 30
0.0
 11
160.0
 21
25.0
 31
0.0
  0
LINE
  5
55A7
330
1F
100
AcDbEntity
  8
AM_0
100
AcDbLine
 10
34.5
 20
0.0
 30
0.0
 11
34.49833999999999
 21
25.0
 31
0.0
  0
LINE
  5
55A8
330
1F
100
AcDbEntity
  8
AM_0
100
AcDbLine
 10
34.5
 20
0.0
 30
0.0
 11
160.0
 21
0.0
 31
0.0
  0
LINE
  5
55AA
330
1F
100
AcDbEntity
  8
AM_0
100
AcDbLine
 10
34.49832399999997
 20
25.0
 30
0.0
 11
34.49833999999999
 21
25.0
 31
0.0
  0
LINE
  5
55AB
330
1F
100
AcDbEntity
  8
AM_0
100
AcDbLine
 10
34.49999699999995
 20
0.0
 30
0.0
 11
34.5
 21
0.0
 31
0.0
  0
LINE
  5
55AC
330
1F
100
AcDbEntity
  8
AM_0
100
AcDbLine
 10
21.55275299999994
 20
0.0
 30
0.0
 11
21.55509899999998
 21
0.2550989999999729
 31
0.0
  0
LINE
  5
55AD
330
1F
100
AcDbEntity
  8
AM_0
100
AcDbLine
 10
21.55509899999998
 20
0.2550989999999729
 30
0.0
 11
15.01809399999996
 21
0.2550989999999729
 31
0.0
  0
LINE
  5
55AE
330
1F
100
AcDbEntity
  8
AM_0
100
AcDbLine
 10
1.5
 20
5.199999999999989
 30
0.0
 11
1.5
 21
3.197715000000017
 31
0.0
  0
LINE
  5
55AF
330
1F
100
AcDbEntity
  8
AM_0
100
AcDbLine
 10
2.707343999999978
 20
19.0
 30
0.0
 11
1.5
 21
5.199999999999989
 31
0.0
  0
LINE
  5
55B0
330
1F
100
AcDbEntity
  8
AM_0
100
AcDbLine
 10
13.09964799999995
 20
25.0
 30
0.0
 11
2.707343999999978
 21
19.0
 31
0.0
  0
LINE
  5
55B1
330
1F
100
AcDbEntity
  8
AM_0
100
AcDbLine
 10
34.49832399999997
 20
25.0
 30
0.0
 11
27.46374799999995
 21
25.0
 31
0.0
  0
LINE
  5
55B2
330
1F
100
AcDbEntity
  8
AM_0
100
AcDbLine
 10
13.94815199999994
 20
25.0
 30
0.0
 11
13.09964799999995
 21
25.0
 31
0.0
  0
LINE
  5
55B3
330
1F
100
AcDbEntity
  8
AM_0
100
AcDbLine
 10
34.49999699999995
 20
0.0
 30
0.0
 11
21.55275299999994
 21
0.0
 31
0.0
  0
LINE
  5
55B4
330
1F
100
AcDbEntity
  8
AM_0
100
AcDbLine
 10
13.54384899999997
 20
4.694810999999959
 30
0.0
 11
15.85267699999997
 21
0.8674750000000131
 31
0.0
  0
LINE
  5
55B5
330
1F
100
AcDbEntity
  8
AM_0
100
AcDbLine
 10
0.4070079999999621
 20
0.0000609999999597
 30
0.0
 11
15.51683199999997
 21
0.2638039999999933
 31
0.0
  0
LINE
  5
55B6
330
1F
100
AcDbEntity
  8
AM_0
100
AcDbLine
 10
3.878739999999993
 20
7.473417999999981
 30
0.0
 11
0.0501389999999446
 21
0.5916409999999814
 31
0.0
  0
LINE
  5
55B7
330
1F
100
AcDbEntity
  8
AM_0
100
AcDbLine
 10
21.76681099999996
 20
17.76557099999997
 30
0.0
 11
23.72837399999997
 21
16.555948
 31
0.0
  0
LINE
  5
55B8
330
1F
100
AcDbEntity
  8
AM_0
100
AcDbLine
 10
19.73047199999996
 20
16.68420099999997
 30
0.0
 11
21.76681099999996
 21
17.76557099999997
 31
0.0
  0
LINE
  5
55B9
330
1F
100
AcDbEntity
  8
AM_0
100
AcDbLine
 10
19.65569499999998
 20
14.39320899999996
 30
0.0
 11
19.73047199999996
 21
16.68420099999997
 31
0.0
  0
LINE
  5
55BA
330
1F
100
AcDbEntity
  8
AM_0
100
AcDbLine
 10
21.61725799999999
 20
13.18358599999999
 30
0.0
 11
19.65569499999998
 21
14.39320899999996
 31
0.0
  0
LINE
  5
55BB
330
1F
100
AcDbEntity
  8
AM_0
100
AcDbLine
 10
23.65359699999999
 20
14.26495599999998
 30
0.0
 11
21.61725799999999
 21
13.18358599999999
 31
0.0
  0
LINE
  5
55BC
330
1F
100
AcDbEntity
  8
AM_0
100
AcDbLine
 10
23.72837399999997
 20
16.555948
 30
0.0
 11
23.65359699999999
 21
14.26495599999998
 31
0.0
  0
LINE
  5
55BD
330
1F
100
AcDbEntity
  8
AM_0
100
AcDbLine
 10
19.73047199999996
 20
16.68420099999997
 30
0.0
 11
19.73199999999997
 21
16.37954100000002
 31
0.0
  0
LINE
  5
55BE
330
1F
100
AcDbEntity
  8
AM_0
100
AcDbLine
 10
19.66694199999995
 20
14.38627399999996
 30
0.0
 11
19.73199999999997
 21
16.37954100000002
 31
0.0
  0
LINE
  5
55BF
330
1F
100
AcDbEntity
  8
AM_0
100
AcDbLine
 10
21.76681099999996
 20
17.76557099999997
 30
0.0
 11
21.76833899999997
 21
17.46091100000001
 31
0.0
  0
LINE
  5
55C0
330
1F
100
AcDbEntity
  8
AM_0
100
AcDbLine
 10
21.76833899999997
 20
17.46091100000001
 30
0.0
 11
23.71865599999995
 21
16.25822299999999
 31
0.0
  0
LINE
  5
55C1
330
1F
100
AcDbEntity
  8
AM_0
100
AcDbLine
 10
19.73199999999997
 20
16.37954100000002
 30
0.0
 11
21.76833899999997
 21
17.46091100000001
 31
0.0
  0
LINE
  5
55C2
330
1F
100
AcDbEntity
  8
AM_0
100
AcDbLine
 10
3.43756499999995
 20
5.716674000000012
 30
0.0
 11
2.621139999999969
 21
2.181478999999968
 31
0.0
  0
LINE
  5
55C3
330
1F
100
AcDbEntity
  8
AM_0
100
AcDbLine
 10
4.433732999999961
 20
9.683350000000019
 30
0.0
 11
3.437719999999956
 21
5.717315999999983
 31
0.0
  0
LINE
  5
55C4
330
1F
100
AcDbEntity
  8
AM_0
100
AcDbLine
 10
2.603026999999997
 20
2.01895300000001
 30
0.0
 11
2.603142999999989
 21
1.995768999999996
 31
0.0
  0
LINE
  5
55F0
330
1F
100
AcDbEntity
  8
AM_0
100
AcDbLine
 10
32.48722999999995
 20
9.878683000000024
 30
0.0
 11
28.62000099999995
 21
23.26167899999996
 31
0.0
  0
LINE
  5
55F5
330
1F
100
AcDbEntity
  8
AM_0
100
AcDbLine
 10
3.499056999999993
 20
16.38390099999998
 30
0.0
 11
3.126606999999922
 21
11.09302700000001
 31
0.0
  0
LINE
  5
55FB
330
1F
100
AcDbEntity
  8
AM_0
100
AcDbLine
 10
32.58177099999995
 20
8.327382999999941
 30
0.0
 11
32.57711699999993
 21
9.255096999999978
 31
0.0
  0
LINE
  5
55FD
330
1F
100
AcDbEntity
  8
AM_0
100
AcDbLine
 10
13.25411999999994
 20
24.65443900000003
 30
0.0
 11
5.568855999999983
 21
20.069929
 31
0.0
  0
LINE
  5
55FE
330
1F
100
AcDbEntity
  8
AM_0
100
AcDbLine
 10
26.07856699999996
 20
25.33963099999994
 30
0.0
 11
14.91303899999997
 21
25.14473599999997
 31
0.0
  0
LINE
  5
55FF
330
1F
100
AcDbEntity
  8
AM_0
100
AcDbLine
 10
3.125104999999962
 20
11.04703599999999
 30
0.0
 11
3.128852999999936
 21
10.30008599999997
 31
0.0
  0
LINE
  5
5601
330
1F
100
AcDbEntity
  8
AM_0
100
AcDbLine
 10
3.887215999999967
 20
9.341948000000002
 30
0.0
 11
3.885381999999936
 21
9.707539999999995
 31
0.0
  0
LINE
  5
5602
330
1F
100
AcDbEntity
  8
AM_0
100
AcDbLine
 10
30.43805899999995
 20
5.349180999999987
 30
0.0
 11
31.12706699999995
 21
5.760196999999948
 31
0.0
  0
LINE
  5
5603
330
1F
100
AcDbEntity
  8
AM_0
100
AcDbLine
 10
30.43756899999994
 20
5.446672000000035
 30
0.0
 11
30.43805899999995
 21
5.349180999999987
 31
0.0
  0
LINE
  5
5604
330
1F
100
AcDbEntity
  8
AM_0
100
AcDbLine
 10
26.09479799999997
 20
2.856066999999996
 30
0.0
 11
30.43756899999994
 21
5.446672000000035
 31
0.0
  0
LINE
  5
5606
330
1F
100
AcDbEntity
  8
AM_0
100
AcDbLine
 10
22.54227399999996
 20
3.195122999999967
 30
0.0
 11
18.40182399999998
 21
6.894690999999966
 31
0.0
  0
LINE
  5
5608
330
1F
100
AcDbEntity
  8
AM_0
100
AcDbLine
 10
14.14177899999993
 20
9.510831999999994
 30
0.0
 11
14.14361299999996
 21
9.145239999999944
 31
0.0
  0
LINE
  5
5609
330
1F
100
AcDbEntity
  8
AM_0
100
AcDbLine
 10
4.144513999999958
 20
9.678302000000031
 30
0.0
 11
11.53401699999995
 21
9.807285999999976
 31
0.0
  0
LINE
  5
560A
330
1F
100
AcDbEntity
  8
AM_0
100
AcDbLine
 10
3.887215999999967
 20
9.341948000000002
 30
0.0
 11
3.974558999999942
 21
9.689737999999977
 31
0.0
  0
LINE
  5
560B
330
1F
100
AcDbEntity
  8
AM_0
100
AcDbLine
 10
30.43805899999995
 20
5.349180999999987
 30
0.0
 11
30.41395699999998
 21
5.432586000000015
 31
0.0
  0
LINE
  5
5662
330
1F
100
AcDbEntity
  8
AM_0
100
AcDbLine
 10
13.54384899999997
 20
4.694810999999959
 30
0.0
 11
15.85267699999997
 21
0.8674750000000131
 31
0.0
  0
LINE
  5
5663
330
1F
100
AcDbEntity
  8
AM_0
100
AcDbLine
 10
0.4070070000000214
 20
0.0000619999999572
 30
0.0
 11
15.51683099999997
 21
0.2638049999999339
 31
0.0
  0
LINE
  5
5664
330
1F
100
AcDbEntity
  8
AM_0
100
AcDbLine
 10
3.878739999999993
 20
7.473417999999924
 30
0.0
 11
0.0501389999999446
 21
0.5916409999999814
 31
0.0
  0
LINE
  5
5665
330
1F
100
AcDbEntity
  8
AM_0
100
AcDbLine
 10
3.43756499999995
 20
5.716674000000012
 30
0.0
 11
2.621139999999969
 21
2.181478999999968
 31
0.0
  0
LINE
  5
5668
330
1F
100
AcDbEntity
  8
AM_0
100
AcDbLine
 10
4.483949999999936
 20
5.29284999999993
 30
0.0
 11
12.611223
 21
5.43471199999999
 31
0.0
  0
LINE
  5
566E
330
1F
100
AcDbEntity
  8
AM_0
100
AcDbLine
 10
15.24912799999999
 20
11.71064200000001
 30
0.0
 11
13.28934400000003
 21
3.90695299999993
 31
0.0
  0
LINE
  5
5670
330
1F
100
AcDbEntity
  8
AM_0
100
AcDbLine
 10
4.654716000000008
 20
6.582026999999926
 30
0.0
 11
12.935655
 21
6.726570999999979
 31
0.0
  0
LINE
  5
5671
330
1F
100
AcDbEntity
  8
AM_0
100
AcDbLine
 10
5.546573999999964
 20
14.11458899999997
 30
0.0
 11
3.437720000000013
 21
5.717315999999983
 31
0.0
  0
LINE
  5
5676
330
1F
100
AcDbEntity
  8
AM_0
100
AcDbLine
 10
13.18605400000001
 20
7.72364099999993
 30
0.0
 11
4.905116000000021
 21
7.579095999999936
 31
0.0
  0
LINE
  5
5678
330
1F
100
AcDbEntity
  8
AM_0
100
AcDbLine
 10
5.030315999999971
 20
8.077630999999997
 30
0.0
 11
13.31125399999996
 21
8.22217599999999
 31
0.0
  0
LINE
  5
567A
330
1F
100
AcDbEntity
  8
AM_0
100
AcDbLine
 10
13.56165399999998
 20
9.219245000000001
 30
0.0
 11
5.280714999999987
 21
9.074701000000005
 31
0.0
  0
LINE
  5
567C
330
1F
100
AcDbEntity
  8
AM_0
100
AcDbLine
 10
12.75446099999999
 20
1.466347999999925
 30
0.0
 11
13.07382099999995
 21
2.743551999999966
 31
0.0
  0
LINE
  5
567E
330
1F
100
AcDbEntity
  8
AM_0
100
AcDbLine
 10
15.24946199999999
 20
11.64413400000001
 30
0.0
 11
15.24912799999999
 21
11.71064200000001
 31
0.0
  0
LINE
  5
567F
330
1F
100
AcDbEntity
  8
AM_0
100
AcDbLine
 10
5.405914999999993
 20
9.573235999999952
 30
0.0
 11
13.13104633918067
 21
9.708078363201878
 31
0.0
  0
LINE
  5
5683
330
1F
100
AcDbEntity
  8
AM_0
100
AcDbLine
 10
7.969779000000017
 20
15.67863799999998
 30
0.0
 11
6.757601999999963
 21
14.95553499999994
 31
0.0
  0
LINE
  5
5684
330
1F
100
AcDbEntity
  8
AM_0
100
AcDbLine
 10
13.79163299999999
 20
14.23868199999993
 30
0.0
 11
7.969779000000017
 21
15.67863799999998
 31
0.0
  0
LINE
  5
5685
330
1F
100
AcDbEntity
  8
AM_0
100
AcDbLine
 10
14.52007499999996
 20
13.03559399999995
 30
0.0
 11
13.79163299999999
 21
14.23868199999993
 31
0.0
  0
LINE
  5
5688
330
1F
100
AcDbEntity
  8
AM_0
100
AcDbLine
 10
3.315404999999942
 20
1.301588999999979
 30
0.0
 11
12.75446099999999
 21
1.466347999999925
 31
0.0
  0
LINE
  5
5689
330
1F
100
AcDbEntity
  8
AM_0
100
AcDbLine
 10
2.603026999999997
 20
2.018954000000008
 30
0.0
 11
2.603142999999989
 21
1.995768999999996
 31
0.0
  0
ARC
  5
56BD
330
1F
100
AcDbEntity
  8
AM_0
100
AcDbCircle
 10
11.70985499999995
 20
-0.2664670000000342
 30
0.0
 40
10.0752875372616
100
AcDbArc
 50
83.51608825029989
 51
90.99999992787025
  0
ARC
  5
56BE
330
1F
100
AcDbEntity
  8
AM_0
100
AcDbCircle
 10
11.71089699999993
 20
-0.2572999999999865
 30
0.0
 40
10.0660622690113
100
AcDbArc
 50
76.02533405100326
 51
83.51608915314725
  0
ARC
  5
56BF
330
1F
100
AcDbEntity
  8
AM_0
100
AcDbCircle
 10
15.50982499999998
 20
0.6652019999999652
 30
0.0
 40
0.401459154152699
100
AcDbArc
 50
271.0000816010383
 51
294.8950648688426
  0
ARC
  5
56C0
330
1F
100
AcDbEntity
  8
AM_0
100
AcDbCircle
 10
15.51058999999998
 20
0.663552999999979
 30
0.0
 40
0.399640595860835
100
AcDbArc
 50
294.8950996800498
 51
318.895657329072
  0
ARC
  5
56C1
330
1F
100
AcDbEntity
  8
AM_0
100
AcDbCircle
 10
15.51198299999999
 20
0.662337999999977
 30
0.0
 40
0.397792688530089
100
AcDbArc
 50
318.895616380838
 51
354.9742597351905
  0
ARC
  5
56C2
330
1F
100
AcDbEntity
  8
AM_0
100
AcDbCircle
 10
15.51254099999994
 20
0.662288999999987
 30
0.0
 40
0.397233192013209
100
AcDbArc
 50
354.9742494926599
 51
31.10035160350411
  0
ARC
  5
56C3
330
1F
100
AcDbEntity
  8
AM_0
100
AcDbCircle
 10
0.3974559999999769
 20
0.398415
 30
0.0
 40
0.3974485948710901
100
AcDbArc
 50
150.9111051066368
 51
174.9791440252619
  0
ARC
  5
56C4
330
1F
100
AcDbEntity
  8
AM_0
100
AcDbCircle
 10
0.3970479999999839
 20
0.3984510000000228
 30
0.0
 40
0.39703846001238
100
AcDbArc
 50
174.9791663027758
 51
199.0712376835429
  0
ARC
  5
56C5
330
1F
100
AcDbEntity
  8
AM_0
100
AcDbCircle
 10
0.3982639999999833
 20
0.3988709999999855
 30
0.0
 40
0.398325762246181
100
AcDbArc
 50
199.0711840870483
 51
235.1636463242907
  0
ARC
  5
56C6
330
1F
100
AcDbEntity
  8
AM_0
100
AcDbCircle
 10
0.4000029999999697
 20
0.4013699999999858
 30
0.0
 40
0.401369578938165
100
AcDbArc
 50
235.1636700857841
 51
271.0000178908665
  0
ARC
  5
56C7
330
1F
100
AcDbEntity
  8
AM_0
100
AcDbCircle
 10
21.64197099999996
 20
15.01232199999998
 30
0.0
 40
5.94009949848654
100
AcDbArc
 50
125.5369108382617
 51
224.3602886797901
  0
ARC
  5
56C8
330
1F
100
AcDbEntity
  8
AM_0
100
AcDbCircle
 10
21.69587100000001
 20
15.06503199999997
 30
0.0
 40
6.0154897849639
100
AcDbArc
 50
224.3602910870485
 51
322.4689511119132
  0
ARC
  5
56C9
330
1F
100
AcDbEntity
  8
AM_0
100
AcDbCircle
 10
21.768282
 20
15.00940600000001
 30
0.0
 40
5.924179605138001
100
AcDbArc
 50
322.4689565998691
 51
4.934487794118702
  0
ARC
  5
56CA
330
1F
100
AcDbEntity
  8
AM_0
100
AcDbCircle
 10
21.75174199999998
 20
15.00797799999998
 30
0.0
 40
5.9407813107541
100
AcDbArc
 50
4.934487719758643
 51
47.29188784753771
  0
ARC
  5
56CB
330
1F
100
AcDbEntity
  8
AM_0
100
AcDbCircle
 10
21.70260299999995
 20
14.947675
 30
0.0
 40
6.01883597281909
100
AcDbArc
 50
57.15290796772285
 51
66.96829315005141
  0
ARC
  5
56CC
330
1F
100
AcDbEntity
  8
AM_0
100
AcDbCircle
 10
21.71778499999994
 20
14.97118999999998
 30
0.0
 40
5.990845024450651
100
AcDbArc
 50
47.29188527791916
 51
57.1529099589413
  0
ARC
  5
56CD
330
1F
100
AcDbEntity
  8
AM_0
100
AcDbCircle
 10
21.68967799999996
 20
15.47476799999998
 30
0.0
 40
2.50235572516879
100
AcDbArc
 50
266.423084323517
 51
359.9956725172966
  0
ARC
  5
56CE
330
1F
100
AcDbEntity
  8
AM_0
100
AcDbCircle
 10
21.68938299999996
 20
15.47004399999997
 30
0.0
 40
2.49762221129317
100
AcDbArc
 50
172.742261108802
 51
266.4230774980404
  0
ARC
  5
56CF
330
1F
100
AcDbEntity
  8
AM_0
100
AcDbCircle
 10
21.69439599999998
 20
15.469405
 30
0.0
 40
2.50267642910584
100
AcDbArc
 50
86.43040186023785
 51
172.7422479872096
  0
ARC
  5
56D0
330
1F
100
AcDbEntity
  8
AM_0
100
AcDbCircle
 10
21.69473099999999
 20
15.47476799999998
 30
0.0
 40
2.4973030071519
100
AcDbArc
 50
359.9956637611434
 51
86.43041206116301
  0
ARC
  5
5705
330
1F
100
AcDbEntity
  8
AM_0
100
AcDbCircle
 10
21.60067899999996
 20
15.182548
 30
0.0
 40
6.15718049162845
100
AcDbArc
 50
180.287458091013
 51
181.3643649887174
  0
ARC
  5
5706
330
1F
100
AcDbEntity
  8
AM_0
100
AcDbCircle
 10
21.60080799999997
 20
15.18255099999999
 30
0.0
 40
6.157309644947211
100
AcDbArc
 50
181.364364315072
 51
182.4412561534716
  0
ARC
  5
5707
330
1F
100
AcDbEntity
  8
AM_0
100
AcDbCircle
 10
21.60093699999993
 20
15.18255699999997
 30
0.0
 40
6.15743839979167
100
AcDbArc
 50
182.4412608040918
 51
183.5181547202176
  0
ARC
  5
5708
330
1F
100
AcDbEntity
  8
AM_0
100
AcDbCircle
 10
21.60132299999998
 20
15.18258000000003
 30
0.0
 40
6.1578249644277
100
AcDbArc
 50
183.5181479264038
 51
184.5949693841069
  0
ARC
  5
5709
330
1F
100
AcDbEntity
  8
AM_0
100
AcDbCircle
 10
21.60157999999996
 20
15.18260099999998
 30
0.0
 40
6.15808262148122
100
AcDbArc
 50
184.5949725835544
 51
185.671797553591
  0
ARC
  5
570A
330
1F
100
AcDbEntity
  8
AM_0
100
AcDbCircle
 10
21.60221899999999
 20
15.18266499999999
 30
0.0
 40
6.158725094560161
100
AcDbArc
 50
185.6718025246766
 51
186.7485143032528
  0
ARC
  5
570B
330
1F
100
AcDbEntity
  8
AM_0
100
AcDbCircle
 10
21.60260099999994
 20
15.18270999999999
 30
0.0
 40
6.15911034527374
100
AcDbArc
 50
186.7485124312755
 51
187.8252201181769
  0
ARC
  5
570C
330
1F
100
AcDbEntity
  8
AM_0
100
AcDbCircle
 10
21.60348699999997
 20
15.18283199999996
 30
0.0
 40
6.160003951556281
100
AcDbArc
 50
187.8252222906267
 51
188.9017740467987
  0
ARC
  5
570D
330
1F
100
AcDbEntity
  8
AM_0
100
AcDbCircle
 10
21.60394299999996
 20
15.18290300000001
 30
0.0
 40
6.16046527766735
100
AcDbArc
 50
188.9017701677685
 51
189.7764726385517
  0
ARC
  5
570E
330
1F
100
AcDbEntity
  8
AM_0
100
AcDbCircle
 10
21.60483799999997
 20
15.18305699999996
 30
0.0
 40
6.16137423664315
100
AcDbArc
 50
189.776470669254
 51
190.6510348891132
  0
ARC
  5
570F
330
1F
100
AcDbEntity
  8
AM_0
100
AcDbCircle
 10
21.605324
 20
15.18314899999996
 30
0.0
 40
6.16186826661176
100
AcDbArc
 50
190.651040366966
 51
191.525612635648
  0
ARC
  5
5710
330
1F
100
AcDbEntity
  8
AM_0
100
AcDbCircle
 10
21.60637099999997
 20
15.18336199999999
 30
0.0
 40
6.162936532187969
100
AcDbArc
 50
191.525608062654
 51
192.4000260188105
  0
ARC
  5
5711
330
1F
100
AcDbEntity
  8
AM_0
100
AcDbCircle
 10
21.60693199999997
 20
15.18348500000002
 30
0.0
 40
6.16351120268114
100
AcDbArc
 50
192.4000228945384
 51
193.2744472518672
  0
ARC
  5
5712
330
1F
100
AcDbEntity
  8
AM_0
100
AcDbCircle
 10
21.60812299999998
 20
15.18376699999999
 30
0.0
 40
6.1647354932653
100
AcDbArc
 50
193.274456481418
 51
194.1486943015813
  0
ARC
  5
5713
330
1F
100
AcDbEntity
  8
AM_0
100
AcDbCircle
 10
21.60875399999998
 20
15.18392599999999
 30
0.0
 40
6.16538630511447
100
AcDbArc
 50
194.1486937025761
 51
195.0229443731889
  0
ARC
  5
5714
330
1F
100
AcDbEntity
  8
AM_0
100
AcDbCircle
 10
21.61008299999992
 20
15.184282
 30
0.0
 40
6.166761776785691
100
AcDbArc
 50
195.0229383164862
 51
195.8969848176186
  0
ARC
  5
5715
330
1F
100
AcDbEntity
  8
AM_0
100
AcDbCircle
 10
21.61077999999998
 20
15.18448100000001
 30
0.0
 40
6.167486165352059
100
AcDbArc
 50
195.8969892311952
 51
196.7710365400577
  0
ARC
  5
5716
330
1F
100
AcDbEntity
  8
AM_0
100
AcDbCircle
 10
21.61223799999993
 20
15.18491999999998
 30
0.0
 40
6.16900974127226
100
AcDbArc
 50
196.7710330535968
 51
197.6448678463246
  0
ARC
  5
5717
330
1F
100
AcDbEntity
  8
AM_0
100
AcDbCircle
 10
21.61299799999995
 20
15.18516199999999
 30
0.0
 40
6.16980734708638
100
AcDbArc
 50
197.6448701348075
 51
198.5187107059915
  0
ARC
  5
5718
330
1F
100
AcDbEntity
  8
AM_0
100
AcDbCircle
 10
21.61457499999995
 20
15.18569000000002
 30
0.0
 40
6.17146972880286
100
AcDbArc
 50
198.5187086854052
 51
199.3922980216572
  0
ARC
  5
5719
330
1F
100
AcDbEntity
  8
AM_0
100
AcDbCircle
 10
21.61571099999998
 20
15.18608999999998
 30
0.0
 40
6.17267452988767
100
AcDbArc
 50
199.3922990975916
 51
200.9487464423987
  0
ARC
  5
571A
330
1F
100
AcDbEntity
  8
AM_0
100
AcDbCircle
 10
21.618787
 20
15.18726800000002
 30
0.0
 40
6.175968784846799
100
AcDbArc
 50
200.948749823224
 51
202.5043599907024
  0
ARC
  5
571B
330
1F
100
AcDbEntity
  8
AM_0
100
AcDbCircle
 10
21.67957799999999
 20
15.12447699999996
 30
0.0
 40
6.27999009263813
100
AcDbArc
 50
32.45842406109728
 51
106.1052951097684
  0
ARC
  5
571C
330
1F
100
AcDbEntity
  8
AM_0
100
AcDbCircle
 10
21.66271999999998
 20
15.18285900000001
 30
0.0
 40
6.21922333367841
100
AcDbArc
 50
106.1052857592087
 51
180.287455622948
  0
ARC
  5
571D
330
1F
100
AcDbEntity
  8
AM_0
100
AcDbCircle
 10
21.77215399999994
 20
15.18354299999999
 30
0.0
 40
6.17134220279009
100
AcDbArc
 50
314.8778271491758
 51
359.7410822258489
  0
ARC
  5
571E
330
1F
100
AcDbEntity
  8
AM_0
100
AcDbCircle
 10
21.69320399999992
 20
15.26283000000001
 30
0.0
 40
6.28323266322018
100
AcDbArc
 50
270.7361931514048
 51
314.8778298069976
  0
ARC
  5
571F
330
1F
100
AcDbEntity
  8
AM_0
100
AcDbCircle
 10
21.69403999999997
 20
14.936015
 30
0.0
 40
6.2507538766648
100
AcDbArc
 50
2.289524164058882
 51
90.7148369052303
  0
ARC
  5
5720
330
1F
100
AcDbEntity
  8
AM_0
100
AcDbCircle
 10
21.69402199999996
 20
14.93745899999999
 30
0.0
 40
6.249310368363219
100
AcDbArc
 50
90.71483705787949
 51
179.1533649937635
  0
ARC
  5
5721
330
1F
100
AcDbEntity
  8
AM_0
100
AcDbCircle
 10
24.54820599999994
 20
5.448704000000021
 30
0.0
 40
3.0188920035089
100
AcDbArc
 50
264.5724301351215
 51
300.8174460910784
  0
ARC
  5
5722
330
1F
100
AcDbEntity
  8
AM_0
100
AcDbCircle
 10
24.54729199999997
 20
5.439081999999985
 30
0.0
 40
3.00922733837193
100
AcDbArc
 50
228.2186351914727
 51
264.5724259966198
  0
ARC
  5
5723
330
1F
100
AcDbEntity
  8
AM_0
100
AcDbCircle
 10
29.62487899999996
 20
8.312547999999993
 30
0.0
 40
2.95692995580501
100
AcDbArc
 50
330.3830730862106
 51
0.287455800713684
  0
ARC
  5
5724
330
1F
100
AcDbEntity
  8
AM_0
100
AcDbCircle
 10
29.59405299999997
 20
8.330070999999975
 30
0.0
 40
2.99238772555831
100
AcDbArc
 50
300.8174603521422
 51
330.3830839582956
  0
ARC
  5
5725
330
1F
100
AcDbEntity
  8
AM_0
100
AcDbCircle
 10
4.115197999999964
 20
10.30503499999998
 30
0.0
 40
0.9863574157606361
100
AcDbArc
 50
180.2874799723118
 51
218.4852655495929
  0
ARC
  5
5726
330
1F
100
AcDbEntity
  8
AM_0
100
AcDbCircle
 10
4.12760499999996
 20
10.31489799999997
 30
0.0
 40
1.00220807070089
100
AcDbArc
 50
218.4852313126103
 51
256.1217421559819
  0
ARC
  5
5727
330
1F
100
AcDbEntity
  8
AM_0
100
AcDbCircle
 10
4.126929999999959
 20
10.68567699999994
 30
0.0
 40
1.00752828869962
100
AcDbArc
 50
263.5642394308348
 51
271.0000115974114
  0
ARC
  5
5728
330
1F
100
AcDbEntity
  8
AM_0
100
AcDbCircle
 10
4.126827999999932
 20
10.68477199999995
 30
0.0
 40
1.00661738150104
100
AcDbArc
 50
256.1217954028845
 51
263.5642346793092
  0
ARC
  5
5729
330
1F
100
AcDbEntity
  8
AM_0
100
AcDbCircle
 10
11.74383999999998
 20
-0.5567340000000058
 30
0.0
 40
9.992621551669071
100
AcDbArc
 50
48.21863163215748
 51
62.16272366066288
  0
ARC
  5
572A
330
1F
100
AcDbEntity
  8
AM_0
100
AcDbCircle
 10
11.71614199999999
 20
-0.609185000000025
 30
0.0
 40
10.0519367004637
100
AcDbArc
 50
62.1627231587657
 51
76.02533210942627
  0
ARC
  5
572B
330
1F
100
AcDbEntity
  8
AM_0
100
AcDbCircle
 10
11.71089699999993
 20
-0.2572999999999865
 30
0.0
 40
10.0660612986087
100
AcDbArc
 50
76.02533267643169
 51
83.51608915314725
  0
ARC
  5
572C
330
1F
100
AcDbEntity
  8
AM_0
100
AcDbCircle
 10
11.70985499999995
 20
-0.2664670000000342
 30
0.0
 40
10.0752875372616
100
AcDbArc
 50
83.51608825029989
 51
90.99999992787025
  0
ARC
  5
5777
330
1F
100
AcDbEntity
  8
AM_0
100
AcDbCircle
 10
15.50982499999998
 20
0.6652019999999652
 30
0.0
 40
0.4014581368524
100
AcDbArc
 50
270.9999413945888
 51
294.8950648688444
  0
ARC
  5
5778
330
1F
100
AcDbEntity
  8
AM_0
100
AcDbCircle
 10
15.51058999999998
 20
0.663552999999979
 30
0.0
 40
0.3996405958608379
100
AcDbArc
 50
294.8950996800517
 51
318.8956573290744
  0
ARC
  5
5779
330
1F
100
AcDbEntity
  8
AM_0
100
AcDbCircle
 10
15.51198299999999
 20
0.662337999999977
 30
0.0
 40
0.397792688530101
100
AcDbArc
 50
318.8956163808387
 51
354.9742471173055
  0
ARC
  5
577A
330
1F
100
AcDbEntity
  8
AM_0
100
AcDbCircle
 10
15.512541
 20
0.662288999999987
 30
0.0
 40
0.397232195857809
100
AcDbArc
 50
354.9742368569562
 51
31.10035160350565
  0
ARC
  5
577B
330
1F
100
AcDbEntity
  8
AM_0
100
AcDbCircle
 10
0.3974559999999769
 20
0.398415
 30
0.0
 40
0.397448594871089
100
AcDbArc
 50
150.9111051066368
 51
174.9790004192775
  0
ARC
  5
577C
330
1F
100
AcDbEntity
  8
AM_0
100
AcDbCircle
 10
0.3970479999999839
 20
0.3984509999999659
 30
0.0
 40
0.397038547531586
100
AcDbArc
 50
174.9790225486435
 51
199.0712376835429
  0
ARC
  5
577D
330
1F
100
AcDbEntity
  8
AM_0
100
AcDbCircle
 10
0.3982639999999833
 20
0.3988709999999855
 30
0.0
 40
0.398325762246181
100
AcDbArc
 50
199.0711840870483
 51
235.1636463242885
  0
ARC
  5
577E
330
1F
100
AcDbEntity
  8
AM_0
100
AcDbCircle
 10
0.4000029999999697
 20
0.401369999999929
 30
0.0
 40
0.401369578938181
100
AcDbArc
 50
235.1636700857805
 51
270.9998776531537
  0
SPLINE
  5
57FF
330
1F
100
AcDbEntity
  8
AM_0
100
AcDbSpline
210
0.0
220
0.0
230
1.0
 70
     8
 71
     3
 72
    11
 73
     7
 74
     5
 42
0.0000000001
 43
0.0000000001
 44
0.0000000001
 40
0.0
 40
0.0
 40
0.0
 40
0.0
 40
0.1580677691751667
 40
0.3159557943385524
 40
0.4738443038444437
 40
0.6319127783262282
 40
0.6319127783262282
 40
0.6319127783262282
 40
0.6319127783262282
 10
32.57711699999999
 20
9.255097999999975
 30
0.0
 10
32.57581118847236
 20
9.307794821589209
 30
0.0
 10
32.57320105029794
 20
9.413128541494446
 30
0.0
 10
32.55528576751192
 20
9.570221697153627
 30
0.0
 10
32.52810419066211
 20
9.725979355076692
 30
0.0
 10
32.50085923634418
 20
9.827762460249284
 30
0.0
 10
32.48722899999996
 20
9.878682999999967
 30
0.0
 11
32.57711699999999
 21
9.255097999999975
 31
0.0
 11
32.57086299999997
 21
9.413042000000019
 31
0.0
 11
32.55374199999994
 21
9.569998999999996
 31
0.0
 11
32.52583699999997
 21
9.725401999999974
 31
0.0
 11
32.48722899999996
 21
9.878682999999967
 31
0.0
  0
SPLINE
  5
5800
330
1F
100
AcDbEntity
  8
AM_0
100
AcDbSpline
210
0.0
220
0.0
230
1.0
 70
     8
 71
     3
 72
    11
 73
     7
 74
     5
 42
0.0000000001
 43
0.0000000001
 44
0.0000000001
 40
0.0
 40
0.0
 40
0.0
 40
0.0
 40
0.3777148038030438
 40
0.7595943518977466
 40
1.146815716113351
 40
1.540202690032175
 40
1.540202690032175
 40
1.540202690032175
 40
1.540202690032175
 10
27.54862799999995
 20
24.95009499999998
 30
0.0
 10
27.43837831037644
 20
25.01141606742701
 30
0.0
 10
27.21666330028599
 20
25.13473433825181
 30
0.0
 10
26.85208481583876
 20
25.25552807690029
 30
0.0
 10
26.47051987604293
 20
25.33163317422523
 30
0.0
 10
26.20990411373652
 20
25.3369510570333
 30
0.0
 10
26.07856699999996
 20
25.339631
 30
0.0
 11
27.54862799999995
 21
24.95009499999998
 31
0.0
 11
27.21299199999999
 21
25.12334899999996
 31
0.0
 11
26.85182499999996
 21
25.24740699999995
 31
0.0
 11
26.47146199999997
 21
25.31996299999997
 31
0.0
 11
26.07856699999996
 21
25.339631
 31
0.0
  0
LINE
  5
5802
330
1F
100
AcDbEntity
  8
AM_0
100
AcDbLine
 10
3.126605999999981
 20
11.09302000000002
 30
0.0
 11
3.125104999999962
 21
11.04703999999998
 31
0.0
  0
SPLINE
  5
5803
330
1F
100
AcDbEntity
  8
AM_0
100
AcDbSpline
210
0.0
220
0.0
230
1.0
 70
     8
 71
     3
 72
    11
 73
     7
 74
     5
 42
0.0000000001
 43
0.0000000001
 44
0.0000000001
 40
0.0
 40
0.0
 40
0.0
 40
0.0
 40
0.2336950366118565
 40
0.4669962111330757
 40
0.7002262200363354
 40
0.9335403399733859
 40
0.9335403399733859
 40
0.9335403399733859
 40
0.9335403399733859
 10
14.09353299999998
 20
25.06040400000001
 30
0.0
 10
14.02102270673455
 20
25.03189659209425
 30
0.0
 10
13.87612432671742
 20
24.97492982175019
 30
0.0
 10
13.66405047013049
 20
24.87719721735041
 30
0.0
 10
13.45597356529306
 20
24.77151395810278
 30
0.0
 10
13.32142460749601
 20
24.69347600906514
 30
0.0
 10
13.25413799999996
 20
24.65445
 30
0.0
 11
14.09353299999998
 21
25.06040400000001
 31
0.0
 11
13.87686899999994
 21
24.972825
 31
0.0
 11
13.66467599999999
 21
24.87585300000001
 31
0.0
 11
13.45703899999995
 21
24.769631
 31
0.0
 11
13.25413799999996
 21
24.65445
 31
0.0
  0
SPLINE
  5
5804
330
1F
100
AcDbEntity
  8
AM_0
100
AcDbSpline
210
0.0
220
0.0
230
1.0
 70
     8
 71
     3
 72
    11
 73
     7
 74
     5
 42
0.0000000001
 43
0.0000000001
 44
0.0000000001
 40
0.0
 40
0.0
 40
0.0
 40
0.0
 40
0.5577893363636437
 40
1.115649983832153
 40
1.673550728428408
 40
2.231406051146538
 40
2.231406051146538
 40
2.231406051146538
 40
2.231406051146538
 10
24.05568999999997
 20
20.48780799999997
 30
0.0
 10
23.88258114403716
 20
20.55606452810208
 30
0.0
 10
23.53634130084625
 20
20.69258631062665
 30
0.0
 10
22.99577776754583
 20
20.83451986809211
 30
0.0
 10
22.44563006358773
 20
20.93308575725043
 30
0.0
 10
22.07404897890179
 20
20.95485488115356
 30
0.0
 10
21.88826599999999
 20
20.96573899999999
 30
0.0
 11
24.05568999999997
 21
20.48780799999997
 31
0.0
 11
23.53283399999998
 21
20.68210299999998
 31
0.0
 11
22.99419699999999
 21
20.82728799999995
 31
0.0
 11
22.44441199999994
 21
20.922102
 31
0.0
 11
21.88826599999999
 21
20.96573899999999
 31
0.0
  0
SPLINE
  5
5805
330
1F
100
AcDbEntity
  8
AM_0
100
AcDbSpline
210
0.0
220
0.0
230
1.0
 70
     8
 71
     3
 72
    11
 73
     7
 74
     5
 42
0.0000000001
 43
0.0000000001
 44
0.0000000001
 40
0.0
 40
0.0
 40
0.0
 40
0.0
 40
0.9824803111823921
 40
1.964964517525657
 40
2.947376158076596
 40
3.929668508474359
 40
3.929668508474359
 40
3.929668508474359
 40
3.929668508474359
 10
21.88826599999999
 20
20.96573899999999
 30
0.0
 10
21.55999125904477
 20
20.96093054944839
 30
0.0
 10
20.9034404756498
 20
20.9513136292815
 30
0.0
 10
19.93989680824162
 20
20.73226479602884
 30
0.0
 10
19.01665098000549
 20
20.3802423578178
 30
0.0
 10
18.46512316436992
 20
20.02406957740545
 30
0.0
 10
18.18937599999998
 20
19.84599400000002
 30
0.0
 11
21.88826599999999
 21
20.96573899999999
 31
0.0
 11
20.90698499999996
 21
20.91720899999996
 31
0.0
 11
19.94657999999998
 21
20.71009199999998
 31
0.0
 11
19.032601
 21
20.34984899999995
 31
0.0
 11
18.18937599999998
 21
19.84599400000002
 31
0.0
  0
SPLINE
  5
5806
330
1F
100
AcDbEntity
  8
AM_0
100
AcDbSpline
210
0.0
220
0.0
230
1.0
 70
     8
 71
     3
 72
    11
 73
     7
 74
     5
 42
0.0000000001
 43
0.0000000001
 44
0.0000000001
 40
0.0
 40
0.0
 40
0.0
 40
0.0
 40
2.259913773941411
 40
4.549381694485616
 40
6.854871763072348
 40
9.162659309414099
 40
9.162659309414099
 40
9.162659309414099
 40
9.162659309414099
 10
13.07382199999995
 20
2.743551999999966
 30
0.0
 10
13.24971926226119
 20
3.476033106730845
 30
0.0
 10
13.60381409289971
 20
4.950574382129268
 30
0.0
 10
14.14418764534702
 20
7.170718292048791
 30
0.0
 10
14.69276687969268
 20
9.405283925551673
 30
0.0
 10
15.06383536077346
 20
10.89760224328014
 30
0.0
 10
15.24946199999999
 20
11.64413300000001
 30
0.0
 11
13.07382199999995
 21
2.743551999999966
 31
0.0
 11
13.60263299999997
 21
4.940724999999986
 31
0.0
 11
14.14365699999996
 21
7.165349999999989
 31
0.0
 11
14.69369299999994
 21
9.404266000000007
 31
0.0
 11
15.24946199999999
 21
11.64413300000001
 31
0.0
  0
SPLINE
  5
5807
330
1F
100
AcDbEntity
  8
AM_0
100
AcDbSpline
210
0.0
220
0.0
230
1.0
 70
     8
 71
     3
 72
    11
 73
     7
 74
     5
 42
0.0000000001
 43
0.0000000001
 44
0.0000000001
 40
0.0
 40
0.0
 40
0.0
 40
0.0
 40
0.041704728808579
 40
0.0833527702991916
 40
0.1250900241858446
 40
0.1670632347968593
 40
0.1670632347968593
 40
0.1670632347968593
 40
0.1670632347968593
 10
2.621864999999957
 20
2.18458499999997
 30
0.0
 10
2.618903014373465
 20
2.17099796115862
 30
0.0
 10
2.612983069211187
 20
2.14384235171233
 30
0.0
 10
2.607215847337771
 20
2.102514308198399
 30
0.0
 10
2.603551733333096
 20
2.060857817234747
 30
0.0
 10
2.603202239486635
 20
2.032947496245356
 30
0.0
 10
2.603026999999997
 20
2.01895300000001
 30
0.0
 11
2.621864999999957
 21
2.18458499999997
 31
0.0
 11
2.613498999999933
 21
2.14372800000001
 31
0.0
 11
2.607571000000007
 21
2.102503999999954
 31
0.0
 11
2.604079999999954
 21
2.060912999999971
 31
0.0
 11
2.603026999999997
 21
2.01895300000001
 31
0.0
  0
SPLINE
  5
5814
330
1F
100
AcDbEntity
  8
AM_0
100
AcDbSpline
210
0.0
220
0.0
230
1.0
 70
     8
 71
     3
 72
    11
 73
     7
 74
     5
 42
0.0000000001
 43
0.0000000001
 44
0.0000000001
 40
0.0
 40
0.0
 40
0.0
 40
0.0
 40
0.5151126893797628
 40
1.025646349254393
 40
1.529754950328617
 40
2.026235502586177
 40
2.026235502586177
 40
2.026235502586177
 40
2.026235502586177
 10
28.62000099999995
 20
23.26167899999996
 30
0.0
 10
28.56564464839526
 20
23.42489191783363
 30
0.0
 10
28.45741513914116
 20
23.74986689278293
 30
0.0
 10
28.21100184503288
 20
24.1987776326594
 30
0.0
 10
27.9139888492563
 20
24.60866041163984
 30
0.0
 10
27.66979507466855
 20
24.83686337667878
 30
0.0
 10
27.54862899999995
 20
24.95009499999998
 30
0.0
 11
28.62000099999995
 21
23.26167899999996
 31
0.0
 11
28.44255899999996
 21
23.74526500000002
 31
0.0
 11
28.20085499999993
 21
24.19495799999999
 31
0.0
 11
27.90042599999993
 21
24.59976399999999
 31
0.0
 11
27.54862899999995
 21
24.95009499999998
 31
0.0
  0
SPLINE
  5
5819
330
1F
100
AcDbEntity
  8
AM_0
100
AcDbSpline
210
0.0
220
0.0
230
1.0
 70
     8
 71
     3
 72
    11
 73
     7
 74
     5
 42
0.0000000001
 43
0.0000000001
 44
0.0000000001
 40
0.0
 40
0.0
 40
0.0
 40
0.0
 40
0.1580687683921536
 40
0.3159567935555392
 40
0.4738453030614864
 40
0.6319135332976689
 40
0.6319135332976689
 40
0.6319135332976689
 40
0.6319135332976689
 10
32.57711699999993
 20
9.255096999999978
 30
0.0
 10
32.57581119365719
 20
9.307794154114063
 30
0.0
 10
32.57320107409181
 20
9.413128205949533
 30
0.0
 10
32.55528583334358
 20
9.57022171394706
 30
0.0
 10
32.52810395518036
 20
9.725979211854035
 30
0.0
 10
32.50085981734569
 20
9.827762438697734
 30
0.0
 10
32.48722999999995
 20
9.878683000000024
 30
0.0
 11
32.57711699999993
 21
9.255096999999978
 31
0.0
 11
32.57086299999997
 21
9.413042000000019
 31
0.0
 11
32.55374199999994
 21
9.569998999999996
 31
0.0
 11
32.52583699999997
 21
9.725402000000031
 31
0.0
 11
32.48722999999995
 21
9.878683000000024
 31
0.0
  0
SPLINE
  5
581C
330
1F
100
AcDbEntity
  8
AM_0
100
AcDbSpline
210
0.0
220
0.0
230
1.0
 70
     8
 71
     3
 72
    11
 73
     7
 74
     5
 42
0.0000000001
 43
0.0000000001
 44
0.0000000001
 40
0.0
 40
0.0
 40
0.0
 40
0.0
 40
0.5435739732777694
 40
1.090112171115762
 40
1.640546769223474
 40
2.194011164050273
 40
2.194011164050273
 40
2.194011164050273
 40
2.194011164050273
 10
19.61337499999996
 20
9.303613999999982
 30
0.0
 10
19.7869747173053
 20
9.251283039947055
 30
0.0
 10
20.13512082812009
 20
9.146335747978899
 30
0.0
 10
20.67371015777052
 20
9.046731313437038
 30
0.0
 10
21.22117138436697
 20
8.985263818016364
 30
0.0
 10
21.58934362898997
 20
8.981835076217134
 30
0.0
 10
21.77393499999994
 20
8.980115999999953
 30
0.0
 11
19.61337499999996
 21
9.303613999999982
 31
0.0
 11
20.13659499999994
 21
9.156258999999977
 31
0.0
 11
20.67335899999995
 21
9.053359
 31
0.0
 11
21.22066399999994
 21
8.994745999999964
 31
0.0
 11
21.77393499999994
 21
8.980115999999953
 31
0.0
  0
SPLINE
  5
581D
330
1F
100
AcDbEntity
  8
AM_0
100
AcDbSpline
210
0.0
220
0.0
230
1.0
 70
     8
 71
     3
 72
    11
 73
     7
 74
     5
 42
0.0000000001
 43
0.0000000001
 44
0.0000000001
 40
0.0
 40
0.0
 40
0.0
 40
0.0
 40
1.3197038401892
 40
2.637638620038735
 40
3.957222873397678
 40
5.25937740544526
 40
5.25937740544526
 40
5.25937740544526
 40
5.25937740544526
 10
15.91311599999995
 20
12.82339300000001
 30
0.0
 10
16.1053551327683
 20
12.42588960162114
 30
0.0
 10
16.48957570213473
 20
11.63141565736827
 30
0.0
 10
17.35408081635116
 20
10.61969456180707
 30
0.0
 10
18.39318923122799
 20
9.791819805794635
 30
0.0
 10
19.20845307674613
 20
9.465626407360718
 30
0.0
 10
19.61337499999996
 20
9.303613999999982
 30
0.0
 11
15.91311599999995
 21
12.82339300000001
 31
0.0
 11
16.53789899999993
 21
11.66095399999995
 31
0.0
 11
17.38354799999996
 21
10.65009799999996
 31
0.0
 11
18.42914099999996
 21
9.845090000000027
 31
0.0
 11
19.61337499999996
 21
9.303613999999982
 31
0.0
  0
LINE
  5
581E
330
1F
100
AcDbEntity
  8
AM_0
100
AcDbLine
 10
27.94343299999997
 20
15.15565500000002
 30
0.0
 11
27.94341899999995
 21
15.21435799999995
 31
0.0
  0
SPLINE
  5
581F
330
1F
100
AcDbEntity
  8
AM_0
100
AcDbSpline
210
0.0
220
0.0
230
1.0
 70
     8
 71
     3
 72
    11
 73
     7
 74
     5
 42
0.0000000001
 43
0.0000000001
 44
0.0000000001
 40
0.0
 40
0.0
 40
0.0
 40
0.0
 40
0.8641479776346723
 40
1.72879516691651
 40
2.594966354641543
 40
3.461877715335937
 40
3.461877715335937
 40
3.461877715335937
 40
3.461877715335937
 10
27.94341899999995
 20
15.21435799999995
 30
0.0
 10
27.93034660637315
 20
15.5026481070187
 30
0.0
 10
27.90419426729819
 20
16.079394864036
 30
0.0
 10
27.7096562759337
 20
16.9260307230719
 30
0.0
 10
27.41447920550002
 20
17.74398801005345
 30
0.0
 10
27.12387777230466
 20
18.2445040824391
 30
0.0
 10
26.97851499999996
 20
18.49486899999999
 30
0.0
 11
27.94341899999995
 21
15.21435799999995
 31
0.0
 11
27.87835399999995
 21
16.076053
 31
0.0
 11
27.69307099999998
 21
16.920615
 31
0.0
 11
27.39116499999994
 21
17.73246799999998
 31
0.0
 11
26.97851499999996
 21
18.49486899999999
 31
0.0
  0
LINE
  5
5821
330
1F
100
AcDbEntity
  8
AM_0
100
AcDbLine
 10
3.126605999999924
 20
11.09302000000002
 30
0.0
 11
3.125104999999962
 21
11.04703899999998
 31
0.0
  0
SPLINE
  5
5822
330
1F
100
AcDbEntity
  8
AM_0
100
AcDbSpline
210
0.0
220
0.0
230
1.0
 70
     8
 71
     3
 72
    11
 73
     7
 74
     5
 42
0.0000000001
 43
0.0000000001
 44
0.0000000001
 40
0.0
 40
0.0
 40
0.0
 40
0.0
 40
0.6476529142132927
 40
1.285705420675021
 40
1.917557786015155
 40
2.546467511144313
 40
2.546467511144313
 40
2.546467511144313
 40
2.546467511144313
 10
4.219896999999946
 20
18.80591700000002
 30
0.0
 10
4.120053028158143
 20
18.61420277332762
 30
0.0
 10
3.921845109994657
 20
18.23361617355506
 30
0.0
 10
3.712424628014178
 20
17.62780341777531
 30
0.0
 10
3.562465634631128
 20
17.01127681183671
 30
0.0
 10
3.520160297751223
 20
16.59269728002468
 30
0.0
 10
3.499056999999993
 20
16.38389599999999
 30
0.0
 11
4.219896999999946
 21
18.80591700000002
 31
0.0
 11
3.935029999999983
 21
18.22427700000003
 31
0.0
 11
3.72144099999997
 21
17.62303599999996
 31
0.0
 11
3.576615999999945
 21
17.00800500000003
 31
0.0
 11
3.499056999999993
 21
16.38389599999999
 31
0.0
  0
SPLINE
  5
5823
330
1F
100
AcDbEntity
  8
AM_0
100
AcDbSpline
210
0.0
220
0.0
230
1.0
 70
     8
 71
     3
 72
    11
 73
     7
 74
     5
 42
0.0000000001
 43
0.0000000001
 44
0.0000000001
 40
0.0
 40
0.0
 40
0.0
 40
0.0
 40
0.4600604407271345
 40
0.9214664468313124
 40
1.387650914393261
 40
1.862329582338171
 40
1.862329582338171
 40
1.862329582338171
 40
1.862329582338171
 10
5.568760999999995
 20
20.06987200000003
 30
0.0
 10
5.439290688995007
 20
19.98738677851584
 30
0.0
 10
5.179971397678954
 20
19.82217508624993
 30
0.0
 10
4.826080289810318
 20
19.52260107956112
 30
0.0
 10
4.498295257751997
 20
19.1875832947741
 30
0.0
 10
4.313253278017086
 20
18.93390251618969
 30
0.0
 10
4.219896999999946
 20
18.80591700000002
 30
0.0
 11
5.568760999999995
 21
20.06987200000003
 31
0.0
 11
5.186411999999962
 21
19.81401099999999
 31
0.0
 11
4.832181999999989
 21
19.51834799999995
 31
0.0
 11
4.508845999999949
 21
19.18251799999996
 31
0.0
 11
4.219896999999946
 21
18.80591700000002
 31
0.0
  0
SPLINE
  5
5825
330
1F
100
AcDbEntity
  8
AM_0
100
AcDbSpline
210
0.0
220
0.0
230
1.0
 70
     8
 71
     3
 72
    11
 73
     7
 74
     5
 42
0.0000000001
 43
0.0000000001
 44
0.0000000001
 40
0.0
 40
0.0
 40
0.0
 40
0.0
 40
0.2062023090947383
 40
0.4122710312094766
 40
0.6183856731954478
 40
0.8247579815558301
 40
0.8247579815558301
 40
0.8247579815558301
 40
0.8247579815558301
 10
14.91301299999998
 20
25.14473499999997
 30
0.0
 10
14.84429700087833
 20
25.14271494040283
 30
0.0
 10
14.70690951989986
 20
25.13867612989253
 30
0.0
 10
14.50142283796766
 20
25.12144281220832
 30
0.0
 10
14.29664760392429
 20
25.09665109632011
 30
0.0
 10
14.16126605736937
 20
25.07249139601723
 30
0.0
 10
14.09353299999998
 20
25.06040399999995
 30
0.0
 11
14.91301299999998
 21
25.14473499999997
 31
0.0
 11
14.70696299999997
 21
25.13681099999997
 31
0.0
 11
14.50156599999997
 21
25.12018599999999
 31
0.0
 11
14.29702599999996
 21
25.09475699999996
 31
0.0
 11
14.09353299999998
 21
25.06040399999995
 31
0.0
  0
SPLINE
  5
584D
330
1F
100
AcDbEntity
  8
AM_0
100
AcDbSpline
210
0.0
220
0.0
230
1.0
 70
     8
 71
     3
 72
    11
 73
     7
 74
     5
 42
0.0000000001
 43
0.0000000001
 44
0.0000000001
 40
0.0
 40
0.0
 40
0.0
 40
0.0
 40
0.3726820816848895
 40
0.688624874103096
 40
0.9055380977663972
 40
1.006998134322713
 40
1.006998134322713
 40
1.006998134322713
 40
1.006998134322713
 10
4.335121999999956
 20
5.309428999999966
 30
0.0
 10
4.214154760212844
 20
5.340848361113449
 30
0.0
 10
3.990637037298995
 20
5.398903616931905
 30
0.0
 10
3.717462302538481
 20
5.512711722140729
 30
0.0
 10
3.50636673951538
 20
5.591651220260359
 30
0.0
 10
3.454192140009998
 20
5.686460065326014
 30
0.0
 10
3.43756499999995
 20
5.716674000000012
 30
0.0
 11
4.335121999999956
 21
5.309428999999966
 31
0.0
 11
3.976841999999977
 21
5.412031999999954
 31
0.0
 11
3.681757999999945
 21
5.524926999999934
 31
0.0
 11
3.492907999999943
 21
5.631636999999955
 31
0.0
 11
3.43756499999995
 21
5.716674000000012
 31
0.0
  0
SPLINE
  5
584E
330
1F
100
AcDbEntity
  8
AM_0
100
AcDbSpline
210
0.0
220
0.0
230
1.0
 70
     8
 71
     3
 72
    11
 73
     7
 74
     5
 42
0.0000000001
 43
0.0000000001
 44
0.0000000001
 40
0.0
 40
0.0
 40
0.0
 40
0.0
 40
0.0372498541205568
 40
0.074619511986275
 40
0.1122161896320078
 40
0.1501460337655889
 40
0.1501460337655889
 40
0.1501460337655889
 40
0.1501460337655889
 10
4.335121999999956
 20
5.309428999999966
 30
0.0
 10
4.347234683776944
 20
5.306675612979594
 30
0.0
 10
4.371499008393026
 20
5.301159983439017
 30
0.0
 10
4.408579889807967
 20
5.295980230100183
 30
0.0
 10
4.446116535807802
 20
5.292867780024315
 30
0.0
 10
4.471301812405573
 20
5.292855944078503
 30
0.0
 10
4.483949999999936
 20
5.29284999999993
 30
0.0
 11
4.335121999999956
 21
5.309428999999966
 31
0.0
 11
4.371557999999993
 21
5.301684999999964
 31
0.0
 11
4.408543000000009
 21
5.296336999999994
 31
0.0
 11
4.446023999999966
 21
5.293389999999931
 31
0.0
 11
4.483949999999936
 21
5.29284999999993
 31
0.0
  0
SPLINE
  5
5850
330
1F
100
AcDbEntity
  8
AM_0
100
AcDbSpline
210
0.0
220
0.0
230
1.0
 70
     8
 71
     3
 72
    11
 73
     7
 74
     5
 42
0.0000000001
 43
0.0000000001
 44
0.0000000001
 40
0.0
 40
0.0
 40
0.0
 40
0.0
 40
0.5930138064775662
 40
1.102306294170129
 40
1.520850168406685
 40
1.906060608361272
 40
1.906060608361272
 40
1.906060608361272
 40
1.906060608361272
 10
13.28934400000003
 20
3.90695299999993
 30
0.0
 10
13.32108328078756
 20
4.103716101254857
 30
0.0
 10
13.38008091052632
 20
4.46946341203344
 30
0.0
 10
13.28321290045869
 20
4.97360144039176
 30
0.0
 10
13.0171796023367
 20
5.366789041468167
 30
0.0
 10
12.74274811110469
 20
5.412705769245184
 30
0.0
 10
12.611223
 20
5.43471199999999
 30
0.0
 11
13.28934400000003
 21
3.90695299999993
 31
0.0
 11
13.34716700000001
 21
4.497140999999942
 31
0.0
 11
13.23859899999997
 21
4.994727000000012
 31
0.0
 11
12.98016799999999
 21
5.32395699999995
 31
0.0
 11
12.611223
 21
5.43471199999999
 31
0.0
  0
SPLINE
  5
5851
330
1F
100
AcDbEntity
  8
AM_0
100
AcDbSpline
210
0.0
220
0.0
230
1.0
 70
     8
 71
     3
 72
    11
 73
     7
 74
     5
 42
0.0000000001
 43
0.0000000001
 44
0.0000000001
 40
0.0
 40
0.0
 40
0.0
 40
0.0
 40
0.1864930971403764
 40
0.3693677746657131
 40
0.5428161970425248
 40
0.7013750418919458
 40
0.7013750418919458
 40
0.7013750418919458
 40
0.7013750418919458
 10
12.935655
 20
6.726570999999979
 30
0.0
 10
12.99780449177614
 20
6.728101483435902
 30
0.0
 10
13.12089762404728
 20
6.731132755207122
 30
0.0
 10
13.30156549512553
 20
6.741401571830247
 30
0.0
 10
13.47270067316691
 20
6.754889356202362
 30
0.0
 10
13.58257744415774
 20
6.7681980713531
 30
0.0
 10
13.63505199999997
 20
6.774553999999966
 30
0.0
 11
12.935655
 21
6.726570999999979
 31
0.0
 11
13.12206400000002
 21
6.732170999999994
 31
0.0
 11
13.30466000000001
 21
6.74226299999998
 31
0.0
 11
13.47752000000003
 21
6.756537999999978
 31
0.0
 11
13.63505199999997
 21
6.774553999999966
 31
0.0
  0
SPLINE
  5
5852
330
1F
100
AcDbEntity
  8
AM_0
100
AcDbSpline
210
0.0
220
0.0
230
1.0
 70
     8
 71
     3
 72
    11
 73
     7
 74
     5
 42
0.0000000001
 43
0.0000000001
 44
0.0000000001
 40
0.0
 40
0.0
 40
0.0
 40
0.0
 40
0.3005678551093253
 40
0.5577179620838506
 40
0.7844134989432317
 40
1.005793318134143
 40
1.005793318134143
 40
1.005793318134143
 40
1.005793318134143
 10
13.829545
 20
7.054192999999941
 30
0.0
 10
13.802677147627
 20
7.151303719611493
 30
0.0
 10
13.75282256864819
 20
7.331497282288217
 30
0.0
 10
13.60708979674681
 20
7.553064467169472
 30
0.0
 10
13.41192450044948
 20
7.701210985825929
 30
0.0
 10
13.26074633549813
 20
7.716223696099783
 30
0.0
 10
13.18605400000001
 20
7.72364099999993
 30
0.0
 11
13.829545
 21
7.054192999999941
 31
0.0
 11
13.73332699999997
 21
7.33894399999997
 31
0.0
 11
13.58900099999994
 21
7.551772999999969
 31
0.0
 11
13.40349700000002
 21
7.682076999999936
 31
0.0
 11
13.18605400000001
 21
7.72364099999993
 31
0.0
  0
SPLINE
  5
5853
330
1F
100
AcDbEntity
  8
AM_0
100
AcDbSpline
210
0.0
220
0.0
230
1.0
 70
     8
 71
     3
 72
    11
 73
     7
 74
     5
 42
0.0000000001
 43
0.0000000001
 44
0.0000000001
 40
0.0
 40
0.0
 40
0.0
 40
0.0
 40
0.1864940666643535
 40
0.3693687441896902
 40
0.5428162522634751
 40
0.7013750971129025
 40
0.7013750971129025
 40
0.7013750971129025
 40
0.7013750971129025
 10
13.31125399999996
 20
8.22217599999999
 30
0.0
 10
13.37340382500283
 20
8.22370609095727
 30
0.0
 10
13.49649730043352
 20
8.22673657758612
 30
0.0
 10
13.67716522298659
 20
8.237005207421802
 30
0.0
 10
13.84829994948363
 20
8.250494702155235
 30
0.0
 10
13.95817643566713
 20
8.26380317132482
 30
0.0
 10
14.01065099999994
 20
8.270158999999978
 30
0.0
 11
13.31125399999996
 21
8.22217599999999
 31
0.0
 11
13.49766399999999
 21
8.227774999999951
 31
0.0
 11
13.68025999999998
 21
8.237866999999937
 31
0.0
 11
13.85311899999999
 21
8.252142999999933
 31
0.0
 11
14.01065099999994
 21
8.270158999999978
 31
0.0
  0
SPLINE
  5
5854
330
1F
100
AcDbEntity
  8
AM_0
100
AcDbSpline
210
0.0
220
0.0
230
1.0
 70
     8
 71
     3
 72
    11
 73
     7
 74
     5
 42
0.0000000001
 43
0.0000000001
 44
0.0000000001
 40
0.0
 40
0.0
 40
0.0
 40
0.0
 40
0.3005681752314358
 40
0.557716893309165
 40
0.7844132484651732
 40
1.005792085439266
 40
1.005792085439266
 40
1.005792085439266
 40
1.005792085439266
 10
14.20514500000002
 20
8.54979800000001
 30
0.0
 10
14.1782767073486
 20
8.646908661611624
 30
0.0
 10
14.12842146005062
 20
8.827101579439752
 30
0.0
 10
13.98268951996321
 20
9.048669243837711
 30
0.0
 10
13.78752389706826
 20
9.196814538854689
 30
0.0
 10
13.63634593245028
 20
9.211827568503193
 30
0.0
 10
13.56165399999998
 20
9.219245000000001
 30
0.0
 11
14.20514500000002
 21
8.54979800000001
 31
0.0
 11
14.108926
 21
8.834548999999925
 31
0.0
 11
13.96460100000002
 21
9.047376999999983
 31
0.0
 11
13.77909599999998
 21
9.177681000000007
 31
0.0
 11
13.56165399999998
 21
9.219245000000001
 31
0.0
  0
SPLINE
  5
5857
330
1F
100
AcDbEntity
  8
AM_0
100
AcDbSpline
210
0.0
220
0.0
230
1.0
 70
     8
 71
     3
 72
    11
 73
     7
 74
     5
 42
0.0000000001
 43
0.0000000001
 44
0.0000000001
 40
0.0
 40
0.0
 40
0.0
 40
0.0
 40
0.54620297894646
 40
1.025331145893491
 40
1.364678096451479
 40
1.513750345203488
 40
1.513750345203488
 40
1.513750345203488
 40
1.513750345203488
 10
14.52007499999996
 20
13.03559399999995
 30
0.0
 10
14.6139702459739
 20
12.87954272719188
 30
0.0
 10
14.79023021499513
 20
12.58660358820172
 30
0.0
 10
15.01134282318418
 20
12.18954027051177
 30
0.0
 10
15.17275356584473
 20
11.90913632000605
 30
0.0
 10
15.23126845273657
 20
11.75705830054451
 30
0.0
 10
15.24912799999999
 20
11.71064200000001
 30
0.0
 11
14.52007499999996
 21
13.03559399999995
 31
0.0
 11
14.79888599999998
 21
12.56591099999997
 31
0.0
 11
15.03533700000003
 21
12.14919199999997
 31
0.0
 11
15.19340999999997
 21
11.84890999999993
 31
0.0
 11
15.24912799999999
 21
11.71064200000001
 31
0.0
  0
SPLINE
  5
5858
330
1F
100
AcDbEntity
  8
AM_0
100
AcDbSpline
210
0.0
220
0.0
230
1.0
 70
     8
 71
     3
 72
    11
 73
     7
 74
     5
 42
0.0000000001
 43
0.0000000001
 44
0.0000000001
 40
0.0
 40
0.0
 40
0.0
 40
0.0
 40
0.147808752244265
 40
0.4775232503482842
 40
0.943559289119956
 40
1.478369821680772
 40
1.478369821680772
 40
1.478369821680772
 40
1.478369821680772
 10
5.546573999999964
 20
14.11458899999997
 30
0.0
 10
5.579813016151438
 20
14.1511170911098
 30
0.0
 10
5.687197746690266
 20
14.26912778080806
 30
0.0
 10
5.953107327745806
 20
14.44212516206774
 30
0.0
 10
6.318848793197429
 20
14.69106209549171
 30
0.0
 10
6.604801068334991
 20
14.86342922029863
 30
0.0
 10
6.757601999999963
 20
14.95553499999994
 30
0.0
 11
5.546573999999964
 21
14.11458899999997
 31
0.0
 11
5.648896000000036
 21
14.22125499999993
 31
0.0
 11
5.913741999999957
 21
14.417643
 31
0.0
 11
6.302294999999958
 21
14.67496799999998
 31
0.0
 11
6.757601999999963
 21
14.95553499999994
 31
0.0
  0
SPLINE
  5
5859
330
1F
100
AcDbEntity
  8
AM_0
100
AcDbSpline
210
0.0
220
0.0
230
1.0
 70
     8
 71
     3
 72
    11
 73
     7
 74
     5
 42
0.0000000001
 43
0.0000000001
 44
0.0000000001
 40
0.0
 40
0.0
 40
0.0
 40
0.0
 40
0.1438202733135597
 40
0.3062748711586287
 40
0.4823629207815798
 40
0.6666130606675192
 40
0.6666130606675192
 40
0.6666130606675192
 40
0.6666130606675192
 10
4.740132000000017
 20
9.597389999999962
 30
0.0
 10
4.787855380157227
 20
9.59277014643531
 30
0.0
 10
4.889485503450326
 20
9.582931859921979
 30
0.0
 10
5.050145270205541
 20
9.57536214376703
 30
0.0
 10
5.224382261586679
 20
9.571315203446059
 30
0.0
 10
5.34449717181462
 20
9.572586138417094
 30
0.0
 10
5.405914999999993
 20
9.573235999999952
 30
0.0
 11
4.740132000000017
 21
9.597389999999962
 31
0.0
 11
4.883385999999973
 21
9.584639999999979
 31
0.0
 11
5.045620999999983
 21
9.576195999999982
 31
0.0
 11
5.221667000000025
 21
9.572347999999977
 31
0.0
 11
5.405914999999993
 21
9.573235999999952
 31
0.0
  0
SPLINE
  5
585A
330
1F
100
AcDbEntity
  8
AM_0
100
AcDbSpline
210
0.0
220
0.0
230
1.0
 70
     8
 71
     3
 72
    11
 73
     7
 74
     5
 42
0.0000000001
 43
0.0000000001
 44
0.0000000001
 40
0.0
 40
0.0
 40
0.0
 40
0.0
 40
0.2438780203400808
 40
0.5278670594278677
 40
0.8574197670695994
 40
1.228498689808435
 40
1.228498689808435
 40
1.228498689808435
 40
1.228498689808435
 10
5.280714999999987
 20
9.074701000000005
 30
0.0
 10
5.199504003835421
 20
9.063102464585072
 30
0.0
 10
5.023725105520526
 20
9.037997763576705
 30
0.0
 10
4.775029366527807
 20
8.88504101954967
 30
0.0
 10
4.52978881198406
 20
8.665541801899558
 30
0.0
 10
4.390687108645957
 20
8.477038118527432
 30
0.0
 10
4.317013999999972
 20
8.377199999999959
 30
0.0
 11
5.280714999999987
 21
9.074701000000005
 31
0.0
 11
5.041921000000002
 21
9.025163999999961
 31
0.0
 11
4.793632000000002
 21
8.887314999999944
 31
0.0
 11
4.547964999999977
 21
8.667649999999981
 31
0.0
 11
4.317013999999972
 21
8.377199999999959
 31
0.0
  0
SPLINE
  5
585B
330
1F
100
AcDbEntity
  8
AM_0
100
AcDbSpline
210
0.0
220
0.0
230
1.0
 70
     8
 71
     3
 72
    11
 73
     7
 74
     5
 42
0.0000000001
 43
0.0000000001
 44
0.0000000001
 40
0.0
 40
0.0
 40
0.0
 40
0.0
 40
0.1438191886015357
 40
0.3062748370752106
 40
0.4823618869368508
 40
0.6666130268112308
 40
0.6666130268112308
 40
0.6666130268112308
 40
0.6666130268112308
 10
4.364532999999994
 20
8.10178499999995
 30
0.0
 10
4.412256058575972
 20
8.097165649216647
 30
0.0
 10
4.513886252239381
 20
8.087328360310307
 30
0.0
 10
4.674545560444681
 20
8.079756717628428
 30
0.0
 10
4.848782935207858
 20
8.075710315791991
 30
0.0
 10
4.968897840858357
 20
8.076981174093719
 30
0.0
 10
5.030315999999971
 20
8.077630999999997
 30
0.0
 11
4.364532999999994
 21
8.10178499999995
 31
0.0
 11
4.50778600000001
 21
8.089035999999965
 31
0.0
 11
4.670022000000017
 21
8.08059099999997
 31
0.0
 11
4.846066999999948
 21
8.076742999999965
 31
0.0
 11
5.030315999999971
 21
8.077630999999997
 31
0.0
  0
SPLINE
  5
585C
330
1F
100
AcDbEntity
  8
AM_0
100
AcDbSpline
210
0.0
220
0.0
230
1.0
 70
     8
 71
     3
 72
    11
 73
     7
 74
     5
 42
0.0000000001
 43
0.0000000001
 44
0.0000000001
 40
0.0
 40
0.0
 40
0.0
 40
0.0
 40
0.2438778172199995
 40
0.5278673417116899
 40
0.8574207948099581
 40
1.228499095172585
 40
1.228499095172585
 40
1.228499095172585
 40
1.228499095172585
 10
4.905116000000021
 20
7.579095999999936
 30
0.0
 10
4.823904942801851
 20
7.567497945243252
 30
0.0
 10
4.648125671979025
 20
7.542394250273266
 30
0.0
 10
4.399430656900385
 20
7.389435368633025
 30
0.0
 10
4.154188734228206
 20
7.169937583360236
 30
0.0
 10
4.015087646232558
 20
6.981433268171241
 30
0.0
 10
3.941415000000006
 20
6.881594999999948
 30
0.0
 11
4.905116000000021
 21
7.579095999999936
 31
0.0
 11
4.666322000000037
 21
7.529559999999947
 31
0.0
 11
4.41803299999998
 21
7.391709999999989
 31
0.0
 11
4.172365000000013
 21
7.172044999999969
 31
0.0
 11
3.941415000000006
 21
6.881594999999948
 31
0.0
  0
SPLINE
  5
585D
330
1F
100
AcDbEntity
  8
AM_0
100
AcDbSpline
210
0.0
220
0.0
230
1.0
 70
     8
 71
     3
 72
    11
 73
     7
 74
     5
 42
0.0000000001
 43
0.0000000001
 44
0.0000000001
 40
0.0
 40
0.0
 40
0.0
 40
0.0
 40
0.1438202733136164
 40
0.3062748711586883
 40
0.4823629207815813
 40
0.6666130606675773
 40
0.6666130606675773
 40
0.6666130606675773
 40
0.6666130606675773
 10
3.988932999999975
 20
6.606180999999992
 30
0.0
 10
4.036656380157205
 20
6.601561146435349
 30
0.0
 10
4.138286503450324
 20
6.591722859922032
 30
0.0
 10
4.298946270205533
 20
6.584153143766962
 30
0.0
 10
4.473183261586677
 20
6.580106203446133
 30
0.0
 10
4.593298171814616
 20
6.581377138417098
 30
0.0
 10
4.654716000000008
 20
6.582026999999926
 30
0.0
 11
3.988932999999975
 21
6.606180999999992
 31
0.0
 11
4.132186999999988
 21
6.59343100000001
 31
0.0
 11
4.294421999999997
 21
6.584986999999956
 31
0.0
 11
4.470467999999983
 21
6.581139000000007
 31
0.0
 11
4.654716000000008
 21
6.582026999999926
 31
0.0
  0
SPLINE
  5
5862
330
1F
100
AcDbEntity
  8
AM_0
100
AcDbSpline
210
0.0
220
0.0
230
1.0
 70
     8
 71
     3
 72
    11
 73
     7
 74
     5
 42
0.0000000001
 43
0.0000000001
 44
0.0000000001
 40
0.0
 40
0.0
 40
0.0
 40
0.0
 40
0.2752641765758528
 40
0.5502360713305169
 40
0.8248260980412692
 40
1.099267950425399
 40
1.099267950425399
 40
1.099267950425399
 40
1.099267950425399
 10
3.315404999999942
 20
1.301588999999979
 30
0.0
 10
3.222781387506289
 20
1.310641801630327
 30
0.0
 10
3.037632512396841
 20
1.328737792418453
 30
0.0
 10
2.802349899424501
 20
1.488434152347237
 30
0.0
 10
2.63678280246678
 20
1.71936810126749
 30
0.0
 10
2.614354249794491
 20
1.903651945443143
 30
0.0
 10
2.603142999999989
 20
1.995768999999996
 30
0.0
 11
3.315404999999942
 21
1.301588999999979
 31
0.0
 11
3.044589999999971
 21
1.350879999999961
 31
0.0
 11
2.813842000000022
 21
1.50042899999994
 31
0.0
 11
2.658736999999974
 21
1.727016999999933
 31
0.0
 11
2.603142999999989
 21
1.995768999999996
 31
0.0
  0
SPLINE
  5
5863
330
1F
100
AcDbEntity
  8
AM_0
100
AcDbSpline
210
0.0
220
0.0
230
1.0
 70
     8
 71
     3
 72
    11
 73
     7
 74
     5
 42
0.0000000001
 43
0.0000000001
 44
0.0000000001
 40
0.0
 40
0.0
 40
0.0
 40
0.0
 40
0.0832157341973532
 40
0.1711908294118307
 40
0.2726437795167606
 40
0.3787222238162535
 40
0.3787222238162535
 40
0.3787222238162535
 40
0.3787222238162535
 10
13.63505199999997
 20
6.774553999999966
 30
0.0
 10
13.66251888379046
 20
6.780746818158747
 30
0.0
 10
13.71902356602159
 20
6.793486640588051
 30
0.0
 10
13.78863500192409
 20
6.856943636661871
 30
0.0
 10
13.83463397418988
 20
6.948166593797314
 30
0.0
 10
13.83126634416246
 20
7.018329596379944
 30
0.0
 10
13.829545
 20
7.054192999999941
 30
0.0
 11
13.63505199999997
 21
6.774553999999966
 31
0.0
 11
13.714429
 21
6.799536999999987
 31
0.0
 11
13.78112199999998
 21
6.856909999999971
 31
0.0
 11
13.82538899999997
 21
6.948195999999939
 31
0.0
 11
13.829545
 21
7.054192999999941
 31
0.0
  0
SPLINE
  5
5864
330
1F
100
AcDbEntity
  8
AM_0
100
AcDbSpline
210
0.0
220
0.0
230
1.0
 70
     8
 71
     3
 72
    11
 73
     7
 74
     5
 42
0.0000000001
 43
0.0000000001
 44
0.0000000001
 40
0.0
 40
0.0
 40
0.0
 40
0.0
 40
0.0832163878572089
 40
0.1711914830717295
 40
0.2726444331767616
 40
0.3787238767084851
 40
0.3787238767084851
 40
0.3787238767084851
 40
0.3787238767084851
 10
14.01065099999994
 20
8.270158999999978
 30
0.0
 10
14.03811826086676
 20
8.276351356586366
 30
0.0
 10
14.09462349072339
 20
8.289090178049655
 30
0.0
 10
14.16423497992961
 20
8.352547734294877
 30
0.0
 10
14.21023410308868
 20
8.443770881891426
 30
0.0
 10
14.20686639300799
 20
8.513934246291669
 30
0.0
 10
14.20514500000002
 20
8.54979800000001
 30
0.0
 11
14.01065099999994
 21
8.270158999999978
 31
0.0
 11
14.09002899999996
 21
8.295140999999944
 31
0.0
 11
14.156722
 21
8.352513999999928
 31
0.0
 11
14.20098899999999
 21
8.44380000000001
 31
0.0
 11
14.20514500000002
 21
8.54979800000001
 31
0.0
  0
SPLINE
  5
5866
330
1F
100
AcDbEntity
  8
AM_0
100
AcDbSpline
210
0.0
220
0.0
230
1.0
 70
     8
 71
     3
 72
     9
 73
     5
 74
     0
 42
0.0000000001
 43
0.0000000001
 40
0.0
 40
0.0
 40
0.0
 40
0.0
 40
0.0702084121811513
 40
0.1438800487923379
 40
0.1438800487923379
 40
0.1438800487923379
 40
0.1438800487923379
 10
4.740132000000017
 20
9.597389999999962
 30
0.0
 10
4.716031527954328
 20
9.602477946234046
 30
0.0
 10
4.666641761313485
 20
9.61290481574531
 30
0.0
 10
4.644493283937663
 20
9.661894414922244
 30
0.0
 10
4.63984180089841
 20
9.686947961855708
 30
0.0
  0
SPLINE
  5
5867
330
1F
100
AcDbEntity
  8
AM_0
100
AcDbSpline
210
0.0
220
0.0
230
1.0
 70
     8
 71
     3
 72
    11
 73
     7
 74
     5
 42
0.0000000001
 43
0.0000000001
 44
0.0000000001
 40
0.0
 40
0.0
 40
0.0
 40
0.0
 40
0.0702084121811538
 40
0.144278931694662
 40
0.24003311989032
 40
0.3400086935120348
 40
0.3400086935120348
 40
0.3400086935120348
 40
0.3400086935120348
 10
4.364532999999994
 20
8.10178499999995
 30
0.0
 10
4.340432491354449
 20
8.106872942501459
 30
0.0
 10
4.290905724793979
 20
8.117328711060184
 30
0.0
 10
4.254082360889357
 20
8.199235810188329
 30
0.0
 10
4.269139981073776
 20
8.29057689518168
 30
0.0
 10
4.300828182802537
 20
8.347913431395297
 30
0.0
 10
4.317013999999972
 20
8.377199999999959
 30
0.0
 11
4.364532999999994
 21
8.10178499999995
 31
0.0
 11
4.298718000000008
 21
8.126230999999962
 31
0.0
 11
4.264167999999984
 21
8.191749999999956
 31
0.0
 11
4.273873999999978
 21
8.287011000000007
 31
0.0
 11
4.317013999999972
 21
8.377199999999959
 31
0.0
  0
SPLINE
  5
5868
330
1F
100
AcDbEntity
  8
AM_0
100
AcDbSpline
210
0.0
220
0.0
230
1.0
 70
     8
 71
     3
 72
    11
 73
     7
 74
     5
 42
0.0000000001
 43
0.0000000001
 44
0.0000000001
 40
0.0
 40
0.0
 40
0.0
 40
0.0
 40
0.0702084121811538
 40
0.1442780471471865
 40
0.2400333315600501
 40
0.3400080030723969
 40
0.3400080030723969
 40
0.3400080030723969
 40
0.3400080030723969
 10
3.988932999999975
 20
6.606180999999992
 30
0.0
 10
3.964832527954292
 20
6.611268946234063
 30
0.0
 10
3.91530614024587
 20
6.621724658360802
 30
0.0
 10
3.878481818173218
 20
6.703631368294232
 30
0.0
 10
3.893541074186304
 20
6.794972318328172
 30
0.0
 10
3.925229321579259
 20
6.852308768598368
 30
0.0
 10
3.941415000000006
 20
6.881594999999948
 30
0.0
 11
3.988932999999975
 21
6.606180999999992
 31
0.0
 11
3.923117999999988
 21
6.630627000000004
 31
0.0
 11
3.888567999999964
 21
6.696145000000001
 31
0.0
 11
3.898275000000012
 21
6.791406999999936
 31
0.0
 11
3.941415000000006
 21
6.881594999999948
 31
0.0
  0
SPLINE
  5
5869
330
1F
100
AcDbEntity
  8
AM_0
100
AcDbSpline
210
0.0
220
0.0
230
1.0
 70
     8
 71
     3
 72
    11
 73
     7
 74
     5
 42
0.0000000001
 43
0.0000000001
 44
0.0000000001
 40
0.0
 40
0.0
 40
0.0
 40
0.0
 40
2.25991400793766
 40
4.549381928481921
 40
6.854871758492264
 40
9.162660516226385
 40
9.162660516226385
 40
9.162660516226385
 40
9.162660516226385
 10
13.07382099999995
 20
2.743551999999966
 30
0.0
 10
13.24971864808186
 20
3.476033094264726
 30
0.0
 10
13.60381423695629
 20
4.950574267733433
 30
0.0
 10
14.14418794153598
 20
7.170718136924278
 30
0.0
 10
14.69276550260624
 20
9.405284516437373
 30
0.0
 10
15.0638348627356
 20
10.89760295059473
 30
0.0
 10
15.24946199999999
 20
11.64413400000001
 30
0.0
 11
13.07382099999995
 21
2.743551999999966
 31
0.0
 11
13.60263299999997
 21
4.940724999999929
 31
0.0
 11
14.14365699999996
 21
7.165349999999989
 31
0.0
 11
14.693692
 21
9.404266000000007
 31
0.0
 11
15.24946199999999
 21
11.64413400000001
 31
0.0
  0
SPLINE
  5
586A
330
1F
100
AcDbEntity
  8
AM_0
100
AcDbSpline
210
0.0
220
0.0
230
1.0
 70
     8
 71
     3
 72
    11
 73
     7
 74
     5
 42
0.0000000001
 43
0.0000000001
 44
0.0000000001
 40
0.0
 40
0.0
 40
0.0
 40
0.0
 40
0.0417037491359869
 40
0.0833527804452932
 40
0.1250900343319462
 40
0.16706224525771
 40
0.16706224525771
 40
0.16706224525771
 40
0.16706224525771
 10
2.621864999999957
 20
2.18458499999997
 30
0.0
 10
2.618902989078739
 20
2.170998298893447
 30
0.0
 10
2.612982853572751
 20
2.143842723249277
 30
0.0
 10
2.607215948414074
 20
2.102514625834494
 30
0.0
 10
2.603551744373179
 20
2.060858152391538
 30
0.0
 10
2.603202241787505
 20
2.03294816352872
 30
0.0
 10
2.603026999999997
 20
2.018954000000008
 30
0.0
 11
2.621864999999957
 21
2.18458499999997
 31
0.0
 11
2.613498999999933
 21
2.143729000000008
 31
0.0
 11
2.607571000000007
 21
2.102503999999954
 31
0.0
 11
2.604079999999954
 21
2.060912999999971
 31
0.0
 11
2.603026999999997
 21
2.018954000000008
 31
0.0
  0
DIMENSION
  5
589A
330
1F
100
AcDbEntity
  8
AM_5
370
    13
100
AcDbDimension
  2
*D4
 10
177.7702528983464
 20
0.0000000000000518
 30
0.0
 11
174.3698788825983
 21
12.50000000000005
 31
0.0
 70
    32
 71
     5
 42
24.99999999999994
  3
AM_JIS$0
100
AcDbAlignedDimension
 13
160.0
 23
25.0
 33
0.0
 14
160.0
 24
0.0000000000000568
 34
0.0
 50
90.0
100
AcDbRotatedDimension
1001
ACAD
1000
DSTYLE
1002
{
1070
   271
1070
     0
1002
}
  0
LINE
  5
58CD
330
1F
100
AcDbEntity
  8
AM_5
370
    13
100
AcDbLine
 10
0.4083590205275414
 20
0.0
 30
0.0
 11
-0.2698973013521027
 21
0.0
 31
0.0
  0
DIMENSION
  5
58D0
330
1F
100
AcDbEntity
  8
AM_5
370
    13
100
AcDbDimension
  2
*D5
 10
-13.20134344725466
 20
25.00000000000001
 30
0.0
 11
-16.60171746300269
 21
12.5
 31
0.0
 70
    32
 71
     5
 42
25.0
  3
AM_JIS$0
100
AcDbAlignedDimension
 13
-0.2698973013521027
 23
0.0
 33
0.0
 14
13.09964799999995
 24
25.0
 34
0.0
 50
90.0
100
AcDbRotatedDimension
1001
ACAD
1000
DSTYLE
1002
{
1070
   271
1070
     0
1002
}
  0
LINE
  5
590B
330
1F
100
AcDbEntity
  8
AM_5
370
    13
100
AcDbLine
 10
0.0
 20
0.4344628827398083
 30
0.0
 11
0.0
 21
-0.5527904844252589
 31
0.0
  0
DIMENSION
  5
590D
330
1F
100
AcDbEntity
  8
AM_5
370
    13
100
AcDbDimension
  2
*D6
 10
160.0
 20
-27.82762495440238
 30
0.0
 11
78.42964560985024
 21
-27.82762495440238
 31
0.0
 70
   160
 71
     5
 42
160.0
  3
AM_JIS$0
100
AcDbAlignedDimension
 13
0.0
 23
-0.5527904844252589
 33
0.0
 14
160.0
 24
0.0000000000000568
 34
0.0
100
AcDbRotatedDimension
1001
ACAD
1000
DSTYLE
1002
{
1070
   271
1070
     0
1002
}
  0
DIMENSION
  5
591B
330
1F
100
AcDbEntity
  8
AM_5
370
    13
100
AcDbDimension
  2
*D7
 10
0.0
 20
-0.5527904844252589
 30
0.0
 11
12.65582953011563
 21
-9.42991257411677
 31
0.0
 70
   162
 71
     5
 42
1.588249622029203
  3
AM_JIS
100
AcDb2LineAngularDimension
 13
0.4070070000000214
 23
0.0000619999999572
 33
0.0
 14
15.51683099999997
 24
0.2638049999999339
 34
0.0
 15
0.0
 25
0.4344628827398083
 35
0.0
 16
7.968604443823587
 26
-13.62548012551306
 36
0.0
1001
ACAD
1000
DSTYLE
1002
{
1070
   271
1070
     0
1002
}
  0
LINE
  5
5A05
330
1F
100
AcDbEntity
  8
AM_0
100
AcDbLine
 10
1.175440558179503
 20
-73.70482875217374
 30
0.0
 11
0.7754105581795443
 21
-73.70421775217369
 31
0.0
  0
LINE
  5
5A06
330
1F
100
AcDbEntity
  8
AM_0
100
AcDbLine
 10
0.7754105581795443
 20
-73.70421775217369
 30
0.0
 11
0.401479558179517
 21
-72.56672475217374
 31
0.0
  0
LINE
  5
5A07
330
1F
100
AcDbEntity
  8
AM_0
100
AcDbLine
 10
0.401479558179517
 20
-72.56672475217374
 30
0.0
 11
0.4084865581795043
 21
-70.48187675217366
 31
0.0
  0
LINE
  5
5A08
330
1F
100
AcDbEntity
  8
AM_0
100
AcDbLine
 10
0.4084865581795043
 20
-70.48187675217366
 30
0.0
 11
15.51831055817951
 21
-70.50495075217373
 31
0.0
  0
LINE
  5
5A09
330
1F
100
AcDbEntity
  8
AM_0
100
AcDbLine
 10
15.51130491129192
 20
-72.58979216075773
 30
0.0
 11
15.51831055817951
 21
-70.50495075217373
 31
0.0
  0
LINE
  5
5A0A
330
1F
100
AcDbEntity
  8
AM_0
100
AcDbLine
 10
0.0015365581795095
 20
-70.51732675217374
 30
0.0
 11
0.401479558179517
 21
-72.56672475217374
 31
0.0
  0
LINE
  5
5A0B
330
1F
100
AcDbEntity
  8
AM_0
100
AcDbLine
 10
15.82036355817951
 20
-71.00609975217367
 30
0.0
 11
15.91124555817953
 21
-70.5404007521737
 31
0.0
  0
LINE
  5
5A0C
330
1F
100
AcDbEntity
  8
AM_0
100
AcDbLine
 10
0.7754105581795443
 20
-73.70421775217369
 30
0.0
 11
0.9693555581795295
 21
-73.73471775217365
 31
0.0
  0
LINE
  5
5A0D
330
1F
100
AcDbEntity
  8
AM_0
100
AcDbLine
 10
2.604497558179503
 20
-70.46807575217372
 30
0.0
 11
2.604507558179535
 21
-70.48522975217372
 31
0.0
  0
LINE
  5
5A0E
330
1F
100
AcDbEntity
  8
AM_0
100
AcDbLine
 10
3.524236558179496
 20
-68.12222975217367
 30
0.0
 11
2.700944558179515
 21
-70.0085187521737
 31
0.0
  0
LINE
  5
5A0F
330
1F
100
AcDbEntity
  8
AM_0
100
AcDbLine
 10
4.485429558179533
 20
-67.55878675217366
 30
0.0
 11
12.61270255817954
 21
-67.5711977521737
 31
0.0
  0
LINE
  5
5A10
330
1F
100
AcDbEntity
  8
AM_0
100
AcDbLine
 10
13.4131265581795
 20
-67.84143475217365
 30
0.0
 11
13.04267155817951
 21
-67.66054975217367
 31
0.0
  0
LINE
  5
5A11
330
1F
100
AcDbEntity
  8
AM_0
100
AcDbLine
 10
13.78872655817952
 20
-68.02483275217367
 30
0.0
 11
13.60925655817954
 21
-67.93720175217368
 31
0.0
  0
LINE
  5
5A12
330
1F
100
AcDbEntity
  8
AM_0
100
AcDbLine
 10
14.14331755817949
 20
-68.19797275217366
 30
0.0
 11
13.9848565581795
 21
-68.12059875217369
 31
0.0
  0
LINE
  5
5A15
330
1F
100
AcDbEntity
  8
AM_0
100
AcDbLine
 10
13.79402955817949
 20
-70.14023475217368
 30
0.0
 11
14.07210655817954
 21
-70.08367475217369
 31
0.0
  0
LINE
  5
5A16
330
1F
100
AcDbEntity
  8
AM_0
100
AcDbLine
 10
0.9657705581794858
 20
-73.73545875217371
 30
0.0
 11
1.29998755817951
 21
-76.90308975217374
 31
0.0
  0
LINE
  5
5A17
330
1F
100
AcDbEntity
  8
AM_0
100
AcDbLine
 10
14.52847155817955
 20
-76.91740475217375
 30
0.0
 11
1.366905558179553
 21
-76.89730575217368
 31
0.0
  0
LINE
  5
5A18
330
1F
100
AcDbEntity
  8
AM_0
100
AcDbLine
 10
14.53432755817954
 20
-73.7203807521737
 30
0.0
 11
1.372761558179491
 21
-73.70028075217374
 31
0.0
  0
LINE
  5
5A1B
330
1F
100
AcDbEntity
  8
AM_0
100
AcDbLine
 10
34.49981655817953
 20
-70.98378075217374
 30
0.0
 11
34.49981955817952
 21
-70.48187075217368
 31
0.0
  0
LINE
  5
5A1C
330
1F
100
AcDbEntity
  8
AM_0
100
AcDbLine
 10
34.50147955817948
 20
-70.48187075217368
 30
0.0
 11
34.49981955817952
 21
-70.48187075217368
 31
0.0
  0
LINE
  5
5A1D
330
1F
100
AcDbEntity
  8
AM_0
100
AcDbLine
 10
34.50147655817949
 20
-70.98378075217374
 30
0.0
 11
34.50147955817948
 21
-70.48187075217368
 31
0.0
  0
LINE
  5
5A1E
330
1F
100
AcDbEntity
  8
AM_0
100
AcDbLine
 10
34.50147955817948
 20
-70.48187075217368
 30
0.0
 11
160.0014795581795
 21
-70.48187075217368
 31
0.0
  0
LINE
  5
5A20
330
1F
100
AcDbEntity
  8
AM_0
100
AcDbLine
 10
34.50147655817949
 20
-70.98378075217374
 30
0.0
 11
21.55423155817954
 21
-70.98378075217374
 31
0.0
  0
LINE
  5
5A21
330
1F
100
AcDbEntity
  8
AM_0
100
AcDbLine
 10
21.55423155817954
 20
-70.98378075217374
 30
0.0
 11
24.86481489540615
 21
-102.4818707521737
 31
0.0
  0
LINE
  5
5A22
330
1F
100
AcDbEntity
  8
AM_0
100
AcDbLine
 10
160.0014795581795
 20
-102.4818707521737
 30
0.0
 11
160.0014795581795
 21
-70.48187075217368
 31
0.0
  0
LINE
  5
5A24
330
1F
100
AcDbEntity
  8
AM_0
100
AcDbLine
 10
1.50147955817954
 20
-76.89751060713661
 30
0.0
 11
1.501479558179461
 21
-102.4818707521737
 31
0.0
  0
LINE
  5
5A26
330
1F
100
AcDbEntity
  8
AM_0
100
AcDbLine
 10
21.55657755817953
 20
-71.00609975217367
 30
0.0
 11
15.82036401512318
 21
-71.00609975217355
 31
0.0
  0
LINE
  5
5A27
330
1F
100
AcDbEntity
  8
AM_0
100
AcDbLine
 10
20.22419755817953
 20
-71.00609975217367
 30
0.0
 11
20.24325855817955
 21
-70.99798875217368
 31
0.0
  0
LINE
  5
5A28
330
1F
100
AcDbEntity
  8
AM_0
100
AcDbLine
 10
22.54375255817951
 20
-70.34420075217372
 30
0.0
 11
18.40330255817952
 21
-70.8009807521737
 31
0.0
  0
LINE
  5
5A29
330
1F
100
AcDbEntity
  8
AM_0
100
AcDbLine
 10
26.09627755817951
 20
-70.30038375217373
 30
0.0
 11
30.43904855817954
 21
-70.61578075217369
 31
0.0
  0
LINE
  5
5A2A
330
1F
100
AcDbEntity
  8
AM_0
100
AcDbLine
 10
30.43904855817954
 20
-70.61578075217369
 30
0.0
 11
29.58279855817949
 21
-70.98012075217366
 31
0.0
  0
LINE
  5
5A2F
330
1F
100
AcDbEntity
  8
AM_0
100
AcDbLine
 10
30.43904855817954
 20
-70.61578075217369
 30
0.0
 11
30.43927555817953
 21
-70.98378075217374
 31
0.0
  0
LINE
  5
5A30
330
1F
100
AcDbEntity
  8
AM_0
100
AcDbLine
 10
24.48727555817953
 20
-61.64783175217372
 30
0.0
 11
21.00233155817949
 21
-62.0322947521737
 31
0.0
  0
LINE
  5
5A33
330
1F
100
AcDbEntity
  8
AM_0
100
AcDbLine
 10
30.07622755817948
 20
-62.05304175217373
 30
0.0
 11
24.49484255817953
 21
-61.64768975217373
 31
0.0
  0
LINE
  5
5A34
330
1F
100
AcDbEntity
  8
AM_0
100
AcDbLine
 10
32.58280155817948
 20
-70.98378075217374
 30
0.0
 11
32.57862455817951
 21
-64.20186975217371
 31
0.0
  0
LINE
  5
5A36
330
1F
100
AcDbEntity
  8
AM_0
100
AcDbLine
 10
14.14325855817953
 20
-68.10228475217366
 30
0.0
 11
14.14337255817952
 21
-68.28807575217365
 31
0.0
  0
LINE
  5
5A37
330
1F
100
AcDbEntity
  8
AM_0
100
AcDbLine
 10
14.14439955817949
 20
-69.9557007521737
 30
0.0
 11
14.14473655817955
 21
-70.50285375217368
 31
0.0
  0
LINE
  5
5A38
330
1F
100
AcDbEntity
  8
AM_0
100
AcDbLine
 10
3.126576558179522
 20
-65.15410775217367
 30
0.0
 11
3.128963558179521
 21
-69.02786175217375
 31
0.0
  0
LINE
  5
5A3B
330
1F
100
AcDbEntity
  8
AM_0
100
AcDbLine
 10
11.48571755817949
 20
-62.52822075217375
 30
0.0
 11
5.879523558179528
 21
-62.51965975217365
 31
0.0
  0
LINE
  5
5A3C
330
1F
100
AcDbEntity
  8
AM_0
100
AcDbLine
 10
13.95717255817954
 20
-68.10785475217369
 30
0.0
 11
13.97581955817952
 21
-68.10731775217369
 31
0.0
  0
LINE
  5
5A3D
330
1F
100
AcDbEntity
  8
AM_0
100
AcDbLine
 10
13.97581955817952
 20
-68.10731775217369
 30
0.0
 11
13.99445855817953
 21
-68.10677575217369
 31
0.0
  0
LINE
  5
5A3E
330
1F
100
AcDbEntity
  8
AM_0
100
AcDbLine
 10
13.99445855817953
 20
-68.10677575217369
 30
0.0
 11
14.0130885581795
 21
-68.1062297521737
 31
0.0
  0
LINE
  5
5A3F
330
1F
100
AcDbEntity
  8
AM_0
100
AcDbLine
 10
14.0130885581795
 20
-68.1062297521737
 30
0.0
 11
14.03170955817956
 21
-68.10567875217373
 31
0.0
  0
LINE
  5
5A40
330
1F
100
AcDbEntity
  8
AM_0
100
AcDbLine
 10
14.03170955817956
 20
-68.10567875217373
 30
0.0
 11
14.05032255817952
 21
-68.10512375217365
 31
0.0
  0
LINE
  5
5A41
330
1F
100
AcDbEntity
  8
AM_0
100
AcDbLine
 10
14.05032255817952
 20
-68.10512375217365
 30
0.0
 11
14.0689275581795
 21
-68.1045647521737
 31
0.0
  0
LINE
  5
5A42
330
1F
100
AcDbEntity
  8
AM_0
100
AcDbLine
 10
14.0689275581795
 20
-68.1045647521737
 30
0.0
 11
14.0875235581795
 21
-68.10400175217364
 31
0.0
  0
LINE
  5
5A43
330
1F
100
AcDbEntity
  8
AM_0
100
AcDbLine
 10
14.0875235581795
 20
-68.10400175217364
 30
0.0
 11
14.10611055817952
 21
-68.10343375217371
 31
0.0
  0
LINE
  5
5A44
330
1F
100
AcDbEntity
  8
AM_0
100
AcDbLine
 10
14.10611055817952
 20
-68.10343375217371
 30
0.0
 11
14.12468855817951
 21
-68.10286175217368
 31
0.0
  0
LINE
  5
5A45
330
1F
100
AcDbEntity
  8
AM_0
100
AcDbLine
 10
14.12468855817951
 20
-68.10286175217368
 30
0.0
 11
14.14325855817953
 21
-68.10228475217366
 31
0.0
  0
ARC
  5
5A46
330
1F
100
AcDbEntity
  8
AM_0
100
AcDbCircle
 10
0.0829565581795464
 20
-70.50143775217373
 30
0.0
 40
0.0829565581795628
100
AcDbArc
 50
68.03878509037951
 51
191.0424117058163
  0
ARC
  5
5A47
330
1F
100
AcDbEntity
  8
AM_0
100
AcDbCircle
 10
0.4096945581795239
 20
-69.69114775217372
 30
0.0
 40
0.7907296582302981
100
AcDbArc
 50
248.0389558119725
 51
269.9124690661301
  0
ARC
  5
5A48
330
1F
100
AcDbEntity
  8
AM_0
100
AcDbCircle
 10
15.51114755817952
 20
-75.19566075217369
 30
0.0
 40
4.690714935427749
100
AcDbArc
 50
88.48442819568345
 51
89.91250592135538
  0
ARC
  5
5A49
330
1F
100
AcDbEntity
  8
AM_0
100
AcDbCircle
 10
15.55615555817951
 20
-73.49454875217373
 30
0.0
 40
2.9890079030737
100
AcDbArc
 50
86.24349683155971
 51
88.48443140172614
  0
ARC
  5
5A4A
330
1F
100
AcDbEntity
  8
AM_0
100
AcDbCircle
 10
15.77366555817952
 20
-70.18175275217368
 30
0.0
 40
0.3309210024477151
100
AcDbArc
 50
266.2434532149039
 51
286.265987592664
  0
ARC
  5
5A4B
330
1F
100
AcDbEntity
  8
AM_0
100
AcDbCircle
 10
15.87632155817954
 20
-70.53358575217374
 30
0.0
 40
0.0355827205396131
100
AcDbArc
 50
348.958173248518
 51
106.2652286537697
  0
ARC
  5
5A54
330
1F
100
AcDbEntity
  8
AM_0
100
AcDbCircle
 10
20.91685755817952
 20
-68.18130475217367
 30
0.0
 40
8.082398063740799
100
AcDbArc
 50
95.13658245337085
 51
97.4637677276353
  0
ARC
  5
5A55
330
1F
100
AcDbEntity
  8
AM_0
100
AcDbCircle
 10
21.39834255817954
 20
-73.53761875217367
 30
0.0
 40
13.4603087914334
100
AcDbArc
 50
93.7390655286482
 51
95.13657970450693
  0
ARC
  5
5A56
330
1F
100
AcDbEntity
  8
AM_0
100
AcDbCircle
 10
21.61986355817953
 20
-76.92728075217372
 30
0.0
 40
16.8572018282202
100
AcDbArc
 50
91.01150110925413
 51
93.73906714749096
  0
ARC
  5
5A57
330
1F
100
AcDbEntity
  8
AM_0
100
AcDbCircle
 10
21.69135555817951
 20
-80.97651675217367
 30
0.0
 40
20.9070689894989
100
AcDbArc
 50
88.81213651102621
 51
91.01149908175336
  0
ARC
  5
5A58
330
1F
100
AcDbEntity
  8
AM_0
100
AcDbCircle
 10
21.70700455817951
 20
-80.22183775217366
 30
0.0
 40
20.1522271548413
100
AcDbArc
 50
86.78444819906164
 51
88.81213837458812
  0
ARC
  5
5A59
330
1F
100
AcDbEntity
  8
AM_0
100
AcDbCircle
 10
22.31874255817951
 20
-69.33313675217369
 30
0.0
 40
9.246355884490392
100
AcDbArc
 50
82.36686987175034
 51
86.7844500386344
  0
ARC
  5
5A5A
330
1F
100
AcDbEntity
  8
AM_0
100
AcDbCircle
 10
14.5272755581795
 20
-78.3379507521737
 30
0.0
 40
4.61757555658573
100
AcDbArc
 50
88.71096515316354
 51
89.91249736918093
  0
ARC
  5
5A5B
330
1F
100
AcDbEntity
  8
AM_0
100
AcDbCircle
 10
14.55329755817951
 20
-77.18151375217371
 30
0.0
 40
3.4608460588424
100
AcDbArc
 50
87.1078801372815
 51
88.71096851153928
  0
ARC
  5
5A5C
330
1F
100
AcDbEntity
  8
AM_0
100
AcDbCircle
 10
14.74744855817954
 20
-73.33846675217365
 30
0.0
 40
0.387102076854413
100
AcDbArc
 50
267.1078001599506
 51
270.4160777354588
  0
ARC
  5
5A5E
330
1F
100
AcDbEntity
  8
AM_0
100
AcDbCircle
 10
21.68941255817953
 20
-74.39664375217365
 30
0.0
 40
3.69353713679584
100
AcDbArc
 50
88.38337356805091
 51
113.0501280316081
  0
ARC
  5
5A5F
330
1F
100
AcDbEntity
  8
AM_0
100
AcDbCircle
 10
24.8055305581795
 20
36.01430224782632
 30
0.0
 40
106.76137306644
100
AcDbArc
 50
268.3833756819124
 51
269.2501638071724
  0
ARC
  5
5A60
330
1F
100
AcDbEntity
  8
AM_0
100
AcDbCircle
 10
32.95794755817951
 20
658.9136252478263
 30
0.0
 40
729.714043058852
100
AcDbArc
 50
269.25016385831
 51
269.3491116400942
  0
ARC
  5
5A61
330
1F
100
AcDbEntity
  8
AM_0
100
AcDbCircle
 10
24.62808955817951
 20
-74.30761675217366
 30
0.0
 40
3.55451418996535
100
AcDbArc
 50
69.24475154460467
 51
89.34911032533724
  0
ARC
  5
5A62
330
1F
100
AcDbEntity
  8
AM_0
100
AcDbCircle
 10
12.42013155817955
 20
-9.749546752173728
 30
0.0
 40
61.3526930476378
100
AcDbArc
 50
273.2079656516866
 51
273.4647873662116
  0
ARC
  5
5A63
330
1F
100
AcDbEntity
  8
AM_0
100
AcDbCircle
 10
12.63323655817953
 20
-13.26928475217369
 30
0.0
 40
57.82650941919371
100
AcDbArc
 50
273.4647876032904
 51
273.7372708437232
  0
ARC
  5
5A64
330
1F
100
AcDbEntity
  8
AM_0
100
AcDbCircle
 10
12.75094455817953
 20
-15.07129575217368
 30
0.0
 40
56.020657908487
100
AcDbArc
 50
273.7372708252956
 51
274.0097086538902
  0
ARC
  5
5A65
330
1F
100
AcDbEntity
  8
AM_0
100
AcDbCircle
 10
13.01048455817954
 20
-18.77387775217369
 30
0.0
 40
52.308991135385
100
AcDbArc
 50
274.0097089003201
 51
274.3014778805786
  0
ARC
  5
5A66
330
1F
100
AcDbEntity
  8
AM_0
100
AcDbCircle
 10
13.26059555817955
 20
-22.09909975217374
 30
0.0
 40
48.9743760581413
100
AcDbArc
 50
274.3014778264204
 51
275.1646645067259
  0
ARC
  5
5A67
330
1F
100
AcDbEntity
  8
AM_0
100
AcDbCircle
 10
14.30405055817954
 20
-33.64360975217369
 30
0.0
 40
37.3828052406524
100
AcDbArc
 50
275.1646636057596
 51
276.2954907495925
  0
ARC
  5
5A68
330
1F
100
AcDbEntity
  8
AM_0
100
AcDbCircle
 10
23.8164045581795
 20
-81.88005375217369
 30
0.0
 40
11.6058406169648
100
AcDbArc
 50
94.74256505958455
 51
96.29549524440593
  0
ARC
  5
5A69
330
1F
100
AcDbEntity
  8
AM_0
100
AcDbCircle
 10
24.21903655817954
 20
-86.73321575217369
 30
0.0
 40
16.4756756320659
100
AcDbArc
 50
93.64861238964753
 51
94.74256313167416
  0
ARC
  5
5A6A
330
1F
100
AcDbEntity
  8
AM_0
100
AcDbCircle
 10
24.4278265581795
 20
-90.00750875217375
 30
0.0
 40
19.7566188604069
100
AcDbArc
 50
91.50881060768556
 51
93.64861163119635
  0
ARC
  5
5A6B
330
1F
100
AcDbEntity
  8
AM_0
100
AcDbCircle
 10
24.56480955817955
 20
-95.20810575217365
 30
0.0
 40
24.9590201731598
100
AcDbArc
 50
89.81495183769552
 51
91.50881131002302
  0
ARC
  5
5A6C
330
1F
100
AcDbEntity
  8
AM_0
100
AcDbCircle
 10
24.56569555817953
 20
-94.9338627521737
 30
0.0
 40
24.6847750288769
100
AcDbArc
 50
88.12972409709049
 51
89.81495247456047
  0
ARC
  5
5A6D
330
1F
100
AcDbEntity
  8
AM_0
100
AcDbCircle
 10
24.7768245581795
 20
-88.46821475217371
 30
0.0
 40
18.2156811419109
100
AcDbArc
 50
85.84614193567667
 51
88.12972180118787
  0
SPLINE
  5
5A80
330
1F
100
AcDbEntity
  8
AM_0
100
AcDbSpline
210
0.0
220
0.0
230
1.0
 70
     8
 71
     3
 72
    11
 73
     7
 74
     5
 42
0.0000000001
 43
0.0000000001
 44
0.0000000001
 40
0.0
 40
0.0
 40
0.0
 40
0.0
 40
0.2577393296879134
 40
0.5150413517495762
 40
0.7748512290829663
 40
1.039093060224424
 40
1.039093060224424
 40
1.039093060224424
 40
1.039093060224424
 10
4.336600558179498
 20
-67.56091375217375
 30
0.0
 10
4.25059337943021
 20
-67.57070824467493
 30
0.0
 10
4.078724950747485
 20
-67.5902806113123
 30
0.0
 10
3.845267272982168
 20
-67.71145291357892
 30
0.0
 10
3.648358655971132
 20
-67.88854510894542
 30
0.0
 10
3.56584320438079
 20
-68.04389692952194
 30
0.0
 10
3.524236558179496
 20
-68.12222975217367
 30
0.0
 11
4.336600558179498
 21
-67.56091375217375
 31
0.0
 11
4.082758558179535
 21
-67.60556575217368
 31
0.0
 11
3.852332558179512
 21
-67.72005675217372
 31
0.0
 11
3.661654558179521
 21
-67.8965307521737
 31
0.0
 11
3.524236558179496
 21
-68.12222975217367
 31
0.0
  0
SPLINE
  5
5A81
330
1F
100
AcDbEntity
  8
AM_0
100
AcDbSpline
210
0.0
220
0.0
230
1.0
 70
     8
 71
     3
 72
    11
 73
     7
 74
     5
 42
0.0000000001
 43
0.0000000001
 44
0.0000000001
 40
0.0
 40
0.0
 40
0.0
 40
0.0
 40
0.0664331566388719
 40
0.1329682307727476
 40
0.1995749830130779
 40
0.2662192038427198
 40
0.2662192038427198
 40
0.2662192038427198
 40
0.2662192038427198
 10
13.4131265581795
 20
-67.84143475217365
 30
0.0
 10
13.43286432570079
 20
-67.85149030982187
 30
0.0
 10
13.47237014116243
 20
-67.87161685171091
 30
0.0
 10
13.52924028136094
 20
-67.90622863899958
 30
0.0
 10
13.58436617360986
 20
-67.94368034046185
 30
0.0
 10
13.61913917073851
 20
-67.97133868920344
 30
0.0
 10
13.63653055817952
 20
-67.98517175217364
 30
0.0
 11
13.4131265581795
 21
-67.84143475217365
 31
0.0
 11
13.47193655817949
 21
-67.87233375217375
 31
0.0
 11
13.52891955817955
 21
-67.90668275217365
 31
0.0
 11
13.58385755817955
 21
-67.94434275217373
 31
0.0
 11
13.63653055817952
 21
-67.98517175217364
 31
0.0
  0
SPLINE
  5
5A82
330
1F
100
AcDbEntity
  8
AM_0
100
AcDbSpline
210
0.0
220
0.0
230
1.0
 70
     8
 71
     3
 72
    11
 73
     7
 74
     5
 42
0.0000000001
 43
0.0000000001
 44
0.0000000001
 40
0.0
 40
0.0
 40
0.0
 40
0.0
 40
0.0234891127972103
 40
0.0473721380034203
 40
0.0716549511847452
 40
0.0963455779487898
 40
0.0963455779487898
 40
0.0963455779487898
 40
0.0963455779487898
 10
13.60925655817954
 20
-67.93720175217368
 30
0.0
 10
13.60218502910634
 20
-67.93383849316621
 30
0.0
 10
13.58792338142118
 20
-67.92705557329953
 30
0.0
 10
13.56591190542316
 20
-67.9177664375672
 30
0.0
 10
13.54327198299948
 20
-67.90896436493628
 30
0.0
 10
13.52782524269021
 20
-67.90367862829352
 30
0.0
 10
13.52003755817952
 20
-67.90101375217364
 30
0.0
 11
13.60925655817954
 21
-67.93720175217368
 31
0.0
 11
13.58797055817951
 21
-67.92726975217374
 31
0.0
 11
13.56599255817952
 21
-67.9179227521737
 31
0.0
 11
13.54334255817952
 21
-67.90916875217374
 31
0.0
 11
13.52003755817952
 21
-67.90101375217364
 31
0.0
  0
SPLINE
  5
5A83
330
1F
100
AcDbEntity
  8
AM_0
100
AcDbSpline
210
0.0
220
0.0
230
1.0
 70
     8
 71
     3
 72
    11
 73
     7
 74
     5
 42
0.0000000001
 43
0.0000000001
 44
0.0000000001
 40
0.0
 40
0.0
 40
0.0
 40
0.0
 40
0.0664318062752949
 40
0.1329673966687189
 40
0.1995741489090492
 40
0.2662191601026547
 40
0.2662191601026547
 40
0.2662191601026547
 40
0.2662191601026547
 10
13.78872655817952
 20
-68.02483275217367
 30
0.0
 10
13.80846405280678
 20
-68.03488787181556
 30
0.0
 10
13.84796987726794
 20
-68.05501381986574
 30
0.0
 10
13.90483899159268
 20
-68.0896268003024
 30
0.0
 10
13.9599653318281
 20
-68.12707854898451
 30
0.0
 10
13.99473882136645
 20
-68.15473670406108
 30
0.0
 10
14.01213055817954
 20
-68.16856975217365
 30
0.0
 11
13.78872655817952
 21
-68.02483275217367
 31
0.0
 11
13.84753555817952
 21
-68.05573075217365
 31
0.0
 11
13.90451855817952
 21
-68.09008075217366
 31
0.0
 11
13.95945655817951
 21
-68.12774075217374
 31
0.0
 11
14.01213055817954
 21
-68.16856975217365
 31
0.0
  0
SPLINE
  5
5A84
330
1F
100
AcDbEntity
  8
AM_0
100
AcDbSpline
210
0.0
220
0.0
230
1.0
 70
     8
 71
     3
 72
    11
 73
     7
 74
     5
 42
0.0000000001
 43
0.0000000001
 44
0.0000000001
 40
0.0
 40
0.0
 40
0.0
 40
0.0
 40
0.0234895962076799
 40
0.0473717011818744
 40
0.0716558076304044
 40
0.0963461041251185
 40
0.0963461041251185
 40
0.0963461041251185
 40
0.0963461041251185
 10
13.9848565581795
 20
-68.12059875217369
 30
0.0
 10
13.97778463805345
 20
-68.11723594974461
 30
0.0
 10
13.96352262673442
 20
-68.11045415279943
 30
0.0
 10
13.94151122609579
 20
-68.10116418646473
 30
0.0
 10
13.91887162030611
 20
-68.09236118614695
 30
0.0
 10
13.90342428523681
 20
-68.0870761746618
 30
0.0
 10
13.89563655817955
 20
-68.08441175217365
 30
0.0
 11
13.9848565581795
 21
-68.12059875217369
 31
0.0
 11
13.96356955817953
 21
-68.11066775217364
 31
0.0
 11
13.94159255817954
 21
-68.10132075217371
 31
0.0
 11
13.91894155817948
 21
-68.09256575217364
 31
0.0
 11
13.89563655817955
 21
-68.08441175217365
 31
0.0
  0
SPLINE
  5
5A85
330
1F
100
AcDbEntity
  8
AM_0
100
AcDbSpline
210
0.0
220
0.0
230
1.0
 70
     8
 71
     3
 72
    11
 73
     7
 74
     5
 42
0.0000000001
 43
0.0000000001
 44
0.0000000001
 40
0.0
 40
0.0
 40
0.0
 40
0.0
 40
0.1022060059927882
 40
0.2100878711694755
 40
0.3236341863892849
 40
0.4426163495314794
 40
0.4426163495314794
 40
0.4426163495314794
 40
0.4426163495314794
 10
13.04267155817951
 20
-67.66054975217367
 30
0.0
 10
13.01141729451632
 20
-67.64686430760722
 30
0.0
 10
12.94717310794247
 20
-67.61873341757733
 30
0.0
 10
12.84226942006979
 20
-67.59199828240008
 30
0.0
 10
12.7299463676935
 20
-67.57438558933613
 30
0.0
 10
12.6523881904873
 20
-67.57227679706323
 30
0.0
 10
12.61270255817954
 20
-67.5711977521737
 30
0.0
 11
13.04267155817951
 21
-67.66054975217367
 31
0.0
 11
12.94799655817951
 21
-67.62204375217368
 31
0.0
 11
12.84379955817951
 21
-67.59408875217366
 31
0.0
 11
12.73154155817952
 21
-67.57703275217375
 31
0.0
 11
12.61270255817954
 21
-67.5711977521737
 31
0.0
  0
SPLINE
  5
5A86
330
1F
100
AcDbEntity
  8
AM_0
100
AcDbSpline
210
0.0
220
0.0
230
1.0
 70
     8
 71
     3
 72
    11
 73
     7
 74
     5
 42
0.0000000001
 43
0.0000000001
 44
0.0000000001
 40
0.0
 40
0.0
 40
0.0
 40
0.0
 40
0.0722043158405144
 40
0.1465747079666627
 40
0.2243619555076304
 40
0.3065638020866327
 40
0.3065638020866327
 40
0.3065638020866327
 40
0.3065638020866327
 10
13.83102455817954
 20
-68.14173975217364
 30
0.0
 10
13.81874698735997
 20
-68.12095919092361
 30
0.0
 10
13.79382352764058
 20
-68.07877466689415
 30
0.0
 10
13.74199592843438
 20
-68.02414829949477
 30
0.0
 10
13.68062722670495
 20
-67.97527283896386
 30
0.0
 10
13.6334804235621
 20
-67.95012343135124
 30
0.0
 10
13.60925655817954
 20
-67.93720175217368
 30
0.0
 11
13.83102455817954
 21
-68.14173975217364
 31
0.0
 11
13.79202355817949
 21
-68.08097475217369
 31
0.0
 11
13.74166355817948
 21
-68.02624975217373
 31
0.0
 11
13.68054155817953
 21
-67.97813575217367
 31
0.0
 11
13.60925655817954
 21
-67.93720175217368
 31
0.0
  0
SPLINE
  5
5A87
330
1F
100
AcDbEntity
  8
AM_0
100
AcDbSpline
210
0.0
220
0.0
230
1.0
 70
     8
 71
     3
 72
    11
 73
     7
 74
     5
 42
0.0000000001
 43
0.0000000001
 44
0.0000000001
 40
0.0
 40
0.0
 40
0.0
 40
0.0
 40
0.0722040144312796
 40
0.1465744652635628
 40
0.2243624985656486
 40
0.3065634779515306
 40
0.3065634779515306
 40
0.3065634779515306
 40
0.3065634779515306
 10
14.2066245581795
 20
-68.32513675217365
 30
0.0
 10
14.19434642459895
 20
-68.30435671028054
 30
0.0
 10
14.16942175970075
 20
-68.26217313430308
 30
0.0
 10
14.11759637719175
 20
-68.20754452525412
 30
0.0
 10
14.05622635312016
 20
-68.15867054185088
 30
0.0
 10
14.00907996639078
 20
-68.13352058420993
 30
0.0
 10
13.9848565581795
 20
-68.12059875217369
 30
0.0
 11
14.2066245581795
 21
-68.32513675217365
 31
0.0
 11
14.16762255817952
 21
-68.2643727521737
 31
0.0
 11
14.1172635581795
 21
-68.20964675217374
 31
0.0
 11
14.05614055817949
 21
-68.16153275217368
 31
0.0
 11
13.9848565581795
 21
-68.12059875217369
 31
0.0
  0
SPLINE
  5
5A8A
330
1F
100
AcDbEntity
  8
AM_0
100
AcDbSpline
210
0.0
220
0.0
230
1.0
 70
     8
 71
     3
 72
    11
 73
     7
 74
     5
 42
0.0000000001
 43
0.0000000001
 44
0.0000000001
 40
0.0
 40
0.0
 40
0.0
 40
0.0
 40
0.0018961925007851
 40
0.003788841966483
 40
0.0056818588707879
 40
0.0075781900654824
 40
0.0075781900654824
 40
0.0075781900654824
 40
0.0075781900654824
 10
24.48727555817953
 20
-61.64783175217372
 30
0.0
 10
24.48790478252684
 20
-61.64777064527357
 30
0.0
 10
24.48916205551595
 20
-61.6476485456515
 30
0.0
 10
24.49105544399177
 20
-61.64757513326477
 30
0.0
 10
24.49295029962034
 20
-61.64757746538029
 30
0.0
 10
24.49421143764865
 20
-61.64765230142454
 30
0.0
 10
24.49484255817953
 20
-61.64768975217373
 30
0.0
 11
24.48727555817953
 21
-61.64783175217372
 31
0.0
 11
24.48916455817954
 21
-61.64766675217368
 31
0.0
 11
24.49105555817954
 21
-61.64758775217365
 31
0.0
 11
24.49294855817954
 21
-61.64759575217374
 31
0.0
 11
24.49484255817953
 21
-61.64768975217373
 31
0.0
  0
SPLINE
  5
5A8C
330
1F
100
AcDbEntity
  8
AM_0
100
AcDbSpline
210
0.0
220
0.0
230
1.0
 70
     8
 71
     3
 72
    11
 73
     7
 74
     5
 42
0.0000000001
 43
0.0000000001
 44
0.0000000001
 40
0.0
 40
0.0
 40
0.0
 40
0.0
 40
0.6686687445963179
 40
1.321043414694721
 40
1.953452841458721
 40
2.564875577611907
 40
2.564875577611907
 40
2.564875577611907
 40
2.564875577611907
 10
30.07622755817948
 20
-62.05304175217373
 30
0.0
 10
30.2981471039518
 20
-62.07970702882755
 30
0.0
 10
30.73657847509592
 20
-62.132387804487
 30
0.0
 10
31.35454468058573
 20
-62.34998525274735
 30
0.0
 10
31.91517829906901
 20
-62.65346752423977
 30
0.0
 10
32.21965692113314
 20
-62.93708747882349
 30
0.0
 10
32.36932755817952
 20
-63.07650475217372
 30
0.0
 11
30.07622755817948
 21
-62.05304175217373
 31
0.0
 11
30.7367275581795
 21
-62.15724175217372
 31
0.0
 11
31.35400855817949
 21
-62.36832675217374
 31
0.0
 11
31.90502655817949
 21
-62.6786827521737
 31
0.0
 11
32.36932755817952
 21
-63.07650475217372
 31
0.0
  0
SPLINE
  5
5A8E
330
1F
100
AcDbEntity
  8
AM_0
100
AcDbSpline
210
0.0
220
0.0
230
1.0
 70
     8
 71
     3
 72
    11
 73
     7
 74
     5
 42
0.0000000001
 43
0.0000000001
 44
0.0000000001
 40
0.0
 40
0.0
 40
0.0
 40
0.0
 40
0.2768912344802008
 40
0.5609407965376752
 40
0.85240080345795
 40
1.151320482263173
 40
1.151320482263173
 40
1.151320482263173
 40
1.151320482263173
 10
32.36932755817952
 20
-63.07650475217372
 30
0.0
 10
32.40149213806816
 20
-63.16311222478152
 30
0.0
 10
32.4666528322913
 20
-63.33856618872493
 30
0.0
 10
32.52987444906565
 20
-63.61624550563174
 30
0.0
 10
32.57115788789957
 20
-63.90529400197148
 30
0.0
 10
32.57611479063571
 20
-64.10218191753924
 30
0.0
 10
32.57862455817951
 20
-64.20186975217371
 30
0.0
 11
32.36932755817952
 21
-63.07650475217372
 31
0.0
 11
32.46008155817953
 21
-63.33810075217366
 31
0.0
 11
32.52554555817955
 21
-63.61450375217373
 31
0.0
 11
32.56522055817953
 21
-63.90325075217368
 31
0.0
 11
32.57862455817951
 21
-64.20186975217371
 31
0.0
  0
SPLINE
  5
5A8F
330
1F
100
AcDbEntity
  8
AM_0
100
AcDbSpline
210
0.0
220
0.0
230
1.0
 70
     8
 71
     3
 72
    11
 73
     7
 74
     5
 42
0.0000000001
 43
0.0000000001
 44
0.0000000001
 40
0.0
 40
0.0
 40
0.0
 40
0.0
 40
0.7057165530388899
 40
1.42473077716658
 40
2.166502729578528
 40
2.934629542443451
 40
2.934629542443451
 40
2.934629542443451
 40
2.934629542443451
 10
3.400485558179526
 20
-63.84296975217376
 30
0.0
 10
3.536542541351849
 20
-63.64900921668595
 30
0.0
 10
3.811220201298082
 20
-63.25743338744513
 30
0.0
 10
4.416430566499527
 20
-62.8409439996417
 30
0.0
 10
5.117506699569033
 20
-62.56783428675545
 30
0.0
 10
5.622579304976155
 20
-62.53590371012767
 30
0.0
 10
5.879523558179528
 20
-62.51965975217365
 30
0.0
 11
3.400485558179526
 21
-63.84296975217376
 31
0.0
 11
3.838913558179513
 21
-63.28996275217367
 31
0.0
 11
4.422526558179527
 21
-62.86998975217375
 31
0.0
 11
5.116494558179511
 21
-62.60800875217365
 31
0.0
 11
5.879523558179528
 21
-62.51965975217365
 31
0.0
  0
SPLINE
  5
5A90
330
1F
100
AcDbEntity
  8
AM_0
100
AcDbSpline
210
0.0
220
0.0
230
1.0
 70
     8
 71
     3
 72
    11
 73
     7
 74
     5
 42
0.0000000001
 43
0.0000000001
 44
0.0000000001
 40
0.0
 40
0.0
 40
0.0
 40
0.0
 40
1.03054814508496
 40
2.144310208143758
 40
3.288930263297419
 40
4.439403995999312
 40
4.439403995999312
 40
4.439403995999312
 40
4.439403995999312
 10
19.88463055817954
 20
-60.1650407521737
 30
0.0
 10
19.54462060503539
 20
-60.22088993578766
 30
0.0
 10
18.83714583359967
 20
-60.33709797042542
 30
0.0
 10
17.82173041606411
 20
-60.77770263638737
 30
0.0
 10
16.89476593802131
 20
-61.46688011425925
 30
0.0
 10
16.46232067124294
 20
-62.1036458454259
 30
0.0
 10
16.24554655817951
 20
-62.42284075217367
 30
0.0
 11
19.88463055817954
 21
-60.1650407521737
 31
0.0
 11
18.87509755817951
 21
-60.37209775217366
 31
0.0
 11
17.85147555817952
 21
-60.81103275217367
 31
0.0
 11
16.94402755817953
 21
-61.50866675217367
 31
0.0
 11
16.24554655817951
 21
-62.42284075217367
 31
0.0
  0
SPLINE
  5
5A91
330
1F
100
AcDbEntity
  8
AM_0
100
AcDbSpline
210
0.0
220
0.0
230
1.0
 70
     8
 71
     3
 72
    11
 73
     7
 74
     5
 42
0.0000000001
 43
0.0000000001
 44
0.0000000001
 40
0.0
 40
0.0
 40
0.0
 40
0.0
 40
0.954689227887854
 40
1.901263627717566
 40
2.81507314555486
 40
3.666937803939633
 40
3.666937803939633
 40
3.666937803939633
 40
3.666937803939633
 10
26.72307355817952
 20
-61.80884675217374
 30
0.0
 10
26.50419335916257
 20
-61.57601649711665
 30
0.0
 10
26.06829343585538
 20
-61.11233503676162
 30
0.0
 10
25.25460097623427
 20
-60.62434580465874
 30
0.0
 10
24.40219728588269
 20
-60.30735562879566
 30
0.0
 10
23.82006653464651
 20
-60.21313587900399
 30
0.0
 10
23.53921255817949
 20
-60.16767875217374
 30
0.0
 11
26.72307355817952
 21
-61.80884675217374
 31
0.0
 11
26.03777555817953
 21
-61.14416775217364
 31
0.0
 11
25.23297855817953
 21
-60.64586575217368
 31
0.0
 11
24.37543955817949
 21
-60.33015275217372
 31
0.0
 11
23.53921255817949
 21
-60.16767875217374
 31
0.0
  0
SPLINE
  5
5A92
330
1F
100
AcDbEntity
  8
AM_0
100
AcDbSpline
210
0.0
220
0.0
230
1.0
 70
     8
 71
     3
 72
    11
 73
     7
 74
     5
 42
0.0000000001
 43
0.0000000001
 44
0.0000000001
 40
0.0
 40
0.0
 40
0.0
 40
0.0
 40
0.1175534366702582
 40
0.2349309943761361
 40
0.3525819290473774
 40
0.4699949369979435
 40
0.4699949369979435
 40
0.4699949369979435
 40
0.4699949369979435
 10
2.699869558179501
 20
-70.01099075217371
 30
0.0
 10
2.68530304518986
 20
-70.04740873283282
 30
0.0
 10
2.656191813071243
 20
-70.12019020695867
 30
0.0
 10
2.627083060540841
 20
-70.2343234527618
 30
0.0
 10
2.607965812394363
 20
-70.35051428837721
 30
0.0
 10
2.605652862544917
 20
-70.42891504943556
 30
0.0
 10
2.604497558179503
 20
-70.46807575217372
 30
0.0
 11
2.699869558179501
 21
-70.01099075217371
 31
0.0
 11
2.658602558179496
 21
-70.12106275217366
 31
0.0
 11
2.628765558179509
 21
-70.23458475217365
 31
0.0
 11
2.610567558179525
 21
-70.35081975217372
 31
0.0
 11
2.604497558179503
 21
-70.46807575217372
 31
0.0
  0
SPLINE
  5
5A93
330
1F
100
AcDbEntity
  8
AM_0
100
AcDbSpline
210
0.0
220
0.0
230
1.0
 70
     8
 71
     3
 72
    11
 73
     7
 74
     5
 42
0.0000000001
 43
0.0000000001
 44
0.0000000001
 40
0.0
 40
0.0
 40
0.0
 40
0.0
 40
0.4600538837854181
 40
0.8796471964227763
 40
1.270436836302112
 40
1.646771367134689
 40
1.646771367134689
 40
1.646771367134689
 40
1.646771367134689
 10
13.31195155817949
 20
-70.48756375217374
 30
0.0
 10
13.42914867501148
 20
-70.38812116332349
 30
0.0
 10
13.65323571977639
 20
-70.19798170885917
 30
0.0
 10
14.02486954253929
 20
-69.99065482348971
 30
0.0
 10
14.40121649561511
 20
-69.85626519597184
 30
0.0
 10
14.6573473159639
 20
-69.83827792055782
 30
0.0
 10
14.78299955817948
 20
-69.82945375217366
 30
0.0
 11
13.31195155817949
 21
-70.48756375217374
 31
0.0
 11
13.67263255817949
 21
-70.20197875217366
 31
0.0
 11
14.03864155817951
 21
-69.99680575217371
 31
0.0
 11
14.40913555817951
 21
-69.87250475217365
 31
0.0
 11
14.78299955817948
 21
-69.82945375217366
 31
0.0
  0
LINE
  5
5A94
330
1F
100
AcDbEntity
  8
AM_0
100
AcDbLine
 10
14.07210655817954
 20
-70.08367475217369
 30
0.0
 11
14.14447055817954
 21
-70.0691267521737
 31
0.0
  0
LINE
  5
5A95
330
1F
100
AcDbEntity
  8
AM_0
100
AcDbLine
 10
14.07210655817954
 20
-70.08367475217369
 30
0.0
 11
13.87176055817952
 21
-70.08926575217367
 31
0.0
  0
SPLINE
  5
5A96
330
1F
100
AcDbEntity
  8
AM_0
100
AcDbSpline
210
0.0
220
0.0
230
1.0
 70
     8
 71
     3
 72
    11
 73
     7
 74
     5
 42
0.0000000001
 43
0.0000000001
 44
0.0000000001
 40
0.0
 40
0.0
 40
0.0
 40
0.0
 40
0.0869326208336458
 40
0.1666581994706151
 40
0.2296410039254909
 40
0.2615790544922128
 40
0.2615790544922128
 40
0.2615790544922128
 40
0.2615790544922128
 10
13.63653055817952
 20
-67.98517175217364
 30
0.0
 10
13.65850471869272
 20
-68.00408520726782
 30
0.0
 10
13.70063129892107
 20
-68.040344120683
 30
0.0
 10
13.75643231113655
 20
-68.09254238369942
 30
0.0
 10
13.79652082326427
 20
-68.13545815907848
 30
0.0
 10
13.82356873771846
 20
-68.15205530511707
 30
0.0
 10
13.83266955817953
 20
-68.15763975217374
 30
0.0
 11
13.63653055817952
 21
-67.98517175217364
 31
0.0
 11
13.70200955817955
 21
-68.04235375217365
 31
0.0
 11
13.75990155817948
 21
-68.09716875217373
 31
0.0
 11
13.80596255817949
 21
-68.14012475217373
 31
0.0
 11
13.83266955817953
 21
-68.15763975217374
 31
0.0
  0
SPLINE
  5
5A97
330
1F
100
AcDbEntity
  8
AM_0
100
AcDbSpline
210
0.0
220
0.0
230
1.0
 70
     8
 71
     3
 72
    11
 73
     7
 74
     5
 42
0.0000000001
 43
0.0000000001
 44
0.0000000001
 40
0.0
 40
0.0
 40
0.0
 40
0.0
 40
0.0869312098443338
 40
0.1666575146251642
 40
0.2296403190800401
 40
0.2615789180631263
 40
0.2615789180631263
 40
0.2615789180631263
 40
0.2615789180631263
 10
14.01213055817954
 20
-68.16856975217365
 30
0.0
 10
14.03410433634904
 20
-68.18748291940295
 30
0.0
 10
14.07623069422684
 20
-68.22374172046841
 30
0.0
 10
14.13203215311651
 20
-68.27593925092616
 30
0.0
 10
14.17212120738149
 20
-68.31885489686594
 30
0.0
 10
14.19916875683945
 20
-68.33545293973126
 30
0.0
 10
14.20826955817955
 20
-68.34103775217375
 30
0.0
 11
14.01213055817954
 21
-68.16856975217365
 31
0.0
 11
14.07760855817952
 21
-68.22575075217367
 31
0.0
 11
14.1355015581795
 21
-68.28056575217374
 31
0.0
 11
14.18156255817951
 21
-68.32352175217375
 31
0.0
 11
14.20826955817955
 21
-68.34103775217375
 31
0.0
  0
SPLINE
  5
5A98
330
1F
100
AcDbEntity
  8
AM_0
100
AcDbSpline
210
0.0
220
0.0
230
1.0
 70
     8
 71
     3
 72
    11
 73
     7
 74
     5
 42
0.0000000001
 43
0.0000000001
 44
0.0000000001
 40
0.0
 40
0.0
 40
0.0
 40
0.0
 40
0.0024412998586764
 40
0.0055116542355938
 40
0.010657370998143
 40
0.0182303915976778
 40
0.0182303915976778
 40
0.0182303915976778
 40
0.0182303915976778
 10
13.83266955817953
 20
-68.15763975217374
 30
0.0
 10
13.83354108237558
 20
-68.15742104382555
 30
0.0
 10
13.83550869811499
 20
-68.15692727212051
 30
0.0
 10
13.83554275207479
 20
-68.15269177865424
 30
0.0
 10
13.83401673102093
 20
-68.14790539370466
 30
0.0
 10
13.83214125721607
 20
-68.14404081107705
 30
0.0
 10
13.83102455817954
 20
-68.14173975217364
 30
0.0
 11
13.83266955817953
 21
-68.15763975217374
 31
0.0
 11
13.83490155817952
 21
-68.15665075217373
 31
0.0
 11
13.83542155817952
 21
-68.15362475217376
 31
0.0
 11
13.8341455581795
 21
-68.14863975217372
 31
0.0
 11
13.83102455817954
 21
-68.14173975217364
 31
0.0
  0
SPLINE
  5
5A99
330
1F
100
AcDbEntity
  8
AM_0
100
AcDbSpline
210
0.0
220
0.0
230
1.0
 70
     8
 71
     3
 72
    11
 73
     7
 74
     5
 42
0.0000000001
 43
0.0000000001
 44
0.0000000001
 40
0.0
 40
0.0
 40
0.0
 40
0.0
 40
0.0024407910602356
 40
0.0055101598879619
 40
0.010655876650401
 40
0.0182293963738397
 40
0.0182293963738397
 40
0.0182293963738397
 40
0.0182293963738397
 10
14.20826955817955
 20
-68.34103775217375
 30
0.0
 10
14.20914067595412
 20
-68.34081859683664
 30
0.0
 10
14.2111072507656
 20
-68.34032384701254
 30
0.0
 10
14.21114193026618
 20
-68.33608967950414
 30
0.0
 10
14.20961534788203
 20
-68.33130324056124
 30
0.0
 10
14.20774075967362
 20
-68.32743816559163
 30
0.0
 10
14.2066245581795
 20
-68.32513675217365
 30
0.0
 11
14.20826955817955
 21
-68.34103775217375
 31
0.0
 11
14.21050055817949
 21
-68.34004775217375
 31
0.0
 11
14.21102055817954
 21
-68.33702275217365
 31
0.0
 11
14.20974455817952
 21
-68.33203775217373
 31
0.0
 11
14.2066245581795
 21
-68.32513675217365
 31
0.0
  0
SPLINE
  5
5A9B
330
1F
100
AcDbEntity
  8
AM_0
100
AcDbSpline
210
0.0
220
0.0
230
1.0
 70
     8
 71
     3
 72
    11
 73
     7
 74
     5
 42
0.0000000001
 43
0.0000000001
 44
0.0000000001
 40
0.0
 40
0.0
 40
0.0
 40
0.0
 40
0.0256373107014224
 40
0.047535074171695
 40
0.0621695447805259
 40
0.067562638605056
 40
0.067562638605056
 40
0.067562638605056
 40
0.067562638605056
 10
1.366905558179553
 20
-76.89730575217368
 30
0.0
 10
1.358338755176331
 20
-76.89731566069814
 30
0.0
 10
1.342454732826442
 20
-76.89733403245526
 30
0.0
 10
1.321979136621949
 20
-76.89907684772221
 30
0.0
 10
1.30760433205918
 20
-76.89925650995269
 30
0.0
 10
1.301604274919129
 20
-76.90228202950223
 30
0.0
 10
1.299988558179507
 20
-76.90309675217372
 30
0.0
 11
1.366905558179553
 21
-76.89730575217368
 31
0.0
 11
1.341271558179528
 21
-76.89771775217366
 31
0.0
 11
1.31940955817953
 21
-76.89896875217369
 31
0.0
 11
1.304898558179502
 21
-76.90086575217367
 31
0.0
 11
1.299988558179507
 21
-76.90309675217372
 31
0.0
  0
SPLINE
  5
5A9C
330
1F
100
AcDbEntity
  8
AM_0
100
AcDbSpline
210
0.0
220
0.0
230
1.0
 70
     8
 71
     3
 72
    11
 73
     7
 74
     5
 42
0.0000000001
 43
0.0000000001
 44
0.0000000001
 40
0.0
 40
0.0
 40
0.0
 40
0.0
 40
0.0531996111452015
 40
0.1041028509045365
 40
0.1527162949915161
 40
0.1990474940910877
 40
0.1990474940910877
 40
0.1990474940910877
 40
0.1990474940910877
 10
1.372761558179491
 20
-73.70028075217374
 30
0.0
 10
1.355028208071924
 20
-73.7003243258438
 30
0.0
 10
1.320326971304472
 20
-73.70040959231812
 30
0.0
 10
1.269427019427004
 20
-73.70123279406033
 30
0.0
 10
1.220825936537187
 20
-73.70250974981823
 30
0.0
 10
1.189207002801652
 20
-73.70388275263686
 30
0.0
 10
1.173777558179495
 20
-73.70455275217364
 30
0.0
 11
1.372761558179491
 21
-73.70028075217374
 31
0.0
 11
1.319562558179484
 21
-73.70053575217366
 31
0.0
 11
1.268665558179521
 21
-73.7013327521737
 31
0.0
 11
1.220070558179543
 21
-73.70267175217373
 31
0.0
 11
1.173777558179495
 21
-73.70455275217364
 31
0.0
  0
SPLINE
  5
5A9D
330
1F
100
AcDbEntity
  8
AM_0
100
AcDbSpline
210
0.0
220
0.0
230
1.0
 70
     8
 71
     3
 72
    11
 73
     7
 74
     5
 42
0.0000000001
 43
0.0000000001
 44
0.0000000001
 40
0.0
 40
0.0
 40
0.0
 40
0.0
 40
0.0889186580758031
 40
0.153553799724887
 40
0.1941826718849759
 40
0.2122420068949106
 40
0.2122420068949106
 40
0.2122420068949106
 40
0.2122420068949106
 10
1.173777558179495
 20
-73.70455275217364
 30
0.0
 10
1.144073256974153
 20
-73.70603756883469
 30
0.0
 10
1.092776842734923
 20
-73.70860170155027
 30
0.0
 10
1.029363224837046
 20
-73.71705067760712
 30
0.0
 10
0.9868619046321048
 20
-73.72052898565165
 30
0.0
 10
0.9707358214986155
 20
-73.73196859468573
 30
0.0
 10
0.9657735581794782
 20
-73.73548875217375
 30
0.0
 11
1.173777558179495
 21
-73.70455275217364
 31
0.0
 11
1.085050558179489
 21
-73.71038775217369
 31
0.0
 11
1.020806558179515
 21
-73.71748775217372
 31
0.0
 11
0.9810485581795092
 21
-73.72585475217375
 31
0.0
 11
0.9657735581794782
 21
-73.73548875217375
 31
0.0
  0
SPLINE
  5
5A9E
330
1F
100
AcDbEntity
  8
AM_0
100
AcDbSpline
210
0.0
220
0.0
230
1.0
 70
     8
 71
     3
 72
    11
 73
     7
 74
     5
 42
0.0000000001
 43
0.0000000001
 44
0.0000000001
 40
0.0
 40
0.0
 40
0.0
 40
0.0
 40
0.7992573408058398
 40
1.598515681609886
 40
2.397773022415726
 40
3.197030363221566
 40
3.197030363221566
 40
3.197030363221566
 40
3.197030363221566
 10
1.372761558179491
 20
-73.70028075217374
 30
0.0
 10
1.372273557972327
 20
-73.96669941884002
 30
0.0
 10
1.371297556947433
 20
-74.49953708550478
 30
0.0
 10
1.369833559444337
 20
-75.29879341884266
 30
0.0
 10
1.368369558015911
 20
-76.09804975217337
 30
0.0
 10
1.367393558125006
 20
-76.63088708550689
 30
0.0
 10
1.366905558179553
 20
-76.89730575217368
 30
0.0
 11
1.372761558179491
 21
-73.70028075217374
 31
0.0
 11
1.371297558179492
 21
-74.49953675217375
 31
0.0
 11
1.36983355817955
 21
-75.29879375217365
 31
0.0
 11
1.368369558179495
 21
-76.09804975217367
 31
0.0
 11
1.366905558179553
 21
-76.89730575217368
 31
0.0
  0
SPLINE
  5
5A9F
330
1F
100
AcDbEntity
  8
AM_0
100
AcDbSpline
210
0.0
220
0.0
230
1.0
 70
    24
 71
     3
 72
    11
 73
     7
 74
     5
 42
0.0000000001
 43
0.0000000001
 44
0.0000000001
 40
0.0
 40
0.0
 40
0.0
 40
0.0
 40
0.7992573408058399
 40
1.59851468161168
 40
2.397772022417519
 40
3.197029363223359
 40
3.197029363223359
 40
3.197029363223359
 40
3.197029363223359
 10
14.53432755817954
 20
-73.7203807521737
 30
0.0
 10
14.53383955817951
 20
-73.98679941884036
 30
0.0
 10
14.53286355817945
 20
-74.51963675217371
 30
0.0
 10
14.53139955817959
 20
-75.31889275217372
 30
0.0
 10
14.52993555817945
 20
-76.11814875217371
 30
0.0
 10
14.52895955817951
 20
-76.65098608550707
 30
0.0
 10
14.52847155817955
 20
-76.91740475217375
 30
0.0
 11
14.53432755817954
 21
-73.7203807521737
 31
0.0
 11
14.53286355817949
 21
-74.51963675217371
 31
0.0
 11
14.53139955817954
 21
-75.31889275217372
 31
0.0
 11
14.52993555817949
 21
-76.11814875217374
 31
0.0
 11
14.52847155817955
 21
-76.91740475217375
 31
0.0
  0
SPLINE
  5
5AA1
330
1F
100
AcDbEntity
  8
AM_0
100
AcDbSpline
210
0.0
220
0.0
230
1.0
 70
     8
 71
     3
 72
    11
 73
     7
 74
     5
 42
0.0000000001
 43
0.0000000001
 44
0.0000000001
 40
0.0
 40
0.0
 40
0.0
 40
0.0
 40
0.0249324303668244
 40
0.0460493540538055
 40
0.0600877283542808
 40
0.0652640306058931
 40
0.0652640306058931
 40
0.0652640306058931
 40
0.0652640306058931
 10
14.52847155817955
 20
-76.91740475217375
 30
0.0
 10
14.53680349304282
 20
-76.91743646840592
 30
0.0
 10
14.55219229440824
 20
-76.91749504721203
 30
0.0
 10
14.57197063443409
 20
-76.91924003366884
 30
0.0
 10
14.58581195145142
 20
-76.91943881234174
 30
0.0
 10
14.59154115105002
 20
-76.92239844689669
 30
0.0
 10
14.59308455817956
 20
-76.92319575217368
 30
0.0
 11
14.52847155817955
 21
-76.91740475217375
 31
0.0
 11
14.55339955817948
 21
-76.9178747521737
 31
0.0
 11
14.57447855817952
 21
-76.91913975217369
 31
0.0
 11
14.58839155817952
 21
-76.92101175217374
 31
0.0
 11
14.59308455817956
 21
-76.92319575217368
 31
0.0
  0
SPLINE
  5
5AA3
330
1F
100
AcDbEntity
  8
AM_0
100
AcDbSpline
210
0.0
220
0.0
230
1.0
 70
     8
 71
     3
 72
    11
 73
     7
 74
     5
 42
0.0000000001
 43
0.0000000001
 44
0.0000000001
 40
0.0
 40
0.0
 40
0.0
 40
0.0
 40
0.3458179214919109
 40
0.6965927541951957
 40
1.051236550854618
 40
1.408712921668129
 40
1.408712921668129
 40
1.408712921668129
 40
1.408712921668129
 10
19.6148545581795
 20
-62.27258275217366
 30
0.0
 10
19.72759288106781
 20
-62.24852809899517
 30
0.0
 10
19.95468550398716
 20
-62.20007399622187
 30
0.0
 10
20.29890024776164
 20
-62.13437249626942
 30
0.0
 10
20.64838975343206
 20
-62.07564141710568
 30
0.0
 10
20.88402985761007
 20
-62.04678323652492
 30
0.0
 10
21.00231855817953
 20
-62.03229675217369
 30
0.0
 11
19.6148545581795
 21
-62.27258275217366
 31
0.0
 11
19.9533155581795
 21
-62.20163075217374
 31
0.0
 11
20.29787255817951
 21
-62.13587775217366
 31
0.0
 11
20.64782755817953
 21
-62.07839975217371
 31
0.0
 11
21.00231855817953
 21
-62.03229675217369
 31
0.0
  0
SPLINE
  5
5AA4
330
1F
100
AcDbEntity
  8
AM_0
100
AcDbSpline
210
0.0
220
0.0
230
1.0
 70
     8
 71
     3
 72
    11
 73
     7
 74
     5
 42
0.0000000001
 43
0.0000000001
 44
0.0000000001
 40
0.0
 40
0.0
 40
0.0
 40
0.0
 40
0.6359823074299608
 40
1.444557165568049
 40
2.406289333975153
 40
3.489239158724662
 40
3.489239158724662
 40
3.489239158724662
 40
3.489239158724662
 10
16.15086855817953
 20
-62.42714975217371
 30
0.0
 10
16.36244441254186
 20
-62.44002313181592
 30
0.0
 10
16.84301346754495
 20
-62.46926346223076
 30
0.0
 10
17.64097019694464
 20
-62.56771146469502
 30
0.0
 10
18.59549351548976
 20
-62.491687922317
 30
0.0
 10
19.26189841538249
 20
-62.34844842928116
 30
0.0
 10
19.6148545581795
 20
-62.27258275217366
 30
0.0
 11
16.15086855817953
 21
-62.42714975217371
 31
0.0
 11
16.78529855817948
 21
-62.47155775217368
 31
0.0
 11
17.5912615581795
 21
-62.53649575217366
 31
0.0
 11
18.55104355817952
 21
-62.47528075217372
 31
0.0
 11
19.6148545581795
 21
-62.27258275217366
 31
0.0
  0
SPLINE
  5
5AA5
330
1F
100
AcDbEntity
  8
AM_0
100
AcDbSpline
210
0.0
220
0.0
230
1.0
 70
     8
 71
     3
 72
    11
 73
     7
 74
     5
 42
0.0000000001
 43
0.0000000001
 44
0.0000000001
 40
0.0
 40
0.0
 40
0.0
 40
0.0
 40
1.132764796374755
 40
2.296688285795401
 40
3.480746577528087
 40
4.673824265270634
 40
4.673824265270634
 40
4.673824265270634
 40
4.673824265270634
 10
16.15802655817953
 20
-62.42680475217367
 30
0.0
 10
15.78077737679979
 20
-62.44293307595392
 30
0.0
 10
15.01590211013049
 20
-62.47563336149792
 30
0.0
 10
13.85602572390404
 20
-62.50653954953323
 30
0.0
 10
12.67580224632577
 20
-62.52614226527713
 30
0.0
 10
11.88341462067991
 20
-62.52752617292114
 30
0.0
 10
11.48571755817949
 20
-62.52822075217375
 30
0.0
 11
16.15802655817953
 21
-62.42680475217367
 31
0.0
 11
15.02617155817956
 21
-62.47219575217366
 31
0.0
 11
13.8626945581795
 21
-62.50443175217367
 31
0.0
 11
12.67878455817953
 21
-62.52317075217366
 31
0.0
 11
11.48571755817949
 21
-62.52822075217375
 31
0.0
  0
SPLINE
  5
5AA6
330
1F
100
AcDbEntity
  8
AM_0
100
AcDbSpline
210
0.0
220
0.0
230
1.0
 70
     8
 71
     3
 72
    11
 73
     7
 74
     5
 42
0.0000000001
 43
0.0000000001
 44
0.0000000001
 40
0.0
 40
0.0
 40
0.0
 40
0.0
 40
0.3338391871740063
 40
0.6688426369965551
 40
1.006571609459617
 40
1.348779774623745
 40
1.348779774623745
 40
1.348779774623745
 40
1.348779774623745
 10
3.126576558179522
 20
-65.1540987521737
 30
0.0
 10
3.129648746083044
 20
-65.04275449675302
 30
0.0
 10
3.135803836131443
 20
-64.81967767332671
 30
0.0
 10
3.18835183205418
 20
-64.48755814857972
 30
0.0
 10
3.271160241250709
 20
-64.15861709885976
 30
0.0
 10
3.357188211613805
 20
-63.94864660560483
 30
0.0
 10
3.400485558179526
 20
-63.84296975217376
 30
0.0
 11
3.126576558179522
 21
-65.1540987521737
 31
0.0
 11
3.142958558179487
 21
-64.82066175217369
 31
0.0
 11
3.19311155817951
 21
-64.48943375217368
 31
0.0
 11
3.2783325581795
 21
-64.16263375217375
 31
0.0
 11
3.400485558179526
 21
-63.84296975217376
 31
0.0
  0
LINE
  5
5B9E
330
1F
100
AcDbEntity
  8
AM_0
100
AcDbLine
 10
15.1297285591923
 20
-73.72613808923848
 30
0.0
 11
15.51130355919219
 21
-72.58979908923845
 31
0.0
  0
LINE
  5
5B9F
330
1F
100
AcDbEntity
  8
AM_0
100
AcDbLine
 10
15.1297285591923
 20
-73.72613808923848
 30
0.0
 11
14.73681355919229
 21
-73.72553808923851
 31
0.0
  0
LINE
  5
5BA0
330
1F
100
AcDbEntity
  8
AM_0
100
AcDbLine
 10
1.175441559192279
 20
-73.7048280892385
 30
0.0
 11
0.7754105591922667
 21
-73.70421808923845
 31
0.0
  0
LINE
  5
5BA1
330
1F
100
AcDbEntity
  8
AM_0
100
AcDbLine
 10
0.7754105591922667
 20
-73.70421808923845
 30
0.0
 11
0.4014795591922962
 21
-72.56672408923851
 31
0.0
  0
LINE
  5
5BA3
330
1F
100
AcDbEntity
  8
AM_0
100
AcDbLine
 10
0.4084865591922267
 20
-70.48187608923854
 30
0.0
 11
15.51831055919223
 21
-70.50495108923849
 31
0.0
  0
LINE
  5
5BA6
330
1F
100
AcDbEntity
  8
AM_0
100
AcDbLine
 10
15.51130355919219
 20
-72.58979908923845
 30
0.0
 11
15.8203640151234
 21
-71.00609975217355
 31
0.0
  0
LINE
  5
5BA7
330
1F
100
AcDbEntity
  8
AM_0
100
AcDbLine
 10
14.92730855919223
 20
-73.75549508923848
 30
0.0
 11
15.1297285591923
 21
-73.72613808923848
 31
0.0
  0
LINE
  5
5BA8
330
1F
100
AcDbEntity
  8
AM_0
100
AcDbLine
 10
0.7754105591922667
 20
-73.70421808923845
 30
0.0
 11
0.9693555591922518
 21
-73.73471708923853
 31
0.0
  0
LINE
  5
5BAB
330
1F
100
AcDbEntity
  8
AM_0
100
AcDbLine
 10
2.604497559192225
 20
-70.46807508923848
 30
0.0
 11
2.6045075591922
 21
-70.48523008923849
 31
0.0
  0
LINE
  5
5BB3
330
1F
100
AcDbEntity
  8
AM_0
100
AcDbLine
 10
13.79402955919221
 20
-70.14023408923845
 30
0.0
 11
14.07210655919226
 21
-70.08367408923846
 31
0.0
  0
LINE
  5
5BB4
330
1F
100
AcDbEntity
  8
AM_0
100
AcDbLine
 10
0.9657705591922081
 20
-73.73545808923848
 30
0.0
 11
1.299987559192289
 21
-76.90308908923851
 31
0.0
  0
LINE
  5
5BB5
330
1F
100
AcDbEntity
  8
AM_0
100
AcDbLine
 10
14.52847155919227
 20
-76.91740508923851
 30
0.0
 11
1.366905559192276
 21
-76.89730508923844
 31
0.0
  0
LINE
  5
5BB6
330
1F
100
AcDbEntity
  8
AM_0
100
AcDbLine
 10
14.53432755919226
 20
-73.72038008923846
 30
0.0
 11
1.37276155919227
 21
-73.7002810892385
 31
0.0
  0
LINE
  5
5BB7
330
1F
100
AcDbEntity
  8
AM_0
100
AcDbLine
 10
14.59308555919228
 20
-76.92318908923846
 30
0.0
 11
14.92730255919224
 21
-73.75555708923855
 31
0.0
  0
LINE
  5
5BD9
330
1F
100
AcDbEntity
  8
AM_0
100
AcDbLine
 10
14.14439955919221
 20
-69.95570008923846
 30
0.0
 11
14.14473655919227
 21
-70.50285308923844
 31
0.0
  0
ARC
  5
5BF0
330
1F
100
AcDbEntity
  8
AM_0
100
AcDbCircle
 10
15.51114755919224
 20
-75.19566008923846
 30
0.0
 40
4.690714935427749
100
AcDbArc
 50
88.48442819568021
 51
89.91250590270316
  0
ARC
  5
5BF1
330
1F
100
AcDbEntity
  8
AM_0
100
AcDbCircle
 10
15.55615555919229
 20
-73.49454908923849
 30
0.0
 40
2.98900790307369
100
AcDbArc
 50
86.24349683155971
 51
88.48443190871758
  0
ARC
  5
5BF2
330
1F
100
AcDbEntity
  8
AM_0
100
AcDbCircle
 10
15.77366555919224
 20
-70.18175208923844
 30
0.0
 40
0.330922000299164
100
AcDbArc
 50
266.2434645585287
 51
286.265987592664
  0
ARC
  5
5BF3
330
1F
100
AcDbEntity
  8
AM_0
100
AcDbCircle
 10
15.87632155919226
 20
-70.5335850892385
 30
0.0
 40
0.0355829120786968
100
AcDbArc
 50
348.9565928523164
 51
106.2652286537934
  0
ARC
  5
5C0A
330
1F
100
AcDbEntity
  8
AM_0
100
AcDbCircle
 10
14.52727555919222
 20
-78.33795008923846
 30
0.0
 40
4.61757555658573
100
AcDbArc
 50
88.7109651531668
 51
89.91249736917767
  0
ARC
  5
5C0B
330
1F
100
AcDbEntity
  8
AM_0
100
AcDbCircle
 10
14.55329755919223
 20
-77.18151308923848
 30
0.0
 40
3.4608460588424
100
AcDbArc
 50
87.10788013727826
 51
88.71096851153601
  0
ARC
  5
5C0C
330
1F
100
AcDbEntity
  8
AM_0
100
AcDbCircle
 10
14.74744855919226
 20
-73.33846708923852
 30
0.0
 40
0.38710107812818
100
AcDbArc
 50
267.1077926916888
 51
270.4048092936539
  0
ARC
  5
5C0D
330
1F
100
AcDbEntity
  8
AM_0
100
AcDbCircle
 10
14.8812555591922
 20
-73.75069908923854
 30
0.0
 40
0.0463025525538295
100
AcDbArc
 50
353.9775219639717
 51
32.5036037709359
  0
ARC
  5
5C2B
330
1F
100
AcDbEntity
  8
AM_0
100
AcDbCircle
 10
12.61614255919227
 20
-13.00009508923847
 30
0.0
 40
58.0962402340424
100
AcDbArc
 50
273.4362229545748
 51
273.7111306152021
  0
LINE
  5
5C7A
330
1F
100
AcDbEntity
  8
AM_0
100
AcDbLine
 10
14.07210655919226
 20
-70.08367408923846
 30
0.0
 11
14.14447055919226
 21
-70.06912708923846
 31
0.0
  0
LINE
  5
5C7B
330
1F
100
AcDbEntity
  8
AM_0
100
AcDbLine
 10
14.07210655919226
 20
-70.08367408923846
 30
0.0
 11
13.8717605591923
 21
-70.08926608923855
 31
0.0
  0
SPLINE
  5
5C81
330
1F
100
AcDbEntity
  8
AM_0
100
AcDbSpline
210
0.0
220
0.0
230
1.0
 70
     8
 71
     3
 72
    11
 73
     7
 74
     5
 42
0.0000000001
 43
0.0000000001
 44
0.0000000001
 40
0.0
 40
0.0
 40
0.0
 40
0.0
 40
0.025636310830511
 40
0.047535129816979
 40
0.0621694708338997
 40
0.0675625646583827
 40
0.0675625646583827
 40
0.0675625646583827
 40
0.0675625646583827
 10
1.366905559192276
 20
-76.89730508923844
 30
0.0
 10
1.358339073124224
 20
-76.89731479317678
 30
0.0
 10
1.342455000333393
 20
-76.89733278632602
 30
0.0
 10
1.321979631679575
 20
-76.89907800021661
 30
0.0
 10
1.307604279802948
 20
-76.89925574960621
 30
0.0
 10
1.30160427286741
 20
-76.90228134174733
 30
0.0
 10
1.299988559192286
 20
-76.90309608923849
 30
0.0
 11
1.366905559192276
 21
-76.89730508923844
 31
0.0
 11
1.341272559192305
 21
-76.89771708923854
 31
0.0
 11
1.319409559192252
 21
-76.89896908923845
 31
0.0
 11
1.304898559192282
 21
-76.90086508923855
 31
0.0
 11
1.299988559192286
 21
-76.90309608923849
 31
0.0
  0
SPLINE
  5
5C82
330
1F
100
AcDbEntity
  8
AM_0
100
AcDbSpline
210
0.0
220
0.0
230
1.0
 70
     8
 71
     3
 72
    11
 73
     7
 74
     5
 42
0.0000000001
 43
0.0000000001
 44
0.0000000001
 40
0.0
 40
0.0
 40
0.0
 40
0.0
 40
0.0531996111452589
 40
0.1041028509045921
 40
0.1527162949915717
 40
0.1990464949155904
 40
0.1990464949155904
 40
0.1990464949155904
 40
0.1990464949155904
 10
1.37276155919227
 20
-73.7002810892385
 30
0.0
 10
1.355028209071148
 20
-73.70032466257102
 30
0.0
 10
1.320326972277189
 20
-73.7004099283848
 30
0.0
 10
1.26942702058896
 20
-73.70123313484712
 30
0.0
 10
1.220826269984654
 20
-73.70251006511953
 30
0.0
 10
1.189207670386989
 20
-73.70388308753653
 30
0.0
 10
1.173778559192272
 20
-73.70455308923852
 30
0.0
 11
1.37276155919227
 21
-73.7002810892385
 31
0.0
 11
1.319562559192207
 21
-73.70053608923854
 31
0.0
 11
1.268665559192243
 21
-73.70133308923846
 31
0.0
 11
1.220070559192266
 21
-73.70267208923849
 31
0.0
 11
1.173778559192272
 21
-73.70455308923852
 31
0.0
  0
SPLINE
  5
5C83
330
1F
100
AcDbEntity
  8
AM_0
100
AcDbSpline
210
0.0
220
0.0
230
1.0
 70
     8
 71
     3
 72
    11
 73
     7
 74
     5
 42
0.0000000001
 43
0.0000000001
 44
0.0000000001
 40
0.0
 40
0.0
 40
0.0
 40
0.0
 40
0.0889195903050049
 40
0.1535548418090395
 40
0.1941837139691284
 40
0.2122425155351063
 40
0.2122425155351063
 40
0.2122425155351063
 40
0.2122425155351063
 10
1.173778559192272
 20
-73.70455308923852
 30
0.0
 10
1.144073919783055
 20
-73.70603730724963
 30
0.0
 10
1.09277711117394
 20
-73.70860039667824
 30
0.0
 10
1.029363128943511
 20
-73.71705100460547
 30
0.0
 10
0.9868623665349732
 20
-73.72052971969214
 30
0.0
 10
0.9707358533643269
 20
-73.73196831551132
 30
0.0
 10
0.9657735591923142
 20
-73.73548808923852
 30
0.0
 11
1.173778559192272
 21
-73.70455308923852
 31
0.0
 11
1.085050559192212
 21
-73.71038708923845
 31
0.0
 11
1.020806559192295
 21
-73.71748808923849
 31
0.0
 11
0.9810485591922884
 21
-73.72585508923851
 31
0.0
 11
0.9657735591923142
 21
-73.73548808923852
 31
0.0
  0
SPLINE
  5
5C84
330
1F
100
AcDbEntity
  8
AM_0
100
AcDbSpline
210
0.0
220
0.0
230
1.0
 70
    24
 71
     3
 72
    11
 73
     7
 74
     5
 42
0.0000000001
 43
0.0000000001
 44
0.0000000001
 40
0.0
 40
0.0
 40
0.0
 40
0.0
 40
0.7992573408058399
 40
1.59851468161168
 40
2.397772022417519
 40
3.197029363223245
 40
3.197029363223245
 40
3.197029363223245
 40
3.197029363223245
 10
1.37276155919227
 20
-73.7002810892385
 30
0.0
 10
1.372273559192238
 20
-73.96669975590515
 30
0.0
 10
1.371297559192174
 20
-74.49953708923852
 30
0.0
 10
1.369833559192321
 20
-75.29879308923853
 30
0.0
 10
1.368369559192177
 20
-76.0980490892385
 30
0.0
 10
1.367393559192243
 20
-76.63088642257181
 30
0.0
 10
1.366905559192276
 20
-76.89730508923844
 30
0.0
 11
1.37276155919227
 21
-73.7002810892385
 31
0.0
 11
1.371297559192215
 21
-74.49953708923852
 31
0.0
 11
1.369833559192273
 21
-75.29879308923853
 31
0.0
 11
1.368369559192217
 21
-76.09804908923854
 31
0.0
 11
1.366905559192276
 21
-76.89730508923844
 31
0.0
  0
SPLINE
  5
5C85
330
1F
100
AcDbEntity
  8
AM_0
100
AcDbSpline
210
0.0
220
0.0
230
1.0
 70
     8
 71
     3
 72
    11
 73
     7
 74
     5
 42
0.0000000001
 43
0.0000000001
 44
0.0000000001
 40
0.0
 40
0.0
 40
0.0
 40
0.0
 40
0.7992573408058399
 40
1.59851468161168
 40
2.397773022415839
 40
3.197030363221679
 40
3.197030363221679
 40
3.197030363221679
 40
3.197030363221679
 10
14.53432755919226
 20
-73.72038008923846
 30
0.0
 10
14.53383955924674
 20
-73.98679875590523
 30
0.0
 10
14.53286355935571
 20
-74.51963608923877
 30
0.0
 10
14.53139955792757
 20
-75.31889242256951
 30
0.0
 10
14.52993556042421
 20
-76.11814875590743
 30
0.0
 10
14.52895955939939
 20
-76.65098642257223
 30
0.0
 10
14.52847155919227
 20
-76.91740508923851
 30
0.0
 11
14.53432755919226
 21
-73.72038008923846
 31
0.0
 11
14.53286355919221
 21
-74.51963608923848
 31
0.0
 11
14.53139955919227
 21
-75.31889208923849
 31
0.0
 11
14.52993555919221
 21
-76.1181490892385
 31
0.0
 11
14.52847155919227
 21
-76.91740508923851
 31
0.0
  0
SPLINE
  5
5C87
330
1F
100
AcDbEntity
  8
AM_0
100
AcDbSpline
210
0.0
220
0.0
230
1.0
 70
     8
 71
     3
 72
    11
 73
     7
 74
     5
 42
0.0000000001
 43
0.0000000001
 44
0.0000000001
 40
0.0
 40
0.0
 40
0.0
 40
0.0
 40
0.024932430366938
 40
0.0460493540537489
 40
0.0600885861197612
 40
0.0652639817567669
 40
0.0652639817567669
 40
0.0652639817567669
 40
0.0652639817567669
 10
14.52847155919227
 20
-76.91740508923851
 30
0.0
 10
14.53680351663562
 20
-76.91743669418044
 30
0.0
 10
14.55219235970559
 20
-76.91749506743724
 30
0.0
 10
14.57197073495956
 20
-76.91924129674506
 30
0.0
 10
14.58581255704226
 20
-76.91943754755535
 30
0.0
 10
14.59154149022204
 20
-76.92239776467007
 30
0.0
 10
14.59308455919228
 20
-76.92319508923845
 30
0.0
 11
14.52847155919227
 21
-76.91740508923851
 31
0.0
 11
14.55339955919231
 21
-76.91787508923846
 31
0.0
 11
14.57447855919219
 21
-76.91914008923845
 31
0.0
 11
14.5883925591923
 21
-76.92101108923851
 31
0.0
 11
14.59308455919228
 21
-76.92319508923845
 31
0.0
  0
LINE
  5
5CED
330
1F
100
AcDbEntity
  8
AM_0
100
AcDbLine
 10
2.604496558236292
 20
-70.4680757521669
 30
0.0
 11
2.604507193638483
 21
-70.48522974684158
 31
0.0
  0
LINE
  5
5CF0
330
1F
100
AcDbEntity
  8
AM_0
100
AcDbLine
 10
12.75587218070081
 20
-70.50073242556755
 30
0.0
 11
12.75564655823632
 21
-70.13430075216695
 31
0.0
  0
LINE
  5
5CF2
330
1F
100
AcDbEntity
  8
AM_0
100
AcDbLine
 10
13.2908225582363
 20
-68.39071275216691
 30
0.0
 11
12.8619215582363
 21
-69.37339075216687
 31
0.0
  0
LINE
  5
5CF4
330
1F
100
AcDbEntity
  8
AM_0
100
AcDbLine
 10
15.25094055823632
 20
-69.88932775216688
 30
0.0
 11
15.25060655823631
 21
-69.34763575216687
 31
0.0
  0
LINE
  5
5CF5
330
1F
100
AcDbEntity
  8
AM_0
100
AcDbLine
 10
3.524235558236285
 20
-68.12222975216696
 30
0.0
 11
2.700944558236301
 21
-70.00851875216688
 31
0.0
  0
LINE
  5
5CF7
330
1F
100
AcDbEntity
  8
AM_0
100
AcDbLine
 10
4.485428558236322
 20
-67.55878675216695
 30
0.0
 11
12.61270155823632
 21
-67.57119775216688
 31
0.0
  0
LINE
  5
5CF8
330
1F
100
AcDbEntity
  8
AM_0
100
AcDbLine
 10
13.41312655823629
 20
-67.84143475216695
 30
0.0
 11
13.04267155823629
 21
-67.66054975216696
 31
0.0
  0
LINE
  5
5CF9
330
1F
100
AcDbEntity
  8
AM_0
100
AcDbLine
 10
13.78872555823631
 20
-68.02483275216696
 30
0.0
 11
13.60925655823633
 21
-67.93720175216686
 31
0.0
  0
LINE
  5
5CFA
330
1F
100
AcDbEntity
  8
AM_0
100
AcDbLine
 10
14.16432555823627
 20
-68.20823075216686
 30
0.0
 11
14.14331727172635
 21
-68.19797289762209
 31
0.0
  0
LINE
  5
5CFB
330
1F
100
AcDbEntity
  8
AM_0
100
AcDbLine
 10
14.85142655823631
 20
-68.54372775216689
 30
0.0
 11
14.36045555823631
 21
-68.30399675216688
 31
0.0
  0
LINE
  5
5D05
330
1F
100
AcDbEntity
  8
AM_0
100
AcDbLine
 10
13.79402955823633
 20
-70.14023475216686
 30
0.0
 11
14.07210555823627
 21
-70.08367475216687
 31
0.0
  0
SPLINE
  5
5D12
330
1F
100
AcDbEntity
  8
AM_0
100
AcDbSpline
210
0.0
220
0.0
230
1.0
 70
     8
 71
     3
 72
    11
 73
     7
 74
     5
 42
0.0000000001
 43
0.0000000001
 44
0.0000000001
 40
0.0
 40
0.0
 40
0.0
 40
0.0
 40
0.1439757654781073
 40
0.3266145075510646
 40
0.5397636714950402
 40
0.7722499234800055
 40
0.7722499234800055
 40
0.7722499234800055
 40
0.7722499234800055
 10
12.8619215582363
 20
-69.37339075216687
 30
0.0
 10
12.84586324038222
 20
-69.41870085251659
 30
0.0
 10
12.80943433472165
 20
-69.52148854087281
 30
0.0
 10
12.7802992348154
 20
-69.69976425717888
 30
0.0
 10
12.75915221051085
 20
-69.90815046995741
 30
0.0
 10
12.75684843099254
 20
-70.05676771645378
 30
0.0
 10
12.75564655823632
 20
-70.13430075216695
 30
0.0
 11
12.8619215582363
 21
-69.37339075216687
 31
0.0
 11
12.81739955823633
 21
-69.5103097521669
 31
0.0
 11
12.78365855823631
 21
-69.68980475216688
 31
0.0
 11
12.76270755823629
 21
-69.90192175216691
 31
0.0
 11
12.75564655823632
 21
-70.13430075216695
 31
0.0
  0
SPLINE
  5
5D14
330
1F
100
AcDbEntity
  8
AM_0
100
AcDbSpline
210
0.0
220
0.0
230
1.0
 70
     8
 71
     3
 72
    11
 73
     7
 74
     5
 42
0.0000000001
 43
0.0000000001
 44
0.0000000001
 40
0.0
 40
0.0
 40
0.0
 40
0.0
 40
0.0364489893550262
 40
0.0734402400097572
 40
0.1109232070347505
 40
0.1488493138215282
 40
0.1488493138215282
 40
0.1488493138215282
 40
0.1488493138215282
 10
4.336600558236285
 20
-67.56091375216693
 30
0.0
 10
4.348745375327448
 20
-67.56056785681727
 30
0.0
 10
4.37321569118071
 20
-67.55987092014092
 30
0.0
 10
4.410184842305016
 20
-67.55921491549459
 30
0.0
 10
4.447649954927126
 20
-67.55881279198084
 30
0.0
 10
4.472786452441872
 20
-67.55879546604341
 30
0.0
 10
4.485428558236322
 20
-67.55878675216695
 30
0.0
 11
4.336600558236285
 21
-67.56091375216693
 31
0.0
 11
4.373036558236322
 21
-67.55994075216688
 31
0.0
 11
4.410021558236338
 21
-67.55926075216689
 31
0.0
 11
4.447502558236295
 21
-67.55887675216695
 31
0.0
 11
4.485428558236322
 21
-67.55878675216695
 31
0.0
  0
SPLINE
  5
5D15
330
1F
100
AcDbEntity
  8
AM_0
100
AcDbSpline
210
0.0
220
0.0
230
1.0
 70
     8
 71
     3
 72
    11
 73
     7
 74
     5
 42
0.0000000001
 43
0.0000000001
 44
0.0000000001
 40
0.0
 40
0.0
 40
0.0
 40
0.0
 40
0.2297982902329757
 40
0.4369137813581043
 40
0.6396581793398961
 40
0.858589200488094
 40
0.858589200488094
 40
0.858589200488094
 40
0.858589200488094
 10
13.2908225582363
 20
-68.39071275216691
 30
0.0
 10
13.31621408749423
 20
-68.31755731420267
 30
0.0
 10
13.36449081336237
 20
-68.17846742369281
 30
0.0
 10
13.33905192880229
 20
-67.95954660927276
 30
0.0
 10
13.22813027372528
 20
-67.77208396751547
 30
0.0
 10
13.10605316574122
 20
-67.69866722667848
 30
0.0
 10
13.04267155823629
 20
-67.66054975216696
 30
0.0
 11
13.2908225582363
 21
-68.39071275216691
 31
0.0
 11
13.34883555823632
 21
-68.16835775216691
 31
0.0
 11
13.32457755823629
 21
-67.96266775216691
 31
0.0
 11
13.21996055823632
 21
-67.78899975216689
 31
0.0
 11
13.04267155823629
 21
-67.66054975216696
 31
0.0
  0
SPLINE
  5
5D1A
330
1F
100
AcDbEntity
  8
AM_0
100
AcDbSpline
210
0.0
220
0.0
230
1.0
 70
     8
 71
     3
 72
    11
 73
     7
 74
     5
 42
0.0000000001
 43
0.0000000001
 44
0.0000000001
 40
0.0
 40
0.0
 40
0.0
 40
0.0
 40
0.0664318062753981
 40
0.1329673966687634
 40
0.1995735835060606
 40
0.266219207338379
 40
0.266219207338379
 40
0.266219207338379
 40
0.266219207338379
 10
14.16432555823627
 20
-68.20823075216686
 30
0.0
 10
14.18406306934618
 20
-68.21828584824571
 30
0.0
 10
14.22356892679833
 20
-68.23841174913299
 30
0.0
 10
14.28043763219359
 20
-68.27302498578059
 30
0.0
 10
14.33556493627948
 20
-68.31047538310891
 30
0.0
 10
14.37033792046489
 20
-68.33813423385769
 30
0.0
 10
14.38772955823629
 20
-68.35196775216696
 30
0.0
 11
14.16432555823627
 21
-68.20823075216686
 31
0.0
 11
14.22313455823633
 21
-68.23912875216695
 31
0.0
 11
14.28011755823633
 21
-68.27347875216685
 31
0.0
 11
14.33505555823632
 21
-68.31113775216693
 31
0.0
 11
14.38772955823629
 21
-68.35196775216696
 31
0.0
  0
SPLINE
  5
5D1B
330
1F
100
AcDbEntity
  8
AM_0
100
AcDbSpline
210
0.0
220
0.0
230
1.0
 70
     8
 71
     3
 72
    11
 73
     7
 74
     5
 42
0.0000000001
 43
0.0000000001
 44
0.0000000001
 40
0.0
 40
0.0
 40
0.0
 40
0.0
 40
0.0234900190080801
 40
0.0473721239823191
 40
0.0716558699248011
 40
0.0963461664195689
 40
0.0963461664195689
 40
0.0963461664195689
 40
0.0963461664195689
 10
14.36045555823631
 20
-68.30399675216688
 30
0.0
 10
14.35338366312498
 20
-68.30063356698109
 30
0.0
 10
14.33912183166844
 20
-68.2938510596727
 30
0.0
 10
14.31711042670169
 20
-68.2845609882347
 30
0.0
 10
14.29447039788919
 20
-68.27575943182447
 30
0.0
 10
14.27902324883878
 20
-68.27047427004126
 30
0.0
 10
14.2712355582363
 20
-68.26780975216695
 30
0.0
 11
14.36045555823631
 21
-68.30399675216688
 31
0.0
 11
14.33916855823628
 21
-68.29406475216695
 31
0.0
 11
14.31719155823629
 21
-68.2847177521669
 31
0.0
 11
14.29454055823629
 21
-68.27596375216695
 31
0.0
 11
14.2712355582363
 21
-68.26780975216695
 31
0.0
  0
SPLINE
  5
5D1C
330
1F
100
AcDbEntity
  8
AM_0
100
AcDbSpline
210
0.0
220
0.0
230
1.0
 70
     8
 71
     3
 72
    11
 73
     7
 74
     5
 42
0.0000000001
 43
0.0000000001
 44
0.0000000001
 40
0.0
 40
0.0
 40
0.0
 40
0.0
 40
0.2046217889888329
 40
0.4286262452682136
 40
0.6752022733812813
 40
0.9408060324095779
 40
0.9408060324095779
 40
0.9408060324095779
 40
0.9408060324095779
 10
14.85142655823631
 20
-68.54372775216689
 30
0.0
 10
14.90942633081572
 20
-68.58096721175463
 30
0.0
 10
15.03091986711003
 20
-68.65897361477649
 30
0.0
 10
15.154433116564
 20
-68.85380004582592
 30
0.0
 10
15.23607408934979
 20
-69.08748459092588
 30
0.0
 10
15.24564389428793
 20
-69.25879724859931
 30
0.0
 10
15.25060655823631
 20
-69.34763575216687
 30
0.0
 11
14.85142655823631
 21
-68.54372775216689
 31
0.0
 11
15.0156065582363
 21
-68.66585475216687
 31
0.0
 11
15.14262355823632
 21
-68.85036675216691
 31
0.0
 11
15.22301755823634
 21
-69.08346875216694
 31
0.0
 11
15.25060655823631
 21
-69.34763575216687
 31
0.0
  0
SPLINE
  5
5D1D
330
1F
100
AcDbEntity
  8
AM_0
100
AcDbSpline
210
0.0
220
0.0
230
1.0
 70
     8
 71
     3
 72
    11
 73
     7
 74
     5
 42
0.0000000001
 43
0.0000000001
 44
0.0000000001
 40
0.0
 40
0.0
 40
0.0
 40
0.0
 40
0.102206005992831
 40
0.2100888370133139
 40
0.3236351522331404
 40
0.4426173153753349
 40
0.4426173153753349
 40
0.4426173153753349
 40
0.4426173153753349
 10
13.04267155823629
 20
-67.66054975216696
 30
0.0
 10
13.01141730012442
 20
-67.64686428586555
 30
0.0
 10
12.94717282960964
 20
-67.61873322183145
 30
0.0
 10
12.84226871054932
 20
-67.59199843876715
 30
0.0
 10
12.72994537537167
 20
-67.57438556064491
 30
0.0
 10
12.65238719312383
 20
-67.57227678734708
 30
0.0
 10
12.61270155823632
 20
-67.57119775216688
 30
0.0
 11
13.04267155823629
 21
-67.66054975216696
 31
0.0
 11
12.9479965582363
 21
-67.62204375216686
 31
0.0
 11
12.8437985582363
 21
-67.59408875216695
 31
0.0
 11
12.7315405582363
 21
-67.57703275216693
 31
0.0
 11
12.61270155823632
 21
-67.57119775216688
 31
0.0
  0
SPLINE
  5
5D20
330
1F
100
AcDbEntity
  8
AM_0
100
AcDbSpline
210
0.0
220
0.0
230
1.0
 70
     8
 71
     3
 72
    11
 73
     7
 74
     5
 42
0.0000000001
 43
0.0000000001
 44
0.0000000001
 40
0.0
 40
0.0
 40
0.0
 40
0.0
 40
0.0722048559932498
 40
0.1465745709718439
 40
0.2243626042739297
 40
0.3065635836598117
 40
0.3065635836598117
 40
0.3065635836598117
 40
0.3065635836598117
 10
14.58222355823631
 20
-68.50853475216695
 30
0.0
 10
14.56994553446509
 20
-68.48775428996756
 30
0.0
 10
14.54502136500458
 20
-68.44557032201175
 30
0.0
 10
14.49319497486599
 20
-68.39094255502326
 30
0.0
 10
14.43182541011958
 20
-68.342068492086
 30
0.0
 10
14.38467898577431
 20
-68.3169185673149
 30
0.0
 10
14.36045555823631
 20
-68.30399675216688
 30
0.0
 11
14.58222355823631
 21
-68.50853475216695
 31
0.0
 11
14.54322155823633
 21
-68.44776975216689
 31
0.0
 11
14.49286255823631
 21
-68.39304475216693
 31
0.0
 11
14.4317395582363
 21
-68.34493075216687
 31
0.0
 11
14.36045555823631
 21
-68.30399675216688
 31
0.0
  0
SPLINE
  5
5D23
330
1F
100
AcDbEntity
  8
AM_0
100
AcDbSpline
210
0.0
220
0.0
230
1.0
 70
     8
 71
     3
 72
    11
 73
     7
 74
     5
 42
0.0000000001
 43
0.0000000001
 44
0.0000000001
 40
0.0
 40
0.0
 40
0.0
 40
0.0
 40
0.1175540219856943
 40
0.2349308667422182
 40
0.3525816467395915
 40
0.469994706392254
 40
0.469994706392254
 40
0.469994706392254
 40
0.469994706392254
 10
2.69986855823629
 20
-70.01099075216689
 30
0.0
 10
2.685302646623862
 20
-70.04740914374651
 30
0.0
 10
2.656192777117103
 20
-70.12019103716565
 30
0.0
 10
2.627081095973225
 20
-70.23432343350478
 30
0.0
 10
2.607966534443367
 20
-70.35051445886549
 30
0.0
 10
2.605652436888768
 20
-70.42891508328179
 30
0.0
 10
2.604496558236292
 20
-70.4680757521669
 30
0.0
 11
2.69986855823629
 21
-70.01099075216689
 31
0.0
 11
2.658602558236282
 21
-70.12106375216695
 31
0.0
 11
2.628764558236298
 21
-70.23458475216694
 31
0.0
 11
2.610567558236312
 21
-70.3508197521669
 31
0.0
 11
2.604496558236292
 21
-70.4680757521669
 31
0.0
  0
SPLINE
  5
5D25
330
1F
100
AcDbEntity
  8
AM_0
100
AcDbSpline
210
0.0
220
0.0
230
1.0
 70
     8
 71
     3
 72
    11
 73
     7
 74
     5
 42
0.0000000001
 43
0.0000000001
 44
0.0000000001
 40
0.0
 40
0.0
 40
0.0
 40
0.0
 40
0.1167435366262082
 40
0.2341539188928749
 40
0.3527497939728866
 40
0.4730327788128199
 40
0.4730327788128199
 40
0.4730327788128199
 40
0.4730327788128199
 10
14.78299855823633
 20
-69.82945375216696
 30
0.0
 10
14.82192614145792
 20
-69.82995967019789
 30
0.0
 10
14.90000366444361
 20
-69.83097439609195
 30
0.0
 10
15.0171249267208
 20
-69.84262545398099
 30
0.0
 10
15.13455058577462
 20
-69.86108763119003
 30
0.0
 10
15.21196165917623
 20
-69.8798701605744
 30
0.0
 10
15.25094055823632
 20
-69.88932775216688
 30
0.0
 11
14.78299855823633
 21
-69.82945375216696
 31
0.0
 11
14.89969855823631
 21
-69.83264175216687
 31
0.0
 11
15.01658855823632
 21
-69.84368375216695
 31
0.0
 11
15.13366955823631
 21
-69.86257875216688
 31
0.0
 11
15.25094055823632
 21
-69.88932775216688
 31
0.0
  0
SPLINE
  5
5D26
330
1F
100
AcDbEntity
  8
AM_0
100
AcDbSpline
210
0.0
220
0.0
230
1.0
 70
     8
 71
     3
 72
    11
 73
     7
 74
     5
 42
0.0000000001
 43
0.0000000001
 44
0.0000000001
 40
0.0
 40
0.0
 40
0.0
 40
0.0
 40
0.3002597969309803
 40
0.5994651011904042
 40
0.8976904144034071
 40
1.195010920970015
 40
1.195010920970015
 40
1.195010920970015
 40
1.195010920970015
 10
14.07210555823627
 20
-70.08367475216687
 30
0.0
 10
14.17029098236868
 20
-70.06424268168207
 30
0.0
 10
14.3663170098774
 20
-70.02544678486682
 30
0.0
 10
14.6611806886545
 20
-69.97438314008383
 30
0.0
 10
14.95586094619755
 20
-69.92822387273955
 30
0.0
 10
15.15268036279602
 20
-69.90227998693136
 30
0.0
 10
15.25094055823632
 20
-69.88932775216688
 30
0.0
 11
14.07210555823627
 21
-70.08367475216687
 31
0.0
 11
14.36688255823634
 21
-70.02655675216693
 31
0.0
 11
14.6616335582363
 21
-69.97512075216696
 31
0.0
 11
14.95632955823629
 21
-69.92937575216695
 31
0.0
 11
15.25094055823632
 21
-69.88932775216688
 31
0.0
  0
LINE
  5
5D27
330
1F
100
AcDbEntity
  8
AM_0
100
AcDbLine
 10
14.07210555823627
 20
-70.08367475216687
 30
0.0
 11
13.87175955823631
 21
-70.08926575216685
 31
0.0
  0
SPLINE
  5
5D2C
330
1F
100
AcDbEntity
  8
AM_0
100
AcDbSpline
210
0.0
220
0.0
230
1.0
 70
     8
 71
     3
 72
    11
 73
     7
 74
     5
 42
0.0000000001
 43
0.0000000001
 44
0.0000000001
 40
0.0
 40
0.0
 40
0.0
 40
0.0
 40
0.0869312098443018
 40
0.1666575146251322
 40
0.2296403190800081
 40
0.2615783696466824
 40
0.2615783696466824
 40
0.2615783696466824
 40
0.2615783696466824
 10
14.38772955823629
 20
-68.35196775216696
 30
0.0
 10
14.40970332419077
 20
-68.37088093789316
 30
0.0
 10
14.45182965865093
 20
-68.40713977441942
 30
0.0
 10
14.5076312708558
 20
-68.4593370727155
 30
0.0
 10
14.54771981055683
 20
-68.50225317246232
 30
0.0
 10
14.57476773456172
 20
-68.51885030848149
 30
0.0
 10
14.5838685582363
 20
-68.52443475216694
 30
0.0
 11
14.38772955823629
 21
-68.35196775216696
 31
0.0
 11
14.45320755823633
 21
-68.40914875216686
 31
0.0
 11
14.51110055823631
 21
-68.46396375216693
 31
0.0
 11
14.55716155823632
 21
-68.50691975216694
 31
0.0
 11
14.5838685582363
 21
-68.52443475216694
 31
0.0
  0
SPLINE
  5
5D2F
330
1F
100
AcDbEntity
  8
AM_0
100
AcDbSpline
210
0.0
220
0.0
230
1.0
 70
     8
 71
     3
 72
    11
 73
     7
 74
     5
 42
0.0000000001
 43
0.0000000001
 44
0.0000000001
 40
0.0
 40
0.0
 40
0.0
 40
0.0
 40
0.0024403856252619
 40
0.0055097544528665
 40
0.0106564399882722
 40
0.0182290485216262
 40
0.0182290485216262
 40
0.0182290485216262
 40
0.0182290485216262
 10
14.5838685582363
 20
-68.52443475216694
 30
0.0
 10
14.58473967603133
 20
-68.52421596580719
 30
0.0
 10
14.58670643288336
 20
-68.52372200325172
 30
0.0
 10
14.58674077064547
 20
-68.51948716203057
 30
0.0
 10
14.58521480743723
 20
-68.51470083169376
 30
0.0
 10
14.58333984386356
 20
-68.51083583291614
 30
0.0
 10
14.58222355823631
 20
-68.50853475216695
 30
0.0
 11
14.5838685582363
 21
-68.52443475216694
 31
0.0
 11
14.5860995582363
 21
-68.52344575216694
 31
0.0
 11
14.58661955823629
 21
-68.52042075216696
 31
0.0
 11
14.58534355823628
 21
-68.51543475216693
 31
0.0
 11
14.58222355823631
 21
-68.50853475216695
 31
0.0
  0
LINE
  5
5F25
330
1F
100
AcDbEntity
  8
AM_0
100
AcDbLine
 10
-53.73944816476745
 20
0.2191270000000145
 30
0.0
 11
-51.70635716476744
 21
0.591639999999984
 31
0.0
  0
LINE
  5
5F26
330
1F
100
AcDbEntity
  8
AM_0
100
AcDbLine
 10
-54.87694116476746
 20
0.3451820000000225
 30
0.0
 11
-53.73944816476745
 21
0.2191270000000145
 31
0.0
  0
LINE
  5
5F27
330
1F
100
AcDbEntity
  8
AM_0
100
AcDbLine
 10
-54.87694116476746
 20
0.3451820000000225
 30
0.0
 11
-54.90744116476742
 21
0.6937920000000304
 31
0.0
  0
LINE
  5
5F28
330
1F
100
AcDbEntity
  8
AM_0
100
AcDbLine
 10
-54.90744116476742
 20
0.6937920000000304
 30
0.0
 11
-54.92476116476746
 21
0.8917620000000284
 31
0.0
  0
LINE
  5
5F29
330
1F
100
AcDbEntity
  8
AM_0
100
AcDbLine
 10
-52.32893616476741
 20
7.707756000000018
 30
0.0
 11
-51.70635716476744
 21
0.591639999999984
 31
0.0
  0
LINE
  5
5F2A
330
1F
100
AcDbEntity
  8
AM_0
100
AcDbLine
 10
-53.73944816476745
 20
0.2191270000000145
 30
0.0
 11
-51.65460016476743
 21
0.0000610000000165
 31
0.0
  0
LINE
  5
5F2B
330
1F
100
AcDbEntity
  8
AM_0
100
AcDbLine
 10
-52.87633216476746
 20
13.96452399999998
 30
0.0
 11
-53.36595916476745
 21
13.82412600000004
 31
0.0
  0
LINE
  5
5F37
330
1F
100
AcDbEntity
  8
AM_0
100
AcDbLine
 10
-52.86713016476745
 20
13.85934500000002
 30
0.0
 11
-52.32893616476741
 21
7.707756000000018
 31
0.0
  0
LINE
  5
5F38
330
1F
100
AcDbEntity
  8
AM_0
100
AcDbLine
 10
-48.73151016476743
 20
5.292849999999987
 30
0.0
 11
-50.53212216476743
 21
1.889843000000042
 31
0.0
  0
LINE
  5
5F39
330
1F
100
AcDbEntity
  8
AM_0
100
AcDbLine
 10
-51.55506916476742
 20
1.327789999999993
 30
0.0
 11
-51.76846916476745
 21
1.301589000000035
 31
0.0
  0
LINE
  5
5F3A
330
1F
100
AcDbEntity
  8
AM_0
100
AcDbLine
 10
-49.25648416476741
 20
9.573235000000011
 30
0.0
 11
-49.19535216476743
 21
9.074700000000007
 31
0.0
  0
LINE
  5
5F3B
330
1F
100
AcDbEntity
  8
AM_0
100
AcDbLine
 10
-49.07308716476746
 20
8.077630999999997
 30
0.0
 11
-49.01195416476742
 21
7.579095999999993
 31
0.0
  0
LINE
  5
5F3C
330
1F
100
AcDbEntity
  8
AM_0
100
AcDbLine
 10
-48.88968916476745
 20
6.582025999999985
 30
0.0
 11
-48.73363716476746
 21
5.309429000000023
 31
0.0
  0
LINE
  5
5F3E
330
1F
100
AcDbEntity
  8
AM_0
100
AcDbLine
 10
-48.88968916476745
 20
6.582025999999985
 30
0.0
 11
-48.90233516476741
 21
6.726570000000038
 31
0.0
  0
LINE
  5
5F40
330
1F
100
AcDbEntity
  8
AM_0
100
AcDbLine
 10
-48.74392116476741
 20
5.43471199999999
 30
0.0
 11
-48.90233516476741
 21
6.726570000000038
 31
0.0
  0
LINE
  5
5F41
330
1F
100
AcDbEntity
  8
AM_0
100
AcDbLine
 10
-48.73151016476743
 20
5.292849999999987
 30
0.0
 11
-48.74392116476741
 21
5.43471199999999
 31
0.0
  0
LINE
  5
5F42
330
1F
100
AcDbEntity
  8
AM_0
100
AcDbLine
 10
-49.07308716476746
 20
8.077630999999997
 30
0.0
 11
-49.08573316476742
 21
8.222174999999993
 31
0.0
  0
LINE
  5
5F44
330
1F
100
AcDbEntity
  8
AM_0
100
AcDbLine
 10
-49.25648416476741
 20
9.573235000000011
 30
0.0
 11
-49.26604616476743
 21
9.682527999999991
 31
0.0
  0
LINE
  5
5F45
330
1F
100
AcDbEntity
  8
AM_0
100
AcDbLine
 10
-49.02460016476744
 20
7.723639999999989
 30
0.0
 11
-49.08573316476742
 21
8.222174999999993
 31
0.0
  0
LINE
  5
5F46
330
1F
100
AcDbEntity
  8
AM_0
100
AcDbLine
 10
-49.02460016476744
 20
7.723639999999989
 30
0.0
 11
-49.01195416476742
 21
7.579095999999993
 31
0.0
  0
LINE
  5
5F47
330
1F
100
AcDbEntity
  8
AM_0
100
AcDbLine
 10
-49.20799816476745
 20
9.219245000000001
 30
0.0
 11
-49.26482616476744
 21
9.68267800000001
 31
0.0
  0
LINE
  5
5F48
330
1F
100
AcDbEntity
  8
AM_0
100
AcDbLine
 10
-49.20799816476745
 20
9.219245000000001
 30
0.0
 11
-49.19535216476743
 21
9.074700000000007
 31
0.0
  0
LINE
  5
5F49
330
1F
100
AcDbEntity
  8
AM_0
100
AcDbLine
 10
-52.86713016476745
 20
13.85934500000002
 30
0.0
 11
-52.93925216476742
 21
14.68369799999999
 31
0.0
  0
LINE
  5
5F4A
330
1F
100
AcDbEntity
  8
AM_0
100
AcDbLine
 10
-53.70103916012704
 20
14.61557196215819
 30
0.0
 11
-52.95533216476741
 21
14.81471299999998
 31
0.0
  0
LINE
  5
5F4B
330
1F
100
AcDbEntity
  8
AM_0
100
AcDbLine
 10
-58.07853916476745
 20
0.4532040000000279
 30
0.0
 11
-58.11580016476745
 21
0.879099999999994
 31
0.0
  0
LINE
  5
5F4C
330
1F
100
AcDbEntity
  8
AM_0
100
AcDbLine
 10
-44.21977216476745
 20
17.534582
 30
0.0
 11
-43.71534916476742
 21
13.424758
 31
0.0
  0
LINE
  5
5F50
330
1F
100
AcDbEntity
  8
AM_0
100
AcDbLine
 10
-52.41032416476742
 20
10.37421000000001
 30
0.0
 11
-53.05346516476743
 21
15.61426
 31
0.0
  0
LINE
  5
5F51
330
1F
100
AcDbEntity
  8
AM_0
100
AcDbLine
 10
-49.30172016476746
 20
9.678148000000022
 30
0.0
 11
-46.29412516476742
 21
10.04741799999999
 31
0.0
  0
LINE
  5
5F52
330
1F
100
AcDbEntity
  8
AM_0
100
AcDbLine
 10
-52.28311816476742
 20
9.341948000000002
 30
0.0
 11
-49.30547816476741
 21
9.707539999999995
 31
0.0
  0
LINE
  5
5F53
330
1F
100
AcDbEntity
  8
AM_0
100
AcDbLine
 10
-43.70423116476746
 20
13.31863900000002
 30
0.0
 11
-43.71235716476741
 21
13.41152499999998
 31
0.0
  0
LINE
  5
5F54
330
1F
100
AcDbEntity
  8
AM_0
100
AcDbLine
 10
-43.71534916476742
 20
13.424758
 30
0.0
 11
-43.72330116476741
 21
13.51564999999999
 31
0.0
  0
LINE
  5
5F56
330
1F
100
AcDbEntity
  8
AM_0
100
AcDbLine
 10
-44.82547216476746
 20
22.50967400000002
 30
0.0
 11
-44.21977216476745
 21
17.534582
 31
0.0
  0
LINE
  5
5F59
330
1F
100
AcDbEntity
  8
AM_0
100
AcDbLine
 10
-53.57718916476745
 20
19.89507400000002
 30
0.0
 11
-50.59954916476744
 21
20.26066600000002
 31
0.0
  0
LINE
  5
5F5A
330
1F
100
AcDbEntity
  8
AM_0
100
AcDbLine
 10
-51.06169216476741
 20
24.05661400000003
 30
0.0
 11
-50.59954916476744
 21
20.26066600000002
 31
0.0
  0
LINE
  5
5F5B
330
1F
100
AcDbEntity
  8
AM_0
100
AcDbLine
 10
-53.53180316476744
 20
19.52228400000001
 30
0.0
 11
-53.57718916476745
 21
19.89507400000002
 31
0.0
  0
LINE
  5
5F5C
330
1F
100
AcDbEntity
  8
AM_0
100
AcDbLine
 10
-44.84206216476741
 20
22.69929999999999
 30
0.0
 11
-44.82547216476746
 21
22.50967400000002
 31
0.0
  0
LINE
  5
5F5D
330
1F
100
AcDbEntity
  8
AM_0
100
AcDbLine
 10
-44.60233116476746
 20
20.74959100000001
 30
0.0
 11
-44.84206216476741
 21
22.69929999999999
 31
0.0
  0
LINE
  5
5F60
330
1F
100
AcDbEntity
  8
AM_0
100
AcDbLine
 10
-54.04783316476744
 20
23.76086100000003
 30
0.0
 11
-51.07019316476743
 21
24.12645300000003
 31
0.0
  0
LINE
  5
5F61
330
1F
100
AcDbEntity
  8
AM_0
100
AcDbLine
 10
-53.90803016476747
 20
22.64484600000003
 30
0.0
 11
-50.93426616476745
 21
23.00996200000003
 31
0.0
  0
LINE
  5
5F62
330
1F
100
AcDbEntity
  8
AM_0
100
AcDbLine
 10
-54.04783316476744
 20
23.76086100000003
 30
0.0
 11
-53.90803016476747
 21
22.64484600000003
 31
0.0
  0
LINE
  5
5F63
330
1F
100
AcDbEntity
  8
AM_0
100
AcDbLine
 10
-53.57093516476743
 20
19.89584200000002
 30
0.0
 11
-53.90803016476747
 21
22.64484600000003
 31
0.0
  0
LINE
  5
5F65
330
1F
100
AcDbEntity
  8
AM_0
100
AcDbLine
 10
-54.13932216476741
 20
24.565675
 30
0.0
 11
-54.30395416476745
 21
24.54546099999999
 31
0.0
  0
LINE
  5
5F66
330
1F
100
AcDbEntity
  8
AM_0
100
AcDbLine
 10
-48.18527016476742
 20
25.31088800000003
 30
0.0
 11
-54.30518216476742
 21
24.55948999999998
 31
0.0
  0
LINE
  5
5F67
330
1F
100
AcDbEntity
  8
AM_0
100
AcDbLine
 10
-54.13932216476741
 20
24.565675
 30
0.0
 11
-54.12477716476741
 21
24.39943099999999
 31
0.0
  0
LINE
  5
5F68
330
1F
100
AcDbEntity
  8
AM_0
100
AcDbLine
 10
-53.80251016476746
 20
21.784334
 30
0.0
 11
-54.05962516476745
 21
21.75276600000001
 31
0.0
  0
LINE
  5
5F6A
330
1F
100
AcDbEntity
  8
AM_0
100
AcDbLine
 10
-53.56875516476742
 20
16.14209500000004
 30
0.0
 11
-53.12491616476746
 21
16.19659000000002
 31
0.0
  0
LINE
  5
5F6B
330
1F
100
AcDbEntity
  8
AM_0
100
AcDbLine
 10
-43.16009016476744
 20
8.98011600000001
 30
0.0
 11
-42.85448816476742
 21
6.504978999999992
 31
0.0
  0
LINE
  5
5F6E
330
1F
100
AcDbEntity
  8
AM_0
100
AcDbLine
 10
-43.2199251647674
 20
9.506598999999994
 30
0.0
 11
-43.2353204526172
 21
9.631809044968179
 31
0.0
  0
LINE
  5
5F6F
330
1F
100
AcDbEntity
  8
AM_0
100
AcDbLine
 10
-42.85448816476742
 20
6.504978999999992
 30
0.0
 11
-43.15558316476745
 21
8.978102000000035
 31
0.0
  0
LINE
  5
5F70
330
1F
100
AcDbEntity
  8
AM_0
100
AcDbLine
 10
-43.15558316476745
 20
8.978102000000035
 30
0.0
 11
-43.2199251647674
 21
9.506598999999994
 31
0.0
  0
LINE
  5
5F71
330
1F
100
AcDbEntity
  8
AM_0
100
AcDbLine
 10
-50.16432116476744
 20
2.584956000000034
 30
0.0
 11
-43.93279516476747
 21
3.35005799999999
 31
0.0
  0
LINE
  5
5F72
330
1F
100
AcDbEntity
  8
AM_0
100
AcDbLine
 10
-48.13316016476745
 20
25.31774899999999
 30
0.0
 11
-54.30522216476743
 21
24.55994900000002
 31
0.0
  0
LINE
  5
5F73
330
1F
100
AcDbEntity
  8
AM_0
100
AcDbLine
 10
-76.65459516476744
 20
5.199999999999932
 30
0.0
 11
-58.4938311431203
 21
5.200000000000046
 31
0.0
  0
LINE
  5
5F75
330
1F
100
AcDbEntity
  8
AM_0
100
AcDbLine
 10
-76.65459516476744
 20
2.196979999999996
 30
0.0
 11
-76.65459516476744
 21
5.199999999999989
 31
0.0
  0
LINE
  5
5F76
330
1F
100
AcDbEntity
  8
AM_0
100
AcDbLine
 10
-76.65459516476744
 20
19.0
 30
0.0
 11
-53.81878916476745
 21
19.0
 31
0.0
  0
LINE
  5
5F77
330
1F
100
AcDbEntity
  8
AM_0
100
AcDbLine
 10
-53.81878916476745
 20
19.0
 30
0.0
 11
-53.44127077789665
 21
14.68494310331391
 31
0.0
  0
LINE
  5
5F78
330
1F
100
AcDbEntity
  8
AM_0
100
AcDbLine
 10
-76.65459516476744
 20
5.199999999999989
 30
0.0
 11
-76.65459516476744
 21
19.0
 31
0.0
  0
LINE
  5
5F79
330
1F
100
AcDbEntity
  8
AM_0
100
AcDbLine
 10
-76.65459516476744
 20
25.00000000000006
 30
0.0
 11
-54.34372116476743
 21
25.0
 31
0.0
  0
LINE
  5
5F7A
330
1F
100
AcDbEntity
  8
AM_0
100
AcDbLine
 10
-54.34372116476743
 20
25.0
 30
0.0
 11
-53.81878916476745
 21
19.0
 31
0.0
  0
LINE
  5
5F7B
330
1F
100
AcDbEntity
  8
AM_0
100
AcDbLine
 10
-76.65459516476744
 20
19.0
 30
0.0
 11
-76.65459516476744
 21
25.0
 31
0.0
  0
LINE
  5
5F7C
330
1F
100
AcDbEntity
  8
AM_0
100
AcDbLine
 10
-52.15650516476745
 20
0.0
 30
0.0
 11
-76.65459516476739
 21
-0.0000000000000568
 31
0.0
  0
LINE
  5
5F7E
330
1F
100
AcDbEntity
  8
AM_0
100
AcDbLine
 10
-76.65459516476744
 20
2.196979999999996
 30
0.0
 11
-76.65459516476744
 21
0.0
 31
0.0
  0
LINE
  5
5F7F
330
1F
100
AcDbEntity
  8
AM_0
100
AcDbLine
 10
-51.65459516476744
 20
0.000060000000019
 30
0.0
 11
-51.65459516476744
 21
1.315570000000037
 31
0.0
  0
LINE
  5
5F80
330
1F
100
AcDbEntity
  8
AM_0
100
AcDbLine
 10
-51.65459516476744
 20
24.88539000000003
 30
0.0
 11
-51.65459516476744
 21
25.0
 31
0.0
  0
LINE
  5
5F81
330
1F
100
AcDbEntity
  8
AM_0
100
AcDbLine
 10
-52.15650516476745
 20
0.0
 30
0.0
 11
-51.65459516476744
 21
0.0
 31
0.0
  0
LINE
  5
5F82
330
1F
100
AcDbEntity
  8
AM_0
100
AcDbLine
 10
-54.34372116476743
 20
25.0
 30
0.0
 11
-51.65459516476744
 21
25.0
 31
0.0
  0
LINE
  5
5F83
330
1F
100
AcDbEntity
  8
AM_0
100
AcDbLine
 10
-51.70635716476744
 20
0.591639999999984
 30
0.0
 11
-51.65459516476744
 21
0.0
 31
0.0
  0
LINE
  5
5F84
330
1F
100
AcDbEntity
  8
AM_0
100
AcDbLine
 10
-58.07002916476745
 20
0.3559319999999957
 30
0.0
 11
-58.07853916476745
 21
0.4532040000000279
 31
0.0
  0
LINE
  5
5F85
330
1F
100
AcDbEntity
  8
AM_0
100
AcDbLine
 10
-54.87365016476741
 20
0.3075550000000362
 30
0.0
 11
-54.87687016476747
 21
0.3443650000000389
 31
0.0
  0
LINE
  5
5F86
330
1F
100
AcDbEntity
  8
AM_0
100
AcDbLine
 10
-54.90744216476742
 20
0.6938069999999925
 30
0.0
 11
-54.92476116476746
 21
0.8917620000000284
 31
0.0
  0
LINE
  5
5F87
330
1F
100
AcDbEntity
  8
AM_0
100
AcDbLine
 10
-52.28311816476742
 20
9.341948000000002
 30
0.0
 11
-52.28844816476743
 21
9.384697000000017
 31
0.0
  0
LINE
  5
5F88
330
1F
100
AcDbEntity
  8
AM_0
100
AcDbLine
 10
-52.28844816476743
 20
9.384697000000017
 30
0.0
 11
-52.29597516476741
 21
9.44536800000003
 31
0.0
  0
LINE
  5
5F89
330
1F
100
AcDbEntity
  8
AM_0
100
AcDbLine
 10
-52.29597516476741
 20
9.44536800000003
 30
0.0
 11
-52.30555016476745
 21
9.522778000000017
 31
0.0
  0
LINE
  5
5F8A
330
1F
100
AcDbEntity
  8
AM_0
100
AcDbLine
 10
-52.30555016476745
 20
9.522778000000017
 30
0.0
 11
-52.31698916476745
 21
9.615421000000026
 31
0.0
  0
LINE
  5
5F8B
330
1F
100
AcDbEntity
  8
AM_0
100
AcDbLine
 10
-52.31698916476745
 20
9.615421000000026
 30
0.0
 11
-52.33006716476746
 21
9.72149300000001
 31
0.0
  0
LINE
  5
5F8C
330
1F
100
AcDbEntity
  8
AM_0
100
AcDbLine
 10
-52.33006716476746
 20
9.72149300000001
 30
0.0
 11
-52.34453216476743
 21
9.83892800000001
 31
0.0
  0
LINE
  5
5F8D
330
1F
100
AcDbEntity
  8
AM_0
100
AcDbLine
 10
-52.34453216476743
 20
9.83892800000001
 30
0.0
 11
-52.36010016476746
 21
9.965440000000001
 31
0.0
  0
LINE
  5
5F8E
330
1F
100
AcDbEntity
  8
AM_0
100
AcDbLine
 10
-52.36010016476746
 20
9.965440000000001
 30
0.0
 11
-52.37646816476746
 21
10.09856500000001
 31
0.0
  0
LINE
  5
5F8F
330
1F
100
AcDbEntity
  8
AM_0
100
AcDbLine
 10
-52.37646816476746
 20
10.09856500000001
 30
0.0
 11
-52.41032416476742
 21
10.37421000000001
 31
0.0
  0
LINE
  5
5F90
330
1F
100
AcDbEntity
  8
AM_0
100
AcDbLine
 10
-53.05346516476743
 20
15.61426
 30
0.0
 11
-53.11149416476741
 21
16.08717200000001
 31
0.0
  0
LINE
  5
5F91
330
1F
100
AcDbEntity
  8
AM_0
100
AcDbLine
 10
-43.71955616476743
 20
13.490523
 30
0.0
 11
-43.72041516476742
 21
13.49697800000001
 31
0.0
  0
LINE
  5
5F92
330
1F
100
AcDbEntity
  8
AM_0
100
AcDbLine
 10
-44.60422016476747
 20
20.75550600000003
 30
0.0
 11
-44.61889316476743
 21
20.873718
 31
0.0
  0
LINE
  5
5F93
330
1F
100
AcDbEntity
  8
AM_0
100
AcDbLine
 10
-44.61889316476743
 20
20.873718
 30
0.0
 11
-44.63212316476745
 21
20.98015000000004
 31
0.0
  0
LINE
  5
5F94
330
1F
100
AcDbEntity
  8
AM_0
100
AcDbLine
 10
-44.63212316476745
 20
20.98015000000004
 30
0.0
 11
-44.65414716476744
 21
21.15682200000003
 31
0.0
  0
LINE
  5
5F95
330
1F
100
AcDbEntity
  8
AM_0
100
AcDbLine
 10
-43.63557516476743
 20
12.82339300000001
 30
0.0
 11
-43.64881816476742
 21
12.92961800000001
 31
0.0
  0
LINE
  5
5F96
330
1F
100
AcDbEntity
  8
AM_0
100
AcDbLine
 10
-43.64881816476742
 20
12.92961800000001
 30
0.0
 11
-43.66100416476746
 21
13.02721700000001
 31
0.0
  0
LINE
  5
5F97
330
1F
100
AcDbEntity
  8
AM_0
100
AcDbLine
 10
-43.66100416476746
 20
13.02721700000001
 30
0.0
 11
-43.67212416476741
 21
13.11612000000002
 31
0.0
  0
LINE
  5
5FA1
330
1F
100
AcDbEntity
  8
AM_0
100
AcDbLine
 10
-51.06169216476741
 20
24.05661400000003
 30
0.0
 11
-51.06170816476742
 21
24.05674500000004
 31
0.0
  0
LINE
  5
5FA2
330
1F
100
AcDbEntity
  8
AM_0
100
AcDbLine
 10
-51.06411416476743
 20
24.07650699999999
 30
0.0
 11
-51.06650316476743
 21
24.096138
 31
0.0
  0
LINE
  5
5FA3
330
1F
100
AcDbEntity
  8
AM_0
100
AcDbLine
 10
-51.06650316476743
 20
24.096138
 30
0.0
 11
-51.07019316476743
 21
24.12645300000003
 31
0.0
  0
ARC
  5
6038
330
1F
100
AcDbEntity
  8
AM_0
100
AcDbCircle
 10
-47.10711416476744
 20
13.23182500000002
 30
0.0
 40
5.869609394992139
100
AcDbArc
 50
357.6703200340294
 51
11.58590963780827
  0
ARC
  5
6039
330
1F
100
AcDbEntity
  8
AM_0
100
AcDbCircle
 10
-23.81434416476742
 20
18.00717500000002
 30
0.0
 40
17.9076294779372
100
AcDbArc
 50
187.0046643442146
 51
191.5859105139473
  0
ARC
  5
603A
330
1F
100
AcDbEntity
  8
AM_0
100
AcDbCircle
 10
88.35922683523256
 20
31.789625
 30
0.0
 40
130.924734332072
100
AcDbArc
 50
186.534739593286
 51
187.0046633584783
  0
ARC
  5
603B
330
1F
100
AcDbEntity
  8
AM_0
100
AcDbCircle
 10
-81.24609716476743
 20
12.36136199999999
 30
0.0
 40
39.7897153561201
100
AcDbArc
 50
6.534739514553827
 51
8.080900264726353
  0
ARC
  5
6043
330
1F
100
AcDbEntity
  8
AM_0
100
AcDbCircle
 10
-41.85196616476742
 20
17.95458000000002
 30
0.0
 40
0.000500915162483
100
AcDbArc
 50
8.033045790475553
 51
187.3377472260738
  0
ARC
  5
6050
330
1F
100
AcDbEntity
  8
AM_0
100
AcDbCircle
 10
-49.30188716476744
 20
9.678288000000009
 30
0.0
 40
0.0001589119252909
100
AcDbArc
 50
186.1411106168123
 51
5.03193422300381
  0
ARC
  5
6051
330
1F
100
AcDbEntity
  8
AM_0
100
AcDbCircle
 10
-51.16153516476743
 20
9.475027000000011
 30
0.0
 40
1.87056440242939
100
AcDbArc
 50
6.237721000950965
 51
7.140391754428364
  0
ARC
  5
6052
330
1F
100
AcDbEntity
  8
AM_0
100
AcDbCircle
 10
-46.70002416476746
 20
13.15013800000003
 30
0.0
 40
2.99907940319325
100
AcDbArc
 50
5.000000135307483
 51
6.000170196207802
  0
ARC
  5
6053
330
1F
100
AcDbEntity
  8
AM_0
100
AcDbCircle
 10
-46.70002516476745
 20
13.15013800000003
 30
0.0
 40
2.99908019541059
100
AcDbArc
 50
6.000168199190702
 51
7.00030814710636
  0
ARC
  5
6054
330
1F
100
AcDbEntity
  8
AM_0
100
AcDbCircle
 10
10028.79725683523
 20
1252.888431
 30
0.0
 40
10157.4879488608
100
AcDbArc
 50
186.9840725997882
 51
186.9938331460243
  0
ARC
  5
6055
330
1F
100
AcDbEntity
  8
AM_0
100
AcDbCircle
 10
2252.736932835233
 20
300.302425
 30
0.0
 40
2323.29786515441
100
AcDbArc
 50
186.9413993681591
 51
186.9840725947317
  0
ARC
  5
6056
330
1F
100
AcDbEntity
  8
AM_0
100
AcDbCircle
 10
-35.88743616476745
 20
14.54449199999999
 30
0.0
 40
7.90271099103909
100
AcDbArc
 50
187.480155428249
 51
187.617042386701
  0
ARC
  5
6057
330
1F
100
AcDbEntity
  8
AM_0
100
AcDbCircle
 10
-43.72309816476746
 20
13.51566800000001
 30
0.0
 40
0.0002047876949419
100
AcDbArc
 50
7.576154895786394
 51
185.067161725835
  0
ARC
  5
6058
330
1F
100
AcDbEntity
  8
AM_0
100
AcDbCircle
 10
-44.33880616476745
 20
21.19623799999999
 30
0.0
 40
0.317794659786787
100
AcDbArc
 50
157.3300693923638
 51
187.1247256372421
  0
ARC
  5
6059
330
1F
100
AcDbEntity
  8
AM_0
100
AcDbCircle
 10
-44.67738816476742
 20
21.33766100000003
 30
0.0
 40
0.0491361724598043
100
AcDbArc
 50
337.330263509205
 51
96.99976501349568
  0
ARC
  5
605A
330
1F
100
AcDbEntity
  8
AM_0
100
AcDbCircle
 10
271.5161978352326
 20
52.58033599999999
 30
0.0
 40
317.649339255045
100
AcDbArc
 50
187.1027348153098
 51
187.1367710889408
  0
ARC
  5
605B
330
1F
100
AcDbEntity
  8
AM_0
100
AcDbCircle
 10
-68.31673316476741
 20
10.235435
 30
0.0
 40
24.8116244076043
100
AcDbArc
 50
7.102733351130508
 51
7.538481997568235
  0
ARC
  5
6064
330
1F
100
AcDbEntity
  8
AM_0
100
AcDbCircle
 10
-47.50445516476742
 20
24.978634
 30
0.0
 40
6.64561054372682
100
AcDbArc
 50
184.9999989359248
 51
187.7726601547778
  0
ARC
  5
6065
330
1F
100
AcDbEntity
  8
AM_0
100
AcDbCircle
 10
-75.95372916476742
 20
21.09539799999999
 30
0.0
 40
22.0674641172742
100
AcDbArc
 50
6.937525302236442
 51
7.772658081953369
  0
ARC
  5
6066
330
1F
100
AcDbEntity
  8
AM_0
100
AcDbCircle
 10
1029.551309835233
 20
155.6175950000001
 30
0.0
 40
1088.59209643416
100
AcDbArc
 50
186.9403515486173
 51
186.9413993608231
  0
ARC
  5
6067
330
1F
100
AcDbEntity
  8
AM_0
100
AcDbCircle
 10
12832.09634483523
 20
1596.98053
 30
0.0
 40
12972.8187488513
100
AcDbArc
 50
186.9973674387342
 51
187.0140981254151
  0
ARC
  5
6068
330
1F
100
AcDbEntity
  8
AM_0
100
AcDbCircle
 10
4248.193542835234
 20
543.4101410000001
 30
0.0
 40
4324.50111603375
100
AcDbArc
 50
186.9471780295104
 51
186.9973674412868
  0
ARC
  5
6069
330
1F
100
AcDbEntity
  8
AM_0
100
AcDbCircle
 10
-1893.782156164768
 20
-204.982538
 30
0.0
 40
1862.90198131552
100
AcDbArc
 50
6.947178059501905
 51
6.962297315887055
  0
ARC
  5
606A
330
1F
100
AcDbEntity
  8
AM_0
100
AcDbCircle
 10
95.82120583523255
 20
37.98117500000001
 30
0.0
 40
141.481441485998
100
AcDbArc
 50
186.7632203782098
 51
186.9622970189065
  0
ARC
  5
606B
330
1F
100
AcDbEntity
  8
AM_0
100
AcDbCircle
 10
-44.76809816476742
 20
21.30844000000002
 30
0.0
 40
0.0930353507006877
100
AcDbArc
 50
6.762940808708124
 51
36.38484761027341
  0
ARC
  5
606C
330
1F
100
AcDbEntity
  8
AM_0
100
AcDbCircle
 10
-44.68162416476741
 20
21.37215900000001
 30
0.0
 40
0.0143791337708505
100
AcDbArc
 50
96.99849216396001
 51
216.3853648127165
  0
SPLINE
  5
60A6
330
1F
100
AcDbEntity
  8
AM_0
100
AcDbSpline
210
0.0
220
0.0
230
1.0
 70
     8
 71
     3
 72
    11
 73
     7
 74
     5
 42
0.0000000001
 43
0.0000000001
 44
0.0000000001
 40
0.0
 40
0.0
 40
0.0
 40
0.0
 40
0.0078048872509553
 40
0.0131958189886301
 40
0.0161678610475571
 40
0.0167153096752848
 40
0.0167153096752848
 40
0.0167153096752848
 40
0.0167153096752848
 10
-48.73363716476746
 20
5.309429000000023
 30
0.0
 10
-48.73331710984333
 20
5.306847034125416
 30
0.0
 10
-48.73277598904175
 20
5.302481672625546
 30
0.0
 10
-48.73206804068833
 20
5.29713976412391
 30
0.0
 10
-48.7317369553582
 20
5.29418661690057
 30
0.0
 10
-48.73154069293323
 20
5.293029921319549
 30
0.0
 10
-48.73151016476743
 20
5.292849999999987
 30
0.0
 11
-48.73363716476746
 21
5.309429000000023
 31
0.0
 11
-48.73266416476741
 21
5.30168500000002
 31
0.0
 11
-48.73198516476742
 21
5.296336999999994
 31
0.0
 11
-48.73160016476743
 21
5.293389999999988
 31
0.0
 11
-48.73151016476743
 21
5.292849999999987
 31
0.0
  0
SPLINE
  5
60A9
330
1F
100
AcDbEntity
  8
AM_0
100
AcDbSpline
210
0.0
220
0.0
230
1.0
 70
     8
 71
     3
 72
    11
 73
     7
 74
     5
 42
0.0000000001
 43
0.0000000001
 44
0.0000000001
 40
0.0
 40
0.0
 40
0.0
 40
0.0
 40
0.0604875023207318
 40
0.1263222296688582
 40
0.1951241939213101
 40
0.2644881595302435
 40
0.2644881595302435
 40
0.2644881595302435
 40
0.2644881595302435
 10
-51.29274016476745
 20
1.361505000000022
 30
0.0
 10
-51.31272361845719
 20
1.358823783330626
 30
0.0
 10
-51.35445710603266
 20
1.353224324683656
 30
0.0
 10
-51.41895891210968
 20
1.344862424488246
 30
0.0
 10
-51.48641480265715
 20
1.336274859918047
 30
0.0
 10
-51.53212240424635
 20
1.330625945781292
 30
0.0
 10
-51.55506916476742
 20
1.327789999999993
 30
0.0
 11
-51.29274016476745
 21
1.361505000000022
 31
0.0
 11
-51.35269616476745
 21
1.353503999999987
 31
0.0
 11
-51.41798116476747
 21
1.345013999999992
 31
0.0
 11
-51.48623416476744
 21
1.336340000000007
 31
0.0
 11
-51.55506916476742
 21
1.327789999999993
 31
0.0
  0
SPLINE
  5
60AA
330
1F
100
AcDbEntity
  8
AM_0
100
AcDbSpline
210
0.0
220
0.0
230
1.0
 70
     8
 71
     3
 72
    11
 73
     7
 74
     5
 42
0.0000000001
 43
0.0000000001
 44
0.0000000001
 40
0.0
 40
0.0
 40
0.0
 40
0.0
 40
0.2405894612509293
 40
0.4808087932331933
 40
0.7206902120738339
 40
0.9602591298323832
 40
0.9602591298323832
 40
0.9602591298323832
 40
0.9602591298323832
 10
-50.53212216476743
 20
1.889843000000042
 30
0.0
 10
-50.57457561220191
 20
1.821310475264542
 30
0.0
 10
-50.65941719555067
 20
1.684350858064468
 30
0.0
 10
-50.84343236733231
 20
1.525303017810493
 30
0.0
 10
-51.05642131426849
 20
1.408480452525246
 30
0.0
 10
-51.21400145100303
 20
1.37715667866437
 30
0.0
 10
-51.29274016476745
 20
1.361505000000022
 30
0.0
 11
-50.53212216476743
 21
1.889843000000042
 31
0.0
 11
-50.66897816476745
 21
1.691970000000026
 31
0.0
 11
-50.84840116476744
 21
1.532242999999994
 31
0.0
 11
-51.06044016476744
 21
1.420071000000007
 31
0.0
 11
-51.29274016476745
 21
1.361505000000022
 31
0.0
  0
SPLINE
  5
60AB
330
1F
100
AcDbEntity
  8
AM_0
100
AcDbSpline
210
0.0
220
0.0
230
1.0
 70
     8
 71
     3
 72
    11
 73
     7
 74
     5
 42
0.0000000001
 43
0.0000000001
 44
0.0000000001
 40
0.0
 40
0.0
 40
0.0
 40
0.0
 40
0.1090130598873517
 40
0.1894247450705548
 40
0.2385397163114629
 40
0.2548439165065549
 40
0.2548439165065549
 40
0.2548439165065549
 40
0.2548439165065549
 10
-49.50996016476745
 20
9.597389000000021
 30
0.0
 10
-49.47387982825951
 20
9.592917915757189
 30
0.0
 10
-49.41118542676178
 20
9.585148809984338
 30
0.0
 10
-49.33214409752254
 20
9.577890945679958
 30
0.0
 10
-49.28368907468263
 20
9.571281307591821
 30
0.0
 10
-49.26191167330866
 20
9.572845229099631
 30
0.0
 10
-49.25648416476741
 20
9.573235000000011
 30
0.0
 11
-49.50996016476745
 21
9.597389000000021
 31
0.0
 11
-49.40169516476743
 21
9.584640000000036
 31
0.0
 11
-49.32172816476742
 21
9.576194999999984
 31
0.0
 11
-49.27276416476747
 21
9.572347000000036
 31
0.0
 11
-49.25648416476741
 21
9.573235000000011
 31
0.0
  0
SPLINE
  5
60AC
330
1F
100
AcDbEntity
  8
AM_0
100
AcDbSpline
210
0.0
220
0.0
230
1.0
 70
     8
 71
     3
 72
    11
 73
     7
 74
     5
 42
0.0000000001
 43
0.0000000001
 44
0.0000000001
 40
0.0
 40
0.0
 40
0.0
 40
0.0
 40
0.0530151828913094
 40
0.2019132141912707
 40
0.4396932705163998
 40
0.7544175462070768
 40
0.7544175462070768
 40
0.7544175462070768
 40
0.7544175462070768
 10
-49.19535216476743
 20
9.074700000000007
 30
0.0
 10
-49.201596217353
 20
9.058167398311948
 30
0.0
 10
-49.22537726757997
 20
8.995201459806669
 30
0.0
 10
-49.28211795393888
 20
8.860036893921368
 30
0.0
 10
-49.37113977963284
 20
8.643860908258425
 30
0.0
 10
-49.44225222424102
 20
8.473972763209783
 30
0.0
 10
-49.48276016476746
 20
8.377199000000019
 30
0.0
 11
-49.19535216476743
 21
9.074700000000007
 31
0.0
 11
-49.21424116476743
 21
9.025164000000018
 31
0.0
 11
-49.27052616476743
 21
8.887314000000004
 31
0.0
 11
-49.36155716476742
 21
8.66764900000004
 31
0.0
 11
-49.48276016476746
 21
8.377199000000019
 31
0.0
  0
SPLINE
  5
60AD
330
1F
100
AcDbEntity
  8
AM_0
100
AcDbSpline
210
0.0
220
0.0
230
1.0
 70
     8
 71
     3
 72
    11
 73
     7
 74
     5
 42
0.0000000001
 43
0.0000000001
 44
0.0000000001
 40
0.0
 40
0.0
 40
0.0
 40
0.0
 40
0.1090141699780479
 40
0.1894247556742238
 40
0.2385397269151364
 40
0.2548439271101715
 40
0.2548439271101715
 40
0.2548439271101715
 40
0.2548439271101715
 10
-49.32656316476744
 20
8.101785000000007
 30
0.0
 10
-49.29048252313111
 20
8.097313323618156
 30
0.0
 10
-49.22778822634469
 20
8.08954326761299
 30
0.0
 10
-49.14874671000538
 20
8.082287107694469
 30
0.0
 10
-49.10029207586966
 20
8.075677296260137
 30
0.0
 10
-49.07851467354551
 20
8.077241226838897
 30
0.0
 10
-49.07308716476746
 20
8.077630999999997
 30
0.0
 11
-49.32656316476744
 21
8.101785000000007
 31
0.0
 11
-49.21829716476742
 21
8.089035000000024
 31
0.0
 11
-49.13833116476741
 21
8.080591000000027
 31
0.0
 11
-49.08936716476745
 21
8.076743000000022
 31
0.0
 11
-49.07308716476746
 21
8.077630999999997
 31
0.0
  0
SPLINE
  5
60AE
330
1F
100
AcDbEntity
  8
AM_0
100
AcDbSpline
210
0.0
220
0.0
230
1.0
 70
     8
 71
     3
 72
    11
 73
     7
 74
     5
 42
0.0000000001
 43
0.0000000001
 44
0.0000000001
 40
0.0
 40
0.0
 40
0.0
 40
0.0
 40
0.0530164735624564
 40
0.2019132010516972
 40
0.4396932573768482
 40
0.7544179181773753
 40
0.7544179181773753
 40
0.7544179181773753
 40
0.7544179181773753
 10
-49.01195416476742
 20
7.579095999999993
 30
0.0
 10
-49.01819858378214
 20
7.562563077834289
 30
0.0
 10
-49.04198044906379
 20
7.499597455775644
 30
0.0
 10
-49.0987195343693
 20
7.364432260757129
 30
0.0
 10
-49.18774190694504
 20
7.14825681706399
 30
0.0
 10
-49.25885489394491
 20
6.978368762582406
 30
0.0
 10
-49.29936316476744
 20
6.881595000000004
 30
0.0
 11
-49.01195416476742
 21
7.579095999999993
 31
0.0
 11
-49.03084416476742
 21
7.529559000000006
 31
0.0
 11
-49.08712816476742
 21
7.391709999999989
 31
0.0
 11
-49.17815916476747
 21
7.172045000000026
 31
0.0
 11
-49.29936316476744
 21
6.881595000000004
 31
0.0
  0
SPLINE
  5
60AF
330
1F
100
AcDbEntity
  8
AM_0
100
AcDbSpline
210
0.0
220
0.0
230
1.0
 70
     8
 71
     3
 72
    11
 73
     7
 74
     5
 42
0.0000000001
 43
0.0000000001
 44
0.0000000001
 40
0.0
 40
0.0
 40
0.0
 40
0.0
 40
0.1090130598873517
 40
0.1894247450704923
 40
0.2385397163114615
 40
0.2548439165064967
 40
0.2548439165064967
 40
0.2548439165064967
 40
0.2548439165064967
 10
-49.14316516476742
 20
6.606179999999995
 30
0.0
 10
-49.1070848282595
 20
6.601708915757151
 30
0.0
 10
-49.04439042676178
 20
6.593939809984274
 30
0.0
 10
-48.96534909752249
 20
6.586681945680026
 30
0.0
 10
-48.91689407468263
 20
6.580072307591786
 30
0.0
 10
-48.89511667330868
 20
6.581636229099605
 30
0.0
 10
-48.88968916476745
 20
6.582025999999985
 30
0.0
 11
-49.14316516476742
 21
6.606179999999995
 31
0.0
 11
-49.03490016476741
 21
6.59343100000001
 31
0.0
 11
-48.95493316476745
 21
6.584986000000015
 31
0.0
 11
-48.90596916476744
 21
6.58113800000001
 31
0.0
 11
-48.88968916476745
 21
6.582025999999985
 31
0.0
  0
SPLINE
  5
60B0
330
1F
100
AcDbEntity
  8
AM_0
100
AcDbSpline
210
0.0
220
0.0
230
1.0
 70
     8
 71
     3
 72
    11
 73
     7
 74
     5
 42
0.0000000001
 43
0.0000000001
 44
0.0000000001
 40
0.0
 40
0.0
 40
0.0
 40
0.0
 40
0.01787391048427
 40
0.0682912891646379
 40
0.1498975188839674
 40
0.2602206499717308
 40
0.2602206499717308
 40
0.2602206499717308
 40
0.2602206499717308
 10
-48.90233516476741
 20
6.726570000000038
 30
0.0
 10
-48.90796853121993
 20
6.728528150905042
 30
0.0
 10
-48.92949207290475
 20
6.73600970620316
 30
0.0
 10
-48.97910359016122
 20
6.743637482434264
 30
0.0
 10
-49.05837064982953
 20
6.758633287997948
 30
0.0
 10
-49.121569031905
 20
6.76874288894448
 30
0.0
 10
-49.15789616476747
 20
6.774554000000023
 30
0.0
 11
-48.90233516476741
 21
6.726570000000038
 31
0.0
 11
-48.91930916476741
 21
6.732169999999996
 31
0.0
 11
-48.96870616476741
 21
6.742261999999982
 31
0.0
 11
-49.04905416476743
 21
6.756537000000037
 31
0.0
 11
-49.15789616476747
 21
6.774554000000023
 31
0.0
  0
SPLINE
  5
60B1
330
1F
100
AcDbEntity
  8
AM_0
100
AcDbSpline
210
0.0
220
0.0
230
1.0
 70
     8
 71
     3
 72
    11
 73
     7
 74
     5
 42
0.0000000001
 43
0.0000000001
 44
0.0000000001
 40
0.0
 40
0.0
 40
0.0
 40
0.0
 40
0.0178739104842878
 40
0.0682912891646557
 40
0.1498975188839752
 40
0.2602195000889833
 40
0.2602195000889833
 40
0.2602195000889833
 40
0.2602195000889833
 10
-49.08573316476742
 20
8.222174999999993
 30
0.0
 10
-49.09136653117432
 20
8.22413315117881
 30
0.0
 10
-49.11289007268484
 20
8.231614707523089
 30
0.0
 10
-49.16250159394376
 20
8.239242459731679
 30
0.0
 10
-49.24176824684921
 20
8.254238378151182
 30
0.0
 10
-49.30496635204763
 20
8.264347303206009
 30
0.0
 10
-49.34129316476742
 20
8.270158000000038
 30
0.0
 11
-49.08573316476742
 21
8.222174999999993
 31
0.0
 11
-49.10270716476742
 21
8.227775000000008
 31
0.0
 11
-49.15210416476742
 21
8.237866999999994
 31
0.0
 11
-49.23245216476744
 21
8.252141999999992
 31
0.0
 11
-49.34129316476742
 21
8.270158000000038
 31
0.0
  0
SPLINE
  5
60B2
330
1F
100
AcDbEntity
  8
AM_0
100
AcDbSpline
210
0.0
220
0.0
230
1.0
 70
     8
 71
     3
 72
    11
 73
     7
 74
     5
 42
0.0000000001
 43
0.0000000001
 44
0.0000000001
 40
0.0
 40
0.0
 40
0.0
 40
0.0
 40
0.8026765993680515
 40
1.609314584162354
 40
2.419461061905756
 40
3.231777109392796
 40
3.231777109392796
 40
3.231777109392796
 40
3.231777109392796
 10
-45.01569316476747
 20
10.518328
 30
0.0
 10
-44.80574560902271
 20
10.687040577215
 30
0.0
 10
-44.3848143602043
 20
11.02529836529238
 30
0.0
 10
-43.95480089313352
 20
11.72242343888317
 30
0.0
 10
-43.6945818083042
 20
12.50191181432567
 30
0.0
 10
-43.70101184651369
 20
13.04615401644698
 30
0.0
 10
-43.70423116476746
 20
13.31863900000002
 30
0.0
 11
-45.01569316476747
 21
10.518328
 31
0.0
 11
-44.41941116476744
 21
11.05567100000002
 31
0.0
 11
-43.9838391647674
 21
11.73459800000001
 31
0.0
 11
-43.73975316476742
 21
12.50710000000004
 31
0.0
 11
-43.70423116476746
 21
13.31863900000002
 31
0.0
  0
SPLINE
  5
60B4
330
1F
100
AcDbEntity
  8
AM_0
100
AcDbSpline
210
0.0
220
0.0
230
1.0
 70
     8
 71
     3
 72
    11
 73
     7
 74
     5
 42
0.0000000001
 43
0.0000000001
 44
0.0000000001
 40
0.0
 40
0.0
 40
0.0
 40
0.0
 40
0.0266756431974999
 40
0.0533522947489983
 40
0.0800286290174199
 40
0.1067047128566502
 40
0.1067047128566502
 40
0.1067047128566502
 40
0.1067047128566502
 10
-43.70423116476746
 20
13.31863900000002
 30
0.0
 10
-43.70502742454324
 20
13.32749522059899
 30
0.0
 10
-43.70661997419384
 20
13.34520799656694
 30
0.0
 10
-43.70930414013772
 20
13.37174925066297
 30
0.0
 10
-43.7121804015223
 20
13.39827051590536
 30
0.0
 10
-43.71429291365766
 20
13.41592886626377
 30
0.0
 10
-43.71534916476742
 20
13.424758
 30
0.0
 11
-43.70423116476746
 21
13.31863900000002
 31
0.0
 11
-43.70666916476745
 21
13.34520300000003
 31
0.0
 11
-43.70933616476742
 21
13.37174600000003
 31
0.0
 11
-43.71222916476745
 21
13.39826500000004
 31
0.0
 11
-43.71534916476742
 21
13.424758
 31
0.0
  0
SPLINE
  5
60B6
330
1F
100
AcDbEntity
  8
AM_0
100
AcDbSpline
210
0.0
220
0.0
230
1.0
 70
     8
 71
     3
 72
    11
 73
     7
 74
     5
 42
0.0000000001
 43
0.0000000001
 44
0.0000000001
 40
0.0
 40
0.0
 40
0.0
 40
0.0
 40
0.4736500816689698
 40
0.9480738550045542
 40
1.423577220818071
 40
1.900374673752785
 40
1.900374673752785
 40
1.900374673752785
 40
1.900374673752785
 10
-46.29984216476743
 20
24.95009500000003
 30
0.0
 10
-46.44065808555831
 20
25.02233618698664
 30
0.0
 10
-46.7225199452667
 20
25.16693656453786
 30
0.0
 10
-47.18274253163313
 20
25.29317367630929
 30
0.0
 10
-47.65705297493584
 20
25.35420147314409
 30
0.0
 10
-47.9743140588462
 20
25.32991082728134
 30
0.0
 10
-48.13316016476745
 20
25.31774899999999
 30
0.0
 11
-46.29984216476743
 21
24.95009500000003
 31
0.0
 11
-46.72843916476745
 21
25.15171100000003
 31
0.0
 11
-47.18456416476744
 21
25.28220199999998
 31
0.0
 11
-47.65679016476742
 21
25.33793400000002
 31
0.0
 11
-48.13316016476745
 21
25.31774899999999
 31
0.0
  0
SPLINE
  5
60B7
330
1F
100
AcDbEntity
  8
AM_0
100
AcDbSpline
210
0.0
220
0.0
230
1.0
 70
     8
 71
     3
 72
    11
 73
     7
 74
     5
 42
0.0000000001
 43
0.0000000001
 44
0.0000000001
 40
0.0
 40
0.0
 40
0.0
 40
0.0
 40
0.6946871040634068
 40
1.388332110649637
 40
2.08036190512165
 40
2.770350235401255
 40
2.770350235401255
 40
2.770350235401255
 40
2.770350235401255
 10
-44.84206216476741
 20
22.69929999999999
 30
0.0
 10
-44.88526244327836
 20
22.9279271484672
 30
0.0
 10
-44.97159819572712
 20
23.38483848268756
 30
0.0
 10
-45.29287440560756
 20
24.00805322947135
 30
0.0
 10
-45.72900823774299
 20
24.55530425709958
 30
0.0
 10
-46.10975166228943
 20
24.8186277428193
 30
0.0
 10
-46.29984216476743
 20
24.95009500000003
 30
0.0
 11
-44.84206216476741
 21
22.69929999999999
 31
0.0
 11
-45.00372816476744
 21
23.37491399999999
 31
0.0
 11
-45.31245916476746
 21
23.99606499999999
 31
0.0
 11
-45.75209316476742
 21
24.530506
 31
0.0
 11
-46.29984216476743
 21
24.95009500000003
 31
0.0
  0
SPLINE
  5
60B8
330
1F
100
AcDbEntity
  8
AM_0
100
AcDbSpline
210
0.0
220
0.0
230
1.0
 70
     8
 71
     3
 72
    11
 73
     7
 74
     5
 42
0.0000000001
 43
0.0000000001
 44
0.0000000001
 40
0.0
 40
0.0
 40
0.0
 40
0.0
 40
0.7811904104122264
 40
1.599409104271008
 40
2.446729090932509
 40
3.309915359804381
 40
3.309915359804381
 40
3.309915359804381
 40
3.309915359804381
 10
-43.69722416476742
 20
3.392879999999991
 30
0.0
 10
-43.54205287312729
 20
3.603502320072195
 30
0.0
 10
-43.22435519883075
 20
4.034730419900508
 30
0.0
 10
-42.94375703880322
 20
4.809958733881538
 30
0.0
 10
-42.7953757698146
 20
5.646080451016502
 30
0.0
 10
-42.83466256121938
 20
6.216914506356622
 30
0.0
 10
-42.85448816476742
 20
6.504978999999992
 30
0.0
 11
-43.69722416476742
 21
3.392879999999991
 31
0.0
 11
-43.26374216476745
 21
4.042766000000029
 31
0.0
 11
-42.96960616476741
 21
4.806287999999995
 31
0.0
 11
-42.83057616476742
 21
5.642124000000024
 31
0.0
 11
-42.85448816476742
 21
6.504978999999992
 31
0.0
  0
SPLINE
  5
60BA
330
1F
100
AcDbEntity
  8
AM_0
100
AcDbSpline
210
0.0
220
0.0
230
1.0
 70
     8
 71
     3
 72
    11
 73
     7
 74
     5
 42
0.0000000001
 43
0.0000000001
 44
0.0000000001
 40
0.0
 40
0.0
 40
0.0
 40
0.0
 40
0.0586150203019788
 40
0.1180678357609771
 40
0.1783789195267107
 40
0.2395631497907677
 40
0.2395631497907677
 40
0.2395631497907677
 40
0.2395631497907677
 10
-43.69722416476742
 20
3.392879999999991
 30
0.0
 10
-43.7162415818263
 20
3.388390911495526
 30
0.0
 10
-43.75454823534848
 20
3.379348571127285
 30
0.0
 10
-43.81292370378819
 20
3.367981478364897
 30
0.0
 10
-43.87241177388855
 20
3.357957855099764
 30
0.0
 10
-43.9125711637391
 20
3.352703871245978
 30
0.0
 10
-43.93279516476747
 20
3.35005799999999
 30
0.0
 11
-43.69722416476742
 21
3.392879999999991
 31
0.0
 11
-43.75435816476744
 21
3.379787000000022
 31
0.0
 11
-43.81268716476745
 21
3.368282000000022
 31
0.0
 11
-43.87217816476743
 21
3.358370000000036
 31
0.0
 11
-43.93279516476747
 21
3.35005799999999
 31
0.0
  0
SPLINE
  5
60BB
330
1F
100
AcDbEntity
  8
AM_0
100
AcDbSpline
210
0.0
220
0.0
230
1.0
 70
     8
 71
     3
 72
    11
 73
     7
 74
     5
 42
0.0000000001
 43
0.0000000001
 44
0.0000000001
 40
0.0
 40
0.0
 40
0.0
 40
0.0
 40
0.0131385033013601
 40
0.0262781211420867
 40
0.0394183689327186
 40
0.0525603598397195
 40
0.0525603598397195
 40
0.0525603598397195
 40
0.0525603598397195
 10
-48.13316016476745
 20
25.31774899999999
 30
0.0
 10
-48.1375063302868
 20
25.31720961271454
 30
0.0
 10
-48.14619903001076
 20
25.31613079238741
 30
0.0
 10
-48.15922949194374
 20
25.31444147612988
 30
0.0
 10
-48.17225439248705
 20
25.31270098653518
 30
0.0
 10
-48.18093138217936
 20
25.31149235556509
 30
0.0
 10
-48.18527016476742
 20
25.31088800000003
 30
0.0
 11
-48.13316016476745
 21
25.31774899999999
 31
0.0
 11
-48.14619716476744
 21
25.31611900000002
 31
0.0
 11
-48.15922816476746
 21
25.31443300000001
 31
0.0
 11
-48.17225216476743
 21
25.31268900000003
 31
0.0
 11
-48.18527016476742
 21
25.31088800000003
 31
0.0
  0
SPLINE
  5
60BC
330
1F
100
AcDbEntity
  8
AM_0
100
AcDbSpline
210
0.0
220
0.0
230
1.0
 70
     8
 71
     3
 72
    11
 73
     7
 74
     5
 42
0.0000000001
 43
0.0000000001
 44
0.0000000001
 40
0.0
 40
0.0
 40
0.0
 40
0.0
 40
1.100992909379976
 40
2.201997656080443
 40
3.302943487046278
 40
4.403789212326645
 40
4.403789212326645
 40
4.403789212326645
 40
4.403789212326645
 10
-43.51625116476743
 20
9.452742000000001
 30
0.0
 10
-43.20390775759525
 20
9.64968608370833
 30
0.0
 10
-42.57921758509212
 20
10.04357636856846
 30
0.0
 10
-41.87642545034521
 20
10.91153334198215
 30
0.0
 10
-41.38392863463024
 20
11.91382823120206
 30
0.0
 10
-41.28881687995197
 20
12.64611050827524
 30
0.0
 10
-41.24126316476742
 20
13.01223500000003
 30
0.0
 11
-43.51625116476743
 21
9.452742000000001
 31
0.0
 11
-42.61825916476744
 21
10.08976300000001
 31
0.0
 11
-41.91146016476745
 21
10.93394699999999
 31
0.0
 11
-41.44222116476743
 21
11.92988700000001
 31
0.0
 11
-41.24126316476742
 21
13.01223500000003
 31
0.0
  0
SPLINE
  5
60BD
330
1F
100
AcDbEntity
  8
AM_0
100
AcDbSpline
210
0.0
220
0.0
230
1.0
 70
     8
 71
     3
 72
    11
 73
     7
 74
     5
 42
0.0000000001
 43
0.0000000001
 44
0.0000000001
 40
0.0
 40
0.0
 40
0.0
 40
0.0
 40
1.000139743556379
 40
2.000225337669179
 40
3.000372970208486
 40
4.000522350676247
 40
4.000522350676247
 40
4.000522350676247
 40
4.000522350676247
 10
-41.87180316476741
 20
18.01842600000003
 30
0.0
 10
-41.99804618958473
 20
18.32880473980423
 30
0.0
 10
-42.25052540418499
 20
18.94954541492489
 30
0.0
 10
-42.89008710956921
 20
19.73378620262938
 30
0.0
 10
-43.67443710752775
 20
20.37322102363966
 30
0.0
 10
-44.29524229819391
 20
20.62560493436598
 30
0.0
 10
-44.60564516476745
 20
20.75179700000001
 30
0.0
 11
-41.87180316476741
 21
18.01842600000003
 31
0.0
 11
-42.29400716476744
 21
18.92508100000003
 31
0.0
 11
-42.91420316476746
 21
19.70963699999999
 31
0.0
 11
-43.69891016476743
 21
20.32974200000001
 31
0.0
 11
-44.60564516476745
 21
20.75179700000001
 31
0.0
  0
SPLINE
  5
60BE
330
1F
100
AcDbEntity
  8
AM_0
100
AcDbSpline
210
0.0
220
0.0
230
1.0
 70
     8
 71
     3
 72
    11
 73
     7
 74
     5
 42
0.0000000001
 43
0.0000000001
 44
0.0000000001
 40
0.0
 40
0.0
 40
0.0
 40
0.0
 40
0.0317802143636305
 40
0.0668653798470672
 40
0.1055208131650373
 40
0.1474712439376039
 40
0.1474712439376039
 40
0.1474712439376039
 40
0.1474712439376039
 10
-49.50996016476745
 20
9.597389000000021
 30
0.0
 10
-49.52042943863449
 20
9.599174242576531
 30
0.0
 10
-49.5424567278728
 20
9.602930382218371
 30
0.0
 10
-49.57524239752981
 20
9.616292935969947
 30
0.0
 10
-49.60836773375584
 20
9.636724618589513
 30
0.0
 10
-49.626802825231
 20
9.656427074602226
 30
0.0
 10
-49.63639716476746
 20
9.66668100000004
 30
0.0
 11
-49.50996016476745
 21
9.597389000000021
 31
0.0
 11
-49.54108516476742
 21
9.603809000000013
 31
0.0
 11
-49.57372616476744
 21
9.616674999999987
 31
0.0
 11
-49.60635616476742
 21
9.637400000000014
 31
0.0
 11
-49.63639716476746
 21
9.66668100000004
 31
0.0
  0
SPLINE
  5
60BF
330
1F
100
AcDbEntity
  8
AM_0
100
AcDbSpline
210
0.0
220
0.0
230
1.0
 70
     8
 71
     3
 72
    11
 73
     7
 74
     5
 42
0.0000000001
 43
0.0000000001
 44
0.0000000001
 40
0.0
 40
0.0
 40
0.0
 40
0.0
 40
0.0552177691870698
 40
0.1201619292093932
 40
0.1930299637993452
 40
0.2667993690090541
 40
0.2667993690090541
 40
0.2667993690090541
 40
0.2667993690090541
 10
-49.32656316476744
 20
8.101785000000007
 30
0.0
 10
-49.34472104192928
 20
8.105556848600196
 30
0.0
 10
-49.38423523423075
 20
8.113764941957776
 30
0.0
 10
-49.43880602416406
 20
8.150529209440597
 30
0.0
 10
-49.48355235359053
 20
8.207895477684009
 30
0.0
 10
-49.49305409218941
 20
8.256460982914483
 30
0.0
 10
-49.49783416476743
 20
8.280892999999992
 30
0.0
 11
-49.32656316476744
 21
8.101785000000007
 31
0.0
 11
-49.37986616476741
 21
8.116199999999992
 31
0.0
 11
-49.43438616476743
 21
8.151489000000026
 31
0.0
 11
-49.47805016476747
 21
8.209826000000021
 31
0.0
 11
-49.49783416476743
 21
8.280892999999992
 31
0.0
  0
SPLINE
  5
60C0
330
1F
100
AcDbEntity
  8
AM_0
100
AcDbSpline
210
0.0
220
0.0
230
1.0
 70
     8
 71
     3
 72
    11
 73
     7
 74
     5
 42
0.0000000001
 43
0.0000000001
 44
0.0000000001
 40
0.0
 40
0.0
 40
0.0
 40
0.0
 40
0.0552180302528453
 40
0.1201621902750901
 40
0.1930302248650421
 40
0.2667989349052927
 40
0.2667989349052927
 40
0.2667989349052927
 40
0.2667989349052927
 10
-49.14316516476742
 20
6.606179999999995
 30
0.0
 10
-49.16132301981834
 20
6.609952252272359
 30
0.0
 10
-49.20083706303257
 20
6.618161203103127
 30
0.0
 10
-49.25540811884063
 20
6.654925092121147
 30
0.0
 10
-49.30015391175959
 20
6.712291392092697
 30
0.0
 10
-49.30965662450745
 20
6.760856365081156
 30
0.0
 10
-49.31443716476741
 20
6.785288000000037
 30
0.0
 11
-49.14316516476742
 21
6.606179999999995
 31
0.0
 11
-49.19646816476745
 21
6.620596000000035
 31
0.0
 11
-49.25098816476742
 21
6.655885000000012
 31
0.0
 11
-49.29465216476746
 21
6.714222000000007
 31
0.0
 11
-49.31443716476741
 21
6.785288000000037
 31
0.0
  0
SPLINE
  5
60C1
330
1F
100
AcDbEntity
  8
AM_0
100
AcDbSpline
210
0.0
220
0.0
230
1.0
 70
     8
 71
     3
 72
    11
 73
     7
 74
     5
 42
0.0000000001
 43
0.0000000001
 44
0.0000000001
 40
0.0
 40
0.0
 40
0.0
 40
0.0
 40
0.0257899107792081
 40
0.0508171581108748
 40
0.075015437078597
 40
0.0983733082358526
 40
0.0983733082358526
 40
0.0983733082358526
 40
0.0983733082358526
 10
-49.31443716476741
 20
6.785288000000037
 30
0.0
 10
-49.31487080184196
 20
6.793886660677217
 30
0.0
 10
-49.31572525240473
 20
6.810829701035708
 30
0.0
 10
-49.31295217546463
 20
6.835766327916134
 30
0.0
 10
-49.30777413878356
 20
6.859472986331587
 30
0.0
 10
-49.3021335963947
 20
6.874308385369178
 30
0.0
 10
-49.29936316476744
 20
6.881595000000004
 30
0.0
 11
-49.31443716476741
 21
6.785288000000037
 31
0.0
 11
-49.31503416476744
 21
6.811071000000027
 31
0.0
 11
-49.31248416476745
 21
6.835968000000037
 31
0.0
 11
-49.30713216476744
 21
6.859567000000027
 31
0.0
 11
-49.29936316476744
 21
6.881595000000004
 31
0.0
  0
SPLINE
  5
60C2
330
1F
100
AcDbEntity
  8
AM_0
100
AcDbSpline
210
0.0
220
0.0
230
1.0
 70
     8
 71
     3
 72
    11
 73
     7
 74
     5
 42
0.0000000001
 43
0.0000000001
 44
0.0000000001
 40
0.0
 40
0.0
 40
0.0
 40
0.0
 40
0.0400351136503798
 40
0.0832267331384074
 40
0.1299968285627156
 40
0.1806773346770156
 40
0.1806773346770156
 40
0.1806773346770156
 40
0.1806773346770156
 10
-49.15789616476747
 20
6.774554000000023
 30
0.0
 10
-49.17097630719025
 20
6.7774344620869
 30
0.0
 10
-49.19816787538061
 20
6.78342249178286
 30
0.0
 10
-49.2370595533474
 20
6.803397684685188
 30
0.0
 10
-49.27441694995227
 20
6.832646689161346
 30
0.0
 10
-49.29287750362644
 20
6.859597082615515
 30
0.0
 10
-49.30247816476742
 20
6.873613000000034
 30
0.0
 11
-49.15789616476747
 21
6.774554000000023
 31
0.0
 11
-49.19660616476745
 21
6.78476900000004
 31
0.0
 11
-49.23529316476743
 21
6.803974000000039
 31
0.0
 11
-49.27166816476745
 21
6.833372999999995
 31
0.0
 11
-49.30247816476742
 21
6.873613000000034
 31
0.0
  0
SPLINE
  5
60C3
330
1F
100
AcDbEntity
  8
AM_0
100
AcDbSpline
210
0.0
220
0.0
230
1.0
 70
     8
 71
     3
 72
    11
 73
     7
 74
     5
 42
0.0000000001
 43
0.0000000001
 44
0.0000000001
 40
0.0
 40
0.0
 40
0.0
 40
0.0
 40
0.0257889110472422
 40
0.0508160565096717
 40
0.0750153107131027
 40
0.0983725714471661
 40
0.0983725714471661
 40
0.0983725714471661
 40
0.0983725714471661
 10
-49.49783416476743
 20
8.280892999999992
 30
0.0
 10
-49.49826769036375
 20
8.289491319859362
 30
0.0
 10
-49.49912193586331
 20
8.306433978161667
 30
0.0
 10
-49.49635027976905
 20
8.331370665774241
 30
0.0
 10
-49.49117261873208
 20
8.355077607290694
 30
0.0
 10
-49.48553102104755
 20
8.369912755086119
 30
0.0
 10
-49.48276016476746
 20
8.377199000000019
 30
0.0
 11
-49.49783416476743
 21
8.280892999999992
 31
0.0
 11
-49.49843116476745
 21
8.306675000000041
 31
0.0
 11
-49.49588216476747
 21
8.331571999999994
 31
0.0
 11
-49.49053016476745
 21
8.355172000000039
 31
0.0
 11
-49.48276016476746
 21
8.377199000000019
 31
0.0
  0
SPLINE
  5
60C4
330
1F
100
AcDbEntity
  8
AM_0
100
AcDbSpline
210
0.0
220
0.0
230
1.0
 70
     8
 71
     3
 72
    11
 73
     7
 74
     5
 42
0.0000000001
 43
0.0000000001
 44
0.0000000001
 40
0.0
 40
0.0
 40
0.0
 40
0.0
 40
0.0400360805524451
 40
0.0832272490015466
 40
0.1299981221706681
 40
0.1806780203650922
 40
0.1806780203650922
 40
0.1806780203650922
 40
0.1806780203650922
 10
-49.34129316476742
 20
8.270158000000038
 30
0.0
 10
-49.35437372600148
 20
8.273038284359288
 30
0.0
 10
-49.38156567665909
 20
8.279025837093087
 30
0.0
 10
-49.4204564956239
 20
8.29900357751934
 30
0.0
 10
-49.45781500594191
 20
8.328250915540458
 30
0.0
 10
-49.47627495167963
 20
8.355201944608307
 30
0.0
 10
-49.48587516476744
 20
8.369217999999989
 30
0.0
 11
-49.34129316476742
 21
8.270158000000038
 31
0.0
 11
-49.38000416476746
 21
8.280372999999997
 31
0.0
 11
-49.41869016476744
 21
8.299578999999994
 31
0.0
 11
-49.45506616476746
 21
8.328978000000006
 31
0.0
 11
-49.48587516476744
 21
8.369217999999989
 31
0.0
  0
SPLINE
  5
60C5
330
1F
100
AcDbEntity
  8
AM_0
100
AcDbSpline
210
0.0
220
0.0
230
1.0
 70
     8
 71
     3
 72
    11
 73
     7
 74
     5
 42
0.0000000001
 43
0.0000000001
 44
0.0000000001
 40
0.0
 40
0.0
 40
0.0
 40
0.0
 40
0.7960306971066161
 40
1.592062246949924
 40
2.38809294405654
 40
3.184124493899857
 40
3.184124493899857
 40
3.184124493899857
 40
3.184124493899857
 10
-58.07853916476745
 20
0.4532040000000279
 30
0.0
 10
-57.8157245165996
 20
0.4897507996963113
 30
0.0
 10
-57.29009493872739
 20
0.5628444382391233
 30
0.0
 10
-56.50165037970817
 20
0.6724824819430587
 30
0.0
 10
-55.7132059387274
 20
0.7821234382391242
 30
0.0
 10
-55.1875761832663
 20
0.8552157996965397
 30
0.0
 10
-54.92476116476746
 20
0.8917620000000284
 30
0.0
 11
-58.07853916476745
 21
0.4532040000000279
 31
0.0
 11
-57.29009516476742
 21
0.562844000000041
 31
0.0
 11
-56.50165016476745
 21
0.6724829999999997
 31
0.0
 11
-55.71320616476743
 21
0.7821230000000128
 31
0.0
 11
-54.92476116476746
 21
0.8917620000000284
 31
0.0
  0
SPLINE
  5
60C6
330
1F
100
AcDbEntity
  8
AM_0
100
AcDbSpline
210
0.0
220
0.0
230
1.0
 70
     8
 71
     3
 72
    11
 73
     7
 74
     5
 42
0.0000000001
 43
0.0000000001
 44
0.0000000001
 40
0.0
 40
0.0
 40
0.0
 40
0.0
 40
0.799377521187594
 40
1.598755042375131
 40
2.398132580999417
 40
3.197510102187011
 40
3.197510102187011
 40
3.197510102187011
 40
3.197510102187011
 10
-54.87300516476745
 20
0.3001830000000041
 30
0.0
 10
-55.13942383091524
 20
0.304829029752858
 30
0.0
 10
-55.67226116321083
 20
0.3141210892585655
 30
0.0
 10
-56.47151717680522
 20
0.3280586430670716
 30
0.0
 10
-57.27077315304097
 20
0.341998339081201
 30
0.0
 10
-57.80361049612907
 20
0.3512901130608374
 30
0.0
 10
-58.07002916476745
 20
0.3559359999999856
 30
0.0
 11
-54.87300516476745
 21
0.3001830000000041
 31
0.0
 11
-55.67226116476746
 21
0.3141210000000001
 31
0.0
 11
-56.47151716476742
 21
0.3280589999999961
 31
0.0
 11
-57.27077316476743
 21
0.3419979999999896
 31
0.0
 11
-58.07002916476745
 21
0.3559359999999856
 31
0.0
  0
LINE
  5
60C7
330
1F
100
AcDbEntity
  8
AM_0
100
AcDbLine
 10
-54.87300516476745
 20
0.3001830000000041
 30
0.0
 11
-54.87365016476741
 21
0.3075550000000362
 31
0.0
  0
SPLINE
  5
60CA
330
1F
100
AcDbEntity
  8
AM_0
100
AcDbSpline
210
0.0
220
0.0
230
1.0
 70
     8
 71
     3
 72
    11
 73
     7
 74
     5
 42
0.0000000001
 43
0.0000000001
 44
0.0000000001
 40
0.0
 40
0.0
 40
0.0
 40
0.0
 40
0.3528319669672354
 40
0.6978106403849207
 40
1.03717033971585
 40
1.373894803372733
 40
1.373894803372733
 40
1.373894803372733
 40
1.373894803372733
 10
-45.01569316476747
 20
10.518328
 30
0.0
 10
-45.11603877352621
 20
10.45668189634575
 30
0.0
 10
-45.31449650996554
 20
10.3347618009588
 30
0.0
 10
-45.63406125078231
 20
10.20013635075658
 30
0.0
 10
-45.96013947420517
 20
10.09935396936462
 30
0.0
 10
-46.183093610889
 20
10.06468427803574
 30
0.0
 10
-46.29413616476745
 20
10.047417
 30
0.0
 11
-45.01569316476747
 21
10.518328
 31
0.0
 11
-45.32096016476743
 21
10.34140300000001
 31
0.0
 11
-45.63774716476746
 21
10.204815
 31
0.0
 11
-45.96275616476743
 21
10.10717199999999
 31
0.0
 11
-46.29413616476745
 21
10.047417
 31
0.0
  0
SPLINE
  5
60CD
330
1F
100
AcDbEntity
  8
AM_0
100
AcDbSpline
210
0.0
220
0.0
230
1.0
 70
     8
 71
     3
 72
    11
 73
     7
 74
     5
 42
0.0000000001
 43
0.0000000001
 44
0.0000000001
 40
0.0
 40
0.0
 40
0.0
 40
0.0
 40
1.162584394234249
 40
2.17689376278015
 40
2.982735167563983
 40
3.5667734995397
 40
3.5667734995397
 40
3.5667734995397
 40
3.5667734995397
 10
-43.63557516476743
 20
12.82339300000001
 30
0.0
 10
-43.61744568611765
 20
12.4347806790205
 30
0.0
 10
-43.58349894711887
 20
11.70711932224045
 30
0.0
 10
-43.7099415054889
 20
10.72641647376037
 30
0.0
 10
-43.73546093942106
 20
9.902862783951139
 30
0.0
 10
-43.53115649122606
 20
9.480918350044073
 30
0.0
 10
-43.44530616476743
 20
9.303614000000039
 30
0.0
 11
-43.63557516476743
 21
12.82339300000001
 31
0.0
 11
-43.61718916476741
 21
11.660954
 31
0.0
 11
-43.70081716476744
 21
10.65009800000001
 31
0.0
 11
-43.66417716476741
 21
9.845090000000027
 31
0.0
 11
-43.44530616476743
 21
9.303614000000039
 31
0.0
  0
SPLINE
  5
60CF
330
1F
100
AcDbEntity
  8
AM_0
100
AcDbSpline
210
0.0
220
0.0
230
1.0
 70
     8
 71
     3
 72
    11
 73
     7
 74
     5
 42
0.0000000001
 43
0.0000000001
 44
0.0000000001
 40
0.0
 40
0.0
 40
0.0
 40
0.0
 40
0.176350360875779
 40
0.3112450353925803
 40
0.3992625334369946
 40
0.4336196330381029
 40
0.4336196330381029
 40
0.4336196330381029
 40
0.4336196330381029
 10
-43.44530616476743
 20
9.303614000000039
 30
0.0
 10
-43.41189630102875
 20
9.25512800298038
 30
0.0
 10
-43.35293042100354
 20
9.169553889134031
 30
0.0
 10
-43.26426140459601
 20
9.07043700452966
 30
0.0
 10
-43.20431320928996
 20
9.008241072531881
 30
0.0
 10
-43.17015281567419
 20
8.985829209529147
 30
0.0
 10
-43.16056216476744
 20
8.979536999999993
 30
0.0
 11
-43.44530616476743
 21
9.303614000000039
 31
0.0
 11
-43.34181616476741
 21
9.160822999999994
 31
0.0
 11
-43.25295816476745
 21
9.059329999999989
 31
0.0
 11
-43.18888916476743
 21
8.99897900000002
 31
0.0
 11
-43.16056216476744
 21
8.979536999999993
 31
0.0
  0
LINE
  5
60FD
330
1F
100
AcDbEntity
  8
AM_0
100
AcDbLine
 10
-41.87180316476741
 20
18.01842600000003
 30
0.0
 11
-41.85211479092055
 21
17.95505835788549
 31
0.0
  0
LINE
  5
6100
330
1F
100
AcDbEntity
  8
AM_0
100
AcDbLine
 10
-54.8914621647674
 20
13.38669500000003
 30
0.0
 11
-52.85837116476745
 21
13.75920900000006
 31
0.0
  0
LINE
  5
6101
330
1F
100
AcDbEntity
  8
AM_0
100
AcDbLine
 10
-53.73944916476745
 20
0.2191270000000714
 30
0.0
 11
-51.70635816476744
 21
0.5916400000000408
 31
0.0
  0
LINE
  5
6102
330
1F
100
AcDbEntity
  8
AM_0
100
AcDbLine
 10
-54.87694216476746
 20
0.3451820000000225
 30
0.0
 11
-53.73944916476745
 21
0.2191270000000714
 31
0.0
  0
LINE
  5
6103
330
1F
100
AcDbEntity
  8
AM_0
100
AcDbLine
 10
-54.87694216476746
 20
0.3451820000000225
 30
0.0
 11
-54.90744216476742
 21
0.6937910000000329
 31
0.0
  0
LINE
  5
6104
330
1F
100
AcDbEntity
  8
AM_0
100
AcDbLine
 10
-54.90744216476742
 20
0.6937910000000329
 30
0.0
 11
-54.92476216476746
 21
0.8917620000000284
 31
0.0
  0
LINE
  5
6105
330
1F
100
AcDbEntity
  8
AM_0
100
AcDbLine
 10
-55.92823416476745
 20
12.36150700000007
 30
0.0
 11
-55.94085416476742
 21
12.50575000000004
 31
0.0
  0
LINE
  5
6106
330
1F
100
AcDbEntity
  8
AM_0
100
AcDbLine
 10
-55.94085416476742
 20
12.50575000000004
 30
0.0
 11
-55.94840716476745
 21
12.59208400000006
 31
0.0
  0
LINE
  5
6107
330
1F
100
AcDbEntity
  8
AM_0
100
AcDbLine
 10
-55.94840716476745
 20
12.59208400000006
 30
0.0
 11
-55.97135316476744
 21
12.85435900000005
 31
0.0
  0
LINE
  5
6108
330
1F
100
AcDbEntity
  8
AM_0
100
AcDbLine
 10
-55.97135316476744
 20
12.85435900000005
 30
0.0
 11
-54.8914621647674
 21
13.38669500000003
 31
0.0
  0
LINE
  5
6109
330
1F
100
AcDbEntity
  8
AM_0
100
AcDbLine
 10
-52.32893716476741
 20
7.707756000000018
 30
0.0
 11
-51.70635816476744
 21
0.5916400000000408
 31
0.0
  0
LINE
  5
610A
330
1F
100
AcDbEntity
  8
AM_0
100
AcDbLine
 10
-53.73944916476745
 20
0.2191270000000714
 30
0.0
 11
-51.65460116476743
 21
0.0000610000000734
 31
0.0
  0
LINE
  5
610B
330
1F
100
AcDbEntity
  8
AM_0
100
AcDbLine
 10
-52.8763331647674
 20
13.96452400000004
 30
0.0
 11
-54.8914621647674
 21
13.38669500000003
 31
0.0
  0
LINE
  5
610D
330
1F
100
AcDbEntity
  8
AM_0
100
AcDbLine
 10
-52.86713116476744
 20
13.85934500000008
 30
0.0
 11
-52.32893716476741
 21
7.707756000000018
 31
0.0
  0
LINE
  5
6110
330
1F
100
AcDbEntity
  8
AM_0
100
AcDbLine
 10
-53.59590316476744
 20
13.75819100000007
 30
0.0
 11
-53.70103916476739
 21
14.61557200000004
 31
0.0
  0
LINE
  5
6112
330
1F
100
AcDbEntity
  8
AM_0
100
AcDbLine
 10
-58.07854016476745
 20
0.4532040000000279
 30
0.0
 11
-59.08201316476743
 21
11.92294900000002
 31
0.0
  0
LINE
  5
6113
330
1F
100
AcDbEntity
  8
AM_0
100
AcDbLine
 10
-54.92476216476746
 20
0.8917620000000284
 30
0.0
 11
-55.92823416476745
 21
12.36150700000007
 31
0.0
  0
LINE
  5
6114
330
1F
100
AcDbEntity
  8
AM_0
100
AcDbLine
 10
-55.94619716476746
 20
12.56682200000006
 30
0.0
 11
-59.08496616476742
 21
11.95670700000005
 31
0.0
  0
LINE
  5
6115
330
1F
100
AcDbEntity
  8
AM_0
100
AcDbLine
 10
-51.70635816476744
 20
0.5916400000000408
 30
0.0
 11
-51.65459616476744
 21
0.0000000000000568
 31
0.0
  0
LINE
  5
6116
330
1F
100
AcDbEntity
  8
AM_0
100
AcDbLine
 10
-58.07003016476745
 20
0.3559310000000551
 30
0.0
 11
-58.07854016476745
 21
0.4532040000000279
 31
0.0
  0
LINE
  5
6117
330
1F
100
AcDbEntity
  8
AM_0
100
AcDbLine
 10
-54.87365016476741
 20
0.3075550000000362
 30
0.0
 11
-54.87687116476741
 21
0.3443650000000389
 31
0.0
  0
LINE
  5
6118
330
1F
100
AcDbEntity
  8
AM_0
100
AcDbLine
 10
-54.90744316476742
 20
0.6938070000000494
 30
0.0
 11
-54.92476216476746
 21
0.8917620000000284
 31
0.0
  0
LINE
  5
6119
330
1F
100
AcDbEntity
  8
AM_0
100
AcDbLine
 10
-59.08201316476743
 20
11.92294900000002
 30
0.0
 11
-59.08496616476742
 21
11.95670700000005
 31
0.0
  0
LINE
  5
611A
330
1F
100
AcDbEntity
  8
AM_0
100
AcDbLine
 10
-55.92823416476745
 20
12.36150700000007
 30
0.0
 11
-55.94111716476743
 21
12.50876000000005
 31
0.0
  0
LINE
  5
611B
330
1F
100
AcDbEntity
  8
AM_0
100
AcDbLine
 10
-55.94111716476743
 20
12.50876000000005
 30
0.0
 11
-55.94619716476746
 21
12.56682200000006
 31
0.0
  0
LINE
  5
611D
330
1F
100
AcDbEntity
  8
AM_0
100
AcDbLine
 10
-52.41032416476742
 20
10.37421000000006
 30
0.0
 11
-52.39332016476743
 21
10.23571200000004
 31
0.0
  0
LINE
  5
611E
330
1F
100
AcDbEntity
  8
AM_0
100
AcDbLine
 10
-52.39332016476743
 20
10.23571200000004
 30
0.0
 11
-52.3764691647674
 21
10.09856500000007
 31
0.0
  0
LINE
  5
611F
330
1F
100
AcDbEntity
  8
AM_0
100
AcDbLine
 10
-52.3764691647674
 20
10.09856500000007
 30
0.0
 11
-52.36010016476746
 21
9.965440000000058
 31
0.0
  0
LINE
  5
6120
330
1F
100
AcDbEntity
  8
AM_0
100
AcDbLine
 10
-52.36010016476746
 20
9.965440000000058
 30
0.0
 11
-52.34453216476743
 21
9.838928000000067
 31
0.0
  0
LINE
  5
6121
330
1F
100
AcDbEntity
  8
AM_0
100
AcDbLine
 10
-52.34453216476743
 20
9.838928000000067
 30
0.0
 11
-52.33006816476745
 21
9.721493000000066
 31
0.0
  0
SPLINE
  5
6127
330
1F
100
AcDbEntity
  8
AM_0
100
AcDbSpline
210
0.0
220
0.0
230
1.0
 70
     8
 71
     3
 72
    11
 73
     7
 74
     5
 42
0.0000000001
 43
0.0000000001
 44
0.0000000001
 40
0.0
 40
0.0
 40
0.0
 40
0.0
 40
0.0604875023207243
 40
0.1263222296687943
 40
0.1951232019003244
 40
0.2644881598834224
 40
0.2644881598834224
 40
0.2644881598834224
 40
0.2644881598834224
 10
-51.29274116476745
 20
1.361505000000022
 30
0.0
 10
-51.31272461799637
 20
1.358823779691307
 30
0.0
 10
-51.35445810460945
 20
1.353224313443976
 30
0.0
 10
-51.41895959058293
 20
1.344862517574115
 30
0.0
 10
-51.48641544945859
 20
1.336274701946393
 30
0.0
 10
-51.53212306766734
 20
1.330625919988242
 30
0.0
 10
-51.55507016476742
 20
1.32779000000005
 30
0.0
 11
-51.29274116476745
 21
1.361505000000022
 31
0.0
 11
-51.35269716476745
 21
1.353504000000044
 31
0.0
 11
-51.41798216476741
 21
1.345014000000049
 31
0.0
 11
-51.48623416476744
 21
1.336340000000064
 31
0.0
 11
-51.55507016476742
 21
1.32779000000005
 31
0.0
  0
SPLINE
  5
6128
330
1F
100
AcDbEntity
  8
AM_0
100
AcDbSpline
210
0.0
220
0.0
230
1.0
 70
     8
 71
     3
 72
    11
 73
     7
 74
     5
 42
0.0000000001
 43
0.0000000001
 44
0.0000000001
 40
0.0
 40
0.0
 40
0.0
 40
0.0
 40
0.7960306971066161
 40
1.592062246949932
 40
2.388093934525899
 40
3.184124493899685
 40
3.184124493899685
 40
3.184124493899685
 40
3.184124493899685
 10
-58.07854016476745
 20
0.4532040000000279
 30
0.0
 10
-57.81572551592208
 20
0.4897507948241392
 30
0.0
 10
-57.29009593669487
 20
0.5628444236226022
 30
0.0
 10
-56.50165106082841
 20
0.6724825858819596
 30
0.0
 10
-55.71320658122953
 20
0.7821232644659604
 30
0.0
 10
-55.18757684609372
 20
0.8552157720874795
 30
0.0
 10
-54.92476216476746
 20
0.8917620000000284
 30
0.0
 11
-58.07854016476745
 21
0.4532040000000279
 31
0.0
 11
-57.29009616476742
 21
0.562844000000041
 31
0.0
 11
-56.50165116476745
 21
0.6724830000000566
 31
0.0
 11
-55.71320616476743
 21
0.7821230000000696
 31
0.0
 11
-54.92476216476746
 21
0.8917620000000284
 31
0.0
  0
SPLINE
  5
6129
330
1F
100
AcDbEntity
  8
AM_0
100
AcDbSpline
210
0.0
220
0.0
230
1.0
 70
     8
 71
     3
 72
    11
 73
     7
 74
     5
 42
0.0000000001
 43
0.0000000001
 44
0.0000000001
 40
0.0
 40
0.0
 40
0.0
 40
0.0
 40
0.7960316875759103
 40
1.592063237419283
 40
2.388093934525843
 40
3.184125484369215
 40
3.184125484369215
 40
3.184125484369215
 40
3.184125484369215
 10
-55.92823416476745
 20
12.36150700000007
 30
0.0
 10
-56.19104914796236
 20
12.32496021248397
 30
0.0
 10
-56.71667906887892
 20
12.25186664377524
 30
0.0
 10
-57.50512394847166
 20
12.14222850831259
 30
0.0
 10
-58.29356839114622
 20
12.03258756419702
 30
0.0
 10
-58.81919814638148
 20
11.95949520111554
 30
0.0
 10
-59.08201316476743
 20
11.92294900000002
 30
0.0
 11
-55.92823416476745
 21
12.36150700000007
 31
0.0
 11
-56.71667916476741
 21
12.25186700000006
 31
0.0
 11
-57.50512416476744
 21
12.14222800000005
 31
0.0
 11
-58.29356816476741
 21
12.03258800000003
 31
0.0
 11
-59.08201316476743
 21
11.92294900000002
 31
0.0
  0
SPLINE
  5
612A
330
1F
100
AcDbEntity
  8
AM_0
100
AcDbSpline
210
0.0
220
0.0
230
1.0
 70
     8
 71
     3
 72
    11
 73
     7
 74
     5
 42
0.0000000001
 43
0.0000000001
 44
0.0000000001
 40
0.0
 40
0.0
 40
0.0
 40
0.0
 40
0.7993785210355718
 40
1.598756042223166
 40
2.398133580847452
 40
3.197511102035046
 40
3.197511102035046
 40
3.197511102035046
 40
3.197511102035046
 10
-54.87300516476739
 20
0.3001830000000609
 30
0.0
 10
-55.13942416427568
 20
0.3048290281964136
 30
0.0
 10
-55.67226183006024
 20
0.314121078777952
 30
0.0
 10
-56.47151817678349
 20
0.3280586443123852
 30
0.0
 10
-57.2707741530464
 20
0.3419983387699437
 30
0.0
 10
-57.80361149613088
 20
0.3512901129571228
 30
0.0
 10
-58.07003016476745
 20
0.3559360000000424
 30
0.0
 11
-54.87300516476739
 21
0.3001830000000609
 31
0.0
 11
-55.6722621647674
 21
0.3141210000000569
 31
0.0
 11
-56.47151816476742
 21
0.328059000000053
 31
0.0
 11
-57.27077416476743
 21
0.3419980000000464
 31
0.0
 11
-58.07003016476745
 21
0.3559360000000424
 31
0.0
  0
LINE
  5
612B
330
1F
100
AcDbEntity
  8
AM_0
100
AcDbLine
 10
-54.87300516476739
 20
0.3001830000000609
 30
0.0
 11
-54.87365016476741
 21
0.3075550000000362
 31
0.0
  0
LINE
  5
6139
330
1F
100
AcDbEntity
  8
AM_5
370
    13
100
AcDbLine
 10
-51.65459616476744
 20
0.0
 30
0.0
 11
-51.65459616476744
 21
-1.939064043688177
 31
0.0
  0
DIMENSION
  5
613A
330
1F
100
AcDbEntity
  8
AM_5
370
    13
100
AcDbDimension
  2
*D8
 10
-51.70635816476744
 20
0.5916400000000408
 30
0.0
 11
-54.65983496136323
 21
-17.74536043971557
 31
0.0
 70
   162
 71
     5
 42
0.0872663958916995
  3
AM_JIS
100
AcDb2LineAngularDimension
 13
-51.65459616476744
 23
0.0
 33
0.0
 14
-51.65459616476744
 24
-1.939064043688177
 34
0.0
 15
-52.32893716476741
 25
7.707756000000018
 35
0.0
 16
-50.60810443799072
 26
-17.96758563858685
 36
0.0
1001
ACAD
1000
DSTYLE
1002
{
1070
   271
1070
     0
1002
}
  0
TEXT
  5
6173
330
1F
100
AcDbEntity
  8
AM_6
  6
Continuous
 62
     0
370
    30
100
AcDbText
 10
66.46396957153905
 20
-119.327413828745
 30
0.0
 40
3.8
  1
FP21R-45A
  7
ACISOTS
100
AcDbText
  0
LINE
  5
6188
330
1F
100
AcDbEntity
  8
AM_7
  6
CENTER
370
    13
100
AcDbLine
 10
21.68938299999996
 20
15.47004399999997
 30
0.0
 11
30.46470522025231
 21
15.47004399999997
 31
0.0
1001
GENIUS_GENOREF_13
1005
618C
  0
LINE
  5
6189
330
1F
100
AcDbEntity
  8
AM_7
  6
CENTER
370
    13
100
AcDbLine
 10
21.68938299999996
 20
15.47004399999997
 30
0.0
 11
21.68938299999996
 21
24.24536622025232
 31
0.0
1001
GENIUS_GENOREF_13
1005
618C
  0
LINE
  5
618A
330
1F
100
AcDbEntity
  8
AM_7
  6
CENTER
370
    13
100
AcDbLine
 10
21.68938299999996
 20
15.47004399999997
 30
0.0
 11
12.91406077974762
 21
15.47004399999997
 31
0.0
1001
GENIUS_GENOREF_13
1005
618C
  0
LINE
  5
618B
330
1F
100
AcDbEntity
  8
AM_7
  6
CENTER
370
    13
100
AcDbLine
 10
21.68938299999996
 20
15.47004399999997
 30
0.0
 11
21.68938299999996
 21
6.694721779747624
 31
0.0
1001
GENIUS_GENOREF_13
1005
618C
  0
POINT
  5
618C
330
1F
100
AcDbEntity
  8
0
 60
     1
370
    13
100
AcDbPoint
 10
0.0
 20
0.0
 30
0.0
1001
GENIUS_GENODEF_13
1002
{
1000
HIER
1070
    10
1002
}
1002
{
1000
MANEDIT
1070
     0
1002
}
1002
{
1000
NOSEL
1070
     0
1002
}
1002
{
1000
BEHIND
1070
     0
1002
}
1002
{
1000
OTHER
1070
     0
1002
}
1002
{
1000
REACTOR
1002
}
1001
GENIUS_GENOBJ-N-CRS_13
1002
{
1000
OWNER
1000
GEN
1002
}
1001
GENIUS_GENOENT_13
1002
{
1000
MYREF
1005
618C
1002
}
1002
{
1000
GRP
1005
0
1002
}
1001
GENIUS_GENOLIS_13
1002
{
1000
ENT
1005
618B
1005
618A
1005
6189
1005
6188
1002
}
  0
LINE
  5
6193
330
1F
100
AcDbEntity
  8
AM_7
  6
CENTER
370
    13
100
AcDbLine
 10
21.68938299999996
 20
-57.57883363081487
 30
0.0
 11
21.68938299999996
 21
-105.6516738587698
 31
0.0
  0
DIMENSION
  5
61A1
330
1F
100
AcDbEntity
  8
AM_5
370
    13
100
AcDbDimension
  2
*D9
 10
179.1007240967692
 20
-102.4818707521737
 30
0.0
 11
175.7003500810212
 21
-86.48187075217365
 31
0.0
 70
    32
 71
     5
 42
32.0
  3
AM_JIS$0
100
AcDbAlignedDimension
 13
160.0014795581795
 23
-70.48187075217368
 33
0.0
 14
160.0014795581795
 24
-102.4818707521737
 34
0.0
 50
90.0
100
AcDbRotatedDimension
1001
ACAD
1000
DSTYLE
1002
{
1070
   271
1070
     0
1002
}
  0
LINE
  5
61C1
330
1F
100
AcDbEntity
  8
AM_0
100
AcDbLine
 10
160.0014795581795
 20
-102.4818707521737
 30
0.0
 11
1.501479558179483
 21
-102.4818707521737
 31
0.0
  0
LINE
  5
61FF
330
1F
100
AcDbEntity
  8
AM_5
370
    13
100
AcDbLine
 10
0.0023406598963902
 20
-70.48187075217368
 30
0.0
 11
-2.239368535476842
 21
-70.48187075217368
 31
0.0
  0
DIMENSION
  5
6202
330
1F
100
AcDbEntity
  8
AM_5
370
    13
100
AcDbDimension
  2
*D10
 10
-15.22870360316483
 20
-102.4818707521737
 30
0.0
 11
-18.62907761891285
 21
-86.48187075217368
 31
0.0
 70
    32
 71
     5
 42
32.0
  3
AM_JIS$0
100
AcDbAlignedDimension
 13
-2.239368535476842
 23
-70.48187075217368
 33
0.0
 14
1.501479558179454
 24
-102.4818707521737
 34
0.0
 50
90.0
100
AcDbRotatedDimension
1001
ACAD
1000
DSTYLE
1002
{
1070
   271
1070
     0
1002
}
  0
DIMENSION
  5
62C0
330
1F
100
AcDbEntity
  8
AM_5
370
    13
100
AcDbDimension
  2
*D11
 10
34.49832399999997
 20
33.85483026758129
 30
0.0
 11
17.24916199999998
 21
37.25483026758129
 31
0.0
 70
    32
 71
     5
 42
34.49832399999997
  3
AM_JIS$0
100
AcDbAlignedDimension
 13
0.0
 23
0.0
 33
0.0
 14
34.49832399999997
 24
25.0
 34
0.0
100
AcDbRotatedDimension
1001
ACAD
1000
DSTYLE
1002
{
1070
   271
1070
     1
1002
}
  0
ENDSEC
  0
SECTION
  2
OBJECTS
  0
DICTIONARY
  5
C
330
0
100
AcDbDictionary
281
     1
  3
ACAD_COLOR
350
1611
  3
ACAD_GROUP
350
D
  3
ACAD_LAYOUT
350
1A
  3
ACAD_MATERIAL
350
1610
  3
ACAD_MLINESTYLE
350
17
  3
ACAD_PLOTSETTINGS
350
19
  3
ACAD_PLOTSTYLENAME
350
E
  3
ACAD_TABLESTYLE
350
1612
  3
AcAmCatalogState
350
1679
  3
ACDBHEADERROUNDTRIPXREC
350
6304
  3
AcDbVariableDictionary
350
30
  3
ACDMSYSVARMGR
350
162A
  3
ACGREF_MASTER
350
1622
  3
ACGREFACAD_MASTER
350
164C
  3
AcmDictionary
350
43
  3
ACME_BOM_MANAGER_NAME
350
36
  3
ACME_COMMAND_HISTORY
350
2F
  3
ACME_SCOPE_NAME
350
2E
  3
ACMESTATEMGR
350
3B
  3
AcmeSysVarManager
350
32
  3
AcmSystemVariableManager
350
79D
  3
AD_APPL
350
1657
  3
ADSYSVARMGR
350
1656
  3
AmdtNamedDwgMgr
350
1647
  3
AMG
350
3F
  3
AMGSNAPSETTINGS
350
59
  3
AMI_MASTER
350
164F
  3
AUTOCAD_ASSEMBLIES_PROJECT
350
165F
  3
Designer_Assemblies_SysVars
350
165A
  3
DWGPROPS
350
6307
  3
GREFAM_MODULE
350
1650
  3
SAKAE_DICT
350
1605
  0
DICTIONARY
  5
1832
330
2
100
AcDbDictionary
280
     1
281
     1
  3
ACAD_LAYERSTATES
360
1833
  0
DICTIONARY
  5
10B
330
1F
100
AcDbDictionary
280
     1
281
     1
  3
ACAD_SORTENTS
360
1DD7
  0
DICTIONARY
  5
1611
102
{ACAD_REACTORS
330
C
102
}
330
C
100
AcDbDictionary
281
     1
  0
DICTIONARY
  5
D
102
{ACAD_REACTORS
330
C
102
}
330
C
100
AcDbDictionary
281
     1
  0
DICTIONARY
  5
1A
102
{ACAD_REACTORS
330
C
102
}
330
C
100
AcDbDictionary
281
     1
  3
Model
350
22
  3
ﾚｲｱｳﾄ1
350
1E
  3
ﾚｲｱｳﾄ2
350
26
  0
DICTIONARY
  5
1610
102
{ACAD_REACTORS
330
C
102
}
330
C
100
AcDbDictionary
281
     1
  0
DICTIONARY
  5
17
102
{ACAD_REACTORS
330
C
102
}
330
C
100
AcDbDictionary
281
     1
  3
Standard
350
18
  0
DICTIONARY
  5
19
102
{ACAD_REACTORS
330
C
102
}
330
C
100
AcDbDictionary
281
     1
  0
ACDBDICTIONARYWDFLT
  5
E
102
{ACAD_REACTORS
330
C
102
}
330
C
100
AcDbDictionary
281
     1
  3
Normal
350
F
100
AcDbDictionaryWithDefault
340
F
  0
DICTIONARY
  5
1612
102
{ACAD_REACTORS
330
C
102
}
330
C
100
AcDbDictionary
281
     1
  3
Standard
350
1613
  0
ACAD_PROXY_OBJECT
  5
1679
102
{ACAD_REACTORS
330
C
102
}
330
C
100
AcDbProxyObject
 90
      499
 91
      570
 95
       25
 70
     0
 93
      160
310
3FFFFFFFE00A028140283A19D2E3A32B6B8400AA
  0
DICTIONARY
  5
6304
102
{ACAD_REACTORS
330
C
102
}
330
C
100
AcDbDictionary
281
     1
  3
COLORDICT
350
6305
  3
MATERIALDICT
350
6306
  0
DICTIONARY
  5
30
102
{ACAD_REACTORS
330
C
102
}
330
C
100
AcDbDictionary
281
     1
  3
CTABLESTYLE
350
1684
  3
DIMASSOC
350
6302
  3
HIDETEXT
350
6303
  3
INDEXCTL
350
31
  0
ACAD_PROXY_OBJECT
  5
162A
102
{ACAD_REACTORS
330
C
102
}
330
C
100
AcDbProxyObject
 90
      499
 91
      507
 95
       25
 70
     0
 93
      240
310
4C51A47A0000000000000000000000000000000000000000000000000000
330
162B
330
162C
330
162D
330
162E
330
162F
330
1630
330
1631
330
1632
330
1633
330
1634
330
1635
330
1636
330
1637
330
1638
330
1639
330
163A
330
163B
330
163C
330
163D
330
163E
330
163F
330
1640
330
1641
330
1642
330
1643
330
1644
 94
        0
  0
ACAD_PROXY_OBJECT
  5
1622
102
{ACAD_REACTORS
330
C
102
}
330
C
100
AcDbProxyObject
 90
      499
 91
      534
 95
       25
 70
     0
 93
       34
310
0400004280
  0
ACAD_PROXY_OBJECT
  5
164C
102
{ACAD_REACTORS
330
C
102
}
330
C
100
AcDbProxyObject
 90
      499
 91
      540
 95
       25
 70
     0
 93
      114
310
04000041C080000000000000000000
  0
DICTIONARY
  5
43
102
{ACAD_REACTORS
330
C
102
}
330
C
100
AcDbDictionary
281
     1
  3
AcmBOMDATA
350
44
  3
AcmStdDictionary
350
7A0
  3
AMDTSECTSYM_ARROWCOLOR
350
166D
  0
ACAD_PROXY_OBJECT
  5
36
102
{ACAD_REACTORS
330
C
102
}
330
C
100
AcDbProxyObject
 90
      499
 91
      510
 95
       25
 70
     0
 93
       50
310
00010040400000
330
0
330
0
330
37
 94
        0
  0
ACAD_PROXY_OBJECT
  5
2F
102
{ACAD_REACTORS
330
C
102
}
330
C
100
AcDbProxyObject
 90
      499
 91
      505
 95
       25
 70
     0
 93
     9496
310
47805055153415645404052D4D5347202D205050413A2020206465736B746F702E6172782046696C6556657273696F6E3A20392E322E302E3401415454D05591501014B5354D1C80B481414104E88080819195CDADD1BDC0B985C9E08119A5B1955995C9CDA5BDB8E880E4B8C8B8C0B8D005055153415645404052D4D53472
310
02D205050413A2020206465736B746F702E6172782046696C6556657273696F6E3A20392E322E302E3401415454D05591501014B5354D1C80B481414104E88080819195CDADD1BDC0B985C9E08119A5B1955995C9CDA5BDB8E880E4B8C8B8C0B8D005055153415645404052D4D5347202D205050413A2020206465736B746F
310
702E6172782046696C6556657273696F6E3A20392E322E302E3401415454D05591501014B5354D1C80B481414104E88080819195CDADD1BDC0B985C9E08119A5B1955995C9CDA5BDB8E880E4B8C8B8C0B8D005055153415645404052D4D5347202D205050413A2020206465736B746F702E6172782046696C6556657273696
310
F6E3A20392E322E302E34014154155491D1601415454D05591501014B5354D1C80B481414104E88080819195CDADD1BDC0B985C9E08119A5B1955995C9CDA5BDB8E880E4B8C8B8C0B8D005055153415645404052D4D5347202D205050413A2020206465736B746F702E6172782046696C6556657273696F6E3A20392E322E3
310
02E3401415454D05591501014B5354D1C80B481414104E88080819195CDADD1BDC0B985C9E08119A5B1955995C9CDA5BDB8E880E4B8C8B8C0B8D005055153415645404052D4D5347202D205050413A2020206465736B746F702E6172782046696C6556657273696F6E3A20392E322E302E34014390535115149154D1551110
310
9353D1102014213880B4815539113C05084E202D20554E444F014115539113E014115539113E0142511253531253915054A01415454D05591501014B5354D1C80B481414104E88080819195CDADD1BDC0B985C9E08119A5B1955995C9CDA5BDB8E880E4B8C8B8C0B8D005055153415645404052D4D5347202D205050413A20
310
20206465736B746F702E6172782046696C6556657273696F6E3A20392E322E302E34014151549054D1601415454D05591501014B5354D1C80B481414104E88080819195CDADD1BDC0B985C9E08119A5B1955995C9CDA5BDB8E880E4B8C8B8C0B8D005055153415645404052D4D5347202D205050413A2020206465736B746F
310
702E6172782046696C6556657273696F6E3A20392E322E302E3401415454D05591501014B5354D1C80B481414104E88080819195CDADD1BDC0B985C9E08119A5B1955995C9CDA5BDB8E880E4B8C8B8C0B8D005055153415645404052D4D5347202D205050413A2020206465736B746F702E6172782046696C6556657273696
310
F6E3A20392E322E302E34014390535115149154D15511109353D1102014213880B4815539113C05084E202D20554E444F014115539113E014115539113E0142941493D4115495125154E01411693D3D350101461354D1C80B4810DBDB5B585B990810D05390D1531311510B805055055524745805055153415645404052D4D
310
5347202D205050413A2020206465736B746F702E6172782046696C6556657273696F6E3A20392E322E302E34
  0
ACAD_PROXY_OBJECT
  5
2E
102
{ACAD_REACTORS
330
C
102
}
330
C
100
AcDbProxyObject
 90
      499
 91
      504
 95
       25
 70
     0
 93
      586
310
09000046408000000000000000001344E200000000000000000000000000000000000000000000000000000000000000000000000000000000000000000000000000000000AAA406AA80
360
33
360
34
360
35
360
37
360
79E
360
79F
360
1623
360
1624
360
1625
360
1626
360
1627
360
1628
360
162B
360
162C
360
162D
360
162E
360
162F
360
1630
360
1631
360
1632
360
1633
360
1634
360
1635
360
1636
360
1637
360
1638
360
1639
360
163A
360
163B
360
163C
360
163D
360
163E
360
163F
360
1640
360
1641
360
1642
360
1643
360
1644
360
1652
360
1653
360
1654
360
1655
360
165B
360
165C
360
165D
360
165E
360
1663
360
1664
360
1665
360
1666
360
1667
360
1668
 94
        0
  0
ACAD_PROXY_OBJECT
  5
3B
102
{ACAD_REACTORS
330
C
102
}
330
C
100
AcDbProxyObject
 90
      499
 91
      515
 95
       25
 70
     0
 93
       50
310
09000042641280
  0
ACAD_PROXY_OBJECT
  5
32
102
{ACAD_REACTORS
330
C
102
}
330
C
100
AcDbProxyObject
 90
      499
 91
      507
 95
       25
 70
     0
 93
       48
310
903412000000
330
33
330
34
330
35
 94
        0
  0
ACAD_PROXY_OBJECT
  5
79D
102
{ACAD_REACTORS
330
C
102
}
330
C
100
AcDbProxyObject
 90
      499
 91
      507
 95
       25
 70
     0
 93
       40
310
90240E0000
330
79E
330
79F
 94
        0
  0
ACAD_PROXY_OBJECT
  5
1657
102
{ACAD_REACTORS
330
C
102
}
330
C
100
AcDbProxyObject
 90
      499
 91
      550
 95
       25
 70
     0
 93
       42
310
000900004040
330
1652
 94
        0
  0
ACAD_PROXY_OBJECT
  5
1656
102
{ACAD_REACTORS
330
C
102
}
330
C
100
AcDbProxyObject
 90
      499
 91
      507
 95
       25
 70
     0
 93
        8
310
AA
  0
ACAD_PROXY_OBJECT
  5
1647
102
{ACAD_REACTORS
330
C
102
}
330
C
100
AcDbProxyObject
 90
      499
 91
      539
 95
       25
 70
     0
 93
       42
310
000100005E80
330
1623
 94
        0
  0
DICTIONARY
  5
3F
102
{ACAD_REACTORS
330
C
102
}
330
C
100
AcDbDictionary
281
     1
  3
AcMgSettings
350
40
  3
AMGLAYCFG
350
47
  0
DICTIONARY
  5
59
102
{ACAD_REACTORS
330
C
102
}
330
C
100
AcDbDictionary
281
     1
  3
DIMENSION
350
AE3
  3
FEA
350
AE4
  3
HATCH (1)
350
AE5
  3
HATCH (2)
350
AE6
  3
SYMBOLS
350
AE7
  0
ACAD_PROXY_OBJECT
  5
164F
102
{ACAD_REACTORS
330
C
102
}
330
C
100
AcDbProxyObject
 90
      499
 91
      543
 95
       25
 70
     0
 93
       34
310
0500004280
  0
ACAD_PROXY_OBJECT
  5
165F
102
{ACAD_REACTORS
330
C
102
}
330
C
100
AcDbProxyObject
 90
      499
 91
      553
 95
       25
 70
     0
 93
       98
310
0900004E400000000000000000
330
1666
330
0
330
1667
330
0
330
0
330
0
330
0
330
0
 94
        0
  0
ACAD_PROXY_OBJECT
  5
165A
102
{ACAD_REACTORS
330
C
102
}
330
C
100
AcDbProxyObject
 90
      499
 91
      507
 95
       25
 70
     0
 93
       56
310
90441600000000
330
165B
330
165C
330
165D
330
165E
 94
        0
  0
XRECORD
  5
6307
102
{ACAD_REACTORS
330
C
102
}
330
C
100
AcDbXrecord
280
     1
  1
DWGPROPS COOKIE
  2

  3

  4

  6

  7

  8

  9

300
AmdtFileType=82
301
=
302
=
303
=
304
=
305
=
306
=
307
=
308
=
309
=
 40
0.0
 41
2451948.235903461
 42
2455464.192740336
  1

 90
        1
  0
ACAD_PROXY_OBJECT
  5
1650
102
{ACAD_REACTORS
330
C
102
}
330
C
100
AcDbProxyObject
 90
      499
 91
      544
 95
       25
 70
     0
 93
        8
310
05
  0
DICTIONARY
  5
1605
102
{ACAD_REACTORS
330
C
102
}
330
C
100
AcDbDictionary
281
     1
  3
XREC1
350
1606
  0
DICTIONARY
  5
1833
102
{ACAD_REACTORS
330
1832
102
}
330
1832
100
AcDbDictionary
281
     1
  0
SORTENTSTABLE
  5
1DD7
102
{ACAD_REACTORS
330
10B
102
}
330
10B
100
AcDbSortentsTable
330
1F
331
2E3B
  5
2E38
331
559D
  5
559D
331
559E
  5
559E
331
559F
  5
559F
331
55A0
  5
55A0
331
55A1
  5
55A1
331
55A2
  5
55A2
331
55A4
  5
55A4
331
55A5
  5
55A5
331
55A6
  5
55A6
331
55A7
  5
55A7
331
55A8
  5
55A8
331
55AA
  5
55AA
331
55AB
  5
55AB
331
55AC
  5
55AC
331
55AD
  5
55AD
331
55AE
  5
55AE
331
55AF
  5
55AF
331
55B0
  5
55B0
331
55B1
  5
55B1
331
55B2
  5
55B2
331
55B3
  5
55B3
331
55B4
  5
55B4
331
55B5
  5
55B5
331
55B6
  5
55B6
331
55B7
  5
55B7
331
55B8
  5
55B8
331
55B9
  5
55B9
331
55BA
  5
55BA
331
55BB
  5
55BB
331
55BC
  5
55BC
331
55BD
  5
55BD
331
55BE
  5
55BE
331
55BF
  5
55BF
331
55C0
  5
55C0
331
55C1
  5
55C1
331
55C2
  5
55C2
331
55C3
  5
55C3
331
55C4
  5
55C4
331
55F0
  5
55F0
331
55F5
  5
55F5
331
55FB
  5
55FB
331
55FD
  5
55FD
331
55FE
  5
55FE
331
55FF
  5
55FF
331
5601
  5
5601
331
5602
  5
5602
331
5603
  5
5603
331
5604
  5
5604
331
5606
  5
5606
331
5608
  5
5608
331
5609
  5
5609
331
560A
  5
560A
331
560B
  5
560B
331
5662
  5
5662
331
5663
  5
5663
331
5664
  5
5664
331
5665
  5
5665
331
5668
  5
5668
331
566E
  5
566E
331
5670
  5
5670
331
5671
  5
5671
331
5676
  5
5676
331
5678
  5
5678
331
567A
  5
567A
331
567C
  5
567C
331
567E
  5
567E
331
567F
  5
567F
331
5683
  5
5683
331
5684
  5
5684
331
5685
  5
5685
331
5688
  5
5688
331
5689
  5
5689
331
56BD
  5
56BD
331
56BE
  5
56BE
331
56BF
  5
56BF
331
56C0
  5
56C0
331
56C1
  5
56C1
331
56C2
  5
56C2
331
56C3
  5
56C3
331
56C4
  5
56C4
331
56C5
  5
56C5
331
56C6
  5
56C6
331
56C7
  5
56C7
331
56C8
  5
56C8
331
56C9
  5
56C9
331
56CA
  5
56CA
331
56CB
  5
56CB
331
56CC
  5
56CC
331
56CD
  5
56CD
331
56CE
  5
56CE
331
56CF
  5
56CF
331
56D0
  5
56D0
331
5705
  5
5705
331
5706
  5
5706
331
5707
  5
5707
331
5708
  5
5708
331
5709
  5
5709
331
570A
  5
570A
331
570B
  5
570B
331
570C
  5
570C
331
570D
  5
570D
331
570E
  5
570E
331
570F
  5
570F
331
5710
  5
5710
331
5711
  5
5711
331
5712
  5
5712
331
5713
  5
5713
331
5714
  5
5714
331
5715
  5
5715
331
5716
  5
5716
331
5717
  5
5717
331
5718
  5
5718
331
5719
  5
5719
331
571A
  5
571A
331
571B
  5
571B
331
571C
  5
571C
331
571D
  5
571D
331
571E
  5
571E
331
571F
  5
571F
331
5720
  5
5720
331
5721
  5
5721
331
5722
  5
5722
331
5723
  5
5723
331
5724
  5
5724
331
5725
  5
5725
331
5726
  5
5726
331
5727
  5
5727
331
5728
  5
5728
331
5729
  5
5729
331
572A
  5
572A
331
572B
  5
572B
331
572C
  5
572C
331
5777
  5
5777
331
5778
  5
5778
331
5779
  5
5779
331
577A
  5
577A
331
577B
  5
577B
331
577C
  5
577C
331
577D
  5
577D
331
577E
  5
577E
331
57FF
  5
57FF
331
5800
  5
5800
331
5802
  5
5802
331
5803
  5
5803
331
5804
  5
5804
331
5805
  5
5805
331
5806
  5
5806
331
5807
  5
5807
331
5814
  5
5814
331
5819
  5
5819
331
581C
  5
581C
331
581D
  5
581D
331
581E
  5
581E
331
581F
  5
581F
331
5821
  5
5821
331
5822
  5
5822
331
5823
  5
5823
331
5825
  5
5825
331
584D
  5
584D
331
584E
  5
584E
331
5850
  5
5850
331
5851
  5
5851
331
5852
  5
5852
331
5853
  5
5853
331
5854
  5
5854
331
5857
  5
5857
331
5858
  5
5858
331
5859
  5
5859
331
585A
  5
585A
331
585B
  5
585B
331
585C
  5
585C
331
585D
  5
585D
331
5862
  5
5862
331
5863
  5
5863
331
5864
  5
5864
331
5866
  5
5866
331
5867
  5
5867
331
5868
  5
5868
331
5869
  5
5869
331
586A
  5
586A
331
589A
  5
589A
331
58CD
  5
58CD
331
58D0
  5
58D0
331
590B
  5
590B
331
590D
  5
590D
331
591B
  5
591B
331
5A05
  5
5A05
331
5A06
  5
5A06
331
5A07
  5
5A07
331
5A08
  5
5A08
331
5A09
  5
5A09
331
5A0A
  5
5A0A
331
5A0B
  5
5A0B
331
5A0C
  5
5A0C
331
5A0D
  5
5A0D
331
5A0E
  5
5A0E
331
5A0F
  5
5A0F
331
5A10
  5
5A10
331
5A11
  5
5A11
331
5A12
  5
5A12
331
5A15
  5
5A15
331
5A16
  5
5A16
331
5A17
  5
5A17
331
5A18
  5
5A18
331
5A1B
  5
5A1B
331
5A1C
  5
5A1C
331
5A1D
  5
5A1D
331
5A1E
  5
5A1E
331
5A20
  5
5A20
331
5A21
  5
5A21
331
5A22
  5
5A22
331
5A24
  5
5A24
331
5A26
  5
5A26
331
5A27
  5
5A27
331
5A28
  5
5A28
331
5A29
  5
5A29
331
5A2A
  5
5A2A
331
5A2F
  5
5A2F
331
5A30
  5
5A30
331
5A33
  5
5A33
331
5A34
  5
5A34
331
5A36
  5
5A36
331
5A37
  5
5A37
331
5A38
  5
5A38
331
5A3B
  5
5A3B
331
5A3C
  5
5A3C
331
5A3D
  5
5A3D
331
5A3E
  5
5A3E
331
5A3F
  5
5A3F
331
5A40
  5
5A40
331
5A41
  5
5A41
331
5A42
  5
5A42
331
5A43
  5
5A43
331
5A44
  5
5A44
331
5A45
  5
5A45
331
5A46
  5
5A46
331
5A47
  5
5A47
331
5A48
  5
5A48
331
5A49
  5
5A49
331
5A4A
  5
5A4A
331
5A4B
  5
5A4B
331
5A54
  5
5A54
331
5A55
  5
5A55
331
5A56
  5
5A56
331
5A57
  5
5A57
331
5A58
  5
5A58
331
5A59
  5
5A59
331
5A5A
  5
5A5A
331
5A5B
  5
5A5B
331
5A5C
  5
5A5C
331
5A5E
  5
5A5E
331
5A5F
  5
5A5F
331
5A60
  5
5A60
331
5A61
  5
5A61
331
5A62
  5
5A62
331
5A63
  5
5A63
331
5A64
  5
5A64
331
5A65
  5
5A65
331
5A66
  5
5A66
331
5A67
  5
5A67
331
5A68
  5
5A68
331
5A69
  5
5A69
331
5A6A
  5
5A6A
331
5A6B
  5
5A6B
331
5A6C
  5
5A6C
331
5A6D
  5
5A6D
331
5A80
  5
5A80
331
5A81
  5
5A81
331
5A82
  5
5A82
331
5A83
  5
5A83
331
5A84
  5
5A84
331
5A85
  5
5A85
331
5A86
  5
5A86
331
5A87
  5
5A87
331
5A8A
  5
5A8A
331
5A8C
  5
5A8C
331
5A8E
  5
5A8E
331
5A8F
  5
5A8F
331
5A90
  5
5A90
331
5A91
  5
5A91
331
5A92
  5
5A92
331
5A93
  5
5A93
331
5A94
  5
5A94
331
5A95
  5
5A95
331
5A96
  5
5A96
331
5A97
  5
5A97
331
5A98
  5
5A98
331
5A99
  5
5A99
331
5A9B
  5
5A9B
331
5A9C
  5
5A9C
331
5A9D
  5
5A9D
331
5A9E
  5
5A9E
331
5A9F
  5
5A9F
331
5AA1
  5
5AA1
331
5AA3
  5
5AA3
331
5AA4
  5
5AA4
331
5AA5
  5
5AA5
331
5AA6
  5
5AA6
331
5B9E
  5
5B9E
331
5B9F
  5
5B9F
331
5BA0
  5
5BA0
331
5BA1
  5
5BA1
331
5BA3
  5
5BA3
331
5BA6
  5
5BA6
331
5BA7
  5
5BA7
331
5BA8
  5
5BA8
331
5BAB
  5
5BAB
331
5BB3
  5
5BB3
331
5BB4
  5
5BB4
331
5BB5
  5
5BB5
331
5BB6
  5
5BB6
331
5BB7
  5
5BB7
331
5BD9
  5
5BD9
331
5BF0
  5
5BF0
331
5BF1
  5
5BF1
331
5BF2
  5
5BF2
331
5BF3
  5
5BF3
331
5C0A
  5
5C0A
331
5C0B
  5
5C0B
331
5C0C
  5
5C0C
331
5C0D
  5
5C0D
331
5C2B
  5
5C2B
331
5C7A
  5
5C7A
331
5C7B
  5
5C7B
331
5C81
  5
5C81
331
5C82
  5
5C82
331
5C83
  5
5C83
331
5C84
  5
5C84
331
5C85
  5
5C85
331
5C87
  5
5C87
331
5CED
  5
5CED
331
5CF0
  5
5CF0
331
5CF2
  5
5CF2
331
5CF4
  5
5CF4
331
5CF5
  5
5CF5
331
5CF7
  5
5CF7
331
5CF8
  5
5CF8
331
5CF9
  5
5CF9
331
5CFA
  5
5CFA
331
5CFB
  5
5CFB
331
5D05
  5
5D05
331
5D12
  5
5D12
331
5D14
  5
5D14
331
5D15
  5
5D15
331
5D1A
  5
5D1A
331
5D1B
  5
5D1B
331
5D1C
  5
5D1C
331
5D1D
  5
5D1D
331
5D20
  5
5D20
331
5D23
  5
5D23
331
5D25
  5
5D25
331
5D26
  5
5D26
331
5D27
  5
5D27
331
5D2C
  5
5D2C
331
5D2F
  5
5D2F
331
5F25
  5
5F25
331
5F26
  5
5F26
331
5F27
  5
5F27
331
5F28
  5
5F28
331
5F29
  5
5F29
331
5F2A
  5
5F2A
331
5F2B
  5
5F2B
331
5F37
  5
5F37
331
5F38
  5
5F38
331
5F39
  5
5F39
331
5F3A
  5
5F3A
331
5F3B
  5
5F3B
331
5F3C
  5
5F3C
331
5F3E
  5
5F3E
331
5F40
  5
5F40
331
5F41
  5
5F41
331
5F42
  5
5F42
331
5F44
  5
5F44
331
5F45
  5
5F45
331
5F46
  5
5F46
331
5F47
  5
5F47
331
5F48
  5
5F48
331
5F49
  5
5F49
331
5F4A
  5
5F4A
331
5F4B
  5
5F4B
331
5F4C
  5
5F4C
331
5F50
  5
5F50
331
5F51
  5
5F51
331
5F52
  5
5F52
331
5F53
  5
5F53
331
5F54
  5
5F54
331
5F56
  5
5F56
331
5F59
  5
5F59
331
5F5A
  5
5F5A
331
5F5B
  5
5F5B
331
5F5C
  5
5F5C
331
5F5D
  5
5F5D
331
5F60
  5
5F60
331
5F61
  5
5F61
331
5F62
  5
5F62
331
5F63
  5
5F63
331
5F65
  5
5F65
331
5F66
  5
5F66
331
5F67
  5
5F67
331
5F68
  5
5F68
331
5F6A
  5
5F6A
331
5F6B
  5
5F6B
331
5F6E
  5
5F6E
331
5F6F
  5
5F6F
331
5F70
  5
5F70
331
5F71
  5
5F71
331
5F72
  5
5F72
331
5F73
  5
5F73
331
5F75
  5
5F75
331
5F76
  5
5F76
331
5F77
  5
5F77
331
5F78
  5
5F78
331
5F79
  5
5F79
331
5F7A
  5
5F7A
331
5F7B
  5
5F7B
331
5F7C
  5
5F7C
331
5F7E
  5
5F7E
331
5F7F
  5
5F7F
331
5F80
  5
5F80
331
5F81
  5
5F81
331
5F82
  5
5F82
331
5F83
  5
5F83
331
5F84
  5
5F84
331
5F85
  5
5F85
331
5F86
  5
5F86
331
5F87
  5
5F87
331
5F88
  5
5F88
331
5F89
  5
5F89
331
5F8A
  5
5F8A
331
5F8B
  5
5F8B
331
5F8C
  5
5F8C
331
5F8D
  5
5F8D
331
5F8E
  5
5F8E
331
5F8F
  5
5F8F
331
5F90
  5
5F90
331
5F91
  5
5F91
331
5F92
  5
5F92
331
5F93
  5
5F93
331
5F94
  5
5F94
331
5F95
  5
5F95
331
5F96
  5
5F96
331
5F97
  5
5F97
331
5FA1
  5
5FA1
331
5FA2
  5
5FA2
331
5FA3
  5
5FA3
331
6038
  5
6038
331
6039
  5
6039
331
603A
  5
603A
331
603B
  5
603B
331
6043
  5
6043
331
6050
  5
6050
331
6051
  5
6051
331
6052
  5
6052
331
6053
  5
6053
331
6054
  5
6054
331
6055
  5
6055
331
6056
  5
6056
331
6057
  5
6057
331
6058
  5
6058
331
6059
  5
6059
331
605A
  5
605A
331
605B
  5
605B
331
6064
  5
6064
331
6065
  5
6065
331
6066
  5
6066
331
6067
  5
6067
331
6068
  5
6068
331
6069
  5
6069
331
606A
  5
606A
331
606B
  5
606B
331
606C
  5
606C
331
60A6
  5
60A6
331
60A9
  5
60A9
331
60AA
  5
60AA
331
60AB
  5
60AB
331
60AC
  5
60AC
331
60AD
  5
60AD
331
60AE
  5
60AE
331
60AF
  5
60AF
331
60B0
  5
60B0
331
60B1
  5
60B1
331
60B2
  5
60B2
331
60B4
  5
60B4
331
60B6
  5
60B6
331
60B7
  5
60B7
331
60B8
  5
60B8
331
60BA
  5
60BA
331
60BB
  5
60BB
331
60BC
  5
60BC
331
60BD
  5
60BD
331
60BE
  5
60BE
331
60BF
  5
60BF
331
60C0
  5
60C0
331
60C1
  5
60C1
331
60C2
  5
60C2
331
60C3
  5
60C3
331
60C4
  5
60C4
331
60C5
  5
60C5
331
60C6
  5
60C6
331
60C7
  5
60C7
331
60CA
  5
60CA
331
60CD
  5
60CD
331
60CF
  5
60CF
331
60FD
  5
60FD
331
6100
  5
6100
331
6101
  5
6101
331
6102
  5
6102
331
6103
  5
6103
331
6104
  5
6104
331
6105
  5
6105
331
6106
  5
6106
331
6107
  5
6107
331
6108
  5
6108
331
6109
  5
6109
331
610A
  5
610A
331
610B
  5
610B
331
610D
  5
610D
331
6110
  5
6110
331
6112
  5
6112
331
6113
  5
6113
331
6114
  5
6114
331
6115
  5
6115
331
6116
  5
6116
331
6117
  5
6117
331
6118
  5
6118
331
6119
  5
6119
331
611A
  5
611A
331
611B
  5
611B
331
611D
  5
611D
331
611E
  5
611E
331
611F
  5
611F
331
6120
  5
6120
331
6121
  5
6121
331
6127
  5
6127
331
6128
  5
6128
331
6129
  5
6129
331
612A
  5
612A
331
612B
  5
612B
331
6139
  5
6139
331
613A
  5
613A
331
6173
  5
6173
331
6188
  5
6188
331
6189
  5
6189
331
618A
  5
618A
331
618B
  5
618B
331
6193
  5
6193
331
61A1
  5
61A1
331
61C1
  5
61C1
331
61FF
  5
61FF
  0
LAYOUT
  5
22
102
{ACAD_REACTORS
330
1A
102
}
330
1A
100
AcDbPlotSettings
  1

  2
SII LP-2150 (D-SCAN C2)
  4
User118
  6
AM_VIEW1
 40
3.174999952316284
 41
3.174999952316284
 42
3.17498779296875
 43
3.17498779296875
 44
296.9259948730469
 45
419.9889831542969
 46
0.0
 47
0.0
 48
0.0
 49
0.0
140
423.0
141
300.0
142
1.0
143
1.03243210946902
 70
 11952
 72
     1
 73
     1
 74
     4
  7
sei_cad.ctb
 75
     0
147
0.9685866904258728
148
0.0
149
0.0
100
AcDbLayout
  1
Model
 70
     1
 71
     0
 10
0.0
 20
0.0
 11
12.0
 21
9.0
 12
0.0
 22
0.0
 32
0.0
 14
0.0
 24
0.0
 34
0.0
 15
0.0
 25
0.0
 35
0.0
146
0.0
 13
0.0
 23
0.0
 33
0.0
 16
1.0
 26
0.0
 36
0.0
 17
0.0
 27
1.0
 37
0.0
 76
     0
330
1F
  0
LAYOUT
  5
1E
102
{ACAD_REACTORS
330
1A
102
}
330
1A
100
AcDbPlotSettings
  1

  2
SII LP-2150 (D-SCAN C2)
  4

  6

 40
0.0
 41
0.0
 42
0.0
 43
0.0
 44
0.0
 45
0.0
 46
0.0
 47
0.0
 48
0.0
 49
0.0
140
0.0
141
0.0
142
1.0
143
1.0
 70
   688
 72
     0
 73
     0
 74
     5
  7
sei_cad.ctb
 75
    16
147
1.0
148
0.0
149
0.0
100
AcDbLayout
  1
ﾚｲｱｳﾄ1
 70
     1
 71
     1
 10
0.0
 20
0.0
 11
420.0
 21
297.0
 12
0.0
 22
0.0
 32
0.0
 14
1.000000000000000E+20
 24
1.000000000000000E+20
 34
1.000000000000000E+20
 15
-1.000000000000000E+20
 25
-1.000000000000000E+20
 35
-1.000000000000000E+20
146
0.0
 13
0.0
 23
0.0
 33
0.0
 16
1.0
 26
0.0
 36
0.0
 17
0.0
 27
1.0
 37
0.0
 76
     0
330
1B
  0
LAYOUT
  5
26
102
{ACAD_REACTORS
330
1A
102
}
330
1A
100
AcDbPlotSettings
  1

  2
SII LP-2150 (D-SCAN C2)
  4

  6

 40
0.0
 41
0.0
 42
0.0
 43
0.0
 44
0.0
 45
0.0
 46
0.0
 47
0.0
 48
0.0
 49
0.0
140
0.0
141
0.0
142
1.0
143
1.0
 70
   688
 72
     0
 73
     0
 74
     5
  7
sei_cad.ctb
 75
    16
147
1.0
148
0.0
149
0.0
100
AcDbLayout
  1
ﾚｲｱｳﾄ2
 70
     1
 71
     2
 10
0.0
 20
0.0
 11
12.0
 21
9.0
 12
0.0
 22
0.0
 32
0.0
 14
0.0
 24
0.0
 34
0.0
 15
0.0
 25
0.0
 35
0.0
146
0.0
 13
0.0
 23
0.0
 33
0.0
 16
1.0
 26
0.0
 36
0.0
 17
0.0
 27
1.0
 37
0.0
 76
     0
330
23
  0
MLINESTYLE
  5
18
102
{ACAD_REACTORS
330
17
102
}
330
17
100
AcDbMlineStyle
  2
STANDARD
 70
     0
  3

 62
   256
 51
90.0
 52
90.0
 71
     2
 49
0.5
 62
   256
  6
BYLAYER
 49
-0.5
 62
   256
  6
BYLAYER
  0
ACDBPLACEHOLDER
  5
F
102
{ACAD_REACTORS
330
E
102
}
330
E
  0
TABLESTYLE
  5
1613
102
{ACAD_REACTORS
330
1612
102
}
330
1612
100
AcDbTableStyle
  3
Standard
 70
     0
 71
     8
 40
1.5
 41
1.5
280
     0
281
     0
  7
STANDARD
140
4.5
170
     2
 62
     0
 63
     7
283
     0
274
    -2
284
     1
 64
     0
275
    -2
285
     1
 65
     0
276
    -2
286
     1
 66
     0
277
    -2
287
     1
 67
     0
278
    -2
288
     1
 68
     0
279
    -2
289
     1
 69
     0
  7
STANDARD
140
6.0
170
     5
 62
     0
 63
     7
283
     0
274
    -2
284
     1
 64
     0
275
    -2
285
     1
 65
     0
276
    -2
286
     1
 66
     0
277
    -2
287
     1
 67
     0
278
    -2
288
     1
 68
     0
279
    -2
289
     1
 69
     0
  7
STANDARD
140
4.5
170
     5
 62
     0
 63
     7
283
     0
274
    -2
284
     1
 64
     0
275
    -2
285
     1
 65
     0
276
    -2
286
     1
 66
     0
277
    -2
287
     1
 67
     0
278
    -2
288
     1
 68
     0
279
    -2
289
     1
 69
     0
  0
XRECORD
  5
6305
102
{ACAD_REACTORS
330
6304
102
}
330
6304
100
AcDbXrecord
280
     1
340
1611
  0
XRECORD
  5
6306
102
{ACAD_REACTORS
330
6304
102
}
330
6304
100
AcDbXrecord
280
     1
340
1610
  0
DICTIONARYVAR
  5
1684
102
{ACAD_REACTORS
330
30
102
}
330
30
100
DictionaryVariables
280
     0
  1
STANDARD
  0
DICTIONARYVAR
  5
6302
102
{ACAD_REACTORS
330
30
102
}
330
30
100
DictionaryVariables
280
     0
  1
1
  0
DICTIONARYVAR
  5
6303
102
{ACAD_REACTORS
330
30
102
}
330
30
100
DictionaryVariables
280
     0
  1
0
  0
DICTIONARYVAR
  5
31
102
{ACAD_REACTORS
330
30
102
}
330
30
100
DictionaryVariables
280
     0
  1
1
  0
ACAD_PROXY_OBJECT
  5
44
102
{ACAD_REACTORS
330
43
102
}
330
43
100
AcDbProxyObject
 90
      499
 91
      519
 95
       25
 70
     0
 93
      118
310
405010040CA904C415CD5B075DD1E8
350
45
 94
        0
  0
DICTIONARY
  5
7A0
102
{ACAD_REACTORS
330
43
102
}
330
43
100
AcDbDictionary
281
     1
  3
ANSI
350
1B45
  3
JIS
350
7A1
  0
XRECORD
  5
166D
102
{ACAD_REACTORS
330
43
102
}
330
43
100
AcDbXrecord
280
     1
 90
-1023410169
  0
ACAD_PROXY_OBJECT
  5
33
330
2E
100
AcDbProxyObject
 90
      499
 91
      508
 95
       25
 70
     0
 93
      156
310
00010143D050D351505391D5531054925390D490
330
2E
 94
        0
  0
ACAD_PROXY_OBJECT
  5
34
330
2E
100
AcDbProxyObject
 90
      499
 91
      508
 95
       25
 70
     0
 93
      148
310
000101439050D351531253915054925390D490
330
2E
 94
        0
  0
ACAD_PROXY_OBJECT
  5
35
330
2E
100
AcDbProxyObject
 90
      499
 91
      509
 95
       25
 70
     0
 93
      156
310
000101439050D35154D6535093D314D256915080
330
2E
 94
        0
  0
ACAD_PROXY_OBJECT
  5
37
330
2E
100
AcDbProxyObject
 90
      499
 91
      511
 95
       25
 70
     0
 93
       88
310
000101411093D34C402B00
330
2E
330
0
330
0
 94
        0
  0
ACAD_PROXY_OBJECT
  5
79E
330
2E
100
AcDbProxyObject
 90
      499
 91
      509
 95
       25
 70
     0
 93
      108
310
00010142505351D153D35054D4E0
330
2E
 94
        0
  0
ACAD_PROXY_OBJECT
  5
79F
330
2E
100
AcDbProxyObject
 90
      499
 91
      525
 95
       25
 70
     0
 93
      140
310
00010142105350D55494D511005034A49530
330
2E
 94
        0
  0
ACAD_PROXY_OBJECT
  5
1623
330
2E
100
AcDbProxyObject
 90
      499
 91
      535
 95
       25
 70
     0
 93
      358
310
0001014124FEA55D00507392E322E302E32014124FEA55D00507392E322E302E3240501000041505391D311658
330
2E
330
1624
330
162A
 94
        0
  0
ACAD_PROXY_OBJECT
  5
1624
330
2E
100
AcDbProxyObject
 90
      499
 91
      536
 95
       25
 70
     0
 93
       56
310
000190240E0000
330
2E
330
1625
330
1627
 94
        0
  0
ACAD_PROXY_OBJECT
  5
1625
330
2E
100
AcDbProxyObject
 90
      499
 91
      537
 95
       25
 70
     0
 93
       48
310
0001AA000000
330
2E
330
1E
330
1626
330
0
 94
        0
  0
ACAD_PROXY_OBJECT
  5
1626
330
2E
100
AcDbProxyObject
 90
      499
 91
      538
 95
       25
 70
     0
 93
       28
310
0001AAA0
330
2E
 94
        0
  0
ACAD_PROXY_OBJECT
  5
1627
330
2E
100
AcDbProxyObject
 90
      499
 91
      537
 95
       25
 70
     0
 93
       48
310
0001AA000000
330
2E
330
26
330
1628
330
0
 94
        0
  0
ACAD_PROXY_OBJECT
  5
1628
330
2E
100
AcDbProxyObject
 90
      499
 91
      538
 95
       25
 70
     0
 93
       28
310
0001AAA0
330
2E
 94
        0
  0
ACAD_PROXY_OBJECT
  5
162B
330
2E
100
AcDbProxyObject
 90
      499
 91
      509
 95
       25
 70
     0
 93
      108
310
000101421053521310D05310D010
330
2E
 94
        0
  0
ACAD_PROXY_OBJECT
  5
162C
330
2E
100
AcDbProxyObject
 90
      499
 91
      509
 95
       25
 70
     0
 93
      124
310
00010142905354915554D15112535010
330
2E
 94
        0
  0
ACAD_PROXY_OBJECT
  5
162D
330
2E
100
AcDbProxyObject
 90
      499
 91
      509
 95
       25
 70
     0
 93
      132
310
00010143105354D150D51253D391125360
330
2E
 94
        0
  0
ACAD_PROXY_OBJECT
  5
162E
330
2E
100
AcDbProxyObject
 90
      499
 91
      509
 95
       25
 70
     0
 93
      124
310
00010142905355941093D49111549010
330
2E
 94
        0
  0
ACAD_PROXY_OBJECT
  5
162F
330
2E
100
AcDbProxyObject
 90
      499
 91
      509
 95
       25
 70
     0
 93
      116
310
0001014290535115D1D0D3D313D4A0
330
2E
 94
        0
  0
ACAD_PROXY_OBJECT
  5
1630
330
2E
100
AcDbProxyObject
 90
      499
 91
      509
 95
       25
 70
     0
 93
      148
310
00010143505355925155D49151949154D21010
330
2E
 94
        0
  0
ACAD_PROXY_OBJECT
  5
1631
330
2E
100
AcDbProxyObject
 90
      499
 91
      509
 95
       25
 70
     0
 93
      172
310
00010144105350539393D51154149154D15495915010
330
2E
 94
        0
  0
ACAD_PROXY_OBJECT
  5
1632
330
2E
100
AcDbProxyObject
 90
      499
 91
      509
 95
       25
 70
     0
 93
      172
310
00010144105350555513D11253505494905391D15010
330
2E
 94
        0
  0
ACAD_PROXY_OBJECT
  5
1633
330
2E
100
AcDbProxyObject
 90
      499
 91
      509
 95
       25
 70
     0
 93
      124
310
00010142D05351561514915191125360
330
2E
 94
        0
  0
ACAD_PROXY_OBJECT
  5
1634
330
2E
100
AcDbProxyObject
 90
      499
 91
      509
 95
       25
 70
     0
 93
      132
310
00010142D05355105410539393D5115010
330
2E
 94
        0
  0
ACAD_PROXY_OBJECT
  5
1635
330
2E
100
AcDbProxyObject
 90
      499
 91
      509
 95
       25
 70
     0
 93
      108
310
00010142105350555513D0D31010
330
2E
 94
        0
  0
ACAD_PROXY_OBJECT
  5
1636
330
2E
100
AcDbProxyObject
 90
      499
 91
      509
 95
       25
 70
     0
 93
      108
310
00010142105350D3119150551050
330
2E
 94
        0
  0
ACAD_PROXY_OBJECT
  5
1637
330
2E
100
AcDbProxyObject
 90
      499
 91
      509
 95
       25
 70
     0
 93
      108
310
00010142105350D315925155D3F0
330
2E
 94
        0
  0
ACAD_PROXY_OBJECT
  5
1638
330
2E
100
AcDbProxyObject
 90
      499
 91
      509
 95
       25
 70
     0
 93
      148
310
0001014350535212511156915493D112535010
330
2E
 94
        0
  0
ACAD_PROXY_OBJECT
  5
1639
330
2E
100
AcDbProxyObject
 90
      499
 91
      509
 95
       25
 70
     0
 93
      124
310
00010142905352105510D21254D3D010
330
2E
 94
        0
  0
ACAD_PROXY_OBJECT
  5
163A
330
2E
100
AcDbProxyObject
 90
      499
 91
      509
 95
       25
 70
     0
 93
      148
310
00010143905354D25391D31152105513105660
330
2E
 94
        0
  0
ACAD_PROXY_OBJECT
  5
163B
330
2E
100
AcDbProxyObject
 90
      499
 91
      509
 95
       25
 70
     0
 93
      124
310
00010142D0535115D1D193111254D420
330
2E
 94
        0
  0
ACAD_PROXY_OBJECT
  5
163C
330
2E
100
AcDbProxyObject
 90
      499
 91
      509
 95
       25
 70
     0
 93
      100
310
00010142105350555513D213A0
330
2E
 94
        0
  0
ACAD_PROXY_OBJECT
  5
163D
330
2E
100
AcDbProxyObject
 90
      499
 91
      509
 95
       25
 70
     0
 93
      116
310
000101425053521390D3D553951010
330
2E
 94
        0
  0
ACAD_PROXY_OBJECT
  5
163E
330
2E
100
AcDbProxyObject
 90
      499
 91
      509
 95
       25
 70
     0
 93
      108
310
0001014210535213941493D29010
330
2E
 94
        0
  0
ACAD_PROXY_OBJECT
  5
163F
330
2E
100
AcDbProxyObject
 90
      499
 91
      509
 95
       25
 70
     0
 93
      108
310
0001014210535213951654115070
330
2E
 94
        0
  0
ACAD_PROXY_OBJECT
  5
1640
330
2E
100
AcDbProxyObject
 90
      499
 91
      509
 95
       25
 70
     0
 93
      108
310
000101421053521395925155D0F0
330
2E
 94
        0
  0
ACAD_PROXY_OBJECT
  5
1641
330
2E
100
AcDbProxyObject
 90
      499
 91
      509
 95
       25
 70
     0
 93
      140
310
00010143505354D150D51253D390D3D41660
330
2E
 94
        0
  0
ACAD_PROXY_OBJECT
  5
1642
330
2E
100
AcDbProxyObject
 90
      499
 91
      509
 95
       25
 70
     0
 93
      108
310
00010142105350D3141493D29030
330
2E
 94
        0
  0
ACAD_PROXY_OBJECT
  5
1643
330
2E
100
AcDbProxyObject
 90
      499
 91
      508
 95
       25
 70
     0
 93
      212
310
00010143905350555513D2105510D21493D500000000000002E400
330
2E
 94
        0
  0
ACAD_PROXY_OBJECT
  5
1644
330
2E
100
AcDbProxyObject
 90
      499
 91
      509
 95
       25
 70
     0
 93
      156
310
00010143905350555513D2105510D21111551010
330
2E
 94
        0
  0
ACAD_PROXY_OBJECT
  5
1652
330
2E
100
AcDbProxyObject
 90
      499
 91
      546
 95
       25
 70
     0
 93
      698
310
0001000000009AA6A9AA4051E547565204175672032342030343A33343A353120323031302028555443290141CE4B8C8B8C0B8C80518467269205365702032342031333A33373A333220323031300141CE4B8C8B8C0B8C80
330
2E
330
1653
330
1654
330
1656
330
0
 94
        0
  0
ACAD_PROXY_OBJECT
  5
1653
330
2E
100
AcDbProxyObject
 90
      499
 91
      547
 95
       25
 70
     0
 93
       70
310
0001AAA80820000000
330
2E
330
1653
330
1653
 94
        0
  0
ACAD_PROXY_OBJECT
  5
1654
330
2E
100
AcDbProxyObject
 90
      499
 91
      548
 95
       25
 70
     0
 93
       48
310
000100000000
330
2E
330
0
330
1655
330
0
330
0
 94
        0
  0
ACAD_PROXY_OBJECT
  5
1655
330
2E
100
AcDbProxyObject
 90
      499
 91
      549
 95
       25
 70
     0
 93
       40
310
000100AAAA
330
2E
330
0
 94
        0
  0
ACAD_PROXY_OBJECT
  5
165B
330
2E
100
AcDbProxyObject
 90
      499
 91
      525
 95
       25
 70
     0
 93
      180
310
00010143105050D3D35411119390535140504434F4D500
330
2E
 94
        0
  0
ACAD_PROXY_OBJECT
  5
165C
330
2E
100
AcDbProxyObject
 90
      499
 91
      525
 95
       25
 70
     0
 93
      212
310
0001014390505193D311115491119390535140506466F6C6465720
330
2E
 94
        0
  0
ACAD_PROXY_OBJECT
  5
165D
330
2E
100
AcDbProxyObject
 90
      499
 91
      525
 95
       25
 70
     0
 93
      180
310
00010143105050539393D1119390535140504284156290
330
2E
 94
        0
  0
ACAD_PROXY_OBJECT
  5
165E
330
2E
100
AcDbProxyObject
 90
      499
 91
      525
 95
       25
 70
     0
 93
      436
310
00010143905050D3D35415925155D31254D50052295BD96CA0A90B396CA0A894591A496CA0A8DB691A496CA0A89BA96CA0A95E28F95310
330
2E
 94
        0
  0
ACAD_PROXY_OBJECT
  5
1663
330
2E
100
AcDbProxyObject
 90
      499
 91
      554
 95
       25
 70
     0
 93
       32
310
00010000
330
2E
340
1660
330
1665
330
1660
 94
        0
  0
ACAD_PROXY_OBJECT
  5
1664
330
2E
100
AcDbProxyObject
 90
      499
 91
      555
 95
       25
 70
     0
 93
       18
310
000180
330
2E
 94
        0
  0
ACAD_PROXY_OBJECT
  5
1665
330
2E
100
AcDbProxyObject
 90
      499
 91
      556
 95
       25
 70
     0
 93
      162
310
0001014251940C8C548B4D0D505050055401550000
330
2E
330
1663
330
1664
 94
        0
  0
ACAD_PROXY_OBJECT
  5
1666
330
2E
100
AcDbProxyObject
 90
      499
 91
      557
 95
       25
 70
     0
 93
      178
310
000100AAAAAAA1B6EE4AC073CF9060D2ADEC7D6EDDF840
330
2E
330
1665
 94
        0
  0
ACAD_PROXY_OBJECT
  5
1667
330
2E
100
AcDbProxyObject
 90
      499
 91
      558
 95
       25
 70
     0
 93
      108
310
000190140A000000000000AAAAA0
330
2E
330
1668
330
1668
330
1668
330
1668
330
1668
330
0
 94
        0
  0
ACAD_PROXY_OBJECT
  5
1668
330
2E
100
AcDbProxyObject
 90
      499
 91
      559
 95
       25
 70
     0
 93
       51
310
00010000AAAA80
330
2E
330
1667
330
1665
 94
        0
  0
DICTIONARY
  5
40
102
{ACAD_REACTORS
330
3F
102
}
330
3F
100
AcDbDictionary
281
     1
  3
DWGSETTINGS
350
41
  3
FEM
350
54
  3
Shaft
350
53
  3
TRANSSETTINGS
350
42
  0
ACAD_PROXY_OBJECT
  5
47
102
{ACAD_REACTORS
330
3F
102
}
330
3F
100
AcDbProxyObject
 90
      499
 91
      521
 95
       25
 70
     0
 93
    23232
310
41502491013041105357CC201C00030C011E441013141105357CC603800030C011E441013241105357CCA01400030C011E441013341105357CCE01800030C010D9013441105357CD200C00030C010D9013541105357CD600C00030C010D9013641105357CDA00800030C011E9013741105357CDE01000030C010D901384110
310
5357CE200400030C011E9013941105357CE63F400030C0241102324141505357CC4C201C00030C011E902344141505357CC4C600C00030C010D902495041505357CC4CA01C00030C011E40902304E41505357CC13A01C00030C011E902314E41505357CC53A03800030C011E902324E41505357CC93A01400030C011E90233
310
4E41505357CCD3A01800030C010D902344E41505357CD13A00C00030C010D902354E41505357CD53A00C00030C010D902364E41505357CD93A00800030C011E902374E41505357CDD3A01000030C010D902384E41505357CE13A00400030C011E902394E41505357CE53A3F400030C024110332414E41905357CC4C13A01C0
310
0030C011E90334414E41905357CC4C53A00C00030C010D90349504E41905357CC4C93A01C00030C011E409044B4C494E41505357D0D3200400030C011E42504494E464F42105357D410549151A01000030C010D42D055241484D3541905357D093D4A01C00030C011E425045649455742105357D5925155D4E00400030C011
310
E42D06424548494E4441905357D25395A3F400030C0243505545241494C41505357D514A00C00030C010D4250348494441905357D21251201C00030C011E4250356495341905357D59254E01C00030C011E4250650415244494D42505357D41054911253600C00030C010D4250652454644494D42505357D49151911253601
310
000030C010D425774110531514901348070000C300479034110915312501348000000C0003FFFFFFFD034110921395901398000000C0003FFFFFFFE415092139594D06424548494E448000000C0003FFFFFFFE411093125110234418000000C0003FFFFFFFD03411093D05410234418000000C0003FFFFFFFD03411093D48C
310
9055241484D358010000C30047A411093D48CD055241484D358020000C30047A411093D48D5055241484D358000000C0003FFFFFFFE411093D48DD055241484D3581E0000C30047903411094105410234418000000C0003FFFFFFFD03411094115610234418000000C0003FFFFFFFD034110951112501358000000C0003FFF
310
FFFFD034110D0530C901348000000C0003FFFFFFFE4110D0530CD01348020000C30047A4110D0530D501348070000C30047A4110D0530DD013481E0000C30047A4110D15393901378000000C0003FFFFFFFE4110D15395D01378000000C0003FFFFFFFE4110D312539044B4C494E8000000C0003FFFFFFFE4110D3D38C5013
310
08000000C0003FFFFFFFD034110D3D38C901318000000C0003FFFFFFFD034110D3D38CD01328000000C0003FFFFFFFD034110D3D38D101328000000C0003FFFFFFFD034111115494101348000000C0003FFFFFFFD034111115510501348000000C0003FFFFFFFE4111125051D01358000000C0003FFFFFFFE4111125312501
310
358000000C0003FFFFFFFE411112535410650415244494D8000000C0003FFFFFFFE411112535490652454644494D8000000C0003FFFFFFFE411156135410234418000000C0003FFFFFFFD034111915353901388000000C0003FFFFFFFE415191535413901388030000C3004364151915354D410234418000000C0003FFFFFF
310
FE4151915354D510234418030000C300436415191535593901328000000C0003FFFFFFFE415191535595101328030000C3004364111931055101308000000C0003FFFFFFFD03411194905490234418000000C0003FFFFFFFD034111D49312501358000000C0003FFFFFFFD034111D5931250234418000000C0003FFFFFFFD0
310
34112105510D01388000000C0003FFFFFFFD014112125113901338000000C0003FFFFFFFD034112125115D01338000000C0003FFFFFFFD034112131253901348000000C0003FFFFFFFD01411213D0D3901378000000C0003FFFFFFFE411213D0D5D01378000000C0003FFFFFFFE4112539193D04494E464F8000000C0003FF
310
FFFFFE4113105112501348000000C0003FFFFFFFD034113115051101358000000C0003FFFFFFFE419397D0921395902394E8000000C0003FFFFFFFE419397D0D3D38C502304E8000000C0003FFFFFFFD03419397D0D3D38C902314E8000000C0003FFFFFFFD03419397D0D3D38CD02324E8000000C0003FFFFFFFD03419397
310
D0D3D38D102324E8000000C0003FFFFFFFD03419397D0D15393902374E8000000C0003FFFFFFFE419397D0D15395D02374E8000000C0003FFFFFFFE419397D1125312502354E8000000C0003FFFFFFFE419397D2105510D02384E8000000C0003FFFFFFFD01419397D2125113902334E8000000C0003FFFFFFFD03419397D2
310
125115D02334E8000000C0003FFFFFFFD03419397D3115051102354E8000000C0003FFFFFFFE419397D391D25410349504E8000000C0003FFFFFFFE419397D412105390334414E8000000C0003FFFFFFFE419397D510D3D3902304E8000000C0003FFFFFFFD03419397D5121312502344E8000000C0003FFFFFFFD01419397
310
D5131153902304E8000000C0003FFFFFFFD03419397D516150CD02364E8000000C0003FFFFFFFD03419397D594131250332414E8000000C0003FFFFFFFE411391D25410249508000000C0003FFFFFFFE411410530C9055241484D358010000C30047A411410530CD055241484D358020000C30047A411410530D5055241484
310
D358000000C0003FFFFFFFE411410530DD055241484D3581E0000C30047903411412105390234418000000C0003FFFFFFFE411413D4D3901368070000C30047A419413D4D49151901368050000C30047903411413D4D6101368000000C0003FFFFFFFD03411414D150D0234418000000C0003FFFFFFFD03411490D1D390137
310
8000000C0003FFFFFFFE411490D1D5D01378000000C0003FFFFFFFE4114919112501348000000C0003FFFFFFFD034114945514901348070000C30047903411494D093D01348000000C0003FFFFFFFD034114D09492D01348000000C0003FFFFFFFD014114D0D153901378000000C0003FFFFFFFD034114D150D51013480000
310
00C0003FFFFFFFD014114D15313901378000000C0003FFFFFFFD034114D15315D01378000000C0003FFFFFFFD034114D4D654D01308000000C0003FFFFFFFD034114D51312501348070000C300479034114D6508C501358000000C0003FFFFFFFD034114D6508C901358000000C0003FFFFFFFD034114D6508CD0135802000
310
0C30047A4114D6508D501358070000C300479034114D65353901378000000C0003FFFFFFFD034114D65355D01378000000C0003FFFFFFFD03411510D3D3901308000000C0003FFFFFFFD034115121312501348000000C0003FFFFFFFD01411512550C9055241484D358010000C30047A411512550CD055241484D358020000
310
C30047A411512550D5055241484D358000000C0003FFFFFFFE411512550DD055241484D3581E0000C300479034115131153901308000000C0003FFFFFFFD03415514905253105545241494C8000000C0003FFFFFFFE41151492D3901378000000C0003FFFFFFFD0341151492D5D01378000000C0003FFFFFFFD03411514931
310
2501348000000C0003FFFFFFFD01411516150C501368030000C300436411516150C901368030000C300436411516150CD01368000000C0003FFFFFFFE411516150D501368070000C30047A411516150DD013681E0000C30047A4115925155D04564945578000000C0003FFFFFFFE41159151121034849448000000C0003FFF
310
FFFFD0241159151159035649538000000C0003FFFFFFFD02411594131250232418000000C0003FFFFFFFE4116925690501348000000C0003FFFFFFFD01411354D653501358020000C30047AAAA3F400030C01013F90A4051E4091E40D0D4110D4151E4190D41D1E4391E4791E7F6
340
16
340
16
340
16
340
48
340
16
340
16
340
16
340
49
340
16
340
16
340
49
340
4A
340
16
340
16
340
16
340
16
340
48
340
16
340
16
340
16
340
49
340
16
340
16
340
49
340
4A
340
16
340
4B
340
16
340
16
340
16
340
16
340
16
340
48
340
16
340
16
340
16
340
4C
340
15
340
15
340
15
340
15
340
15
340
15
340
15
340
15
340
15
340
15
340
15
340
15
340
15
340
15
340
15
340
15
340
4D
340
15
340
15
340
15
340
15
340
15
340
15
340
15
340
15
340
15
340
15
340
15
340
15
340
15
340
15
340
15
340
16
340
15
340
15
340
15
340
15
340
15
340
15
340
15
340
15
340
4C
340
15
340
15
340
4D
340
15
340
15
340
15
340
15
340
15
340
15
340
15
340
15
340
15
340
4D
340
15
340
15
340
15
340
4C
340
15
340
15
340
15
340
15
340
15
340
15
340
15
340
15
340
15
340
15
340
15
340
15
340
15
340
15
340
15
340
15
340
15
340
15
340
15
340
4D
340
15
340
15
340
4D
340
15
340
15
340
16
340
15
340
4D
340
15
340
15
340
4C
340
15
340
15
340
16
340
15
340
4D
340
15
340
15
340
15
340
15
340
15
340
15
340
15
340
15
340
15
340
4D
340
15
340
15
340
15
340
15
340
15
340
15
340
15
340
15
340
15
340
15
340
15
340
50
340
16
 94
        0
  0
ACAD_PROXY_OBJECT
  5
AE3
102
{ACAD_REACTORS
330
59
102
}
330
59
100
AcDbProxyObject
 90
      499
 91
      522
 95
       25
 70
     0
 93
      253
310
43D1444494D454E53494F4E2C414D44545F2A5F44494D404A9012A404A9012A0
  0
ACAD_PROXY_OBJECT
  5
AE4
102
{ACAD_REACTORS
330
59
102
}
330
59
100
AcDbProxyObject
 90
      499
 91
      522
 95
       25
 70
     0
 93
      181
310
43D012A42D05357D191504B505357CA9012A404A9012A8
  0
ACAD_PROXY_OBJECT
  5
AE5
102
{ACAD_REACTORS
330
59
102
}
330
59
100
AcDbProxyObject
 90
      499
 91
      522
 95
       25
 70
     0
 93
      133
310
43D054841544348404A9012A404A9012A8
  0
ACAD_PROXY_OBJECT
  5
AE6
102
{ACAD_REACTORS
330
59
102
}
330
59
100
AcDbProxyObject
 90
      499
 91
      522
 95
       25
 70
     0
 93
      549
310
43D044C494E4549CE0B0E138B0A8B4E0B0A8B4E138B105357CE0B105357CE138B0A8B505357CE0B0A8B505357CE139012A404A910494E534552542C5354445041525432448
  0
ACAD_PROXY_OBJECT
  5
AE7
102
{ACAD_REACTORS
330
59
102
}
330
59
100
AcDbProxyObject
 90
      499
 91
      522
 95
       25
 70
     0
 93
      909
310
43D6641434D46434652414D452C41434D444154554D5441524745542C41434D444154554D49442C41434D57454C4453594D2C41434D5355524653594D2C41434D4645415449442C41434D504152545245462C41434D42414C4C4F4F4E2C414D44544544474553594D404A9012A404A9012A8
  0
XRECORD
  5
1606
102
{ACAD_REACTORS
330
1605
102
}
330
1605
100
AcDbXrecord
280
     1
  1
PV
 40
1.0
 50
-12318.5925953127
 51
-8794.902155258136
 52
12318.5925953127
 53
8794.902155258136
  0
ACAD_PROXY_OBJECT
  5
45
102
{ACAD_REACTORS
330
44
102
}
330
44
100
AcDbProxyObject
 90
      499
 91
      520
 95
       25
 70
     0
 93
      157
310
057356C1D77406406AA8FFFFFFFF05DD01009010
330
1F
330
0
330
1665
 94
        0
  0
ACAD_PROXY_OBJECT
  5
1B45
102
{ACAD_REACTORS
330
7A0
102
}
330
7A0
100
AcDbProxyObject
 90
      499
 91
      576
 95
       25
 70
     0
 93
     2395
310
5DCB81E85EB51B8BE3F8030000C30041105394D2501640600800030C0200800030C00B81E85EB51B8BE3F48821E8720B1B6A9BAB9332A32BC3A29BA3220480A1282C6DA8C868CA6E8C88120286A0B1B6ABB2B63234B733A9BA3220480A1082C6DA92C8A6E8C88120285A0B1B6A230BA3AB6A9BA3220480A1282C6DA849E9AA
310
6E8C8812028820B6B23A2232BA30B4B629BCB6A9BA3220480A2282DAC8E8A6CAC6E8D2DEDCA6F2DAA6E8C88120288A0B6B23A21B2B73A32B92634B732A9BA3220480A2282DAC8E8A8D0E4CAC2C898D2DCCAA6E8C88120285A0B6B23A2737BA32A9BA3220480A1682C682DACE98C2F2A6E8C88120285A0B1A0B6B3A234B6A9B
310
A3220480A2282C682DACE90DED8CA86D0C2E4E8A6E8C88120286A0B1A0B6B3AA34BA3632A9BA3220480A02812020
340
190A
360
1B46
360
1B47
360
1B48
360
1B49
360
1B4A
360
1B4B
360
1B4C
360
1B4D
360
1B4E
360
1B4F
360
1B50
360
1B56
360
1B57
360
1B58
360
1B59
340
0
340
0
 94
        0
  0
ACAD_PROXY_OBJECT
  5
7A1
102
{ACAD_REACTORS
330
7A0
102
}
330
7A0
100
AcDbProxyObject
 90
      499
 91
      526
 95
       25
 70
     0
 93
     2379
310
5DC33333333333309408000000C00040D29254D01640600800030C0200800030C003333333333330940C8121E8720B1B6A9BAB9332A32BC3A29BA3220480A1282C6DA8C868CA6E8C88120286A0B1B6ABB2B63234B733A9BA3220480A1082C6DA92C8A6E8C88120285A0B1B6A230BA3AB6A9BA3220480A1282C6DA849E9AA6E
310
8C88120286A0B1A0B6B3AA34BA3632A9BA3220480A2082DAC8E888CAE8C2D2D8A6F2DAA6E8C88120288A0B6B23A29B2B1BA34B7B729BCB6A9BA3220480A2282DAC8E886CADCE8CAE498D2DCCAA6E8C88120288A0B6B23A2A343932B0B22634B732A9BA3220480A1682DAC8E89CDEE8CAA6E8C88120285A0B1A0B6B3A630BCA
310
9BA3220480A1682C682DACE88D2DAA6E8C88120288A0B1A0B6B3A437B632A1B430B93A29BA3220480C812020
340
7A2
360
7A3
360
7A4
360
7A5
360
7A6
360
7A7
360
7A8
360
166A
360
166B
360
166C
360
166E
360
166F
360
1670
360
1676
360
1677
360
1678
340
0
340
0
 94
        0
  0
ACAD_PROXY_OBJECT
  5
41
102
{ACAD_REACTORS
330
40
102
}
330
40
100
AcDbProxyObject
 90
      499
 91
      518
 95
       25
 70
     0
 93
     2908
310
4050B44574753455454494E4753A0E8482A68AA6A88882A069492A684A1A0A723A0A92920ACA0A8419983E1A1ABE1B1820C868A9C829C8E82A12686AF87260F862666A8321A2A72224A0A504F24B5DDEFF613A020E868A9C889282A682A106260F86460F8666083A1A2A72224A9AA250000000000000042020C868A9C988A9
310
C94000000000000048808321A2A727A323250000000000000122020E868A9C9E8C8C62940000000000000488083A1A2A727A3231925000000000000012202128698929C82A4A482B282A0A646A5C60608421A624A722AA2CA820A82AC2624A722A1288AE8EAAA68682988A94283A620A9AA27A12520A821B189C21A109A829
310
68AAC928AAE9FA04832829A1A0A622830020000419491559254D2505404C1055343414C4541503313A314214D510539110549110540D29254D0954494D455354414D504A0276523C2732B734141D5915494D253D3905414C4D4B8C0C1107B44574753455454494E4753454E447D0
  0
ACAD_PROXY_OBJECT
  5
54
102
{ACAD_REACTORS
330
40
102
}
330
40
100
AcDbProxyObject
 90
      499
 91
      518
 95
       25
 70
     0
 93
      411
310
4050346454D21092DCC6E486DECACC942842630BCA3B937BAB820A8320A6AFA322A0A20F688AE8EA68AA8A8929C8EA68A9C88FA0
  0
ACAD_PROXY_OBJECT
  5
53
102
{ACAD_REACTORS
330
40
102
}
330
40
100
AcDbProxyObject
 90
      499
 91
      518
 95
       25
 70
     0
 93
      591
310
40505536861667421292DCE8CAE4E4EAE0E89FC84A634B3B43A2634B732A7E80A1A98D2CED0E898D2DCCAACD2CAEE9FA028229B4B232A7E80A20F688AE8EA68AA8A8929C8EA68A9C88FA
  0
ACAD_PROXY_OBJECT
  5
42
102
{ACAD_REACTORS
330
40
102
}
330
40
100
AcDbProxyObject
 90
      499
 91
      518
 95
       25
 70
     0
 93
      852
310
4050D5452414E5353455454494E4753A2488A482AE929C8EA8A4829CA69882A8929E9C0C00800050D4F524947494E414C4C595F4F4E0600400028529A7AAA921A2A620A723A0A81A52827212AAA0A48AA68AA4AC8A0C0080001107B44574753455454494E4753454E447D0
  0
ACAD_PROXY_OBJECT
  5
1B46
330
1B45
100
AcDbProxyObject
 90
      499
 91
      577
 95
       25
 70
     0
 93
       96
310
5DC20E80A0280A0280A02808
  0
ACAD_PROXY_OBJECT
  5
1B47
330
1B45
100
AcDbProxyObject
 90
      499
 91
      578
 95
       25
 70
     0
 93
      332
310
5DD0E4050140501405014050140501405014050142501405014050140501405012000000000000000400
340
190B
 94
        0
  0
ACAD_PROXY_OBJECT
  5
1B48
330
1B45
100
AcDbProxyObject
 90
      499
 91
      579
 95
       25
 70
     0
 93
      403
310
5DCC199999999999E99F91F4050140501405014050140501405014050140501405014050140501405014050140501405014040
340
0
 94
        0
  0
ACAD_PROXY_OBJECT
  5
1B49
330
1B45
100
AcDbProxyObject
 90
      499
 91
      580
 95
       25
 70
     0
 93
       10
310
5DC0
  0
ACAD_PROXY_OBJECT
  5
1B4A
330
1B45
100
AcDbProxyObject
 90
      499
 91
      581
 95
       25
 70
     0
 93
      257
310
5DE290EA22A7D90F49F9353333333333727F44D4CCCCCCCCCDC9FC010000618000
340
1907
340
1908
 94
        0
  0
ACAD_PROXY_OBJECT
  5
1B4B
330
1B45
100
AcDbProxyObject
 90
      499
 91
      582
 95
       25
 70
     0
 93
    13023
310
5DD0E411255115350141236025B6901405014069011309A4F2590CB64FD3347454E545241434F2C4A504E2C302C8D8096DA2C47454E54524154582C25732C2847454E4D53472067656E647767203232322940690120281A8AA2CA0282484A4BE52028120280A03202261349E4B2196C9FA668E8A9CA8A482869E5894A09C58
310
605921292F94588E8A9CA8A482A8B0584AE658508E8A9C9AA68E40CECADCC8EECE406464665280D202405044E414D454050496BC914F4051C40640A8B95C2E97CBE502404CD1D15395149050D3CB1294138B0C0B25AF2453CB11D15395149055160B095CCB0A11D1539354D1C819D95B991DD9C80C8C8D8A50192C3D494628
310
4953424C414E4B28504152543A4E414D45292C424C4F434B3A4E414D452C504152543A4E414D452940480A0A888AA686A480A09251B1DBE80A3A80C81D10782C06030180C8099A3A2A72A2920A1A7962528271618164946C76F9623A2A72A2920AA2C1612B9961423A2A726A9A39033B2B7323BB39019189B94A0248090142
310
14D51053911054911014122D2E29A50147501904A383BFDFEFF5FBFCFD3347454E545241434F2C4A504E2C302C8B4B8A692C47454E54524154582C25732C2847454E4D53472067656E64776720323138294049012028426A0AA22A924A0A62028246EF4BDFA028EA0320B41396D838E9017D9FA668E8A9CA8A482869E5894A
310
09C5860591BBD2F7E588E8A9CA8A482A8B0584AE658508E8A9C9AA68E40CECADCC8EECE406464625280D202405044E4F544540504928D8B4C4051D40641A8B95C2E97CBE5F23F4CD1D15395149050D3CB1294138B0C0B24A362D30B11D15395149055160B095CCB0A11D1539354D1C819D95B991DD9C80C8C8D4A501A40480
310
A0CAC8A9C889EA480A1106F1072706BF02B680A3A80C83D172B85D2F97CBE47E9BA3A2A72A2920A1A79625282716181641BC41C9C1AFC0AD9623A2A72A2920AA2C1612B9961423A2A726A9A39033B2B7323BB39019191A14A0348090141911154D0D48C90141A43825AF880C90147501908A20F0580C0603019013447454E5
310
45241434F2C4A504E2C302C90E096BE20322C47454E54524154582C25732C2847454E4D53472067656E6477672033362940490120284A9AA20A72220A922192028345A5C53490192028EA0321347077FBFDFEBF7F9FA6A8E8A9CA8A482869E5894A09C586059169714D24064588E8A9CA8A482A8B0584AE658508E8A9C9AA6
310
8E40CECADCC8EECE4064646052809202405094D4154455249414C32405068DDE97BF20324051D40642A8272DB071D202FB3F4D11D15395149050D3CB1294138B0C0B2377A5EFC80C8B11D15395149055160B095CCB0A11D1539354D1C819D95B991DD9C80D0C0A501240480A089A82A6A680A091D7F2F9480A3A80A0485A06
310
81172B85D2F97CBE47E9923A2A72A2920A1A796252827161816475FCBE51623A2A72A2920AA2C1612B9961423A2A726A9A39033B2B7323BB3901A1914A024809014154149250D150141226FE29A501475014090C409022E570BA5F2F97C8FD3247454E545241434F2C4A504E2C302C89BF8A692C47454E54524154582C2573
310
2C2847454E4D53472067656E6477672034332940490120281A224A6A02824850CB202028EA028121A81A045CAE174BE5F2F91FA648E8A9CA8A482869E5894A09C58605921432C80588E8A9CA8A482A8B0584AE658508E8A9C9AA68E40CECADCC8EECE406868528092024050E441022E07A17AD46E338FE07800030C0001018
310
ACD56AB55AADF63F2B355AAD56AB7D8FD073D3C4954454D3E405018ACD56AB55AADF63F2B355AAD56AB7D8FD073D3C4954454D3E40501890C7E3F1783CEE3F2431F8FC5E0F3B8FD073D3C4954454D3E40501890C7E3F1783CEE3F2431F8FC5E0F3B8FD073D3C4954454D3E405029012B355AAD56AB7D8FCACD56AB55AADF63
310
F41CF4F125511534F901418F4F1455164F9014062B355AAD56AB7D8FCACD56AB55AADF63F41CF4F125511534F9014061309A4F2590CBA4FC4C2693C96432E93F41CF4F125511534F901901002B355AAD56AB7D8FCACD56AB55AADF63FA2000000000000008204018000618048220681A048120280C88214844882034852034
310
8452028521485214814000000000000F0BF0000000000003C2FD018020000C3008070000C3000EF7D3E365DBA88FC3BDF4F8D976EA23F2E07A17AD46E2F8FF20341A405024150741A4069703D0BD6A3717C7F0040001860100400018601002000186002026280A02
340
0
340
0
 94
        0
  0
ACAD_PROXY_OBJECT
  5
1B4C
330
1B45
100
AcDbProxyObject
 90
      499
 91
      583
 95
       25
 70
     0
 93
      994
310
5DC0B81E85EB51B8CE3F4BCF511155105253080F11115510525317D3105091530F971414D0D05311480F11115510525317D05094D4D0D053114F92341C9A9999999999B93F26A666666666724FC000000000000E03F4000000000000004000000000000005100000000000000244081E0000C3002E07A17AD46E338FC0
340
1646
340
190A
 94
        0
  0
ACAD_PROXY_OBJECT
  5
1B4D
330
1B45
100
AcDbProxyObject
 90
      499
 91
      584
 95
       25
 70
     0
 93
      823
310
5DC031703D0BD6A3719C7E999EA9A2A1AA24A7A7101E29A2A1AA24A7A72FA620A122A62FA324A929AA1F169E29A2A1AA24A7A72FA620A122A62FA620A9AA1F1353333333333B27E3FFFE01C00030C008840F000061801353333333333B27F1703D0BD6A3719C7E
340
1646
340
190A
 94
        0
  0
ACAD_PROXY_OBJECT
  5
1B4E
330
1B45
100
AcDbProxyObject
 90
      499
 91
      585
 95
       25
 70
     0
 93
      280
310
5DC2B8716D9CEF7C33F0A5723F0BD4A2F0FC295C8FC2F528BC3FA199999999999F99FC
  0
ACAD_PROXY_OBJECT
  5
1B4F
330
1B45
100
AcDbProxyObject
 90
      499
 91
      586
 95
       25
 70
     0
 93
       14
310
5DE4
340
0
 94
        0
  0
ACAD_PROXY_OBJECT
  5
1B50
330
1B45
100
AcDbProxyObject
 90
      499
 91
      587
 95
       25
 70
     0
 93
     7123
310
5DD084050BA4050AA405024050E836583938376838C815B8367203140405013D3C696628657175616C28486F6C653A7461707065642C223022292C22252563222C486F6C653A6E6F6D696E616C2022202220696628657175616C28486F6C653A756E6974732C223122292C2278222C222D222920222022293E3C6966286571
310
75616C28486F6C653A7461707065642C223022292C486F6C653A6469612C486F6C653A706974636864657363293E207B5C46414D4744543B787D203C696628657175616C28486F6C653A7465726D696E6174696F6E2C223022292C486F6C653A64657074682C228AD192CA22293E5C507B5C46414D4744543B767D2525633C
310
486F6C653A63746469613E207B5C46414D4744543B787D203C486F6C653A637464657074683E406901405034050E836583938376838C815B83672031405FE3D3C696628657175616C28486F6C653A7461707065642C223022292C22252563222C486F6C653A6E6F6D696E616C2022202220696628657175616C28486F6C653
310
A756E6974732C223122292C2278222C222D222920222022293E3C696628657175616C28486F6C653A7461707065642C223022292C486F6C653A6469612C486F6C653A706974636864657363293E207B5C46414D4744543B787D203C696628657175616C28486F6C653A7465726D696E6174696F6E2C223022292C486F6C653
310
A64657074682C228AD192CA22293E5C507B5C46414D4744543B777D2525633C486F6C653A63746469613E2058203C486F6C653A6374616E676C653E252564406901405014050E836583938376838C815B83672031405CF3D3C696628657175616C28486F6C653A7461707065642C223022292C22252563222C486F6C653A6E
310
6F6D696E616C2022202220696628657175616C28486F6C653A756E6974732C223122292C2278222C222D222920222022293E3C696628657175616C28486F6C653A7461707065642C223022292C486F6C653A6469612C486F6C653A706974636864657363293E5C507B5C46414D4744543B787D203C696628657175616C2848
310
6F6C653A7465726D696E6174696F6E2C223022292C486F6C653A64657074682C228AD192CA22293E4069014051E4090E836583938376838C815B83672032405173D3C535444503A444553433E203C535444503A5354443E40690E836583938376838C815B836720314050C3D3C535444503A444553433E40690240515AAABB
310
A060
360
1B51
330
1B51
360
1B52
330
1B52
360
1B53
330
1B53
360
1B54
360
1B55
330
1B54
330
1B55
 94
        0
  0
ACAD_PROXY_OBJECT
  5
1B56
330
1B45
100
AcDbProxyObject
 90
      499
 91
      567
 95
       25
 70
     0
 93
       26
310
5DD02A80
340
0
 94
        0
  0
ACAD_PROXY_OBJECT
  5
1B57
330
1B45
100
AcDbProxyObject
 90
      499
 91
      568
 95
       25
 70
     0
 93
      258
310
5DD02000000000000380FC000000000000E03F408F0F9023C3E40DB18CCCFFFF80
340
190C
340
0
340
0
340
190D
340
190E
340
0
340
190F
340
1910
340
1911
340
0
 94
        0
  0
ACAD_PROXY_OBJECT
  5
1B58
330
1B45
100
AcDbProxyObject
 90
      499
 91
      588
 95
       25
 70
     0
 93
    13993
310
5DD1D023FFFFFFFD010300002E07A17AD46E2F8FE00800030C01010300002E07A17AD46E2F8FE00800030C00050C8DC0955782CC838A83588367014ED1D15395149050D3CB1294138B0C0B23702555E0B320E2A0D620D9CB11D15395149055160B095CCB0A11D1539354D1C819D95B991A5B5E880CCC0A78000C0000000000
310
00000000000000000000007B14AE47E17AA43F2E07A17AD46E2F8FE00800030C007B14AE47E17AA43F2E07A17AD46E2F8FE00800030C020143CF4F111959985D5B1D151A5D1B194F8050A8C8A8365815B8375838B014E51D15395149050D3CB1294138B0C0B2322A0D96056E0DD60E2CB11D15395149055160B095CCB0A11D
310
1539354D1C819D95B991A5B5E880CCC4A78000C000000000000000000000000000000007B14AE47E17AA43F2E07A17AD46E2F8FE00800030C007B14AE47E17AA43F2E07A17AD46E2F8FE00800030C020143CF4F111959985D5B1D151A5D1B194F90D4410F4450240D0441507431014391244D05449074510C4350F00014123
310
2D24D7C053247454E545241434F2C4A504E2C302C8CB4935F2C47454E54524154582C25732C2847454E4D53472067656E64696D7A20312900010104002214000282465A49AF80A648E8A9CA8A482869E5894A09C586059196926BE588E8A9CA8A482A8B0584AE658508E8A9C9AA68E40CECADCC8D2DAF44062520002020800
310
43E80005028C8A014C11D15395149050D3CB1294138B0C0B23228B11D15395149055160B095CCB0A11D1539354D1C819D95B991A5B5E880C8A4054E3D3C4946284953424C414E4B28486F6C654974656D292C4F726967696E2C20486F6C654974656D293E3C4946284953424C414E4B28486F6C654974656D292C22222C204
310
86F6C65496E646578293E010104002234000280AC00A5E8E8A9CA8A482869E5894A09C586058B0588E8A9CA8A482A8B0584AE658508E8A9C9AA68E40CECADCC8D2DAF4406652000202000040A800050159014BD1D15395149050D3CB1294138B0C0B164B11D15395149055160B095CCB0A11D1539354D1C819D95B991A5B5E
310
880D0A4000404000081D0000A02A40297A3A2A72A2920A1A796252827161816291623A2A72A2920AA2C1612B9961423A2A726A9A39033B2B73234B6BD101B148000808000104A000140A0F4C053047454E545241434F2C4A504E2C302C83D32C47454E54524154582C25732C2847454E4D53472067656E64696D7A20372900
310
0101030020B400028141E980A608E8A9CA8A482869E5894A09C58605907A6588E8A9CA8A482A8B0584AE658508E8A9C9AA68E40CECADCC8D2DAF4407052000202020041E800050490E096BE014CD1D15395149050D3CB1294138B0C0B243825AF8B11D15395149055160B095CCB0A11D1539354D1C819D95B991A5B5E880C8
310
C0A400040010008650000A091B012DB40299A3A2A72A2920A1A79625282716181646C04B6D1623A2A72A2920AA2C1612B9961423A2A726A9A39033B2B73234B6BD10189A148000808280501A00014320D0E0E4E0D9A0D8A0D3A0D60053B47454E545241434F2C4A504E2C302C8343839383668362834E83582C47454E54524
310
154582C25732C2847454E4D53472067656E64696D7A203135290001010500A1D4000281464500A628E8A9CA8A482869E5894A09C5860591914588E8A9CA8A482A8B0584AE658508E8A9C9AA68E40CECADCC8D2DAF440626C52000202080044A800050E8C8A8343839383668362834E8358014F51D15395149050D3CB129413
310
8B0C0B2322A0D0E0E4E0D9A0D8A0D3A0D60B11D15395149055160B095CCB0A11D1539354D1C819D95B991A5B5E880C4DCA4000404140089D0000A0921292F940299A3A2A72A2920A1A796252827161816484A4BE51623A2A72A2920AA2C1612B9961423A2A726A9A39033B2B73234B6BD10189C948000808300114A0001412
310
2D2E29A4053347454E545241434F2C4A504E2C302C8B4B8A692C47454E54524154582C25732C2847454E4D53472067656E64696D7A20323129000100040021B4878030026A6666666667A4FE064D4CCCCCCCCCF49FC049A9999999999E93F809353333333333D27F0226A6666666667A4FE044D4CCCCCCCCCF49FC0D818000
310
00000000000810026A666666666764FE004D4CCCCCCCCCF49FC009A9999999999E93F801353333333333D27F032E07A17AD46E378FE0633B333333333032050F006004D4CCCCCCCCCF49FC0C9A9999999999E93F819353333333333D27F0326A6666666667A4FE064D4CCCCCCCCCF49FC0C9A9999999999E93F81B03000000
310
00000000102004D4CCCCCCCCCEC9FC009A9999999999E93F819353333333333D27F0026A6666666667A4FE065C0F42F5A8DC6F1FC0C6766666666660640A088800000021E000000890000002260000008220E000200890000002060002008100008000
340
0
340
0
340
0
340
0
340
190A
340
190A
 94
        0
  0
ACAD_PROXY_OBJECT
  5
1B59
330
1B45
100
AcDbProxyObject
 90
      499
 91
      560
 95
       25
 70
     0
 93
     5214
310
5DD9741105394D2506414E53495F4342905394D257D512551554D15414E53495F54525F5265766973696F6E6C697374614191143202831372E307832322E30696E63682941905394D257D0D1146202832382E307834302E30696E63682941905394D257D191142202831312E307831372E30696E63682941905394D257D091
310
144202832322E307833342E30696E63682941905394D257D111145202833342E307834342E30696E63682941905394D257D1510412028382E357831312E30696E63682941905394D257D050543905B9CDA482557247A25E4C81110D0C414E53495F5449544C45444343505B9CDA482557247A25E4C81050B414E53495F5449
310
544C454143905B9CDA482557247A25E4C81050D0C414E53495F5449544C454143425554C82557247A25E4D0A414E53495F544954555343505B9CDA482557247A25E4C81110B414E53495F5449544C454442110979A97F0838A8358836720415F42525F45505394D257D09497D4995D9A5CDA5BDB9B1A5CDD18510979A97F08
310
38A8358836720415F54525F45505394D257D51497D4995D9A5CDA5BDB9B1A5CDD18510979A97F0838A8358836720445F42525F45505394D257D09497D4995D9A5CDA5BDB9B1A5CDD19110979A97F0838A8358836720445F54525F45505394D257D51497D4995D9A5CDA5BDB9B1A5CDD19110979A97F0838A8358836720415F
310
424C5F45505394D257D09317D4995D9A5CDA5BDB9B1A5CDD18510979A97F0838A8358836720415F544C5F45505394D257D51317D4995D9A5CDA5BDB9B1A5CDD18510979A97F0838A8358836720445F424C5F45505394D257D09317D4995D9A5CDA5BDB9B1A5CDD19110979A97F0838A8358836720445F544C5F45505394D25
310
7D51317D4995D9A5CDA5BDB9B1A5CDD190
  0
ACAD_PROXY_OBJECT
  5
7A3
330
7A1
100
AcDbProxyObject
 90
      499
 91
      527
 95
       25
 70
     0
 93
       86
310
5DEA0C80A0280A0280A034
  0
ACAD_PROXY_OBJECT
  5
7A4
330
7A1
100
AcDbProxyObject
 90
      499
 91
      528
 95
       25
 70
     0
 93
      282
310
5DD0E4050140501405014050140501405014050141101405014041000000000000001000
340
7A9
 94
        0
  0
ACAD_PROXY_OBJECT
  5
7A5
330
7A1
100
AcDbProxyObject
 90
      499
 91
      529
 95
       25
 70
     0
 93
      323
310
5DCC199999999999E99F91740501405014050140501405014050140501405014050140501405014040
340
0
 94
        0
  0
ACAD_PROXY_OBJECT
  5
7A6
330
7A1
100
AcDbProxyObject
 90
      499
 91
      530
 95
       25
 70
     0
 93
       10
310
5DC0
  0
ACAD_PROXY_OBJECT
  5
7A7
330
7A1
100
AcDbProxyObject
 90
      499
 91
      531
 95
       25
 70
     0
 93
      257
310
5DE0C16A22A7D90F49F80000000000001081400000000000004204010000618000
340
7AA
340
7AB
 94
        0
  0
ACAD_PROXY_OBJECT
  5
7A8
330
7A1
100
AcDbProxyObject
 90
      499
 91
      532
 95
       25
 70
     0
 93
     5277
310
5DD06411255115350141236025B6901405014069010000000000000910240690120281A8AA2CA0282484A4BE52028120280A032020000000000001220480D202405044E414D454050496BC914F4051C40640A80000000000004E4090193C3D3C4946284953424C414E4B28504152543A4E414D45292C424C4F434B3A4E414D
310
452C504152543A4E414D45293E3C41435F44455343524950544E3E40480A109A82A88AA492829880A091BBD2F7E80A3A80C81D0E27A15AF46E08A81203480901411393D5115014124A363B7D0147501904A0000000000000F902406428F4F1050D7D393D5114F901202832B22A72227A92028366EF6EE06F582028EA0320B4
310
0000000000001F20480C879E9E20A1AFAB27222FA620A122A61F20240506445020000000000000490201C00030C00010180000000000003E400000000000000F901073D3C4954454D3E4050180000000000003E400000000000000F901073D3C4954454D3E40501800000000000034400000000000000D101073D3C4954454
310
D3E40501800000000000034400000000000000D101073D3C4954454D3E405029010000000000000F9000000000000003E4041CF4F125511534F901418F4F1455164F9014060000000000000F9000000000000003E4041CF4F125511534F901800000000000034400000000000000D101073D3C4954454D3E40640400000000
310
0000003E400000000000000F90288800000000000020810000001800120881A068120480A032208521122080D21480D211480A1485214852050000000000003C2FC000000000000F0BF40600800030C0200400030C00CDCCCCCCCCCCEC3F3373333333333B0FC3333333333330940C80D069014090341504901A1999999999
310
9984A040100006180400800061804010000618008098A02808
340
0
340
0
 94
        0
  0
ACAD_PROXY_OBJECT
  5
166A
330
7A1
100
AcDbProxyObject
 90
      499
 91
      560
 95
       25
 70
     0
 93
     3042
310
5DD9740D29254D064A49535F413342929254D7D512551311505134A49535F42525F5265766973696F6E6C6973744190F4134522028323937783231306D6D2941D29254D7D04D1490E41312028353934783834316D6D2941929254D7D04C50F41344C2028323130783239376D6D2941D29254D7D04D1310E413320283239377
310
83432306D6D2941929254D7D04CD0E41322028343230783539346D6D2941929254D7D04C90F4130202838343178313138396D6D2941929254D7D04C10243129254C82557247A25E4C81050A4A49535F5449544C454143129254C82557247A25E4C81090A4A49535F5449544C45424110E979A97F0838A835883675F42525F4
310
4D29254D7D09497D4995D9A5CDA5BDB9B1A5CDD10E979A97F0838A835883675F54525F44D29254D7D51497D4995D9A5CDA5BDB9B1A5CDD10E979A97F0838A835883675F424C5F44D29254D7D09317D4995D9A5CDA5BDB9B1A5CDD10E979A97F0838A835883675F544C5F44D29254D7D51317D4995D9A5CDA5BDB9B1A5CDD00
  0
ACAD_PROXY_OBJECT
  5
166B
330
7A1
100
AcDbProxyObject
 90
      499
 91
      561
 95
       25
 70
     0
 93
      898
310
5DC4000000000000124048CF4F11115510525317D3105091530F880A0F11115510525317D05094D4D0D053114F8A50241C9A9999999999B93F26A666666666724FC000000000000E03F400000000000000400000000000000510000000000000024408070000C300000000000000049000
340
16
340
7A2
 94
        0
  0
ACAD_PROXY_OBJECT
  5
166C
330
7A1
100
AcDbProxyObject
 90
      499
 91
      562
 95
       25
 70
     0
 93
      823
310
5DC0B00000000000002480959E9E29A2A1AA24A7A72FA620A122A62FA324A929AA1F169E29A2A1AA24A7A72FA620A122A62FA620A9AA1F000000000000048803FFFE01C00030C008140380006180000000000000048800000000000000A2000000000000002480
340
118
340
7A2
 94
        0
  0
ACAD_PROXY_OBJECT
  5
166E
330
7A1
100
AcDbProxyObject
 90
      499
 91
      563
 95
       25
 70
     0
 93
      152
310
5DE8273108AC1C5A0640A3D0A5723F0BD1F200
  0
ACAD_PROXY_OBJECT
  5
166F
330
7A1
100
AcDbProxyObject
 90
      499
 91
      564
 95
       25
 70
     0
 93
       14
310
5DE0
340
0
 94
        0
  0
ACAD_PROXY_OBJECT
  5
1670
330
7A1
100
AcDbProxyObject
 90
      499
 91
      565
 95
       25
 70
     0
 93
     6059
310
5DD084050BA4050AA405024050E836583938376838C815B83672031405983D3C486F6C653A6469613E3C696628657175616C28486F6C653A7465726D696E6174696F6E2C223022292C2220905B82B320222C22208368838A838B22293E3C696628657175616C28486F6C653A7465726D696E6174696F6E2C223022292C486F
310
6C653A64657074682C2222293E2C203C486F6C653A63746469613E2082B482AE82E882CC905B82B3203C486F6C653A637464657074683E406901405034050E836583938376838C815B83672031405EF3D3C486F6C653A6374616E676C653E252564202525633C486F6C653A63746469613E208E4D8C8A2C203C69662865717
310
5616C28486F6C653A7461707065642C223022292C22252563222C486F6C653A6E6F6D696E616C202220782022293E3C696628657175616C28486F6C653A7461707065642C223022292C486F6C653A6469612C486F6C653A706974636864657363293E203C696628657175616C28486F6C653A7465726D696E6174696F6E2C2
310
23022292C22905B82B320222C222022293E3C696628657175616C28486F6C653A7465726D696E6174696F6E2C223022292C486F6C653A64657074682C2222293E406901405014050E836583938376838C815B83672031405C73D3C696628657175616C28486F6C653A7461707065642C223022292C22252563222C486F6C65
310
3A6E6F6D696E616C202220782022293E3C696628657175616C28486F6C653A7461707065642C223022292C486F6C653A6469612C486F6C653A706974636864657363293E203C696628657175616C28486F6C653A7465726D696E6174696F6E2C223022292C22905B82B320222C222022293E3C696628657175616C28486F6C
310
653A7465726D696E6174696F6E2C223022292C486F6C653A64657074682C2222293E4069014051E4090E836583938376838C815B83672032405173D3C535444503A444553433E203C535444503A5354443E40690E836583938376838C815B836720314050C3D3C535444503A444553433E40690240515AAABBA120
360
1674
330
1674
360
1675
330
1675
360
1673
330
1673
360
1672
360
1671
330
1672
330
1671
 94
        0
  0
ACAD_PROXY_OBJECT
  5
1676
330
7A1
100
AcDbProxyObject
 90
      499
 91
      567
 95
       25
 70
     0
 93
       26
310
5DD02A80
340
47
 94
        0
  0
ACAD_PROXY_OBJECT
  5
1677
330
7A1
100
AcDbProxyObject
 90
      499
 91
      568
 95
       25
 70
     0
 93
      250
310
5DD020000000000000A1000000000000002440408F0F9023C3E409A0DCFFFF80
340
69
340
0
340
0
340
70
340
71
340
72
340
73
340
74
340
79
340
0
 94
        0
  0
ACAD_PROXY_OBJECT
  5
1678
330
7A1
100
AcDbProxyObject
 90
      499
 91
      569
 95
       25
 70
     0
 93
    13889
310
5DD1D003FFFFFFFD030300030CCCCCCCCCCCC250200800030C01030300030CCCCCCCCCCCC250200800030C00050C8DC0955782CC838A83588367014ED1D15395149050D3CB1294138B0C0B23702555E0B320E2A0D620D9CB11D15395149055160B095CCB0A11D1539354D1C819D95B991A5B5E880CCC0A78000C0000000000
310
00000000000000000000010CCCCCCCCCCCC250200800030C010CCCCCCCCCCCC250200800030C020143CF4F111959985D5B1D151A5D1B194F8050A8C8A8365815B8375838B014E51D15395149050D3CB1294138B0C0B2322A0D96056E0DD60E2CB11D15395149055160B095CCB0A11D1539354D1C819D95B991A5B5E880CCC4
310
A78000C000000000000000000000000000000010CCCCCCCCCCCC250200800030C010CCCCCCCCCCCC250200800030C020143CF4F111959985D5B1D151A5D1B194F90D44111409034110541D0C4350F4050E44D03449074510F000141232D24D7C053247454E545241434F2C4A504E2C302C8CB4935F2C47454E54524154582C
310
25732C2847454E4D53472067656E64696D7A20312900010104002214000281464500A608E8A9CA8A482869E5894A09C5860591914588E8A9CA8A482A8B0584AE658508E8A9C9AA68E40CECADCC8D2DAF4406452029E9E9E27B934B3B4B71F1E24A31427A91424A9A12620A7259427B934B3B4B7149624A9A12620A7259424B
310
A32B6949496111116111711149F1E24BA32B69F00808200111A000140560052F47454E545241434F2C4A504E2C302C582C47454E54524154582C25732C2847454E4D53472067656E64696D7A20332900010100002054000280AC80A5E8E8A9CA8A482869E5894A09C586058B2588E8A9CA8A482A8B0584AE658508E8A9C9AA
310
68E40CECADCC8D2DAF4406852000202000040E800050152014BD1D15395149050D3CB1294138B0C0B148B11D15395149055160B095CCB0A11D1539354D1C819D95B991A5B5E880D8A400040400008250000A0507A6029823A2A72A2920A1A79625282716181641E99623A2A72A2920AA2C1612B9961423A2A726A9A39033B2
310
B73234B6BD101B948000808180105A000140A0F4C053047454E545241434F2C4A504E2C302C83D32C47454E54524154582C25732C2847454E4D53472067656E64696D7A203829000101010020F400028248704B5F00A668E8A9CA8A482869E5894A09C58605921C12D7C588E8A9CA8A482A8B0584AE658508E8A9C9AA68E40
310
CECADCC8D2DAF440646052000200080043280005048B4B8A69014CD1D15395149050D3CB1294138B0C0B22D2E29A4B11D15395149055160B095CCB0A11D1539354D1C819D95B991A5B5E880C8C4A4000400100086D0000A09196926BE029923A2A72A2920A1A796252827161816465A49AF9623A2A72A2920AA2C1612B9961
310
423A2A726A9A39033B2B73234B6BD10189480A02620202080043E80005048D8096DA014CD1D15395149050D3CB1294138B0C0B236025B68B11D15395149055160B095CCB0A11D1539354D1C819D95B991A5B5E880C4D0A4000404140280D0000A190687072706CD06C5069D06B0029DA3A2A72A2920A1A7962528271618164
310
1A1C1C9C1B341B141A741AC1623A2A72A2920AA2C1612B9961423A2A726A9A39033B2B73234B6BD10189A94800080820050EA000143A322A0D0E0E4E0D9A0D8A0D3A0D60053D47454E545241434F2C4A504E2C302C8C8A8343839383668362834E83582C47454E54524154582C25732C2847454E4D53472067656E64696D7A
310
2031372900010105002274000281464500A628E8A9CA8A482869E5894A09C5860591914588E8A9CA8A482A8B0584AE658508E8A9C9AA68E40CECADCC8D2DAF440626C52000202080044A8000504909497CA014CD1D15395149050D3CB1294138B0C0B242525F28B11D15395149055160B095CCB0A11D1539354D1C819D95B9
310
91A5B5E880C4E4A400040418008A521E000000000000001CA040C00000000000034408080000000000006881010000000000000D102040000000000001A204080000000000003440818000000000000728103000000000000125020600000000004028A040000000000000034408000000000000004881000000000000000D
310
102000000000000001A204000000000000003440818000000000000508143C0000000000000039408180000000000006881030000000000000D102060000000000001A2040C00000000000034408180000000000006881030000000000000E5020600000000000024A040C0000000000805140800000000000000688100000
310
00000000009102000000000000001A2040000000000000034408180000000000006881030000000000000A10284220000000878000002020000008380000020400000081800000208000000828000002028900000000
340
0
340
0
340
0
340
0
340
7A2
340
7A2
 94
        0
  0
ACAD_PROXY_OBJECT
  5
1B51
330
1B50
100
AcDbProxyObject
 90
      499
 91
      566
 95
       25
 70
     0
 93
     2256
310
5DE0143A0D960E4E0DDA0E32056E0D9C80C40405013D3C696628657175616C28486F6C653A7461707065642C223022292C22252563222C486F6C653A6E6F6D696E616C2022202220696628657175616C28486F6C653A756E6974732C223122292C2278222C222D222920222022293E3C696628657175616C28486F6C653A74
310
61707065642C223022292C486F6C653A6469612C486F6C653A706974636864657363293E207B5C46414D4744543B787D203C696628657175616C28486F6C653A7465726D696E6174696F6E2C223022292C486F6C653A64657074682C228AD192CA22293E5C507B5C46414D4744543B767D2525633C486F6C653A6374646961
310
3E207B5C46414D4744543B787D203C486F6C653A637464657074683E
  0
ACAD_PROXY_OBJECT
  5
1B52
330
1B50
100
AcDbProxyObject
 90
      499
 91
      566
 95
       25
 70
     0
 93
     2192
310
5DE0143A0D960E4E0DDA0E32056E0D9C80C405FE3D3C696628657175616C28486F6C653A7461707065642C223022292C22252563222C486F6C653A6E6F6D696E616C2022202220696628657175616C28486F6C653A756E6974732C223122292C2278222C222D222920222022293E3C696628657175616C28486F6C653A7461
310
707065642C223022292C486F6C653A6469612C486F6C653A706974636864657363293E207B5C46414D4744543B787D203C696628657175616C28486F6C653A7465726D696E6174696F6E2C223022292C486F6C653A64657074682C228AD192CA22293E5C507B5C46414D4744543B777D2525633C486F6C653A63746469613E
310
2058203C486F6C653A6374616E676C653E252564
  0
ACAD_PROXY_OBJECT
  5
1B53
330
1B50
100
AcDbProxyObject
 90
      499
 91
      566
 95
       25
 70
     0
 93
     1816
310
5DE0143A0D960E4E0DDA0E32056E0D9C80C405CF3D3C696628657175616C28486F6C653A7461707065642C223022292C22252563222C486F6C653A6E6F6D696E616C2022202220696628657175616C28486F6C653A756E6974732C223122292C2278222C222D222920222022293E3C696628657175616C28486F6C653A7461
310
707065642C223022292C486F6C653A6469612C486F6C653A706974636864657363293E5C507B5C46414D4744543B787D203C696628657175616C28486F6C653A7465726D696E6174696F6E2C223022292C486F6C653A64657074682C228AD192CA22293E
  0
ACAD_PROXY_OBJECT
  5
1B54
330
1B50
100
AcDbProxyObject
 90
      499
 91
      566
 95
       25
 70
     0
 93
      344
310
5DE0143A0D960E4E0DDA0E32056E0D9C80C805173D3C535444503A444553433E203C535444503A5354443E
  0
ACAD_PROXY_OBJECT
  5
1B55
330
1B50
100
AcDbProxyObject
 90
      499
 91
      566
 95
       25
 70
     0
 93
      256
310
5DE0143A0D960E4E0DDA0E32056E0D9C80C4050C3D3C535444503A444553433E
  0
ACAD_PROXY_OBJECT
  5
1674
330
1670
100
AcDbProxyObject
 90
      499
 91
      566
 95
       25
 70
     0
 93
     1376
310
5DE0143A0D960E4E0DDA0E32056E0D9C80C405983D3C486F6C653A6469613E3C696628657175616C28486F6C653A7465726D696E6174696F6E2C223022292C2220905B82B320222C22208368838A838B22293E3C696628657175616C28486F6C653A7465726D696E6174696F6E2C223022292C486F6C653A64657074682C22
310
22293E2C203C486F6C653A63746469613E2082B482AE82E882CC905B82B3203C486F6C653A637464657074683E
  0
ACAD_PROXY_OBJECT
  5
1675
330
1670
100
AcDbProxyObject
 90
      499
 91
      566
 95
       25
 70
     0
 93
     2072
310
5DE0143A0D960E4E0DDA0E32056E0D9C80C405EF3D3C486F6C653A6374616E676C653E252564202525633C486F6C653A63746469613E208E4D8C8A2C203C696628657175616C28486F6C653A7461707065642C223022292C22252563222C486F6C653A6E6F6D696E616C202220782022293E3C696628657175616C28486F6C
310
653A7461707065642C223022292C486F6C653A6469612C486F6C653A706974636864657363293E203C696628657175616C28486F6C653A7465726D696E6174696F6E2C223022292C22905B82B320222C222022293E3C696628657175616C28486F6C653A7465726D696E6174696F6E2C223022292C486F6C653A6465707468
310
2C2222293E
  0
ACAD_PROXY_OBJECT
  5
1673
330
1670
100
AcDbProxyObject
 90
      499
 91
      566
 95
       25
 70
     0
 93
     1752
310
5DE0143A0D960E4E0DDA0E32056E0D9C80C405C73D3C696628657175616C28486F6C653A7461707065642C223022292C22252563222C486F6C653A6E6F6D696E616C202220782022293E3C696628657175616C28486F6C653A7461707065642C223022292C486F6C653A6469612C486F6C653A706974636864657363293E20
310
3C696628657175616C28486F6C653A7465726D696E6174696F6E2C223022292C22905B82B320222C222022293E3C696628657175616C28486F6C653A7465726D696E6174696F6E2C223022292C486F6C653A64657074682C2222293E
  0
ACAD_PROXY_OBJECT
  5
1672
330
1670
100
AcDbProxyObject
 90
      499
 91
      566
 95
       25
 70
     0
 93
      344
310
5DE0143A0D960E4E0DDA0E32056E0D9C80C805173D3C535444503A444553433E203C535444503A5354443E
  0
ACAD_PROXY_OBJECT
  5
1671
330
1670
100
AcDbProxyObject
 90
      499
 91
      566
 95
       25
 70
     0
 93
      256
310
5DE0143A0D960E4E0DDA0E32056E0D9C80C4050C3D3C535444503A444553433E
  0
ENDSEC
  0
EOF
