  0
SECTION
  2
HEADER
  9
$ACADVER
  1
AC1015
  9
$ACADMAINTVER
 70
     6
  9
$DWGCODEPAGE
  3
ANSI_932
  9
$INSBASE
 10
0.0
 20
0.0
 30
0.0
  9
$EXTMIN
 10
-96.65225245041938
 20
-140.760521918709
 30
-0.0015258207003583
  9
$EXTMAX
 10
202.3150352787532
 20
49.27991207943273
 30
0.0000000349246037
  9
$LIMMIN
 10
-215.0
 20
-153.5
  9
$LIMMAX
 10
215.0
 20
153.5
  9
$ORTHOMODE
 70
     0
  9
$REGENMODE
 70
     1
  9
$FILLMODE
 70
     1
  9
$QTEXTMODE
 70
     0
  9
$MIRRTEXT
 70
     1
  9
$LTSCALE
 40
1.0
  9
$ATTMODE
 70
     1
  9
$TEXTSIZE
 40
2.5
  9
$TRACEWID
 40
1.0
  9
$TEXTSTYLE
  7
STANDARD
  9
$CLAYER
  8
AM_0
  9
$CELTYPE
  6
ByLayer
  9
$CECOLOR
 62
   256
  9
$CELTSCALE
 40
1.0
  9
$DISPSILH
 70
     0
  9
$DIMSCALE
 40
1.0
  9
$DIMASZ
 40
2.5
  9
$DIMEXO
 40
0.0
  9
$DIMDLI
 40
10.0
  9
$DIMRND
 40
0.0
  9
$DIMDLE
 40
0.0
  9
$DIMEXE
 40
1.0
  9
$DIMTP
 40
0.1
  9
$DIMTM
 40
0.1000000001
  9
$DIMTXT
 40
3.8
  9
$DIMCEN
 40
0.0
  9
$DIMTSZ
 40
0.0
  9
$DIMTOL
 70
     0
  9
$DIMLIM
 70
     0
  9
$DIMTIH
 70
     0
  9
$DIMTOH
 70
     0
  9
$DIMSE1
 70
     0
  9
$DIMSE2
 70
     0
  9
$DIMTAD
 70
     3
  9
$DIMZIN
 70
     1
  9
$DIMBLK
  1
Open30
  9
$DIMASO
 70
     1
  9
$DIMSHO
 70
     1
  9
$DIMPOST
  1

  9
$DIMAPOST
  1
"
  9
$DIMALT
 70
     0
  9
$DIMALTD
 70
     2
  9
$DIMALTF
 40
0.0393701
  9
$DIMLFAC
 40
1.0
  9
$DIMTOFL
 70
     1
  9
$DIMTVP
 40
0.0
  9
$DIMTIX
 70
     0
  9
$DIMSOXD
 70
     0
  9
$DIMSAH
 70
     0
  9
$DIMBLK1
  1

  9
$DIMBLK2
  1

  9
$DIMSTYLE
  2
AM_JIS
  9
$DIMCLRD
 70
     3
  9
$DIMCLRE
 70
     3
  9
$DIMCLRT
 70
     2
  9
$DIMTFAC
 40
0.71
  9
$DIMGAP
 40
1.5
  9
$DIMJUST
 70
     0
  9
$DIMSD1
 70
     0
  9
$DIMSD2
 70
     0
  9
$DIMTOLJ
 70
     0
  9
$DIMTZIN
 70
     8
  9
$DIMALTZ
 70
     0
  9
$DIMALTTZ
 70
     0
  9
$DIMUPT
 70
     0
  9
$DIMDEC
 70
     0
  9
$DIMTDEC
 70
     2
  9
$DIMALTU
 70
     2
  9
$DIMALTTD
 70
     2
  9
$DIMTXSTY
  7
STANDARD
  9
$DIMAUNIT
 70
     1
  9
$DIMADEC
 70
     0
  9
$DIMALTRND
 40
0.0
  9
$DIMAZIN
 70
     2
  9
$DIMDSEP
 70
    46
  9
$DIMATFIT
 70
     3
  9
$DIMFRAC
 70
     0
  9
$DIMLDRBLK
  1
Open30
  9
$DIMLUNIT
 70
     2
  9
$DIMLWD
 70
    13
  9
$DIMLWE
 70
    13
  9
$DIMTMOVE
 70
     0
  9
$LUNITS
 70
     2
  9
$LUPREC
 70
     2
  9
$SKETCHINC
 40
1.0
  9
$FILLETRAD
 40
2.5
  9
$AUNITS
 70
     1
  9
$AUPREC
 70
     5
  9
$MENU
  1
.
  9
$ELEVATION
 40
0.0
  9
$PELEVATION
 40
0.0
  9
$THICKNESS
 40
0.0
  9
$LIMCHECK
 70
     0
  9
$CHAMFERA
 40
2.5
  9
$CHAMFERB
 40
2.5
  9
$CHAMFERC
 40
20.0
  9
$CHAMFERD
 40
0.0
  9
$SKPOLY
 70
     0
  9
$TDCREATE
 40
2451948.610903461
  9
$TDUCREATE
 40
2451948.235903461
  9
$TDUPDATE
 40
2455464.568851806
  9
$TDUUPDATE
 40
2455464.193851806
  9
$TDINDWG
 40
0.5565830556
  9
$TDUSRTIMER
 40
0.5565489815
  9
$USRTIMER
 70
     1
  9
$ANGBASE
 50
0.0
  9
$ANGDIR
 70
     0
  9
$PDMODE
 70
     0
  9
$PDSIZE
 40
0.0
  9
$PLINEWID
 40
0.0
  9
$SPLFRAME
 70
     0
  9
$SPLINETYPE
 70
     6
  9
$SPLINESEGS
 70
     8
  9
$HANDSEED
  5
749D
  9
$SURFTAB1
 70
     6
  9
$SURFTAB2
 70
     6
  9
$SURFTYPE
 70
     6
  9
$SURFU
 70
     6
  9
$SURFV
 70
     6
  9
$UCSBASE
  2

  9
$UCSNAME
  2

  9
$UCSORG
 10
0.0
 20
0.0
 30
0.0
  9
$UCSXDIR
 10
1.0
 20
0.0
 30
0.0
  9
$UCSYDIR
 10
0.0
 20
1.0
 30
0.0
  9
$UCSORTHOREF
  2

  9
$UCSORTHOVIEW
 70
     0
  9
$UCSORGTOP
 10
0.0
 20
0.0
 30
0.0
  9
$UCSORGBOTTOM
 10
0.0
 20
0.0
 30
0.0
  9
$UCSORGLEFT
 10
0.0
 20
0.0
 30
0.0
  9
$UCSORGRIGHT
 10
0.0
 20
0.0
 30
0.0
  9
$UCSORGFRONT
 10
0.0
 20
0.0
 30
0.0
  9
$UCSORGBACK
 10
0.0
 20
0.0
 30
0.0
  9
$PUCSBASE
  2

  9
$PUCSNAME
  2

  9
$PUCSORG
 10
0.0
 20
0.0
 30
0.0
  9
$PUCSXDIR
 10
1.0
 20
0.0
 30
0.0
  9
$PUCSYDIR
 10
0.0
 20
1.0
 30
0.0
  9
$PUCSORTHOREF
  2

  9
$PUCSORTHOVIEW
 70
     0
  9
$PUCSORGTOP
 10
0.0
 20
0.0
 30
0.0
  9
$PUCSORGBOTTOM
 10
0.0
 20
0.0
 30
0.0
  9
$PUCSORGLEFT
 10
0.0
 20
0.0
 30
0.0
  9
$PUCSORGRIGHT
 10
0.0
 20
0.0
 30
0.0
  9
$PUCSORGFRONT
 10
0.0
 20
0.0
 30
0.0
  9
$PUCSORGBACK
 10
0.0
 20
0.0
 30
0.0
  9
$USERI1
 70
     0
  9
$USERI2
 70
     0
  9
$USERI3
 70
     0
  9
$USERI4
 70
     0
  9
$USERI5
 70
     0
  9
$USERR1
 40
0.0
  9
$USERR2
 40
0.0
  9
$USERR3
 40
0.0
  9
$USERR4
 40
0.0
  9
$USERR5
 40
0.0
  9
$WORLDVIEW
 70
     1
  9
$SHADEDGE
 70
     3
  9
$SHADEDIF
 70
    70
  9
$TILEMODE
 70
     1
  9
$MAXACTVP
 70
    64
  9
$PINSBASE
 10
0.0
 20
0.0
 30
0.0
  9
$PLIMCHECK
 70
     0
  9
$PEXTMIN
 10
1.000000000000000E+20
 20
1.000000000000000E+20
 30
1.000000000000000E+20
  9
$PEXTMAX
 10
-1.000000000000000E+20
 20
-1.000000000000000E+20
 30
-1.000000000000000E+20
  9
$PLIMMIN
 10
0.0
 20
0.0
  9
$PLIMMAX
 10
420.0
 20
297.0
  9
$UNITMODE
 70
     0
  9
$VISRETAIN
 70
     1
  9
$PLINEGEN
 70
     0
  9
$PSLTSCALE
 70
     1
  9
$TREEDEPTH
 70
  3020
  9
$CMLSTYLE
  2
Standard
  9
$CMLJUST
 70
     0
  9
$CMLSCALE
 40
20.0
  9
$PROXYGRAPHICS
 70
     1
  9
$MEASUREMENT
 70
     1
  9
$CELWEIGHT
370
    13
  9
$ENDCAPS
280
     0
  9
$JOINSTYLE
280
     0
  9
$LWDISPLAY
290
     0
  9
$INSUNITS
 70
     4
  9
$HYPERLINKBASE
  1

  9
$STYLESHEET
  1
sei_cad.ctb
  9
$XEDIT
290
     1
  9
$CEPSNTYPE
380
     0
  9
$PSTYLEMODE
290
     1
  9
$FINGERPRINTGUID
  2
{403304E0-8DA2-11D3-AB8C-000629E2A613}
  9
$VERSIONGUID
  2
{EA5BC06B-E5B1-45DA-BEBD-298CE9E793CC}
  9
$EXTNAMES
290
     1
  9
$PSVPSCALE
 40
0.0
  9
$OLESTARTUP
290
     0
  0
ENDSEC
  0
SECTION
  2
CLASSES
  0
CLASS
  1
ACDBDICTIONARYWDFLT
  2
AcDbDictionaryWithDefault
  3
ObjectDBX Classes
 90
        0
280
     0
281
     0
  0
CLASS
  1
ACDBPLACEHOLDER
  2
AcDbPlaceHolder
  3
ObjectDBX Classes
 90
        0
280
     0
281
     0
  0
CLASS
  1
LAYOUT
  2
AcDbLayout
  3
ObjectDBX Classes
 90
        0
280
     0
281
     0
  0
CLASS
  1
ACME_DOCUMENT
  2
AcMeDbDoc
  3
AcMeServices
 90
        0
280
     1
281
     0
  0
CLASS
  1
ACMESCOPE
  2
AcMeScope
  3
AcMeServices
 90
        0
280
     1
281
     0
  0
CLASS
  1
ACMECOMMANDHISTORY
  2
AcMeCommandHistory
  3
AcMeServices
 90
        0
280
     1
281
     0
  0
CLASS
  1
DICTIONARYVAR
  2
AcDbDictionaryVar
  3
ObjectDBX Classes
 90
        0
280
     0
281
     0
  0
CLASS
  1
ACIMSYSVARMAN
  2
AcImSysVarManager
  3
AcMeServices
 90
        0
280
     1
281
     0
  0
CLASS
  1
ACIMREALSYSVAR
  2
AcImRealSysVar
  3
AcMeServices
 90
        0
280
     1
281
     0
  0
CLASS
  1
ACIMINTSYSVAR
  2
AcImIntSysVar
  3
AcMeServices
 90
        0
280
     1
281
     0
  0
CLASS
  1
ACMEDRAWINGMAN
  2
AcMeDrawingMan
  3
AcMeServices
 90
        0
280
     1
281
     0
  0
CLASS
  1
ACMEVIEW
  2
AcMeView
  3
AcMeServices
 90
        0
280
     1
281
     0
  0
CLASS
  1
ACDBENTITYCACHE
  2
AcMeEntityCache
  3
AcMeServices
 90
        0
280
     1
281
     0
  0
CLASS
  1
GSMANAGER
  2
AcMeGSManager
  3
AcMeServices
 90
        0
280
     1
281
     0
  0
CLASS
  1
AMDTINTERNALREACTOR
  2
AmdtInternalReactor
  3
AcMeServices
 90
        0
280
     1
281
     0
  0
CLASS
  1
ACMESTATEMGR
  2
AcMeStateMgr
  3
AcMeServices
 90
        0
280
     1
281
     0
  0
CLASS
  1
ACME_DATABASE
  2
AcMeDbDatabase
  3
AcMeServices
 90
        0
280
     1
281
     0
  0
CLASS
  1
ACRFINSADJUSTERMGR
  2
AcRfInsAdjusterMgr
  3
AcMeServices
 90
        0
280
     1
281
     0
  0
CLASS
  1
AMGSETTINGSOBJ
  2
AmgSettingsObj
  3
"AcadM|Product Description: AutoCAD Mechanical 2000|Company: Autodesk"
 90
        0
280
     1
281
     0
  0
CLASS
  1
ACMDATADICTIONARY
  2
AcmDataDictionary
  3
"AcmSymBB|Product Description: AutoCAD Mechanical 2004 DX|Company: Autodesk"
 90
        0
280
     1
281
     0
  0
CLASS
  1
ACMDATAENTRYBLOCK
  2
AcmDataEntryBlock
  3
"AcmSymBB|Product Description: AutoCAD Mechanical 2004 DX|Company: Autodesk"
 90
        0
280
     1
281
     0
  0
CLASS
  1
AMGOBJPROPCFG
  2
AmgObjPropCfg
  3
"AmgLay|Product Description: AutoCAD Mechanical 2000|Company: Autodesk"
 90
        1
280
     1
281
     0
  0
CLASS
  1
ACAMGFILTERDAT
  2
AcAmgFilterDat
  3
"AcadM|Product Description: AutoCAD Mechanical 2000|Company: Autodesk"
 90
        0
280
     1
281
     0
  0
CLASS
  1
LAYER_INDEX
  2
AcDbLayerIndex
  3
ObjectDBX Classes
 90
        0
280
     0
281
     0
  0
CLASS
  1
IDBUFFER
  2
AcDbIdBuffer
  3
ObjectDBX Classes
 90
        0
280
     0
281
     0
  0
CLASS
  1
ACIMSTRSYSVAR
  2
AcImStrSysVar
  3
AcMeServices
 90
        0
280
     1
281
     0
  0
CLASS
  1
ACMSTANDARDJIS
  2
AcmStandardJIS
  3
"Amdt_StdImp|Product Description: AutoCAD Mechanical 2004 DX|Company: Autodesk"
 90
        0
280
     1
281
     0
  0
CLASS
  1
ACMSURFSTANDARDJIS
  2
AcmSurfTextStdJIS
  3
"Amdt_StdImp|Product Description: AutoCAD Mechanical 2004 DX|Company: Autodesk"
 90
        0
280
     1
281
     0
  0
CLASS
  1
ACMFCFSTANDARDJIS
  2
AcmFCFStdJIS
  3
"Amdt_StdImp|Product Description: AutoCAD Mechanical 2004 DX|Company: Autodesk"
 90
        0
280
     1
281
     0
  0
CLASS
  1
ACMWELDSTANDARDJIS
  2
AcmWeldingStdJIS
  3
"Amdt_StdImp|Product Description: AutoCAD Mechanical 2004 DX|Company: Autodesk"
 90
        0
280
     1
281
     0
  0
CLASS
  1
ACMIDSTANDARDJIS
  2
AcmIdStdJIS
  3
"Amdt_StdImp|Product Description: AutoCAD Mechanical 2004 DX|Company: Autodesk"
 90
        0
280
     1
281
     0
  0
CLASS
  1
ACMDATUMSTANDARDJIS
  2
AcmDatumStdJIS
  3
"Amdt_StdImp|Product Description: AutoCAD Mechanical 2004 DX|Company: Autodesk"
 90
        0
280
     1
281
     0
  0
CLASS
  1
ACMBOMSTANDARDJIS
  2
AcmBOMStdJIS
  3
"Amdt_StdImp|Product Description: AutoCAD Mechanical 2004 DX|Company: Autodesk"
 90
        0
280
     1
281
     0
  0
CLASS
  1
TABLESTYLE
  2
AcDbTableStyle
  3
ObjectDBX Classes
 90
     2047
280
     0
281
     0
  0
CLASS
  1
ACGREFMASTER
  2
AcGrefMaster
  3
AcAttribServices
 90
        0
280
     1
281
     0
  0
CLASS
  1
AM_DRAWING_MGR
  2
AcDmDwgMgr
  3
AcMechDwgViewMgmt
 90
        0
280
     1
281
     0
  0
CLASS
  1
AM_DWG_DOCUMENT
  2
AcDmDwgDocument
  3
AcMechDwgViewMgmt
 90
        0
280
     1
281
     0
  0
CLASS
  1
AM_DWG_SHEET
  2
AcDmSheet
  3
AcMechDwgViewMgmt
 90
        0
280
     1
281
     0
  0
CLASS
  1
AM_VIEWDIMPARMAP
  2
AcDmViewDimParMap
  3
AcMechDwgViewMgmt
 90
        0
280
     1
281
     0
  0
CLASS
  1
AM_DWGMGR_NAME
  2
AcDmDwgMgrName
  3
AcMechDwgViewMgmt
 90
        0
280
     1
281
     0
  0
CLASS
  1
ACGREFACADMASTER
  2
AcGrefacadMaster
  3
AcGrefServices
 90
        0
280
     1
281
     0
  0
CLASS
  1
AMDTMENUSTATEMGR
  2
AmdtMenuStateMgr
  3
McadcomServices
 90
        0
280
     1
281
     0
  0
CLASS
  1
AMDTMCOMMENUSTATE
  2
AmdtMcomMenuState
  3
McadcomServices
 90
        0
280
     1
281
     0
  0
CLASS
  1
AMIMASTER
  2
AmiMaster
  3
AmiServices
 90
        0
280
     1
281
     0
  0
CLASS
  1
MAPIAMMOUDLE
  2
MApiAmModule
  3
MApiAmServices
 90
        0
280
     1
281
     0
  0
CLASS
  1
AMDTADMENUSTATE
  2
AmdtAdMenuState
  3
DesignerServices
 90
        0
280
     1
281
     0
  0
CLASS
  1
ADAPPL
  2
AcAdAppl
  3
DesignerServices
 90
        0
280
     1
281
     0
  0
CLASS
  1
DEPMGR
  2
AcAdDepMgr
  3
DesignerServices
 90
        0
280
     1
281
     0
  0
CLASS
  1
PARAMMGR
  2
AcAdParamMgr
  3
DesignerServices
 90
        0
280
     1
281
     0
  0
CLASS
  1
PARAMSCOPE
  2
AcAdParamScope
  3
DesignerServices
 90
        0
280
     1
281
     0
  0
CLASS
  1
NAMEDAPPL
  2
AcAdNamedAppl
  3
DesignerServices
 90
        0
280
     1
281
     0
  0
CLASS
  1
AMDTDMMENUSTATE
  2
AmdtDmMenuState
  3
AcMechDwgViewMgmt
 90
        0
280
     1
281
     0
  0
CLASS
  1
AMDTAMMENUSTATE
  2
AmdtAmMenuState
  3
DesignerAssemblies
 90
        0
280
     1
281
     0
  0
CLASS
  1
ACAMPROJECT
  2
AcAmProject
  3
DesignerAssemblies
 90
        0
280
     1
281
     0
  0
CLASS
  1
ACAMGRCOMPDEF
  2
AcAmGrCompDef
  3
DesignerAssemblies
 90
        0
280
     1
281
     0
  0
CLASS
  1
ACCMCONTEXT
  2
AcCmContext
  3
DesignerAssemblies
 90
        0
280
     1
281
     0
  0
CLASS
  1
ACAMCOMPDEF
  2
AcAmCompDef
  3
DesignerAssemblies
 90
        0
280
     1
281
     0
  0
CLASS
  1
ACAMCOMPDEFMGR
  2
AcAmCompDefMgr
  3
DesignerAssemblies
 90
        0
280
     1
281
     0
  0
CLASS
  1
AMCONTEXTMGR
  2
AcAmContextMgr
  3
DesignerAssemblies
 90
        0
280
     1
281
     0
  0
CLASS
  1
ACAMCONTEXTMODELER
  2
AcAmContextModeler
  3
DesignerAssemblies
 90
        0
280
     1
281
     0
  0
CLASS
  1
ACAMGTITLESTD
  2
AcAmgTitleStd
  3
"TITLEAPP"
 90
        0
280
     1
281
     0
  0
CLASS
  1
ACMDETAILSTANDARDJIS
  2
AmdtDetailSymStdJIS
  3
"Amdt_StdImp|Product Description: AutoCAD Mechanical 2004 DX|Company: Autodesk"
 90
        0
280
     1
281
     0
  0
CLASS
  1
ACMSECTIONSTANDARDJIS
  2
AmdtSectionSymStdJIS
  3
"Amdt_StdImp|Product Description: AutoCAD Mechanical 2004 DX|Company: Autodesk"
 90
        0
280
     1
281
     0
  0
CLASS
  1
ACMCENTERLINESTANDARDJIS
  2
AmdtCenterLineStdJIS
  3
"Amdt_StdImp|Product Description: AutoCAD Mechanical 2004 DX|Company: Autodesk"
 90
        0
280
     1
281
     0
  0
CLASS
  1
ACMTHREADLINESTANDARDJIS
  2
AmdtThreadLineStdJIS
  3
"Amdt_StdImp|Product Description: AutoCAD Mechanical 2004 DX|Company: Autodesk"
 90
        0
280
     1
281
     0
  0
CLASS
  1
ACMNOTESTANDARDJIS
  2
AmdtNoteStdJIS
  3
"Amdt_StdImp|Product Description: AutoCAD Mechanical 2004 DX|Company: Autodesk"
 90
        0
280
     1
281
     0
  0
CLASS
  1
AMDTNOTETEMPLATEDB
  2
AmdtNoteTemplateDB
  3
AMDT_STDIMP_MODULE_NAME
 90
        0
280
     1
281
     0
  0
CLASS
  1
ACAMGLAYSTD
  2
AcAmgLayStd
  3
"AcAmgLayStd|Product Description: AutoCAD Mechanical 2000|Company: Autodesk"
 90
        0
280
     1
281
     0
  0
CLASS
  1
ACAMGDIMSTD
  2
AcAmgDimStd
  3
"AcAmgDimStd|Product Description: AutoCAD Mechanical 2000|Company: Autodesk"
 90
        0
280
     1
281
     0
  0
CLASS
  1
ACAMGHOLECHARTSTDJIS
  2
AcAmgHoleChartStdJIS
  3
ACMSYMBB_MODULE_NAME
 90
        0
280
     1
281
     0
  0
CLASS
  1
CATALOGSTATE
  2
AcAmCatalogState
  3
DesignerAssemblies
 90
        0
280
     1
281
     0
  0
CLASS
  1
ACAMGRCOMPDEFSET
  2
AcAmGrCompDefSet
  3
DesignerAssemblies
 90
        0
280
     1
281
     0
  0
CLASS
  1
AMDTBROWSERDBTAB
  2
AmdtBrowserDbTab
  3
McadcomServices
 90
        0
280
     1
281
     0
  0
CLASS
  1
CBROWSERAPPOBJECT
  2
CBrowserAppObject
  3
McadcomServices
 90
        0
280
     1
281
     0
  0
CLASS
  1
DM_PLACEHOLDER
  2
AcDmSelsetPlaceholder
  3
AcMechDwgViewMgmt
 90
        0
280
     1
281
     0
  0
CLASS
  1
SORTENTSTABLE
  2
AcDbSortentsTable
  3
ObjectDBX Classes
 90
        0
280
     0
281
     0
  0
CLASS
  1
ACMSTANDARDANSI
  2
AcmStandardANSI
  3
"Amdt_StdImp|Product Description: AutoCAD Mechanical 2004 DX|Company: Autodesk"
 90
        0
280
     1
281
     0
  0
CLASS
  1
ACMSURFSTANDARDANSI
  2
AcmSurfTextStdANSI
  3
"Amdt_StdImp|Product Description: AutoCAD Mechanical 2004 DX|Company: Autodesk"
 90
        0
280
     1
281
     0
  0
CLASS
  1
ACMFCFSTANDARDANSI
  2
AcmFCFStdANSI
  3
"Amdt_StdImp|Product Description: AutoCAD Mechanical 2004 DX|Company: Autodesk"
 90
        0
280
     1
281
     0
  0
CLASS
  1
ACMWELDSTANDARDANSI
  2
AcmWeldingStdANSI
  3
"Amdt_StdImp|Product Description: AutoCAD Mechanical 2004 DX|Company: Autodesk"
 90
        0
280
     1
281
     0
  0
CLASS
  1
ACMIDSTANDARDANSI
  2
AcmIdStdANSI
  3
"Amdt_StdImp|Product Description: AutoCAD Mechanical 2004 DX|Company: Autodesk"
 90
        0
280
     1
281
     0
  0
CLASS
  1
ACMDATUMSTANDARDANSI
  2
AcmDatumStdANSI
  3
"Amdt_StdImp|Product Description: AutoCAD Mechanical 2004 DX|Company: Autodesk"
 90
        0
280
     1
281
     0
  0
CLASS
  1
ACMBOMSTANDARDANSI
  2
AcmBOMStdANSI
  3
"Amdt_StdImp|Product Description: AutoCAD Mechanical 2004 DX|Company: Autodesk"
 90
        0
280
     1
281
     0
  0
CLASS
  1
ACMDETAILSTANDARDANSI
  2
AmdtDetailSymStdANSI
  3
"Amdt_StdImp|Product Description: AutoCAD Mechanical 2004 DX|Company: Autodesk"
 90
        0
280
     1
281
     0
  0
CLASS
  1
ACMSECTIONSTANDARDANSI
  2
AmdtSectionSymStdANSI
  3
"Amdt_StdImp|Product Description: AutoCAD Mechanical 2004 DX|Company: Autodesk"
 90
        0
280
     1
281
     0
  0
CLASS
  1
ACMCENTERLINESTANDARDANSI
  2
AmdtCenterLineStdANSI
  3
"Amdt_StdImp|Product Description: AutoCAD Mechanical 2004 DX|Company: Autodesk"
 90
        0
280
     1
281
     0
  0
CLASS
  1
ACMTHREADLINESTANDARDANSI
  2
AmdtThreadLineStdANSI
  3
"Amdt_StdImp|Product Description: AutoCAD Mechanical 2004 DX|Company: Autodesk"
 90
        0
280
     1
281
     0
  0
CLASS
  1
ACMNOTESTANDARDANSI
  2
AmdtNoteStdANSI
  3
"Amdt_StdImp|Product Description: AutoCAD Mechanical 2004 DX|Company: Autodesk"
 90
        0
280
     1
281
     0
  0
CLASS
  1
ACAMGHOLECHARTSTDANSI
  2
AcAmgHoleChartStdANSI
  3
ACMSYMBB_MODULE_NAME
 90
        0
280
     1
281
     0
  0
CLASS
  1
AMDTNOTE
  2
AmdtNote
  3
"AcmSymBB|Product Description: AutoCAD Mechanical 2004 DX|Company: Autodesk"
 90
     1023
280
     1
281
     1
  0
ENDSEC
  0
SECTION
  2
TABLES
  0
TABLE
  2
VPORT
  5
8
330
0
100
AcDbSymbolTable
 70
     9
  0
VPORT
  5
7496
330
8
100
AcDbSymbolTableRecord
100
AcDbViewportTableRecord
  2
*Active
 70
     0
 10
0.0
 20
0.0
 11
1.0
 21
1.0
 12
52.8313914141669
 22
-45.74030491963811
 13
0.0
 23
0.0
 14
2.5
 24
2.5
 15
10.0
 25
10.0
 16
0.0
 26
0.0
 36
1.0
 17
0.0
 27
0.0
 37
0.0
 40
191.7147990553941
 41
1.697058823529412
 42
50.0
 43
0.0
 44
0.0
 50
0.0
 51
0.0
 71
     0
 72
  2000
 73
     1
 74
     3
 75
     0
 76
     0
 77
     0
 78
     0
281
     0
 65
     1
110
0.0
120
0.0
130
0.0
111
1.0
121
0.0
131
0.0
112
0.0
122
1.0
132
0.0
 79
     0
146
0.0
  0
ENDTAB
  0
TABLE
  2
LTYPE
  5
5
330
0
100
AcDbSymbolTable
 70
    15
  0
LTYPE
  5
14
330
5
100
AcDbSymbolTableRecord
100
AcDbLinetypeTableRecord
  2
ByBlock
 70
     0
  3

 72
    65
 73
     0
 40
0.0
  0
LTYPE
  5
15
330
5
100
AcDbSymbolTableRecord
100
AcDbLinetypeTableRecord
  2
ByLayer
 70
     0
  3

 72
    65
 73
     0
 40
0.0
  0
LTYPE
  5
16
330
5
100
AcDbSymbolTableRecord
100
AcDbLinetypeTableRecord
  2
Continuous
 70
     0
  3
Solid line
 72
    65
 73
     0
 40
0.0
  0
LTYPE
  5
48
330
5
100
AcDbSymbolTableRecord
100
AcDbLinetypeTableRecord
  2
AM_ISO02W050
 70
     0
  3
__ __ __ __ __ __ __ __ __ __ __ __ __ __ __
 72
    65
 73
     2
 40
7.5
 49
6.0
 74
     0
 49
-1.5
 74
     0
  0
LTYPE
  5
49
330
5
100
AcDbSymbolTableRecord
100
AcDbLinetypeTableRecord
  2
AM_ISO08W050
 70
     0
  3
____ . ____ . ____ . ____ . ____ . ____ . ____
 72
    65
 73
     4
 40
18.0
 49
12.0
 74
     0
 49
-1.5
 74
     0
 49
3.0
 74
     0
 49
-1.5
 74
     0
  0
LTYPE
  5
4A
330
5
100
AcDbSymbolTableRecord
100
AcDbLinetypeTableRecord
  2
AM_ISO09W050
 70
     0
  3
_____ . . _____ . . _____ . . ____ .. ____
 72
    65
 73
     6
 40
22.5
 49
12.0
 74
     0
 49
-1.5
 74
     0
 49
3.0
 74
     0
 49
-1.5
 74
     0
 49
3.0
 74
     0
 49
-1.5
 74
     0
  0
LTYPE
  5
4B
330
5
100
AcDbSymbolTableRecord
100
AcDbLinetypeTableRecord
  2
Amconstr
 70
     0
  3
_______________________
 72
    65
 73
     2
 40
9999.0
 49
9999.0
 74
     0
 49
0.0
 74
     0
  0
LTYPE
  5
4C
330
5
100
AcDbSymbolTableRecord
100
AcDbLinetypeTableRecord
  2
AM_ISO02W050x2
 70
     0
  3
 _ _ _ _ _ _ _ _ _ _ _ _
 72
    65
 73
     2
 40
3.75
 49
3.0
 74
     0
 49
-0.75
 74
     0
  0
LTYPE
  5
4D
330
5
100
AcDbSymbolTableRecord
100
AcDbLinetypeTableRecord
  2
AM_ISO08W050x2
 70
     0
  3
__ . __ . __ . __ . __ . __
 72
    65
 73
     4
 40
9.0
 49
6.0
 74
     0
 49
-0.75
 74
     0
 49
1.5
 74
     0
 49
-0.75
 74
     0
  0
LTYPE
  5
50
330
5
100
AcDbSymbolTableRecord
100
AcDbLinetypeTableRecord
  2
Amzigzag
 70
     0
  3
/\/-/\/-/\/-/\/-/\/-/\/
 72
    65
 73
     2
 40
11.0001
 49
0.0001
 74
     4
 75
   135
340
4F
 46
0.04
 50
0.0
 44
0.0
 45
0.0
 49
-11.0
 74
     0
  0
LTYPE
  5
118
330
5
100
AcDbSymbolTableRecord
100
AcDbLinetypeTableRecord
  2
CENTER
 70
     0
  3
____ _ ____ _ ____ _ ____ _ ____ _ ____ _ ____
 72
    65
 73
     4
 40
17.5
 49
13.0
 74
     0
 49
-1.5
 74
     0
 49
1.5
 74
     0
 49
-1.5
 74
     0
  0
LTYPE
  5
7AA
330
5
100
AcDbSymbolTableRecord
100
AcDbLinetypeTableRecord
  2
ACJISTGB
 70
     0
  3
__ . . __ . .
 72
    65
 73
     6
 40
9.0
 49
4.0
 74
     0
 49
-1.0
 74
     0
 49
1.0
 74
     0
 49
-1.0
 74
     0
 49
1.0
 74
     0
 49
-1.0
 74
     0
  0
LTYPE
  5
7AB
330
5
100
AcDbSymbolTableRecord
100
AcDbLinetypeTableRecord
  2
ACJISTGL
 70
     0
  3
_ _ _ _ _
 72
    65
 73
     2
 40
3.0
 49
2.0
 74
     0
 49
-1.0
 74
     0
  0
LTYPE
  5
1645
330
5
100
AcDbSymbolTableRecord
100
AcDbLinetypeTableRecord
  2
HIDDEN
 70
     0
  3
Hidden __ __ __ __ __ __ __ __ __ __ __ __ __ _
 72
    65
 73
     2
 40
9.524999999999999
 49
6.35
 74
     0
 49
-3.175
 74
     0
  0
LTYPE
  5
1646
330
5
100
AcDbSymbolTableRecord
100
AcDbLinetypeTableRecord
  2
PHANTOM2
 70
     0
  3
Phantom (.5x) ___ _ _ ___ _ _ ___ _ _ ___ _ _
 72
    65
 73
     6
 40
31.75
 49
15.875
 74
     0
 49
-3.175
 74
     0
 49
3.175
 74
     0
 49
-3.175
 74
     0
 49
3.175
 74
     0
 49
-3.175
 74
     0
  0
LTYPE
  5
1907
330
5
100
AcDbSymbolTableRecord
100
AcDbLinetypeTableRecord
  2
ACANSTGB
 70
     0
  3
__ . . __ . .
 72
    65
 73
     6
 40
0.35433070866
 49
0.15748031496
 74
     0
 49
-0.03937007874
 74
     0
 49
0.03937007874
 74
     0
 49
-0.03937007874
 74
     0
 49
0.03937007874
 74
     0
 49
-0.03937007874
 74
     0
  0
LTYPE
  5
1908
330
5
100
AcDbSymbolTableRecord
100
AcDbLinetypeTableRecord
  2
ACANSTGL
 70
     0
  3
_ _ _ _ _
 72
    65
 73
     2
 40
0.11811023622
 49
0.07874015748
 74
     0
 49
-0.03937007874
 74
     0
  0
ENDTAB
  0
TABLE
  2
LAYER
  5
2
102
{ACAD_XDICTIONARY
360
1832
102
}
330
0
100
AcDbSymbolTable
 70
     6
  0
LAYER
  5
10
330
2
100
AcDbSymbolTableRecord
100
AcDbLayerTableRecord
  2
0
 70
     0
 62
     7
  6
Continuous
370
    -3
390
F
  0
LAYER
  5
68
330
2
100
AcDbSymbolTableRecord
100
AcDbLayerTableRecord
  2
AM_5
 70
     0
 62
     3
  6
Continuous
370
    13
390
F
  0
LAYER
  5
7B
330
2
100
AcDbSymbolTableRecord
100
AcDbLayerTableRecord
  2
Defpoints
 70
     0
 62
     7
  6
Continuous
290
     0
370
    -3
390
F
  0
LAYER
  5
5A3
330
2
100
AcDbSymbolTableRecord
100
AcDbLayerTableRecord
  2
AM_7
 70
     0
 62
     4
  6
AM_ISO08W050
370
    13
390
F
  0
LAYER
  5
5A4
330
2
100
AcDbSymbolTableRecord
100
AcDbLayerTableRecord
  2
AM_6
 70
     0
 62
     2
  6
Continuous
370
    30
390
F
  0
LAYER
  5
5F1
330
2
100
AcDbSymbolTableRecord
100
AcDbLayerTableRecord
  2
AM_0
 70
     0
 62
     7
  6
Continuous
370
    30
390
F
  0
ENDTAB
  0
TABLE
  2
STYLE
  5
3
330
0
100
AcDbSymbolTable
 70
     7
  0
STYLE
  5
11
330
3
100
AcDbSymbolTableRecord
100
AcDbTextStyleTableRecord
  2
STANDARD
 70
     0
 40
0.0
 41
1.0
 50
0.0
 71
     0
 42
2.5
  3
ISOCP.SHX
  4
EXTFONT.SHX
  0
STYLE
  5
4F
330
3
100
AcDbSymbolTableRecord
100
AcDbTextStyleTableRecord
  2

 70
     1
 40
0.0
 41
1.0
 50
0.0
 71
     0
 42
2.5
  3
ltypeshp.shx
  4

  0
STYLE
  5
7A2
330
3
100
AcDbSymbolTableRecord
100
AcDbTextStyleTableRecord
  2
ACJISTS
 70
     0
 40
1.0
 41
1.0
 50
0.0
 71
     0
 42
2.5
  3
isocp.shx
  4
bigfont.shx
  0
STYLE
  5
7A9
330
3
100
AcDbSymbolTableRecord
100
AcDbTextStyleTableRecord
  2
ACJISGDT
 70
     0
 40
0.0
 41
1.0
 50
0.0
 71
     0
 42
2.5
  3
amgdt.shx
  4

  0
STYLE
  5
182F
330
3
100
AcDbSymbolTableRecord
100
AcDbTextStyleTableRecord
  2
ACISOTS
 70
     0
 40
1.0
 41
1.0
 50
0.0
 71
     0
 42
1.0
  3
isocp.shx
  4
extfont.shx
  0
STYLE
  5
190A
330
3
100
AcDbSymbolTableRecord
100
AcDbTextStyleTableRecord
  2
ACANSTS
 70
     0
 40
1.0
 41
1.0
 50
0.0
 71
     0
 42
2.5
  3
romans.shx
  4
extfont.shx
  0
STYLE
  5
190B
330
3
100
AcDbSymbolTableRecord
100
AcDbTextStyleTableRecord
  2
ACANSGDT
 70
     0
 40
0.0
 41
1.0
 50
0.0
 71
     0
 42
2.5
  3
amgdtans.shx
  4

  0
ENDTAB
  0
TABLE
  2
VIEW
  5
6
330
0
100
AcDbSymbolTable
 70
     6
  0
VIEW
  5
4F5
330
6
100
AcDbSymbolTableRecord
100
AcDbViewTableRecord
  2
AM_VIEW1
 70
     0
 40
150.0
 10
113.2040050062578
 20
225.0
 41
226.4080100125157
 11
0.0
 21
0.0
 31
1.0
 12
0.0
 22
0.0
 32
0.0
 42
50.0
 43
0.0
 44
0.0
 50
0.0
 71
     0
281
     0
 72
     0
  0
VIEW
  5
4F6
330
6
100
AcDbSymbolTableRecord
100
AcDbViewTableRecord
  2
AM_VIEW2
 70
     0
 40
150.0
 10
309.7959949937422
 20
225.0
 41
226.4080100125157
 11
0.0
 21
0.0
 31
1.0
 12
0.0
 22
0.0
 32
0.0
 42
50.0
 43
0.0
 44
0.0
 50
0.0
 71
     0
281
     0
 72
     0
  0
VIEW
  5
4F7
330
6
100
AcDbSymbolTableRecord
100
AcDbViewTableRecord
  2
AM_VIEW3
 70
     0
 40
150.0
 10
113.2040050062578
 20
75.0
 41
226.4080100125157
 11
0.0
 21
0.0
 31
1.0
 12
0.0
 22
0.0
 32
0.0
 42
50.0
 43
0.0
 44
0.0
 50
0.0
 71
     0
281
     0
 72
     0
  0
VIEW
  5
4F8
330
6
100
AcDbSymbolTableRecord
100
AcDbViewTableRecord
  2
AM_VIEW4
 70
     0
 40
150.0
 10
309.7959949937422
 20
75.0
 41
226.4080100125157
 11
0.0
 21
0.0
 31
1.0
 12
0.0
 22
0.0
 32
0.0
 42
50.0
 43
0.0
 44
0.0
 50
0.0
 71
     0
281
     0
 72
     0
  0
VIEW
  5
4F9
330
6
100
AcDbSymbolTableRecord
100
AcDbViewTableRecord
  2
AM_VIEW5
 70
     0
 40
150.0
 10
211.5
 20
150.0
 41
226.4080100125157
 11
0.0
 21
0.0
 31
1.0
 12
0.0
 22
0.0
 32
0.0
 42
50.0
 43
0.0
 44
0.0
 50
0.0
 71
     0
281
     0
 72
     0
  0
VIEW
  5
4FA
330
6
100
AcDbSymbolTableRecord
100
AcDbViewTableRecord
  2
AM_VIEW6
 70
     0
 40
299.9970000000001
 10
211.5
 20
150.0
 41
452.8114918648312
 11
0.0
 21
0.0
 31
1.0
 12
0.0
 22
0.0
 32
0.0
 42
50.0
 43
0.0
 44
0.0
 50
0.0
 71
     0
281
     0
 72
     0
  0
ENDTAB
  0
TABLE
  2
UCS
  5
7
330
0
100
AcDbSymbolTable
 70
     0
  0
ENDTAB
  0
TABLE
  2
APPID
  5
9
330
0
100
AcDbSymbolTable
 70
    32
  0
APPID
  5
12
330
9
100
AcDbSymbolTableRecord
100
AcDbRegAppTableRecord
  2
ACAD
 70
     0
  0
APPID
  5
2C
330
9
100
AcDbSymbolTableRecord
100
AcDbRegAppTableRecord
  2
MCAD_NO_VIS
 70
     0
  0
APPID
  5
2D
330
9
100
AcDbSymbolTableRecord
100
AcDbRegAppTableRecord
  2
ACAD_TEMP_GRAPHIC
 70
     0
  0
APPID
  5
B5
330
9
100
AcDbSymbolTableRecord
100
AcDbRegAppTableRecord
  2
GENIUS_GENDTOL_13
 70
     0
  0
APPID
  5
12C
330
9
100
AcDbSymbolTableRecord
100
AcDbRegAppTableRecord
  2
GENIUS_GENCFG_13
 70
     0
  0
APPID
  5
12D
330
9
100
AcDbSymbolTableRecord
100
AcDbRegAppTableRecord
  2
GENIUS_GENCFG0_13
 70
     0
  0
APPID
  5
12E
330
9
100
AcDbSymbolTableRecord
100
AcDbRegAppTableRecord
  2
GENIUS_GENCFG1_13
 70
     0
  0
APPID
  5
12F
330
9
100
AcDbSymbolTableRecord
100
AcDbRegAppTableRecord
  2
GENIUS_GENCFG2_13
 70
     0
  0
APPID
  5
130
330
9
100
AcDbSymbolTableRecord
100
AcDbRegAppTableRecord
  2
GENIUS_GENCFG3_13
 70
     0
  0
APPID
  5
131
330
9
100
AcDbSymbolTableRecord
100
AcDbRegAppTableRecord
  2
GENIUS_GENCFG4_13
 70
     0
  0
APPID
  5
53B
330
9
100
AcDbSymbolTableRecord
100
AcDbRegAppTableRecord
  2
GENIUS_GENBLLY_14
 70
     0
  0
APPID
  5
53C
330
9
100
AcDbSymbolTableRecord
100
AcDbRegAppTableRecord
  2
GENIUS_GENODEF_13
 70
     0
  0
APPID
  5
53D
330
9
100
AcDbSymbolTableRecord
100
AcDbRegAppTableRecord
  2
GENIUS_GENOBJ-N-CEN_13
 70
     0
  0
APPID
  5
549
330
9
100
AcDbSymbolTableRecord
100
AcDbRegAppTableRecord
  2
GENIUS_GENTRA_14
 70
     0
  0
APPID
  5
553
330
9
100
AcDbSymbolTableRecord
100
AcDbRegAppTableRecord
  2
GENIUS_GENOBJ-N-TIT_13
 70
     0
  0
APPID
  5
554
330
9
100
AcDbSymbolTableRecord
100
AcDbRegAppTableRecord
  2
GENIUS_GENTITLE_13
 70
     0
  0
APPID
  5
555
330
9
100
AcDbSymbolTableRecord
100
AcDbRegAppTableRecord
  2
GENIUS_GENOENT_13
 70
     0
  0
APPID
  5
556
330
9
100
AcDbSymbolTableRecord
100
AcDbRegAppTableRecord
  2
GENIUS_GENOREF_13
 70
     0
  0
APPID
  5
557
330
9
100
AcDbSymbolTableRecord
100
AcDbRegAppTableRecord
  2
GENIUS_GENOLIS_13
 70
     0
  0
APPID
  5
558
330
9
100
AcDbSymbolTableRecord
100
AcDbRegAppTableRecord
  2
GENIUS_GENZVEED_13
 70
     0
  0
APPID
  5
559
330
9
100
AcDbSymbolTableRecord
100
AcDbRegAppTableRecord
  2
GENIUS_GENSCREG_15
 70
     0
  0
APPID
  5
55A
330
9
100
AcDbSymbolTableRecord
100
AcDbRegAppTableRecord
  2
GENIUS_GENOBJ-N-SDF_13
 70
     0
  0
APPID
  5
567
330
9
100
AcDbSymbolTableRecord
100
AcDbRegAppTableRecord
  2
GENIUS_GENREC_14
 70
     0
  0
APPID
  5
568
330
9
100
AcDbSymbolTableRecord
100
AcDbRegAppTableRecord
  2
GENIUS_GENOBJ-N-REC_13
 70
     0
  0
APPID
  5
609
330
9
100
AcDbSymbolTableRecord
100
AcDbRegAppTableRecord
  2
GENIUS_GENOBJ-N-HTC_13
 70
     0
  0
APPID
  5
60A
330
9
100
AcDbSymbolTableRecord
100
AcDbRegAppTableRecord
  2
GENIUS_GENHATCH_13
 70
     0
  0
APPID
  5
1648
330
9
100
AcDbSymbolTableRecord
100
AcDbRegAppTableRecord
  2
AD_DRAW
 70
     0
  0
APPID
  5
164B
330
9
100
AcDbSymbolTableRecord
100
AcDbRegAppTableRecord
  2
ACATTRIBSERVICES
 70
     0
  0
APPID
  5
1669
330
9
100
AcDbSymbolTableRecord
100
AcDbRegAppTableRecord
  2
DESIGNERASSEMBLIES
 70
     0
  0
APPID
  5
167C
330
9
100
AcDbSymbolTableRecord
100
AcDbRegAppTableRecord
  2
ACADM_DIM_EDIT
 70
     0
  0
APPID
  5
167D
330
9
100
AcDbSymbolTableRecord
100
AcDbRegAppTableRecord
  2
AMDT_DM_ADJ
 70
     0
  0
APPID
  5
2B0B
330
9
100
AcDbSymbolTableRecord
100
AcDbRegAppTableRecord
  2
GENIUS_GENOBJ-N-CRS_13
 70
     0
  0
ENDTAB
  0
TABLE
  2
DIMSTYLE
  5
A
330
0
100
AcDbSymbolTable
 70
    15
100
AcDbDimStyleTable
  0
DIMSTYLE
105
69
102
{ACAD_REACTORS
330
67FC
330
738D
102
}
330
A
100
AcDbSymbolTableRecord
100
AcDbDimStyleTableRecord
  2
AM_JIS
 70
     0
  4
"
 41
2.5
 42
0.0
 43
10.0
 44
1.0
 47
0.1
 48
0.1000000001
 73
     0
 74
     0
 77
     3
 78
     1
 79
     2
140
3.8
141
0.0
143
0.0393701
146
0.71
147
1.5
172
     1
176
     3
177
     3
178
     2
271
     2
272
     2
275
     1
283
     0
284
     8
340
11
341
6A
342
6A
371
    13
372
    13
  0
DIMSTYLE
105
70
330
A
100
AcDbSymbolTableRecord
100
AcDbDimStyleTableRecord
  2
AM_JIS$3
 70
     0
  4
"
 41
2.5
 42
0.0
 43
10.0
 44
1.0
 47
0.1
 48
0.1000000001
 73
     0
 74
     0
 77
     3
 78
     1
 79
     2
140
3.8
141
0.0
143
0.0393701
146
0.71
147
1.5
172
     1
176
     3
177
     3
178
     2
271
     2
272
     2
275
     1
283
     0
284
     8
288
     1
289
     0
340
11
341
6A
342
6A
371
    13
372
    13
  0
DIMSTYLE
105
71
330
A
100
AcDbSymbolTableRecord
100
AcDbDimStyleTableRecord
  2
AM_JIS$4
 70
     0
  4
"
 41
2.5
 42
0.0
 43
10.0
 44
1.0
 47
0.1
 48
0.1000000001
 73
     0
 74
     0
 77
     3
 78
     1
 79
     2
140
3.8
141
0.0
143
0.0393701
146
0.71
147
1.5
172
     1
176
     3
177
     3
178
     2
271
     2
272
     2
275
     1
283
     0
284
     8
288
     1
289
     0
340
11
341
6A
342
6A
371
    13
372
    13
  0
DIMSTYLE
105
72
330
A
100
AcDbSymbolTableRecord
100
AcDbDimStyleTableRecord
  2
AM_JIS$6
 70
     0
  4
"
 41
2.5
 42
0.0
 43
10.0
 44
1.0
 47
0.1
 48
0.1000000001
 73
     0
 74
     0
 78
     1
 79
     2
140
3.8
141
0.0
143
0.0393701
146
0.71
147
1.5
172
     1
176
     3
177
     3
178
     2
271
     2
272
     2
275
     1
283
     0
284
     8
340
11
341
6A
342
6A
371
    13
372
    13
  0
DIMSTYLE
105
73
330
A
100
AcDbSymbolTableRecord
100
AcDbDimStyleTableRecord
  2
AM_JIS$7
 70
     0
  4
"
 41
2.5
 42
0.0
 43
10.0
 44
1.0
 47
0.1
 48
0.1000000001
 73
     0
 74
     0
 77
     3
 78
     1
 79
     2
140
5.0
141
0.0
143
0.0393701
146
0.71
147
1.5
172
     1
176
     3
177
     3
178
     2
271
     2
272
     2
275
     1
283
     0
284
     8
340
11
341
6A
342
6A
371
    13
372
    13
  0
DIMSTYLE
105
74
330
A
100
AcDbSymbolTableRecord
100
AcDbDimStyleTableRecord
  2
AM_JIS$SF
 70
     0
  4
"
 41
2.5
 42
1.0
 43
10.0
 44
1.0
 47
0.1
 48
0.1
 73
     0
 74
     0
 75
     1
 76
     1
 77
     3
 78
     8
 79
     2
140
3.5
141
0.0
143
0.0393701
146
0.71
147
1.5
176
   256
177
   256
178
     2
271
     2
272
     3
274
     4
340
11
341
6A
342
6A
343
6A
344
6A
371
    -1
372
    -1
  0
DIMSTYLE
105
79
330
A
100
AcDbSymbolTableRecord
100
AcDbDimStyleTableRecord
  2
AM_JIS$SH
 70
     0
  4
"
 41
2.5
 42
1.0
 43
10.0
 44
1.0
 47
0.1
 48
0.1
 73
     0
 74
     0
 75
     1
 76
     1
 77
     3
 78
     8
 79
     2
140
3.5
141
0.0
143
0.0393701
144
2.0
146
0.71
147
1.5
173
     1
176
   256
177
   256
178
     2
271
     2
272
     3
274
     4
340
11
341
6A
342
6A
343
75
344
6A
371
    -1
372
    -1
  0
DIMSTYLE
105
124
330
A
100
AcDbSymbolTableRecord
100
AcDbDimStyleTableRecord
  2
STANDARD
 70
     0
340
11
  0
DIMSTYLE
105
927
102
{ACAD_REACTORS
330
6774
330
67B2
330
67E4
330
683F
330
6D1F
330
6D42
102
}
330
A
100
AcDbSymbolTableRecord
100
AcDbDimStyleTableRecord
  2
AM_JIS$0
 70
     0
  4
"
 41
2.5
 42
0.0
 43
10.0
 44
1.0
 47
0.1
 48
0.1000000001
 73
     0
 74
     0
 77
     3
 78
     1
 79
     2
140
3.8
141
0.0
143
0.0393701
146
0.71
147
1.5
172
     1
176
     3
177
     3
178
     2
271
     2
272
     2
275
     1
283
     0
284
     8
289
     0
340
11
341
6A
342
6A
371
    13
372
    13
  0
DIMSTYLE
105
190C
330
A
100
AcDbSymbolTableRecord
100
AcDbDimStyleTableRecord
  2
AM_ANSI
 70
     0
  4
mm
 41
0.1
 42
0.05
 43
0.5
 44
0.1
 47
0.1
 48
0.1
 78
     7
 79
     2
140
0.12
141
0.0
146
0.71
147
0.06
176
   256
177
   256
178
     2
274
     4
284
     7
340
11
371
    -1
372
    -1
  0
DIMSTYLE
105
190D
330
A
100
AcDbSymbolTableRecord
100
AcDbDimStyleTableRecord
  2
AM_ANSI$3
 70
     0
  4
mm
 41
0.1
 42
0.05
 43
0.5
 44
0.1
 47
0.1
 48
0.1
 78
     7
 79
     2
140
0.12
141
0.0
146
0.71
147
0.06
176
   256
177
   256
178
     2
274
     4
284
     7
288
     1
289
     0
340
11
371
    -1
372
    -1
  0
DIMSTYLE
105
190E
330
A
100
AcDbSymbolTableRecord
100
AcDbDimStyleTableRecord
  2
AM_ANSI$4
 70
     0
  4
mm
 41
0.1
 42
0.05
 43
0.5
 44
0.1
 47
0.1
 48
0.1
 78
     7
 79
     2
140
0.12
141
0.0
146
0.71
147
0.06
176
   256
177
   256
178
     2
274
     4
284
     7
288
     1
289
     0
340
11
371
    -1
372
    -1
  0
DIMSTYLE
105
190F
330
A
100
AcDbSymbolTableRecord
100
AcDbDimStyleTableRecord
  2
AM_ANSI$7
 70
     0
  4
mm
 41
0.1
 42
0.05
 43
0.5
 44
0.1
 47
0.1
 48
0.1
 78
     7
 79
     2
140
0.24
141
0.0
146
0.71
147
0.06
176
   256
177
   256
178
     2
274
     4
284
     7
340
11
371
    -1
372
    -1
  0
DIMSTYLE
105
1910
330
A
100
AcDbSymbolTableRecord
100
AcDbDimStyleTableRecord
  2
AM_ANSI$SF
 70
     0
  4
mm
 41
0.1
 42
0.05
 43
0.5
 44
0.1
 47
0.1
 48
0.1
 75
     1
 76
     1
 78
     7
 79
     2
140
0.12
141
0.0
146
0.71
147
0.06
176
   256
177
   256
178
     2
274
     4
284
     7
340
11
371
    -1
372
    -1
  0
DIMSTYLE
105
1911
330
A
100
AcDbSymbolTableRecord
100
AcDbDimStyleTableRecord
  2
AM_ANSI$SH
 70
     0
  4
mm
 41
0.1
 42
0.05
 43
0.5
 44
0.1
 47
0.1
 48
0.1
 75
     1
 76
     1
 78
     7
 79
     2
140
0.12
141
0.0
146
0.71
147
0.06
173
     1
176
   256
177
   256
178
     2
274
     4
284
     7
340
11
343
75
371
    -1
372
    -1
  0
ENDTAB
  0
TABLE
  2
BLOCK_RECORD
  5
1
330
0
100
AcDbSymbolTable
 70
    12
  0
BLOCK_RECORD
  5
1F
102
{ACAD_XDICTIONARY
360
10B
102
}
330
1
100
AcDbSymbolTableRecord
100
AcDbBlockTableRecord
  2
*Model_Space
340
22
  0
BLOCK_RECORD
  5
1B
330
1
100
AcDbSymbolTableRecord
100
AcDbBlockTableRecord
  2
*Paper_Space
340
1E
  0
BLOCK_RECORD
  5
23
330
1
100
AcDbSymbolTableRecord
100
AcDbBlockTableRecord
  2
*Paper_Space0
340
26
  0
BLOCK_RECORD
  5
6A
330
1
100
AcDbSymbolTableRecord
100
AcDbBlockTableRecord
  2
_Open30
340
0
102
{BLKREFS
331
740E
331
740F
331
7417
331
7418
331
7420
331
7421
331
7427
331
7428
331
7432
331
7433
331
743B
331
743C
331
7444
331
7445
331
744F
331
7450
102
}
  0
BLOCK_RECORD
  5
75
330
1
100
AcDbSymbolTableRecord
100
AcDbBlockTableRecord
  2
GENAXEH
340
0
  0
BLOCK_RECORD
  5
1660
330
1
100
AcDbSymbolTableRecord
100
AcDbBlockTableRecord
  2
*U3
340
0
  0
BLOCK_RECORD
  5
6775
330
1
100
AcDbSymbolTableRecord
100
AcDbBlockTableRecord
  2
*D4
340
0
  0
BLOCK_RECORD
  5
67B3
330
1
100
AcDbSymbolTableRecord
100
AcDbBlockTableRecord
  2
*D5
340
0
  0
BLOCK_RECORD
  5
67E5
330
1
100
AcDbSymbolTableRecord
100
AcDbBlockTableRecord
  2
*D6
340
0
  0
BLOCK_RECORD
  5
67FD
330
1
100
AcDbSymbolTableRecord
100
AcDbBlockTableRecord
  2
*D7
340
0
  0
BLOCK_RECORD
  5
6840
330
1
100
AcDbSymbolTableRecord
100
AcDbBlockTableRecord
  2
*D8
340
0
  0
BLOCK_RECORD
  5
6D20
330
1
100
AcDbSymbolTableRecord
100
AcDbBlockTableRecord
  2
*D9
340
0
  0
BLOCK_RECORD
  5
6D43
330
1
100
AcDbSymbolTableRecord
100
AcDbBlockTableRecord
  2
*D10
340
0
  0
BLOCK_RECORD
  5
738E
330
1
100
AcDbSymbolTableRecord
100
AcDbBlockTableRecord
  2
*D11
340
0
  0
ENDTAB
  0
ENDSEC
  0
SECTION
  2
BLOCKS
  0
BLOCK
  5
20
330
1F
100
AcDbEntity
  8
0
100
AcDbBlockBegin
  2
*Model_Space
 70
     0
 71
     0
 10
0.0
 20
0.0
 30
0.0
  3
*Model_Space
  1

  0
ENDBLK
  5
21
330
1F
100
AcDbEntity
  8
0
100
AcDbBlockEnd
  0
BLOCK
  5
1C
330
1B
100
AcDbEntity
 67
     1
  8
0
100
AcDbBlockBegin
  2
*Paper_Space
 70
     0
 71
     0
 10
0.0
 20
0.0
 30
0.0
  3
*Paper_Space
  1

  0
ENDBLK
  5
1D
330
1B
100
AcDbEntity
 67
     1
  8
0
100
AcDbBlockEnd
  0
BLOCK
  5
24
330
23
100
AcDbEntity
  8
0
100
AcDbBlockBegin
  2
*Paper_Space0
 70
     0
 71
     0
 10
0.0
 20
0.0
 30
0.0
  3
*Paper_Space0
  1

  0
ENDBLK
  5
25
330
23
100
AcDbEntity
  8
0
100
AcDbBlockEnd
  0
BLOCK
  5
6E
330
6A
100
AcDbEntity
  8
0
100
AcDbBlockBegin
  2
_Open30
 70
     0
 71
     0
 10
0.0
 20
0.0
 30
0.0
  3
_Open30
  1

  0
LINE
  5
6B
330
6A
100
AcDbEntity
  8
0
 62
     0
370
    -2
100
AcDbLine
 10
-1.0
 20
0.26794919
 30
0.0
 11
0.0
 21
0.0
 31
0.0
  0
LINE
  5
6C
330
6A
100
AcDbEntity
  8
0
 62
     0
370
    -2
100
AcDbLine
 10
0.0
 20
0.0
 30
0.0
 11
-1.0
 21
-0.26794919
 31
0.0
  0
LINE
  5
6D
330
6A
100
AcDbEntity
  8
0
 62
     0
370
    -2
100
AcDbLine
 10
0.0
 20
0.0
 30
0.0
 11
-1.0
 21
0.0
 31
0.0
  0
ENDBLK
  5
6F
330
6A
100
AcDbEntity
  8
0
100
AcDbBlockEnd
  0
BLOCK
  5
77
330
75
100
AcDbEntity
  8
0
100
AcDbBlockBegin
  2
GENAXEH
 70
     0
 71
     0
 10
0.0
 20
0.0
 30
0.0
  3
GENAXEH
  1

  0
LINE
  5
76
330
75
100
AcDbEntity
  8
0
100
AcDbLine
 10
-1.0
 20
0.0
 30
0.0
 11
1.0
 21
0.0
 31
0.0
  0
ENDBLK
  5
78
330
75
100
AcDbEntity
  8
0
100
AcDbBlockEnd
  0
BLOCK
  5
1661
330
1660
100
AcDbEntity
  8
0
100
AcDbBlockBegin
  2
*U3
 70
     1
 71
     0
 10
0.0
 20
0.0
 30
0.0
  3
*U3
  1

  0
ENDBLK
  5
1662
330
1660
100
AcDbEntity
  8
0
100
AcDbBlockEnd
  0
BLOCK
  5
677F
330
6775
100
AcDbEntity
  8
0
370
    13
100
AcDbBlockBegin
  2
*D4
 70
     1
 71
     0
 10
0.0
 20
0.0
 30
0.0
  3
*D4
  1

  0
LINE
  5
740B
330
6775
100
AcDbEntity
  8
AM_5
 62
     3
370
    13
100
AcDbLine
 10
180.0
 20
32.0
 30
0.0
 11
197.6936012282075
 21
32.0
 31
0.0
  0
LINE
  5
740C
330
6775
100
AcDbEntity
  8
AM_5
 62
     3
370
    13
100
AcDbLine
 10
180.0
 20
0.0
 30
0.0
 11
197.6936012282075
 21
-0.000000000000005
 31
0.0
  0
LINE
  5
740D
330
6775
100
AcDbEntity
  8
AM_5
 62
     3
370
    13
100
AcDbLine
 10
196.6936012282075
 20
29.5
 30
0.0
 11
196.6936012282075
 21
2.499999999999996
 31
0.0
  0
INSERT
  5
740E
330
6775
100
AcDbEntity
  8
AM_5
 62
     3
370
    13
100
AcDbBlockReference
  2
_Open30
 10
196.6936012282075
 20
32.0
 30
0.0
 41
2.5
 42
2.5
 43
2.5
 50
90.0
  0
INSERT
  5
740F
330
6775
100
AcDbEntity
  8
AM_5
 62
     3
370
    13
100
AcDbBlockReference
  2
_Open30
 10
196.6936012282075
 20
-0.0000000000000047
 30
0.0
 41
2.5
 42
2.5
 43
2.5
 50
270.0
  0
MTEXT
  5
7410
330
6775
100
AcDbEntity
  8
AM_5
 62
     2
370
    13
100
AcDbMText
 10
193.2932272124594
 20
15.25634328155269
 30
0.0
 40
3.8
 41
0.0
 71
     5
 72
     1
  1
32
 11
6.123031769111886E-17
 21
1.0
 31
0.0
 73
     1
 44
1.0
  0
POINT
  5
7411
330
6775
100
AcDbEntity
  8
Defpoints
 62
     0
370
    13
100
AcDbPoint
 10
180.0
 20
32.0
 30
0.0
  0
POINT
  5
7412
330
6775
100
AcDbEntity
  8
Defpoints
 62
     0
370
    13
100
AcDbPoint
 10
180.0
 20
0.0
 30
0.0
  0
POINT
  5
7413
330
6775
100
AcDbEntity
  8
Defpoints
 62
     0
370
    13
100
AcDbPoint
 10
196.6936012282075
 20
-0.0000000000000047
 30
0.0
  0
ENDBLK
  5
6780
330
6775
100
AcDbEntity
  8
0
370
    13
100
AcDbBlockEnd
  0
BLOCK
  5
67BD
330
67B3
100
AcDbEntity
  8
0
370
    13
100
AcDbBlockBegin
  2
*D5
 70
     1
 71
     0
 10
0.0
 20
0.0
 30
0.0
  3
*D5
  1

  0
LINE
  5
7414
330
67B3
100
AcDbEntity
  8
AM_5
 62
     3
370
    13
100
AcDbLine
 10
0.0
 20
-20.28712696790075
 30
0.0
 11
-0.0000000000000007
 21
-31.82573822335422
 31
0.0
  0
LINE
  5
7415
330
67B3
100
AcDbEntity
  8
AM_5
 62
     3
370
    13
100
AcDbLine
 10
180.0
 20
0.0
 30
0.0
 11
180.0
 21
-31.82573822335422
 31
0.0
  0
LINE
  5
7416
330
67B3
100
AcDbEntity
  8
AM_5
 62
     3
370
    13
100
AcDbLine
 10
2.5
 20
-30.82573822335422
 30
0.0
 11
177.5
 21
-30.82573822335422
 31
0.0
  0
INSERT
  5
7417
330
67B3
100
AcDbEntity
  8
AM_5
 62
     3
370
    13
100
AcDbBlockReference
  2
_Open30
 10
-0.0000000000000006
 20
-30.82573822335422
 30
0.0
 41
2.5
 42
2.5
 43
2.5
 50
180.0
  0
INSERT
  5
7418
330
67B3
100
AcDbEntity
  8
AM_5
 62
     3
370
    13
100
AcDbBlockReference
  2
_Open30
 10
180.0
 20
-30.82573822335422
 30
0.0
 41
2.5
 42
2.5
 43
2.5
  0
MTEXT
  5
7419
330
67B3
100
AcDbEntity
  8
AM_5
 62
     2
370
    13
100
AcDbMText
 10
83.32060460835538
 20
-27.42573822335422
 30
0.0
 40
3.8
 41
0.0
 71
     5
 72
     1
  1
180
 73
     1
 44
1.0
  0
POINT
  5
741A
330
67B3
100
AcDbEntity
  8
Defpoints
 62
     0
370
    13
100
AcDbPoint
 10
0.0
 20
-20.28712696790075
 30
0.0
  0
POINT
  5
741B
330
67B3
100
AcDbEntity
  8
Defpoints
 62
     0
370
    13
100
AcDbPoint
 10
180.0
 20
0.0
 30
0.0
  0
POINT
  5
741C
330
67B3
100
AcDbEntity
  8
Defpoints
 62
     0
370
    13
100
AcDbPoint
 10
180.0
 20
-30.82573822335422
 30
0.0
  0
ENDBLK
  5
67BE
330
67B3
100
AcDbEntity
  8
0
370
    13
100
AcDbBlockEnd
  0
BLOCK
  5
67EF
330
67E5
100
AcDbEntity
  8
0
370
    13
100
AcDbBlockBegin
  2
*D6
 70
     1
 71
     0
 10
0.0
 20
0.0
 30
0.0
  3
*D6
  1

  0
LINE
  5
741D
330
67E5
100
AcDbEntity
  8
AM_5
 62
     3
370
    13
100
AcDbLine
 10
-1.068828603922327
 20
0.0
 30
0.0
 11
-16.1409090702652
 21
0.0000000000000043
 31
0.0
  0
LINE
  5
741E
330
67E5
100
AcDbEntity
  8
AM_5
 62
     3
370
    13
100
AcDbLine
 10
20.57024799999999
 20
32.0
 30
0.0
 11
-16.14090907026519
 21
32.00000000000001
 31
0.0
  0
LINE
  5
741F
330
67E5
100
AcDbEntity
  8
AM_5
 62
     3
370
    13
100
AcDbLine
 10
-15.1409090702652
 20
2.500000000000004
 30
0.0
 11
-15.14090907026519
 21
29.50000000000001
 31
0.0
  0
INSERT
  5
7420
330
67E5
100
AcDbEntity
  8
AM_5
 62
     3
370
    13
100
AcDbBlockReference
  2
_Open30
 10
-15.1409090702652
 20
0.000000000000004
 30
0.0
 41
2.5
 42
2.5
 43
2.5
 50
270.0
  0
INSERT
  5
7421
330
67E5
100
AcDbEntity
  8
AM_5
 62
     3
370
    13
100
AcDbBlockReference
  2
_Open30
 10
-15.14090907026519
 20
32.00000000000001
 30
0.0
 41
2.5
 42
2.5
 43
2.5
 50
90.0
  0
MTEXT
  5
7422
330
67E5
100
AcDbEntity
  8
AM_5
 62
     2
370
    13
100
AcDbMText
 10
-18.54128308601323
 20
16.0
 30
0.0
 40
3.8
 41
0.0
 71
     5
 72
     1
  1
32
 11
6.123031769111886E-17
 21
1.0
 31
0.0
 73
     1
 44
1.0
  0
POINT
  5
7423
330
67E5
100
AcDbEntity
  8
Defpoints
 62
     0
370
    13
100
AcDbPoint
 10
-1.068828603922327
 20
0.0
 30
0.0
  0
POINT
  5
7424
330
67E5
100
AcDbEntity
  8
Defpoints
 62
     0
370
    13
100
AcDbPoint
 10
20.57024799999999
 20
32.0
 30
0.0
  0
POINT
  5
7425
330
67E5
100
AcDbEntity
  8
Defpoints
 62
     0
370
    13
100
AcDbPoint
 10
-15.14090907026519
 20
32.00000000000001
 30
0.0
  0
ENDBLK
  5
67F0
330
67E5
100
AcDbEntity
  8
0
370
    13
100
AcDbBlockEnd
  0
BLOCK
  5
6807
330
67FD
100
AcDbEntity
  8
0
370
    13
100
AcDbBlockBegin
  2
*D7
 70
     1
 71
     0
 10
0.0
 20
0.0
 30
0.0
  3
*D7
  1

  0
ARC
  5
7426
330
67FD
100
AcDbEntity
  8
AM_5
 62
     3
370
    13
100
AcDbCircle
 10
0.0
 20
-0.0070423296185261
 30
0.0
 40
18.96876533567568
100
AcDbArc
 50
277.5568082266781
 51
353.4431912114227
  0
INSERT
  5
7427
330
67FD
100
AcDbEntity
  8
AM_5
 62
     3
370
    13
100
AcDbBlockReference
  2
_Open30
 10
-0.0000000000000018
 20
-18.97580766529421
 30
0.0
 41
2.5
 42
2.5
 43
2.5
 50
183.778404113339
  0
INSERT
  5
7428
330
67FD
100
AcDbEntity
  8
AM_5
 62
     3
370
    13
100
AcDbBlockReference
  2
_Open30
 10
18.96587630408439
 20
0.3240080866349668
 30
0.0
 41
2.5
 42
2.5
 43
2.5
 50
87.22159532476182
  0
MTEXT
  5
7429
330
67FD
100
AcDbEntity
  8
AM_5
 62
     2
370
    13
100
AcDbMText
 10
12.33777711414757
 20
-9.50260497534696
 30
0.0
 40
3.8
 41
0.0
 71
     5
 72
     1
  1
91°
 11
0.6099110906353926
 21
0.7924698489658429
 31
0.0
 73
     1
 44
1.0
  0
POINT
  5
742A
330
67FD
100
AcDbEntity
  8
Defpoints
 62
     0
370
    13
100
AcDbPoint
 10
9.579792498823815
 20
-16.37901942584641
 30
0.0
  0
POINT
  5
742B
330
67FD
100
AcDbEntity
  8
Defpoints
 62
     0
370
    13
100
AcDbPoint
 10
0.0
 20
0.4344680413623223
 30
0.0
  0
POINT
  5
742C
330
67FD
100
AcDbEntity
  8
Defpoints
 62
     0
370
    13
100
AcDbPoint
 10
21.01524899999999
 20
0.3597799999999989
 30
0.0
  0
POINT
  5
742D
330
67FD
100
AcDbEntity
  8
Defpoints
 62
     0
370
    13
100
AcDbPoint
 10
0.4070069999999788
 20
0.0000619999999856
 30
0.0
  0
POINT
  5
742E
330
67FD
100
AcDbEntity
  8
Defpoints
 62
     0
370
    13
100
AcDbPoint
 10
0.0
 20
-20.28712696790075
 30
0.0
  0
ENDBLK
  5
6808
330
67FD
100
AcDbEntity
  8
0
370
    13
100
AcDbBlockEnd
  0
BLOCK
  5
684A
330
6840
100
AcDbEntity
  8
0
370
    13
100
AcDbBlockBegin
  2
*D8
 70
     1
 71
     0
 10
0.0
 20
0.0
 30
0.0
  3
*D8
  1

  0
LINE
  5
742F
330
6840
100
AcDbEntity
  8
AM_5
 62
     3
370
    13
100
AcDbLine
 10
0.0
 20
0.0
 30
0.0
 11
0.0000000000000028
 21
45.16300033168608
 31
0.0
  0
LINE
  5
7430
330
6840
100
AcDbEntity
  8
AM_5
 62
     3
370
    13
100
AcDbLine
 10
40.99785599999999
 20
32.0
 30
0.0
 11
40.99785599999999
 21
45.16300033168608
 31
0.0
  0
LINE
  5
7431
330
6840
100
AcDbEntity
  8
AM_5
 62
     3
370
    13
100
AcDbLine
 10
2.500000000000003
 20
44.16300033168608
 30
0.0
 11
38.49785599999999
 21
44.16300033168608
 31
0.0
  0
INSERT
  5
7432
330
6840
100
AcDbEntity
  8
AM_5
 62
     3
370
    13
100
AcDbBlockReference
  2
_Open30
 10
0.0000000000000027
 20
44.16300033168608
 30
0.0
 41
2.5
 42
2.5
 43
2.5
 50
180.0
  0
INSERT
  5
7433
330
6840
100
AcDbEntity
  8
AM_5
 62
     3
370
    13
100
AcDbBlockReference
  2
_Open30
 10
40.99785599999999
 20
44.16300033168608
 30
0.0
 41
2.5
 42
2.5
 43
2.5
  0
MTEXT
  5
7434
330
6840
100
AcDbEntity
  8
AM_5
 62
     2
370
    13
100
AcDbMText
 10
20.30578224725133
 20
47.56300033168608
 30
0.0
 40
3.8
 41
0.0
 71
     5
 72
     1
  1
41
 73
     1
 44
1.0
  0
POINT
  5
7435
330
6840
100
AcDbEntity
  8
Defpoints
 62
     0
370
    13
100
AcDbPoint
 10
0.0
 20
0.0
 30
0.0
  0
POINT
  5
7436
330
6840
100
AcDbEntity
  8
Defpoints
 62
     0
370
    13
100
AcDbPoint
 10
40.99785599999999
 20
32.0
 30
0.0
  0
POINT
  5
7437
330
6840
100
AcDbEntity
  8
Defpoints
 62
     0
370
    13
100
AcDbPoint
 10
40.99785599999999
 20
44.16300033168608
 30
0.0
  0
ENDBLK
  5
684B
330
6840
100
AcDbEntity
  8
0
370
    13
100
AcDbBlockEnd
  0
BLOCK
  5
6D2A
330
6D20
100
AcDbEntity
  8
0
370
    13
100
AcDbBlockBegin
  2
*D9
 70
     1
 71
     0
 10
0.0
 20
0.0
 30
0.0
  3
*D9
  1

  0
LINE
  5
7438
330
6D20
100
AcDbEntity
  8
AM_5
 62
     3
370
    13
100
AcDbLine
 10
180.0
 20
-87.12517187514442
 30
0.0
 11
202.2894229248821
 21
-87.12517187514442
 31
0.0
  0
LINE
  5
7439
330
6D20
100
AcDbEntity
  8
AM_5
 62
     3
370
    13
100
AcDbLine
 10
180.0
 20
-119.1251718751445
 30
0.0
 11
202.2894229248821
 21
-119.1251718751445
 31
0.0
  0
LINE
  5
743A
330
6D20
100
AcDbEntity
  8
AM_5
 62
     3
370
    13
100
AcDbLine
 10
201.2894229248821
 20
-89.62517187514442
 30
0.0
 11
201.2894229248821
 21
-116.6251718751445
 31
0.0
  0
INSERT
  5
743B
330
6D20
100
AcDbEntity
  8
AM_5
 62
     3
370
    13
100
AcDbBlockReference
  2
_Open30
 10
201.2894229248821
 20
-87.12517187514442
 30
0.0
 41
2.5
 42
2.5
 43
2.5
 50
90.0
  0
INSERT
  5
743C
330
6D20
100
AcDbEntity
  8
AM_5
 62
     3
370
    13
100
AcDbBlockReference
  2
_Open30
 10
201.2894229248821
 20
-119.1251718751445
 30
0.0
 41
2.5
 42
2.5
 43
2.5
 50
270.0
  0
MTEXT
  5
743D
330
6D20
100
AcDbEntity
  8
AM_5
 62
     2
370
    13
100
AcDbMText
 10
197.8890489091341
 20
-103.1251718751444
 30
0.0
 40
3.8
 41
0.0
 71
     5
 72
     1
  1
32
 11
6.123031769111886E-17
 21
1.0
 31
0.0
 73
     1
 44
1.0
  0
POINT
  5
743E
330
6D20
100
AcDbEntity
  8
Defpoints
 62
     0
370
    13
100
AcDbPoint
 10
180.0
 20
-87.12517187514442
 30
0.0
  0
POINT
  5
743F
330
6D20
100
AcDbEntity
  8
Defpoints
 62
     0
370
    13
100
AcDbPoint
 10
180.0
 20
-119.1251718751445
 30
0.0
  0
POINT
  5
7440
330
6D20
100
AcDbEntity
  8
Defpoints
 62
     0
370
    13
100
AcDbPoint
 10
201.2894229248821
 20
-119.1251718751445
 30
0.0
  0
ENDBLK
  5
6D2B
330
6D20
100
AcDbEntity
  8
0
370
    13
100
AcDbBlockEnd
  0
BLOCK
  5
6D4D
330
6D43
100
AcDbEntity
  8
0
370
    13
100
AcDbBlockBegin
  2
*D10
 70
     1
 71
     0
 10
0.0
 20
0.0
 30
0.0
  3
*D10
  1

  0
LINE
  5
7441
330
6D43
100
AcDbEntity
  8
AM_5
 62
     3
370
    13
100
AcDbLine
 10
-2.118899686466364
 20
-87.12517187514445
 30
0.0
 11
-18.17963575460675
 21
-87.12517187514445
 31
0.0
  0
LINE
  5
7442
330
6D43
100
AcDbEntity
  8
AM_5
 62
     3
370
    13
100
AcDbLine
 10
2.0
 20
-119.1251718751445
 30
0.0
 11
-18.17963575460675
 21
-119.1251718751445
 31
0.0
  0
LINE
  5
7443
330
6D43
100
AcDbEntity
  8
AM_5
 62
     3
370
    13
100
AcDbLine
 10
-17.17963575460675
 20
-89.62517187514445
 30
0.0
 11
-17.17963575460676
 21
-116.6251718751445
 31
0.0
  0
INSERT
  5
7444
330
6D43
100
AcDbEntity
  8
AM_5
 62
     3
370
    13
100
AcDbBlockReference
  2
_Open30
 10
-17.17963575460675
 20
-87.12517187514445
 30
0.0
 41
2.5
 42
2.5
 43
2.5
 50
90.0
  0
INSERT
  5
7445
330
6D43
100
AcDbEntity
  8
AM_5
 62
     3
370
    13
100
AcDbBlockReference
  2
_Open30
 10
-17.17963575460676
 20
-119.1251718751445
 30
0.0
 41
2.5
 42
2.5
 43
2.5
 50
270.0
  0
MTEXT
  5
7446
330
6D43
100
AcDbEntity
  8
AM_5
 62
     2
370
    13
100
AcDbMText
 10
-20.58000977035477
 20
-103.1251718751445
 30
0.0
 40
3.8
 41
0.0
 71
     5
 72
     1
  1
32
 11
6.123031769111886E-17
 21
1.0
 31
0.0
 73
     1
 44
1.0
  0
POINT
  5
7447
330
6D43
100
AcDbEntity
  8
Defpoints
 62
     0
370
    13
100
AcDbPoint
 10
-2.118899686466364
 20
-87.12517187514445
 30
0.0
  0
POINT
  5
7448
330
6D43
100
AcDbEntity
  8
Defpoints
 62
     0
370
    13
100
AcDbPoint
 10
2.0
 20
-119.1251718751445
 30
0.0
  0
POINT
  5
7449
330
6D43
100
AcDbEntity
  8
Defpoints
 62
     0
370
    13
100
AcDbPoint
 10
-17.17963575460676
 20
-119.1251718751445
 30
0.0
  0
ENDBLK
  5
6D4E
330
6D43
100
AcDbEntity
  8
0
370
    13
100
AcDbBlockEnd
  0
BLOCK
  5
739E
330
738E
100
AcDbEntity
  8
0
370
    13
100
AcDbBlockBegin
  2
*D11
 70
     1
 71
     0
 10
0.0
 20
0.0
 30
0.0
  3
*D11
  1

  0
LINE
  5
744A
330
738E
100
AcDbEntity
  8
AM_5
 62
     3
370
    13
100
AcDbLine
 10
-64.61954303746754
 20
-1.122799324472735
 30
0.0
 11
-64.61954303746755
 21
-17.67780313516334
 31
0.0
  0
LINE
  5
744B
330
738E
100
AcDbEntity
  8
AM_5
 62
     3
370
    13
100
AcDbLine
 10
-64.61954303746754
 20
-0.0000022065746617
 30
0.0
 11
-63.07882075203022
 21
-17.61053372921667
 31
0.0
  0
ARC
  5
744C
330
738E
100
AcDbEntity
  8
AM_5
 62
     3
370
    13
100
AcDbCircle
 10
-64.61954303746754
 20
-0.0000022065746617
 30
0.0
 40
16.67780092858869
100
AcDbArc
 50
252.8066185365655
 51
261.4033092682827
  0
ARC
  5
744D
330
738E
100
AcDbEntity
  8
AM_5
 62
     3
370
    13
100
AcDbCircle
 10
-64.61954303746754
 20
-0.0000022065746617
 30
0.0
 40
16.67780092858869
100
AcDbArc
 50
283.596692083092
 51
292.1933828148092
  0
ARC
  5
744E
330
738E
100
AcDbEntity
  8
AM_5
 62
     3
370
    13
100
AcDbCircle
 10
-64.61954303746754
 20
-0.0000022065746617
 30
0.0
 40
16.67780092858869
100
AcDbArc
 50
269.9999999999999
 51
275.0000013513748
  0
INSERT
  5
744F
330
738E
100
AcDbEntity
  8
AM_5
 62
     3
370
    13
100
AcDbBlockReference
  2
_Open30
 10
-64.61954303746755
 20
-16.67780313516334
 30
0.0
 41
2.5
 42
2.5
 43
2.5
 50
355.7016546341414
  0
INSERT
  5
7450
330
738E
100
AcDbEntity
  8
AM_5
 62
     3
370
    13
100
AcDbBlockReference
  2
_Open30
 10
-63.16597651827406
 20
-16.61433903318057
 30
0.0
 41
2.5
 42
2.5
 43
2.5
 50
189.2983467172334
  0
MTEXT
  5
7451
330
738E
100
AcDbEntity
  8
AM_5
 62
     2
370
    13
100
AcDbMText
 10
-66.48135802829239
 20
-13.14662315795111
 30
0.0
 40
3.8
 41
0.0
 71
     5
 72
     1
  1
5°
 11
0.9901203536701786
 21
-0.1402201313936068
 31
0.0
 73
     1
 44
1.0
  0
POINT
  5
7452
330
738E
100
AcDbEntity
  8
Defpoints
 62
     0
370
    13
100
AcDbPoint
 10
-63.64981489407438
 20
-16.64958692036091
 30
0.0
  0
POINT
  5
7453
330
738E
100
AcDbEntity
  8
Defpoints
 62
     0
370
    13
100
AcDbPoint
 10
-64.61954303746754
 20
0.0
 30
0.0
  0
POINT
  5
7454
330
738E
100
AcDbEntity
  8
Defpoints
 62
     0
370
    13
100
AcDbPoint
 10
-64.67130503746753
 20
0.591640000000039
 30
0.0
  0
POINT
  5
7455
330
738E
100
AcDbEntity
  8
Defpoints
 62
     0
370
    13
100
AcDbPoint
 10
-65.20811803746753
 20
6.727439000000004
 30
0.0
  0
POINT
  5
7456
330
738E
100
AcDbEntity
  8
Defpoints
 62
     0
370
    13
100
AcDbPoint
 10
-64.61954303746754
 20
-1.122799324472735
 30
0.0
  0
ENDBLK
  5
739F
330
738E
100
AcDbEntity
  8
0
370
    13
100
AcDbBlockEnd
  0
ENDSEC
  0
SECTION
  2
ENTITIES
  0
MTEXT
  5
2E3B
330
1F
100
AcDbEntity
  8
AM_5
 62
     2
370
    13
100
AcDbMText
 10
58.05642293843363
 20
96.00167122089064
 30
0.0
 40
3.15
 41
0.0
 71
     7
 72
     5
  1

  7
ACJISTS
 73
     1
 44
1.0
  0
TEXT
  5
6173
330
1F
100
AcDbEntity
  8
AM_6
  6
Continuous
 62
     0
370
    30
100
AcDbText
 10
76.51342309620191
 20
-140.7565673123673
 30
0.0
 40
3.8
  1
FP21R-55
  7
ACISOTS
100
AcDbText
  0
LINE
  5
65EA
330
1F
100
AcDbEntity
  8
AM_0
100
AcDbLine
 10
40.99785599999999
 20
32.0
 30
0.0
 11
40.99787499999999
 21
32.0
 31
0.0
  0
LINE
  5
65EB
330
1F
100
AcDbEntity
  8
AM_0
100
AcDbLine
 10
40.99999999999999
 20
0.0
 30
0.0
 11
40.99787499999999
 21
32.0
 31
0.0
  0
LINE
  5
65EC
330
1F
100
AcDbEntity
  8
AM_0
100
AcDbLine
 10
40.99999699999998
 20
0.0
 30
0.0
 11
40.99999999999999
 21
0.0
 31
0.0
  0
LINE
  5
65ED
330
1F
100
AcDbEntity
  8
AM_0
100
AcDbLine
 10
40.99999699999998
 20
0.0
 30
0.0
 11
40.99785599999999
 21
32.0
 31
0.0
  0
LINE
  5
65EE
330
1F
100
AcDbEntity
  8
AM_0
100
AcDbLine
 10
40.99999999999999
 20
0.0
 30
0.0
 11
180.0
 21
0.0
 31
0.0
  0
LINE
  5
65EF
330
1F
100
AcDbEntity
  8
AM_0
100
AcDbLine
 10
40.99787499999999
 20
32.0
 30
0.0
 11
180.0
 21
32.0
 31
0.0
  0
LINE
  5
65F0
330
1F
100
AcDbEntity
  8
AM_0
100
AcDbLine
 10
180.0
 20
0.0
 30
0.0
 11
180.0
 21
32.0
 31
0.0
  0
LINE
  5
65F1
330
1F
100
AcDbEntity
  8
AM_0
100
AcDbLine
 10
1.999999999999972
 20
7.199999999999989
 30
0.0
 11
1.999999999999972
 21
4.096447999999981
 31
0.0
  0
LINE
  5
65F2
330
1F
100
AcDbEntity
  8
AM_0
100
AcDbLine
 10
3.776019999999988
 20
27.5
 30
0.0
 11
1.999999999999972
 21
7.199999999999989
 31
0.0
  0
LINE
  5
65F3
330
1F
100
AcDbEntity
  8
AM_0
100
AcDbLine
 10
20.57024799999999
 20
32.0
 30
0.0
 11
20.52297999999998
 21
31.98733499999997
 31
0.0
  0
LINE
  5
65F4
330
1F
100
AcDbEntity
  8
AM_0
100
AcDbLine
 10
10.96421999999998
 20
29.42607299999997
 30
0.0
 11
3.776019999999988
 21
27.5
 31
0.0
  0
LINE
  5
65F5
330
1F
100
AcDbEntity
  8
AM_0
100
AcDbLine
 10
15.01809399999998
 20
0.2550989999999729
 30
0.0
 11
27.05509799999999
 21
0.2550989999999729
 31
0.0
  0
LINE
  5
65F6
330
1F
100
AcDbEntity
  8
AM_0
100
AcDbLine
 10
27.05509799999999
 20
0.2550989999999729
 30
0.0
 11
27.052753
 21
0.0
 31
0.0
  0
LINE
  5
65F7
330
1F
100
AcDbEntity
  8
AM_0
100
AcDbLine
 10
40.99999699999998
 20
0.0
 30
0.0
 11
27.052753
 21
0.0
 31
0.0
  0
LINE
  5
65F8
330
1F
100
AcDbEntity
  8
AM_0
100
AcDbLine
 10
40.99785599999999
 20
32.0
 30
0.0
 11
32.12775599999998
 21
32.0
 31
0.0
  0
LINE
  5
65F9
330
1F
100
AcDbEntity
  8
AM_0
100
AcDbLine
 10
21.30239799999998
 20
32.0
 30
0.0
 11
20.57024799999999
 21
32.0
 31
0.0
  0
LINE
  5
65FA
330
1F
100
AcDbEntity
  8
AM_0
100
AcDbLine
 10
3.293638999999985
 20
6.341903000000002
 30
0.0
 11
2.541910999999985
 21
3.086853999999988
 31
0.0
  0
LINE
  5
65FB
330
1F
100
AcDbEntity
  8
AM_0
100
AcDbLine
 10
4.875301999999991
 20
12.63997499999999
 30
0.0
 11
4.765601999999987
 21
12.20315799999997
 31
0.0
  0
LINE
  5
65FC
330
1F
100
AcDbEntity
  8
AM_0
100
AcDbLine
 10
4.765601999999987
 20
12.20315799999997
 30
0.0
 11
4.761928999999995
 21
12.18853100000001
 31
0.0
  0
LINE
  5
65FD
330
1F
100
AcDbEntity
  8
AM_0
100
AcDbLine
 10
4.761928999999995
 20
12.18853100000001
 30
0.0
 11
3.293793999999991
 21
6.34254599999997
 31
0.0
  0
LINE
  5
65FE
330
1F
100
AcDbEntity
  8
AM_0
100
AcDbLine
 10
2.523797999999999
 20
2.924329
 30
0.0
 11
2.524018999999996
 21
2.880159999999989
 31
0.0
  0
LINE
  5
6608
330
1F
100
AcDbEntity
  8
AM_0
100
AcDbLine
 10
39.19787899999999
 20
12.13456400000001
 30
0.0
 11
34.04400799999998
 21
29.99170999999996
 31
0.0
  0
LINE
  5
6609
330
1F
100
AcDbEntity
  8
AM_0
100
AcDbLine
 10
4.635739999999984
 20
24.94598099999996
 30
0.0
 11
3.807267999999979
 21
13.20154199999996
 31
0.0
  0
LINE
  5
660B
330
1F
100
AcDbEntity
  8
AM_0
100
AcDbLine
 10
19.988902
 20
10.589764
 30
0.0
 11
29.32612299999998
 21
4.326268999999996
 31
0.0
  0
LINE
  5
660E
330
1F
100
AcDbEntity
  8
AM_0
100
AcDbLine
 10
19.31554499999999
 20
31.86679399999997
 30
0.0
 11
13.95694499999998
 21
30.34707099999997
 31
0.0
  0
LINE
  5
660F
330
1F
100
AcDbEntity
  8
AM_0
100
AcDbLine
 10
31.11291399999999
 20
32.15941900000001
 30
0.0
 11
20.08533499999999
 21
31.98022299999997
 31
0.0
  0
LINE
  5
6612
330
1F
100
AcDbEntity
  8
AM_0
100
AcDbLine
 10
37.80484799999999
 20
7.934101999999996
 30
0.0
 11
37.11579599999999
 21
7.523810999999967
 31
0.0
  0
LINE
  5
6613
330
1F
100
AcDbEntity
  8
AM_0
100
AcDbLine
 10
37.12313799999998
 20
7.631529999999998
 30
0.0
 11
37.11579599999999
 21
7.523810999999967
 31
0.0
  0
LINE
  5
6614
330
1F
100
AcDbEntity
  8
AM_0
100
AcDbLine
 10
31.47450699999999
 20
4.268092999999993
 30
0.0
 11
37.12313799999998
 21
7.631529999999998
 31
0.0
  0
LINE
  5
6615
330
1F
100
AcDbEntity
  8
AM_0
100
AcDbLine
 10
39.25310999999999
 20
10.284786
 30
0.0
 11
39.30858299999999
 21
11.09866899999997
 31
0.0
  0
LINE
  5
6617
330
1F
100
AcDbEntity
  8
AM_0
100
AcDbLine
 10
17.07451499999999
 20
11.92780899999997
 30
0.0
 11
17.09490899999999
 21
12.22703100000001
 31
0.0
  0
LINE
  5
6619
330
1F
100
AcDbEntity
  8
AM_0
100
AcDbLine
 10
37.11579599999999
 20
7.523810999999967
 30
0.0
 11
37.09034199999999
 21
7.612003000000016
 31
0.0
  0
LINE
  5
661A
330
1F
100
AcDbEntity
  8
AM_0
100
AcDbLine
 10
21.01524899999998
 20
0.3597800000000007
 30
0.0
 11
0.4070069999999788
 21
0.0000619999999856
 31
0.0
  0
LINE
  5
661B
330
1F
100
AcDbEntity
  8
AM_0
100
AcDbLine
 10
0.0501389999999873
 20
0.5916409999999814
 30
0.0
 11
3.330164999999994
 21
6.487374999999986
 31
0.0
  0
LINE
  5
661C
330
1F
100
AcDbEntity
  8
AM_0
100
AcDbLine
 10
16.40235499999999
 20
9.166955999999971
 30
0.0
 11
21.35109399999999
 21
0.9634509999999921
 31
0.0
  0
LINE
  5
6639
330
1F
100
AcDbEntity
  8
AM_0
100
AcDbLine
 10
3.293638999999956
 20
6.341903999999943
 30
0.0
 11
2.541910999999942
 21
3.086853999999988
 31
0.0
  0
LINE
  5
663C
330
1F
100
AcDbEntity
  8
AM_0
100
AcDbLine
 10
4.340023999999971
 20
5.918079999999975
 30
0.0
 11
14.53753099999997
 21
6.096077999999977
 31
0.0
  0
LINE
  5
6642
330
1F
100
AcDbEntity
  8
AM_0
100
AcDbLine
 10
17.0784757658237
 20
11.98592159543495
 30
0.0
 11
15.21565199999996
 21
4.568318999999974
 31
0.0
  0
LINE
  5
6644
330
1F
100
AcDbEntity
  8
AM_0
100
AcDbLine
 10
4.700797999999963
 20
7.963851999999974
 30
0.0
 11
15.05197099999995
 21
8.14453199999997
 31
0.0
  0
LINE
  5
664A
330
1F
100
AcDbEntity
  8
AM_0
100
AcDbLine
 10
14.74557099999996
 20
2.386875999999973
 30
0.0
 11
15.17717399999995
 21
4.112960999999984
 31
0.0
  0
LINE
  5
664E
330
1F
100
AcDbEntity
  8
AM_0
100
AcDbLine
 10
15.30236999999995
 20
9.141601999999978
 30
0.0
 11
4.951197999999948
 21
8.960921999999982
 31
0.0
  0
LINE
  5
6650
330
1F
100
AcDbEntity
  8
AM_0
100
AcDbLine
 10
5.201596999999964
 20
9.957990999999993
 30
0.0
 11
15.55276999999995
 21
10.13867199999999
 31
0.0
  0
LINE
  5
6652
330
1F
100
AcDbEntity
  8
AM_0
100
AcDbLine
 10
15.80316999999995
 20
11.135741
 30
0.0
 11
5.451996999999949
 21
10.95506099999994
 31
0.0
  0
LINE
  5
6654
330
1F
100
AcDbEntity
  8
AM_0
100
AcDbLine
 10
5.702396999999962
 20
11.95213099999995
 30
0.0
 11
16.05356999999995
 21
12.132811
 31
0.0
  0
LINE
  5
665D
330
1F
100
AcDbEntity
  8
AM_0
100
AcDbLine
 10
3.23628199999996
 20
2.18598099999997
 30
0.0
 11
14.74557099999996
 21
2.386875999999973
 31
0.0
  0
LINE
  5
665E
330
1F
100
AcDbEntity
  8
AM_0
100
AcDbLine
 10
2.523797999999971
 20
2.924328999999972
 30
0.0
 11
2.524018999999953
 21
2.880160999999987
 31
0.0
  0
ARC
  5
6662
330
1F
100
AcDbEntity
  8
AM_0
100
AcDbCircle
 10
36.31552699999999
 20
11.30266899999998
 30
0.0
 40
3.000000036522661
100
AcDbArc
 50
356.1008781711591
 51
16.09902461344065
  0
ARC
  5
6663
330
1F
100
AcDbEntity
  8
AM_0
100
AcDbCircle
 10
20.13407699999999
 20
28.98061899999999
 30
0.0
 40
2.999999989896661
100
AcDbArc
 50
90.9309445923541
 51
105.8335710621362
  0
ARC
  5
6664
330
1F
100
AcDbEntity
  8
AM_0
100
AcDbCircle
 10
31.16165699999998
 20
29.15981499999998
 30
0.0
 40
2.99999942970428
100
AcDbArc
 50
16.09902990944882
 51
90.93096368842623
  0
ARC
  5
6685
330
1F
100
AcDbEntity
  8
AM_0
100
AcDbCircle
 10
27.04030299999999
 20
18.532151
 30
0.0
 40
7.21196748334468
100
AcDbArc
 50
103.3945826086217
 51
176.1008684728857
  0
ARC
  5
6686
330
1F
100
AcDbEntity
  8
AM_0
100
AcDbCircle
 10
27.05761499999998
 20
18.459452
 30
0.0
 40
7.28669916988899
100
AcDbArc
 50
31.25137347840402
 51
103.3945819887169
  0
ARC
  5
6687
330
1F
100
AcDbEntity
  8
AM_0
100
AcDbCircle
 10
27.15291499999999
 20
18.10357499999998
 30
0.0
 40
7.14653919314936
100
AcDbArc
 50
359.3928884064646
 51
1.001152237590619
  0
ARC
  5
6688
330
1F
100
AcDbEntity
  8
AM_0
100
AcDbCircle
 10
27.15357699999998
 20
18.103568
 30
0.0
 40
7.14587672358858
100
AcDbArc
 50
357.7844700075597
 51
359.392888287176
  0
ARC
  5
6689
330
1F
100
AcDbEntity
  8
AM_0
100
AcDbCircle
 10
27.18140699999998
 20
18.52248500000002
 30
0.0
 40
7.14659888813139
100
AcDbArc
 50
359.9484894229095
 51
0.9103122369571951
  0
ARC
  5
668A
330
1F
100
AcDbEntity
  8
AM_0
100
AcDbCircle
 10
27.18186999999999
 20
18.52248399999996
 30
0.0
 40
7.14613574926113
100
AcDbArc
 50
358.986602436068
 51
359.9484941032516
  0
ARC
  5
668B
330
1F
100
AcDbEntity
  8
AM_0
100
AcDbCircle
 10
27.18208699999998
 20
18.52247999999997
 30
0.0
 40
7.1459183521863
100
AcDbArc
 50
357.5437595687853
 51
358.9866037307174
  0
ARC
  5
668C
330
1F
100
AcDbEntity
  8
AM_0
100
AcDbCircle
 10
27.18234699999998
 20
18.522469
 30
0.0
 40
7.14565898689525
100
AcDbArc
 50
356.1008685686563
 51
357.5437583439299
  0
ARC
  5
668D
330
1F
100
AcDbEntity
  8
AM_0
100
AcDbCircle
 10
27.01927399999998
 20
18.53358399999996
 30
0.0
 40
7.19088970269667
100
AcDbArc
 50
176.1008661424137
 51
239.3897887295837
  0
ARC
  5
668E
330
1F
100
AcDbEntity
  8
AM_0
100
AcDbCircle
 10
27.07534199999999
 20
18.62835100000001
 30
0.0
 40
7.301001145245769
100
AcDbArc
 50
239.3897876926593
 51
301.9036012586841
  0
ARC
  5
668F
330
1F
100
AcDbEntity
  8
AM_0
100
AcDbCircle
 10
27.11780399999999
 20
18.56014199999999
 30
0.0
 40
7.22065419937951
100
AcDbArc
 50
301.9036033585165
 51
328.8704590790234
  0
ARC
  5
6690
330
1F
100
AcDbEntity
  8
AM_0
100
AcDbCircle
 10
27.17990599999999
 20
18.52263599999998
 30
0.0
 40
7.14810552896283
100
AcDbArc
 50
328.870459040635
 51
356.1008635586322
  0
ARC
  5
6691
330
1F
100
AcDbEntity
  8
AM_0
100
AcDbCircle
 10
27.04649699999999
 20
18.107888
 30
0.0
 40
7.24704155072268
100
AcDbArc
 50
87.68482197228434
 51
174.4172724873346
  0
ARC
  5
6692
330
1F
100
AcDbEntity
  8
AM_0
100
AcDbCircle
 10
27.04624699999998
 20
18.10171099999997
 30
0.0
 40
7.25322324744524
100
AcDbArc
 50
1.001151900736267
 51
87.68481986435046
  0
ARC
  5
66CD
330
1F
100
AcDbEntity
  8
AM_0
100
AcDbCircle
 10
30.44668099999998
 20
5.996724999999969
 30
0.0
 40
2.01148539127184
100
AcDbArc
 50
236.1459098130087
 51
268.4405758629235
  0
ARC
  5
66CE
330
1F
100
AcDbEntity
  8
AM_0
100
AcDbCircle
 10
30.44661599999999
 20
5.994355999999982
 30
0.0
 40
2.00911508611776
100
AcDbArc
 50
268.4405903104083
 51
300.7713821376121
  0
ARC
  5
66CF
330
1F
100
AcDbEntity
  8
AM_0
100
AcDbCircle
 10
36.27074299999998
 20
10.51051100000001
 30
0.0
 40
2.99855990207066
100
AcDbArc
 50
300.7713923728147
 51
306.2708467761239
  0
ARC
  5
66D0
330
1F
100
AcDbEntity
  8
AM_0
100
AcDbCircle
 10
36.27559699999999
 20
10.503897
 30
0.0
 40
2.990355650784371
100
AcDbArc
 50
306.2708357571747
 51
311.785347992883
  0
ARC
  5
66D1
330
1F
100
AcDbEntity
  8
AM_0
100
AcDbCircle
 10
36.27839499999999
 20
10.500765
 30
0.0
 40
2.98615586181582
100
AcDbArc
 50
311.7853607303688
 51
317.3000529650021
  0
ARC
  5
66D2
330
1F
100
AcDbEntity
  8
AM_0
100
AcDbCircle
 10
36.28434399999998
 20
10.49527599999999
 30
0.0
 40
2.97806225524736
100
AcDbArc
 50
317.3000449195065
 51
322.8296910805
  0
ARC
  5
66D3
330
1F
100
AcDbEntity
  8
AM_0
100
AcDbCircle
 10
36.287403
 20
10.49295699999999
 30
0.0
 40
2.97422308348685
100
AcDbArc
 50
322.8296847889113
 51
328.3595069171315
  0
ARC
  5
66D4
330
1F
100
AcDbEntity
  8
AM_0
100
AcDbCircle
 10
36.29319399999999
 20
10.48938900000002
 30
0.0
 40
2.96742131417464
100
AcDbArc
 50
328.3595021313318
 51
333.901973774909
  0
ARC
  5
66D5
330
1F
100
AcDbEntity
  8
AM_0
100
AcDbCircle
 10
36.297164
 20
10.48744399999998
 30
0.0
 40
2.96300030720637
100
AcDbArc
 50
333.9019787527348
 51
344.9899673029123
  0
ARC
  5
66D6
330
1F
100
AcDbEntity
  8
AM_0
100
AcDbCircle
 10
36.30309899999999
 20
10.48585199999997
 30
0.0
 40
2.95685529795778
100
AcDbArc
 50
344.9899786755175
 51
356.1008810538755
  0
ARC
  5
66D7
330
1F
100
AcDbEntity
  8
AM_0
100
AcDbCircle
 10
27.12453399999998
 20
18.10552999999999
 30
0.0
 40
5.17498649093193
100
AcDbArc
 50
358.5511387845218
 51
1.001152085814382
  0
ARC
  5
66D8
330
1F
100
AcDbEntity
  8
AM_0
100
AcDbCircle
 10
27.12507799999999
 20
18.10551599999997
 30
0.0
 40
5.174442235351941
100
AcDbArc
 50
356.1008678242226
 51
358.5511414491481
  0
ARC
  5
66D9
330
1F
100
AcDbEntity
  8
AM_0
100
AcDbCircle
 10
27.046342
 20
18.110882
 30
0.0
 40
5.24664067398493
100
AcDbArc
 50
88.51434390043785
 51
176.100861469068
  0
ARC
  5
66DA
330
1F
100
AcDbEntity
  8
AM_0
100
AcDbCircle
 10
27.04616799999998
 20
18.10415999999998
 30
0.0
 40
5.25336396682584
100
AcDbArc
 50
1.001157975969871
 51
88.51434758320177
  0
ARC
  5
66DB
330
1F
100
AcDbEntity
  8
AM_0
100
AcDbCircle
 10
26.97433699999999
 20
18.11579
 30
0.0
 40
5.17446731348504
100
AcDbArc
 50
176.1008645536968
 51
185.1683984293607
  0
ARC
  5
66DC
330
1F
100
AcDbEntity
  8
AM_0
100
AcDbCircle
 10
26.98156799999998
 20
18.116444
 30
0.0
 40
5.18172767896663
100
AcDbArc
 50
185.168397862749
 51
194.2232686507729
  0
ARC
  5
66DD
330
1F
100
AcDbEntity
  8
AM_0
100
AcDbCircle
 10
26.988479
 20
18.11819600000001
 30
0.0
 40
5.18885711983669
100
AcDbArc
 50
194.2232714495907
 51
203.2773996528315
  0
ARC
  5
66DE
330
1F
100
AcDbEntity
  8
AM_0
100
AcDbCircle
 10
27.00596399999999
 20
18.12571800000001
 30
0.0
 40
5.20789117104055
100
AcDbArc
 50
203.277399088093
 51
212.298570402082
  0
ARC
  5
66DF
330
1F
100
AcDbEntity
  8
AM_0
100
AcDbCircle
 10
27.01572599999999
 20
18.131889
 30
0.0
 40
5.21944001966389
100
AcDbArc
 50
212.2985709651973
 51
221.3185514783574
  0
ARC
  5
66E0
330
1F
100
AcDbEntity
  8
AM_0
100
AcDbCircle
 10
27.03343599999998
 20
18.14745799999997
 30
0.0
 40
5.24302114960572
100
AcDbArc
 50
221.3185533008452
 51
230.2981297863218
  0
ARC
  5
66E1
330
1F
100
AcDbEntity
  8
AM_0
100
AcDbCircle
 10
27.04082299999999
 20
18.15635500000002
 30
0.0
 40
5.25458531049026
100
AcDbArc
 50
230.2981291345022
 51
239.2765484155775
  0
ARC
  5
66E2
330
1F
100
AcDbEntity
  8
AM_0
100
AcDbCircle
 10
27.05058999999999
 20
18.17279000000002
 30
0.0
 40
5.273702651956969
100
AcDbArc
 50
239.2765529886024
 51
248.2225641608946
  0
ARC
  5
66E3
330
1F
100
AcDbEntity
  8
AM_0
100
AcDbCircle
 10
27.05324499999999
 20
18.17943399999996
 30
0.0
 40
5.28085741227966
100
AcDbArc
 50
248.2225578715013
 51
257.1678664516774
  0
ARC
  5
66E4
330
1F
100
AcDbEntity
  8
AM_0
100
AcDbCircle
 10
27.05486899999998
 20
18.18656399999998
 30
0.0
 40
5.288170303430861
100
AcDbArc
 50
257.1678675287911
 51
266.1008628637692
  0
ARC
  5
66E5
330
1F
100
AcDbEntity
  8
AM_0
100
AcDbCircle
 10
27.05486899999998
 20
18.18656399999998
 30
0.0
 40
5.28817051231416
100
AcDbArc
 50
266.1008628637692
 51
275.0338644639012
  0
ARC
  5
66E6
330
1F
100
AcDbEntity
  8
AM_0
100
AcDbCircle
 10
27.05550999999998
 20
18.17928000000001
 30
0.0
 40
5.280858265167611
100
AcDbArc
 50
275.0338710111406
 51
283.9791780242888
  0
ARC
  5
66E7
330
1F
100
AcDbEntity
  8
AM_0
100
AcDbCircle
 10
27.057239
 20
18.17233699999997
 30
0.0
 40
5.27370306791358
100
AcDbArc
 50
283.9791717466096
 51
292.925180283109
  0
ARC
  5
66E8
330
1F
100
AcDbEntity
  8
AM_0
100
AcDbCircle
 10
27.06468599999998
 20
18.15472899999998
 30
0.0
 40
5.25458506522142
100
AcDbArc
 50
292.9251805968474
 51
301.9036076571736
  0
ARC
  5
66E9
330
1F
100
AcDbEntity
  8
AM_0
100
AcDbCircle
 10
27.07079799999998
 20
18.14491099999998
 30
0.0
 40
5.24301992361749
100
AcDbArc
 50
301.9036078846143
 51
310.8831860216576
  0
ARC
  5
66EA
330
1F
100
AcDbEntity
  8
AM_0
100
AcDbCircle
 10
27.08623099999998
 20
18.12708399999997
 30
0.0
 40
5.21944068114142
100
AcDbArc
 50
310.8831866622629
 51
319.9031639787717
  0
ARC
  5
66EB
330
1F
100
AcDbEntity
  8
AM_0
100
AcDbCircle
 10
27.09506499999999
 20
18.11964499999999
 30
0.0
 40
5.20789234990816
100
AcDbArc
 50
319.9031716789925
 51
328.9243422645828
  0
ARC
  5
66EC
330
1F
100
AcDbEntity
  8
AM_0
100
AcDbCircle
 10
27.11136799999999
 20
18.10982000000001
 30
0.0
 40
5.1888573685828
100
AcDbArc
 50
328.9243408089416
 51
337.9784584511718
  0
ARC
  5
66ED
330
1F
100
AcDbEntity
  8
AM_0
100
AcDbCircle
 10
27.11797799999999
 20
18.107147
 30
0.0
 40
5.181727757699361
100
AcDbArc
 50
337.9784532784086
 51
347.0333378842433
  0
ARC
  5
66EE
330
1F
100
AcDbEntity
  8
AM_0
100
AcDbCircle
 10
27.12505299999999
 20
18.10551800000002
 30
0.0
 40
5.17446683447754
100
AcDbArc
 50
347.033337269327
 51
356.1008645536968
  0
ARC
  5
66F7
330
1F
100
AcDbEntity
  8
AM_0
100
AcDbCircle
 10
14.38948799999999
 20
2.233677
 30
0.0
 40
10.0591035350835
100
AcDbArc
 50
65.34629283066111
 51
74.51862739195953
  0
ARC
  5
66F8
330
1F
100
AcDbEntity
  8
AM_0
100
AcDbCircle
 10
14.40232999999998
 20
2.261656999999985
 30
0.0
 40
10.0283175515454
100
AcDbArc
 50
56.14592176216307
 51
65.3462929190638
  0
ARC
  5
66F9
330
1F
100
AcDbEntity
  8
AM_0
100
AcDbCircle
 10
0.3974559999999769
 20
0.398415
 30
0.0
 40
0.397448594871088
100
AcDbArc
 50
150.911105106637
 51
174.9791566418039
  0
ARC
  5
66FA
330
1F
100
AcDbEntity
  8
AM_0
100
AcDbCircle
 10
0.3970470000000006
 20
0.3984509999999943
 30
0.0
 40
0.39703846001238
100
AcDbArc
 50
174.9791663027758
 51
199.0712848352206
  0
ARC
  5
66FB
330
1F
100
AcDbEntity
  8
AM_0
100
AcDbCircle
 10
0.3982629999999858
 20
0.3988709999999855
 30
0.0
 40
0.398324817132956
100
AcDbArc
 50
199.0712310863115
 51
235.1637643879007
  0
ARC
  5
66FC
330
1F
100
AcDbEntity
  8
AM_0
100
AcDbCircle
 10
0.4000019999999722
 20
0.4013699999999858
 30
0.0
 40
0.401369007704881
100
AcDbArc
 50
235.1637872538753
 51
271.0000203822555
  0
ARC
  5
66FD
330
1F
100
AcDbEntity
  8
AM_0
100
AcDbCircle
 10
21.008242
 20
0.7611779999999726
 30
0.0
 40
0.401459154152695
100
AcDbArc
 50
271.0000816010383
 51
294.8950047902789
  0
ARC
  5
66FE
330
1F
100
AcDbEntity
  8
AM_0
100
AcDbCircle
 10
21.00900799999998
 20
0.7595289999999864
 30
0.0
 40
0.399641081984823
100
AcDbArc
 50
294.89490928174
 51
318.8955630740793
  0
ARC
  5
66FF
330
1F
100
AcDbEntity
  8
AM_0
100
AcDbCircle
 10
21.01039999999999
 20
0.7583139999999844
 30
0.0
 40
0.397792688530092
100
AcDbArc
 50
318.8956163808386
 51
354.9741162549343
  0
ARC
  5
6700
330
1F
100
AcDbEntity
  8
AM_0
100
AcDbCircle
 10
21.01095799999999
 20
0.7582649999999944
 30
0.0
 40
0.397233279617913
100
AcDbArc
 50
354.9741058100823
 51
31.10035160350544
  0
SPLINE
  5
672A
330
1F
100
AcDbEntity
  8
AM_0
100
AcDbSpline
210
0.0
220
0.0
230
1.0
 70
     8
 71
     3
 72
    11
 73
     7
 74
     5
 42
0.0000000001
 43
0.0000000001
 44
0.0000000001
 40
0.0
 40
0.0
 40
0.0
 40
0.0
 40
2.207391187144911
 40
4.424329546100791
 40
6.625744914718901
 40
8.786816574471299
 40
8.786816574471299
 40
8.786816574471299
 40
8.786816574471299
 10
14.23772899999999
 20
12.510558
 30
0.0
 10
13.50227407434405
 20
12.48777164772326
 30
0.0
 10
12.02818331220161
 20
12.44210039008076
 30
0.0
 10
9.819779009123492
 20
12.40891171722007
 30
0.0
 10
7.626582072164017
 20
12.39901123827094
 30
0.0
 10
6.172501642242745
 20
12.41643880203295
 30
0.0
 10
5.452184999999986
 20
12.425072
 30
0.0
 11
14.23772899999999
 21
12.510558
 31
0.0
 11
12.03122299999998
 21
12.44805100000002
 31
0.0
 11
9.814565999999985
 21
12.41273200000001
 31
0.0
 11
7.613163999999983
 21
12.40505999999999
 31
0.0
 11
5.452184999999986
 21
12.425072
 31
0.0
  0
SPLINE
  5
672B
330
1F
100
AcDbEntity
  8
AM_0
100
AcDbSpline
210
0.0
220
0.0
230
1.0
 70
     8
 71
     3
 72
    11
 73
     7
 74
     5
 42
0.0000000001
 43
0.0000000001
 44
0.0000000001
 40
0.0
 40
0.0
 40
0.0
 40
0.0
 40
1.983858591529377
 40
3.991573530093391
 40
6.014197609260087
 40
8.041872811334153
 40
8.041872811334153
 40
8.041872811334153
 40
8.041872811334153
 10
15.17717399999999
 20
4.112960999999984
 30
0.0
 10
15.33157666145575
 20
4.755969256007941
 30
0.0
 10
15.64223871119773
 20
6.049718087336809
 30
0.0
 10
16.11559675749852
 20
7.997766446065688
 30
0.0
 10
16.59583600606574
 20
9.959169954882514
 30
0.0
 10
16.9203431045633
 20
11.26969120185293
 30
0.0
 10
17.08279899999998
 20
11.925769
 30
0.0
 11
15.17717399999999
 21
4.112960999999984
 31
0.0
 11
15.64124699999998
 21
6.041776999999968
 31
0.0
 11
16.11498999999999
 21
7.992798999999991
 31
0.0
 11
16.59629
 21
9.957323999999971
 31
0.0
 11
17.08279899999998
 21
11.925769
 31
0.0
  0
SPLINE
  5
672C
330
1F
100
AcDbEntity
  8
AM_0
100
AcDbSpline
210
0.0
220
0.0
230
1.0
 70
     8
 71
     3
 72
    11
 73
     7
 74
     5
 42
0.0000000001
 43
0.0000000001
 44
0.0000000001
 40
0.0
 40
0.0
 40
0.0
 40
0.0
 40
0.0417037491360091
 40
0.0833517906265755
 40
0.1250900410091776
 40
0.1670622519349705
 40
0.1670622519349705
 40
0.1670622519349705
 40
0.1670622519349705
 10
2.542635999999988
 20
3.089959999999991
 30
0.0
 10
2.539674004754492
 20
3.076373296829108
 30
0.0
 10
2.533753970880935
 20
3.049218039532901
 30
0.0
 10
2.527986793485134
 20
3.007889977674261
 30
0.0
 10
2.524322798068424
 20
2.96623347984277
 30
0.0
 10
2.523973258329805
 20
2.938323161927263
 30
0.0
 10
2.523797999999999
 20
2.924329
 30
0.0
 11
2.542635999999988
 21
3.089959999999991
 31
0.0
 11
2.534269999999992
 21
3.049104
 31
0.0
 11
2.528341999999995
 21
3.00788
 31
0.0
 11
2.524850999999984
 21
2.966287999999992
 31
0.0
 11
2.523797999999999
 21
2.924329
 31
0.0
  0
SPLINE
  5
672F
330
1F
100
AcDbEntity
  8
AM_0
100
AcDbSpline
210
0.0
220
0.0
230
1.0
 70
     8
 71
     3
 72
    11
 73
     7
 74
     5
 42
0.0000000001
 43
0.0000000001
 44
0.0000000001
 40
0.0
 40
0.0
 40
0.0
 40
0.0
 40
0.9465924877543942
 40
1.893820784571998
 40
2.84258355186268
 40
3.792122590215986
 40
3.792122590215986
 40
3.792122590215986
 40
3.792122590215986
 10
34.32710399999999
 20
18.63602499999996
 30
0.0
 10
34.31006173104161
 20
18.95161990621756
 30
0.0
 10
34.27596574614084
 20
19.58302169804649
 30
0.0
 10
34.06439913608634
 20
20.51033466775667
 30
0.0
 10
33.74891121404116
 20
21.4086335943426
 30
0.0
 10
33.44101904004846
 20
21.96263301593177
 30
0.0
 10
33.28700999999998
 20
22.23974599999997
 30
0.0
 11
34.32710399999999
 21
18.63602499999996
 31
0.0
 11
34.24928099999998
 21
19.57941299999999
 31
0.0
 11
34.04726699999999
 21
20.50484899999998
 31
0.0
 11
33.72466099999998
 21
21.39708000000002
 31
0.0
 11
33.28700999999998
 21
22.23974599999997
 31
0.0
  0
SPLINE
  5
6735
330
1F
100
AcDbEntity
  8
AM_0
100
AcDbSpline
210
0.0
220
0.0
230
1.0
 70
     8
 71
     3
 72
    11
 73
     7
 74
     5
 42
0.0000000001
 43
0.0000000001
 44
0.0000000001
 40
0.0
 40
0.0
 40
0.0
 40
0.0
 40
2.847203809864314
 40
5.418376217588092
 40
7.479743875171751
 40
9.397748989711328
 40
9.397748989711328
 40
9.397748989711328
 40
9.397748989711328
 10
13.95694499999998
 20
30.34707099999997
 30
0.0
 10
13.04533244446245
 20
30.08003839042808
 30
0.0
 10
11.31048656744227
 20
29.57186151316626
 30
0.0
 10
8.973772204205483
 20
28.72043559792396
 30
0.0
 10
6.910827706454999
 20
27.94203419918843
 30
0.0
 10
5.872624319420623
 20
27.10301309162077
 30
0.0
 10
5.372223999999989
 20
26.69861600000002
 30
0.0
 11
13.95694499999998
 21
30.34707099999997
 31
0.0
 11
11.23373599999999
 21
29.515986
 31
0.0
 11
8.810907999999984
 21
28.65526999999997
 31
0.0
 11
6.923373999999981
 21
27.82674600000001
 31
0.0
 11
5.372223999999989
 21
26.69861600000002
 31
0.0
  0
SPLINE
  5
6736
330
1F
100
AcDbEntity
  8
AM_0
100
AcDbSpline
210
0.0
220
0.0
230
1.0
 70
     8
 71
     3
 72
    11
 73
     7
 74
     5
 42
0.0000000001
 43
0.0000000001
 44
0.0000000001
 40
0.0
 40
0.0
 40
0.0
 40
0.0
 40
0.4821926817207168
 40
0.9644234314754335
 40
1.447245401381536
 40
1.930135741384317
 40
1.930135741384317
 40
1.930135741384317
 40
1.930135741384317
 10
4.635739999999984
 20
24.94598099999996
 30
0.0
 10
4.654797600305404
 20
25.10596986118571
 30
0.0
 10
4.692914305471171
 20
25.42596021432004
 30
0.0
 10
4.848203778297821
 20
25.88567447296771
 30
0.0
 10
5.067921049703562
 20
26.31851230648401
 30
0.0
 10
5.269507592621222
 20
26.57045882309325
 30
0.0
 10
5.37030799999998
 20
26.69644099999999
 30
0.0
 11
4.635739999999984
 21
24.94598099999996
 31
0.0
 11
4.70925299999999
 21
25.42253699999998
 31
0.0
 11
4.85884999999999
 21
25.88097699999997
 31
0.0
 11
5.081669999999988
 21
26.30930899999999
 31
0.0
 11
5.37030799999998
 21
26.69644099999999
 31
0.0
  0
SPLINE
  5
6738
330
1F
100
AcDbEntity
  8
AM_0
100
AcDbSpline
210
0.0
220
0.0
230
1.0
 70
     8
 71
     3
 72
    11
 73
     7
 74
     5
 42
0.0000000001
 43
0.0000000001
 44
0.0000000001
 40
0.0
 40
0.0
 40
0.0
 40
0.0
 40
0.1682069154375023
 40
0.3368984883034867
 40
0.5062727142795733
 40
0.6767654951238089
 40
0.6767654951238089
 40
0.6767654951238089
 40
0.6767654951238089
 10
5.452184999999986
 20
12.425072
 30
0.0
 10
5.396073467754723
 20
12.42886249515268
 30
0.0
 10
5.283688728157943
 20
12.43645440707578
 30
0.0
 10
5.12125092278721
 20
12.48647154602776
 30
0.0
 10
4.967952038152879
 20
12.56156923342481
 30
0.0
 10
4.879941231774825
 20
12.63344289536351
 30
0.0
 10
4.835790999999986
 20
12.66949799999998
 30
0.0
 11
5.452184999999986
 21
12.425072
 31
0.0
 11
5.284919999999985
 21
12.44284799999997
 31
0.0
 11
5.123103999999998
 21
12.49051800000001
 31
0.0
 11
4.971874999999983
 21
12.56678999999997
 31
0.0
 11
4.835790999999986
 21
12.66949799999998
 31
0.0
  0
SPLINE
  5
6739
330
1F
100
AcDbEntity
  8
AM_0
100
AcDbSpline
210
0.0
220
0.0
230
1.0
 70
     8
 71
     3
 72
    11
 73
     7
 74
     5
 42
0.0000000001
 43
0.0000000001
 44
0.0000000001
 40
0.0
 40
0.0
 40
0.0
 40
0.0
 40
0.166162439955591
 40
0.2927451114592465
 40
0.3915634105793696
 40
0.4717260033829978
 40
0.4717260033829978
 40
0.4717260033829978
 40
0.4717260033829978
 10
4.835790999999986
 20
12.66949799999998
 30
0.0
 10
4.825496879062734
 20
12.61507308228115
 30
0.0
 10
4.807360689067232
 20
12.51918722138493
 30
0.0
 10
4.78640875267183
 20
12.3903479572825
 30
0.0
 10
4.772280276503819
 20
12.28946022782124
 30
0.0
 10
4.766033036068439
 20
12.23012449650666
 30
0.0
 10
4.76323499999998
 20
12.20354900000001
 30
0.0
 11
4.835790999999986
 21
12.66949799999998
 31
0.0
 11
4.805704999999975
 21
12.50608199999999
 31
0.0
 11
4.785439999999994
 21
12.38113199999998
 31
0.0
 11
4.772035999999986
 21
12.28322700000001
 31
0.0
 11
4.76323499999998
 21
12.20354900000001
 31
0.0
  0
LINE
  5
673A
330
1F
100
AcDbEntity
  8
AM_0
100
AcDbLine
 10
4.76323499999998
 20
12.20354900000001
 30
0.0
 11
4.761727999999991
 21
12.18773499999998
 31
0.0
  0
SPLINE
  5
673B
330
1F
100
AcDbEntity
  8
AM_0
100
AcDbSpline
210
0.0
220
0.0
230
1.0
 70
     8
 71
     3
 72
    11
 73
     7
 74
     5
 42
0.0000000001
 43
0.0000000001
 44
0.0000000001
 40
0.0
 40
0.0
 40
0.0
 40
0.0
 40
0.394962372401477
 40
0.7900494295787582
 40
1.183850056578
 40
1.575506197223059
 40
1.575506197223059
 40
1.575506197223059
 40
1.575506197223059
 10
4.757653999999988
 20
12.14049799999998
 30
0.0
 10
4.626034567016813
 20
12.16268005638301
 30
0.0
 10
4.362754150410098
 20
12.20705117175215
 30
0.0
 10
4.040407422199381
 20
12.45716822732509
 30
0.0
 10
3.826235780172137
 20
12.8039163907198
 30
0.0
 10
3.81357907477158
 20
13.06924159750193
 30
0.0
 10
3.807267999999979
 20
13.20154199999996
 30
0.0
 11
4.757653999999988
 21
12.14049799999998
 31
0.0
 11
4.374831999999984
 21
12.23767099999998
 31
0.0
 11
4.058036999999985
 21
12.47375299999999
 31
0.0
 11
3.85848399999999
 21
12.81324899999999
 31
0.0
 11
3.807267999999979
 21
13.20154199999996
 31
0.0
  0
SPLINE
  5
673C
330
1F
100
AcDbEntity
  8
AM_0
100
AcDbSpline
210
0.0
220
0.0
230
1.0
 70
     8
 71
     3
 72
    11
 73
     7
 74
     5
 42
0.0000000001
 43
0.0000000001
 44
0.0000000001
 40
0.0
 40
0.0
 40
0.0
 40
0.0
 40
0.7070547763144023
 40
1.423588401572128
 40
2.148165353119719
 40
2.879246549606816
 40
2.879246549606816
 40
2.879246549606816
 40
2.879246549606816
 10
17.09490899999999
 20
12.22703100000001
 30
0.0
 10
16.864504613529
 20
12.27710024280547
 30
0.0
 10
16.40060701572027
 20
12.37790996182737
 30
0.0
 10
15.6897994507737
 20
12.46994306170018
 30
0.0
 10
14.96687190534191
 20
12.52167054059301
 30
0.0
 10
14.48149955682602
 20
12.51427319792385
 30
0.0
 10
14.23772899999999
 20
12.510558
 30
0.0
 11
17.09490899999999
 21
12.22703100000001
 31
0.0
 11
16.40193099999998
 21
12.36741599999999
 31
0.0
 11
15.69177699999999
 21
12.46281899999997
 31
0.0
 11
14.96880999999999
 21
12.51109400000001
 31
0.0
 11
14.23772899999999
 21
12.510558
 31
0.0
  0
SPLINE
  5
673E
330
1F
100
AcDbEntity
  8
AM_0
100
AcDbSpline
210
0.0
220
0.0
230
1.0
 70
     8
 71
     3
 72
    11
 73
     7
 74
     5
 42
0.0000000001
 43
0.0000000001
 44
0.0000000001
 40
0.0
 40
0.0
 40
0.0
 40
0.0
 40
0.3726811203294533
 40
0.6886248467270442
 40
0.9055367078181243
 40
1.006997582508777
 40
1.006997582508777
 40
1.006997582508777
 40
1.006997582508777
 10
4.191194999999965
 20
5.934658999999954
 30
0.0
 10
4.070228100653573
 20
5.966078422116572
 30
0.0
 10
3.846710439099329
 20
6.024133938103486
 30
0.0
 10
3.573536203145729
 20
6.13794158392861
 30
0.0
 10
3.362439959031895
 20
6.216880534935401
 30
0.0
 10
3.310266076319743
 20
6.31168967269053
 30
0.0
 10
3.293638999999956
 20
6.341903999999943
 30
0.0
 11
4.191194999999965
 21
5.934658999999954
 31
0.0
 11
3.832915999999955
 21
6.037261999999998
 31
0.0
 11
3.537830999999954
 21
6.150156999999979
 31
0.0
 11
3.348981999999978
 21
6.256866000000002
 31
0.0
 11
3.293638999999956
 21
6.341903999999943
 31
0.0
  0
SPLINE
  5
673F
330
1F
100
AcDbEntity
  8
AM_0
100
AcDbSpline
210
0.0
220
0.0
230
1.0
 70
     8
 71
     3
 72
    11
 73
     7
 74
     5
 42
0.0000000001
 43
0.0000000001
 44
0.0000000001
 40
0.0
 40
0.0
 40
0.0
 40
0.0
 40
0.0372508322725884
 40
0.0746195004318754
 40
0.1122161780776321
 40
0.1501470221099217
 40
0.1501470221099217
 40
0.1501470221099217
 40
0.1501470221099217
 10
4.191194999999965
 20
5.934658999999954
 30
0.0
 10
4.203308021570171
 20
5.931905637991461
 30
0.0
 10
4.227572381938693
 20
5.92639020424012
 30
0.0
 10
4.264653207079551
 20
5.921210127724577
 30
0.0
 10
4.302189871441051
 20
5.918097774764901
 30
0.0
 10
4.327375479809492
 20
5.918085942372157
 30
0.0
 10
4.340023999999971
 20
5.918079999999975
 30
0.0
 11
4.191194999999965
 21
5.934658999999954
 31
0.0
 11
4.227631999999971
 21
5.926914999999951
 31
0.0
 11
4.264615999999961
 21
5.921566999999982
 31
0.0
 11
4.302096999999947
 21
5.918619999999976
 31
0.0
 11
4.340023999999971
 21
5.918079999999975
 31
0.0
  0
SPLINE
  5
6741
330
1F
100
AcDbEntity
  8
AM_0
100
AcDbSpline
210
0.0
220
0.0
230
1.0
 70
     8
 71
     3
 72
    11
 73
     7
 74
     5
 42
0.0000000001
 43
0.0000000001
 44
0.0000000001
 40
0.0
 40
0.0
 40
0.0
 40
0.0
 40
0.5930138064775676
 40
1.102305317155895
 40
1.520849978001063
 40
1.906060417955633
 40
1.906060417955633
 40
1.906060417955633
 40
1.906060417955633
 10
15.21565199999996
 20
4.568318999999974
 30
0.0
 10
15.24739135329606
 20
4.765082130413232
 30
0.0
 10
15.30638906552336
 20
5.130829171216704
 30
0.0
 10
15.2095203745669
 20
5.634966794660095
 30
0.0
 10
14.94348799101184
 20
6.028155068574677
 30
0.0
 10
14.66905615001492
 20
6.074071792586475
 30
0.0
 10
14.53753099999997
 20
6.096077999999977
 30
0.0
 11
15.21565199999996
 21
4.568318999999974
 31
0.0
 11
15.27347499999996
 21
5.158506999999986
 31
0.0
 11
15.16490699999997
 21
5.656092000000001
 31
0.0
 11
14.90647599999997
 21
5.985322999999994
 31
0.0
 11
14.53753099999997
 21
6.096077999999977
 31
0.0
  0
SPLINE
  5
6742
330
1F
100
AcDbEntity
  8
AM_0
100
AcDbSpline
210
0.0
220
0.0
230
1.0
 70
     8
 71
     3
 72
    11
 73
     7
 74
     5
 42
0.0000000001
 43
0.0000000001
 44
0.0000000001
 40
0.0
 40
0.0
 40
0.0
 40
0.0
 40
0.1864930971403622
 40
0.3693677746657131
 40
0.5428161970424965
 40
0.7013751555185239
 40
0.7013751555185239
 40
0.7013751555185239
 40
0.7013751555185239
 10
15.05197099999995
 20
8.14453199999997
 30
0.0
 10
15.11412049263291
 20
8.146062475945145
 30
0.0
 10
15.23721362660109
 20
8.149093732880218
 30
0.0
 10
15.41788148535488
 20
8.159362657248963
 30
0.0
 10
15.58901674424713
 20
8.172850067939134
 30
0.0
 10
15.6988934538363
 20
8.186159653355233
 30
0.0
 10
15.75136799999996
 20
8.192516000000012
 30
0.0
 11
15.05197099999995
 21
8.14453199999997
 31
0.0
 11
15.23837999999996
 21
8.150131999999985
 31
0.0
 11
15.42097599999997
 21
8.160223999999971
 31
0.0
 11
15.59383599999995
 21
8.174498999999969
 31
0.0
 11
15.75136799999996
 21
8.192516000000012
 31
0.0
  0
SPLINE
  5
6743
330
1F
100
AcDbEntity
  8
AM_0
100
AcDbSpline
210
0.0
220
0.0
230
1.0
 70
     8
 71
     3
 72
    11
 73
     7
 74
     5
 42
0.0000000001
 43
0.0000000001
 44
0.0000000001
 40
0.0
 40
0.0
 40
0.0
 40
0.0
 40
0.3005681752315345
 40
0.5577174545616124
 40
0.7844129914210842
 40
1.005792810611996
 40
1.005792810611996
 40
1.005792810611996
 40
1.005792810611996
 10
15.94586199999995
 20
8.472154999999987
 30
0.0
 10
15.91899381190346
 20
8.569265743713144
 30
0.0
 10
15.86913870844044
 20
8.749458995219445
 30
0.0
 10
15.72340549394737
 20
8.971025576468261
 30
0.0
 10
15.52824051743196
 20
9.119172000692124
 30
0.0
 10
15.37706234111395
 20
9.134184701015867
 30
0.0
 10
15.30236999999995
 20
9.141601999999978
 30
0.0
 11
15.94586199999995
 21
8.472154999999987
 31
0.0
 11
15.84964299999996
 21
8.756906000000015
 31
0.0
 11
15.70531699999995
 21
8.96973399999996
 31
0.0
 11
15.51981299999996
 21
9.100037999999984
 31
0.0
 11
15.30236999999995
 21
9.141601999999978
 31
0.0
  0
SPLINE
  5
6744
330
1F
100
AcDbEntity
  8
AM_0
100
AcDbSpline
210
0.0
220
0.0
230
1.0
 70
     8
 71
     3
 72
    11
 73
     7
 74
     5
 42
0.0000000001
 43
0.0000000001
 44
0.0000000001
 40
0.0
 40
0.0
 40
0.0
 40
0.0
 40
0.1864940966894207
 40
0.3693687742147748
 40
0.5428161999840721
 40
0.7013750448335494
 40
0.7013750448335494
 40
0.7013750448335494
 40
0.7013750448335494
 10
15.55276999999995
 20
10.13867199999999
 30
0.0
 10
15.61491982504673
 20
10.14020248110539
 30
0.0
 10
15.73801329075261
 20
10.14323374021705
 30
0.0
 10
15.91868116620477
 20
10.15350251995123
 30
0.0
 10
16.08981600127556
 20
10.16699041738418
 30
0.0
 10
16.19969244360324
 20
10.1802990782157
 30
0.0
 10
16.25216699999996
 20
10.18665499999997
 30
0.0
 11
15.55276999999995
 21
10.13867199999999
 31
0.0
 11
15.73917999999996
 21
10.14427199999994
 31
0.0
 11
15.92177599999997
 21
10.15436399999999
 31
0.0
 11
16.09463499999995
 21
10.16863899999999
 31
0.0
 11
16.25216699999996
 21
10.18665499999997
 31
0.0
  0
SPLINE
  5
6745
330
1F
100
AcDbEntity
  8
AM_0
100
AcDbSpline
210
0.0
220
0.0
230
1.0
 70
     8
 71
     3
 72
    11
 73
     7
 74
     5
 42
0.0000000001
 43
0.0000000001
 44
0.0000000001
 40
0.0
 40
0.0
 40
0.0
 40
0.0
 40
0.3005678551092623
 40
0.5577179620837717
 40
0.7844137424459211
 40
1.005792579420014
 40
1.005792579420014
 40
1.005792579420014
 40
1.005792579420014
 10
16.44666099999995
 20
10.46629400000001
 30
0.0
 10
16.41979311253009
 20
10.56340466899956
 30
0.0
 10
16.3699384684274
 20
10.74359813776333
 30
0.0
 10
16.22420606956761
 20
10.96516599461333
 30
0.0
 10
16.02903959644429
 20
11.11331038708158
 30
0.0
 10
15.87786189716877
 20
11.12832351194534
 30
0.0
 10
15.80316999999995
 20
11.135741
 30
0.0
 11
16.44666099999995
 21
10.46629400000001
 31
0.0
 11
16.35044299999996
 21
10.75104499999998
 31
0.0
 11
16.20611699999995
 21
10.96387399999998
 31
0.0
 11
16.02061199999996
 21
11.094177
 31
0.0
 11
15.80316999999995
 21
11.135741
 31
0.0
  0
SPLINE
  5
6746
330
1F
100
AcDbEntity
  8
AM_0
100
AcDbSpline
210
0.0
220
0.0
230
1.0
 70
     8
 71
     3
 72
    11
 73
     7
 74
     5
 42
0.0000000001
 43
0.0000000001
 44
0.0000000001
 40
0.0
 40
0.0
 40
0.0
 40
0.0
 40
0.1864930971403605
 40
0.3693677746657114
 40
0.5428161970424947
 40
0.7013751555185221
 40
0.7013751555185221
 40
0.7013751555185221
 40
0.7013751555185221
 10
16.05356999999995
 20
12.132811
 30
0.0
 10
16.11571949263291
 20
12.13434147594515
 30
0.0
 10
16.23881262660109
 20
12.13737273288018
 30
0.0
 10
16.41948048535488
 20
12.14764165724895
 30
0.0
 10
16.59061574424712
 20
12.16112906793911
 30
0.0
 10
16.7004924538363
 20
12.17443865335521
 30
0.0
 10
16.75296699999996
 20
12.18079499999999
 30
0.0
 11
16.05356999999995
 21
12.132811
 31
0.0
 11
16.23997899999996
 21
12.13841099999996
 31
0.0
 11
16.42257499999997
 21
12.14850299999995
 31
0.0
 11
16.59543499999995
 21
12.16277799999995
 31
0.0
 11
16.75296699999996
 21
12.18079499999999
 31
0.0
  0
SPLINE
  5
674A
330
1F
100
AcDbEntity
  8
AM_0
100
AcDbSpline
210
0.0
220
0.0
230
1.0
 70
     8
 71
     3
 72
    11
 73
     7
 74
     5
 42
0.0000000001
 43
0.0000000001
 44
0.0000000001
 40
0.0
 40
0.0
 40
0.0
 40
0.0
 40
0.1438192772509907
 40
0.3062748737443165
 40
0.4823619236060419
 40
0.6666130634803932
 40
0.6666130634803932
 40
0.6666130634803932
 40
0.6666130634803932
 10
5.036613999999958
 20
11.97628500000002
 30
0.0
 10
5.084337046283626
 20
11.97166513903858
 30
0.0
 10
5.185967163293017
 20
11.96182676855218
 30
0.0
 10
5.346626606550226
 20
11.95425720425931
 30
0.0
 10
5.520863927370341
 20
11.95021018316787
 30
0.0
 10
5.640978838206693
 20
11.95148112922291
 30
0.0
 10
5.702396999999962
 20
11.95213099999995
 30
0.0
 11
5.036613999999958
 21
11.97628500000002
 31
0.0
 11
5.179866999999945
 21
11.96353499999998
 31
0.0
 11
5.342102999999952
 21
11.95509099999998
 31
0.0
 11
5.518147999999968
 21
11.95124299999998
 31
0.0
 11
5.702396999999962
 21
11.95213099999995
 31
0.0
  0
SPLINE
  5
674B
330
1F
100
AcDbEntity
  8
AM_0
100
AcDbSpline
210
0.0
220
0.0
230
1.0
 70
     8
 71
     3
 72
    11
 73
     7
 74
     5
 42
0.0000000001
 43
0.0000000001
 44
0.0000000001
 40
0.0
 40
0.0
 40
0.0
 40
0.0
 40
0.2438778172199995
 40
0.5278673417116402
 40
0.8574207948099296
 40
1.228499095172556
 40
1.228499095172556
 40
1.228499095172556
 40
1.228499095172556
 10
5.451996999999949
 20
10.95506099999994
 30
0.0
 10
5.370785942801776
 20
10.94346294524326
 30
0.0
 10
5.195006671978965
 20
10.91835925027329
 30
0.0
 10
4.946311656900359
 20
10.76540036863301
 30
0.0
 10
4.701069734228161
 20
10.54590258336026
 30
0.0
 10
4.561968646232512
 20
10.35739826817125
 30
0.0
 10
4.488295999999963
 20
10.25755999999996
 30
0.0
 11
5.451996999999949
 21
10.95506099999994
 31
0.0
 11
5.213202999999965
 21
10.90552499999996
 31
0.0
 11
4.964913999999965
 21
10.767675
 31
0.0
 11
4.71924599999997
 21
10.54800999999998
 31
0.0
 11
4.488295999999963
 21
10.25755999999996
 31
0.0
  0
SPLINE
  5
674C
330
1F
100
AcDbEntity
  8
AM_0
100
AcDbSpline
210
0.0
220
0.0
230
1.0
 70
     8
 71
     3
 72
    11
 73
     7
 74
     5
 42
0.0000000001
 43
0.0000000001
 44
0.0000000001
 40
0.0
 40
0.0
 40
0.0
 40
0.0
 40
0.1438201846647237
 40
0.3062748344904643
 40
0.4823628841133857
 40
0.6666130239993535
 40
0.6666130239993535
 40
0.6666130239993535
 40
0.6666130239993535
 10
4.535813999999959
 20
9.982145000000003
 30
0.0
 10
4.583537392449592
 20
9.977525656615661
 30
0.0
 10
4.685167592396203
 20
9.967688451679564
 30
0.0
 10
4.845827224099562
 20
9.960116657132204
 30
0.0
 10
5.020064269424145
 20
9.956070336070246
 30
0.0
 10
5.140179174466238
 20
9.957341183287756
 30
0.0
 10
5.201596999999964
 20
9.957990999999993
 30
0.0
 11
4.535813999999959
 21
9.982145000000003
 31
0.0
 11
4.679067999999944
 21
9.969396000000018
 31
0.0
 11
4.841302999999954
 21
9.960950999999966
 31
0.0
 11
5.017348999999967
 21
9.957103000000018
 31
0.0
 11
5.201596999999964
 21
9.957990999999993
 31
0.0
  0
SPLINE
  5
674D
330
1F
100
AcDbEntity
  8
AM_0
100
AcDbSpline
210
0.0
220
0.0
230
1.0
 70
     8
 71
     3
 72
    11
 73
     7
 74
     5
 42
0.0000000001
 43
0.0000000001
 44
0.0000000001
 40
0.0
 40
0.0
 40
0.0
 40
0.0
 40
0.2438789994935809
 40
0.5278680385813926
 40
0.857420746223082
 40
1.228499668961917
 40
1.228499668961917
 40
1.228499668961917
 40
1.228499668961917
 10
4.951197999999948
 20
8.960921999999982
 30
0.0
 10
4.869986657351772
 20
8.949323510683408
 30
0.0
 10
4.694207388766648
 20
8.924218963679529
 30
0.0
 10
4.445511366780593
 20
8.771262011074059
 30
0.0
 10
4.200270811907092
 20
8.551762804479489
 30
0.0
 10
4.061169108619305
 20
8.363259119420757
 30
0.0
 10
3.987495999999965
 20
8.263420999999994
 30
0.0
 11
4.951197999999948
 21
8.960921999999982
 31
0.0
 11
4.712402999999966
 21
8.911384999999996
 31
0.0
 11
4.464113999999938
 21
8.773535999999979
 31
0.0
 11
4.218446999999969
 21
8.553871000000015
 31
0.0
 11
3.987495999999965
 21
8.263420999999994
 31
0.0
  0
SPLINE
  5
674E
330
1F
100
AcDbEntity
  8
AM_0
100
AcDbSpline
210
0.0
220
0.0
230
1.0
 70
     8
 71
     3
 72
    11
 73
     7
 74
     5
 42
0.0000000001
 43
0.0000000001
 44
0.0000000001
 40
0.0
 40
0.0
 40
0.0
 40
0.0
 40
0.1438192772509857
 40
0.3062748737443144
 40
0.4823619236060385
 40
0.6666130634803898
 40
0.6666130634803898
 40
0.6666130634803898
 40
0.6666130634803898
 10
4.035014999999959
 20
7.988005999999984
 30
0.0
 10
4.082738046283627
 20
7.983386139038572
 30
0.0
 10
4.184368163293024
 20
7.973547768552235
 30
0.0
 10
4.345027606550222
 20
7.965978204259223
 30
0.0
 10
4.519264927370342
 20
7.961931183167923
 30
0.0
 10
4.639379838206694
 20
7.963202129222945
 30
0.0
 10
4.700797999999963
 20
7.963851999999974
 30
0.0
 11
4.035014999999959
 21
7.988005999999984
 31
0.0
 11
4.178267999999946
 21
7.975256000000002
 31
0.0
 11
4.340503999999953
 21
7.966811999999948
 31
0.0
 11
4.516548999999969
 21
7.962964
 31
0.0
 11
4.700797999999963
 21
7.963851999999974
 31
0.0
  0
SPLINE
  5
674F
330
1F
100
AcDbEntity
  8
AM_0
100
AcDbSpline
210
0.0
220
0.0
230
1.0
 70
     8
 71
     3
 72
     8
 73
     4
 74
     0
 42
0.0000000001
 43
0.0000000001
 40
0.9456113710543561
 40
0.9456113710543561
 40
0.9456113710543561
 40
0.9456113710543561
 40
1.22849897209222
 40
1.22849897209222
 40
1.22849897209222
 40
1.22849897209222
 10
5.16198656013939
 20
12.4760143778156
 30
0.0
 10
5.101422601659003
 20
12.40391987404382
 30
0.0
 10
5.04525880082948
 20
12.32780943702193
 30
0.0
 10
4.989094999999963
 20
12.25169899999997
 30
0.0
  0
SPLINE
  5
6753
330
1F
100
AcDbEntity
  8
AM_0
100
AcDbSpline
210
0.0
220
0.0
230
1.0
 70
     8
 71
     3
 72
    11
 73
     7
 74
     5
 42
0.0000000001
 43
0.0000000001
 44
0.0000000001
 40
0.0
 40
0.0
 40
0.0
 40
0.0
 40
0.2752649813470637
 40
0.5502374199731995
 40
0.8248274466839358
 40
1.09926929906801
 40
1.09926929906801
 40
1.09926929906801
 40
1.09926929906801
 10
3.23628199999996
 20
2.18598099999997
 30
0.0
 10
3.143657976912111
 20
2.195033262484605
 30
0.0
 10
2.958508368552969
 20
2.213128167002032
 30
0.0
 10
2.72322619677243
 20
2.372826341272813
 30
0.0
 10
2.55765875550664
 20
2.6037600160332
 30
0.0
 10
2.535230234143904
 20
2.788043917036824
 30
0.0
 10
2.524018999999953
 20
2.880160999999987
 30
0.0
 11
3.23628199999996
 21
2.18598099999997
 31
0.0
 11
2.965465999999964
 21
2.235270999999983
 31
0.0
 11
2.734717999999958
 21
2.384820999999988
 31
0.0
 11
2.579612999999938
 21
2.611408999999981
 31
0.0
 11
2.524018999999953
 21
2.880160999999987
 31
0.0
  0
SPLINE
  5
6754
330
1F
100
AcDbEntity
  8
AM_0
100
AcDbSpline
210
0.0
220
0.0
230
1.0
 70
     8
 71
     3
 72
    11
 73
     7
 74
     5
 42
0.0000000001
 43
0.0000000001
 44
0.0000000001
 40
0.0
 40
0.0
 40
0.0
 40
0.0
 40
0.0832330291410779
 40
0.1711524429073139
 40
0.2726712428657819
 40
0.3787116379847957
 40
0.3787116379847957
 40
0.3787116379847957
 40
0.3787116379847957
 10
15.75136799999996
 20
8.192516000000012
 30
0.0
 10
15.7788364204592
 20
8.198720953588714
 30
0.0
 10
15.83531985393408
 20
8.211480226869908
 30
0.0
 10
15.90496724545966
 20
8.274901646339515
 30
0.0
 10
15.95094152730125
 20
8.36613769340441
 30
0.0
 10
15.94757958860301
 20
8.436306365523761
 30
0.0
 10
15.94586199999995
 20
8.472154999999987
 30
0.0
 11
15.75136799999996
 21
8.192516000000012
 31
0.0
 11
15.83075399999997
 21
8.217527999999959
 31
0.0
 11
15.89741999999995
 21
8.274846999999966
 31
0.0
 11
15.94170799999996
 21
8.366196000000002
 31
0.0
 11
15.94586199999995
 21
8.472154999999987
 31
0.0
  0
SPLINE
  5
6755
330
1F
100
AcDbEntity
  8
AM_0
100
AcDbSpline
210
0.0
220
0.0
230
1.0
 70
     8
 71
     3
 72
    11
 73
     7
 74
     5
 42
0.0000000001
 43
0.0000000001
 44
0.0000000001
 40
0.0
 40
0.0
 40
0.0
 40
0.0
 40
0.0832339829216527
 40
0.1711532903859329
 40
0.272672090344401
 40
0.3787114862310105
 40
0.3787114862310105
 40
0.3787114862310105
 40
0.3787114862310105
 10
16.25216699999996
 20
10.18665499999997
 30
0.0
 10
16.27963587410167
 20
10.19285978168248
 30
0.0
 10
16.33611987283246
 20
10.20561861844374
 30
0.0
 10
16.40576586987399
 20
10.26904213875082
 30
0.0
 10
16.45174051380823
 20
10.36027725004572
 30
0.0
 10
16.44837857880103
 20
10.43044566310132
 30
0.0
 10
16.44666099999995
 20
10.46629400000001
 30
0.0
 11
16.25216699999996
 21
10.18665499999997
 31
0.0
 11
16.33155399999997
 21
10.21166699999998
 31
0.0
 11
16.39821899999996
 21
10.26898699999998
 31
0.0
 11
16.44250699999996
 21
10.36033600000002
 31
0.0
 11
16.44666099999995
 21
10.46629400000001
 31
0.0
  0
SPLINE
  5
6756
330
1F
100
AcDbEntity
  8
AM_0
100
AcDbSpline
210
0.0
220
0.0
230
1.0
 70
     8
 71
     3
 72
    10
 73
     6
 74
     0
 42
0.0000000001
 43
0.0000000001
 40
0.0
 40
0.0
 40
0.0
 40
0.0
 40
0.0832327286408546
 40
0.1711527943596535
 40
0.177767709947837
 40
0.177767709947837
 40
0.177767709947837
 40
0.177767709947837
 10
16.75296699999996
 20
12.18079499999999
 30
0.0
 10
16.78043549034766
 20
12.18699950234083
 30
0.0
 10
16.83691938744704
 20
12.19975791997996
 30
0.0
 10
16.88232524325458
 20
12.24110634126208
 30
0.0
 10
16.90176218922059
 20
12.2666885422538
 30
0.0
 10
16.90309833872819
 20
12.2684954616837
 30
0.0
  0
SPLINE
  5
6757
330
1F
100
AcDbEntity
  8
AM_0
100
AcDbSpline
210
0.0
220
0.0
230
1.0
 70
     8
 71
     3
 72
    11
 73
     7
 74
     5
 42
0.0000000001
 43
0.0000000001
 44
0.0000000001
 40
0.0
 40
0.0
 40
0.0
 40
0.0
 40
0.0701313305805747
 40
0.1441278314234518
 40
0.2400086215850487
 40
0.3400030222532567
 40
0.3400030222532567
 40
0.3400030222532567
 40
0.3400030222532567
 10
5.036613999999958
 20
11.97628500000002
 30
0.0
 10
5.012544524731466
 20
11.98136594901641
 30
0.0
 10
4.963079025571109
 20
11.99180787500361
 30
0.0
 10
4.926143901335724
 20
12.07363516774998
 30
0.0
 10
4.941199025211921
 20
12.16503217277008
 30
0.0
 10
4.972907701842349
 20
12.22240840138593
 30
0.0
 10
4.989094999999963
 20
12.25169899999997
 30
0.0
 11
5.036613999999958
 21
11.97628500000002
 31
0.0
 11
4.970865999999944
 21
12.00069000000002
 31
0.0
 11
4.936269999999951
 21
12.06610099999995
 31
0.0
 11
4.945948999999956
 21
12.16149200000001
 31
0.0
 11
4.989094999999963
 21
12.25169899999997
 31
0.0
  0
SPLINE
  5
6758
330
1F
100
AcDbEntity
  8
AM_0
100
AcDbSpline
210
0.0
220
0.0
230
1.0
 70
     8
 71
     3
 72
    11
 73
     7
 74
     5
 42
0.0000000001
 43
0.0000000001
 44
0.0000000001
 40
0.0
 40
0.0
 40
0.0
 40
0.0
 40
0.070130393083186
 40
0.1441268939261133
 40
0.2400086789793801
 40
0.3400030796475881
 40
0.3400030796475881
 40
0.3400030796475881
 40
0.3400030796475881
 10
4.535813999999959
 20
9.982145000000003
 30
0.0
 10
4.511744905898302
 20
9.987226038069077
 30
0.0
 10
4.462279850592361
 20
9.997668218735985
 30
0.0
 10
4.425344830820225
 20
10.07949549293741
 30
0.0
 10
4.44039986397962
 20
10.17089287662905
 30
0.0
 10
4.47210870178246
 20
10.22826939979241
 30
0.0
 10
4.488295999999963
 20
10.25755999999996
 30
0.0
 11
4.535813999999959
 21
9.982145000000003
 31
0.0
 11
4.470066999999943
 21
10.00655
 31
0.0
 11
4.43547099999995
 21
10.07196099999999
 31
0.0
 11
4.445149999999956
 21
10.16735299999999
 31
0.0
 11
4.488295999999963
 21
10.25755999999996
 31
0.0
  0
SPLINE
  5
6759
330
1F
100
AcDbEntity
  8
AM_0
100
AcDbSpline
210
0.0
220
0.0
230
1.0
 70
     8
 71
     3
 72
    11
 73
     7
 74
     5
 42
0.0000000001
 43
0.0000000001
 44
0.0000000001
 40
0.0
 40
0.0
 40
0.0
 40
0.0
 40
0.0701313305805747
 40
0.1441273638931619
 40
0.2400080531115931
 40
0.3400033559012938
 40
0.3400033559012938
 40
0.3400033559012938
 40
0.3400033559012938
 10
4.035014999999959
 20
7.988005999999984
 30
0.0
 10
4.010945421307619
 20
7.993086899060968
 30
0.0
 10
3.961479870059306
 20
8.00352868851234
 30
0.0
 10
3.924546514148692
 20
8.085356461482837
 30
0.0
 10
3.939599752225811
 20
8.176753433397851
 30
0.0
 10
3.971308556733663
 20
8.234130055873933
 30
0.0
 10
3.987495999999965
 20
8.263420999999994
 30
0.0
 11
4.035014999999959
 21
7.988005999999984
 31
0.0
 11
3.969266999999945
 21
8.012410999999986
 31
0.0
 11
3.934671999999949
 21
8.077821999999969
 31
0.0
 11
3.944349999999957
 21
8.173212999999976
 31
0.0
 11
3.987495999999965
 21
8.263420999999994
 31
0.0
  0
SPLINE
  5
675B
330
1F
100
AcDbEntity
  8
AM_0
100
AcDbSpline
210
0.0
220
0.0
230
1.0
 70
     8
 71
     3
 72
    11
 73
     7
 74
     5
 42
0.0000000001
 43
0.0000000001
 44
0.0000000001
 40
0.0
 40
0.0
 40
0.0
 40
0.0
 40
0.041704728808629
 40
0.0833527702991975
 40
0.1250910206817701
 40
0.1670632316075914
 40
0.1670632316075914
 40
0.1670632316075914
 40
0.1670632316075914
 10
2.542635999999959
 20
3.089960999999988
 30
0.0
 10
2.539674016350173
 20
3.076373961000024
 30
0.0
 10
2.533754075138624
 20
3.04921835123675
 30
0.0
 10
2.527986777701458
 20
3.007889980870663
 30
0.0
 10
2.524322802043699
 20
2.966233479037694
 30
0.0
 10
2.523973259657345
 20
2.938323161658392
 30
0.0
 10
2.523797999999971
 20
2.924328999999972
 30
0.0
 11
2.542635999999959
 21
3.089960999999988
 31
0.0
 11
2.534269999999964
 21
3.049103999999971
 31
0.0
 11
2.528341999999952
 21
3.007879999999972
 31
0.0
 11
2.524850999999956
 21
2.966287999999992
 31
0.0
 11
2.523797999999971
 21
2.924328999999972
 31
0.0
  0
LINE
  5
6760
330
1F
100
AcDbEntity
  8
AM_0
100
AcDbLine
 10
27.12376999999999
 20
20.406409
 30
0.0
 11
29.08533300000001
 21
19.19678600000003
 31
0.0
  0
LINE
  5
6761
330
1F
100
AcDbEntity
  8
AM_0
100
AcDbLine
 10
25.087431
 20
19.325039
 30
0.0
 11
27.12376999999999
 21
20.406409
 31
0.0
  0
LINE
  5
6762
330
1F
100
AcDbEntity
  8
AM_0
100
AcDbLine
 10
25.01265400000001
 20
17.03404699999999
 30
0.0
 11
25.087431
 21
19.325039
 31
0.0
  0
LINE
  5
6763
330
1F
100
AcDbEntity
  8
AM_0
100
AcDbLine
 10
26.97421700000002
 20
15.82442400000002
 30
0.0
 11
25.01265400000001
 21
17.03404699999999
 31
0.0
  0
LINE
  5
6764
330
1F
100
AcDbEntity
  8
AM_0
100
AcDbLine
 10
29.01055600000002
 20
16.90579400000001
 30
0.0
 11
26.97421700000002
 21
15.82442400000002
 31
0.0
  0
LINE
  5
6765
330
1F
100
AcDbEntity
  8
AM_0
100
AcDbLine
 10
29.08533300000001
 20
19.19678600000003
 30
0.0
 11
29.01055600000002
 21
16.90579400000001
 31
0.0
  0
LINE
  5
6766
330
1F
100
AcDbEntity
  8
AM_0
100
AcDbLine
 10
25.087431
 20
19.325039
 30
0.0
 11
25.088959
 21
19.02037900000005
 31
0.0
  0
LINE
  5
6767
330
1F
100
AcDbEntity
  8
AM_0
100
AcDbLine
 10
25.02390099999998
 20
17.02711199999999
 30
0.0
 11
25.088959
 21
19.02037900000005
 31
0.0
  0
LINE
  5
6768
330
1F
100
AcDbEntity
  8
AM_0
100
AcDbLine
 10
27.12376999999999
 20
20.406409
 30
0.0
 11
27.125298
 21
20.10174900000004
 31
0.0
  0
LINE
  5
6769
330
1F
100
AcDbEntity
  8
AM_0
100
AcDbLine
 10
27.125298
 20
20.10174900000004
 30
0.0
 11
29.07561499999999
 21
18.89906100000002
 31
0.0
  0
LINE
  5
676A
330
1F
100
AcDbEntity
  8
AM_0
100
AcDbLine
 10
25.088959
 20
19.02037900000005
 30
0.0
 11
27.125298
 21
20.10174900000004
 31
0.0
  0
ARC
  5
676B
330
1F
100
AcDbEntity
  8
AM_0
100
AcDbCircle
 10
27.04663699999999
 20
18.11560600000001
 30
0.0
 40
2.50235572516879
100
AcDbArc
 50
266.423084323517
 51
359.9956725172966
  0
ARC
  5
676C
330
1F
100
AcDbEntity
  8
AM_0
100
AcDbCircle
 10
27.046342
 20
18.110882
 30
0.0
 40
2.49762221129317
100
AcDbArc
 50
172.742261108802
 51
266.4230774980404
  0
ARC
  5
676D
330
1F
100
AcDbEntity
  8
AM_0
100
AcDbCircle
 10
27.05135500000002
 20
18.11024300000003
 30
0.0
 40
2.50267642910584
100
AcDbArc
 50
86.43040186023785
 51
172.7422479872096
  0
ARC
  5
676E
330
1F
100
AcDbEntity
  8
AM_0
100
AcDbCircle
 10
27.05169000000002
 20
18.11560600000001
 30
0.0
 40
2.4973030071519
100
AcDbArc
 50
359.9956637611434
 51
86.43041206116301
  0
LINE
  5
676F
330
1F
100
AcDbEntity
  8
AM_7
  6
CENTER
370
    13
100
AcDbLine
 10
27.046342
 20
18.110882
 30
0.0
 11
35.82166422025235
 21
18.110882
 31
0.0
1001
GENIUS_GENOREF_13
1005
6773
  0
LINE
  5
6770
330
1F
100
AcDbEntity
  8
AM_7
  6
CENTER
370
    13
100
AcDbLine
 10
27.046342
 20
18.110882
 30
0.0
 11
27.046342
 21
26.88620422025235
 31
0.0
1001
GENIUS_GENOREF_13
1005
6773
  0
LINE
  5
6771
330
1F
100
AcDbEntity
  8
AM_7
  6
CENTER
370
    13
100
AcDbLine
 10
27.046342
 20
18.110882
 30
0.0
 11
18.27101977974765
 21
18.110882
 31
0.0
1001
GENIUS_GENOREF_13
1005
6773
  0
LINE
  5
6772
330
1F
100
AcDbEntity
  8
AM_7
  6
CENTER
370
    13
100
AcDbLine
 10
27.046342
 20
18.110882
 30
0.0
 11
27.046342
 21
9.335559779747655
 31
0.0
1001
GENIUS_GENOREF_13
1005
6773
  0
POINT
  5
6773
330
1F
100
AcDbEntity
  8
0
 60
     1
370
    13
100
AcDbPoint
 10
54.79264759055288
 20
254.0263429531522
 30
0.0
1001
GENIUS_GENODEF_13
1002
{
1000
HIER
1070
    10
1002
}
1002
{
1000
MANEDIT
1070
     0
1002
}
1002
{
1000
NOSEL
1070
     0
1002
}
1002
{
1000
BEHIND
1070
     0
1002
}
1002
{
1000
OTHER
1070
     0
1002
}
1002
{
1000
REACTOR
1002
}
1001
GENIUS_GENOBJ-N-CRS_13
1002
{
1000
OWNER
1000
GEN
1002
}
1001
GENIUS_GENOENT_13
1002
{
1000
MYREF
1005
6773
1002
}
1002
{
1000
GRP
1005
0
1002
}
1001
GENIUS_GENOLIS_13
1002
{
1000
ENT
1005
6772
1005
6771
1005
6770
1005
676F
1002
}
  0
DIMENSION
  5
6774
330
1F
100
AcDbEntity
  8
AM_5
370
    13
100
AcDbDimension
  2
*D4
 10
196.6936012282075
 20
-0.0000000000000047
 30
0.0
 11
196.6936012282075
 21
15.25634328155269
 31
0.0
 70
   160
 71
     5
 42
32.0
  3
AM_JIS$0
100
AcDbAlignedDimension
 13
180.0
 23
32.0
 33
0.0
 14
180.0
 24
0.0
 34
0.0
 50
90.0
100
AcDbRotatedDimension
1001
ACAD
1000
DSTYLE
1002
{
1070
   271
1070
     0
1002
}
  0
LINE
  5
67AA
330
1F
100
AcDbEntity
  8
AM_5
370
    13
100
AcDbLine
 10
0.0
 20
0.4344680413623223
 30
0.0
 11
0.0
 21
-20.28712696790075
 31
0.0
  0
DIMENSION
  5
67B2
330
1F
100
AcDbEntity
  8
AM_5
370
    13
100
AcDbDimension
  2
*D5
 10
180.0
 20
-30.82573822335422
 30
0.0
 11
83.32060460835538
 21
-30.82573822335422
 31
0.0
 70
   160
 71
     5
 42
180.0
  3
AM_JIS$0
100
AcDbAlignedDimension
 13
0.0
 23
-20.28712696790075
 33
0.0
 14
180.0
 24
0.0
 34
0.0
100
AcDbRotatedDimension
1001
ACAD
1000
DSTYLE
1002
{
1070
   271
1070
     0
1002
}
  0
LINE
  5
67E1
330
1F
100
AcDbEntity
  8
AM_5
370
    13
100
AcDbLine
 10
0.4493133846916066
 20
0.0
 30
0.0
 11
-1.068828603922327
 21
0.0
 31
0.0
  0
DIMENSION
  5
67E4
330
1F
100
AcDbEntity
  8
AM_5
370
    13
100
AcDbDimension
  2
*D6
 10
-15.14090907026519
 20
32.00000000000001
 30
0.0
 11
-18.54128308601323
 21
16.0
 31
0.0
 70
    32
 71
     5
 42
32.00000000000001
  3
AM_JIS$0
100
AcDbAlignedDimension
 13
-1.068828603922327
 23
0.0
 33
0.0
 14
20.57024799999999
 24
32.0
 34
0.0
 50
90.0
100
AcDbRotatedDimension
1001
ACAD
1000
DSTYLE
1002
{
1070
   271
1070
     0
1002
}
  0
DIMENSION
  5
67FC
330
1F
100
AcDbEntity
  8
AM_5
370
    13
100
AcDbDimension
  2
*D7
 10
0.0
 20
-20.28712696790075
 30
0.0
 11
15.03217460063144
 21
-11.5763026835073
 31
0.0
 70
   162
 71
     5
 42
1.588249609507849
  3
AM_JIS
100
AcDb2LineAngularDimension
 13
21.01524899999998
 23
0.3597800000000007
 33
0.0
 14
0.4070069999999788
 24
0.0000619999999856
 34
0.0
 15
0.0
 25
0.4344680413623223
 35
0.0
 16
9.579792498823815
 26
-16.37901942584641
 36
0.0
1001
ACAD
1000
DSTYLE
1002
{
1070
   271
1070
     0
1002
}
  0
DIMENSION
  5
683F
330
1F
100
AcDbEntity
  8
AM_5
370
    13
100
AcDbDimension
  2
*D8
 10
40.99785599999999
 20
44.16300033168608
 30
0.0
 11
20.30578224725133
 21
44.16300033168608
 31
0.0
 70
   160
 71
     5
 42
40.99785599999999
  3
AM_JIS$0
100
AcDbAlignedDimension
 13
0.0
 23
0.0
 33
0.0
 14
40.99785599999999
 24
32.0
 34
0.0
100
AcDbRotatedDimension
1001
ACAD
1000
DSTYLE
1002
{
1070
   271
1070
     0
1002
}
  0
LINE
  5
6A54
330
1F
100
AcDbEntity
  8
AM_0
100
AcDbLine
 10
40.99999700000001
 20
-87.62708187514443
 30
0.0
 11
41.0
 21
-87.12517187514442
 31
0.0
  0
LINE
  5
6A55
330
1F
100
AcDbEntity
  8
AM_0
100
AcDbLine
 10
41.0
 20
-87.12517187514442
 30
0.0
 11
180.0
 21
-87.12517187514442
 31
0.0
  0
LINE
  5
6A56
330
1F
100
AcDbEntity
  8
AM_0
100
AcDbLine
 10
180.0
 20
-119.1251718751445
 30
0.0
 11
180.0
 21
-87.12517187514442
 31
0.0
  0
LINE
  5
6A57
330
1F
100
AcDbEntity
  8
AM_0
100
AcDbLine
 10
30.363336
 20
-119.1251718751445
 30
0.0
 11
180.0
 21
-119.1251718751445
 31
0.0
  0
LINE
  5
6A58
330
1F
100
AcDbEntity
  8
AM_0
100
AcDbLine
 10
27.052753
 20
-87.62708187514443
 30
0.0
 11
30.363336
 21
-119.1251718751445
 31
0.0
  0
LINE
  5
6A59
330
1F
100
AcDbEntity
  8
AM_0
100
AcDbLine
 10
40.99999700000001
 20
-87.62708187514443
 30
0.0
 11
27.052753
 21
-87.62708187514443
 31
0.0
  0
LINE
  5
6A5A
330
1F
100
AcDbEntity
  8
AM_0
100
AcDbLine
 10
40.99787299999997
 20
-87.62708187514443
 30
0.0
 11
40.99787499999997
 21
-87.12517187514442
 31
0.0
  0
LINE
  5
6A5B
330
1F
100
AcDbEntity
  8
AM_0
100
AcDbLine
 10
41.0
 20
-87.12517187514442
 30
0.0
 11
40.99787499999997
 21
-87.12517187514442
 31
0.0
  0
LINE
  5
6A5D
330
1F
100
AcDbEntity
  8
AM_0
100
AcDbLine
 10
2.0
 20
-95.14062363426251
 30
0.0
 11
2.0
 21
-119.1251718751445
 31
0.0
  0
LINE
  5
6A5E
330
1F
100
AcDbEntity
  8
AM_0
100
AcDbLine
 10
21.31894113960777
 20
-87.64939987514441
 30
0.0
 11
27.05509899999998
 21
-87.64939987514444
 31
0.0
  0
LINE
  5
6A5F
330
1F
100
AcDbEntity
  8
AM_0
100
AcDbLine
 10
2.0
 20
-119.1251718751445
 30
0.0
 11
30.363336
 21
-119.1251718751445
 31
0.0
  0
LINE
  5
6A60
330
1F
100
AcDbEntity
  8
AM_0
100
AcDbLine
 10
1.457142999999974
 20
-91.97855987514444
 30
0.0
 11
1.791360999999995
 21
-95.14619187514444
 31
0.0
  0
LINE
  5
6A61
330
1F
100
AcDbEntity
  8
AM_0
100
AcDbLine
 10
1.858277999999984
 20
-95.14040787514443
 30
0.0
 11
1.864133999999979
 21
-91.94338287514444
 31
0.0
  0
LINE
  5
6A62
330
1F
100
AcDbEntity
  8
AM_0
100
AcDbLine
 10
19.52248499999996
 20
-95.16738287514443
 30
0.0
 11
19.52834099999996
 21
-91.97035787514443
 31
0.0
  0
LINE
  5
6A63
330
1F
100
AcDbEntity
  8
AM_0
100
AcDbLine
 10
1.858277999999984
 20
-95.14040787514443
 30
0.0
 11
19.52248499999996
 21
-95.16738287514443
 31
0.0
  0
LINE
  5
6A64
330
1F
100
AcDbEntity
  8
AM_0
100
AcDbLine
 10
1.864133999999979
 20
-91.94338287514444
 30
0.0
 11
19.52834099999996
 21
-91.97035787514443
 31
0.0
  0
LINE
  5
6A65
330
1F
100
AcDbEntity
  8
AM_0
100
AcDbLine
 10
2.523789999999963
 20
-87.01784487514445
 30
0.0
 11
2.523858000000018
 21
-87.12840987514443
 31
0.0
  0
LINE
  5
6A66
330
1F
100
AcDbEntity
  8
AM_0
100
AcDbLine
 10
3.378830999999991
 20
-84.82023087514443
 30
0.0
 11
2.620236999999975
 21
-86.55828787514443
 31
0.0
  0
LINE
  5
6A67
330
1F
100
AcDbEntity
  8
AM_0
100
AcDbLine
 10
4.340023999999971
 20
-84.25678787514443
 30
0.0
 11
14.537531
 21
-84.27235987514445
 31
0.0
  0
LINE
  5
6A68
330
1F
100
AcDbEntity
  8
AM_0
100
AcDbLine
 10
15.527964
 20
-84.63537487514444
 30
0.0
 11
14.96750099999997
 21
-84.36171187514444
 31
0.0
  0
LINE
  5
6A69
330
1F
100
AcDbEntity
  8
AM_0
100
AcDbLine
 10
16.02876299999997
 20
-84.87990487514443
 30
0.0
 11
15.72409399999998
 21
-84.73114087514443
 31
0.0
  0
LINE
  5
6A6A
330
1F
100
AcDbEntity
  8
AM_0
100
AcDbLine
 10
16.529563
 20
-85.12443487514443
 30
0.0
 11
16.22489400000001
 21
-84.97567087514443
 31
0.0
  0
LINE
  5
6A6B
330
1F
100
AcDbEntity
  8
AM_0
100
AcDbLine
 10
17.08396199999999
 20
-85.39513687514443
 30
0.0
 11
16.72569299999998
 21
-85.22020187514443
 31
0.0
  0
LINE
  5
6A6C
330
1F
100
AcDbEntity
  8
AM_0
100
AcDbLine
 10
15.92288300000001
 20
-84.93564387514445
 30
0.0
 11
15.94586199999998
 21
-84.93567887514445
 31
0.0
  0
LINE
  5
6A6D
330
1F
100
AcDbEntity
  8
AM_0
100
AcDbLine
 10
16.42368199999999
 20
-85.18017387514442
 30
0.0
 11
16.44666100000001
 21
-85.18020887514444
 31
0.0
  0
LINE
  5
6A6E
330
1F
100
AcDbEntity
  8
AM_0
100
AcDbLine
 10
16.92448200000001
 20
-85.42470387514445
 30
0.0
 11
16.94746099999998
 21
-85.42473887514444
 31
0.0
  0
LINE
  5
6A70
330
1F
100
AcDbEntity
  8
AM_0
100
AcDbLine
 10
36.07507299999998
 20
-86.62075687514445
 30
0.0
 11
37.12313799999998
 21
-86.19157687514445
 31
0.0
  0
LINE
  5
6A71
330
1F
100
AcDbEntity
  8
AM_0
100
AcDbLine
 10
36.980977
 20
-87.55298587514443
 30
0.0
 11
36.80003499999998
 21
-87.62708187514443
 31
0.0
  0
LINE
  5
6A72
330
1F
100
AcDbEntity
  8
AM_0
100
AcDbLine
 10
17.07451500000002
 20
-86.54479287514442
 30
0.0
 11
18.3199803157658
 21
-87.15253191004283
 31
0.0
  0
LINE
  5
6A74
330
1F
100
AcDbEntity
  8
AM_0
100
AcDbLine
 10
19.98890299999999
 20
-86.40742687514444
 30
0.0
 11
29.326123
 21
-85.72902787514443
 31
0.0
  0
LINE
  5
6A75
330
1F
100
AcDbEntity
  8
AM_0
100
AcDbLine
 10
31.47450800000001
 20
-85.73966787514445
 30
0.0
 11
37.12313799999998
 21
-86.19157687514445
 31
0.0
  0
LINE
  5
6A76
330
1F
100
AcDbEntity
  8
AM_0
100
AcDbLine
 10
25.36649499999999
 20
-86.68362987514445
 30
0.0
 11
26.09862399999997
 21
-86.38382487514443
 31
0.0
  0
LINE
  5
6A7C
330
1F
100
AcDbEntity
  8
AM_0
100
AcDbLine
 10
37.80484899999999
 20
-87.14020387514444
 30
0.0
 11
37.11579599999999
 21
-87.08507687514444
 31
0.0
  0
LINE
  5
6A7D
330
1F
100
AcDbEntity
  8
AM_0
100
AcDbLine
 10
37.12313799999998
 20
-86.19157687514445
 30
0.0
 11
37.11579599999999
 21
-87.08507687514444
 31
0.0
  0
LINE
  5
6A7F
330
1F
100
AcDbEntity
  8
AM_0
100
AcDbLine
 10
36.55477299999996
 20
-77.69416587514445
 30
0.0
 11
29.87300900000003
 21
-77.15960287514446
 31
0.0
  0
LINE
  5
6A80
330
1F
100
AcDbEntity
  8
AM_0
100
AcDbLine
 10
29.44135799999998
 20
-77.15807687514445
 30
0.0
 11
13.948984
 21
-78.28367987514446
 31
0.0
  0
LINE
  5
6A81
330
1F
100
AcDbEntity
  8
AM_0
100
AcDbLine
 10
31.87520899999998
 20
-87.62708187514443
 30
0.0
 11
31.88423699999999
 21
-86.52832187514443
 31
0.0
  0
LINE
  5
6A83
330
1F
100
AcDbEntity
  8
AM_0
100
AcDbLine
 10
36.06773099999998
 20
-87.51425687514444
 30
0.0
 11
38.72816999999998
 21
-87.62708187514443
 31
0.0
  0
LINE
  5
6A84
330
1F
100
AcDbEntity
  8
AM_0
100
AcDbLine
 10
37.11579599999999
 20
-87.08507687514444
 30
0.0
 11
36.06773099999998
 21
-87.51425687514444
 31
0.0
  0
LINE
  5
6A85
330
1F
100
AcDbEntity
  8
AM_0
100
AcDbLine
 10
38.97463599999998
 20
-87.62708187514443
 30
0.0
 11
39.14383099999998
 21
-87.55779687514445
 31
0.0
  0
LINE
  5
6A86
330
1F
100
AcDbEntity
  8
AM_0
100
AcDbLine
 10
36.07507299999998
 20
-86.62075687514445
 30
0.0
 11
36.06773099999998
 21
-87.51425687514444
 31
0.0
  0
LINE
  5
6A87
330
1F
100
AcDbEntity
  8
AM_0
100
AcDbLine
 10
39.25995399999999
 20
-87.46015187514445
 30
0.0
 11
39.315426
 21
-80.70926187514442
 31
0.0
  0
LINE
  5
6A88
330
1F
100
AcDbEntity
  8
AM_0
100
AcDbLine
 10
25.36649499999999
 20
-86.68362987514445
 30
0.0
 11
25.35855900000001
 21
-87.64939987514444
 31
0.0
  0
LINE
  5
6A89
330
1F
100
AcDbEntity
  8
AM_0
100
AcDbLine
 10
17.07451500000002
 20
-86.54479287514442
 30
0.0
 11
17.09490999999997
 21
-84.06284787514443
 31
0.0
  0
LINE
  5
6A8B
330
1F
100
AcDbEntity
  8
AM_0
100
AcDbLine
 10
5.333467999999982
 20
-84.25830487514443
 30
0.0
 11
4.835791999999969
 21
-84.01545687514445
 31
0.0
  0
LINE
  5
6A8E
330
1F
100
AcDbEntity
  8
AM_0
100
AcDbLine
 10
21.01359300000001
 20
-87.64939987514444
 30
0.0
 11
21.01524899999998
 21
-87.15664787514444
 31
0.0
  0
LINE
  5
6A8F
330
1F
100
AcDbEntity
  8
AM_0
100
AcDbLine
 10
1.62931900000001
 20
-91.94958387514444
 30
0.0
 11
1.300418999999977
 21
-91.94908187514443
 31
0.0
  0
LINE
  5
6A90
330
1F
100
AcDbEntity
  8
AM_0
100
AcDbLine
 10
1.300418999999977
 20
-91.94908187514443
 30
0.0
 11
0.3999999999999773
 21
-89.21002487514443
 31
0.0
  0
LINE
  5
6A91
330
1F
100
AcDbEntity
  8
AM_0
100
AcDbLine
 10
0.3999999999999773
 20
-89.21002487514443
 30
0.0
 11
0.4070080000000189
 21
-87.12517687514443
 31
0.0
  0
LINE
  5
6A92
330
1F
100
AcDbEntity
  8
AM_0
100
AcDbLine
 10
21.01524899999998
 20
-87.15664787514444
 30
0.0
 11
0.4070080000000189
 21
-87.12517687514443
 31
0.0
  0
LINE
  5
6A93
330
1F
100
AcDbEntity
  8
AM_0
100
AcDbLine
 10
0.0000579999999673
 20
-87.16062687514443
 30
0.0
 11
0.3999999999999773
 21
-89.21002487514443
 31
0.0
  0
LINE
  5
6A94
330
1F
100
AcDbEntity
  8
AM_0
100
AcDbLine
 10
21.318941
 20
-87.64939987514444
 30
0.0
 11
21.40818400000001
 21
-87.19209787514444
 31
0.0
  0
LINE
  5
6A95
330
1F
100
AcDbEntity
  8
AM_0
100
AcDbLine
 10
1.300418999999977
 20
-91.94908187514443
 30
0.0
 11
1.459878000000003
 21
-91.97415787514444
 31
0.0
  0
LINE
  5
6A96
330
1F
100
AcDbEntity
  8
AM_0
100
AcDbLine
 10
1.457144001012807
 20
-91.97856021220929
 30
0.0
 11
1.791361001012774
 21
-95.14619121220926
 31
0.0
  0
LINE
  5
6A97
330
1F
100
AcDbEntity
  8
AM_0
100
AcDbLine
 10
1.858279001012761
 20
-95.14040721220928
 30
0.0
 11
1.864134001012758
 21
-91.94338221220926
 31
0.0
  0
LINE
  5
6A98
330
1F
100
AcDbEntity
  8
AM_0
100
AcDbLine
 10
19.52248600101279
 20
-95.16738221220928
 30
0.0
 11
19.52834100101279
 21
-91.97035821220928
 31
0.0
  0
LINE
  5
6A99
330
1F
100
AcDbEntity
  8
AM_0
100
AcDbLine
 10
1.858279001012761
 20
-95.14040721220928
 30
0.0
 11
19.52248600101279
 21
-95.16738221220928
 31
0.0
  0
LINE
  5
6A9A
330
1F
100
AcDbEntity
  8
AM_0
100
AcDbLine
 10
1.864134001012758
 20
-91.94338221220926
 30
0.0
 11
19.52834100101279
 21
-91.97035821220928
 31
0.0
  0
LINE
  5
6A9B
330
1F
100
AcDbEntity
  8
AM_0
100
AcDbLine
 10
19.58769876574331
 20
-95.1674817985834
 30
0.0
 11
19.92131700101277
 21
-92.00553521220928
 31
0.0
  0
LINE
  5
6A9E
330
1F
100
AcDbEntity
  8
AM_0
100
AcDbLine
 10
2.523790001012799
 20
-87.01784421220927
 30
0.0
 11
2.523858001012741
 21
-87.12840921220928
 31
0.0
  0
LINE
  5
6AD6
330
1F
100
AcDbEntity
  8
AM_0
100
AcDbLine
 10
21.00824200101278
 20
-89.24149621220926
 30
0.0
 11
21.01525000101276
 21
-87.15664821220926
 31
0.0
  0
LINE
  5
6AD7
330
1F
100
AcDbEntity
  8
AM_0
100
AcDbLine
 10
20.0894200010128
 20
-91.97777421220928
 30
0.0
 11
21.00824200101278
 21
-89.24149621220926
 31
0.0
  0
LINE
  5
6AD8
330
1F
100
AcDbEntity
  8
AM_0
100
AcDbLine
 10
20.0894200010128
 20
-91.97777421220928
 30
0.0
 11
19.88352724817821
 21
-91.97745995814444
 31
0.0
  0
LINE
  5
6AD9
330
1F
100
AcDbEntity
  8
AM_0
100
AcDbLine
 10
1.629319001012789
 20
-91.94958321220926
 30
0.0
 11
1.300419001012756
 21
-91.94908121220928
 31
0.0
  0
LINE
  5
6ADA
330
1F
100
AcDbEntity
  8
AM_0
100
AcDbLine
 10
1.300419001012756
 20
-91.94908121220928
 30
0.0
 11
0.4000010010128108
 21
-89.21002421220928
 31
0.0
  0
LINE
  5
6ADB
330
1F
100
AcDbEntity
  8
AM_0
100
AcDbLine
 10
0.4000010010128108
 20
-89.21002421220928
 30
0.0
 11
0.4070080010127413
 21
-87.12517621220928
 31
0.0
  0
LINE
  5
6ADC
330
1F
100
AcDbEntity
  8
AM_0
100
AcDbLine
 10
21.01525000101276
 20
-87.15664821220926
 30
0.0
 11
0.4070080010127413
 21
-87.12517621220928
 31
0.0
  0
LINE
  5
6ADD
330
1F
100
AcDbEntity
  8
AM_0
100
AcDbLine
 10
0.0000590010128008
 20
-87.16062621220928
 30
0.0
 11
0.4000010010128108
 21
-89.21002421220928
 31
0.0
  0
LINE
  5
6ADE
330
1F
100
AcDbEntity
  8
AM_0
100
AcDbLine
 10
21.00824200101278
 20
-89.24149621220926
 30
0.0
 11
21.40818400101279
 21
-87.19209821220926
 31
0.0
  0
LINE
  5
6ADF
330
1F
100
AcDbEntity
  8
AM_0
100
AcDbLine
 10
19.91997900101279
 20
-92.00234821220926
 30
0.0
 11
20.0894200010128
 21
-91.97777421220928
 31
0.0
  0
LINE
  5
6AE0
330
1F
100
AcDbEntity
  8
AM_0
100
AcDbLine
 10
1.300419001012756
 20
-91.94908121220928
 30
0.0
 11
1.459878001012783
 21
-91.97415721220926
 31
0.0
  0
ARC
  5
6AE1
330
1F
100
AcDbEntity
  8
AM_0
100
AcDbCircle
 10
36.31552799999997
 20
-80.68461087514444
 30
0.0
 40
2.99999928036742
100
AcDbArc
 50
359.529195168651
 51
85.42589978506115
  0
ARC
  5
6AE2
330
1F
100
AcDbEntity
  8
AM_0
100
AcDbCircle
 10
1.805855000000008
 20
-95.14466187514444
 30
0.0
 40
0.0145740890624425
100
AcDbArc
 50
67.80290973571395
 51
186.0258790811422
  0
ARC
  5
6AE3
330
1F
100
AcDbEntity
  8
AM_0
100
AcDbCircle
 10
1.858469000000014
 20
-95.01570587514442
 30
0.0
 40
0.124702193677569
100
AcDbArc
 50
247.8047514771966
 51
269.9122429044496
  0
ARC
  5
6AE4
330
1F
100
AcDbEntity
  8
AM_0
100
AcDbCircle
 10
1.61239599999999
 20
-92.18048287514444
 30
0.0
 40
0.256576761997264
100
AcDbArc
 50
81.22567151114021
 51
126.4722716215531
  0
ARC
  5
6AE5
330
1F
100
AcDbEntity
  8
AM_0
100
AcDbCircle
 10
1.866284000000007
 20
-90.53560587514443
 30
0.0
 40
1.40777880748716
100
AcDbArc
 50
261.2255835047148
 51
269.9124962048812
  0
ARC
  5
6AE8
330
1F
100
AcDbEntity
  8
AM_0
100
AcDbCircle
 10
19.52128499999998
 20
-96.59069487514444
 30
0.0
 40
4.62034245343546
100
AcDbArc
 50
88.69660442011509
 51
89.9125001691536
  0
ARC
  5
6AE9
330
1F
100
AcDbEntity
  8
AM_0
100
AcDbCircle
 10
19.54826099999997
 20
-95.40506787514443
 30
0.0
 40
3.43440859905895
100
AcDbArc
 50
87.06090849092999
 51
88.69660539015332
  0
ARC
  5
6AEA
330
1F
100
AcDbEntity
  8
AM_0
100
AcDbCircle
 10
19.75372499999997
 20
-91.40319387514444
 30
0.0
 40
0.572736390478198
100
AcDbArc
 50
267.0608759066179
 51
277.700322672749
  0
ARC
  5
6AEB
330
1F
100
AcDbEntity
  8
AM_0
100
AcDbCircle
 10
19.84440999999998
 20
-92.07388787514444
 30
0.0
 40
0.104060089765473
100
AcDbArc
 50
43.4307838105004
 51
97.70019565125193
  0
ARC
  5
6AEC
330
1F
100
AcDbEntity
  8
AM_0
100
AcDbCircle
 10
15.25503499999996
 20
-14.27089587514445
 30
0.0
 40
72.29679588361441
100
AcDbArc
 50
271.4421044721844
 51
272.5983493298541
  0
ARC
  5
6AED
330
1F
100
AcDbEntity
  8
AM_0
100
AcDbCircle
 10
16.09899999999999
 20
-32.86827587514443
 30
0.0
 40
53.6802759746185
100
AcDbArc
 50
272.5983495392756
 51
274.1555401529079
  0
ARC
  5
6AEE
330
1F
100
AcDbEntity
  8
AM_0
100
AcDbCircle
 10
30.04901699999999
 20
-95.67866887514444
 30
0.0
 40
9.975867331329651
100
AcDbArc
 50
93.59480405437707
 51
94.15553936631092
  0
ARC
  5
6AEF
330
1F
100
AcDbEntity
  8
AM_0
100
AcDbCircle
 10
30.13801899999999
 20
-97.09536187514442
 30
0.0
 40
11.395353364647
100
AcDbArc
 50
93.10392163134287
 51
93.59480512742155
  0
ARC
  5
6AF0
330
1F
100
AcDbEntity
  8
AM_0
100
AcDbCircle
 10
30.337448
 20
-100.7730468751444
 30
0.0
 40
15.0784416076382
100
AcDbArc
 50
89.38926553568331
 51
93.10392254302285
  0
ARC
  5
6AF1
330
1F
100
AcDbEntity
  8
AM_0
100
AcDbCircle
 10
30.34754099999998
 20
-99.82616287514443
 30
0.0
 40
14.1315036710222
100
AcDbArc
 50
85.42588717019483
 51
89.38926339215142
  0
ARC
  5
6AF2
330
1F
100
AcDbEntity
  8
AM_0
100
AcDbCircle
 10
34.15110900000002
 20
-79.70406887514446
 30
0.0
 40
7.73676347248957
100
AcDbArc
 50
252.925973543519
 51
254.8602527839736
  0
ARC
  5
6AF3
330
1F
100
AcDbEntity
  8
AM_0
100
AcDbCircle
 10
32.086276
 20
-87.33562587514444
 30
0.0
 40
0.169196709722749
100
AcDbArc
 50
359.5292932733499
 51
74.86017754689142
  0
ARC
  5
6AF4
330
1F
100
AcDbEntity
  8
AM_0
100
AcDbCircle
 10
21.87476399999997
 20
-87.25171687514444
 30
0.0
 40
0.118947012480349
100
AcDbArc
 50
179.52938199231
 51
240.4746284113847
  0
ARC
  5
6AF5
330
1F
100
AcDbEntity
  8
AM_0
100
AcDbCircle
 10
22.54080799999997
 20
-86.07570887514441
 30
0.0
 40
1.47046786306536
100
AcDbArc
 50
240.4745245508302
 51
245.9245289936812
  0
ARC
  5
6AF6
330
1F
100
AcDbEntity
  8
AM_0
100
AcDbCircle
 10
22.81055400000003
 20
-85.47198987514443
 30
0.0
 40
2.131708491803
100
AcDbArc
 50
245.9245398598158
 51
258.9636429260575
  0
ARC
  5
6AF7
330
1F
100
AcDbEntity
  8
AM_0
100
AcDbCircle
 10
25.14856199999997
 20
-73.48459187514445
 30
0.0
 40
14.3449801745319
100
AcDbArc
 50
258.9636473205169
 51
260.9095190970116
  0
ARC
  5
6B06
330
1F
100
AcDbEntity
  8
AM_0
100
AcDbCircle
 10
27.57119299999999
 20
-89.97986487514444
 30
0.0
 40
3.885867299217121
100
AcDbArc
 50
87.46815255737472
 51
112.2689716638727
  0
ARC
  5
6B07
330
1F
100
AcDbEntity
  8
AM_0
100
AcDbCircle
 10
32.83322799999996
 20
29.02281412485553
 30
0.0
 40
115.233092658962
100
AcDbArc
 50
267.4681568577532
 51
268.3177772864154
  0
ARC
  5
6B08
330
1F
100
AcDbEntity
  8
AM_0
100
AcDbCircle
 10
28.72595100000001
 20
-110.8290738751445
 30
0.0
 40
24.6790944342498
100
AcDbArc
 50
86.28331648009063
 51
88.31777766426008
  0
ARC
  5
6B09
330
1F
100
AcDbEntity
  8
AM_0
100
AcDbCircle
 10
29.65839699999998
 20
-96.47479687514442
 30
0.0
 40
10.2945638231778
100
AcDbArc
 50
81.40853975205891
 51
86.28331245636043
  0
ARC
  5
6B0A
330
1F
100
AcDbEntity
  8
AM_0
100
AcDbCircle
 10
31.50652500000001
 20
-84.24228787514443
 30
0.0
 40
2.07676809943528
100
AcDbArc
 50
261.4085445577325
 51
274.114118406845
  0
ARC
  5
6B0B
330
1F
100
AcDbEntity
  8
AM_0
100
AcDbCircle
 10
31.67083000000002
 20
-86.52656887514445
 30
0.0
 40
0.213414199757175
100
AcDbArc
 50
359.5293629426058
 51
94.11409805478459
  0
ARC
  5
6B0C
330
1F
100
AcDbEntity
  8
AM_0
100
AcDbCircle
 10
38.74533400000001
 20
-86.58466187514443
 30
0.0
 40
1.05156625432447
100
AcDbArc
 50
292.2690097755337
 51
296.9241246680211
  0
ARC
  5
6B0D
330
1F
100
AcDbEntity
  8
AM_0
100
AcDbCircle
 10
39.18966499999999
 20
-87.45957387514443
 30
0.0
 40
0.0702912855551811
100
AcDbArc
 50
296.9244824885548
 51
359.5288563769169
  0
ARC
  5
6B14
330
1F
100
AcDbEntity
  8
AM_0
100
AcDbCircle
 10
36.59602799999999
 20
-102.2498288751444
 30
0.0
 40
15.1579030605031
100
AcDbArc
 50
84.48825686897668
 51
85.42588657771351
  0
ARC
  5
6B15
330
1F
100
AcDbEntity
  8
AM_0
100
AcDbCircle
 10
36.97923100000003
 20
-98.27865087514442
 30
0.0
 40
11.1682791448067
100
AcDbArc
 50
83.21570389029684
 51
84.48825977802467
  0
ARC
  5
6B16
330
1F
100
AcDbEntity
  8
AM_0
100
AcDbCircle
 10
37.05960800000003
 20
-97.60301087514444
 30
0.0
 40
10.4878746218254
100
AcDbArc
 50
81.23978526937979
 51
83.21570181326055
  0
ARC
  5
6B17
330
1F
100
AcDbEntity
  8
AM_0
100
AcDbCircle
 10
38.20744400000001
 20
-90.15423287514443
 30
0.0
 40
2.95117618859413
100
AcDbArc
 50
74.22584456586901
 51
81.23978415675113
  0
ARC
  5
6B18
330
1F
100
AcDbEntity
  8
AM_0
100
AcDbCircle
 10
39.77157
 20
-84.61719487514444
 30
0.0
 40
2.80254260513574
100
AcDbArc
 50
254.2258557568381
 51
257.7426978953893
  0
ARC
  5
6B19
330
1F
100
AcDbEntity
  8
AM_0
100
AcDbCircle
 10
39.154113
 20
-87.45928187514443
 30
0.0
 40
0.10584457558609
100
AcDbArc
 50
359.5290463473089
 51
77.74263183461845
  0
ARC
  5
6B28
330
1F
100
AcDbEntity
  8
AM_0
100
AcDbCircle
 10
22.05661499999997
 20
-87.25321087514442
 30
0.0
 40
0.300803751306399
100
AcDbArc
 50
89.27998322462912
 51
179.5293300846681
  0
ARC
  5
6B29
330
1F
100
AcDbEntity
  8
AM_0
100
AcDbCircle
 10
22.10259099999996
 20
-83.59444087514444
 30
0.0
 40
3.35825510384724
100
AcDbArc
 50
269.2800676968091
 51
279.5612770104516
  0
ARC
  5
6B2A
330
1F
100
AcDbEntity
  8
AM_0
100
AcDbCircle
 10
24.874819
 20
-100.0524838751445
 30
0.0
 40
13.3316347199083
100
AcDbArc
 50
93.72413011859925
 51
99.56127001752009
  0
ARC
  5
6B2B
330
1F
100
AcDbEntity
  8
AM_0
100
AcDbCircle
 10
26.62335400000001
 20
-126.9158168751444
 30
0.0
 40
40.2518144354866
100
AcDbArc
 50
91.78934600319241
 51
93.7241302128474
  0
ARC
  5
6B2C
330
1F
100
AcDbEntity
  8
AM_0
100
AcDbCircle
 10
34.02542
 20
-95.00008287514444
 30
0.0
 40
7.736762109227411
100
AcDbArc
 50
104.1981598476338
 51
106.1324410871385
  0
ARC
  5
6B2D
330
1F
100
AcDbEntity
  8
AM_0
100
AcDbCircle
 10
32.086276
 20
-87.33562587514444
 30
0.0
 40
0.169196438449519
100
AcDbArc
 50
284.1982059574669
 51
359.5292932733499
  0
ARC
  5
6B38
330
1F
100
AcDbEntity
  8
AM_0
100
AcDbCircle
 10
0.0814780000000042
 20
-87.14473787514444
 30
0.0
 40
0.0829561842058832
100
AcDbArc
 50
68.03942564827504
 51
191.0424117058172
  0
ARC
  5
6B39
330
1F
100
AcDbEntity
  8
AM_0
100
AcDbCircle
 10
0.4082149999999842
 20
-86.33444787514443
 30
0.0
 40
0.790729658230293
100
AcDbArc
 50
248.0389558119723
 51
269.9125415254001
  0
ARC
  5
6B3A
330
1F
100
AcDbEntity
  8
AM_0
100
AcDbCircle
 10
21.00808599999999
 20
-91.84735787514444
 30
0.0
 40
4.69071493542776
100
AcDbArc
 50
88.48442819568349
 51
89.91250592135538
  0
ARC
  5
6B3B
330
1F
100
AcDbEntity
  8
AM_0
100
AcDbCircle
 10
21.05309399999999
 20
-90.14624587514444
 30
0.0
 40
2.98900790307369
100
AcDbArc
 50
86.24349683155971
 51
88.48443140172616
  0
ARC
  5
6B3C
330
1F
100
AcDbEntity
  8
AM_0
100
AcDbCircle
 10
21.27060399999999
 20
-86.83344987514442
 30
0.0
 40
0.3309210024477151
100
AcDbArc
 50
266.243453214904
 51
286.2659875926639
  0
ARC
  5
6B3D
330
1F
100
AcDbEntity
  8
AM_0
100
AcDbCircle
 10
21.37325999999996
 20
-87.18528287514445
 30
0.0
 40
0.0355827205396145
100
AcDbArc
 50
348.9581732485058
 51
106.2652286537732
  0
ARC
  5
6B40
330
1F
100
AcDbEntity
  8
AM_0
100
AcDbCircle
 10
1.858469001012793
 20
-95.01570521220927
 30
0.0
 40
0.124702193677581
100
AcDbArc
 50
247.8047514771929
 51
269.9127023649684
  0
ARC
  5
6B41
330
1F
100
AcDbEntity
  8
AM_0
100
AcDbCircle
 10
1.612396001012769
 20
-92.18048221220926
 30
0.0
 40
0.256576914542207
100
AcDbArc
 50
81.2254508161618
 51
126.4722716215531
  0
ARC
  5
6B42
330
1F
100
AcDbEntity
  8
AM_0
100
AcDbCircle
 10
1.866284001012787
 20
-90.53560521220928
 30
0.0
 40
1.40777865494296
100
AcDbArc
 50
261.2256237278166
 51
269.9124962048812
  0
ARC
  5
6B59
330
1F
100
AcDbEntity
  8
AM_0
100
AcDbCircle
 10
15.25503600101274
 20
-14.27089521220927
 30
0.0
 40
72.29679588361441
100
AcDbArc
 50
271.4421044721844
 51
272.5983485381603
  0
ARC
  5
6B5A
330
1F
100
AcDbEntity
  8
AM_0
100
AcDbCircle
 10
16.09900100101277
 20
-32.86827521220928
 30
0.0
 40
53.6802759292843
100
AcDbArc
 50
272.5983484730207
 51
274.1555390883637
  0
ARC
  5
6BC9
330
1F
100
AcDbEntity
  8
AM_0
100
AcDbCircle
 10
0.0814780010127834
 20
-87.14473721220926
 30
0.0
 40
0.0829556307431825
100
AcDbArc
 50
68.03852679073411
 51
191.042543996744
  0
ARC
  5
6BCA
330
1F
100
AcDbEntity
  8
AM_0
100
AcDbCircle
 10
0.4082160010127609
 20
-86.33444721220928
 30
0.0
 40
0.790730585668723
100
AcDbArc
 50
248.0389829100155
 51
269.9124690661334
  0
ARC
  5
6BCB
330
1F
100
AcDbEntity
  8
AM_0
100
AcDbCircle
 10
21.00808700101277
 20
-91.84735721220926
 30
0.0
 40
4.690714935427749
100
AcDbArc
 50
88.48442819568349
 51
89.91250590270316
  0
ARC
  5
6BCC
330
1F
100
AcDbEntity
  8
AM_0
100
AcDbCircle
 10
21.05309400101277
 20
-90.14624621220926
 30
0.0
 40
2.98900896644172
100
AcDbArc
 50
86.24347895979487
 51
88.4844127465981
  0
ARC
  5
6BCD
330
1F
100
AcDbEntity
  8
AM_0
100
AcDbCircle
 10
21.27060500101277
 20
-86.83344921220927
 30
0.0
 40
0.330921002447714
100
AcDbArc
 50
266.243453214904
 51
286.2659875926637
  0
ARC
  5
6BCE
330
1F
100
AcDbEntity
  8
AM_0
100
AcDbCircle
 10
21.37326100101279
 20
-87.18528221220927
 30
0.0
 40
0.0355819305968555
100
AcDbArc
 50
348.9562844048401
 51
106.2652286537935
  0
SPLINE
  5
6BCF
330
1F
100
AcDbEntity
  8
AM_0
100
AcDbSpline
210
0.0
220
0.0
230
1.0
 70
     8
 71
     3
 72
    11
 73
     7
 74
     5
 42
0.0000000001
 43
0.0000000001
 44
0.0000000001
 40
0.0
 40
0.0
 40
0.0
 40
0.0
 40
0.2577393296879842
 40
0.5150422472967436
 40
0.7748513907174521
 40
1.039093741906664
 40
1.039093741906664
 40
1.039093741906664
 40
1.039093741906664
 10
4.191195999999991
 20
-84.25891487514443
 30
0.0
 10
4.105188865995176
 20
-84.26870944104346
 30
0.0
 10
3.933320227883104
 20
-84.28828198838436
 30
0.0
 10
3.699861873175445
 20
-84.40945337324905
 30
0.0
 10
3.502954212129114
 20
-84.58654688187242
 30
0.0
 10
3.420438085460499
 20
-84.74189814662378
 30
0.0
 10
3.378830999999991
 20
-84.82023087514443
 30
0.0
 11
4.191195999999991
 21
-84.25891487514443
 31
0.0
 11
3.937353999999971
 21
-84.30356687514444
 31
0.0
 11
3.706927000000007
 21
-84.41805787514443
 31
0.0
 11
3.516250000000014
 21
-84.59453187514444
 31
0.0
 11
3.378830999999991
 21
-84.82023087514443
 31
0.0
  0
SPLINE
  5
6BD0
330
1F
100
AcDbEntity
  8
AM_0
100
AcDbSpline
210
0.0
220
0.0
230
1.0
 70
     8
 71
     3
 72
    11
 73
     7
 74
     5
 42
0.0000000001
 43
0.0000000001
 44
0.0000000001
 40
0.0
 40
0.0
 40
0.0
 40
0.0
 40
0.0364489893549679
 40
0.0734402400096994
 40
0.1109232172927413
 40
0.1488493217196101
 40
0.1488493217196101
 40
0.1488493217196101
 40
0.1488493217196101
 10
4.191195999999991
 20
-84.25891487514443
 30
0.0
 10
4.203340816785485
 20
-84.25856894568199
 30
0.0
 10
4.227811132022882
 20
-84.25787194027255
 30
0.0
 10
4.264780291258394
 20
-84.25721645926743
 30
0.0
 10
4.302245388327355
 20
-84.25681230604391
 30
0.0
 10
4.327381892811224
 20
-84.25679605061824
 30
0.0
 10
4.340023999999971
 20
-84.25678787514443
 30
0.0
 11
4.191195999999991
 21
-84.25891487514443
 31
0.0
 11
4.227631999999971
 21
-84.25794187514444
 31
0.0
 11
4.264616999999987
 21
-84.25726187514442
 31
0.0
 11
4.302098000000001
 21
-84.25687687514443
 31
0.0
 11
4.340023999999971
 21
-84.25678787514443
 31
0.0
  0
SPLINE
  5
6BD1
330
1F
100
AcDbEntity
  8
AM_0
100
AcDbSpline
210
0.0
220
0.0
230
1.0
 70
     8
 71
     3
 72
    11
 73
     7
 74
     5
 42
0.0000000001
 43
0.0000000001
 44
0.0000000001
 40
0.0
 40
0.0
 40
0.0
 40
0.0
 40
0.0664326915305994
 40
0.1329682819240087
 40
0.1995744687612737
 40
0.2662193022369216
 40
0.2662193022369216
 40
0.2662193022369216
 40
0.2662193022369216
 10
15.527964
 20
-84.63537487514444
 30
0.0
 10
15.54770186866242
 20
-84.64542992675872
 30
0.0
 10
15.58720817834842
 20
-84.66555560444849
 30
0.0
 10
15.64407703162184
 20
-84.70016917252306
 30
0.0
 10
15.69920426729179
 20
-84.73761921701984
 30
0.0
 10
15.73397672742519
 20
-84.76527831512425
 30
0.0
 10
15.75136799999996
 20
-84.77911187514445
 30
0.0
 11
15.527964
 21
-84.63537487514444
 31
0.0
 11
15.58677399999999
 21
-84.66627287514444
 31
0.0
 11
15.64375699999999
 21
-84.70062287514443
 31
0.0
 11
15.69869499999999
 21
-84.73828187514445
 31
0.0
 11
15.75136799999996
 21
-84.77911187514445
 31
0.0
  0
SPLINE
  5
6BD2
330
1F
100
AcDbEntity
  8
AM_0
100
AcDbSpline
210
0.0
220
0.0
230
1.0
 70
     8
 71
     3
 72
    11
 73
     7
 74
     5
 42
0.0000000001
 43
0.0000000001
 44
0.0000000001
 40
0.0
 40
0.0
 40
0.0
 40
0.0
 40
0.0234891127971829
 40
0.0473721380033706
 40
0.071654951184716
 40
0.0963452476795374
 40
0.0963452476795374
 40
0.0963452476795374
 40
0.0963452476795374
 10
15.72409399999998
 20
-84.73114087514443
 30
0.0
 10
15.717022472657
 20
-84.72777761119296
 30
0.0
 10
15.70276082846129
 20
-84.72099468135539
 30
0.0
 10
15.68074932580737
 20
-84.71170562179123
 30
0.0
 10
15.65810960987521
 20
-84.7029032922818
 30
0.0
 10
15.64266271219766
 20
-84.69761833876737
 30
0.0
 10
15.63487499999997
 20
-84.69495387514445
 30
0.0
 11
15.72409399999998
 21
-84.73114087514443
 31
0.0
 11
15.70280800000001
 21
-84.72120887514444
 31
0.0
 11
15.68083000000001
 21
-84.71186187514445
 31
0.0
 11
15.65818000000002
 21
-84.70310787514444
 31
0.0
 11
15.63487499999997
 21
-84.69495387514445
 31
0.0
  0
SPLINE
  5
6BD3
330
1F
100
AcDbEntity
  8
AM_0
100
AcDbSpline
210
0.0
220
0.0
230
1.0
 70
     8
 71
     3
 72
    11
 73
     7
 74
     5
 42
0.0000000001
 43
0.0000000001
 44
0.0000000001
 40
0.0
 40
0.0
 40
0.0
 40
0.0
 40
0.0664326915306497
 40
0.1329682819240103
 40
0.1995750341642925
 40
0.2662200453579676
 40
0.2662200453579676
 40
0.2662200453579676
 40
0.2662200453579676
 10
16.02876299999997
 20
-84.87990487514443
 30
0.0
 10
16.04850084988577
 20
-84.88995995328503
 30
0.0
 10
16.08800712198945
 20
-84.91008568406846
 30
0.0
 10
16.14487641867778
 20
-84.94469895138705
 30
0.0
 10
16.20000277733655
 20
-84.98215066491889
 30
0.0
 10
16.23477626441645
 20
-85.00980882468591
 30
0.0
 10
16.25216799999998
 20
-85.02364187514445
 30
0.0
 11
16.02876299999997
 21
-84.87990487514443
 31
0.0
 11
16.08757300000002
 21
-84.91080287514444
 31
0.0
 11
16.14455599999997
 21
-84.94515287514443
 31
0.0
 11
16.19949399999996
 21
-84.98281287514442
 31
0.0
 11
16.25216799999998
 21
-85.02364187514445
 31
0.0
  0
SPLINE
  5
6BD4
330
1F
100
AcDbEntity
  8
AM_0
100
AcDbSpline
210
0.0
220
0.0
230
1.0
 70
     8
 71
     3
 72
    11
 73
     7
 74
     5
 42
0.0000000001
 43
0.0000000001
 44
0.0000000001
 40
0.0
 40
0.0
 40
0.0
 40
0.0
 40
0.0234900190081041
 40
0.0473726528661911
 40
0.0716558265673382
 40
0.0963461230621059
 40
0.0963461230621059
 40
0.0963461230621059
 40
0.0963461230621059
 10
16.22489400000001
 20
-84.97567087514443
 30
0.0
 10
16.21782217425161
 20
-84.97230752373014
 30
0.0
 10
16.20356032345475
 20
-84.9655246054634
 30
0.0
 10
16.18154785834783
 20
-84.95623711127701
 30
0.0
 10
16.15890886964931
 20
-84.94743295970642
 30
0.0
 10
16.14346176115356
 20
-84.94214821425598
 30
0.0
 10
16.135674
 20
-84.93948387514445
 30
0.0
 11
16.22489400000001
 21
-84.97567087514443
 31
0.0
 11
16.20360699999998
 21
-84.96573887514444
 31
0.0
 11
16.18162899999999
 21
-84.95639287514445
 31
0.0
 11
16.15897899999999
 21
-84.94763787514444
 31
0.0
 11
16.135674
 21
-84.93948387514445
 31
0.0
  0
SPLINE
  5
6BD5
330
1F
100
AcDbEntity
  8
AM_0
100
AcDbSpline
210
0.0
220
0.0
230
1.0
 70
     8
 71
     3
 72
    11
 73
     7
 74
     5
 42
0.0000000001
 43
0.0000000001
 44
0.0000000001
 40
0.0
 40
0.0
 40
0.0
 40
0.0
 40
0.0664318062753081
 40
0.1329673966687321
 40
0.1995741489090142
 40
0.2662191601026719
 40
0.2662191601026719
 40
0.2662191601026719
 40
0.2662191601026719
 10
16.529563
 20
-85.12443487514443
 30
0.0
 10
16.54930049462725
 20
-85.13448999478632
 30
0.0
 10
16.58880631908841
 20
-85.1546159428365
 30
0.0
 10
16.64567543341313
 20
-85.18922892327321
 30
0.0
 10
16.70080177364863
 20
-85.22668067195522
 30
0.0
 10
16.73557526318692
 20
-85.2543388270318
 30
0.0
 10
16.75296700000001
 20
-85.26817187514445
 30
0.0
 11
16.529563
 21
-85.12443487514443
 31
0.0
 11
16.58837199999999
 21
-85.15533287514444
 31
0.0
 11
16.645355
 21
-85.18968287514446
 31
0.0
 11
16.70029299999999
 21
-85.22734287514444
 31
0.0
 11
16.75296700000001
 21
-85.26817187514445
 31
0.0
  0
SPLINE
  5
6BD6
330
1F
100
AcDbEntity
  8
AM_0
100
AcDbSpline
210
0.0
220
0.0
230
1.0
 70
     8
 71
     3
 72
    11
 73
     7
 74
     5
 42
0.0000000001
 43
0.0000000001
 44
0.0000000001
 40
0.0
 40
0.0
 40
0.0
 40
0.0
 40
0.0234891127971829
 40
0.0473721380034229
 40
0.0716558839459254
 40
0.0963465107099324
 40
0.0963465107099324
 40
0.0963465107099324
 40
0.0963465107099324
 10
16.72569299999998
 20
-85.22020187514443
 30
0.0
 10
16.71862146734473
 20
-85.21683862540829
 30
0.0
 10
16.70435981243536
 20
-85.21005572423971
 30
0.0
 10
16.68234810509231
 20
-85.2007663247482
 30
0.0
 10
16.65970767275688
 20
-85.19196470844616
 30
0.0
 10
16.64426066900354
 20
-85.1866787914402
 30
0.0
 10
16.63647299999997
 20
-85.18401387514444
 30
0.0
 11
16.72569299999998
 21
-85.22020187514443
 31
0.0
 11
16.704407
 21
-85.21026987514443
 31
0.0
 11
16.68242899999996
 21
-85.20092287514444
 31
0.0
 11
16.65977799999996
 21
-85.19216887514443
 31
0.0
 11
16.63647299999997
 21
-85.18401387514444
 31
0.0
  0
SPLINE
  5
6BD7
330
1F
100
AcDbEntity
  8
AM_0
100
AcDbSpline
210
0.0
220
0.0
230
1.0
 70
     8
 71
     3
 72
    11
 73
     7
 74
     5
 42
0.0000000001
 43
0.0000000001
 44
0.0000000001
 40
0.0
 40
0.0
 40
0.0
 40
0.0
 40
0.1022060059927989
 40
0.2100876120477678
 40
0.3236340774837255
 40
0.4426172394226928
 40
0.4426172394226928
 40
0.4426172394226928
 40
0.4426172394226928
 10
14.96750099999997
 20
-84.36171187514444
 30
0.0
 10
14.93624676643585
 20
-84.34802630785475
 30
0.0
 10
14.87200272097017
 20
-84.31989520026008
 30
0.0
 10
14.7670985833022
 20
-84.29316206135155
 30
0.0
 10
14.65477560846484
 20
-84.27554721565832
 30
0.0
 10
14.57721699339635
 20
-84.27343875438879
 30
0.0
 10
14.537531
 20
-84.27235987514445
 30
0.0
 11
14.96750099999997
 21
-84.36171187514444
 31
0.0
 11
14.87282599999998
 21
-84.32320587514442
 31
0.0
 11
14.76862899999998
 21
-84.29525187514443
 31
0.0
 11
14.65637099999998
 21
-84.27819487514444
 31
0.0
 11
14.537531
 21
-84.27235987514445
 31
0.0
  0
SPLINE
  5
6BD8
330
1F
100
AcDbEntity
  8
AM_0
100
AcDbSpline
210
0.0
220
0.0
230
1.0
 70
     8
 71
     3
 72
    11
 73
     7
 74
     5
 42
0.0000000001
 43
0.0000000001
 44
0.0000000001
 40
0.0
 40
0.0
 40
0.0
 40
0.0
 40
0.0722043158405316
 40
0.1465747079667217
 40
0.2243619555076541
 40
0.3065638020867058
 40
0.3065638020867058
 40
0.3065638020867058
 40
0.3065638020867058
 10
15.94586199999998
 20
-84.93567887514445
 30
0.0
 10
15.93358442918043
 20
-84.9148983138944
 30
0.0
 10
15.90866096946108
 20
-84.8727137898649
 30
0.0
 10
15.85683337025492
 20
-84.81808742246548
 30
0.0
 10
15.79546466852542
 20
-84.7692119619346
 30
0.0
 10
15.74831786538255
 20
-84.744062554322
 30
0.0
 10
15.72409399999998
 20
-84.73114087514443
 30
0.0
 11
15.94586199999998
 21
-84.93567887514445
 31
0.0
 11
15.90686099999999
 21
-84.87491387514444
 31
0.0
 11
15.85650099999998
 21
-84.82018887514442
 31
0.0
 11
15.79537900000003
 21
-84.77207487514443
 31
0.0
 11
15.72409399999998
 21
-84.73114087514443
 31
0.0
  0
SPLINE
  5
6BD9
330
1F
100
AcDbEntity
  8
AM_0
100
AcDbSpline
210
0.0
220
0.0
230
1.0
 70
     8
 71
     3
 72
    11
 73
     7
 74
     5
 42
0.0000000001
 43
0.0000000001
 44
0.0000000001
 40
0.0
 40
0.0
 40
0.0
 40
0.0
 40
0.0722043158405623
 40
0.146574707966693
 40
0.2243619555076877
 40
0.3065629348935698
 40
0.3065629348935698
 40
0.3065629348935698
 40
0.3065629348935698
 10
16.44666100000001
 20
-85.18020887514444
 30
0.0
 10
16.4343834281105
 20
-85.159428315783
 30
0.0
 10
16.40945996621914
 20
-85.11724379558737
 30
0.0
 10
16.35763238393541
 20
-85.06261739831733
 30
0.0
 10
16.29626384042305
 20
-85.01374224019354
 30
0.0
 10
16.24911750223905
 20
-84.98859260498219
 30
0.0
 10
16.22489400000001
 20
-84.97567087514443
 30
0.0
 11
16.44666100000001
 21
-85.18020887514444
 31
0.0
 11
16.40765999999996
 21
-85.11944387514444
 31
0.0
 11
16.35730000000001
 21
-85.06471887514445
 31
0.0
 11
16.296178
 21
-85.01660487514442
 31
0.0
 11
16.22489400000001
 21
-84.97567087514443
 31
0.0
  0
SPLINE
  5
6BDA
330
1F
100
AcDbEntity
  8
AM_0
100
AcDbSpline
210
0.0
220
0.0
230
1.0
 70
     8
 71
     3
 72
    11
 73
     7
 74
     5
 42
0.0000000001
 43
0.0000000001
 44
0.0000000001
 40
0.0
 40
0.0
 40
0.0
 40
0.0
 40
0.0722034742723613
 40
0.1465738663985305
 40
0.2243617324767548
 40
0.3065630810909841
 40
0.3065630810909841
 40
0.3065630810909841
 40
0.3065630810909841
 10
16.94746099999998
 20
-85.42473887514444
 30
0.0
 10
16.935183392327
 20
-85.40395866118887
 30
0.0
 10
16.9102597104005
 20
-85.36177459269695
 30
0.0
 10
16.85843206064527
 20
-85.30714851668743
 30
0.0
 10
16.79706425624742
 20
-85.25827175679206
 30
0.0
 10
16.74991695586238
 20
-85.23312308714498
 30
0.0
 10
16.72569299999998
 20
-85.22020187514443
 30
0.0
 11
16.94746099999998
 21
-85.42473887514444
 31
0.0
 11
16.90845999999999
 21
-85.36397487514444
 31
0.0
 11
16.85809999999998
 21
-85.30924987514445
 31
0.0
 11
16.79697799999997
 21
-85.26113487514442
 31
0.0
 11
16.72569299999998
 21
-85.22020187514443
 31
0.0
  0
SPLINE
  5
6BE0
330
1F
100
AcDbEntity
  8
AM_0
100
AcDbSpline
210
0.0
220
0.0
230
1.0
 70
     8
 71
     3
 72
    11
 73
     7
 74
     5
 42
0.0000000001
 43
0.0000000001
 44
0.0000000001
 40
0.0
 40
0.0
 40
0.0
 40
0.0
 40
0.0701733319858655
 40
0.1403433703926154
 40
0.2105082265814268
 40
0.28066839126911
 40
0.28066839126911
 40
0.28066839126911
 40
0.28066839126911
 10
5.723160000000007
 20
-84.25889987514444
 30
0.0
 10
5.700542816841969
 20
-84.25293261702464
 30
0.0
 10
5.655309512061375
 20
-84.24099838085772
 30
0.0
 10
5.587537046778842
 20
-84.2228142759659
 30
0.0
 10
5.519820544776962
 20
-84.20443961025249
 30
0.0
 10
5.474729679083099
 20
-84.19200098155982
 30
0.0
 10
5.452184999999986
 20
-84.18578187514444
 30
0.0
 11
5.723160000000007
 21
-84.25889987514444
 31
0.0
 11
5.655321000000015
 21
-84.24095087514445
 31
0.0
 11
5.58754399999998
 21
-84.22278187514445
 31
0.0
 11
5.519832000000008
 21
-84.20439187514444
 31
0.0
 11
5.452184999999986
 21
-84.18578187514444
 31
0.0
  0
SPLINE
  5
6BE4
330
1F
100
AcDbEntity
  8
AM_0
100
AcDbSpline
210
0.0
220
0.0
230
1.0
 70
     8
 71
     3
 72
    11
 73
     7
 74
     5
 42
0.0000000001
 43
0.0000000001
 44
0.0000000001
 40
0.0
 40
0.0
 40
0.0
 40
0.0
 40
0.117553085625161
 40
0.234930897531841
 40
0.3525816775292424
 40
0.4699946854798369
 40
0.4699946854798369
 40
0.4699946854798369
 40
0.4699946854798369
 10
2.619160999999963
 20
-86.56075987514444
 30
0.0
 10
2.604595038325182
 20
-86.59717791909158
 30
0.0
 10
2.575484833080699
 20
-86.6699597070417
 30
0.0
 10
2.546373785622464
 20
-86.78409227661915
 30
0.0
 10
2.527258679677252
 20
-86.90028354207496
 30
0.0
 10
2.524945446597489
 20
-86.97868419876807
 30
0.0
 10
2.523789999999963
 20
-87.01784487514445
 30
0.0
 11
2.619160999999963
 21
-86.56075987514444
 31
0.0
 11
2.577895000000012
 21
-86.67083187514444
 31
0.0
 11
2.548056999999972
 21
-86.78435387514443
 31
0.0
 11
2.529859999999985
 21
-86.90058887514442
 31
0.0
 11
2.523789999999963
 21
-87.01784487514445
 31
0.0
  0
SPLINE
  5
6BE5
330
1F
100
AcDbEntity
  8
AM_0
100
AcDbSpline
210
0.0
220
0.0
230
1.0
 70
     8
 71
     3
 72
    11
 73
     7
 74
     5
 42
0.0000000001
 43
0.0000000001
 44
0.0000000001
 40
0.0
 40
0.0
 40
0.0
 40
0.0
 40
0.4000525753360595
 40
0.7699583566642292
 40
1.118670798514194
 40
1.456915456690831
 40
1.456915456690831
 40
1.456915456690831
 40
1.456915456690831
 10
15.54121199999997
 20
-87.14397387514444
 30
0.0
 10
15.64759617771016
 20
-87.06311355925993
 30
0.0
 10
15.85234773211772
 20
-86.90748632480083
 30
0.0
 10
16.18739896905118
 20
-86.74000058343006
 30
0.0
 10
16.52562109024722
 20
-86.63141440928391
 30
0.0
 10
16.75490228472897
 20
-86.61664771538874
 30
0.0
 10
16.867796
 20
-86.60937687514445
 30
0.0
 11
15.54121199999997
 21
-87.14397387514444
 31
0.0
 11
15.867345
 21
-86.91228587514445
 31
0.0
 11
16.197653
 21
-86.74577187514444
 31
0.0
 11
16.53140299999996
 21
-86.64472087514446
 31
0.0
 11
16.867796
 21
-86.60937687514445
 31
0.0
  0
LINE
  5
6BE6
330
1F
100
AcDbEntity
  8
AM_0
100
AcDbLine
 10
16.867796
 20
-86.60937687514445
 30
0.0
 11
17.24817999999999
 21
-86.64824987514444
 31
0.0
  0
SPLINE
  5
6BE7
330
1F
100
AcDbEntity
  8
AM_0
100
AcDbSpline
210
0.0
220
0.0
230
1.0
 70
     8
 71
     3
 72
    10
 73
     6
 74
     0
 42
0.0000000001
 43
0.0000000001
 40
0.0
 40
0.0
 40
0.0
 40
0.0
 40
0.0309490359946755
 40
0.0620090265452257
 40
0.0754864124739395
 40
0.0754864124739395
 40
0.0754864124739395
 40
0.0754864124739395
 10
17.24817999999999
 20
-86.64824987514444
 30
0.0
 10
17.25825706124192
 20
-86.65045984868979
 30
0.0
 10
17.27844731072679
 20
-86.65488771869718
 30
0.0
 10
17.3029222992792
 20
-86.66073283189178
 30
0.0
 10
17.31733159404564
 20
-86.66430808525578
 30
0.0
 10
17.32168840775483
 20
-86.66540396433331
 30
0.0
  0
SPLINE
  5
6BE9
330
1F
100
AcDbEntity
  8
AM_0
100
AcDbSpline
210
0.0
220
0.0
230
1.0
 70
     8
 71
     3
 72
    11
 73
     7
 74
     5
 42
0.0000000001
 43
0.0000000001
 44
0.0000000001
 40
0.0
 40
0.0
 40
0.0
 40
0.0
 40
0.0869002750053196
 40
0.1666290607228924
 40
0.2295713629369351
 40
0.2615786996271117
 40
0.2615786996271117
 40
0.2615786996271117
 40
0.2615786996271117
 10
15.75136799999996
 20
-84.77911187514445
 30
0.0
 10
15.77333905606742
 20
-84.79801252079886
 30
0.0
 10
15.81546799565233
 20
-84.83425402673495
 30
0.0
 10
15.87123539899588
 20
-84.88645504786882
 30
0.0
 10
15.91133485885342
 20
-84.92937276930496
 30
0.0
 10
15.93838758064502
 20
-84.94598045644509
 30
0.0
 10
15.94750699999997
 20
-84.95157887514444
 30
0.0
 11
15.75136799999996
 21
-84.77911187514445
 31
0.0
 11
15.81683199999998
 21
-84.83626187514443
 31
0.0
 11
15.87471799999997
 21
-84.89108787514442
 31
0.0
 11
15.92074600000001
 21
-84.93401987514443
 31
0.0
 11
15.94750699999997
 21
-84.95157887514444
 31
0.0
  0
SPLINE
  5
6BEA
330
1F
100
AcDbEntity
  8
AM_0
100
AcDbSpline
210
0.0
220
0.0
230
1.0
 70
     8
 71
     3
 72
    11
 73
     7
 74
     5
 42
0.0000000001
 43
0.0000000001
 44
0.0000000001
 40
0.0
 40
0.0
 40
0.0
 40
0.0
 40
0.0868995216845324
 40
0.1666283074021246
 40
0.2295713408927023
 40
0.2615792261868182
 40
0.2615792261868182
 40
0.2615792261868182
 40
0.2615792261868182
 10
16.25216799999998
 20
-85.02364187514445
 30
0.0
 10
16.27413871660612
 20
-85.04254252481569
 30
0.0
 10
16.31626718002599
 20
-85.07878418877959
 30
0.0
 10
16.37203424835375
 20
-85.13098561640823
 30
0.0
 10
16.41213512078961
 20
-85.17390228676341
 30
0.0
 10
16.43918762171789
 20
-85.19051106735228
 30
0.0
 10
16.448307
 20
-85.19610987514443
 30
0.0
 11
16.25216799999998
 21
-85.02364187514445
 31
0.0
 11
16.31763100000001
 21
-85.08079187514443
 31
0.0
 11
16.375517
 21
-85.13561787514445
 31
0.0
 11
16.42154599999998
 21
-85.17854987514443
 31
0.0
 11
16.448307
 21
-85.19610987514443
 31
0.0
  0
SPLINE
  5
6BEB
330
1F
100
AcDbEntity
  8
AM_0
100
AcDbSpline
210
0.0
220
0.0
230
1.0
 70
     8
 71
     3
 72
    11
 73
     7
 74
     5
 42
0.0000000001
 43
0.0000000001
 44
0.0000000001
 40
0.0
 40
0.0
 40
0.0
 40
0.0
 40
0.0868995216844895
 40
0.1666290334414189
 40
0.2295713356554617
 40
0.26157922094953
 40
0.26157922094953
 40
0.26157922094953
 40
0.26157922094953
 10
16.75296700000001
 20
-85.26817187514445
 30
0.0
 10
16.77493762887815
 20
-85.28707261787861
 30
0.0
 10
16.81706610764418
 20
-85.32331461820348
 30
0.0
 10
16.87283426621884
 20
-85.37551488611697
 30
0.0
 10
16.91293423968618
 20
-85.41843251141854
 30
0.0
 10
16.93998659916587
 20
-85.43504109174191
 30
0.0
 10
16.94910599999997
 20
-85.44063987514443
 30
0.0
 11
16.75296700000001
 21
-85.26817187514445
 31
0.0
 11
16.81842999999998
 21
-85.32532187514443
 31
0.0
 11
16.87631699999997
 21
-85.38014787514442
 31
0.0
 11
16.92234500000001
 21
-85.42307987514442
 31
0.0
 11
16.94910599999997
 21
-85.44063987514443
 31
0.0
  0
SPLINE
  5
6BEC
330
1F
100
AcDbEntity
  8
AM_0
100
AcDbSpline
210
0.0
220
0.0
230
1.0
 70
     8
 71
     3
 72
    11
 73
     7
 74
     5
 42
0.0000000001
 43
0.0000000001
 44
0.0000000001
 40
0.0
 40
0.0
 40
0.0
 40
0.0
 40
0.0021913397728309
 40
0.0054037606668088
 40
0.0098585025224301
 40
0.0156377940014751
 40
0.0156377940014751
 40
0.0156377940014751
 40
0.0156377940014751
 10
15.94984199999999
 20
-84.95042387514445
 30
0.0
 10
15.95005108702803
 20
-84.9497131385175
 30
0.0
 10
15.95056668769939
 20
-84.94796048898459
 30
0.0
 10
15.94972940403299
 20
-84.94466547613239
 30
0.0
 10
15.94824858011931
 20
-84.94047274054871
 30
0.0
 10
15.94672332906862
 20
-84.93740900588274
 30
0.0
 10
15.94586199999998
 20
-84.93567887514445
 30
0.0
 11
15.94984199999999
 21
-84.95042387514445
 31
0.0
 11
15.950309
 21
-84.94828287514446
 31
0.0
 11
15.94980099999998
 21
-84.94511087514445
 31
0.0
 11
15.94831899999997
 21
-84.94090987514443
 31
0.0
 11
15.94586199999998
 21
-84.93567887514445
 31
0.0
  0
SPLINE
  5
6BED
330
1F
100
AcDbEntity
  8
AM_0
100
AcDbSpline
210
0.0
220
0.0
230
1.0
 70
     8
 71
     3
 72
    11
 73
     7
 74
     5
 42
0.0000000001
 43
0.0000000001
 44
0.0000000001
 40
0.0
 40
0.0
 40
0.0
 40
0.0
 40
0.0021921040121424
 40
0.0054045249060833
 40
0.0098592667617046
 40
0.0156385582407495
 40
0.0156385582407495
 40
0.0156385582407495
 40
0.0156385582407495
 10
16.45064200000002
 20
-85.19495487514445
 30
0.0
 10
16.45085069865729
 20
-85.19424378844047
 30
0.0
 10
16.45136523495887
 20
-85.19249063905487
 30
0.0
 10
16.450528630828
 20
-85.18919552229417
 30
0.0
 10
16.44904749359493
 20
-85.18500272293755
 30
0.0
 10
16.44752229784155
 20
-85.18193899952678
 30
0.0
 10
16.44666100000001
 20
-85.18020887514444
 30
0.0
 11
16.45064200000002
 21
-85.19495487514445
 31
0.0
 11
16.45110799999998
 21
-85.19281287514443
 31
0.0
 11
16.45060000000001
 21
-85.18964087514445
 31
0.0
 11
16.449118
 21
-85.18543987514443
 31
0.0
 11
16.44666100000001
 21
-85.18020887514444
 31
0.0
  0
SPLINE
  5
6BEE
330
1F
100
AcDbEntity
  8
AM_0
100
AcDbSpline
210
0.0
220
0.0
230
1.0
 70
     8
 71
     3
 72
    11
 73
     7
 74
     5
 42
0.0000000001
 43
0.0000000001
 44
0.0000000001
 40
0.0
 40
0.0
 40
0.0
 40
0.0
 40
0.0021921040121267
 40
0.0054035374926899
 40
0.0098592224007556
 40
0.0156380888120919
 40
0.0156380888120919
 40
0.0156380888120919
 40
0.0156380888120919
 10
16.95144099999999
 20
-85.43948487514444
 30
0.0
 10
16.95164971990786
 20
-85.43877378641652
 30
0.0
 10
16.95216421458576
 20
-85.43702095234445
 30
0.0
 10
16.95132732734512
 20
-85.43372592632936
 30
0.0
 10
16.94984667764668
 20
-85.42953316409722
 30
0.0
 10
16.94832193503912
 20
-85.42646902144183
 30
0.0
 10
16.94746099999998
 20
-85.42473887514444
 30
0.0
 11
16.95144099999999
 21
-85.43948487514444
 31
0.0
 11
16.95190700000001
 21
-85.43734287514445
 31
0.0
 11
16.95139899999998
 21
-85.43417187514444
 31
0.0
 11
16.94991699999997
 21
-85.42996987514445
 31
0.0
 11
16.94746099999998
 21
-85.42473887514444
 31
0.0
  0
SPLINE
  5
6BEF
330
1F
100
AcDbEntity
  8
AM_0
100
AcDbSpline
210
0.0
220
0.0
230
1.0
 70
     8
 71
     3
 72
    11
 73
     7
 74
     5
 42
0.0000000001
 43
0.0000000001
 44
0.0000000001
 40
0.0
 40
0.0
 40
0.0
 40
0.0
 40
0.1072123336188771
 40
0.2141934707272729
 40
0.3210952122472011
 40
0.428070588226934
 40
0.428070588226934
 40
0.428070588226934
 40
0.428070588226934
 10
29.86904700000002
 20
-77.15928887514446
 30
0.0
 10
29.83338580275181
 20
-77.15688385851664
 30
0.0
 10
29.7621403093365
 20
-77.15207901152488
 30
0.0
 10
29.6550951483259
 20
-77.15004011786195
 30
0.0
 10
29.54811891065091
 20
-77.15147008970109
 30
0.0
 10
29.47695313729491
 20
-77.15587410791903
 30
0.0
 10
29.44135799999998
 20
-77.15807687514445
 30
0.0
 11
29.86904700000002
 21
-77.15928887514446
 31
0.0
 11
29.762023
 21
-77.15293687514443
 31
0.0
 11
29.65506699999997
 21
-77.15061787514443
 31
0.0
 11
29.54817900000001
 21
-77.15233187514446
 31
0.0
 11
29.44135799999998
 21
-77.15807687514445
 31
0.0
  0
SPLINE
  5
6BF2
330
1F
100
AcDbEntity
  8
AM_0
100
AcDbSpline
210
0.0
220
0.0
230
1.0
 70
     8
 71
     3
 72
    11
 73
     7
 74
     5
 42
0.0000000001
 43
0.0000000001
 44
0.0000000001
 40
0.0
 40
0.0
 40
0.0
 40
0.0
 40
0.4494319424172759
 40
0.9016541740966009
 40
1.356664698739681
 40
1.813459274478096
 40
1.813459274478096
 40
1.813459274478096
 40
1.813459274478096
 10
17.09490999999997
 20
-84.06284787514443
 30
0.0
 10
16.95298312885329
 20
-84.11084847198566
 30
0.0
 10
16.6682482364075
 20
-84.20714767641744
 30
0.0
 10
16.23433574128553
 20
-84.33485767468179
 30
0.0
 10
15.79487010850079
 20
-84.45182212791534
 30
0.0
 10
15.49833210635345
 20
-84.51858708164218
 30
0.0
 10
15.34977299999997
 20
-84.55203487514444
 30
0.0
 11
17.09490999999997
 21
-84.06284787514443
 31
0.0
 11
16.66822300000001
 21
-84.20401187514443
 31
0.0
 11
16.23469899999998
 21
-84.33270487514443
 31
0.0
 11
15.79475500000001
 21
-84.44882487514443
 31
0.0
 11
15.34977299999997
 21
-84.55203487514444
 31
0.0
  0
SPLINE
  5
6BF3
330
1F
100
AcDbEntity
  8
AM_0
100
AcDbSpline
210
0.0
220
0.0
230
1.0
 70
     8
 71
     3
 72
    11
 73
     7
 74
     5
 42
0.0000000001
 43
0.0000000001
 44
0.0000000001
 40
0.0
 40
0.0
 40
0.0
 40
0.0
 40
0.1735497369228625
 40
0.3414438914518299
 40
0.4983481793632848
 40
0.6394928108304792
 40
0.6394928108304792
 40
0.6394928108304792
 40
0.6394928108304792
 10
5.452184999999986
 20
-84.18578187514444
 30
0.0
 10
5.39643027042552
 20
-84.17035389414005
 30
0.0
 10
5.28673772827427
 20
-84.1400006941596
 30
0.0
 10
5.126633403783346
 20
-84.09571586327976
 30
0.0
 10
4.976952273874646
 20
-84.05426559444554
 30
0.0
 10
4.881156998633211
 20
-84.02792892163267
 30
0.0
 10
4.835791999999969
 20
-84.01545687514445
 30
0.0
 11
5.452184999999986
 21
-84.18578187514444
 31
0.0
 11
5.28492
 21
-84.13950087514445
 31
0.0
 11
5.12310500000001
 21
-84.09473087514445
 31
0.0
 11
4.971876000000009
 21
-84.05291287514444
 31
0.0
 11
4.835791999999969
 21
-84.01545687514445
 31
0.0
  0
SPLINE
  5
6BF5
330
1F
100
AcDbEntity
  8
AM_0
100
AcDbSpline
210
0.0
220
0.0
230
1.0
 70
     8
 71
     3
 72
    11
 73
     7
 74
     5
 42
0.0000000001
 43
0.0000000001
 44
0.0000000001
 40
0.0
 40
0.0
 40
0.0
 40
0.0
 40
0.2012688149714151
 40
0.4024481051829398
 40
0.6036216090048596
 40
0.8048730720305962
 40
0.8048730720305962
 40
0.8048730720305962
 40
0.8048730720305962
 10
4.687130000000025
 20
-83.52972087514445
 30
0.0
 10
4.658701035304137
 20
-83.59049226899569
 30
0.0
 10
4.601855751171088
 20
-83.71200802546414
 30
0.0
 10
4.521397790048594
 20
-83.89644815451584
 30
0.0
 10
4.444182338963557
 20
-84.08226282887668
 30
0.0
 10
4.395970559573941
 20
-84.20744677602787
 30
0.0
 10
4.37185999999997
 20
-84.27005087514442
 30
0.0
 11
4.687130000000025
 21
-83.52972087514445
 31
0.0
 11
4.602643999999998
 21
-83.71239887514443
 31
0.0
 11
4.52193699999998
 21
-83.89667987514446
 31
0.0
 11
4.445009000000027
 21
-84.08256387514444
 31
0.0
 11
4.37185999999997
 21
-84.27005087514442
 31
0.0
  0
LINE
  5
6BF6
330
1F
100
AcDbEntity
  8
AM_0
100
AcDbLine
 10
4.835791999999969
 20
-84.01545687514445
 30
0.0
 11
4.819317000000012
 21
-84.25562487514443
 31
0.0
  0
SPLINE
  5
6BF7
330
1F
100
AcDbEntity
  8
AM_0
100
AcDbSpline
210
0.0
220
0.0
230
1.0
 70
     8
 71
     3
 72
    11
 73
     7
 74
     5
 42
0.0000000001
 43
0.0000000001
 44
0.0000000001
 40
0.0
 40
0.0
 40
0.0
 40
0.0
 40
0.4268579405961446
 40
0.8884668391899868
 40
1.376270056855662
 40
1.881800312939296
 40
1.881800312939296
 40
1.881800312939296
 40
1.881800312939296
 10
5.717606999999987
 20
-81.96194687514443
 30
0.0
 10
5.624689337400103
 20
-82.06979606247165
 30
0.0
 10
5.431289486668159
 20
-82.29427455393422
 30
0.0
 10
5.16605161361341
 20
-82.66929656636206
 30
0.0
 10
4.911440819448848
 20
-83.08266312188974
 30
0.0
 10
4.763489718723157
 20
-83.37905117606836
 30
0.0
 10
4.68819400000001
 20
-83.52988987514442
 30
0.0
 11
5.717606999999987
 21
-81.96194687514443
 31
0.0
 11
5.443972000000031
 21
-82.28956187514444
 31
0.0
 11
5.175077999999985
 21
-82.66476687514444
 31
0.0
 11
4.920784000000026
 21
-83.08104387514445
 31
0.0
 11
4.68819400000001
 21
-83.52988987514442
 31
0.0
  0
LINE
  5
6BF9
330
1F
100
AcDbEntity
  8
AM_0
100
AcDbLine
 10
12.60705300000001
 20
-78.45877987514444
 30
0.0
 11
12.557074
 21
-78.46517087514445
 31
0.0
  0
SPLINE
  5
6BFA
330
1F
100
AcDbEntity
  8
AM_0
100
AcDbSpline
210
0.0
220
0.0
230
1.0
 70
     8
 71
     3
 72
    11
 73
     7
 74
     5
 42
0.0000000001
 43
0.0000000001
 44
0.0000000001
 40
0.0
 40
0.0
 40
0.0
 40
0.0
 40
2.130665794445742
 40
4.128116346681304
 40
5.985408716865651
 40
7.718872097058297
 40
7.718872097058297
 40
7.718872097058297
 40
7.718872097058297
 10
12.44478300000003
 20
-78.48033287514443
 30
0.0
 10
11.7453153632184
 20
-78.61574071957496
 30
0.0
 10
10.39011278151838
 20
-78.87809032762692
 30
0.0
 10
8.556432200560217
 20
-79.69751844359456
 30
0.0
 10
6.975631375792059
 20
-80.70488267900714
 30
0.0
 10
6.126720757596964
 20
-81.55309380330121
 30
0.0
 10
5.716903000000002
 20
-81.96257387514444
 30
0.0
 11
12.44478300000003
 21
-78.48033287514443
 31
0.0
 11
10.37049400000001
 21
-78.96722287514444
 31
0.0
 11
8.537792999999965
 21
-79.76158787514444
 31
0.0
 11
6.985240999999974
 21
-80.78095887514445
 31
0.0
 11
5.716903000000002
 21
-81.96257387514444
 31
0.0
  0
SPLINE
  5
6BFB
330
1F
100
AcDbEntity
  8
AM_0
100
AcDbSpline
210
0.0
220
0.0
230
1.0
 70
     8
 71
     3
 72
     9
 73
     5
 74
     0
 42
0.0000000001
 43
0.0000000001
 40
1.290821037419977
 40
1.290821037419977
 40
1.290821037419977
 40
1.290821037419977
 40
1.337966156272322
 40
1.789897920878445
 40
1.789897920878445
 40
1.789897920878445
 40
1.789897920878445
 10
12.1150705470543
 20
-78.5444922311722
 30
0.0
 10
12.13042228298332
 20
-78.54115440291184
 30
0.0
 10
12.29310724309352
 20
-78.50665802469698
 30
0.0
 10
12.45767084224144
 20
-78.48155791341435
 30
0.0
 10
12.60668899999996
 20
-78.45882887514443
 30
0.0
  0
SPLINE
  5
6BFE
330
1F
100
AcDbEntity
  8
AM_0
100
AcDbSpline
210
0.0
220
0.0
230
1.0
 70
     8
 71
     3
 72
    11
 73
     7
 74
     5
 42
0.0000000001
 43
0.0000000001
 44
0.0000000001
 40
0.0
 40
0.0
 40
0.0
 40
0.0
 40
0.1020233820503547
 40
0.2039683473012395
 40
0.3058478686831417
 40
0.4076766291096253
 40
0.4076766291096253
 40
0.4076766291096253
 40
0.4076766291096253
 10
13.01712499999997
 20
-78.39788887514442
 30
0.0
 10
12.98359429770276
 20
-78.40356792873124
 30
0.0
 10
12.9165586653412
 20
-78.41492167089362
 30
0.0
 10
12.81579452526492
 20
-78.43044116730781
 30
0.0
 10
12.71494485651716
 20
-78.44494603034306
 30
0.0
 10
12.64759535802101
 20
-78.45360331263096
 30
0.0
 10
12.61392899999999
 20
-78.45793087514443
 30
0.0
 11
13.01712499999997
 21
-78.39788887514442
 31
0.0
 11
12.91649200000001
 21
-78.41467487514444
 31
0.0
 11
12.81574799999999
 21
-78.43027687514444
 31
0.0
 11
12.71489399999996
 21
-78.44469587514445
 31
0.0
 11
12.61392899999999
 21
-78.45793087514443
 31
0.0
  0
SPLINE
  5
6BFF
330
1F
100
AcDbEntity
  8
AM_0
100
AcDbSpline
210
0.0
220
0.0
230
1.0
 70
     8
 71
     3
 72
    11
 73
     7
 74
     5
 42
0.0000000001
 43
0.0000000001
 44
0.0000000001
 40
0.0
 40
0.0
 40
0.0
 40
0.0
 40
0.2338399843482781
 40
0.4679035080891745
 40
0.7023333525224309
 40
0.9372704813994981
 40
0.9372704813994981
 40
0.9372704813994981
 40
0.9372704813994981
 10
13.948984
 20
-78.28367987514446
 30
0.0
 10
13.8712797452153
 20
-78.2898787980657
 30
0.0
 10
13.71579695424375
 20
-78.30228256977013
 30
0.0
 10
13.48310361396473
 20
-78.32828836952778
 30
0.0
 10
13.25064841542266
 20
-78.35924369626147
 30
0.0
 10
13.09627908512243
 20
-78.3847632884588
 30
0.0
 10
13.01901099999998
 20
-78.39753687514445
 30
0.0
 11
13.948984
 21
-78.28367987514446
 31
0.0
 11
13.71598599999999
 21
-78.30350587514442
 31
0.0
 11
13.48332499999998
 21
-78.32909087514446
 31
0.0
 11
13.25099999999998
 21
-78.36043487514445
 31
0.0
 11
13.01901099999998
 21
-78.39753687514445
 31
0.0
  0
SPLINE
  5
6C15
330
1F
100
AcDbEntity
  8
AM_0
100
AcDbSpline
210
0.0
220
0.0
230
1.0
 70
     8
 71
     3
 72
    11
 73
     7
 74
     5
 42
0.0000000001
 43
0.0000000001
 44
0.0000000001
 40
0.0
 40
0.0
 40
0.0
 40
0.0
 40
0.117554021985641
 40
0.2349308667422069
 40
0.3525818014133639
 40
0.4699948093639271
 40
0.4699948093639271
 40
0.4699948093639271
 40
0.4699948093639271
 10
2.619162001012796
 20
-86.56075921220926
 30
0.0
 10
2.604596054286935
 20
-86.59717759891362
 30
0.0
 10
2.575486114606219
 20
-86.66995948258962
 30
0.0
 10
2.546374946796785
 20
-86.7840920020432
 30
0.0
 10
2.527258384523996
 20
-86.90028278481094
 30
0.0
 10
2.5249453484479
 20
-86.97868352159563
 30
0.0
 10
2.523790001012799
 20
-87.01784421220927
 30
0.0
 11
2.619162001012796
 21
-86.56075921220926
 31
0.0
 11
2.577896001012789
 21
-86.67083221220926
 31
0.0
 11
2.548058001012748
 21
-86.78435321220928
 31
0.0
 11
2.529860001012764
 21
-86.90058821220927
 31
0.0
 11
2.523790001012799
 21
-87.01784421220927
 31
0.0
  0
SPLINE
  5
6C16
330
1F
100
AcDbEntity
  8
AM_0
100
AcDbSpline
210
0.0
220
0.0
230
1.0
 70
     8
 71
     3
 72
    11
 73
     7
 74
     5
 42
0.0000000001
 43
0.0000000001
 44
0.0000000001
 40
0.0
 40
0.0
 40
0.0
 40
0.0
 40
0.4000517601110863
 40
0.7699584343912377
 40
1.118670876241257
 40
1.456914539892172
 40
1.456914539892172
 40
1.456914539892172
 40
1.456914539892172
 10
15.54121300101281
 20
-87.14397321220926
 30
0.0
 10
15.64759679815422
 20
-87.06311281693917
 30
0.0
 10
15.85234805801332
 20
-86.90748509684333
 30
0.0
 10
16.18739977980419
 20
-86.74000018767035
 30
0.0
 10
16.52562174986194
 20
-86.63141381353094
 30
0.0
 10
16.75490261593913
 20
-86.61664706734734
 30
0.0
 10
16.86779600101278
 20
-86.60937621220927
 30
0.0
 11
15.54121300101281
 21
-87.14397321220926
 31
0.0
 11
15.86734500101278
 21
-86.91228521220927
 31
0.0
 11
16.19765400101278
 21
-86.74577121220926
 31
0.0
 11
16.53140400101279
 21
-86.64472021220928
 31
0.0
 11
16.86779600101278
 21
-86.60937621220927
 31
0.0
  0
LINE
  5
6C17
330
1F
100
AcDbEntity
  8
AM_0
100
AcDbLine
 10
16.86779600101278
 20
-86.60937621220927
 30
0.0
 11
17.24818100101277
 21
-86.64824921220927
 31
0.0
  0
SPLINE
  5
6C18
330
1F
100
AcDbEntity
  8
AM_0
100
AcDbSpline
210
0.0
220
0.0
230
1.0
 70
     8
 71
     3
 72
    10
 73
     6
 74
     0
 42
0.0000000001
 43
0.0000000001
 40
0.0
 40
0.0
 40
0.0
 40
0.0
 40
0.030949035994677
 40
0.0620080536546167
 40
0.0754842934605918
 40
0.0754842934605918
 40
0.0754842934605918
 40
0.0754842934605918
 10
17.24818100101277
 20
-86.64824921220927
 30
0.0
 10
17.25825806214135
 20
-86.65045918439748
 30
0.0
 10
17.27844799462417
 20
-86.65488698221463
 30
0.0
 10
17.30292229913766
 20
-86.66073194077788
 30
0.0
 10
17.31733079509138
 20
-86.66430746856065
 30
0.0
 10
17.32168720677856
 20
-86.66540337830321
 30
0.0
  0
LINE
  5
6C4B
330
1F
100
AcDbEntity
  8
AM_0
100
AcDbLine
 10
20.35513155044066
 20
-95.16865374473233
 30
0.0
 11
19.52208545119675
 21
-95.16738160052981
 31
0.0
  0
LINE
  5
6C5C
330
1F
100
AcDbEntity
  8
AM_0
100
AcDbLine
 10
20.35513155044066
 20
-95.16865374473233
 30
0.0
 11
20.36123994779348
 21
-91.16865840879981
 31
0.0
  0
LINE
  5
6CF6
330
1F
100
AcDbEntity
  8
AM_0
100
AcDbLine
 10
14.74545700222808
 20
-87.14707321221113
 30
0.0
 11
14.74517400222811
 21
-86.68723021221112
 31
0.0
  0
LINE
  5
6CF7
330
1F
100
AcDbEntity
  8
AM_0
100
AcDbLine
 10
15.21565300222807
 20
-85.09187421221114
 30
0.0
 11
14.85144900222809
 21
-85.92632121221112
 31
0.0
  0
SPLINE
  5
6CF8
330
1F
100
AcDbEntity
  8
AM_0
100
AcDbSpline
210
0.0
220
0.0
230
1.0
 70
     8
 71
     3
 72
    11
 73
     7
 74
     5
 42
0.0000000001
 43
0.0000000001
 44
0.0000000001
 40
0.0
 40
0.0
 40
0.0
 40
0.0
 40
0.1439757654780978
 40
0.3266135247640666
 40
0.5397625904176693
 40
0.7722488727764147
 40
0.7722488727764147
 40
0.7722488727764147
 40
0.7722488727764147
 10
14.85144900222809
 20
-85.92632121221112
 30
0.0
 10
14.83539071375963
 20
-85.97163131593686
 30
0.0
 10
14.79896198437628
 20
-86.07441870266231
 30
0.0
 10
14.76982620976141
 20
-86.25269396312356
 30
0.0
 10
14.74868130183729
 20
-86.46108002250978
 30
0.0
 10
14.74637643997783
 20
-86.60969719379136
 30
0.0
 10
14.74517400222811
 20
-86.68723021221112
 30
0.0
 11
14.85144900222809
 21
-85.92632121221112
 31
0.0
 11
14.80692700222807
 21
-86.06324021221113
 31
0.0
 11
14.7731860022281
 21
-86.24273421221113
 31
0.0
 11
14.75223600222807
 21
-86.45485121221114
 31
0.0
 11
14.74517400222811
 21
-86.68723021221112
 31
0.0
  0
SPLINE
  5
6CF9
330
1F
100
AcDbEntity
  8
AM_0
100
AcDbSpline
210
0.0
220
0.0
230
1.0
 70
     8
 71
     3
 72
    11
 73
     7
 74
     5
 42
0.0000000001
 43
0.0000000001
 44
0.0000000001
 40
0.0
 40
0.0
 40
0.0
 40
0.0
 40
0.2297982902330032
 40
0.4369137813580969
 40
0.6396581793399181
 40
0.8585892004881494
 40
0.8585892004881494
 40
0.8585892004881494
 40
0.8585892004881494
 10
15.21565300222807
 20
-85.09187421221114
 30
0.0
 10
15.24104453148598
 20
-85.01871877424691
 30
0.0
 10
15.2893212573541
 20
-84.87962888373704
 30
0.0
 10
15.26388237279414
 20
-84.66070806931698
 30
0.0
 10
15.15296071771702
 20
-84.4732454275597
 30
0.0
 10
15.03088360973297
 20
-84.39982868672266
 30
0.0
 10
14.96750200222806
 20
-84.36171121221113
 30
0.0
 11
15.21565300222807
 21
-85.09187421221114
 31
0.0
 11
15.27366600222808
 21
-84.86951921221112
 31
0.0
 11
15.24940800222811
 21
-84.66382921221114
 31
0.0
 11
15.14479100222809
 21
-84.49016121221112
 31
0.0
 11
14.96750200222806
 21
-84.36171121221113
 31
0.0
  0
ARC
  5
6D07
330
1F
100
AcDbEntity
  8
AM_0
100
AcDbCircle
 10
21.01866872407128
 20
-30.07450544252575
 30
0.0
 40
45.59001917602137
100
AcDbArc
 50
273.0790387397274
 51
275.8215204519727
  0
ARC
  5
6D08
330
1F
100
AcDbEntity
  8
AM_0
100
AcDbCircle
 10
26.84796700000001
 20
-88.83565637514445
 30
0.0
 40
13.4603087914334
100
AcDbArc
 50
93.7390655286482
 51
95.13657970450693
  0
ARC
  5
6D09
330
1F
100
AcDbEntity
  8
AM_0
100
AcDbCircle
 10
27.06948800000001
 20
-92.2253183751445
 30
0.0
 40
16.8572018282202
100
AcDbArc
 50
91.01150110925413
 51
93.73906714749096
  0
ARC
  5
6D0A
330
1F
100
AcDbEntity
  8
AM_0
100
AcDbCircle
 10
27.14097999999999
 20
-96.27455437514445
 30
0.0
 40
20.9070689894989
100
AcDbArc
 50
88.81213651102621
 51
91.01149908175336
  0
ARC
  5
6D0B
330
1F
100
AcDbEntity
  8
AM_0
100
AcDbCircle
 10
27.15662899999998
 20
-95.51987537514444
 30
0.0
 40
20.1522271548413
100
AcDbArc
 50
86.78444819906164
 51
88.81213837458812
  0
ARC
  5
6D0C
330
1F
100
AcDbEntity
  8
AM_0
100
AcDbCircle
 10
18.04522781593292
 20
-213.3454960546892
 30
0.0
 40
138.3257975223715
100
AcDbArc
 50
84.65789497536399
 51
85.75387347674007
  0
SPLINE
  5
6D0D
330
1F
100
AcDbEntity
  8
AM_0
100
AcDbSpline
210
0.0
220
0.0
230
1.0
 70
     8
 71
     3
 72
    11
 73
     7
 74
     5
 42
0.0000000001
 43
0.0000000001
 44
0.0000000001
 40
0.0
 40
0.0
 40
0.0
 40
0.0
 40
1.03054814508496
 40
2.144310208143758
 40
3.288930263297419
 40
4.439403995999312
 40
4.439403995999312
 40
4.439403995999312
 40
4.439403995999312
 10
23.46746829730334
 20
-75.59871031334293
 30
0.0
 10
23.12745834415919
 20
-75.65455949695689
 30
0.0
 10
22.41998357272347
 20
-75.77076753159463
 30
0.0
 10
21.40456815518792
 20
-76.21137219755661
 30
0.0
 10
20.47760367714511
 20
-76.90054967542849
 30
0.0
 10
20.04515841036675
 20
-77.53731540659514
 30
0.0
 10
19.82838429730332
 20
-77.85651031334291
 30
0.0
 11
23.46746829730334
 21
-75.59871031334293
 31
0.0
 11
22.45793529730331
 21
-75.8057673133429
 31
0.0
 11
21.43431329730332
 21
-76.24470231334291
 31
0.0
 11
20.52686529730333
 21
-76.94233631334291
 31
0.0
 11
19.82838429730332
 21
-77.85651031334291
 31
0.0
  0
SPLINE
  5
6D0E
330
1F
100
AcDbEntity
  8
AM_0
100
AcDbSpline
210
0.0
220
0.0
230
1.0
 70
     8
 71
     3
 72
    11
 73
     7
 74
     5
 42
0.0000000001
 43
0.0000000001
 44
0.0000000001
 40
0.0
 40
0.0
 40
0.0
 40
0.0
 40
1.281371737689446
 40
2.227946137519158
 40
3.141755655356452
 40
3.993620313741225
 40
3.993620313741225
 40
3.993620313741225
 40
3.993620313741225
 10
34.31614251840587
 20
-77.51506810603252
 30
0.0
 10
34.03533977556329
 20
-77.18926152556666
 30
0.0
 10
33.54710254672522
 20
-76.62277524279902
 30
0.0
 10
32.63908334520687
 20
-76.07695811473565
 30
0.0
 10
31.78665717099545
 20
-75.76023640827444
 30
0.0
 10
31.20452922477535
 20
-75.66598316507924
 30
0.0
 10
30.92367660161241
 20
-75.62050987906903
 30
0.0
 11
34.31614251840587
 21
-77.51506810603252
 31
0.0
 11
33.42223960161246
 21
-76.59699887906893
 31
0.0
 11
32.61744260161245
 21
-76.09869687906897
 31
0.0
 11
31.75990360161242
 21
-75.78298387906901
 31
0.0
 11
30.92367660161241
 21
-75.62050987906903
 31
0.0
  0
LINE
  5
6D0F
330
1F
100
AcDbEntity
  8
AM_7
  6
CENTER
370
    13
100
AcDbLine
 10
27.046342
 20
-72.69356742892302
 30
0.0
 11
27.046342
 21
-122.7609129436058
 31
0.0
  0
DIMENSION
  5
6D1F
330
1F
100
AcDbEntity
  8
AM_5
370
    13
100
AcDbDimension
  2
*D9
 10
201.2894229248821
 20
-119.1251718751445
 30
0.0
 11
197.8890489091341
 21
-103.1251718751444
 31
0.0
 70
    32
 71
     5
 42
32.00000000000003
  3
AM_JIS$0
100
AcDbAlignedDimension
 13
180.0
 23
-87.12517187514442
 33
0.0
 14
180.0
 24
-119.1251718751445
 34
0.0
 50
90.0
100
AcDbRotatedDimension
1001
ACAD
1000
DSTYLE
1002
{
1070
   271
1070
     0
1002
}
  0
LINE
  5
6D3F
330
1F
100
AcDbEntity
  8
AM_5
370
    13
100
AcDbLine
 10
0.0008626534818106
 20
-87.12517187514445
 30
0.0
 11
-2.118899686466364
 21
-87.12517187514445
 31
0.0
  0
DIMENSION
  5
6D42
330
1F
100
AcDbEntity
  8
AM_5
370
    13
100
AcDbDimension
  2
*D10
 10
-17.17963575460676
 20
-119.1251718751445
 30
0.0
 11
-20.58000977035477
 21
-103.1251718751445
 31
0.0
 70
    32
 71
     5
 42
32.0
  3
AM_JIS$0
100
AcDbAlignedDimension
 13
-2.118899686466364
 23
-87.12517187514445
 33
0.0
 14
2.0
 24
-119.1251718751445
 34
0.0
 50
90.0
100
AcDbRotatedDimension
1001
ACAD
1000
DSTYLE
1002
{
1070
   271
1070
     0
1002
}
  0
LINE
  5
710C
330
1F
100
AcDbEntity
  8
AM_0
100
AcDbLine
 10
-96.61954403746751
 20
7.200000000000046
 30
0.0
 11
-73.21979115454366
 21
7.200000000000046
 31
0.0
  0
LINE
  5
710D
330
1F
100
AcDbEntity
  8
AM_0
100
AcDbLine
 10
-72.68150363346672
 20
1.047345807744023
 30
0.0
 11
-96.61954403746751
 21
3.563335000000052
 31
0.0
  0
LINE
  5
710E
330
1F
100
AcDbEntity
  8
AM_0
100
AcDbLine
 10
-96.61954403746751
 20
3.563335000000052
 30
0.0
 11
-96.61954403746751
 21
7.200000000000046
 31
0.0
  0
LINE
  5
7110
330
1F
100
AcDbEntity
  8
AM_0
100
AcDbLine
 10
-96.61954403746751
 20
27.5
 30
0.0
 11
-67.52739203746751
 21
27.5
 31
0.0
  0
LINE
  5
7111
330
1F
100
AcDbEntity
  8
AM_0
100
AcDbLine
 10
-96.61954403746751
 20
7.200000000000046
 30
0.0
 11
-96.61954403746751
 21
27.5
 31
0.0
  0
LINE
  5
7112
330
1F
100
AcDbEntity
  8
AM_0
100
AcDbLine
 10
-67.52739203746751
 20
27.5
 30
0.0
 11
-66.75012193538933
 21
18.61576273229639
 31
0.0
  0
LINE
  5
7113
330
1F
100
AcDbEntity
  8
AM_0
100
AcDbLine
 10
-96.61954403746751
 20
32.0
 30
0.0
 11
-67.92109103746753
 21
32.0
 31
0.0
  0
LINE
  5
7114
330
1F
100
AcDbEntity
  8
AM_0
100
AcDbLine
 10
-96.61954403746751
 20
27.5
 30
0.0
 11
-96.61954403746751
 21
32.0
 31
0.0
  0
LINE
  5
7115
330
1F
100
AcDbEntity
  8
AM_0
100
AcDbLine
 10
-67.92109103746753
 20
32.0
 30
0.0
 11
-67.52739203746751
 21
27.5
 31
0.0
  0
LINE
  5
7116
330
1F
100
AcDbEntity
  8
AM_0
100
AcDbLine
 10
-65.12145403746752
 20
0.0
 30
0.0
 11
-96.61954403746751
 21
0.0
 31
0.0
  0
LINE
  5
7117
330
1F
100
AcDbEntity
  8
AM_0
100
AcDbLine
 10
-96.61954403746751
 20
3.563335000000052
 30
0.0
 11
-96.61954403746751
 21
0.0
 31
0.0
  0
LINE
  5
7118
330
1F
100
AcDbEntity
  8
AM_0
100
AcDbLine
 10
-65.12611603746751
 20
0.0532890000000066
 30
0.0
 11
-65.12145403746752
 21
0.0
 31
0.0
  0
LINE
  5
7119
330
1F
100
AcDbEntity
  8
AM_0
100
AcDbLine
 10
-64.61954403746753
 20
0.000060000000019
 30
0.0
 11
-64.61954403746753
 21
2.209461000000033
 31
0.0
  0
LINE
  5
711A
330
1F
100
AcDbEntity
  8
AM_0
100
AcDbLine
 10
-64.61954403746753
 20
31.65950800000002
 30
0.0
 11
-64.61954403746753
 21
32.0
 31
0.0
  0
LINE
  5
711B
330
1F
100
AcDbEntity
  8
AM_0
100
AcDbLine
 10
-65.12145403746752
 20
0.0
 30
0.0
 11
-64.61954403746753
 21
0.0
 31
0.0
  0
LINE
  5
711C
330
1F
100
AcDbEntity
  8
AM_0
100
AcDbLine
 10
-67.92109103746753
 20
32.0
 30
0.0
 11
-64.61954403746753
 21
32.0
 31
0.0
  0
LINE
  5
711D
330
1F
100
AcDbEntity
  8
AM_0
100
AcDbLine
 10
-64.89744003746753
 20
19.755968
 30
0.0
 11
-66.33255203746751
 21
19.57976600000001
 31
0.0
  0
LINE
  5
7121
330
1F
100
AcDbEntity
  8
AM_0
100
AcDbLine
 10
-66.33255203746751
 20
19.57976600000001
 30
0.0
 11
-65.20811903746753
 21
6.727439000000004
 31
0.0
  0
LINE
  5
7122
330
1F
100
AcDbEntity
  8
AM_0
100
AcDbLine
 10
-61.75116003746751
 20
5.918079000000034
 30
0.0
 11
-63.40354003746751
 21
2.795218000000034
 31
0.0
  0
LINE
  5
7123
330
1F
100
AcDbEntity
  8
AM_0
100
AcDbLine
 10
-64.42648703746752
 20
2.233165000000042
 30
0.0
 11
-64.81079203746751
 21
2.185980000000029
 31
0.0
  0
LINE
  5
7124
330
1F
100
AcDbEntity
  8
AM_0
100
AcDbLine
 10
-62.49117603746751
 20
11.95213000000001
 30
0.0
 11
-62.36891103746751
 21
10.95506
 31
0.0
  0
LINE
  5
7125
330
1F
100
AcDbEntity
  8
AM_0
100
AcDbLine
 10
-62.24664603746751
 20
9.957989999999995
 30
0.0
 11
-62.12438103746752
 21
8.960921000000042
 31
0.0
  0
LINE
  5
7126
330
1F
100
AcDbEntity
  8
AM_0
100
AcDbLine
 10
-62.00211603746752
 20
7.963851000000034
 30
0.0
 11
-61.75328703746752
 21
5.934658000000013
 31
0.0
  0
LINE
  5
7128
330
1F
100
AcDbEntity
  8
AM_0
100
AcDbLine
 10
-62.00211603746752
 20
7.963851000000034
 30
0.0
 11
-62.01792303746754
 21
8.144531000000029
 31
0.0
  0
LINE
  5
7129
330
1F
100
AcDbEntity
  8
AM_0
100
AcDbLine
 10
-61.76673203746751
 20
6.096077000000037
 30
0.0
 11
-62.01792303746754
 21
8.144531000000029
 31
0.0
  0
LINE
  5
712A
330
1F
100
AcDbEntity
  8
AM_0
100
AcDbLine
 10
-61.75116003746751
 20
5.918079000000034
 30
0.0
 11
-61.76673203746751
 21
6.096077000000037
 31
0.0
  0
LINE
  5
712C
330
1F
100
AcDbEntity
  8
AM_0
100
AcDbLine
 10
-62.24664603746751
 20
9.957989999999995
 30
0.0
 11
-62.26245303746751
 21
10.13867100000005
 31
0.0
  0
LINE
  5
712E
330
1F
100
AcDbEntity
  8
AM_0
100
AcDbLine
 10
-62.14018803746751
 20
9.141601000000037
 30
0.0
 11
-62.26245303746751
 21
10.13867100000005
 31
0.0
  0
LINE
  5
712F
330
1F
100
AcDbEntity
  8
AM_0
100
AcDbLine
 10
-62.14018803746751
 20
9.141601000000037
 30
0.0
 11
-62.12438103746752
 21
8.960921000000042
 31
0.0
  0
LINE
  5
7130
330
1F
100
AcDbEntity
  8
AM_0
100
AcDbLine
 10
-62.49117603746751
 20
11.95213000000001
 30
0.0
 11
-62.50698303746751
 21
12.13281000000001
 31
0.0
  0
LINE
  5
7131
330
1F
100
AcDbEntity
  8
AM_0
100
AcDbLine
 10
-62.38471803746751
 20
11.13574
 30
0.0
 11
-62.50698303746751
 21
12.13281000000001
 31
0.0
  0
LINE
  5
7132
330
1F
100
AcDbEntity
  8
AM_0
100
AcDbLine
 10
-62.38471803746751
 20
11.13574
 30
0.0
 11
-62.36891103746751
 21
10.95506
 31
0.0
  0
LINE
  5
7133
330
1F
100
AcDbEntity
  8
AM_0
100
AcDbLine
 10
-66.4596050374675
 20
21.03199000000001
 30
0.0
 11
-65.07476103746751
 21
21.20202000000001
 31
0.0
  0
LINE
  5
7134
330
1F
100
AcDbEntity
  8
AM_0
100
AcDbLine
 10
-66.33255203746751
 20
19.57976600000001
 30
0.0
 11
-66.4596050374675
 21
21.03199000000001
 31
0.0
  0
LINE
  5
7135
330
1F
100
AcDbEntity
  8
AM_0
100
AcDbLine
 10
-65.92894903746753
 20
28.16791599999999
 30
0.0
 11
-65.84598803746752
 21
27.61311599999999
 31
0.0
  0
LINE
  5
7136
330
1F
100
AcDbEntity
  8
AM_0
100
AcDbLine
 10
-65.50641703746751
 20
24.94598000000002
 30
0.0
 11
-64.08370703746752
 21
13.20154100000002
 31
0.0
  0
LINE
  5
7137
330
1F
100
AcDbEntity
  8
AM_0
100
AcDbLine
 10
-65.92894903746753
 20
28.16791599999999
 30
0.0
 11
-63.96359803746753
 21
12.14049700000004
 31
0.0
  0
LINE
  5
7138
330
1F
100
AcDbEntity
  8
AM_0
100
AcDbLine
 10
-55.79212403746752
 20
18.08554500000003
 30
0.0
 11
-56.96953503746752
 21
27.80504000000002
 31
0.0
  0
LINE
  5
713C
330
1F
100
AcDbEntity
  8
AM_0
100
AcDbLine
 10
-63.44700403746751
 20
28.46713800000003
 30
0.0
 11
-65.92894903746753
 21
28.16791599999999
 31
0.0
  0
LINE
  5
713D
330
1F
100
AcDbEntity
  8
AM_0
100
AcDbLine
 10
-54.65882003746754
 20
7.625981000000024
 30
0.0
 11
-55.78442303746752
 21
18.01841100000002
 31
0.0
  0
LINE
  5
713F
330
1F
100
AcDbEntity
  8
AM_0
100
AcDbLine
 10
-56.98300103746752
 20
27.904562
 30
0.0
 11
-57.21025003746752
 21
29.424285
 31
0.0
  0
LINE
  5
7140
330
1F
100
AcDbEntity
  8
AM_0
100
AcDbLine
 10
-62.50453303746753
 20
12.11282300000005
 30
0.0
 11
-61.55722003746752
 21
12.22703000000001
 31
0.0
  0
LINE
  5
7142
330
1F
100
AcDbEntity
  8
AM_0
100
AcDbLine
 10
-66.00854203746752
 20
27.06633700000003
 30
0.0
 11
-66.09339003746752
 21
27.78424100000001
 31
0.0
  0
LINE
  5
7143
330
1F
100
AcDbEntity
  8
AM_0
100
AcDbLine
 10
-66.49729403746753
 20
31.41862700000002
 30
0.0
 11
-66.06811403746752
 21
27.78728799999999
 31
0.0
  0
LINE
  5
7144
330
1F
100
AcDbEntity
  8
AM_0
100
AcDbLine
 10
-66.49729403746753
 20
31.41862700000002
 30
0.0
 11
-66.41263603746751
 21
31.28344100000004
 31
0.0
  0
LINE
  5
7145
330
1F
100
AcDbEntity
  8
AM_0
100
AcDbLine
 10
-65.17490103746749
 20
21.18972500000001
 30
0.0
 11
-66.41263603746751
 21
31.28344100000004
 31
0.0
  0
LINE
  5
7146
330
1F
100
AcDbEntity
  8
AM_0
100
AcDbLine
 10
-65.45778703746751
 20
23.34265500000004
 30
0.0
 11
-65.2029300374675
 21
21.186283
 31
0.0
  0
LINE
  5
7147
330
1F
100
AcDbEntity
  8
AM_0
100
AcDbLine
 10
-66.41263603746751
 20
31.28344100000004
 30
0.0
 11
-63.93069103746751
 21
31.58266300000003
 31
0.0
  0
LINE
  5
714A
330
1F
100
AcDbEntity
  8
AM_0
100
AcDbLine
 10
-67.39079403746752
 20
31.31090700000004
 30
0.0
 11
-66.49729403746753
 21
31.41862700000002
 31
0.0
  0
LINE
  5
714B
330
1F
100
AcDbEntity
  8
AM_0
100
AcDbLine
 10
-67.39079403746752
 20
31.31090700000004
 30
0.0
 11
-67.39897303746753
 21
31.32396700000004
 31
0.0
  0
LINE
  5
714E
330
1F
100
AcDbEntity
  8
AM_0
100
AcDbLine
 10
-57.6346770374675
 20
30.57286900000003
 30
0.0
 11
-57.74689503746751
 21
30.75206500000002
 31
0.0
  0
LINE
  5
714F
330
1F
100
AcDbEntity
  8
AM_0
100
AcDbLine
 10
-66.92312303746752
 20
20.59316799999999
 30
0.0
 11
-66.4264510374675
 21
20.65304600000002
 31
0.0
  0
LINE
  5
7150
330
1F
100
AcDbEntity
  8
AM_0
100
AcDbLine
 10
-65.93113803746752
 20
27.07566900000001
 30
0.0
 11
-67.47399503746752
 21
26.88966300000004
 31
0.0
  0
LINE
  5
7151
330
1F
100
AcDbEntity
  8
AM_0
100
AcDbLine
 10
-67.14586703746753
 20
23.139141
 30
0.0
 11
-65.45778703746751
 21
23.34265500000004
 31
0.0
  0
LINE
  5
7152
330
1F
100
AcDbEntity
  8
AM_0
100
AcDbLine
 10
-62.74521403746752
 20
4.039399000000003
 30
0.0
 11
-57.3341300374675
 21
4.691755999999998
 31
0.0
  0
LINE
  5
7153
330
1F
100
AcDbEntity
  8
AM_0
100
AcDbLine
 10
-66.06811403746752
 20
27.78728799999999
 30
0.0
 11
-66.96161403746751
 21
27.67956800000002
 31
0.0
  0
LINE
  5
7154
330
1F
100
AcDbEntity
  8
AM_0
100
AcDbLine
 10
-66.96161403746751
 20
27.67956800000002
 30
0.0
 11
-67.39079403746752
 21
31.31090700000004
 31
0.0
  0
LINE
  5
7155
330
1F
100
AcDbEntity
  8
AM_0
100
AcDbLine
 10
-67.08391003746752
 20
28.49742000000003
 30
0.0
 11
-66.96161403746751
 21
27.67956800000002
 31
0.0
  0
LINE
  5
7156
330
1F
100
AcDbEntity
  8
AM_0
100
AcDbLine
 10
-67.16266603746752
 20
29.16378300000002
 30
0.0
 11
-67.08391003746752
 21
28.49742000000003
 31
0.0
  0
LINE
  5
7157
330
1F
100
AcDbEntity
  8
AM_0
100
AcDbLine
 10
-60.64855803746752
 20
32.13824700000004
 30
0.0
 11
-67.39944803746752
 21
31.324364
 31
0.0
  0
LINE
  5
7158
330
1F
100
AcDbEntity
  8
AM_0
100
AcDbLine
 10
-72.64329003746752
 20
0.6105509999999867
 30
0.0
 11
-69.48951103746751
 21
1.049109000000044
 31
0.0
  0
LINE
  5
7159
330
1F
100
AcDbEntity
  8
AM_0
100
AcDbLine
 10
-72.64329003746752
 20
0.6105509999999867
 30
0.0
 11
-72.68150403746751
 21
1.047346000000005
 31
0.0
  0
LINE
  5
715A
330
1F
100
AcDbEntity
  8
AM_0
100
AcDbLine
 10
-72.63478003746752
 20
0.5132830000000013
 30
0.0
 11
-69.4377550374675
 21
0.4575290000000223
 31
0.0
  0
LINE
  5
715B
330
1F
100
AcDbEntity
  8
AM_0
100
AcDbLine
 10
-66.70439703746752
 20
0.2191270000000145
 30
0.0
 11
-64.6713060374675
 21
0.5916400000000408
 31
0.0
  0
LINE
  5
715C
330
1F
100
AcDbEntity
  8
AM_0
100
AcDbLine
 10
-69.44345403746752
 20
0.5226650000000177
 30
0.0
 11
-66.70439703746752
 21
0.2191270000000145
 31
0.0
  0
LINE
  5
715D
330
1F
100
AcDbEntity
  8
AM_0
100
AcDbLine
 10
-69.44345403746752
 20
0.5226650000000177
 30
0.0
 11
-69.4685300374675
 21
0.8092870000000403
 31
0.0
  0
LINE
  5
715E
330
1F
100
AcDbEntity
  8
AM_0
100
AcDbLine
 10
-66.73652403746752
 20
18.46033400000005
 30
0.0
 11
-66.24253303746752
 21
18.55084600000004
 31
0.0
  0
LINE
  5
715F
330
1F
100
AcDbEntity
  8
AM_0
100
AcDbLine
 10
-64.6713060374675
 20
0.5916400000000408
 30
0.0
 11
-65.20811903746753
 21
6.727439000000004
 31
0.0
  0
LINE
  5
7160
330
1F
100
AcDbEntity
  8
AM_0
100
AcDbLine
 10
-66.70439703746752
 20
0.2191270000000145
 30
0.0
 11
-64.61954903746752
 21
0.0000610000000165
 31
0.0
  0
LINE
  5
7161
330
1F
100
AcDbEntity
  8
AM_0
100
AcDbLine
 10
-66.26049503746754
 20
18.75616100000002
 30
0.0
 11
-66.75012203746752
 21
18.61576300000002
 31
0.0
  0
LINE
  5
7162
330
1F
100
AcDbEntity
  8
AM_0
100
AcDbLine
 10
-72.64329003746752
 20
0.6105509999999867
 30
0.0
 11
-72.6347790374675
 21
0.5132730000000265
 31
0.0
  0
LINE
  5
7163
330
1F
100
AcDbEntity
  8
AM_0
100
AcDbLine
 10
-69.48951103746751
 20
1.049109000000044
 30
0.0
 11
-69.4685300374675
 21
0.8092870000000403
 31
0.0
  0
LINE
  5
7164
330
1F
100
AcDbEntity
  8
AM_0
100
AcDbLine
 10
-69.44345403746752
 20
0.5226650000000177
 30
0.0
 11
-69.43775003746754
 21
0.4574680000000058
 31
0.0
  0
LINE
  5
7165
330
1F
100
AcDbEntity
  8
AM_0
100
AcDbLine
 10
-64.6713060374675
 20
0.5916400000000408
 30
0.0
 11
-64.61954403746753
 21
0.0
 31
0.0
  0
ARC
  5
7253
330
1F
100
AcDbEntity
  8
AM_0
100
AcDbCircle
 10
-60.17726203746753
 20
28.98061900000005
 30
0.0
 40
2.99999995461668
100
AcDbArc
 50
8.504591597896706
 51
32.0561462230224
  0
ARC
  5
7254
330
1F
100
AcDbEntity
  8
AM_0
100
AcDbCircle
 10
-60.28948003746751
 20
29.15981400000004
 30
0.0
 40
3.00000028820432
100
AcDbArc
 50
32.05616240962013
 51
96.87436578212294
  0
ARC
  5
7273
330
1F
100
AcDbEntity
  8
AM_0
100
AcDbCircle
 10
-57.1507530374675
 20
17.87042400000001
 30
0.0
 40
1.37432085812194
100
AcDbArc
 50
6.181600384246989
 51
6.685685688368323
  0
ARC
  5
7274
330
1F
100
AcDbEntity
  8
AM_0
100
AcDbCircle
 10
-57.1508850374675
 20
17.870409
 30
0.0
 40
1.37445355022932
100
AcDbArc
 50
6.685666104692181
 51
7.189673943923176
  0
ARC
  5
727F
330
1F
100
AcDbEntity
  8
AM_0
100
AcDbCircle
 10
-576.5367070374675
 20
-37.06063799999998
 30
0.0
 40
514.636007556419
100
AcDbArc
 50
6.740394089622304
 51
6.925213972270994
  0
ARC
  5
7280
330
1F
100
AcDbEntity
  8
AM_0
100
AcDbCircle
 10
-199.9638240374675
 20
8.677841000000001
 30
0.0
 40
135.295599617392
100
AcDbArc
 50
6.925213991365427
 51
7.628221500035337
  0
ARC
  5
7281
330
1F
100
AcDbEntity
  8
AM_0
100
AcDbCircle
 10
-65.24343003746751
 20
26.72092300000003
 30
0.0
 40
0.627677273987995
100
AcDbArc
 50
159.0389508048559
 51
187.6282361038922
  0
ARC
  5
7282
330
1F
100
AcDbEntity
  8
AM_0
100
AcDbCircle
 10
-65.91959903746752
 20
26.97995300000002
 30
0.0
 40
0.0964090865116086
100
AcDbArc
 50
339.0387796469327
 51
96.8740940962094
  0
ARC
  5
72AF
330
1F
100
AcDbEntity
  8
AM_0
100
AcDbCircle
 10
785.0548289625324
 20
129.885494
 30
0.0
 40
858.148892857335
100
AcDbArc
 50
186.6752608612735
 51
186.7403941192301
  0
ARC
  5
72B0
330
1F
100
AcDbEntity
  8
AM_0
100
AcDbCircle
 10
-8.59243503746751
 20
37.00076000000001
 30
0.0
 40
59.0847191526042
100
AcDbArc
 50
185.7292832499435
 51
186.6752610844698
  0
ARC
  5
72B1
330
1F
100
AcDbEntity
  8
AM_0
100
AcDbCircle
 10
-67.70057803746749
 20
31.07047
 30
0.0
 40
0.320170447433883
100
AcDbArc
 50
5.729450314194746
 51
33.75449106609035
  0
ARC
  5
72B2
330
1F
100
AcDbEntity
  8
AM_0
100
AcDbCircle
 10
-67.39357403746752
 20
31.27563800000002
 30
0.0
 40
0.0490787831144987
100
AcDbArc
 50
96.87393026037175
 51
213.7541762953437
  0
SPLINE
  5
7322
330
1F
100
AcDbEntity
  8
AM_0
100
AcDbSpline
210
0.0
220
0.0
230
1.0
 70
     8
 71
     3
 72
    11
 73
     7
 74
     5
 42
0.0000000001
 43
0.0000000001
 44
0.0000000001
 40
0.0
 40
0.0
 40
0.0
 40
0.0
 40
0.0078048872509482
 40
0.0131959450320981
 40
0.0161679870910251
 40
0.0167152722086753
 40
0.0167152722086753
 40
0.0167152722086753
 40
0.0167152722086753
 10
-61.75328703746752
 20
5.934658000000013
 30
0.0
 10
-61.75296696993713
 20
5.932076044105655
 30
0.0
 10
-61.75242582265318
 20
5.927710657782729
 30
0.0
 10
-61.75171797469285
 20
5.922368623509883
 30
0.0
 10
-61.75138419960305
 20
5.919415942212359
 30
0.0
 10
-61.7511902052317
 20
5.918258925826011
 30
0.0
 10
-61.75116003746751
 20
5.918079000000034
 30
0.0
 11
-61.75328703746752
 21
5.934658000000013
 31
0.0
 11
-61.75231403746753
 21
5.926914000000011
 31
0.0
 11
-61.75163403746751
 21
5.921566000000041
 31
0.0
 11
-61.75124903746752
 21
5.918619000000035
 31
0.0
 11
-61.75116003746751
 21
5.918079000000034
 31
0.0
  0
SPLINE
  5
7325
330
1F
100
AcDbEntity
  8
AM_0
100
AcDbSpline
210
0.0
220
0.0
230
1.0
 70
     8
 71
     3
 72
    11
 73
     7
 74
     5
 42
0.0000000001
 43
0.0000000001
 44
0.0000000001
 40
0.0
 40
0.0
 40
0.0
 40
0.0
 40
0.0604865111078489
 40
0.1263222301059871
 40
0.1951232023374961
 40
0.2644881603206153
 40
0.2644881603206153
 40
0.2644881603206153
 40
0.2644881603206153
 10
-64.1641580374675
 20
2.266880000000015
 30
0.0
 10
-64.18414115427615
 20
2.264198756240359
 30
0.0
 10
-64.22587462234206
 20
2.258599149237511
 30
0.0
 10
-64.29037614322449
 20
2.250237619354334
 30
0.0
 10
-64.35783232014241
 20
2.241649686517144
 30
0.0
 10
-64.4035399396935
 20
2.236000914831178
 30
0.0
 10
-64.42648703746752
 20
2.233165000000042
 30
0.0
 11
-64.1641580374675
 21
2.266880000000015
 31
0.0
 11
-64.2241130374675
 21
2.258879000000036
 31
0.0
 11
-64.28939903746752
 21
2.250389000000041
 31
0.0
 11
-64.35765103746752
 21
2.241714999999999
 31
0.0
 11
-64.42648703746752
 21
2.233165000000042
 31
0.0
  0
SPLINE
  5
7326
330
1F
100
AcDbEntity
  8
AM_0
100
AcDbSpline
210
0.0
220
0.0
230
1.0
 70
     8
 71
     3
 72
    11
 73
     7
 74
     5
 42
0.0000000001
 43
0.0000000001
 44
0.0000000001
 40
0.0
 40
0.0
 40
0.0
 40
0.0
 40
0.2405894612509293
 40
0.4808087932331555
 40
0.7206902120738228
 40
0.9602591298323444
 40
0.9602591298323444
 40
0.9602591298323444
 40
0.9602591298323444
 10
-63.40354003746751
 20
2.795218000000034
 30
0.0
 10
-63.44599348490197
 20
2.726685475264529
 30
0.0
 10
-63.53083506825071
 20
2.589725858064455
 30
0.0
 10
-63.71485024003242
 20
2.430678017810556
 30
0.0
 10
-63.92783918696853
 20
2.313855452525229
 30
0.0
 10
-64.08541932370309
 20
2.282531678664358
 30
0.0
 10
-64.1641580374675
 20
2.266880000000015
 30
0.0
 11
-63.40354003746751
 21
2.795218000000034
 31
0.0
 11
-63.54039603746753
 21
2.597345000000018
 31
0.0
 11
-63.71981903746752
 21
2.437618000000043
 31
0.0
 11
-63.93185803746752
 21
2.325446
 31
0.0
 11
-64.1641580374675
 21
2.266880000000015
 31
0.0
  0
SPLINE
  5
7327
330
1F
100
AcDbEntity
  8
AM_0
100
AcDbSpline
210
0.0
220
0.0
230
1.0
 70
     8
 71
     3
 72
    11
 73
     7
 74
     5
 42
0.0000000001
 43
0.0000000001
 44
0.0000000001
 40
0.0
 40
0.0
 40
0.0
 40
0.0
 40
0.1090131768411375
 40
0.1894247570084346
 40
0.2385397282494038
 40
0.254843928444439
 40
0.254843928444439
 40
0.254843928444439
 40
0.254843928444439
 10
-62.74465203746752
 20
11.97628400000002
 30
0.0
 10
-62.70857173247104
 20
11.97181229553006
 30
0.0
 10
-62.64587744903863
 20
11.96404211987625
 30
0.0
 10
-62.56683591024481
 20
11.95678617579701
 30
0.0
 10
-62.51838094872446
 20
11.95017629502842
 30
0.0
 10
-62.49660354627642
 20
11.95174022659317
 30
0.0
 10
-62.49117603746751
 20
11.95213000000001
 30
0.0
 11
-62.74465203746752
 21
11.97628400000002
 31
0.0
 11
-62.63638703746753
 21
11.96353400000004
 31
0.0
 11
-62.55642003746752
 21
11.95509000000004
 31
0.0
 11
-62.50745603746751
 21
11.95124200000004
 31
0.0
 11
-62.49117603746751
 21
11.95213000000001
 31
0.0
  0
SPLINE
  5
7328
330
1F
100
AcDbEntity
  8
AM_0
100
AcDbSpline
210
0.0
220
0.0
230
1.0
 70
     8
 71
     3
 72
    11
 73
     7
 74
     5
 42
0.0000000001
 43
0.0000000001
 44
0.0000000001
 40
0.0
 40
0.0
 40
0.0
 40
0.0
 40
0.0530151828913094
 40
0.2019132141912707
 40
0.4396932705164108
 40
0.7544175462070658
 40
0.7544175462070658
 40
0.7544175462070658
 40
0.7544175462070658
 10
-62.36891103746751
 20
10.95506
 30
0.0
 10
-62.37515509005309
 20
10.93852739831195
 30
0.0
 10
-62.39893614028005
 20
10.87556145980667
 30
0.0
 10
-62.45567682663895
 20
10.74039689392136
 30
0.0
 10
-62.54469865233298
 20
10.52422090825844
 30
0.0
 10
-62.6158110969411
 20
10.35433276320978
 30
0.0
 10
-62.65631903746751
 20
10.25755900000002
 30
0.0
 11
-62.36891103746751
 21
10.95506
 31
0.0
 11
-62.38780003746751
 21
10.90552400000001
 31
0.0
 11
-62.44408503746752
 21
10.767674
 31
0.0
 11
-62.53511603746753
 21
10.54800900000004
 31
0.0
 11
-62.65631903746751
 21
10.25755900000002
 31
0.0
  0
SPLINE
  5
7329
330
1F
100
AcDbEntity
  8
AM_0
100
AcDbSpline
210
0.0
220
0.0
230
1.0
 70
     8
 71
     3
 72
    11
 73
     7
 74
     5
 42
0.0000000001
 43
0.0000000001
 44
0.0000000001
 40
0.0
 40
0.0
 40
0.0
 40
0.0
 40
0.1090130598873517
 40
0.1894247450705206
 40
0.2385397163114898
 40
0.254843916506525
 40
0.254843916506525
 40
0.254843916506525
 40
0.254843916506525
 10
-62.50012203746752
 20
9.982144000000005
 30
0.0
 10
-62.46404170095958
 20
9.977672915757157
 30
0.0
 10
-62.40134729946187
 20
9.969903809984281
 30
0.0
 10
-62.32230597022257
 20
9.962645945680041
 30
0.0
 10
-62.27385094738271
 20
9.956036307591798
 30
0.0
 10
-62.25207354600874
 20
9.957600229099613
 30
0.0
 10
-62.24664603746751
 20
9.957989999999995
 30
0.0
 11
-62.50012203746752
 21
9.982144000000005
 31
0.0
 11
-62.3918570374675
 21
9.96939500000002
 31
0.0
 11
-62.31189003746752
 21
9.960950000000025
 31
0.0
 11
-62.26292603746751
 21
9.95710200000002
 31
0.0
 11
-62.24664603746751
 21
9.957989999999995
 31
0.0
  0
SPLINE
  5
732A
330
1F
100
AcDbEntity
  8
AM_0
100
AcDbSpline
210
0.0
220
0.0
230
1.0
 70
     8
 71
     3
 72
    11
 73
     7
 74
     5
 42
0.0000000001
 43
0.0000000001
 44
0.0000000001
 40
0.0
 40
0.0
 40
0.0
 40
0.0
 40
0.053016117266397
 40
0.2019132227654271
 40
0.4396932790906088
 40
0.7544175547812748
 40
0.7544175547812748
 40
0.7544175547812748
 40
0.7544175547812748
 10
-62.12438103746752
 20
8.960921000000042
 30
0.0
 10
-62.13062506536108
 20
8.944388055347906
 30
0.0
 10
-62.15440560343206
 20
8.881421917715819
 30
0.0
 10
-62.2111473387768
 20
8.746257765257402
 30
0.0
 10
-62.30016849130498
 20
8.530081844329267
 30
0.0
 10
-62.37128103850274
 20
8.360193740009354
 30
0.0
 10
-62.41178903746751
 20
8.263419999999996
 30
0.0
 11
-62.12438103746752
 21
8.960921000000042
 31
0.0
 11
-62.14327003746752
 21
8.911383999999998
 31
0.0
 11
-62.19955503746752
 21
8.773535000000038
 31
0.0
 11
-62.29058603746751
 21
8.553870000000018
 31
0.0
 11
-62.41178903746751
 21
8.263419999999996
 31
0.0
  0
SPLINE
  5
732B
330
1F
100
AcDbEntity
  8
AM_0
100
AcDbSpline
210
0.0
220
0.0
230
1.0
 70
     8
 71
     3
 72
    11
 73
     7
 74
     5
 42
0.0000000001
 43
0.0000000001
 44
0.0000000001
 40
0.0
 40
0.0
 40
0.0
 40
0.0
 40
0.1090141699780546
 40
0.1894247556742022
 40
0.238540723841398
 40
0.2548439255208218
 40
0.2548439255208218
 40
0.2548439255208218
 40
0.2548439255208218
 10
-62.25559203746752
 20
7.988005000000044
 30
0.0
 10
-62.21951139500641
 20
7.983533323862927
 30
0.0
 10
-62.15681709678681
 20
7.975763268283014
 30
0.0
 10
-62.07777525771348
 20
7.968507075782644
 30
0.0
 10
-62.02932060920034
 20
7.961897251808342
 30
0.0
 10
-62.00754321256387
 20
7.963461237072144
 30
0.0
 10
-62.00211603746752
 20
7.963851000000034
 30
0.0
 11
-62.25559203746752
 21
7.988005000000044
 31
0.0
 11
-62.14732603746751
 21
7.975255000000004
 31
0.0
 11
-62.06736003746752
 21
7.966811000000007
 31
0.0
 11
-62.01839503746751
 21
7.962963000000002
 31
0.0
 11
-62.00211603746752
 21
7.963851000000034
 31
0.0
  0
SPLINE
  5
732C
330
1F
100
AcDbEntity
  8
AM_0
100
AcDbSpline
210
0.0
220
0.0
230
1.0
 70
     8
 71
     3
 72
    11
 73
     7
 74
     5
 42
0.0000000001
 43
0.0000000001
 44
0.0000000001
 40
0.0
 40
0.0
 40
0.0
 40
0.0
 40
0.0159434720496923
 40
0.0320303296981454
 40
0.0482574194248861
 40
0.0646251271446362
 40
0.0646251271446362
 40
0.0646251271446362
 40
0.0646251271446362
 10
-62.87592003746752
 20
12.31132100000002
 30
0.0
 10
-62.87796965355641
 20
12.30641764552269
 30
0.0
 10
-62.88208731869717
 20
12.29656683886988
 30
0.0
 10
-62.88829198310926
 20
12.28172583791332
 30
0.0
 10
-62.89455170759669
 20
12.26675458323342
 30
0.0
 10
-62.89874456467568
 20
12.25673127500885
 30
0.0
 10
-62.90085003746754
 20
12.25169800000003
 30
0.0
 11
-62.87592003746752
 21
12.31132100000002
 31
0.0
 11
-62.88206903746752
 21
12.29661100000004
 31
0.0
 11
-62.88827403746754
 21
12.281769
 31
0.0
 11
-62.89453403746751
 21
12.26679799999999
 31
0.0
 11
-62.90085003746754
 21
12.25169800000003
 31
0.0
  0
SPLINE
  5
732D
330
1F
100
AcDbEntity
  8
AM_0
100
AcDbSpline
210
0.0
220
0.0
230
1.0
 70
     8
 71
     3
 72
    11
 73
     7
 74
     5
 42
0.0000000001
 43
0.0000000001
 44
0.0000000001
 40
0.0
 40
0.0
 40
0.0
 40
0.0
 40
0.017873910484243
 40
0.0682912891646223
 40
0.1498975188839418
 40
0.2602206499716491
 40
0.2602206499716491
 40
0.2602206499716491
 40
0.2602206499716491
 10
-62.01792303746754
 20
8.144531000000029
 30
0.0
 10
-62.02355640392005
 20
8.146489150905033
 30
0.0
 10
-62.04507994560484
 20
8.153970706203149
 30
0.0
 10
-62.09469146286133
 20
8.161598482434359
 30
0.0
 10
-62.1739585225296
 20
8.17659428799789
 30
0.0
 10
-62.23715690460506
 20
8.186703888944455
 30
0.0
 10
-62.27348403746751
 20
8.192515000000014
 30
0.0
 11
-62.01792303746754
 21
8.144531000000029
 31
0.0
 11
-62.03489703746752
 21
8.150130999999988
 31
0.0
 11
-62.08429403746752
 21
8.16022300000003
 31
0.0
 11
-62.16464203746753
 21
8.174498000000028
 31
0.0
 11
-62.27348403746751
 21
8.192515000000014
 31
0.0
  0
SPLINE
  5
732E
330
1F
100
AcDbEntity
  8
AM_0
100
AcDbSpline
210
0.0
220
0.0
230
1.0
 70
     8
 71
     3
 72
    11
 73
     7
 74
     5
 42
0.0000000001
 43
0.0000000001
 44
0.0000000001
 40
0.0
 40
0.0
 40
0.0
 40
0.0
 40
0.01787391048427
 40
0.0682912891646658
 40
0.1498975188839672
 40
0.2602204866649128
 40
0.2602204866649128
 40
0.2602204866649128
 40
0.2602204866649128
 10
-62.26245303746751
 20
10.13867100000005
 30
0.0
 10
-62.26808640386638
 20
10.14062915122888
 30
0.0
 10
-62.28960994534629
 20
10.14811070776427
 30
0.0
 10
-62.33922146730956
 20
10.15573845558248
 30
0.0
 10
-62.41848843750955
 20
10.17073446867961
 30
0.0
 10
-62.48168688809101
 20
10.18084332221939
 30
0.0
 10
-62.51801403746751
 20
10.18665400000003
 30
0.0
 11
-62.26245303746751
 21
10.13867100000005
 31
0.0
 11
-62.27942703746751
 21
10.144271
 31
0.0
 11
-62.32882403746754
 21
10.15436299999999
 31
0.0
 11
-62.40917203746753
 21
10.16863800000004
 31
0.0
 11
-62.51801403746751
 21
10.18665400000003
 31
0.0
  0
SPLINE
  5
732F
330
1F
100
AcDbEntity
  8
AM_0
100
AcDbSpline
210
0.0
220
0.0
230
1.0
 70
     8
 71
     3
 72
    11
 73
     7
 74
     5
 42
0.0000000001
 43
0.0000000001
 44
0.0000000001
 40
0.0
 40
0.0
 40
0.0
 40
0.0
 40
0.0178739104842878
 40
0.0682922689264204
 40
0.149898498645712
 40
0.260220643158989
 40
0.260220643158989
 40
0.260220643158989
 40
0.260220643158989
 10
-62.50698303746751
 20
12.13281000000001
 30
0.0
 10
-62.51261640344971
 20
12.13476815357181
 30
0.0
 10
-62.53414025213166
 20
12.14224982639557
 30
0.0
 10
-62.58375216889708
 20
12.14987729232876
 30
0.0
 10
-62.66301919317131
 20
12.16487325354598
 30
0.0
 10
-62.72621723710118
 20
12.17498289040009
 30
0.0
 10
-62.76254403746754
 20
12.18079399999999
 30
0.0
 11
-62.50698303746751
 21
12.13281000000001
 31
0.0
 11
-62.52395703746751
 21
12.13841000000002
 31
0.0
 11
-62.57335503746751
 21
12.14850200000001
 31
0.0
 11
-62.65370303746749
 21
12.16277700000001
 31
0.0
 11
-62.76254403746754
 21
12.18079399999999
 31
0.0
  0
SPLINE
  5
7331
330
1F
100
AcDbEntity
  8
AM_0
100
AcDbSpline
210
0.0
220
0.0
230
1.0
 70
     8
 71
     3
 72
    11
 73
     7
 74
     5
 42
0.0000000001
 43
0.0000000001
 44
0.0000000001
 40
0.0
 40
0.0
 40
0.0
 40
0.0
 40
0.1464131924827918
 40
0.2920372078717349
 40
0.4371431485151389
 40
0.5820014523054131
 40
0.5820014523054131
 40
0.5820014523054131
 40
0.5820014523054131
 10
-55.92075703746752
 20
18.65218200000004
 30
0.0
 10
-55.90585595402372
 20
18.60569569222788
 30
0.0
 10
-55.87613410499221
 20
18.51297364105312
 30
0.0
 10
-55.84073344953647
 20
18.37154169443023
 30
0.0
 10
-55.81167851973301
 20
18.22919704586931
 30
0.0
 10
-55.798638486049
 20
18.1334017447471
 30
0.0
 10
-55.79212403746752
 20
18.08554500000003
 30
0.0
 11
-55.92075703746752
 21
18.65218200000004
 31
0.0
 11
-55.87758003746751
 21
18.51228000000003
 31
0.0
 11
-55.84173303746752
 21
18.37113700000003
 31
0.0
 11
-55.81324003746752
 21
18.22885600000001
 31
0.0
 11
-55.79212403746752
 21
18.08554500000003
 31
0.0
  0
SPLINE
  5
7334
330
1F
100
AcDbEntity
  8
AM_0
100
AcDbSpline
210
0.0
220
0.0
230
1.0
 70
     8
 71
     3
 72
    11
 73
     7
 74
     5
 42
0.0000000001
 43
0.0000000001
 44
0.0000000001
 40
0.0
 40
0.0
 40
0.0
 40
0.0
 40
0.0867365486977695
 40
0.1738938783551106
 40
0.2614631939970648
 40
0.3494333346698992
 40
0.3494333346698992
 40
0.3494333346698992
 40
0.3494333346698992
 10
-61.33356003746752
 20
12.46952600000003
 30
0.0
 10
-61.36223584342022
 20
12.46583649014908
 30
0.0
 10
-61.41972656892108
 20
12.45843957170071
 30
0.0
 10
-61.5061719380666
 20
12.44734509450192
 30
0.0
 10
-61.59302703758063
 20
12.43621291983817
 30
0.0
 10
-61.65106752781445
 20
12.42879062261236
 30
0.0
 10
-61.6801540374675
 20
12.425071
 30
0.0
 11
-61.33356003746752
 21
12.46952600000003
 31
0.0
 11
-61.41958803746752
 21
12.458462
 31
0.0
 11
-61.50603603746751
 21
12.44736499999999
 31
0.0
 11
-61.59289503746751
 21
12.43623400000001
 31
0.0
 11
-61.6801540374675
 21
12.425071
 31
0.0
  0
SPLINE
  5
7336
330
1F
100
AcDbEntity
  8
AM_0
100
AcDbSpline
210
0.0
220
0.0
230
1.0
 70
     8
 71
     3
 72
    11
 73
     7
 74
     5
 42
0.0000000001
 43
0.0000000001
 44
0.0000000001
 40
0.0
 40
0.0
 40
0.0
 40
0.0
 40
0.2617008428435304
 40
0.5271213815589642
 40
0.7999445610232419
 40
1.083528810402507
 40
1.083528810402507
 40
1.083528810402507
 40
1.083528810402507
 10
-64.65121103746751
 20
30.29864500000002
 30
0.0
 10
-64.65859622721916
 20
30.38569794739497
 30
0.0
 10
-64.67347157642577
 20
30.56104117289248
 30
0.0
 10
-64.65216244012512
 20
30.82781534075782
 30
0.0
 10
-64.60134552707127
 20
31.09776445313989
 30
0.0
 10
-64.54115324566064
 20
31.27343100486536
 30
0.0
 10
-64.51047503746753
 20
31.36296300000004
 30
0.0
 11
-64.65121103746751
 21
30.29864500000002
 31
0.0
 11
-64.66623903746751
 21
30.55991400000005
 31
0.0
 11
-64.64775303746751
 21
30.82469000000003
 31
0.0
 11
-64.59581103746751
 21
31.09252300000003
 31
0.0
 11
-64.51047503746753
 21
31.36296300000004
 31
0.0
  0
SPLINE
  5
7337
330
1F
100
AcDbEntity
  8
AM_0
100
AcDbSpline
210
0.0
220
0.0
230
1.0
 70
     8
 71
     3
 72
    11
 73
     7
 74
     5
 42
0.0000000001
 43
0.0000000001
 44
0.0000000001
 40
0.0
 40
0.0
 40
0.0
 40
0.0
 40
0.1066924888124425
 40
0.2605038180701019
 40
0.4612251374285528
 40
0.7085235190245641
 40
0.7085235190245641
 40
0.7085235190245641
 40
0.7085235190245641
 10
-62.3881310374675
 20
12.40946000000002
 30
0.0
 10
-62.35261111925303
 20
12.40750430827943
 30
0.0
 10
-62.26588454257077
 20
12.40272922836656
 30
0.0
 10
-62.11206763190759
 20
12.40566456007666
 30
0.0
 10
-61.91159450527148
 20
12.41236261323413
 30
0.0
 10
-61.76246867095699
 20
12.42055110679031
 30
0.0
 10
-61.6801540374675
 20
12.425071
 30
0.0
 11
-62.3881310374675
 21
12.40946000000002
 31
0.0
 11
-62.28154603746754
 21
12.40467200000001
 31
0.0
 11
-62.12773803746751
 21
12.40568400000001
 31
0.0
 11
-61.92713203746752
 21
12.412487
 31
0.0
 11
-61.6801540374675
 21
12.425071
 31
0.0
  0
SPLINE
  5
7338
330
1F
100
AcDbEntity
  8
AM_0
100
AcDbSpline
210
0.0
220
0.0
230
1.0
 70
     8
 71
     3
 72
    11
 73
     7
 74
     5
 42
0.0000000001
 43
0.0000000001
 44
0.0000000001
 40
0.0
 40
0.0
 40
0.0
 40
0.0
 40
0.1009239516665754
 40
0.212843914340809
 40
0.3357028787227384
 40
0.4694382895756707
 40
0.4694382895756707
 40
0.4694382895756707
 40
0.4694382895756707
 10
-64.39162803746751
 20
31.49380600000001
 30
0.0
 10
-64.35868748112632
 20
31.50063785529999
 30
0.0
 10
-64.2892173817451
 20
31.51504591998875
 30
0.0
 10
-64.17939249800565
 20
31.53651103384379
 30
0.0
 10
-64.05870114050532
 20
31.55937938256945
 30
0.0
 10
-63.97455006215192
 20
31.57468553003948
 30
0.0
 10
-63.93069103746751
 20
31.58266300000003
 30
0.0
 11
-64.39162803746751
 21
31.49380600000001
 31
0.0
 11
-64.29277003746753
 21
31.51412200000004
 31
0.0
 11
-64.18295203746752
 21
31.53571099999999
 31
0.0
 11
-64.06223703746753
 21
31.55856300000005
 31
0.0
 11
-63.93069103746751
 21
31.58266300000003
 31
0.0
  0
SPLINE
  5
7339
330
1F
100
AcDbEntity
  8
AM_0
100
AcDbSpline
210
0.0
220
0.0
230
1.0
 70
     8
 71
     3
 72
    11
 73
     7
 74
     5
 42
0.0000000001
 43
0.0000000001
 44
0.0000000001
 40
0.0
 40
0.0
 40
0.0
 40
0.0
 40
0.641031345244522
 40
1.217736786054648
 40
1.745984372076578
 40
2.247583785666742
 40
2.247583785666742
 40
2.247583785666742
 40
2.247583785666742
 10
-63.44700403746751
 20
28.46713800000003
 30
0.0
 10
-63.61191235678555
 20
28.60385380878239
 30
0.0
 10
-63.92518085488595
 20
28.86356633426891
 30
0.0
 10
-64.29176502172895
 20
29.31935545521223
 30
0.0
 10
-64.55179860267738
 20
29.79525637927695
 30
0.0
 10
-64.61865017306872
 20
30.1337685571902
 30
0.0
 10
-64.65121103746751
 20
30.29864500000002
 30
0.0
 11
-63.44700403746751
 21
28.46713800000003
 31
0.0
 11
-63.92576903746752
 21
28.89340700000003
 31
0.0
 11
-64.28746103746752
 21
29.34259300000002
 31
0.0
 11
-64.52984403746751
 21
29.81195000000002
 31
0.0
 11
-64.65121103746751
 21
30.29864500000002
 31
0.0
  0
SPLINE
  5
733A
330
1F
100
AcDbEntity
  8
AM_0
100
AcDbSpline
210
0.0
220
0.0
230
1.0
 70
     8
 71
     3
 72
    11
 73
     7
 74
     5
 42
0.0000000001
 43
0.0000000001
 44
0.0000000001
 40
0.0
 40
0.0
 40
0.0
 40
0.0
 40
0.7762371715042716
 40
1.686707525711391
 40
2.719914327603427
 40
3.862314985223156
 40
3.862314985223156
 40
3.862314985223156
 40
3.862314985223156
 10
-57.00330003746754
 20
16.683919
 30
0.0
 10
-57.15849798602877
 20
16.47688471389763
 30
0.0
 10
-57.4957319622192
 20
16.02701410570138
 30
0.0
 10
-58.04381399371654
 20
15.30479108710553
 30
0.0
 10
-58.6677522983044
 20
14.48692130107149
 30
0.0
 10
-59.10946820928163
 20
13.91176350069723
 30
0.0
 10
-59.34141103746751
 20
13.60975100000002
 30
0.0
 11
-57.00330003746754
 21
16.683919
 31
0.0
 11
-57.4694550374675
 21
16.06323900000001
 31
0.0
 11
-58.01936803746753
 21
15.33760000000001
 31
0.0
 11
-58.64609403746752
 21
14.51618000000002
 31
0.0
 11
-59.34141103746751
 21
13.60975100000002
 31
0.0
  0
SPLINE
  5
733E
330
1F
100
AcDbEntity
  8
AM_0
100
AcDbSpline
210
0.0
220
0.0
230
1.0
 70
     8
 71
     3
 72
    11
 73
     7
 74
     5
 42
0.0000000001
 43
0.0000000001
 44
0.0000000001
 40
0.0
 40
0.0
 40
0.0
 40
0.0
 40
0.0551352693745093
 40
0.1201829921786166
 40
0.1930640942902133
 40
0.2669157248206172
 40
0.2669157248206172
 40
0.2669157248206172
 40
0.2669157248206172
 10
-62.74465203746752
 20
11.97628400000002
 30
0.0
 10
-62.76278235867576
 20
11.98004752442069
 30
0.0
 10
-62.80230254741679
 20
11.98825119570305
 30
0.0
 10
-62.85690414577991
 20
12.02501078448558
 30
0.0
 10
-62.90162001770995
 20
12.08248049041582
 30
0.0
 10
-62.91114236977807
 20
12.1310697029132
 30
0.0
 10
-62.91593503746751
 20
12.15552500000001
 30
0.0
 11
-62.74465203746752
 21
11.97628400000002
 31
0.0
 11
-62.79787903746751
 21
11.99066400000004
 31
0.0
 11
-62.85249003746753
 21
12.026003
 31
0.0
 11
-62.89612103746754
 21
12.08438100000001
 31
0.0
 11
-62.91593503746751
 21
12.15552500000001
 31
0.0
  0
SPLINE
  5
733F
330
1F
100
AcDbEntity
  8
AM_0
100
AcDbSpline
210
0.0
220
0.0
230
1.0
 70
     8
 71
     3
 72
    11
 73
     7
 74
     5
 42
0.0000000001
 43
0.0000000001
 44
0.0000000001
 40
0.0
 40
0.0
 40
0.0
 40
0.0
 40
0.0551343039858124
 40
0.1201834096214816
 40
0.1930645117330782
 40
0.266916142263435
 40
0.266916142263435
 40
0.266916142263435
 40
0.266916142263435
 10
-62.50012203746752
 20
9.982144000000005
 30
0.0
 10
-62.5182520177423
 20
9.985907563531663
 30
0.0
 10
-62.55777229256707
 20
9.99411149220877
 30
0.0
 10
-62.61237375881511
 20
10.03087154027896
 30
0.0
 10
-62.65709004295565
 20
10.08834145558779
 30
0.0
 10
-62.66661237823033
 20
10.13693069125277
 30
0.0
 10
-62.67140503746751
 20
10.16138599999999
 30
0.0
 11
-62.50012203746752
 21
9.982144000000005
 31
0.0
 11
-62.55334803746752
 21
9.996524000000022
 31
0.0
 11
-62.60796003746751
 21
10.03186400000004
 31
0.0
 11
-62.65159103746751
 21
10.09024200000005
 31
0.0
 11
-62.67140503746751
 21
10.16138599999999
 31
0.0
  0
SPLINE
  5
7340
330
1F
100
AcDbEntity
  8
AM_0
100
AcDbSpline
210
0.0
220
0.0
230
1.0
 70
     8
 71
     3
 72
    11
 73
     7
 74
     5
 42
0.0000000001
 43
0.0000000001
 44
0.0000000001
 40
0.0
 40
0.0
 40
0.0
 40
0.0
 40
0.0551343039857976
 40
0.120182026789912
 40
0.1930631289015086
 40
0.2669150277328957
 40
0.2669150277328957
 40
0.2669150277328957
 40
0.2669150277328957
 10
-62.25559203746752
 20
7.988005000000044
 30
0.0
 10
-62.27372200580335
 20
7.991768573321894
 30
0.0
 10
-62.3132417998829
 20
7.999972428945231
 30
0.0
 10
-62.36784320885369
 20
8.036731752493697
 30
0.0
 10
-62.41255881716576
 20
8.09420163996697
 30
0.0
 10
-62.4220819620827
 20
8.142790723628519
 30
0.0
 10
-62.42687503746754
 20
8.167246000000034
 30
0.0
 11
-62.25559203746752
 21
7.988005000000044
 31
0.0
 11
-62.30881803746752
 21
8.002385000000004
 31
0.0
 11
-62.36342903746751
 21
8.037724000000026
 31
0.0
 11
-62.40706003746752
 21
8.09610200000003
 31
0.0
 11
-62.42687503746754
 21
8.167246000000034
 31
0.0
  0
SPLINE
  5
7341
330
1F
100
AcDbEntity
  8
AM_0
100
AcDbSpline
210
0.0
220
0.0
230
1.0
 70
     8
 71
     3
 72
    11
 73
     7
 74
     5
 42
0.0000000001
 43
0.0000000001
 44
0.0000000001
 40
0.0
 40
0.0
 40
0.0
 40
0.0
 40
0.0257350284631783
 40
0.0507743412532498
 40
0.0748433181737273
 40
0.0982437928056654
 40
0.0982437928056654
 40
0.0982437928056654
 40
0.0982437928056654
 10
-62.42687503746754
 20
8.167246000000034
 30
0.0
 10
-62.42729580271076
 20
8.1758277171648
 30
0.0
 10
-62.42812595831275
 20
8.192759155048627
 30
0.0
 10
-62.4253027691308
 20
8.217624066529606
 30
0.0
 10
-62.42032355512209
 20
8.241353092555691
 30
0.0
 10
-62.41460704186832
 20
8.256133748473328
 30
0.0
 10
-62.41178903746751
 20
8.263419999999996
 30
0.0
 11
-62.42687503746754
 21
8.167246000000034
 31
0.0
 11
-62.4274320374675
 21
8.192975000000047
 31
0.0
 11
-62.42487103746751
 21
8.217883000000029
 31
0.0
 11
-62.41964603746752
 21
8.241377999999997
 31
0.0
 11
-62.41178903746751
 21
8.263419999999996
 31
0.0
  0
SPLINE
  5
7342
330
1F
100
AcDbEntity
  8
AM_0
100
AcDbSpline
210
0.0
220
0.0
230
1.0
 70
     8
 71
     3
 72
    11
 73
     7
 74
     5
 42
0.0000000001
 43
0.0000000001
 44
0.0000000001
 40
0.0
 40
0.0
 40
0.0
 40
0.0
 40
0.0340987440384603
 40
0.0703871232527445
 40
0.1092602523910132
 40
0.1508304362371475
 40
0.1508304362371475
 40
0.1508304362371475
 40
0.1508304362371475
 10
-62.27348403746751
 20
8.192515000000014
 30
0.0
 10
-62.28464452331473
 20
8.194837459826969
 30
0.0
 10
-62.30768216047819
 20
8.199631515171209
 30
0.0
 10
-62.34096619046423
 20
8.214987924534871
 30
0.0
 10
-62.3737495192934
 20
8.236520433114281
 30
0.0
 10
-62.39175925820103
 20
8.256532493620787
 30
0.0
 10
-62.40106603746753
 20
8.26687400000003
 30
0.0
 11
-62.27348403746751
 21
8.192515000000014
 31
0.0
 11
-62.30659103746751
 21
8.200679000000037
 31
0.0
 11
-62.33976203746752
 21
8.215394000000003
 31
0.0
 11
-62.37192203746753
 21
8.237231000000008
 31
0.0
 11
-62.40106603746753
 21
8.26687400000003
 31
0.0
  0
SPLINE
  5
7343
330
1F
100
AcDbEntity
  8
AM_0
100
AcDbSpline
210
0.0
220
0.0
230
1.0
 70
     8
 71
     3
 72
    11
 73
     7
 74
     5
 42
0.0000000001
 43
0.0000000001
 44
0.0000000001
 40
0.0
 40
0.0
 40
0.0
 40
0.0
 40
0.0257350284631796
 40
0.0507733464977869
 40
0.0748423234182643
 40
0.0982427980502024
 40
0.0982427980502024
 40
0.0982427980502024
 40
0.0982427980502024
 10
-62.67140503746751
 20
10.16138599999999
 30
0.0
 10
-62.67182581968586
 20
10.1699677186077
 30
0.0
 10
-62.67265599251444
 20
10.18689882762275
 30
0.0
 10
-62.66983267731504
 20
10.21176338979466
 30
0.0
 10
-62.66485356071429
 20
10.2354920930972
 30
0.0
 10
-62.65913704371479
 20
10.25027274865214
 30
0.0
 10
-62.65631903746751
 20
10.25755900000002
 30
0.0
 11
-62.67140503746751
 21
10.16138599999999
 31
0.0
 11
-62.67196203746752
 21
10.18711500000001
 31
0.0
 11
-62.66940103746751
 21
10.21202200000005
 31
0.0
 11
-62.66417603746751
 21
10.23551700000002
 31
0.0
 11
-62.65631903746751
 21
10.25755900000002
 31
0.0
  0
SPLINE
  5
7344
330
1F
100
AcDbEntity
  8
AM_0
100
AcDbSpline
210
0.0
220
0.0
230
1.0
 70
     8
 71
     3
 72
    11
 73
     7
 74
     5
 42
0.0000000001
 43
0.0000000001
 44
0.0000000001
 40
0.0
 40
0.0
 40
0.0
 40
0.0
 40
0.0340989834745768
 40
0.0703869571986833
 40
0.1092600863369285
 40
0.1508309832721993
 40
0.1508309832721993
 40
0.1508309832721993
 40
0.1508309832721993
 10
-62.51801403746751
 20
10.18665400000003
 30
0.0
 10
-62.52917446950652
 20
10.18897695148014
 30
0.0
 10
-62.55221177948482
 20
10.19377197671973
 30
0.0
 10
-62.58549644367265
 20
10.20912661459479
 30
0.0
 10
-62.61827978732636
 20
10.2306595683247
 30
0.0
 10
-62.63628929865826
 20
10.25067214246666
 30
0.0
 10
-62.64559603746753
 20
10.26101400000005
 30
0.0
 11
-62.51801403746751
 21
10.18665400000003
 31
0.0
 11
-62.55112103746751
 21
10.194819
 31
0.0
 11
-62.58429203746752
 21
10.20953300000002
 31
0.0
 11
-62.6164520374675
 21
10.23137000000003
 31
0.0
 11
-62.64559603746753
 21
10.26101400000005
 31
0.0
  0
SPLINE
  5
7345
330
1F
100
AcDbEntity
  8
AM_0
100
AcDbSpline
210
0.0
220
0.0
230
1.0
 70
     8
 71
     3
 72
    11
 73
     7
 74
     5
 42
0.0000000001
 43
0.0000000001
 44
0.0000000001
 40
0.0
 40
0.0
 40
0.0
 40
0.0
 40
0.0257350284631796
 40
0.050774341253254
 40
0.0748433181737869
 40
0.0982425151044442
 40
0.0982425151044442
 40
0.0982425151044442
 40
0.0982425151044442
 10
-62.91593503746751
 20
12.15552500000001
 30
0.0
 10
-62.9163557992395
 20
12.16410671590534
 30
0.0
 10
-62.9171859479929
 20
12.18103815130432
 30
0.0
 10
-62.91436280846802
 20
12.205903080802
 30
0.0
 10
-62.90938350324386
 20
12.2296316237619
 30
0.0
 10
-62.90366764229751
 20
12.24441205898874
 30
0.0
 10
-62.90085003746754
 20
12.25169800000003
 30
0.0
 11
-62.91593503746751
 21
12.15552500000001
 31
0.0
 11
-62.91649203746752
 21
12.18125400000002
 31
0.0
 11
-62.91393103746751
 21
12.20616200000001
 31
0.0
 11
-62.90870603746751
 21
12.22965700000003
 31
0.0
 11
-62.90085003746754
 21
12.25169800000003
 31
0.0
  0
SPLINE
  5
7346
330
1F
100
AcDbEntity
  8
AM_0
100
AcDbSpline
210
0.0
220
0.0
230
1.0
 70
     8
 71
     3
 72
    11
 73
     7
 74
     5
 42
0.0000000001
 43
0.0000000001
 44
0.0000000001
 40
0.0
 40
0.0
 40
0.0
 40
0.0
 40
0.0340987440384327
 40
0.07038712325274
 40
0.1092605179720138
 40
0.1508307138459374
 40
0.1508307138459374
 40
0.1508307138459374
 40
0.1508307138459374
 10
-62.76254403746754
 20
12.18079399999999
 30
0.0
 10
-62.77370454687203
 20
12.18311642729372
 30
0.0
 10
-62.79674223266284
 20
12.18791041548241
 30
0.0
 10
-62.83002595159556
 20
12.20326740347627
 30
0.0
 10
-62.86281099858864
 20
12.22479770267
 30
0.0
 10
-62.88081978159777
 20
12.24481092561352
 30
0.0
 10
-62.8901260374675
 20
12.25515300000001
 30
0.0
 11
-62.76254403746754
 21
12.18079399999999
 31
0.0
 11
-62.79565103746751
 21
12.18895800000001
 31
0.0
 11
-62.82882203746752
 21
12.20367300000004
 31
0.0
 11
-62.86098303746752
 21
12.22550900000005
 31
0.0
 11
-62.8901260374675
 21
12.25515300000001
 31
0.0
  0
SPLINE
  5
7347
330
1F
100
AcDbEntity
  8
AM_0
100
AcDbSpline
210
0.0
220
0.0
230
1.0
 70
     8
 71
     3
 72
    11
 73
     7
 74
     5
 42
0.0000000001
 43
0.0000000001
 44
0.0000000001
 40
0.0
 40
0.0
 40
0.0
 40
0.0
 40
0.8970171934327943
 40
1.689818019285027
 40
2.305148238137459
 40
2.688702899279751
 40
2.688702899279751
 40
2.688702899279751
 40
2.688702899279751
 10
-65.50641703746751
 20
24.94598000000002
 30
0.0
 10
-65.54254952560291
 20
25.24279523149722
 30
0.0
 10
-65.61061659274478
 20
25.8019413997694
 30
0.0
 10
-65.70650751214377
 20
26.56431405386172
 30
0.0
 10
-65.78195429643549
 20
27.15677004932155
 30
0.0
 10
-65.82822202375598
 20
27.48650386885958
 30
0.0
 10
-65.84598803746752
 20
27.61311599999999
 30
0.0
 11
-65.50641703746751
 21
24.94598000000002
 31
0.0
 11
-65.61544203746752
 21
25.83634700000005
 31
0.0
 11
-65.71411803746753
 21
26.62298300000003
 31
0.0
 11
-65.79331003746751
 21
27.23319600000002
 31
0.0
 11
-65.84598803746752
 21
27.61311599999999
 31
0.0
  0
SPLINE
  5
7348
330
1F
100
AcDbEntity
  8
AM_0
100
AcDbSpline
210
0.0
220
0.0
230
1.0
 70
     8
 71
     3
 72
    11
 73
     7
 74
     5
 42
0.0000000001
 43
0.0000000001
 44
0.0000000001
 40
0.0
 40
0.0
 40
0.0
 40
0.0
 40
0.0975510842430724
 40
0.3350450812303716
 40
0.6768070424197346
 40
1.067860494194531
 40
1.067860494194531
 40
1.067860494194531
 40
1.067860494194531
 10
-63.96359803746753
 20
12.14049700000004
 30
0.0
 10
-63.96635224068997
 20
12.17289835196985
 30
0.0
 10
-63.97581171773776
 20
12.28418274913399
 30
0.0
 10
-64.00222125573896
 20
12.50826633944273
 30
0.0
 10
-64.03882191020671
 20
12.82961183796519
 30
0.0
 10
-64.0680891264288
 20
13.07212716250288
 30
0.0
 10
-64.08370703746752
 20
13.20154100000002
 30
0.0
 11
-63.96359803746753
 21
12.14049700000004
 31
0.0
 11
-63.97216703746753
 21
12.23767100000003
 31
0.0
 11
-63.9980260374675
 21
12.47375300000005
 31
0.0
 11
-64.03731603746752
 21
12.81324900000004
 31
0.0
 11
-64.08370703746752
 21
13.20154100000002
 31
0.0
  0
SPLINE
  5
734A
330
1F
100
AcDbEntity
  8
AM_0
100
AcDbSpline
210
0.0
220
0.0
230
1.0
 70
     8
 71
     3
 72
    11
 73
     7
 74
     5
 42
0.0000000001
 43
0.0000000001
 44
0.0000000001
 40
0.0
 40
0.0
 40
0.0
 40
0.0
 40
0.0495773853384553
 40
0.1149744938372326
 40
0.2019590651875748
 40
0.3112828036207317
 40
0.3112828036207317
 40
0.3112828036207317
 40
0.3112828036207317
 10
-61.6801540374675
 20
12.425071
 30
0.0
 10
-61.66392955806538
 20
12.42970174147659
 30
0.0
 10
-61.62630350549532
 20
12.44044085475833
 30
0.0
 10
-61.58281281715781
 20
12.4959950427565
 30
0.0
 10
-61.5417622605945
 20
12.57227484111014
 30
0.0
 10
-61.5212514630699
 20
12.63472090262934
 30
0.0
 10
-61.50982903746751
 20
12.66949700000004
 30
0.0
 11
-61.6801540374675
 21
12.425071
 31
0.0
 11
-61.63387303746754
 21
12.44284700000003
 31
0.0
 11
-61.58910303746751
 21
12.49051700000001
 31
0.0
 11
-61.5472850374675
 21
12.56679000000003
 31
0.0
 11
-61.50982903746751
 21
12.66949700000004
 31
0.0
  0
SPLINE
  5
734B
330
1F
100
AcDbEntity
  8
AM_0
100
AcDbSpline
210
0.0
220
0.0
230
1.0
 70
     8
 71
     3
 72
    11
 73
     7
 74
     5
 42
0.0000000001
 43
0.0000000001
 44
0.0000000001
 40
0.0
 40
0.0
 40
0.0
 40
0.0
 40
0.6282203455962011
 40
1.257284044413746
 40
1.886506318492607
 40
2.515848857624547
 40
2.515848857624547
 40
2.515848857624547
 40
2.515848857624547
 10
-61.50982903746751
 20
12.66949700000004
 30
0.0
 10
-61.70768316321507
 20
12.6003192075195
 30
0.0
 10
-62.10365702360915
 20
12.46187075496102
 30
0.0
 10
-62.71948203431612
 20
12.32909199549769
 30
0.0
 10
-63.33969341598454
 20
12.2233630174101
 30
0.0
 10
-63.75561658214188
 20
12.16812076540351
 30
0.0
 10
-63.96359803746753
 20
12.14049700000004
 30
0.0
 11
-61.50982903746751
 21
12.66949700000004
 31
0.0
 11
-62.10699903746752
 21
12.47443600000003
 31
0.0
 11
-62.72010003746752
 21
12.33362299999999
 31
0.0
 11
-63.3402540374675
 21
12.22718200000003
 31
0.0
 11
-63.96359803746753
 21
12.14049700000004
 31
0.0
  0
LINE
  5
734C
330
1F
100
AcDbEntity
  8
AM_0
100
AcDbLine
 10
-56.96954803746752
 20
27.80514800000003
 30
0.0
 11
-56.98300103746752
 21
27.904562
 31
0.0
  0
SPLINE
  5
734D
330
1F
100
AcDbEntity
  8
AM_0
100
AcDbSpline
210
0.0
220
0.0
230
1.0
 70
     8
 71
     3
 72
    11
 73
     7
 74
     5
 42
0.0000000001
 43
0.0000000001
 44
0.0000000001
 40
0.0
 40
0.0
 40
0.0
 40
0.0
 40
0.0563855696787836
 40
0.1041362654642501
 40
0.1455342093745464
 40
0.1840687549408418
 40
0.1840687549408418
 40
0.1840687549408418
 40
0.1840687549408418
 10
-64.51047503746753
 20
31.36296300000004
 30
0.0
 10
-64.50327002230097
 20
31.38038577884647
 30
0.0
 10
-64.48996336642549
 20
31.41256321597114
 30
0.0
 10
-64.46203833080561
 20
31.45254462643893
 30
0.0
 10
-64.429629301403
 20
31.4816969431903
 30
0.0
 10
-64.40398895657188
 20
31.48986720807169
 30
0.0
 10
-64.39162803746751
 20
31.49380600000001
 30
0.0
 11
-64.51047503746753
 21
31.36296300000004
 31
0.0
 11
-64.4869030374675
 21
31.41418500000003
 31
0.0
 11
-64.45923503746752
 21
31.453103
 31
0.0
 11
-64.42746703746752
 21
31.479647
 31
0.0
 11
-64.39162803746751
 21
31.49380600000001
 31
0.0
  0
SPLINE
  5
734E
330
1F
100
AcDbEntity
  8
AM_0
100
AcDbSpline
210
0.0
220
0.0
230
1.0
 70
     8
 71
     3
 72
    11
 73
     7
 74
     5
 42
0.0000000001
 43
0.0000000001
 44
0.0000000001
 40
0.0
 40
0.0
 40
0.0
 40
0.0
 40
0.1046079396843384
 40
0.2019502074255211
 40
0.292113085684819
 40
0.3752060984175436
 40
0.3752060984175436
 40
0.3752060984175436
 40
0.3752060984175436
 10
-61.55722003746752
 20
12.22703000000001
 30
0.0
 10
-61.58614367214258
 20
12.24651011305239
 30
0.0
 10
-61.64198201519529
 20
12.28411732416343
 30
0.0
 10
-61.72458344046285
 20
12.33569877696247
 30
0.0
 10
-61.80237260466075
 20
12.38141678920417
 30
0.0
 10
-61.85356724123071
 20
12.40816205138529
 30
0.0
 10
-61.87812003746751
 20
12.42098900000002
 30
0.0
 11
-61.55722003746752
 21
12.22703000000001
 31
0.0
 11
-61.64433103746751
 21
12.28494800000004
 31
0.0
 11
-61.7268510374675
 21
12.33658100000002
 31
0.0
 11
-61.80478103746751
 21
12.38192700000002
 31
0.0
 11
-61.87812003746751
 21
12.42098900000002
 31
0.0
  0
SPLINE
  5
734F
330
1F
100
AcDbEntity
  8
AM_0
100
AcDbSpline
210
0.0
220
0.0
230
1.0
 70
     8
 71
     3
 72
    11
 73
     7
 74
     5
 42
0.0000000001
 43
0.0000000001
 44
0.0000000001
 40
0.0
 40
0.0
 40
0.0
 40
0.0
 40
0.585950367183097
 40
1.170546867536127
 40
1.758134730457915
 40
2.351881733207404
 40
2.351881733207404
 40
2.351881733207404
 40
2.351881733207404
 10
-59.34141103746751
 20
13.60975100000002
 30
0.0
 10
-59.46985302725987
 20
13.46168564514471
 30
0.0
 10
-59.72644023537841
 20
13.16589704763993
 30
0.0
 10
-60.21171915942274
 20
12.82883302109735
 30
0.0
 10
-60.74954765581782
 20
12.57744947533978
 30
0.0
 10
-61.13821377916699
 20
12.50562531527628
 30
0.0
 10
-61.33356003746752
 20
12.46952600000003
 30
0.0
 11
-59.34141103746751
 21
13.60975100000002
 31
0.0
 11
-59.74340203746752
 21
13.18344000000002
 31
0.0
 11
-60.21921403746751
 21
12.84379899999999
 31
0.0
 11
-60.75481703746752
 21
12.60216100000002
 31
0.0
 11
-61.33356003746752
 21
12.46952600000003
 31
0.0
  0
LINE
  5
7350
330
1F
100
AcDbEntity
  8
AM_0
100
AcDbLine
 10
-56.91235403746751
 20
16.80510500000003
 30
0.0
 11
-56.89778503746751
 21
16.82465500000001
 31
0.0
  0
LINE
  5
7351
330
1F
100
AcDbEntity
  8
AM_0
100
AcDbLine
 10
-57.00330003746754
 20
16.683919
 30
0.0
 11
-56.90965203746751
 21
16.808718
 31
0.0
  0
SPLINE
  5
7352
330
1F
100
AcDbEntity
  8
AM_0
100
AcDbSpline
210
0.0
220
0.0
230
1.0
 70
     8
 71
     3
 72
    11
 73
     7
 74
     5
 42
0.0000000001
 43
0.0000000001
 44
0.0000000001
 40
0.0
 40
0.0
 40
0.0
 40
0.0
 40
0.3592954904253207
 40
0.6943451964034447
 40
1.004452183283748
 40
1.289597688864699
 40
1.289597688864699
 40
1.289597688864699
 40
1.289597688864699
 10
-56.43370903746751
 20
17.48089300000004
 30
0.0
 10
-56.36900859753769
 20
17.58178185709205
 30
0.0
 10
-56.2439737978599
 20
17.77675144385069
 30
0.0
 10
-56.08998658578425
 20
18.07406253957691
 30
0.0
 10
-55.96908599050882
 20
18.36179534490337
 30
0.0
 10
-55.93640993965472
 20
18.55813084385744
 30
0.0
 10
-55.92075703746752
 20
18.65218200000004
 30
0.0
 11
-56.43370903746751
 21
17.48089300000004
 31
0.0
 11
-56.24458503746752
 21
17.786385
 31
0.0
 11
-56.09022503746752
 21
18.08375900000004
 31
0.0
 11
-55.97796903746752
 21
18.37283500000001
 31
0.0
 11
-55.92075703746752
 21
18.65218200000004
 31
0.0
  0
SPLINE
  5
7353
330
1F
100
AcDbEntity
  8
AM_0
100
AcDbSpline
210
0.0
220
0.0
230
1.0
 70
     8
 71
     3
 72
    11
 73
     7
 74
     5
 42
0.0000000001
 43
0.0000000001
 44
0.0000000001
 40
0.0
 40
0.0
 40
0.0
 40
0.0
 40
0.2096213300334613
 40
0.4133691681079171
 40
0.6113669376534062
 40
0.8038586290325682
 40
0.8038586290325682
 40
0.8038586290325682
 40
0.8038586290325682
 10
-56.89778503746751
 20
16.82465500000001
 30
0.0
 10
-56.85620237266797
 20
16.88080956933469
 30
0.0
 10
-56.77420216995405
 20
16.99154528314601
 30
0.0
 10
-56.65512205253791
 20
17.15692808334119
 30
0.0
 10
-56.5413852053619
 20
17.31911735348551
 30
0.0
 10
-56.46926210397284
 20
17.42747709161521
 30
0.0
 10
-56.43370903746751
 20
17.48089300000004
 30
0.0
 11
-56.89778503746751
 21
16.82465500000001
 31
0.0
 11
-56.77341903746753
 21
16.99339800000001
 31
0.0
 11
-56.65435103746751
 21
17.15873400000004
 31
0.0
 11
-56.5410040374675
 21
17.321078
 31
0.0
 11
-56.43370903746751
 21
17.48089300000004
 31
0.0
  0
SPLINE
  5
7357
330
1F
100
AcDbEntity
  8
AM_0
100
AcDbSpline
210
0.0
220
0.0
230
1.0
 70
     8
 71
     3
 72
    11
 73
     7
 74
     5
 42
0.0000000001
 43
0.0000000001
 44
0.0000000001
 40
0.0
 40
0.0
 40
0.0
 40
0.0
 40
1.11693811247581
 40
2.210060305148232
 40
3.294427161128708
 40
4.381651491162752
 40
4.381651491162752
 40
4.381651491162752
 40
4.381651491162752
 10
-57.3341300374675
 20
4.691755999999998
 30
0.0
 10
-56.96626029228474
 20
4.769324041880106
 30
0.0
 10
-56.23836470683347
 20
4.922806180588138
 30
0.0
 10
-55.32453148547489
 20
5.577929623896909
 30
0.0
 10
-54.68913353911721
 20
6.520016686821389
 30
0.0
 10
-54.6689333980919
 20
7.257002976078255
 30
0.0
 10
-54.65882003746754
 20
7.625981000000024
 30
0.0
 11
-57.3341300374675
 21
4.691755999999998
 31
0.0
 11
-56.2598560374675
 21
4.997511000000031
 31
0.0
 11
-55.36751903746753
 21
5.628899000000047
 31
0.0
 11
-54.79003703746753
 21
6.546704000000034
 31
0.0
 11
-54.65882003746754
 21
7.625981000000024
 31
0.0
  0
LINE
  5
7358
330
1F
100
AcDbEntity
  8
AM_0
100
AcDbLine
 10
-64.89743903746754
 20
19.75596800000005
 30
0.0
 11
-66.33255103746754
 21
19.57976600000006
 31
0.0
  0
LINE
  5
735A
330
1F
100
AcDbEntity
  8
AM_0
100
AcDbLine
 10
-66.33255103746754
 20
19.57976600000006
 30
0.0
 11
-65.20811803746753
 21
6.727439000000004
 31
0.0
  0
LINE
  5
735C
330
1F
100
AcDbEntity
  8
AM_0
100
AcDbLine
 10
-72.64328903746755
 20
0.6105510000000436
 30
0.0
 11
-69.48951103746754
 21
1.049109000000044
 31
0.0
  0
LINE
  5
735D
330
1F
100
AcDbEntity
  8
AM_0
100
AcDbLine
 10
-72.64328903746755
 20
0.6105510000000436
 30
0.0
 11
-73.99005503746753
 21
16.00415600000002
 31
0.0
  0
LINE
  5
735E
330
1F
100
AcDbEntity
  8
AM_0
100
AcDbLine
 10
-73.99005503746753
 20
16.00415600000002
 30
0.0
 11
-70.83627703746754
 21
16.44271300000003
 31
0.0
  0
LINE
  5
735F
330
1F
100
AcDbEntity
  8
AM_0
100
AcDbLine
 10
-69.48951103746754
 20
1.049109000000044
 30
0.0
 11
-70.83627703746754
 21
16.44271300000003
 31
0.0
  0
LINE
  5
7360
330
1F
100
AcDbEntity
  8
AM_0
100
AcDbLine
 10
-72.63477903746752
 20
0.5132830000000013
 30
0.0
 11
-69.43775403746753
 21
0.4575290000000223
 31
0.0
  0
LINE
  5
7361
330
1F
100
AcDbEntity
  8
AM_0
100
AcDbLine
 10
-70.85424003746752
 20
16.64802900000001
 30
0.0
 11
-73.99300903746754
 21
16.037914
 31
0.0
  0
LINE
  5
7362
330
1F
100
AcDbEntity
  8
AM_0
100
AcDbLine
 10
-66.70439703746754
 20
0.2191270000000145
 30
0.0
 11
-64.67130503746753
 21
0.5916400000000408
 31
0.0
  0
LINE
  5
7363
330
1F
100
AcDbEntity
  8
AM_0
100
AcDbLine
 10
-69.44345303746752
 20
0.5226650000000177
 30
0.0
 11
-66.70439703746754
 21
0.2191270000000145
 31
0.0
  0
LINE
  5
7364
330
1F
100
AcDbEntity
  8
AM_0
100
AcDbLine
 10
-69.44345303746752
 20
0.5226650000000177
 30
0.0
 11
-69.46852903746753
 21
0.8092870000000403
 31
0.0
  0
LINE
  5
7365
330
1F
100
AcDbEntity
  8
AM_0
100
AcDbLine
 10
-70.85090003746754
 20
16.60985700000003
 30
0.0
 11
-70.87597603746755
 21
16.896479
 31
0.0
  0
LINE
  5
7366
330
1F
100
AcDbEntity
  8
AM_0
100
AcDbLine
 10
-70.87597603746755
 20
16.896479
 30
0.0
 11
-68.27562403746754
 21
18.17833200000001
 31
0.0
  0
LINE
  5
7367
330
1F
100
AcDbEntity
  8
AM_0
100
AcDbLine
 10
-68.27562403746754
 20
18.17833200000001
 30
0.0
 11
-66.24253203746753
 21
18.55084600000004
 31
0.0
  0
LINE
  5
7368
330
1F
100
AcDbEntity
  8
AM_0
100
AcDbLine
 10
-64.67130503746753
 20
0.5916400000000408
 30
0.0
 11
-65.20811803746753
 21
6.727439000000004
 31
0.0
  0
LINE
  5
7369
330
1F
100
AcDbEntity
  8
AM_0
100
AcDbLine
 10
-66.70439703746754
 20
0.2191270000000145
 30
0.0
 11
-64.61954903746752
 21
0.0000610000000165
 31
0.0
  0
LINE
  5
736A
330
1F
100
AcDbEntity
  8
AM_0
100
AcDbLine
 10
-66.26049503746754
 20
18.75616100000002
 30
0.0
 11
-68.27562403746754
 21
18.17833200000001
 31
0.0
  0
LINE
  5
736B
330
1F
100
AcDbEntity
  8
AM_0
100
AcDbLine
 10
-72.64328903746755
 20
0.6105510000000436
 30
0.0
 11
-72.63477803746753
 21
0.5132730000000265
 31
0.0
  0
LINE
  5
736C
330
1F
100
AcDbEntity
  8
AM_0
100
AcDbLine
 10
-69.48951103746754
 20
1.049109000000044
 30
0.0
 11
-69.46852903746753
 21
0.8092870000000403
 31
0.0
  0
LINE
  5
736D
330
1F
100
AcDbEntity
  8
AM_0
100
AcDbLine
 10
-69.44345303746752
 20
0.5226650000000177
 30
0.0
 11
-69.43774903746754
 21
0.4574680000000058
 31
0.0
  0
LINE
  5
736E
330
1F
100
AcDbEntity
  8
AM_0
100
AcDbLine
 10
-73.99300903746754
 20
16.037914
 30
0.0
 11
-73.99005503746753
 21
16.00415600000002
 31
0.0
  0
LINE
  5
736F
330
1F
100
AcDbEntity
  8
AM_0
100
AcDbLine
 10
-70.85090003746754
 20
16.60985700000003
 30
0.0
 11
-70.83627703746754
 21
16.44271300000003
 31
0.0
  0
LINE
  5
7370
330
1F
100
AcDbEntity
  8
AM_0
100
AcDbLine
 10
-64.67130503746753
 20
0.5916400000000408
 30
0.0
 11
-64.61954303746754
 21
0.0
 31
0.0
  0
LINE
  5
738C
330
1F
100
AcDbEntity
  8
AM_5
370
    13
100
AcDbLine
 10
-64.61954303746754
 20
0.0
 30
0.0
 11
-64.61954303746754
 21
-1.122799324472737
 31
0.0
  0
DIMENSION
  5
738D
330
1F
100
AcDbEntity
  8
AM_5
370
    13
100
AcDbDimension
  2
*D11
 10
-64.61954303746754
 20
-1.122799324472737
 30
0.0
 11
-66.95810647503066
 21
-16.51303236042972
 31
0.0
 70
   162
 71
     5
 42
0.0872664861856567
  3
AM_JIS
100
AcDb2LineAngularDimension
 13
-64.67130503746753
 23
0.5916400000000408
 33
0.0
 14
-65.20811803746753
 24
6.727439000000004
 34
0.0
 15
-64.61954303746754
 25
0.0
 35
0.0
 16
-63.64981489407438
 26
-16.64958692036091
 36
0.0
1001
ACAD
1000
DSTYLE
1002
{
1070
   271
1070
     0
1002
}
  0
ARC
  5
73BC
330
1F
100
AcDbEntity
  8
AM_0
100
AcDbCircle
 10
-58.65062827839176
 20
15.106897906038
 30
0.0
 40
5.869609394992139
100
AcDbArc
 50
357.6703200340294
 51
11.58590963780827
  0
ARC
  5
73BD
330
1F
100
AcDbEntity
  8
AM_0
100
AcDbCircle
 10
-35.35785827839175
 20
19.882247906038
 30
0.0
 40
17.9076294779372
100
AcDbArc
 50
187.0046643442146
 51
191.5859105139473
  0
ARC
  5
73BE
330
1F
100
AcDbEntity
  8
AM_0
100
AcDbCircle
 10
76.81571272160824
 20
33.66469790603799
 30
0.0
 40
130.924734332072
100
AcDbArc
 50
186.534739593286
 51
187.0046633584783
  0
ARC
  5
73BF
330
1F
100
AcDbEntity
  8
AM_0
100
AcDbCircle
 10
-91.61436563046094
 20
14.37909815559493
 30
0.0
 40
38.60587018449036
100
AcDbArc
 50
6.522886109936996
 51
12.92271290915158
  0
ARC
  5
73C0
330
1F
100
AcDbEntity
  8
AM_0
100
AcDbCircle
 10
-53.39548027839174
 20
19.82965290603801
 30
0.0
 40
0.000500915162483
100
AcDbArc
 50
8.033045790475553
 51
187.3377472260738
  0
SPLINE
  5
73C1
330
1F
100
AcDbEntity
  8
AM_0
100
AcDbSpline
210
0.0
220
0.0
230
1.0
 70
     8
 71
     3
 72
    11
 73
     7
 74
     5
 42
0.0000000001
 43
0.0000000001
 44
0.0000000001
 40
0.0
 40
0.0
 40
0.0
 40
0.0
 40
1.100992909379976
 40
2.201997656080443
 40
3.302943487046278
 40
4.403789212326645
 40
4.403789212326645
 40
4.403789212326645
 40
4.403789212326645
 10
-55.05976527839175
 20
11.32781490603799
 30
0.0
 10
-54.74742187121957
 20
11.52475898974631
 30
0.0
 10
-54.12273169871645
 20
11.91864927460644
 30
0.0
 10
-53.41993956396954
 20
12.78660624802013
 30
0.0
 10
-52.92744274825456
 20
13.78890113724005
 30
0.0
 10
-52.83233099357629
 20
14.52118341431322
 30
0.0
 10
-52.78477727839174
 20
14.88730790603802
 30
0.0
 11
-55.05976527839175
 21
11.32781490603799
 31
0.0
 11
-54.16177327839176
 21
11.96483590603799
 31
0.0
 11
-53.45497427839177
 21
12.80901990603798
 31
0.0
 11
-52.98573527839176
 21
13.80495990603799
 31
0.0
 11
-52.78477727839174
 21
14.88730790603802
 31
0.0
  0
SPLINE
  5
73C2
330
1F
100
AcDbEntity
  8
AM_0
100
AcDbSpline
210
0.0
220
0.0
230
1.0
 70
     8
 71
     3
 72
    11
 73
     7
 74
     5
 42
0.0000000001
 43
0.0000000001
 44
0.0000000001
 40
0.0
 40
0.0
 40
0.0
 40
0.0
 40
1.000139743556379
 40
2.000225337669179
 40
3.000372970208486
 40
4.000522350676247
 40
4.000522350676247
 40
4.000522350676247
 40
4.000522350676247
 10
-53.98628107148059
 20
23.01278016988903
 30
0.0
 10
-54.11252409629791
 20
23.32315890969323
 30
0.0
 10
-54.36500331089816
 20
23.94389958481389
 30
0.0
 10
-55.00456501628238
 20
24.72814037251836
 30
0.0
 10
-55.78891501424094
 20
25.36757519352866
 30
0.0
 10
-56.40972020490709
 20
25.61995910425497
 30
0.0
 10
-56.72012307148063
 20
25.746151169889
 30
0.0
 11
-53.98628107148059
 21
23.01278016988903
 31
0.0
 11
-54.40848507148061
 21
23.91943516988903
 31
0.0
 11
-55.02868107148063
 21
24.70399116988898
 31
0.0
 11
-55.8133880714806
 21
25.324096169889
 31
0.0
 11
-56.72012307148063
 21
25.746151169889
 31
0.0
  0
LINE
  5
73C3
330
1F
100
AcDbEntity
  8
AM_0
100
AcDbLine
 10
-53.41531727839174
 20
19.89349890603802
 30
0.0
 11
-53.39562890454488
 21
19.83013126392348
 31
0.0
  0
ENDSEC
  0
SECTION
  2
OBJECTS
  0
DICTIONARY
  5
C
330
0
100
AcDbDictionary
281
     1
  3
ACAD_COLOR
350
1611
  3
ACAD_GROUP
350
D
  3
ACAD_LAYOUT
350
1A
  3
ACAD_MATERIAL
350
1610
  3
ACAD_MLINESTYLE
350
17
  3
ACAD_PLOTSETTINGS
350
19
  3
ACAD_PLOTSTYLENAME
350
E
  3
ACAD_TABLESTYLE
350
1612
  3
AcAmCatalogState
350
1679
  3
ACDBHEADERROUNDTRIPXREC
350
7499
  3
AcDbVariableDictionary
350
30
  3
ACDMSYSVARMGR
350
162A
  3
ACGREF_MASTER
350
1622
  3
ACGREFACAD_MASTER
350
164C
  3
AcmDictionary
350
43
  3
ACME_BOM_MANAGER_NAME
350
36
  3
ACME_COMMAND_HISTORY
350
2F
  3
ACME_SCOPE_NAME
350
2E
  3
ACMESTATEMGR
350
3B
  3
AcmeSysVarManager
350
32
  3
AcmSystemVariableManager
350
79D
  3
AD_APPL
350
1657
  3
ADSYSVARMGR
350
1656
  3
AmdtNamedDwgMgr
350
1647
  3
AMG
350
3F
  3
AMGSNAPSETTINGS
350
59
  3
AMI_MASTER
350
164F
  3
AUTOCAD_ASSEMBLIES_PROJECT
350
165F
  3
Designer_Assemblies_SysVars
350
165A
  3
DWGPROPS
350
749C
  3
GREFAM_MODULE
350
1650
  3
SAKAE_DICT
350
1605
  0
DICTIONARY
  5
1832
330
2
100
AcDbDictionary
280
     1
281
     1
  3
ACAD_LAYERSTATES
360
1833
  0
DICTIONARY
  5
10B
330
1F
100
AcDbDictionary
280
     1
281
     1
  3
ACAD_SORTENTS
360
1DD7
  0
DICTIONARY
  5
1611
102
{ACAD_REACTORS
330
C
102
}
330
C
100
AcDbDictionary
281
     1
  0
DICTIONARY
  5
D
102
{ACAD_REACTORS
330
C
102
}
330
C
100
AcDbDictionary
281
     1
  0
DICTIONARY
  5
1A
102
{ACAD_REACTORS
330
C
102
}
330
C
100
AcDbDictionary
281
     1
  3
Model
350
22
  3
ﾚｲｱｳﾄ1
350
1E
  3
ﾚｲｱｳﾄ2
350
26
  0
DICTIONARY
  5
1610
102
{ACAD_REACTORS
330
C
102
}
330
C
100
AcDbDictionary
281
     1
  0
DICTIONARY
  5
17
102
{ACAD_REACTORS
330
C
102
}
330
C
100
AcDbDictionary
281
     1
  3
Standard
350
18
  0
DICTIONARY
  5
19
102
{ACAD_REACTORS
330
C
102
}
330
C
100
AcDbDictionary
281
     1
  0
ACDBDICTIONARYWDFLT
  5
E
102
{ACAD_REACTORS
330
C
102
}
330
C
100
AcDbDictionary
281
     1
  3
Normal
350
F
100
AcDbDictionaryWithDefault
340
F
  0
DICTIONARY
  5
1612
102
{ACAD_REACTORS
330
C
102
}
330
C
100
AcDbDictionary
281
     1
  3
Standard
350
1613
  0
ACAD_PROXY_OBJECT
  5
1679
102
{ACAD_REACTORS
330
C
102
}
330
C
100
AcDbProxyObject
 90
      499
 91
      570
 95
       25
 70
     0
 93
      160
310
3FFFFFFFE00A028140283A19D2E3A32B6B8400AA
  0
DICTIONARY
  5
7499
102
{ACAD_REACTORS
330
C
102
}
330
C
100
AcDbDictionary
281
     1
  3
COLORDICT
350
749A
  3
MATERIALDICT
350
749B
  0
DICTIONARY
  5
30
102
{ACAD_REACTORS
330
C
102
}
330
C
100
AcDbDictionary
281
     1
  3
CTABLESTYLE
350
1684
  3
DIMASSOC
350
7497
  3
HIDETEXT
350
7498
  3
INDEXCTL
350
31
  0
ACAD_PROXY_OBJECT
  5
162A
102
{ACAD_REACTORS
330
C
102
}
330
C
100
AcDbProxyObject
 90
      499
 91
      507
 95
       25
 70
     0
 93
      240
310
4C51A47A0000000000000000000000000000000000000000000000000000
330
162B
330
162C
330
162D
330
162E
330
162F
330
1630
330
1631
330
1632
330
1633
330
1634
330
1635
330
1636
330
1637
330
1638
330
1639
330
163A
330
163B
330
163C
330
163D
330
163E
330
163F
330
1640
330
1641
330
1642
330
1643
330
1644
 94
        0
  0
ACAD_PROXY_OBJECT
  5
1622
102
{ACAD_REACTORS
330
C
102
}
330
C
100
AcDbProxyObject
 90
      499
 91
      534
 95
       25
 70
     0
 93
       34
310
0400004280
  0
ACAD_PROXY_OBJECT
  5
164C
102
{ACAD_REACTORS
330
C
102
}
330
C
100
AcDbProxyObject
 90
      499
 91
      540
 95
       25
 70
     0
 93
      114
310
04000041C080000000000000000000
  0
DICTIONARY
  5
43
102
{ACAD_REACTORS
330
C
102
}
330
C
100
AcDbDictionary
281
     1
  3
AcmBOMDATA
350
44
  3
AcmStdDictionary
350
7A0
  3
AMDTSECTSYM_ARROWCOLOR
350
166D
  0
ACAD_PROXY_OBJECT
  5
36
102
{ACAD_REACTORS
330
C
102
}
330
C
100
AcDbProxyObject
 90
      499
 91
      510
 95
       25
 70
     0
 93
       50
310
00010040400000
330
0
330
0
330
37
 94
        0
  0
ACAD_PROXY_OBJECT
  5
2F
102
{ACAD_REACTORS
330
C
102
}
330
C
100
AcDbProxyObject
 90
      499
 91
      505
 95
       25
 70
     0
 93
    10660
310
47805055153415645404052D4D5347202D205050413A2020206465736B746F702E6172782046696C6556657273696F6E3A20392E322E302E34014154155491D1601415454D05591501014B5354D1C80B481414104E88080819195CDADD1BDC0B985C9E08119A5B1955995C9CDA5BDB8E880E4B8C8B8C0B8D00505515341564
310
5404052D4D5347202D205050413A2020206465736B746F702E6172782046696C6556657273696F6E3A20392E322E302E3401415454D05591501014B5354D1C80B481414104E88080819195CDADD1BDC0B985C9E08119A5B1955995C9CDA5BDB8E880E4B8C8B8C0B8D005055153415645404052D4D5347202D205050413A202
310
0206465736B746F702E6172782046696C6556657273696F6E3A20392E322E302E3401415454D05591501014B5354D1C80B481414104E88080819195CDADD1BDC0B985C9E08119A5B1955995C9CDA5BDB8E880E4B8C8B8C0B8D005055153415645404052D4D5347202D205050413A2020206465736B746F702E617278204669
310
6C6556657273696F6E3A20392E322E302E3401415454D05591501014B5354D1C80B481414104E88080819195CDADD1BDC0B985C9E08119A5B1955995C9CDA5BDB8E880E4B8C8B8C0B8D005055153415645404052D4D5347202D205050413A2020206465736B746F702E6172782046696C6556657273696F6E3A20392E322E3
310
02E3401415454D05591501014B5354D1C80B481414104E88080819195CDADD1BDC0B985C9E08119A5B1955995C9CDA5BDB8E880E4B8C8B8C0B8D005055153415645404052D4D5347202D205050413A2020206465736B746F702E6172782046696C6556657273696F6E3A20392E322E302E3401415454D05591501014B5354D
310
1C80B481414104E88080819195CDADD1BDC0B985C9E08119A5B1955995C9CDA5BDB8E880E4B8C8B8C0B8D005055153415645404052D4D5347202D205050413A2020206465736B746F702E6172782046696C6556657273696F6E3A20392E322E302E3401415454D05591501014B5354D1C80B481414104E88080819195CDADD
310
1BDC0B985C9E08119A5B1955995C9CDA5BDB8E880E4B8C8B8C0B8D005055153415645404052D4D5347202D205050413A2020206465736B746F702E6172782046696C6556657273696F6E3A20392E322E302E3401415454D05591501014B5354D1C80B481414104E88080819195CDADD1BDC0B985C9E08119A5B1955995C9CD
310
A5BDB8E880E4B8C8B8C0B8D005055153415645404052D4D5347202D205050413A2020206465736B746F702E6172782046696C6556657273696F6E3A20392E322E302E3401415454D05591501014B5354D1C80B481414104E88080819195CDADD1BDC0B985C9E08119A5B1955995C9CDA5BDB8E880E4B8C8B8C0B8D00505515
310
3415645404052D4D5347202D205050413A2020206465736B746F702E6172782046696C6556657273696F6E3A20392E322E302E3401415454D05591501014B5354D1C80B481414104E88080819195CDADD1BDC0B985C9E08119A5B1955995C9CDA5BDB8E880E4B8C8B8C0B8D0050E414D4454524553455444424D4F44408050
310
84E202D20554E444F014213880B4815539113C0504554E444F80504554E444F8050A50524F504552544945538050C475249505F5354524554434840405184D5347202D20436F6D6D616E642043414E43454C4C45442E01411693D3D350101461354D1C80B4810DBDB5B585B990810D05390D1531311510B805045A4F4F4D80
310
5055055524745805055153415645404052D4D5347202D205050413A2020206465736B746F702E6172782046696C6556657273696F6E3A20392E322E302E340
  0
ACAD_PROXY_OBJECT
  5
2E
102
{ACAD_REACTORS
330
C
102
}
330
C
100
AcDbProxyObject
 90
      499
 91
      504
 95
       25
 70
     0
 93
      586
310
09000046408000000000000000001344E200000000000000000000000000000000000000000000000000000000000000000000000000000000000000000000000000000000AAA406AA80
360
33
360
34
360
35
360
37
360
79E
360
79F
360
1623
360
1624
360
1625
360
1626
360
1627
360
1628
360
162B
360
162C
360
162D
360
162E
360
162F
360
1630
360
1631
360
1632
360
1633
360
1634
360
1635
360
1636
360
1637
360
1638
360
1639
360
163A
360
163B
360
163C
360
163D
360
163E
360
163F
360
1640
360
1641
360
1642
360
1643
360
1644
360
1652
360
1653
360
1654
360
1655
360
165B
360
165C
360
165D
360
165E
360
1663
360
1664
360
1665
360
1666
360
1667
360
1668
 94
        0
  0
ACAD_PROXY_OBJECT
  5
3B
102
{ACAD_REACTORS
330
C
102
}
330
C
100
AcDbProxyObject
 90
      499
 91
      515
 95
       25
 70
     0
 93
       50
310
09000042641280
  0
ACAD_PROXY_OBJECT
  5
32
102
{ACAD_REACTORS
330
C
102
}
330
C
100
AcDbProxyObject
 90
      499
 91
      507
 95
       25
 70
     0
 93
       48
310
903412000000
330
33
330
34
330
35
 94
        0
  0
ACAD_PROXY_OBJECT
  5
79D
102
{ACAD_REACTORS
330
C
102
}
330
C
100
AcDbProxyObject
 90
      499
 91
      507
 95
       25
 70
     0
 93
       40
310
90240E0000
330
79E
330
79F
 94
        0
  0
ACAD_PROXY_OBJECT
  5
1657
102
{ACAD_REACTORS
330
C
102
}
330
C
100
AcDbProxyObject
 90
      499
 91
      550
 95
       25
 70
     0
 93
       42
310
000900004040
330
1652
 94
        0
  0
ACAD_PROXY_OBJECT
  5
1656
102
{ACAD_REACTORS
330
C
102
}
330
C
100
AcDbProxyObject
 90
      499
 91
      507
 95
       25
 70
     0
 93
        8
310
AA
  0
ACAD_PROXY_OBJECT
  5
1647
102
{ACAD_REACTORS
330
C
102
}
330
C
100
AcDbProxyObject
 90
      499
 91
      539
 95
       25
 70
     0
 93
       42
310
000100005E80
330
1623
 94
        0
  0
DICTIONARY
  5
3F
102
{ACAD_REACTORS
330
C
102
}
330
C
100
AcDbDictionary
281
     1
  3
AcMgSettings
350
40
  3
AMGLAYCFG
350
47
  0
DICTIONARY
  5
59
102
{ACAD_REACTORS
330
C
102
}
330
C
100
AcDbDictionary
281
     1
  3
DIMENSION
350
AE3
  3
FEA
350
AE4
  3
HATCH (1)
350
AE5
  3
HATCH (2)
350
AE6
  3
SYMBOLS
350
AE7
  0
ACAD_PROXY_OBJECT
  5
164F
102
{ACAD_REACTORS
330
C
102
}
330
C
100
AcDbProxyObject
 90
      499
 91
      543
 95
       25
 70
     0
 93
       34
310
0500004280
  0
ACAD_PROXY_OBJECT
  5
165F
102
{ACAD_REACTORS
330
C
102
}
330
C
100
AcDbProxyObject
 90
      499
 91
      553
 95
       25
 70
     0
 93
       98
310
0900004E400000000000000000
330
1666
330
0
330
1667
330
0
330
0
330
0
330
0
330
0
 94
        0
  0
ACAD_PROXY_OBJECT
  5
165A
102
{ACAD_REACTORS
330
C
102
}
330
C
100
AcDbProxyObject
 90
      499
 91
      507
 95
       25
 70
     0
 93
       56
310
90441600000000
330
165B
330
165C
330
165D
330
165E
 94
        0
  0
XRECORD
  5
749C
102
{ACAD_REACTORS
330
C
102
}
330
C
100
AcDbXrecord
280
     1
  1
DWGPROPS COOKIE
  2

  3

  4

  6

  7

  8

  9

300
AmdtFileType=82
301
=
302
=
303
=
304
=
305
=
306
=
307
=
308
=
309
=
 40
0.0
 41
2451948.235903461
 42
2455464.193851806
  1

 90
        1
  0
ACAD_PROXY_OBJECT
  5
1650
102
{ACAD_REACTORS
330
C
102
}
330
C
100
AcDbProxyObject
 90
      499
 91
      544
 95
       25
 70
     0
 93
        8
310
05
  0
DICTIONARY
  5
1605
102
{ACAD_REACTORS
330
C
102
}
330
C
100
AcDbDictionary
281
     1
  3
XREC1
350
1606
  0
DICTIONARY
  5
1833
102
{ACAD_REACTORS
330
1832
102
}
330
1832
100
AcDbDictionary
281
     1
  0
SORTENTSTABLE
  5
1DD7
102
{ACAD_REACTORS
330
10B
102
}
330
10B
100
AcDbSortentsTable
330
1F
331
2E3B
  5
2E38
331
6173
  5
6173
331
65EA
  5
65EA
331
65EB
  5
65EB
331
65EC
  5
65EC
331
65ED
  5
65ED
331
65EE
  5
65EE
331
65EF
  5
65EF
331
65F0
  5
65F0
331
65F1
  5
65F1
331
65F2
  5
65F2
331
65F3
  5
65F3
331
65F4
  5
65F4
331
65F5
  5
65F5
331
65F6
  5
65F6
331
65F7
  5
65F7
331
65F8
  5
65F8
331
65F9
  5
65F9
331
65FA
  5
65FA
331
65FB
  5
65FB
331
65FC
  5
65FC
331
65FD
  5
65FD
331
65FE
  5
65FE
331
6608
  5
6608
331
6609
  5
6609
331
660B
  5
660B
331
660E
  5
660E
331
660F
  5
660F
331
6612
  5
6612
331
6613
  5
6613
331
6614
  5
6614
331
6615
  5
6615
331
6617
  5
6617
331
6619
  5
6619
331
661A
  5
661A
331
661B
  5
661B
331
661C
  5
661C
331
6639
  5
6639
331
663C
  5
663C
331
6642
  5
6642
331
6644
  5
6644
331
664A
  5
664A
331
664E
  5
664E
331
6650
  5
6650
331
6652
  5
6652
331
6654
  5
6654
331
665D
  5
665D
331
665E
  5
665E
331
6662
  5
6662
331
6663
  5
6663
331
6664
  5
6664
331
6685
  5
6685
331
6686
  5
6686
331
6687
  5
6687
331
6688
  5
6688
331
6689
  5
6689
331
668A
  5
668A
331
668B
  5
668B
331
668C
  5
668C
331
668D
  5
668D
331
668E
  5
668E
331
668F
  5
668F
331
6690
  5
6690
331
6691
  5
6691
331
6692
  5
6692
331
66CD
  5
66CD
331
66CE
  5
66CE
331
66CF
  5
66CF
331
66D0
  5
66D0
331
66D1
  5
66D1
331
66D2
  5
66D2
331
66D3
  5
66D3
331
66D4
  5
66D4
331
66D5
  5
66D5
331
66D6
  5
66D6
331
66D7
  5
66D7
331
66D8
  5
66D8
331
66D9
  5
66D9
331
66DA
  5
66DA
331
66DB
  5
66DB
331
66DC
  5
66DC
331
66DD
  5
66DD
331
66DE
  5
66DE
331
66DF
  5
66DF
331
66E0
  5
66E0
331
66E1
  5
66E1
331
66E2
  5
66E2
331
66E3
  5
66E3
331
66E4
  5
66E4
331
66E5
  5
66E5
331
66E6
  5
66E6
331
66E7
  5
66E7
331
66E8
  5
66E8
331
66E9
  5
66E9
331
66EA
  5
66EA
331
66EB
  5
66EB
331
66EC
  5
66EC
331
66ED
  5
66ED
331
66EE
  5
66EE
331
66F7
  5
66F7
331
66F8
  5
66F8
331
66F9
  5
66F9
331
66FA
  5
66FA
331
66FB
  5
66FB
331
66FC
  5
66FC
331
66FD
  5
66FD
331
66FE
  5
66FE
331
66FF
  5
66FF
331
6700
  5
6700
331
672A
  5
672A
331
672B
  5
672B
331
672C
  5
672C
331
672F
  5
672F
331
6735
  5
6735
331
6736
  5
6736
331
6738
  5
6738
331
6739
  5
6739
331
673A
  5
673A
331
673B
  5
673B
331
673C
  5
673C
331
673E
  5
673E
331
673F
  5
673F
331
6741
  5
6741
331
6742
  5
6742
331
6743
  5
6743
331
6744
  5
6744
331
6745
  5
6745
331
6746
  5
6746
331
674A
  5
674A
331
674B
  5
674B
331
674C
  5
674C
331
674D
  5
674D
331
674E
  5
674E
331
674F
  5
674F
331
6753
  5
6753
331
6754
  5
6754
331
6755
  5
6755
331
6756
  5
6756
331
6757
  5
6757
331
6758
  5
6758
331
6759
  5
6759
331
675B
  5
675B
331
6760
  5
6760
331
6761
  5
6761
331
6762
  5
6762
331
6763
  5
6763
331
6764
  5
6764
331
6765
  5
6765
331
6766
  5
6766
331
6767
  5
6767
331
6768
  5
6768
331
6769
  5
6769
331
676A
  5
676A
331
676B
  5
676B
331
676C
  5
676C
331
676D
  5
676D
331
676E
  5
676E
331
676F
  5
676F
331
6770
  5
6770
331
6771
  5
6771
331
6772
  5
6772
331
6774
  5
6774
331
67AA
  5
67AA
331
67B2
  5
67B2
331
67E1
  5
67E1
331
67E4
  5
67E4
331
67FC
  5
67FC
331
683F
  5
683F
331
6A54
  5
6A54
331
6A55
  5
6A55
331
6A56
  5
6A56
331
6A57
  5
6A57
331
6A58
  5
6A58
331
6A59
  5
6A59
331
6A5A
  5
6A5A
331
6A5B
  5
6A5B
331
6A5D
  5
6A5D
331
6A5E
  5
6A5E
331
6A5F
  5
6A5F
331
6A60
  5
6A60
331
6A61
  5
6A61
331
6A62
  5
6A62
331
6A63
  5
6A63
331
6A64
  5
6A64
331
6A65
  5
6A65
331
6A66
  5
6A66
331
6A67
  5
6A67
331
6A68
  5
6A68
331
6A69
  5
6A69
331
6A6A
  5
6A6A
331
6A6B
  5
6A6B
331
6A6C
  5
6A6C
331
6A6D
  5
6A6D
331
6A6E
  5
6A6E
331
6A70
  5
6A70
331
6A71
  5
6A71
331
6A72
  5
6A72
331
6A74
  5
6A74
331
6A75
  5
6A75
331
6A76
  5
6A76
331
6A7C
  5
6A7C
331
6A7D
  5
6A7D
331
6A7F
  5
6A7F
331
6A80
  5
6A80
331
6A81
  5
6A81
331
6A83
  5
6A83
331
6A84
  5
6A84
331
6A85
  5
6A85
331
6A86
  5
6A86
331
6A87
  5
6A87
331
6A88
  5
6A88
331
6A89
  5
6A89
331
6A8B
  5
6A8B
331
6A8E
  5
6A8E
331
6A8F
  5
6A8F
331
6A90
  5
6A90
331
6A91
  5
6A91
331
6A92
  5
6A92
331
6A93
  5
6A93
331
6A94
  5
6A94
331
6A95
  5
6A95
331
6A96
  5
6A96
331
6A97
  5
6A97
331
6A98
  5
6A98
331
6A99
  5
6A99
331
6A9A
  5
6A9A
331
6A9B
  5
6A9B
331
6A9E
  5
6A9E
331
6AD6
  5
6AD6
331
6AD7
  5
6AD7
331
6AD8
  5
6AD8
331
6AD9
  5
6ADA
331
6ADA
  5
6ADB
331
6ADB
  5
6ADC
331
6ADC
  5
6ADD
331
6ADD
  5
6ADE
331
6ADE
  5
6ADF
331
6ADF
  5
6AE0
331
6AE0
  5
6AE1
331
6AE1
  5
6AE2
331
6AE2
  5
6AE3
331
6AE3
  5
6AE4
331
6AE4
  5
6AE5
331
6AE5
  5
6AE6
331
6AE8
  5
6AE9
331
6AE9
  5
6AEA
331
6AEA
  5
6AEB
331
6AEB
  5
6AEC
331
6AEC
  5
6AED
331
6AED
  5
6AEE
331
6AEE
  5
6AEF
331
6AEF
  5
6AF0
331
6AF0
  5
6AF1
331
6AF1
  5
6AF2
331
6AF2
  5
6AF3
331
6AF3
  5
6AF4
331
6AF4
  5
6AF5
331
6AF5
  5
6AF6
331
6AF6
  5
6AF7
331
6AF7
  5
6AF8
331
6B06
  5
6B07
331
6B07
  5
6B08
331
6B08
  5
6B09
331
6B09
  5
6B0A
331
6B0A
  5
6B0B
331
6B0B
  5
6B0C
331
6B0C
  5
6B0D
331
6B0D
  5
6B0E
331
6B14
  5
6B15
331
6B15
  5
6B16
331
6B16
  5
6B17
331
6B17
  5
6B18
331
6B18
  5
6B19
331
6B19
  5
6B1A
331
6B28
  5
6B29
331
6B29
  5
6B2A
331
6B2A
  5
6B2B
331
6B2B
  5
6B2C
331
6B2C
  5
6B2D
331
6B2D
  5
6B2E
331
6B38
  5
6B39
331
6B39
  5
6B3A
331
6B3A
  5
6B3B
331
6B3B
  5
6B3C
331
6B3C
  5
6B3D
331
6B3D
  5
6B3E
331
6B40
  5
6B41
331
6B41
  5
6B42
331
6B42
  5
6B43
331
6B59
  5
6B5A
331
6B5A
  5
6B5B
331
6BC9
  5
6BCA
331
6BCA
  5
6BCB
331
6BCB
  5
6BCC
331
6BCC
  5
6BCD
331
6BCD
  5
6BCE
331
6BCE
  5
6BCF
331
6BCF
  5
6BD0
331
6BD0
  5
6BD1
331
6BD1
  5
6BD2
331
6BD2
  5
6BD3
331
6BD3
  5
6BD4
331
6BD4
  5
6BD5
331
6BD5
  5
6BD6
331
6BD6
  5
6BD7
331
6BD7
  5
6BD8
331
6BD8
  5
6BD9
331
6BD9
  5
6BDA
331
6BDA
  5
6BDB
331
6BE0
  5
6BE1
331
6BE4
  5
6BE5
331
6BE5
  5
6BE6
331
6BE6
  5
6BE7
331
6BE7
  5
6BE8
331
6BE9
  5
6BEA
331
6BEA
  5
6BEB
331
6BEB
  5
6BEC
331
6BEC
  5
6BED
331
6BED
  5
6BEE
331
6BEE
  5
6BEF
331
6BEF
  5
6BF0
331
6BF2
  5
6BF3
331
6BF3
  5
6BF4
331
6BF5
  5
6BF6
331
6BF6
  5
6BF7
331
6BF7
  5
6BF8
331
6BF9
  5
6BFA
331
6BFA
  5
6BFB
331
6BFB
  5
6BFC
331
6BFE
  5
6BFF
331
6BFF
  5
6C00
331
6C15
  5
6C16
331
6C16
  5
6C17
331
6C17
  5
6C18
331
6C18
  5
6C19
331
6C4B
  5
6C4B
331
6C5C
  5
6C5C
331
6CF6
  5
6CF6
331
6CF7
  5
6CF7
331
6CF8
  5
6CF8
331
6CF9
  5
6CF9
331
6D07
  5
6D07
331
6D08
  5
6D08
331
6D09
  5
6D09
331
6D0A
  5
6D0A
331
6D0B
  5
6D0B
331
6D0C
  5
6D0C
331
6D0D
  5
6D0D
331
6D0E
  5
6D0E
331
6D0F
  5
6D0F
331
6D1F
  5
6D1F
331
6D3F
  5
6D3F
  0
LAYOUT
  5
22
102
{ACAD_REACTORS
330
1A
102
}
330
1A
100
AcDbPlotSettings
  1

  2
SII LP-2150 (D-SCAN C2)
  4
User118
  6
AM_VIEW1
 40
3.174999952316284
 41
3.174999952316284
 42
3.17498779296875
 43
3.17498779296875
 44
296.9259948730469
 45
419.9889831542969
 46
0.0
 47
0.0
 48
0.0
 49
0.0
140
423.0
141
300.0
142
1.0
143
1.03243210946902
 70
 11952
 72
     1
 73
     1
 74
     4
  7
sei_cad.ctb
 75
     0
147
0.9685866904258728
148
0.0
149
0.0
100
AcDbLayout
  1
Model
 70
     1
 71
     0
 10
0.0
 20
0.0
 11
12.0
 21
9.0
 12
0.0
 22
0.0
 32
0.0
 14
0.0
 24
0.0
 34
0.0
 15
0.0
 25
0.0
 35
0.0
146
0.0
 13
0.0
 23
0.0
 33
0.0
 16
1.0
 26
0.0
 36
0.0
 17
0.0
 27
1.0
 37
0.0
 76
     0
330
1F
  0
LAYOUT
  5
1E
102
{ACAD_REACTORS
330
1A
102
}
330
1A
100
AcDbPlotSettings
  1

  2
SII LP-2150 (D-SCAN C2)
  4

  6

 40
0.0
 41
0.0
 42
0.0
 43
0.0
 44
0.0
 45
0.0
 46
0.0
 47
0.0
 48
0.0
 49
0.0
140
0.0
141
0.0
142
1.0
143
1.0
 70
   688
 72
     0
 73
     0
 74
     5
  7
sei_cad.ctb
 75
    16
147
1.0
148
0.0
149
0.0
100
AcDbLayout
  1
ﾚｲｱｳﾄ1
 70
     1
 71
     1
 10
0.0
 20
0.0
 11
420.0
 21
297.0
 12
0.0
 22
0.0
 32
0.0
 14
1.000000000000000E+20
 24
1.000000000000000E+20
 34
1.000000000000000E+20
 15
-1.000000000000000E+20
 25
-1.000000000000000E+20
 35
-1.000000000000000E+20
146
0.0
 13
0.0
 23
0.0
 33
0.0
 16
1.0
 26
0.0
 36
0.0
 17
0.0
 27
1.0
 37
0.0
 76
     0
330
1B
  0
LAYOUT
  5
26
102
{ACAD_REACTORS
330
1A
102
}
330
1A
100
AcDbPlotSettings
  1

  2
SII LP-2150 (D-SCAN C2)
  4

  6

 40
0.0
 41
0.0
 42
0.0
 43
0.0
 44
0.0
 45
0.0
 46
0.0
 47
0.0
 48
0.0
 49
0.0
140
0.0
141
0.0
142
1.0
143
1.0
 70
   688
 72
     0
 73
     0
 74
     5
  7
sei_cad.ctb
 75
    16
147
1.0
148
0.0
149
0.0
100
AcDbLayout
  1
ﾚｲｱｳﾄ2
 70
     1
 71
     2
 10
0.0
 20
0.0
 11
12.0
 21
9.0
 12
0.0
 22
0.0
 32
0.0
 14
0.0
 24
0.0
 34
0.0
 15
0.0
 25
0.0
 35
0.0
146
0.0
 13
0.0
 23
0.0
 33
0.0
 16
1.0
 26
0.0
 36
0.0
 17
0.0
 27
1.0
 37
0.0
 76
     0
330
23
  0
MLINESTYLE
  5
18
102
{ACAD_REACTORS
330
17
102
}
330
17
100
AcDbMlineStyle
  2
STANDARD
 70
     0
  3

 62
   256
 51
90.0
 52
90.0
 71
     2
 49
0.5
 62
   256
  6
BYLAYER
 49
-0.5
 62
   256
  6
BYLAYER
  0
ACDBPLACEHOLDER
  5
F
102
{ACAD_REACTORS
330
E
102
}
330
E
  0
TABLESTYLE
  5
1613
102
{ACAD_REACTORS
330
1612
102
}
330
1612
100
AcDbTableStyle
  3
Standard
 70
     0
 71
     8
 40
1.5
 41
1.5
280
     0
281
     0
  7
STANDARD
140
4.5
170
     2
 62
     0
 63
     7
283
     0
274
    -2
284
     1
 64
     0
275
    -2
285
     1
 65
     0
276
    -2
286
     1
 66
     0
277
    -2
287
     1
 67
     0
278
    -2
288
     1
 68
     0
279
    -2
289
     1
 69
     0
  7
STANDARD
140
6.0
170
     5
 62
     0
 63
     7
283
     0
274
    -2
284
     1
 64
     0
275
    -2
285
     1
 65
     0
276
    -2
286
     1
 66
     0
277
    -2
287
     1
 67
     0
278
    -2
288
     1
 68
     0
279
    -2
289
     1
 69
     0
  7
STANDARD
140
4.5
170
     5
 62
     0
 63
     7
283
     0
274
    -2
284
     1
 64
     0
275
    -2
285
     1
 65
     0
276
    -2
286
     1
 66
     0
277
    -2
287
     1
 67
     0
278
    -2
288
     1
 68
     0
279
    -2
289
     1
 69
     0
  0
XRECORD
  5
749A
102
{ACAD_REACTORS
330
7499
102
}
330
7499
100
AcDbXrecord
280
     1
340
1611
  0
XRECORD
  5
749B
102
{ACAD_REACTORS
330
7499
102
}
330
7499
100
AcDbXrecord
280
     1
340
1610
  0
DICTIONARYVAR
  5
1684
102
{ACAD_REACTORS
330
30
102
}
330
30
100
DictionaryVariables
280
     0
  1
STANDARD
  0
DICTIONARYVAR
  5
7497
102
{ACAD_REACTORS
330
30
102
}
330
30
100
DictionaryVariables
280
     0
  1
1
  0
DICTIONARYVAR
  5
7498
102
{ACAD_REACTORS
330
30
102
}
330
30
100
DictionaryVariables
280
     0
  1
0
  0
DICTIONARYVAR
  5
31
102
{ACAD_REACTORS
330
30
102
}
330
30
100
DictionaryVariables
280
     0
  1
1
  0
ACAD_PROXY_OBJECT
  5
44
102
{ACAD_REACTORS
330
43
102
}
330
43
100
AcDbProxyObject
 90
      499
 91
      519
 95
       25
 70
     0
 93
      118
310
405010040CA904C415CD5B075DD228
350
45
 94
        0
  0
DICTIONARY
  5
7A0
102
{ACAD_REACTORS
330
43
102
}
330
43
100
AcDbDictionary
281
     1
  3
ANSI
350
1B45
  3
JIS
350
7A1
  0
XRECORD
  5
166D
102
{ACAD_REACTORS
330
43
102
}
330
43
100
AcDbXrecord
280
     1
 90
-1023410169
  0
ACAD_PROXY_OBJECT
  5
33
330
2E
100
AcDbProxyObject
 90
      499
 91
      508
 95
       25
 70
     0
 93
      156
310
00010143D050D351505391D5531054925390D490
330
2E
 94
        0
  0
ACAD_PROXY_OBJECT
  5
34
330
2E
100
AcDbProxyObject
 90
      499
 91
      508
 95
       25
 70
     0
 93
      148
310
000101439050D351531253915054925390D490
330
2E
 94
        0
  0
ACAD_PROXY_OBJECT
  5
35
330
2E
100
AcDbProxyObject
 90
      499
 91
      509
 95
       25
 70
     0
 93
      156
310
000101439050D35154D6535093D314D256915080
330
2E
 94
        0
  0
ACAD_PROXY_OBJECT
  5
37
330
2E
100
AcDbProxyObject
 90
      499
 91
      511
 95
       25
 70
     0
 93
       88
310
000101411093D34C402B00
330
2E
330
0
330
0
 94
        0
  0
ACAD_PROXY_OBJECT
  5
79E
330
2E
100
AcDbProxyObject
 90
      499
 91
      509
 95
       25
 70
     0
 93
      108
310
00010142505351D153D35054D4E0
330
2E
 94
        0
  0
ACAD_PROXY_OBJECT
  5
79F
330
2E
100
AcDbProxyObject
 90
      499
 91
      525
 95
       25
 70
     0
 93
      140
310
00010142105350D55494D511005034A49530
330
2E
 94
        0
  0
ACAD_PROXY_OBJECT
  5
1623
330
2E
100
AcDbProxyObject
 90
      499
 91
      535
 95
       25
 70
     0
 93
      358
310
0001014124FEA55D00507392E322E302E32014124FEA55D00507392E322E302E3240501000041505391D311658
330
2E
330
1624
330
162A
 94
        0
  0
ACAD_PROXY_OBJECT
  5
1624
330
2E
100
AcDbProxyObject
 90
      499
 91
      536
 95
       25
 70
     0
 93
       56
310
000190240E0000
330
2E
330
1625
330
1627
 94
        0
  0
ACAD_PROXY_OBJECT
  5
1625
330
2E
100
AcDbProxyObject
 90
      499
 91
      537
 95
       25
 70
     0
 93
       48
310
0001AA000000
330
2E
330
1E
330
1626
330
0
 94
        0
  0
ACAD_PROXY_OBJECT
  5
1626
330
2E
100
AcDbProxyObject
 90
      499
 91
      538
 95
       25
 70
     0
 93
       28
310
0001AAA0
330
2E
 94
        0
  0
ACAD_PROXY_OBJECT
  5
1627
330
2E
100
AcDbProxyObject
 90
      499
 91
      537
 95
       25
 70
     0
 93
       48
310
0001AA000000
330
2E
330
26
330
1628
330
0
 94
        0
  0
ACAD_PROXY_OBJECT
  5
1628
330
2E
100
AcDbProxyObject
 90
      499
 91
      538
 95
       25
 70
     0
 93
       28
310
0001AAA0
330
2E
 94
        0
  0
ACAD_PROXY_OBJECT
  5
162B
330
2E
100
AcDbProxyObject
 90
      499
 91
      509
 95
       25
 70
     0
 93
      108
310
000101421053521310D05310D010
330
2E
 94
        0
  0
ACAD_PROXY_OBJECT
  5
162C
330
2E
100
AcDbProxyObject
 90
      499
 91
      509
 95
       25
 70
     0
 93
      124
310
00010142905354915554D15112535010
330
2E
 94
        0
  0
ACAD_PROXY_OBJECT
  5
162D
330
2E
100
AcDbProxyObject
 90
      499
 91
      509
 95
       25
 70
     0
 93
      132
310
00010143105354D150D51253D391125360
330
2E
 94
        0
  0
ACAD_PROXY_OBJECT
  5
162E
330
2E
100
AcDbProxyObject
 90
      499
 91
      509
 95
       25
 70
     0
 93
      124
310
00010142905355941093D49111549010
330
2E
 94
        0
  0
ACAD_PROXY_OBJECT
  5
162F
330
2E
100
AcDbProxyObject
 90
      499
 91
      509
 95
       25
 70
     0
 93
      116
310
0001014290535115D1D0D3D313D4A0
330
2E
 94
        0
  0
ACAD_PROXY_OBJECT
  5
1630
330
2E
100
AcDbProxyObject
 90
      499
 91
      509
 95
       25
 70
     0
 93
      148
310
00010143505355925155D49151949154D21010
330
2E
 94
        0
  0
ACAD_PROXY_OBJECT
  5
1631
330
2E
100
AcDbProxyObject
 90
      499
 91
      509
 95
       25
 70
     0
 93
      172
310
00010144105350539393D51154149154D15495915010
330
2E
 94
        0
  0
ACAD_PROXY_OBJECT
  5
1632
330
2E
100
AcDbProxyObject
 90
      499
 91
      509
 95
       25
 70
     0
 93
      172
310
00010144105350555513D11253505494905391D15010
330
2E
 94
        0
  0
ACAD_PROXY_OBJECT
  5
1633
330
2E
100
AcDbProxyObject
 90
      499
 91
      509
 95
       25
 70
     0
 93
      124
310
00010142D05351561514915191125360
330
2E
 94
        0
  0
ACAD_PROXY_OBJECT
  5
1634
330
2E
100
AcDbProxyObject
 90
      499
 91
      509
 95
       25
 70
     0
 93
      132
310
00010142D05355105410539393D5115010
330
2E
 94
        0
  0
ACAD_PROXY_OBJECT
  5
1635
330
2E
100
AcDbProxyObject
 90
      499
 91
      509
 95
       25
 70
     0
 93
      108
310
00010142105350555513D0D31010
330
2E
 94
        0
  0
ACAD_PROXY_OBJECT
  5
1636
330
2E
100
AcDbProxyObject
 90
      499
 91
      509
 95
       25
 70
     0
 93
      108
310
00010142105350D3119150551050
330
2E
 94
        0
  0
ACAD_PROXY_OBJECT
  5
1637
330
2E
100
AcDbProxyObject
 90
      499
 91
      509
 95
       25
 70
     0
 93
      108
310
00010142105350D315925155D3F0
330
2E
 94
        0
  0
ACAD_PROXY_OBJECT
  5
1638
330
2E
100
AcDbProxyObject
 90
      499
 91
      509
 95
       25
 70
     0
 93
      148
310
0001014350535212511156915493D112535010
330
2E
 94
        0
  0
ACAD_PROXY_OBJECT
  5
1639
330
2E
100
AcDbProxyObject
 90
      499
 91
      509
 95
       25
 70
     0
 93
      124
310
00010142905352105510D21254D3D010
330
2E
 94
        0
  0
ACAD_PROXY_OBJECT
  5
163A
330
2E
100
AcDbProxyObject
 90
      499
 91
      509
 95
       25
 70
     0
 93
      148
310
00010143905354D25391D31152105513105660
330
2E
 94
        0
  0
ACAD_PROXY_OBJECT
  5
163B
330
2E
100
AcDbProxyObject
 90
      499
 91
      509
 95
       25
 70
     0
 93
      124
310
00010142D0535115D1D193111254D420
330
2E
 94
        0
  0
ACAD_PROXY_OBJECT
  5
163C
330
2E
100
AcDbProxyObject
 90
      499
 91
      509
 95
       25
 70
     0
 93
      100
310
00010142105350555513D213A0
330
2E
 94
        0
  0
ACAD_PROXY_OBJECT
  5
163D
330
2E
100
AcDbProxyObject
 90
      499
 91
      509
 95
       25
 70
     0
 93
      116
310
000101425053521390D3D553951010
330
2E
 94
        0
  0
ACAD_PROXY_OBJECT
  5
163E
330
2E
100
AcDbProxyObject
 90
      499
 91
      509
 95
       25
 70
     0
 93
      108
310
0001014210535213941493D29010
330
2E
 94
        0
  0
ACAD_PROXY_OBJECT
  5
163F
330
2E
100
AcDbProxyObject
 90
      499
 91
      509
 95
       25
 70
     0
 93
      108
310
0001014210535213951654115070
330
2E
 94
        0
  0
ACAD_PROXY_OBJECT
  5
1640
330
2E
100
AcDbProxyObject
 90
      499
 91
      509
 95
       25
 70
     0
 93
      108
310
000101421053521395925155D0F0
330
2E
 94
        0
  0
ACAD_PROXY_OBJECT
  5
1641
330
2E
100
AcDbProxyObject
 90
      499
 91
      509
 95
       25
 70
     0
 93
      140
310
00010143505354D150D51253D390D3D41660
330
2E
 94
        0
  0
ACAD_PROXY_OBJECT
  5
1642
330
2E
100
AcDbProxyObject
 90
      499
 91
      509
 95
       25
 70
     0
 93
      108
310
00010142105350D3141493D29030
330
2E
 94
        0
  0
ACAD_PROXY_OBJECT
  5
1643
330
2E
100
AcDbProxyObject
 90
      499
 91
      508
 95
       25
 70
     0
 93
      212
310
00010143905350555513D2105510D21493D500000000000002E400
330
2E
 94
        0
  0
ACAD_PROXY_OBJECT
  5
1644
330
2E
100
AcDbProxyObject
 90
      499
 91
      509
 95
       25
 70
     0
 93
      156
310
00010143905350555513D2105510D21111551010
330
2E
 94
        0
  0
ACAD_PROXY_OBJECT
  5
1652
330
2E
100
AcDbProxyObject
 90
      499
 91
      546
 95
       25
 70
     0
 93
      698
310
0001000000009AA6A9AA4051E547565204175672032342030343A33343A353120323031302028555443290141CE4B8C8B8C0B8C80518467269205365702032342031333A33393A303820323031300141CE4B8C8B8C0B8C80
330
2E
330
1653
330
1654
330
1656
330
0
 94
        0
  0
ACAD_PROXY_OBJECT
  5
1653
330
2E
100
AcDbProxyObject
 90
      499
 91
      547
 95
       25
 70
     0
 93
       70
310
0001AAA80820000000
330
2E
330
1653
330
1653
 94
        0
  0
ACAD_PROXY_OBJECT
  5
1654
330
2E
100
AcDbProxyObject
 90
      499
 91
      548
 95
       25
 70
     0
 93
       48
310
000100000000
330
2E
330
0
330
1655
330
0
330
0
 94
        0
  0
ACAD_PROXY_OBJECT
  5
1655
330
2E
100
AcDbProxyObject
 90
      499
 91
      549
 95
       25
 70
     0
 93
       40
310
000100AAAA
330
2E
330
0
 94
        0
  0
ACAD_PROXY_OBJECT
  5
165B
330
2E
100
AcDbProxyObject
 90
      499
 91
      525
 95
       25
 70
     0
 93
      180
310
00010143105050D3D35411119390535140504434F4D500
330
2E
 94
        0
  0
ACAD_PROXY_OBJECT
  5
165C
330
2E
100
AcDbProxyObject
 90
      499
 91
      525
 95
       25
 70
     0
 93
      212
310
0001014390505193D311115491119390535140506466F6C6465720
330
2E
 94
        0
  0
ACAD_PROXY_OBJECT
  5
165D
330
2E
100
AcDbProxyObject
 90
      499
 91
      525
 95
       25
 70
     0
 93
      180
310
00010143105050539393D1119390535140504284156290
330
2E
 94
        0
  0
ACAD_PROXY_OBJECT
  5
165E
330
2E
100
AcDbProxyObject
 90
      499
 91
      525
 95
       25
 70
     0
 93
      436
310
00010143905050D3D35415925155D31254D50052295BD96CA0A90B396CA0A894591A496CA0A8DB691A496CA0A89BA96CA0A95E28F95310
330
2E
 94
        0
  0
ACAD_PROXY_OBJECT
  5
1663
330
2E
100
AcDbProxyObject
 90
      499
 91
      554
 95
       25
 70
     0
 93
       32
310
00010000
330
2E
340
1660
330
1665
330
1660
 94
        0
  0
ACAD_PROXY_OBJECT
  5
1664
330
2E
100
AcDbProxyObject
 90
      499
 91
      555
 95
       25
 70
     0
 93
       18
310
000180
330
2E
 94
        0
  0
ACAD_PROXY_OBJECT
  5
1665
330
2E
100
AcDbProxyObject
 90
      499
 91
      556
 95
       25
 70
     0
 93
      154
310
0001014211940C8C548B4D4D5050055401550000
330
2E
330
1663
330
1664
 94
        0
  0
ACAD_PROXY_OBJECT
  5
1666
330
2E
100
AcDbProxyObject
 90
      499
 91
      557
 95
       25
 70
     0
 93
      178
310
000100AAAAAAA1B6EE4AC073CF9060D2ADEC7D6EDDF840
330
2E
330
1665
 94
        0
  0
ACAD_PROXY_OBJECT
  5
1667
330
2E
100
AcDbProxyObject
 90
      499
 91
      558
 95
       25
 70
     0
 93
      108
310
000190140A000000000000AAAAA0
330
2E
330
1668
330
1668
330
1668
330
1668
330
1668
330
0
 94
        0
  0
ACAD_PROXY_OBJECT
  5
1668
330
2E
100
AcDbProxyObject
 90
      499
 91
      559
 95
       25
 70
     0
 93
       51
310
00010000AAAA80
330
2E
330
1667
330
1665
 94
        0
  0
DICTIONARY
  5
40
102
{ACAD_REACTORS
330
3F
102
}
330
3F
100
AcDbDictionary
281
     1
  3
DWGSETTINGS
350
41
  3
FEM
350
54
  3
Shaft
350
53
  3
TRANSSETTINGS
350
42
  0
ACAD_PROXY_OBJECT
  5
47
102
{ACAD_REACTORS
330
3F
102
}
330
3F
100
AcDbProxyObject
 90
      499
 91
      521
 95
       25
 70
     0
 93
    23232
310
41502491013041105357CC201C00030C011E441013141105357CC603800030C011E441013241105357CCA01400030C011E441013341105357CCE01800030C010D9013441105357CD200C00030C010D9013541105357CD600C00030C010D9013641105357CDA00800030C011E9013741105357CDE01000030C010D901384110
310
5357CE200400030C011E9013941105357CE63F400030C0241102324141505357CC4C201C00030C011E902344141505357CC4C600C00030C010D902495041505357CC4CA01C00030C011E40902304E41505357CC13A01C00030C011E902314E41505357CC53A03800030C011E902324E41505357CC93A01400030C011E90233
310
4E41505357CCD3A01800030C010D902344E41505357CD13A00C00030C010D902354E41505357CD53A00C00030C010D902364E41505357CD93A00800030C011E902374E41505357CDD3A01000030C010D902384E41505357CE13A00400030C011E902394E41505357CE53A3F400030C024110332414E41905357CC4C13A01C0
310
0030C011E90334414E41905357CC4C53A00C00030C010D90349504E41905357CC4C93A01C00030C011E409044B4C494E41505357D0D3200400030C011E42504494E464F42105357D410549151A01000030C010D42D055241484D3541905357D093D4A01C00030C011E425045649455742105357D5925155D4E00400030C011
310
E42D06424548494E4441905357D25395A3F400030C0243505545241494C41505357D514A00C00030C010D4250348494441905357D21251201C00030C011E4250356495341905357D59254E01C00030C011E4250650415244494D42505357D41054911253600C00030C010D4250652454644494D42505357D49151911253601
310
000030C010D425774110531514901348070000C300479034110915312501348000000C0003FFFFFFFD034110921395901398000000C0003FFFFFFFE415092139594D06424548494E448000000C0003FFFFFFFE411093125110234418000000C0003FFFFFFFD03411093D05410234418000000C0003FFFFFFFD03411093D48C
310
9055241484D358010000C30047A411093D48CD055241484D358020000C30047A411093D48D5055241484D358000000C0003FFFFFFFE411093D48DD055241484D3581E0000C30047903411094105410234418000000C0003FFFFFFFD03411094115610234418000000C0003FFFFFFFD034110951112501358000000C0003FFF
310
FFFFD034110D0530C901348000000C0003FFFFFFFE4110D0530CD01348020000C30047A4110D0530D501348070000C30047A4110D0530DD013481E0000C30047A4110D15393901378000000C0003FFFFFFFE4110D15395D01378000000C0003FFFFFFFE4110D312539044B4C494E8000000C0003FFFFFFFE4110D3D38C5013
310
08000000C0003FFFFFFFD034110D3D38C901318000000C0003FFFFFFFD034110D3D38CD01328000000C0003FFFFFFFD034110D3D38D101328000000C0003FFFFFFFD034111115494101348000000C0003FFFFFFFD034111115510501348000000C0003FFFFFFFE4111125051D01358000000C0003FFFFFFFE4111125312501
310
358000000C0003FFFFFFFE411112535410650415244494D8000000C0003FFFFFFFE411112535490652454644494D8000000C0003FFFFFFFE411156135410234418000000C0003FFFFFFFD034111915353901388000000C0003FFFFFFFE415191535413901388030000C3004364151915354D410234418000000C0003FFFFFF
310
FE4151915354D510234418030000C300436415191535593901328000000C0003FFFFFFFE415191535595101328030000C3004364111931055101308000000C0003FFFFFFFD03411194905490234418000000C0003FFFFFFFD034111D49312501358000000C0003FFFFFFFD034111D5931250234418000000C0003FFFFFFFD0
310
34112105510D01388000000C0003FFFFFFFD014112125113901338000000C0003FFFFFFFD034112125115D01338000000C0003FFFFFFFD034112131253901348000000C0003FFFFFFFD01411213D0D3901378000000C0003FFFFFFFE411213D0D5D01378000000C0003FFFFFFFE4112539193D04494E464F8000000C0003FF
310
FFFFFE4113105112501348000000C0003FFFFFFFD034113115051101358000000C0003FFFFFFFE419397D0921395902394E8000000C0003FFFFFFFE419397D0D3D38C502304E8000000C0003FFFFFFFD03419397D0D3D38C902314E8000000C0003FFFFFFFD03419397D0D3D38CD02324E8000000C0003FFFFFFFD03419397
310
D0D3D38D102324E8000000C0003FFFFFFFD03419397D0D15393902374E8000000C0003FFFFFFFE419397D0D15395D02374E8000000C0003FFFFFFFE419397D1125312502354E8000000C0003FFFFFFFE419397D2105510D02384E8000000C0003FFFFFFFD01419397D2125113902334E8000000C0003FFFFFFFD03419397D2
310
125115D02334E8000000C0003FFFFFFFD03419397D3115051102354E8000000C0003FFFFFFFE419397D391D25410349504E8000000C0003FFFFFFFE419397D412105390334414E8000000C0003FFFFFFFE419397D510D3D3902304E8000000C0003FFFFFFFD03419397D5121312502344E8000000C0003FFFFFFFD01419397
310
D5131153902304E8000000C0003FFFFFFFD03419397D516150CD02364E8000000C0003FFFFFFFD03419397D594131250332414E8000000C0003FFFFFFFE411391D25410249508000000C0003FFFFFFFE411410530C9055241484D358010000C30047A411410530CD055241484D358020000C30047A411410530D5055241484
310
D358000000C0003FFFFFFFE411410530DD055241484D3581E0000C30047903411412105390234418000000C0003FFFFFFFE411413D4D3901368070000C30047A419413D4D49151901368050000C30047903411413D4D6101368000000C0003FFFFFFFD03411414D150D0234418000000C0003FFFFFFFD03411490D1D390137
310
8000000C0003FFFFFFFE411490D1D5D01378000000C0003FFFFFFFE4114919112501348000000C0003FFFFFFFD034114945514901348070000C30047903411494D093D01348000000C0003FFFFFFFD034114D09492D01348000000C0003FFFFFFFD014114D0D153901378000000C0003FFFFFFFD034114D150D51013480000
310
00C0003FFFFFFFD014114D15313901378000000C0003FFFFFFFD034114D15315D01378000000C0003FFFFFFFD034114D4D654D01308000000C0003FFFFFFFD034114D51312501348070000C300479034114D6508C501358000000C0003FFFFFFFD034114D6508C901358000000C0003FFFFFFFD034114D6508CD0135802000
310
0C30047A4114D6508D501358070000C300479034114D65353901378000000C0003FFFFFFFD034114D65355D01378000000C0003FFFFFFFD03411510D3D3901308000000C0003FFFFFFFD034115121312501348000000C0003FFFFFFFD01411512550C9055241484D358010000C30047A411512550CD055241484D358020000
310
C30047A411512550D5055241484D358000000C0003FFFFFFFE411512550DD055241484D3581E0000C300479034115131153901308000000C0003FFFFFFFD03415514905253105545241494C8000000C0003FFFFFFFE41151492D3901378000000C0003FFFFFFFD0341151492D5D01378000000C0003FFFFFFFD03411514931
310
2501348000000C0003FFFFFFFD01411516150C501368030000C300436411516150C901368030000C300436411516150CD01368000000C0003FFFFFFFE411516150D501368070000C30047A411516150DD013681E0000C30047A4115925155D04564945578000000C0003FFFFFFFE41159151121034849448000000C0003FFF
310
FFFFD0241159151159035649538000000C0003FFFFFFFD02411594131250232418000000C0003FFFFFFFE4116925690501348000000C0003FFFFFFFD01411354D653501358020000C30047AAAA3F400030C01013F90A4391E41D1E4190D4151E4110D40D0D4091E4051E4791E7F6
340
16
340
16
340
16
340
48
340
16
340
16
340
16
340
49
340
16
340
16
340
49
340
4A
340
16
340
16
340
16
340
16
340
48
340
16
340
16
340
16
340
49
340
16
340
16
340
49
340
4A
340
16
340
4B
340
16
340
16
340
16
340
16
340
16
340
48
340
16
340
16
340
16
340
4C
340
15
340
15
340
15
340
15
340
15
340
15
340
15
340
15
340
15
340
15
340
15
340
15
340
15
340
15
340
15
340
15
340
4D
340
15
340
15
340
15
340
15
340
15
340
15
340
15
340
15
340
15
340
15
340
15
340
15
340
15
340
15
340
15
340
16
340
15
340
15
340
15
340
15
340
15
340
15
340
15
340
15
340
4C
340
15
340
15
340
4D
340
15
340
15
340
15
340
15
340
15
340
15
340
15
340
15
340
15
340
4D
340
15
340
15
340
15
340
4C
340
15
340
15
340
15
340
15
340
15
340
15
340
15
340
15
340
15
340
15
340
15
340
15
340
15
340
15
340
15
340
15
340
15
340
15
340
15
340
4D
340
15
340
15
340
4D
340
15
340
15
340
16
340
15
340
4D
340
15
340
15
340
4C
340
15
340
15
340
16
340
15
340
4D
340
15
340
15
340
15
340
15
340
15
340
15
340
15
340
15
340
15
340
4D
340
15
340
15
340
15
340
15
340
15
340
15
340
15
340
15
340
15
340
15
340
15
340
50
340
16
 94
        0
  0
ACAD_PROXY_OBJECT
  5
AE3
102
{ACAD_REACTORS
330
59
102
}
330
59
100
AcDbProxyObject
 90
      499
 91
      522
 95
       25
 70
     0
 93
      253
310
43D1444494D454E53494F4E2C414D44545F2A5F44494D404A9012A404A9012A0
  0
ACAD_PROXY_OBJECT
  5
AE4
102
{ACAD_REACTORS
330
59
102
}
330
59
100
AcDbProxyObject
 90
      499
 91
      522
 95
       25
 70
     0
 93
      181
310
43D012A42D05357D191504B505357CA9012A404A9012A8
  0
ACAD_PROXY_OBJECT
  5
AE5
102
{ACAD_REACTORS
330
59
102
}
330
59
100
AcDbProxyObject
 90
      499
 91
      522
 95
       25
 70
     0
 93
      133
310
43D054841544348404A9012A404A9012A8
  0
ACAD_PROXY_OBJECT
  5
AE6
102
{ACAD_REACTORS
330
59
102
}
330
59
100
AcDbProxyObject
 90
      499
 91
      522
 95
       25
 70
     0
 93
      549
310
43D044C494E4549CE0B0E138B0A8B4E0B0A8B4E138B105357CE0B105357CE138B0A8B505357CE0B0A8B505357CE139012A404A910494E534552542C5354445041525432448
  0
ACAD_PROXY_OBJECT
  5
AE7
102
{ACAD_REACTORS
330
59
102
}
330
59
100
AcDbProxyObject
 90
      499
 91
      522
 95
       25
 70
     0
 93
      909
310
43D6641434D46434652414D452C41434D444154554D5441524745542C41434D444154554D49442C41434D57454C4453594D2C41434D5355524653594D2C41434D4645415449442C41434D504152545245462C41434D42414C4C4F4F4E2C414D44544544474553594D404A9012A404A9012A8
  0
XRECORD
  5
1606
102
{ACAD_REACTORS
330
1605
102
}
330
1605
100
AcDbXrecord
280
     1
  1
PV
 40
1.0
 50
-12318.5925953127
 51
-8794.902155258136
 52
12318.5925953127
 53
8794.902155258136
  0
ACAD_PROXY_OBJECT
  5
45
102
{ACAD_REACTORS
330
44
102
}
330
44
100
AcDbProxyObject
 90
      499
 91
      520
 95
       25
 70
     0
 93
      157
310
057356C1D77406406AA8FFFFFFFF05DD01009010
330
1F
330
0
330
1665
 94
        0
  0
ACAD_PROXY_OBJECT
  5
1B45
102
{ACAD_REACTORS
330
7A0
102
}
330
7A0
100
AcDbProxyObject
 90
      499
 91
      576
 95
       25
 70
     0
 93
     2395
310
5DCB81E85EB51B8BE3F8030000C30041105394D2501640600800030C0200800030C00B81E85EB51B8BE3F48821E8720B1B6A9BAB9332A32BC3A29BA3220480A1282C6DA8C868CA6E8C88120286A0B1B6ABB2B63234B733A9BA3220480A1082C6DA92C8A6E8C88120285A0B1B6A230BA3AB6A9BA3220480A1282C6DA849E9AA
310
6E8C8812028820B6B23A2232BA30B4B629BCB6A9BA3220480A2282DAC8E8A6CAC6E8D2DEDCA6F2DAA6E8C88120288A0B6B23A21B2B73A32B92634B732A9BA3220480A2282DAC8E8A8D0E4CAC2C898D2DCCAA6E8C88120285A0B6B23A2737BA32A9BA3220480A1682C682DACE98C2F2A6E8C88120285A0B1A0B6B3A234B6A9B
310
A3220480A2282C682DACE90DED8CA86D0C2E4E8A6E8C88120286A0B1A0B6B3AA34BA3632A9BA3220480A02812020
340
190A
360
1B46
360
1B47
360
1B48
360
1B49
360
1B4A
360
1B4B
360
1B4C
360
1B4D
360
1B4E
360
1B4F
360
1B50
360
1B56
360
1B57
360
1B58
360
1B59
340
0
340
0
 94
        0
  0
ACAD_PROXY_OBJECT
  5
7A1
102
{ACAD_REACTORS
330
7A0
102
}
330
7A0
100
AcDbProxyObject
 90
      499
 91
      526
 95
       25
 70
     0
 93
     2379
310
5DC33333333333309408000000C00040D29254D01640600800030C0200800030C003333333333330940C8121E8720B1B6A9BAB9332A32BC3A29BA3220480A1282C6DA8C868CA6E8C88120286A0B1B6ABB2B63234B733A9BA3220480A1082C6DA92C8A6E8C88120285A0B1B6A230BA3AB6A9BA3220480A1282C6DA849E9AA6E
310
8C88120286A0B1A0B6B3AA34BA3632A9BA3220480A2082DAC8E888CAE8C2D2D8A6F2DAA6E8C88120288A0B6B23A29B2B1BA34B7B729BCB6A9BA3220480A2282DAC8E886CADCE8CAE498D2DCCAA6E8C88120288A0B6B23A2A343932B0B22634B732A9BA3220480A1682DAC8E89CDEE8CAA6E8C88120285A0B1A0B6B3A630BCA
310
9BA3220480A1682C682DACE88D2DAA6E8C88120288A0B1A0B6B3A437B632A1B430B93A29BA3220480C812020
340
7A2
360
7A3
360
7A4
360
7A5
360
7A6
360
7A7
360
7A8
360
166A
360
166B
360
166C
360
166E
360
166F
360
1670
360
1676
360
1677
360
1678
340
0
340
0
 94
        0
  0
ACAD_PROXY_OBJECT
  5
41
102
{ACAD_REACTORS
330
40
102
}
330
40
100
AcDbProxyObject
 90
      499
 91
      518
 95
       25
 70
     0
 93
     2908
310
4050B44574753455454494E4753A0E8482A68AA6A88882A069492A684A1A0A723A0A92920ACA0A8419983E1A1ABE1B1820C868A9C829C8E82A12686AF87260F862666A8321A2A72224A0A504F24B5DDEFF613A020E868A9C889282A682A106260F86460F8666083A1A2A72224A9AA250000000000000042020C868A9C988A9
310
C94000000000000048808321A2A727A323250000000000000122020E868A9C9E8C8C62940000000000000488083A1A2A727A3231925000000000000012202128698929C82A4A482B282A0A66645C60608421A624A722AA2CA820A82AC2624A722A1288AE8EAAA68682988A94283A620A9AA27A12520A821B1B9B99A109A829
310
68AAC928AAE9FA04832829A1A0A622830020000419491559254D2505404C1055343414C4541503313A314214D510539110549110540D29254D0954494D455354414D504A07AE123C2732B734141D5915494D253D3905414C4D4B8C0C1107B44574753455454494E4753454E447D0
  0
ACAD_PROXY_OBJECT
  5
54
102
{ACAD_REACTORS
330
40
102
}
330
40
100
AcDbProxyObject
 90
      499
 91
      518
 95
       25
 70
     0
 93
      411
310
4050346454D21092DCC6E486DECACC942842630BCA3B937BAB820A8320A6AFA322A0A20F688AE8EA68AA8A8929C8EA68A9C88FA0
  0
ACAD_PROXY_OBJECT
  5
53
102
{ACAD_REACTORS
330
40
102
}
330
40
100
AcDbProxyObject
 90
      499
 91
      518
 95
       25
 70
     0
 93
      591
310
40505536861667421292DCE8CAE4E4EAE0E89FC84A634B3B43A2634B732A7E80A1A98D2CED0E898D2DCCAACD2CAEE9FA028229B4B232A7E80A20F688AE8EA68AA8A8929C8EA68A9C88FA
  0
ACAD_PROXY_OBJECT
  5
42
102
{ACAD_REACTORS
330
40
102
}
330
40
100
AcDbProxyObject
 90
      499
 91
      518
 95
       25
 70
     0
 93
      852
310
4050D5452414E5353455454494E4753A2488A482AE929C8EA8A4829CA69882A8929E9C0C00800050D4F524947494E414C4C595F4F4E0600400028529A7AAA921A2A620A723A0A81A52827212AAA0A48AA68AA4AC8A0C0080001107B44574753455454494E4753454E447D0
  0
ACAD_PROXY_OBJECT
  5
1B46
330
1B45
100
AcDbProxyObject
 90
      499
 91
      577
 95
       25
 70
     0
 93
       96
310
5DC20E80A0280A0280A02808
  0
ACAD_PROXY_OBJECT
  5
1B47
330
1B45
100
AcDbProxyObject
 90
      499
 91
      578
 95
       25
 70
     0
 93
      332
310
5DD0E4050140501405014050140501405014050142501405014050140501405012000000000000000400
340
190B
 94
        0
  0
ACAD_PROXY_OBJECT
  5
1B48
330
1B45
100
AcDbProxyObject
 90
      499
 91
      579
 95
       25
 70
     0
 93
      403
310
5DCC199999999999E99F91F4050140501405014050140501405014050140501405014050140501405014050140501405014040
340
0
 94
        0
  0
ACAD_PROXY_OBJECT
  5
1B49
330
1B45
100
AcDbProxyObject
 90
      499
 91
      580
 95
       25
 70
     0
 93
       10
310
5DC0
  0
ACAD_PROXY_OBJECT
  5
1B4A
330
1B45
100
AcDbProxyObject
 90
      499
 91
      581
 95
       25
 70
     0
 93
      257
310
5DE290EA22A7D90F49F9353333333333727F44D4CCCCCCCCCDC9FC010000618000
340
1907
340
1908
 94
        0
  0
ACAD_PROXY_OBJECT
  5
1B4B
330
1B45
100
AcDbProxyObject
 90
      499
 91
      582
 95
       25
 70
     0
 93
    13023
310
5DD0E411255115350141236025B6901405014069011309A4F2590CB64FD3347454E545241434F2C4A504E2C302C8D8096DA2C47454E54524154582C25732C2847454E4D53472067656E647767203232322940690120281A8AA2CA0282484A4BE52028120280A03202261349E4B2196C9FA668E8A9CA8A482869E5894A09C58
310
605921292F94588E8A9CA8A482A8B0584AE658508E8A9C9AA68E40CECADCC8EECE406464665280D202405044E414D454050496BC914F4051C40640A8B95C2E97CBE502404CD1D15395149050D3CB1294138B0C0B25AF2453CB11D15395149055160B095CCB0A11D1539354D1C819D95B991DD9C80C8C8D8A50192C3D494628
310
4953424C414E4B28504152543A4E414D45292C424C4F434B3A4E414D452C504152543A4E414D452940480A0A888AA686A480A09251B1DBE80A3A80C81D10782C06030180C8099A3A2A72A2920A1A7962528271618164946C76F9623A2A72A2920AA2C1612B9961423A2A726A9A39033B2B7323BB39019189B94A0248090142
310
14D51053911054911014122D2E29A50147501904A383BFDFEFF5FBFCFD3347454E545241434F2C4A504E2C302C8B4B8A692C47454E54524154582C25732C2847454E4D53472067656E64776720323138294049012028426A0AA22A924A0A62028246EF4BDFA028EA0320B41396D838E9017D9FA668E8A9CA8A482869E5894A
310
09C5860591BBD2F7E588E8A9CA8A482A8B0584AE658508E8A9C9AA68E40CECADCC8EECE406464625280D202405044E4F544540504928D8B4C4051D40641A8B95C2E97CBE5F23F4CD1D15395149050D3CB1294138B0C0B24A362D30B11D15395149055160B095CCB0A11D1539354D1C819D95B991DD9C80C8C8D4A501A40480
310
A0CAC8A9C889EA480A1106F1072706BF02B680A3A80C83D172B85D2F97CBE47E9BA3A2A72A2920A1A79625282716181641BC41C9C1AFC0AD9623A2A72A2920AA2C1612B9961423A2A726A9A39033B2B7323BB39019191A14A0348090141911154D0D48C90141A43825AF880C90147501908A20F0580C0603019013447454E5
310
45241434F2C4A504E2C302C90E096BE20322C47454E54524154582C25732C2847454E4D53472067656E6477672033362940490120284A9AA20A72220A922192028345A5C53490192028EA0321347077FBFDFEBF7F9FA6A8E8A9CA8A482869E5894A09C586059169714D24064588E8A9CA8A482A8B0584AE658508E8A9C9AA6
310
8E40CECADCC8EECE4064646052809202405094D4154455249414C32405068DDE97BF20324051D40642A8272DB071D202FB3F4D11D15395149050D3CB1294138B0C0B2377A5EFC80C8B11D15395149055160B095CCB0A11D1539354D1C819D95B991DD9C80D0C0A501240480A089A82A6A680A091D7F2F9480A3A80A0485A06
310
81172B85D2F97CBE47E9923A2A72A2920A1A796252827161816475FCBE51623A2A72A2920AA2C1612B9961423A2A726A9A39033B2B7323BB3901A1914A024809014154149250D150141226FE29A501475014090C409022E570BA5F2F97C8FD3247454E545241434F2C4A504E2C302C89BF8A692C47454E54524154582C2573
310
2C2847454E4D53472067656E6477672034332940490120281A224A6A02824850CB202028EA028121A81A045CAE174BE5F2F91FA648E8A9CA8A482869E5894A09C58605921432C80588E8A9CA8A482A8B0584AE658508E8A9C9AA68E40CECADCC8EECE406868528092024050E441022E07A17AD46E338FE07800030C0001018
310
ACD56AB55AADF63F2B355AAD56AB7D8FD073D3C4954454D3E405018ACD56AB55AADF63F2B355AAD56AB7D8FD073D3C4954454D3E40501890C7E3F1783CEE3F2431F8FC5E0F3B8FD073D3C4954454D3E40501890C7E3F1783CEE3F2431F8FC5E0F3B8FD073D3C4954454D3E405029012B355AAD56AB7D8FCACD56AB55AADF63
310
F41CF4F125511534F901418F4F1455164F9014062B355AAD56AB7D8FCACD56AB55AADF63F41CF4F125511534F9014061309A4F2590CBA4FC4C2693C96432E93F41CF4F125511534F901901002B355AAD56AB7D8FCACD56AB55AADF63FA2000000000000008204018000618048220681A048120280C88214844882034852034
310
8452028521485214814000000000000F0BF0000000000003C2FD018020000C3008070000C3000EF7D3E365DBA88FC3BDF4F8D976EA23F2E07A17AD46E2F8FF20341A405024150741A4069703D0BD6A3717C7F0040001860100400018601002000186002026280A02
340
0
340
0
 94
        0
  0
ACAD_PROXY_OBJECT
  5
1B4C
330
1B45
100
AcDbProxyObject
 90
      499
 91
      583
 95
       25
 70
     0
 93
      994
310
5DC0B81E85EB51B8CE3F4BCF511155105253080F11115510525317D3105091530F971414D0D05311480F11115510525317D05094D4D0D053114F92341C9A9999999999B93F26A666666666724FC000000000000E03F4000000000000004000000000000005100000000000000244081E0000C3002E07A17AD46E338FC0
340
1646
340
190A
 94
        0
  0
ACAD_PROXY_OBJECT
  5
1B4D
330
1B45
100
AcDbProxyObject
 90
      499
 91
      584
 95
       25
 70
     0
 93
      823
310
5DC031703D0BD6A3719C7E999EA9A2A1AA24A7A7101E29A2A1AA24A7A72FA620A122A62FA324A929AA1F169E29A2A1AA24A7A72FA620A122A62FA620A9AA1F1353333333333B27E3FFFE01C00030C008840F000061801353333333333B27F1703D0BD6A3719C7E
340
1646
340
190A
 94
        0
  0
ACAD_PROXY_OBJECT
  5
1B4E
330
1B45
100
AcDbProxyObject
 90
      499
 91
      585
 95
       25
 70
     0
 93
      280
310
5DC2B8716D9CEF7C33F0A5723F0BD4A2F0FC295C8FC2F528BC3FA199999999999F99FC
  0
ACAD_PROXY_OBJECT
  5
1B4F
330
1B45
100
AcDbProxyObject
 90
      499
 91
      586
 95
       25
 70
     0
 93
       14
310
5DE4
340
0
 94
        0
  0
ACAD_PROXY_OBJECT
  5
1B50
330
1B45
100
AcDbProxyObject
 90
      499
 91
      587
 95
       25
 70
     0
 93
     7123
310
5DD084050BA4050AA405024050E836583938376838C815B8367203140405013D3C696628657175616C28486F6C653A7461707065642C223022292C22252563222C486F6C653A6E6F6D696E616C2022202220696628657175616C28486F6C653A756E6974732C223122292C2278222C222D222920222022293E3C6966286571
310
75616C28486F6C653A7461707065642C223022292C486F6C653A6469612C486F6C653A706974636864657363293E207B5C46414D4744543B787D203C696628657175616C28486F6C653A7465726D696E6174696F6E2C223022292C486F6C653A64657074682C228AD192CA22293E5C507B5C46414D4744543B767D2525633C
310
486F6C653A63746469613E207B5C46414D4744543B787D203C486F6C653A637464657074683E406901405034050E836583938376838C815B83672031405FE3D3C696628657175616C28486F6C653A7461707065642C223022292C22252563222C486F6C653A6E6F6D696E616C2022202220696628657175616C28486F6C653
310
A756E6974732C223122292C2278222C222D222920222022293E3C696628657175616C28486F6C653A7461707065642C223022292C486F6C653A6469612C486F6C653A706974636864657363293E207B5C46414D4744543B787D203C696628657175616C28486F6C653A7465726D696E6174696F6E2C223022292C486F6C653
310
A64657074682C228AD192CA22293E5C507B5C46414D4744543B777D2525633C486F6C653A63746469613E2058203C486F6C653A6374616E676C653E252564406901405014050E836583938376838C815B83672031405CF3D3C696628657175616C28486F6C653A7461707065642C223022292C22252563222C486F6C653A6E
310
6F6D696E616C2022202220696628657175616C28486F6C653A756E6974732C223122292C2278222C222D222920222022293E3C696628657175616C28486F6C653A7461707065642C223022292C486F6C653A6469612C486F6C653A706974636864657363293E5C507B5C46414D4744543B787D203C696628657175616C2848
310
6F6C653A7465726D696E6174696F6E2C223022292C486F6C653A64657074682C228AD192CA22293E4069014051E4090E836583938376838C815B83672032405173D3C535444503A444553433E203C535444503A5354443E40690E836583938376838C815B836720314050C3D3C535444503A444553433E40690240515AAABB
310
A060
360
1B51
330
1B51
360
1B52
330
1B52
360
1B53
330
1B53
360
1B54
360
1B55
330
1B54
330
1B55
 94
        0
  0
ACAD_PROXY_OBJECT
  5
1B56
330
1B45
100
AcDbProxyObject
 90
      499
 91
      567
 95
       25
 70
     0
 93
       26
310
5DD02A80
340
0
 94
        0
  0
ACAD_PROXY_OBJECT
  5
1B57
330
1B45
100
AcDbProxyObject
 90
      499
 91
      568
 95
       25
 70
     0
 93
      258
310
5DD02000000000000380FC000000000000E03F408F0F9023C3E40DB18CCCFFFF80
340
190C
340
0
340
0
340
190D
340
190E
340
0
340
190F
340
1910
340
1911
340
0
 94
        0
  0
ACAD_PROXY_OBJECT
  5
1B58
330
1B45
100
AcDbProxyObject
 90
      499
 91
      588
 95
       25
 70
     0
 93
    13993
310
5DD1D023FFFFFFFD010300002E07A17AD46E2F8FE00800030C01010300002E07A17AD46E2F8FE00800030C00050C8DC0955782CC838A83588367014ED1D15395149050D3CB1294138B0C0B23702555E0B320E2A0D620D9CB11D15395149055160B095CCB0A11D1539354D1C819D95B991A5B5E880CCC0A78000C0000000000
310
00000000000000000000007B14AE47E17AA43F2E07A17AD46E2F8FE00800030C007B14AE47E17AA43F2E07A17AD46E2F8FE00800030C020143CF4F111959985D5B1D151A5D1B194F8050A8C8A8365815B8375838B014E51D15395149050D3CB1294138B0C0B2322A0D96056E0DD60E2CB11D15395149055160B095CCB0A11D
310
1539354D1C819D95B991A5B5E880CCC4A78000C000000000000000000000000000000007B14AE47E17AA43F2E07A17AD46E2F8FE00800030C007B14AE47E17AA43F2E07A17AD46E2F8FE00800030C020143CF4F111959985D5B1D151A5D1B194F90D4410F4450240D0441507431014391244D05449074510C4350F00014123
310
2D24D7C053247454E545241434F2C4A504E2C302C8CB4935F2C47454E54524154582C25732C2847454E4D53472067656E64696D7A20312900010104002214000282465A49AF80A648E8A9CA8A482869E5894A09C586059196926BE588E8A9CA8A482A8B0584AE658508E8A9C9AA68E40CECADCC8D2DAF44062520002020800
310
43E80005028C8A014C11D15395149050D3CB1294138B0C0B23228B11D15395149055160B095CCB0A11D1539354D1C819D95B991A5B5E880C8A4054E3D3C4946284953424C414E4B28486F6C654974656D292C4F726967696E2C20486F6C654974656D293E3C4946284953424C414E4B28486F6C654974656D292C22222C204
310
86F6C65496E646578293E010104002234000280AC00A5E8E8A9CA8A482869E5894A09C586058B0588E8A9CA8A482A8B0584AE658508E8A9C9AA68E40CECADCC8D2DAF4406652000202000040A800050159014BD1D15395149050D3CB1294138B0C0B164B11D15395149055160B095CCB0A11D1539354D1C819D95B991A5B5E
310
880D0A4000404000081D0000A02A40297A3A2A72A2920A1A796252827161816291623A2A72A2920AA2C1612B9961423A2A726A9A39033B2B73234B6BD101B148000808000104A000140A0F4C053047454E545241434F2C4A504E2C302C83D32C47454E54524154582C25732C2847454E4D53472067656E64696D7A20372900
310
0101030020B400028141E980A608E8A9CA8A482869E5894A09C58605907A6588E8A9CA8A482A8B0584AE658508E8A9C9AA68E40CECADCC8D2DAF4407052000202020041E800050490E096BE014CD1D15395149050D3CB1294138B0C0B243825AF8B11D15395149055160B095CCB0A11D1539354D1C819D95B991A5B5E880C8
310
C0A400040010008650000A091B012DB40299A3A2A72A2920A1A79625282716181646C04B6D1623A2A72A2920AA2C1612B9961423A2A726A9A39033B2B73234B6BD10189A148000808280501A00014320D0E0E4E0D9A0D8A0D3A0D60053B47454E545241434F2C4A504E2C302C8343839383668362834E83582C47454E54524
310
154582C25732C2847454E4D53472067656E64696D7A203135290001010500A1D4000281464500A628E8A9CA8A482869E5894A09C5860591914588E8A9CA8A482A8B0584AE658508E8A9C9AA68E40CECADCC8D2DAF440626C52000202080044A800050E8C8A8343839383668362834E8358014F51D15395149050D3CB129413
310
8B0C0B2322A0D0E0E4E0D9A0D8A0D3A0D60B11D15395149055160B095CCB0A11D1539354D1C819D95B991A5B5E880C4DCA4000404140089D0000A0921292F940299A3A2A72A2920A1A796252827161816484A4BE51623A2A72A2920AA2C1612B9961423A2A726A9A39033B2B73234B6BD10189C948000808300114A0001412
310
2D2E29A4053347454E545241434F2C4A504E2C302C8B4B8A692C47454E54524154582C25732C2847454E4D53472067656E64696D7A20323129000100040021B4878030026A6666666667A4FE064D4CCCCCCCCCF49FC049A9999999999E93F809353333333333D27F0226A6666666667A4FE044D4CCCCCCCCCF49FC0D818000
310
00000000000810026A666666666764FE004D4CCCCCCCCCF49FC009A9999999999E93F801353333333333D27F032E07A17AD46E378FE0633B333333333032050F006004D4CCCCCCCCCF49FC0C9A9999999999E93F819353333333333D27F0326A6666666667A4FE064D4CCCCCCCCCF49FC0C9A9999999999E93F81B03000000
310
00000000102004D4CCCCCCCCCEC9FC009A9999999999E93F819353333333333D27F0026A6666666667A4FE065C0F42F5A8DC6F1FC0C6766666666660640A088800000021E000000890000002260000008220E000200890000002060002008100008000
340
0
340
0
340
0
340
0
340
190A
340
190A
 94
        0
  0
ACAD_PROXY_OBJECT
  5
1B59
330
1B45
100
AcDbProxyObject
 90
      499
 91
      560
 95
       25
 70
     0
 93
     5214
310
5DD9741105394D2506414E53495F4342905394D257D512551554D15414E53495F54525F5265766973696F6E6C697374614191143202831372E307832322E30696E63682941905394D257D0D1146202832382E307834302E30696E63682941905394D257D191142202831312E307831372E30696E63682941905394D257D091
310
144202832322E307833342E30696E63682941905394D257D111145202833342E307834342E30696E63682941905394D257D1510412028382E357831312E30696E63682941905394D257D050543905B9CDA482557247A25E4C81110D0C414E53495F5449544C45444343505B9CDA482557247A25E4C81050B414E53495F5449
310
544C454143905B9CDA482557247A25E4C81050D0C414E53495F5449544C45414343505B9CDA482557247A25E4C81110B414E53495F5449544C4544425554C82557247A25E4D0A414E53495F544954555342110979A97F0838A8358836720415F42525F45505394D257D09497D4995D9A5CDA5BDB9B1A5CDD18510979A97F08
310
38A8358836720415F54525F45505394D257D51497D4995D9A5CDA5BDB9B1A5CDD18510979A97F0838A8358836720445F42525F45505394D257D09497D4995D9A5CDA5BDB9B1A5CDD19110979A97F0838A8358836720445F54525F45505394D257D51497D4995D9A5CDA5BDB9B1A5CDD19110979A97F0838A8358836720415F
310
424C5F45505394D257D09317D4995D9A5CDA5BDB9B1A5CDD18510979A97F0838A8358836720415F544C5F45505394D257D51317D4995D9A5CDA5BDB9B1A5CDD18510979A97F0838A8358836720445F424C5F45505394D257D09317D4995D9A5CDA5BDB9B1A5CDD19110979A97F0838A8358836720445F544C5F45505394D25
310
7D51317D4995D9A5CDA5BDB9B1A5CDD190
  0
ACAD_PROXY_OBJECT
  5
7A3
330
7A1
100
AcDbProxyObject
 90
      499
 91
      527
 95
       25
 70
     0
 93
       86
310
5DEA0C80A0280A0280A034
  0
ACAD_PROXY_OBJECT
  5
7A4
330
7A1
100
AcDbProxyObject
 90
      499
 91
      528
 95
       25
 70
     0
 93
      282
310
5DD0E4050140501405014050140501405014050141101405014041000000000000001000
340
7A9
 94
        0
  0
ACAD_PROXY_OBJECT
  5
7A5
330
7A1
100
AcDbProxyObject
 90
      499
 91
      529
 95
       25
 70
     0
 93
      323
310
5DCC199999999999E99F91740501405014050140501405014050140501405014050140501405014040
340
0
 94
        0
  0
ACAD_PROXY_OBJECT
  5
7A6
330
7A1
100
AcDbProxyObject
 90
      499
 91
      530
 95
       25
 70
     0
 93
       10
310
5DC0
  0
ACAD_PROXY_OBJECT
  5
7A7
330
7A1
100
AcDbProxyObject
 90
      499
 91
      531
 95
       25
 70
     0
 93
      257
310
5DE0C16A22A7D90F49F80000000000001081400000000000004204010000618000
340
7AA
340
7AB
 94
        0
  0
ACAD_PROXY_OBJECT
  5
7A8
330
7A1
100
AcDbProxyObject
 90
      499
 91
      532
 95
       25
 70
     0
 93
     5277
310
5DD06411255115350141236025B6901405014069010000000000000910240690120281A8AA2CA0282484A4BE52028120280A032020000000000001220480D202405044E414D454050496BC914F4051C40640A80000000000004E4090193C3D3C4946284953424C414E4B28504152543A4E414D45292C424C4F434B3A4E414D
310
452C504152543A4E414D45293E3C41435F44455343524950544E3E40480A109A82A88AA492829880A091BBD2F7E80A3A80C81D0E27A15AF46E08A81203480901411393D5115014124A363B7D0147501904A0000000000000F902406428F4F1050D7D393D5114F901202832B22A72227A92028366EF6EE06F582028EA0320B4
310
0000000000001F20480C879E9E20A1AFAB27222FA620A122A61F20240506445020000000000000490201C00030C00010180000000000003E400000000000000F901073D3C4954454D3E4050180000000000003E400000000000000F901073D3C4954454D3E40501800000000000034400000000000000D101073D3C4954454
310
D3E40501800000000000034400000000000000D101073D3C4954454D3E405029010000000000000F9000000000000003E4041CF4F125511534F901418F4F1455164F9014060000000000000F9000000000000003E4041CF4F125511534F901800000000000034400000000000000D101073D3C4954454D3E40640400000000
310
0000003E400000000000000F90288800000000000020810000001800120881A068120480A032208521122080D21480D211480A1485214852050000000000003C2FC000000000000F0BF40600800030C0200400030C00CDCCCCCCCCCCEC3F3373333333333B0FC3333333333330940C80D069014090341504901A1999999999
310
9984A040100006180400800061804010000618008098A02808
340
0
340
0
 94
        0
  0
ACAD_PROXY_OBJECT
  5
166A
330
7A1
100
AcDbProxyObject
 90
      499
 91
      560
 95
       25
 70
     0
 93
     3042
310
5DD9740D29254D064A49535F413342929254D7D512551311505134A49535F42525F5265766973696F6E6C6973744190F4134522028323937783231306D6D2941D29254D7D04D1490E41312028353934783834316D6D2941929254D7D04C50E41332028323937783432306D6D2941929254D7D04CD0F41344C2028323130783
310
239376D6D2941D29254D7D04D1310E41322028343230783539346D6D2941929254D7D04C90F4130202838343178313138396D6D2941929254D7D04C10243129254C82557247A25E4C81050A4A49535F5449544C454143129254C82557247A25E4C81090A4A49535F5449544C45424110E979A97F0838A835883675F42525F4
310
4D29254D7D09497D4995D9A5CDA5BDB9B1A5CDD10E979A97F0838A835883675F54525F44D29254D7D51497D4995D9A5CDA5BDB9B1A5CDD10E979A97F0838A835883675F424C5F44D29254D7D09317D4995D9A5CDA5BDB9B1A5CDD10E979A97F0838A835883675F544C5F44D29254D7D51317D4995D9A5CDA5BDB9B1A5CDD00
  0
ACAD_PROXY_OBJECT
  5
166B
330
7A1
100
AcDbProxyObject
 90
      499
 91
      561
 95
       25
 70
     0
 93
      898
310
5DC4000000000000124048CF4F11115510525317D3105091530F880A0F11115510525317D05094D4D0D053114F8A50241C9A9999999999B93F26A666666666724FC000000000000E03F400000000000000400000000000000510000000000000024408070000C300000000000000049000
340
16
340
7A2
 94
        0
  0
ACAD_PROXY_OBJECT
  5
166C
330
7A1
100
AcDbProxyObject
 90
      499
 91
      562
 95
       25
 70
     0
 93
      823
310
5DC0B00000000000002480959E9E29A2A1AA24A7A72FA620A122A62FA324A929AA1F169E29A2A1AA24A7A72FA620A122A62FA620A9AA1F000000000000048803FFFE01C00030C008140380006180000000000000048800000000000000A2000000000000002480
340
118
340
7A2
 94
        0
  0
ACAD_PROXY_OBJECT
  5
166E
330
7A1
100
AcDbProxyObject
 90
      499
 91
      563
 95
       25
 70
     0
 93
      152
310
5DE8273108AC1C5A0640A3D0A5723F0BD1F200
  0
ACAD_PROXY_OBJECT
  5
166F
330
7A1
100
AcDbProxyObject
 90
      499
 91
      564
 95
       25
 70
     0
 93
       14
310
5DE0
340
0
 94
        0
  0
ACAD_PROXY_OBJECT
  5
1670
330
7A1
100
AcDbProxyObject
 90
      499
 91
      565
 95
       25
 70
     0
 93
     6059
310
5DD084050BA4050AA405024050E836583938376838C815B83672031405983D3C486F6C653A6469613E3C696628657175616C28486F6C653A7465726D696E6174696F6E2C223022292C2220905B82B320222C22208368838A838B22293E3C696628657175616C28486F6C653A7465726D696E6174696F6E2C223022292C486F
310
6C653A64657074682C2222293E2C203C486F6C653A63746469613E2082B482AE82E882CC905B82B3203C486F6C653A637464657074683E406901405034050E836583938376838C815B83672031405EF3D3C486F6C653A6374616E676C653E252564202525633C486F6C653A63746469613E208E4D8C8A2C203C69662865717
310
5616C28486F6C653A7461707065642C223022292C22252563222C486F6C653A6E6F6D696E616C202220782022293E3C696628657175616C28486F6C653A7461707065642C223022292C486F6C653A6469612C486F6C653A706974636864657363293E203C696628657175616C28486F6C653A7465726D696E6174696F6E2C2
310
23022292C22905B82B320222C222022293E3C696628657175616C28486F6C653A7465726D696E6174696F6E2C223022292C486F6C653A64657074682C2222293E406901405014050E836583938376838C815B83672031405C73D3C696628657175616C28486F6C653A7461707065642C223022292C22252563222C486F6C65
310
3A6E6F6D696E616C202220782022293E3C696628657175616C28486F6C653A7461707065642C223022292C486F6C653A6469612C486F6C653A706974636864657363293E203C696628657175616C28486F6C653A7465726D696E6174696F6E2C223022292C22905B82B320222C222022293E3C696628657175616C28486F6C
310
653A7465726D696E6174696F6E2C223022292C486F6C653A64657074682C2222293E4069014051E4090E836583938376838C815B83672032405173D3C535444503A444553433E203C535444503A5354443E40690E836583938376838C815B836720314050C3D3C535444503A444553433E40690240515AAABBA120
360
1674
330
1674
360
1675
330
1675
360
1673
330
1673
360
1672
360
1671
330
1672
330
1671
 94
        0
  0
ACAD_PROXY_OBJECT
  5
1676
330
7A1
100
AcDbProxyObject
 90
      499
 91
      567
 95
       25
 70
     0
 93
       26
310
5DD02A80
340
47
 94
        0
  0
ACAD_PROXY_OBJECT
  5
1677
330
7A1
100
AcDbProxyObject
 90
      499
 91
      568
 95
       25
 70
     0
 93
      250
310
5DD020000000000000A1000000000000002440408F0F9023C3E409A0DCFFFF80
340
69
340
0
340
0
340
70
340
71
340
72
340
73
340
74
340
79
340
0
 94
        0
  0
ACAD_PROXY_OBJECT
  5
1678
330
7A1
100
AcDbProxyObject
 90
      499
 91
      569
 95
       25
 70
     0
 93
    13889
310
5DD1D003FFFFFFFD030300030CCCCCCCCCCCC250200800030C01030300030CCCCCCCCCCCC250200800030C00050C8DC0955782CC838A83588367014ED1D15395149050D3CB1294138B0C0B23702555E0B320E2A0D620D9CB11D15395149055160B095CCB0A11D1539354D1C819D95B991A5B5E880CCC0A78000C0000000000
310
00000000000000000000010CCCCCCCCCCCC250200800030C010CCCCCCCCCCCC250200800030C020143CF4F111959985D5B1D151A5D1B194F8050A8C8A8365815B8375838B014E51D15395149050D3CB1294138B0C0B2322A0D96056E0DD60E2CB11D15395149055160B095CCB0A11D1539354D1C819D95B991A5B5E880CCC4
310
A78000C000000000000000000000000000000010CCCCCCCCCCCC250200800030C010CCCCCCCCCCCC250200800030C020143CF4F111959985D5B1D151A5D1B194F90D44111409034110541D0C4350F4050E44D03449074510F000141232D24D7C053247454E545241434F2C4A504E2C302C8CB4935F2C47454E54524154582C
310
25732C2847454E4D53472067656E64696D7A20312900010104002214000281464500A608E8A9CA8A482869E5894A09C5860591914588E8A9CA8A482A8B0584AE658508E8A9C9AA68E40CECADCC8D2DAF4406452029E9E9E27B934B3B4B71F1E24A31427A91424A9A12620A7259427B934B3B4B7149624A9A12620A7259424B
310
A32B6949496111116111711149F1E24BA32B69F00808200111A000140560052F47454E545241434F2C4A504E2C302C582C47454E54524154582C25732C2847454E4D53472067656E64696D7A20332900010100002054000280AC80A5E8E8A9CA8A482869E5894A09C586058B2588E8A9CA8A482A8B0584AE658508E8A9C9AA
310
68E40CECADCC8D2DAF4406852000202000040E800050152014BD1D15395149050D3CB1294138B0C0B148B11D15395149055160B095CCB0A11D1539354D1C819D95B991A5B5E880D8A400040400008250000A0507A6029823A2A72A2920A1A79625282716181641E99623A2A72A2920AA2C1612B9961423A2A726A9A39033B2
310
B73234B6BD101B948000808180105A000140A0F4C053047454E545241434F2C4A504E2C302C83D32C47454E54524154582C25732C2847454E4D53472067656E64696D7A203829000101010020F400028248704B5F00A668E8A9CA8A482869E5894A09C58605921C12D7C588E8A9CA8A482A8B0584AE658508E8A9C9AA68E40
310
CECADCC8D2DAF440646052000200080043280005048B4B8A69014CD1D15395149050D3CB1294138B0C0B22D2E29A4B11D15395149055160B095CCB0A11D1539354D1C819D95B991A5B5E880C8C4A4000400100086D0000A09196926BE029923A2A72A2920A1A796252827161816465A49AF9623A2A72A2920AA2C1612B9961
310
423A2A726A9A39033B2B73234B6BD10189480A02620202080043E80005048D8096DA014CD1D15395149050D3CB1294138B0C0B236025B68B11D15395149055160B095CCB0A11D1539354D1C819D95B991A5B5E880C4D0A4000404140280D0000A190687072706CD06C5069D06B0029DA3A2A72A2920A1A7962528271618164
310
1A1C1C9C1B341B141A741AC1623A2A72A2920AA2C1612B9961423A2A726A9A39033B2B73234B6BD10189A94800080820050EA000143A322A0D0E0E4E0D9A0D8A0D3A0D60053D47454E545241434F2C4A504E2C302C8C8A8343839383668362834E83582C47454E54524154582C25732C2847454E4D53472067656E64696D7A
310
2031372900010105002274000281464500A628E8A9CA8A482869E5894A09C5860591914588E8A9CA8A482A8B0584AE658508E8A9C9AA68E40CECADCC8D2DAF440626C52000202080044A8000504909497CA014CD1D15395149050D3CB1294138B0C0B242525F28B11D15395149055160B095CCB0A11D1539354D1C819D95B9
310
91A5B5E880C4E4A400040418008A521E000000000000001CA040C00000000000034408080000000000006881010000000000000D102040000000000001A204080000000000003440818000000000000728103000000000000125020600000000004028A040000000000000034408000000000000004881000000000000000D
310
102000000000000001A204000000000000003440818000000000000508143C0000000000000039408180000000000006881030000000000000D102060000000000001A2040C00000000000034408180000000000006881030000000000000E5020600000000000024A040C0000000000805140800000000000000688100000
310
00000000009102000000000000001A2040000000000000034408180000000000006881030000000000000A10284220000000878000002020000008380000020400000081800000208000000828000002028900000000
340
0
340
0
340
0
340
0
340
7A2
340
7A2
 94
        0
  0
ACAD_PROXY_OBJECT
  5
1B51
330
1B50
100
AcDbProxyObject
 90
      499
 91
      566
 95
       25
 70
     0
 93
     2256
310
5DE0143A0D960E4E0DDA0E32056E0D9C80C40405013D3C696628657175616C28486F6C653A7461707065642C223022292C22252563222C486F6C653A6E6F6D696E616C2022202220696628657175616C28486F6C653A756E6974732C223122292C2278222C222D222920222022293E3C696628657175616C28486F6C653A74
310
61707065642C223022292C486F6C653A6469612C486F6C653A706974636864657363293E207B5C46414D4744543B787D203C696628657175616C28486F6C653A7465726D696E6174696F6E2C223022292C486F6C653A64657074682C228AD192CA22293E5C507B5C46414D4744543B767D2525633C486F6C653A6374646961
310
3E207B5C46414D4744543B787D203C486F6C653A637464657074683E
  0
ACAD_PROXY_OBJECT
  5
1B52
330
1B50
100
AcDbProxyObject
 90
      499
 91
      566
 95
       25
 70
     0
 93
     2192
310
5DE0143A0D960E4E0DDA0E32056E0D9C80C405FE3D3C696628657175616C28486F6C653A7461707065642C223022292C22252563222C486F6C653A6E6F6D696E616C2022202220696628657175616C28486F6C653A756E6974732C223122292C2278222C222D222920222022293E3C696628657175616C28486F6C653A7461
310
707065642C223022292C486F6C653A6469612C486F6C653A706974636864657363293E207B5C46414D4744543B787D203C696628657175616C28486F6C653A7465726D696E6174696F6E2C223022292C486F6C653A64657074682C228AD192CA22293E5C507B5C46414D4744543B777D2525633C486F6C653A63746469613E
310
2058203C486F6C653A6374616E676C653E252564
  0
ACAD_PROXY_OBJECT
  5
1B53
330
1B50
100
AcDbProxyObject
 90
      499
 91
      566
 95
       25
 70
     0
 93
     1816
310
5DE0143A0D960E4E0DDA0E32056E0D9C80C405CF3D3C696628657175616C28486F6C653A7461707065642C223022292C22252563222C486F6C653A6E6F6D696E616C2022202220696628657175616C28486F6C653A756E6974732C223122292C2278222C222D222920222022293E3C696628657175616C28486F6C653A7461
310
707065642C223022292C486F6C653A6469612C486F6C653A706974636864657363293E5C507B5C46414D4744543B787D203C696628657175616C28486F6C653A7465726D696E6174696F6E2C223022292C486F6C653A64657074682C228AD192CA22293E
  0
ACAD_PROXY_OBJECT
  5
1B54
330
1B50
100
AcDbProxyObject
 90
      499
 91
      566
 95
       25
 70
     0
 93
      344
310
5DE0143A0D960E4E0DDA0E32056E0D9C80C805173D3C535444503A444553433E203C535444503A5354443E
  0
ACAD_PROXY_OBJECT
  5
1B55
330
1B50
100
AcDbProxyObject
 90
      499
 91
      566
 95
       25
 70
     0
 93
      256
310
5DE0143A0D960E4E0DDA0E32056E0D9C80C4050C3D3C535444503A444553433E
  0
ACAD_PROXY_OBJECT
  5
1674
330
1670
100
AcDbProxyObject
 90
      499
 91
      566
 95
       25
 70
     0
 93
     1376
310
5DE0143A0D960E4E0DDA0E32056E0D9C80C405983D3C486F6C653A6469613E3C696628657175616C28486F6C653A7465726D696E6174696F6E2C223022292C2220905B82B320222C22208368838A838B22293E3C696628657175616C28486F6C653A7465726D696E6174696F6E2C223022292C486F6C653A64657074682C22
310
22293E2C203C486F6C653A63746469613E2082B482AE82E882CC905B82B3203C486F6C653A637464657074683E
  0
ACAD_PROXY_OBJECT
  5
1675
330
1670
100
AcDbProxyObject
 90
      499
 91
      566
 95
       25
 70
     0
 93
     2072
310
5DE0143A0D960E4E0DDA0E32056E0D9C80C405EF3D3C486F6C653A6374616E676C653E252564202525633C486F6C653A63746469613E208E4D8C8A2C203C696628657175616C28486F6C653A7461707065642C223022292C22252563222C486F6C653A6E6F6D696E616C202220782022293E3C696628657175616C28486F6C
310
653A7461707065642C223022292C486F6C653A6469612C486F6C653A706974636864657363293E203C696628657175616C28486F6C653A7465726D696E6174696F6E2C223022292C22905B82B320222C222022293E3C696628657175616C28486F6C653A7465726D696E6174696F6E2C223022292C486F6C653A6465707468
310
2C2222293E
  0
ACAD_PROXY_OBJECT
  5
1673
330
1670
100
AcDbProxyObject
 90
      499
 91
      566
 95
       25
 70
     0
 93
     1752
310
5DE0143A0D960E4E0DDA0E32056E0D9C80C405C73D3C696628657175616C28486F6C653A7461707065642C223022292C22252563222C486F6C653A6E6F6D696E616C202220782022293E3C696628657175616C28486F6C653A7461707065642C223022292C486F6C653A6469612C486F6C653A706974636864657363293E20
310
3C696628657175616C28486F6C653A7465726D696E6174696F6E2C223022292C22905B82B320222C222022293E3C696628657175616C28486F6C653A7465726D696E6174696F6E2C223022292C486F6C653A64657074682C2222293E
  0
ACAD_PROXY_OBJECT
  5
1672
330
1670
100
AcDbProxyObject
 90
      499
 91
      566
 95
       25
 70
     0
 93
      344
310
5DE0143A0D960E4E0DDA0E32056E0D9C80C805173D3C535444503A444553433E203C535444503A5354443E
  0
ACAD_PROXY_OBJECT
  5
1671
330
1670
100
AcDbProxyObject
 90
      499
 91
      566
 95
       25
 70
     0
 93
      256
310
5DE0143A0D960E4E0DDA0E32056E0D9C80C4050C3D3C535444503A444553433E
  0
ENDSEC
  0
EOF
