  0
SECTION
  2
HEADER
  9
$ACADVER
  1
AC1015
  9
$ACADMAINTVER
 70
     6
  9
$DWGCODEPAGE
  3
ANSI_932
  9
$INSBASE
 10
0.0
 20
0.0
 30
0.0
  9
$EXTMIN
 10
-74.3669857473908
 20
-99.72169810434912
 30
-0.0015258207003583
  9
$EXTMAX
 10
155.7934824989961
 20
47.76145413756717
 30
0.0000000349246037
  9
$LIMMIN
 10
-215.0
 20
-153.5
  9
$LIMMAX
 10
215.0
 20
153.5
  9
$ORTHOMODE
 70
     0
  9
$REGENMODE
 70
     1
  9
$FILLMODE
 70
     1
  9
$QTEXTMODE
 70
     0
  9
$MIRRTEXT
 70
     1
  9
$LTSCALE
 40
1.0
  9
$ATTMODE
 70
     1
  9
$TEXTSIZE
 40
2.5
  9
$TRACEWID
 40
1.0
  9
$TEXTSTYLE
  7
STANDARD
  9
$CLAYER
  8
AM_0
  9
$CELTYPE
  6
ByLayer
  9
$CECOLOR
 62
   256
  9
$CELTSCALE
 40
1.0
  9
$DISPSILH
 70
     0
  9
$DIMSCALE
 40
1.0
  9
$DIMASZ
 40
2.5
  9
$DIMEXO
 40
0.0
  9
$DIMDLI
 40
10.0
  9
$DIMRND
 40
0.0
  9
$DIMDLE
 40
0.0
  9
$DIMEXE
 40
1.0
  9
$DIMTP
 40
0.1
  9
$DIMTM
 40
0.1000000001
  9
$DIMTXT
 40
3.8
  9
$DIMCEN
 40
0.0
  9
$DIMTSZ
 40
0.0
  9
$DIMTOL
 70
     0
  9
$DIMLIM
 70
     0
  9
$DIMTIH
 70
     0
  9
$DIMTOH
 70
     0
  9
$DIMSE1
 70
     0
  9
$DIMSE2
 70
     0
  9
$DIMTAD
 70
     3
  9
$DIMZIN
 70
     1
  9
$DIMBLK
  1
Open30
  9
$DIMASO
 70
     1
  9
$DIMSHO
 70
     1
  9
$DIMPOST
  1

  9
$DIMAPOST
  1
"
  9
$DIMALT
 70
     0
  9
$DIMALTD
 70
     2
  9
$DIMALTF
 40
0.0393701
  9
$DIMLFAC
 40
1.0
  9
$DIMTOFL
 70
     1
  9
$DIMTVP
 40
0.0
  9
$DIMTIX
 70
     0
  9
$DIMSOXD
 70
     0
  9
$DIMSAH
 70
     0
  9
$DIMBLK1
  1

  9
$DIMBLK2
  1

  9
$DIMSTYLE
  2
AM_JIS
  9
$DIMCLRD
 70
     3
  9
$DIMCLRE
 70
     3
  9
$DIMCLRT
 70
     2
  9
$DIMTFAC
 40
0.71
  9
$DIMGAP
 40
1.5
  9
$DIMJUST
 70
     0
  9
$DIMSD1
 70
     0
  9
$DIMSD2
 70
     0
  9
$DIMTOLJ
 70
     0
  9
$DIMTZIN
 70
     8
  9
$DIMALTZ
 70
     0
  9
$DIMALTTZ
 70
     0
  9
$DIMUPT
 70
     0
  9
$DIMDEC
 70
     0
  9
$DIMTDEC
 70
     2
  9
$DIMALTU
 70
     2
  9
$DIMALTTD
 70
     2
  9
$DIMTXSTY
  7
STANDARD
  9
$DIMAUNIT
 70
     1
  9
$DIMADEC
 70
     0
  9
$DIMALTRND
 40
0.0
  9
$DIMAZIN
 70
     2
  9
$DIMDSEP
 70
    46
  9
$DIMATFIT
 70
     3
  9
$DIMFRAC
 70
     0
  9
$DIMLDRBLK
  1
Open30
  9
$DIMLUNIT
 70
     2
  9
$DIMLWD
 70
    13
  9
$DIMLWE
 70
    13
  9
$DIMTMOVE
 70
     0
  9
$LUNITS
 70
     2
  9
$LUPREC
 70
     2
  9
$SKETCHINC
 40
1.0
  9
$FILLETRAD
 40
2.5
  9
$AUNITS
 70
     1
  9
$AUPREC
 70
     5
  9
$MENU
  1
.
  9
$ELEVATION
 40
0.0
  9
$PELEVATION
 40
0.0
  9
$THICKNESS
 40
0.0
  9
$LIMCHECK
 70
     0
  9
$CHAMFERA
 40
2.5
  9
$CHAMFERB
 40
2.5
  9
$CHAMFERC
 40
20.0
  9
$CHAMFERD
 40
0.0
  9
$SKPOLY
 70
     0
  9
$TDCREATE
 40
2451948.610903461
  9
$TDUCREATE
 40
2451948.235903461
  9
$TDUPDATE
 40
2455464.572908345
  9
$TDUUPDATE
 40
2455464.197908345
  9
$TDINDWG
 40
0.5602239931
  9
$TDUSRTIMER
 40
0.560189919
  9
$USRTIMER
 70
     1
  9
$ANGBASE
 50
0.0
  9
$ANGDIR
 70
     0
  9
$PDMODE
 70
     0
  9
$PDSIZE
 40
0.0
  9
$PLINEWID
 40
0.0
  9
$SPLFRAME
 70
     0
  9
$SPLINETYPE
 70
     6
  9
$SPLINESEGS
 70
     8
  9
$HANDSEED
  5
7322
  9
$SURFTAB1
 70
     6
  9
$SURFTAB2
 70
     6
  9
$SURFTYPE
 70
     6
  9
$SURFU
 70
     6
  9
$SURFV
 70
     6
  9
$UCSBASE
  2

  9
$UCSNAME
  2

  9
$UCSORG
 10
0.0
 20
0.0
 30
0.0
  9
$UCSXDIR
 10
1.0
 20
0.0
 30
0.0
  9
$UCSYDIR
 10
0.0
 20
1.0
 30
0.0
  9
$UCSORTHOREF
  2

  9
$UCSORTHOVIEW
 70
     0
  9
$UCSORGTOP
 10
0.0
 20
0.0
 30
0.0
  9
$UCSORGBOTTOM
 10
0.0
 20
0.0
 30
0.0
  9
$UCSORGLEFT
 10
0.0
 20
0.0
 30
0.0
  9
$UCSORGRIGHT
 10
0.0
 20
0.0
 30
0.0
  9
$UCSORGFRONT
 10
0.0
 20
0.0
 30
0.0
  9
$UCSORGBACK
 10
0.0
 20
0.0
 30
0.0
  9
$PUCSBASE
  2

  9
$PUCSNAME
  2

  9
$PUCSORG
 10
0.0
 20
0.0
 30
0.0
  9
$PUCSXDIR
 10
1.0
 20
0.0
 30
0.0
  9
$PUCSYDIR
 10
0.0
 20
1.0
 30
0.0
  9
$PUCSORTHOREF
  2

  9
$PUCSORTHOVIEW
 70
     0
  9
$PUCSORGTOP
 10
0.0
 20
0.0
 30
0.0
  9
$PUCSORGBOTTOM
 10
0.0
 20
0.0
 30
0.0
  9
$PUCSORGLEFT
 10
0.0
 20
0.0
 30
0.0
  9
$PUCSORGRIGHT
 10
0.0
 20
0.0
 30
0.0
  9
$PUCSORGFRONT
 10
0.0
 20
0.0
 30
0.0
  9
$PUCSORGBACK
 10
0.0
 20
0.0
 30
0.0
  9
$USERI1
 70
     0
  9
$USERI2
 70
     0
  9
$USERI3
 70
     0
  9
$USERI4
 70
     0
  9
$USERI5
 70
     0
  9
$USERR1
 40
0.0
  9
$USERR2
 40
0.0
  9
$USERR3
 40
0.0
  9
$USERR4
 40
0.0
  9
$USERR5
 40
0.0
  9
$WORLDVIEW
 70
     1
  9
$SHADEDGE
 70
     3
  9
$SHADEDIF
 70
    70
  9
$TILEMODE
 70
     1
  9
$MAXACTVP
 70
    64
  9
$PINSBASE
 10
0.0
 20
0.0
 30
0.0
  9
$PLIMCHECK
 70
     0
  9
$PEXTMIN
 10
1.000000000000000E+20
 20
1.000000000000000E+20
 30
1.000000000000000E+20
  9
$PEXTMAX
 10
-1.000000000000000E+20
 20
-1.000000000000000E+20
 30
-1.000000000000000E+20
  9
$PLIMMIN
 10
0.0
 20
0.0
  9
$PLIMMAX
 10
420.0
 20
297.0
  9
$UNITMODE
 70
     0
  9
$VISRETAIN
 70
     1
  9
$PLINEGEN
 70
     0
  9
$PSLTSCALE
 70
     1
  9
$TREEDEPTH
 70
  3020
  9
$CMLSTYLE
  2
Standard
  9
$CMLJUST
 70
     0
  9
$CMLSCALE
 40
20.0
  9
$PROXYGRAPHICS
 70
     1
  9
$MEASUREMENT
 70
     1
  9
$CELWEIGHT
370
    13
  9
$ENDCAPS
280
     0
  9
$JOINSTYLE
280
     0
  9
$LWDISPLAY
290
     0
  9
$INSUNITS
 70
     4
  9
$HYPERLINKBASE
  1

  9
$STYLESHEET
  1
sei_cad.ctb
  9
$XEDIT
290
     1
  9
$CEPSNTYPE
380
     0
  9
$PSTYLEMODE
290
     1
  9
$FINGERPRINTGUID
  2
{403304E0-8DA2-11D3-AB8C-000629E2A613}
  9
$VERSIONGUID
  2
{BF120FED-F050-466E-BFEF-B25562A25D08}
  9
$EXTNAMES
290
     1
  9
$PSVPSCALE
 40
0.0
  9
$OLESTARTUP
290
     0
  0
ENDSEC
  0
SECTION
  2
CLASSES
  0
CLASS
  1
ACDBDICTIONARYWDFLT
  2
AcDbDictionaryWithDefault
  3
ObjectDBX Classes
 90
        0
280
     0
281
     0
  0
CLASS
  1
ACDBPLACEHOLDER
  2
AcDbPlaceHolder
  3
ObjectDBX Classes
 90
        0
280
     0
281
     0
  0
CLASS
  1
LAYOUT
  2
AcDbLayout
  3
ObjectDBX Classes
 90
        0
280
     0
281
     0
  0
CLASS
  1
ACME_DOCUMENT
  2
AcMeDbDoc
  3
AcMeServices
 90
        0
280
     1
281
     0
  0
CLASS
  1
ACMESCOPE
  2
AcMeScope
  3
AcMeServices
 90
        0
280
     1
281
     0
  0
CLASS
  1
ACMECOMMANDHISTORY
  2
AcMeCommandHistory
  3
AcMeServices
 90
        0
280
     1
281
     0
  0
CLASS
  1
DICTIONARYVAR
  2
AcDbDictionaryVar
  3
ObjectDBX Classes
 90
        0
280
     0
281
     0
  0
CLASS
  1
ACIMSYSVARMAN
  2
AcImSysVarManager
  3
AcMeServices
 90
        0
280
     1
281
     0
  0
CLASS
  1
ACIMREALSYSVAR
  2
AcImRealSysVar
  3
AcMeServices
 90
        0
280
     1
281
     0
  0
CLASS
  1
ACIMINTSYSVAR
  2
AcImIntSysVar
  3
AcMeServices
 90
        0
280
     1
281
     0
  0
CLASS
  1
ACMEDRAWINGMAN
  2
AcMeDrawingMan
  3
AcMeServices
 90
        0
280
     1
281
     0
  0
CLASS
  1
ACMEVIEW
  2
AcMeView
  3
AcMeServices
 90
        0
280
     1
281
     0
  0
CLASS
  1
ACDBENTITYCACHE
  2
AcMeEntityCache
  3
AcMeServices
 90
        0
280
     1
281
     0
  0
CLASS
  1
GSMANAGER
  2
AcMeGSManager
  3
AcMeServices
 90
        0
280
     1
281
     0
  0
CLASS
  1
AMDTINTERNALREACTOR
  2
AmdtInternalReactor
  3
AcMeServices
 90
        0
280
     1
281
     0
  0
CLASS
  1
ACMESTATEMGR
  2
AcMeStateMgr
  3
AcMeServices
 90
        0
280
     1
281
     0
  0
CLASS
  1
ACME_DATABASE
  2
AcMeDbDatabase
  3
AcMeServices
 90
        0
280
     1
281
     0
  0
CLASS
  1
ACRFINSADJUSTERMGR
  2
AcRfInsAdjusterMgr
  3
AcMeServices
 90
        0
280
     1
281
     0
  0
CLASS
  1
AMGSETTINGSOBJ
  2
AmgSettingsObj
  3
"AcadM|Product Description: AutoCAD Mechanical 2000|Company: Autodesk"
 90
        0
280
     1
281
     0
  0
CLASS
  1
ACMDATADICTIONARY
  2
AcmDataDictionary
  3
"AcmSymBB|Product Description: AutoCAD Mechanical 2004 DX|Company: Autodesk"
 90
        0
280
     1
281
     0
  0
CLASS
  1
ACMDATAENTRYBLOCK
  2
AcmDataEntryBlock
  3
"AcmSymBB|Product Description: AutoCAD Mechanical 2004 DX|Company: Autodesk"
 90
        0
280
     1
281
     0
  0
CLASS
  1
AMGOBJPROPCFG
  2
AmgObjPropCfg
  3
"AmgLay|Product Description: AutoCAD Mechanical 2000|Company: Autodesk"
 90
        1
280
     1
281
     0
  0
CLASS
  1
ACAMGFILTERDAT
  2
AcAmgFilterDat
  3
"AcadM|Product Description: AutoCAD Mechanical 2000|Company: Autodesk"
 90
        0
280
     1
281
     0
  0
CLASS
  1
LAYER_INDEX
  2
AcDbLayerIndex
  3
ObjectDBX Classes
 90
        0
280
     0
281
     0
  0
CLASS
  1
IDBUFFER
  2
AcDbIdBuffer
  3
ObjectDBX Classes
 90
        0
280
     0
281
     0
  0
CLASS
  1
ACIMSTRSYSVAR
  2
AcImStrSysVar
  3
AcMeServices
 90
        0
280
     1
281
     0
  0
CLASS
  1
ACMSTANDARDJIS
  2
AcmStandardJIS
  3
"Amdt_StdImp|Product Description: AutoCAD Mechanical 2004 DX|Company: Autodesk"
 90
        0
280
     1
281
     0
  0
CLASS
  1
ACMSURFSTANDARDJIS
  2
AcmSurfTextStdJIS
  3
"Amdt_StdImp|Product Description: AutoCAD Mechanical 2004 DX|Company: Autodesk"
 90
        0
280
     1
281
     0
  0
CLASS
  1
ACMFCFSTANDARDJIS
  2
AcmFCFStdJIS
  3
"Amdt_StdImp|Product Description: AutoCAD Mechanical 2004 DX|Company: Autodesk"
 90
        0
280
     1
281
     0
  0
CLASS
  1
ACMWELDSTANDARDJIS
  2
AcmWeldingStdJIS
  3
"Amdt_StdImp|Product Description: AutoCAD Mechanical 2004 DX|Company: Autodesk"
 90
        0
280
     1
281
     0
  0
CLASS
  1
ACMIDSTANDARDJIS
  2
AcmIdStdJIS
  3
"Amdt_StdImp|Product Description: AutoCAD Mechanical 2004 DX|Company: Autodesk"
 90
        0
280
     1
281
     0
  0
CLASS
  1
ACMDATUMSTANDARDJIS
  2
AcmDatumStdJIS
  3
"Amdt_StdImp|Product Description: AutoCAD Mechanical 2004 DX|Company: Autodesk"
 90
        0
280
     1
281
     0
  0
CLASS
  1
ACMBOMSTANDARDJIS
  2
AcmBOMStdJIS
  3
"Amdt_StdImp|Product Description: AutoCAD Mechanical 2004 DX|Company: Autodesk"
 90
        0
280
     1
281
     0
  0
CLASS
  1
TABLESTYLE
  2
AcDbTableStyle
  3
ObjectDBX Classes
 90
     2047
280
     0
281
     0
  0
CLASS
  1
ACGREFMASTER
  2
AcGrefMaster
  3
AcAttribServices
 90
        0
280
     1
281
     0
  0
CLASS
  1
AM_DRAWING_MGR
  2
AcDmDwgMgr
  3
AcMechDwgViewMgmt
 90
        0
280
     1
281
     0
  0
CLASS
  1
AM_DWG_DOCUMENT
  2
AcDmDwgDocument
  3
AcMechDwgViewMgmt
 90
        0
280
     1
281
     0
  0
CLASS
  1
AM_DWG_SHEET
  2
AcDmSheet
  3
AcMechDwgViewMgmt
 90
        0
280
     1
281
     0
  0
CLASS
  1
AM_VIEWDIMPARMAP
  2
AcDmViewDimParMap
  3
AcMechDwgViewMgmt
 90
        0
280
     1
281
     0
  0
CLASS
  1
AM_DWGMGR_NAME
  2
AcDmDwgMgrName
  3
AcMechDwgViewMgmt
 90
        0
280
     1
281
     0
  0
CLASS
  1
ACGREFACADMASTER
  2
AcGrefacadMaster
  3
AcGrefServices
 90
        0
280
     1
281
     0
  0
CLASS
  1
AMDTMENUSTATEMGR
  2
AmdtMenuStateMgr
  3
McadcomServices
 90
        0
280
     1
281
     0
  0
CLASS
  1
AMDTMCOMMENUSTATE
  2
AmdtMcomMenuState
  3
McadcomServices
 90
        0
280
     1
281
     0
  0
CLASS
  1
AMIMASTER
  2
AmiMaster
  3
AmiServices
 90
        0
280
     1
281
     0
  0
CLASS
  1
MAPIAMMOUDLE
  2
MApiAmModule
  3
MApiAmServices
 90
        0
280
     1
281
     0
  0
CLASS
  1
AMDTADMENUSTATE
  2
AmdtAdMenuState
  3
DesignerServices
 90
        0
280
     1
281
     0
  0
CLASS
  1
ADAPPL
  2
AcAdAppl
  3
DesignerServices
 90
        0
280
     1
281
     0
  0
CLASS
  1
DEPMGR
  2
AcAdDepMgr
  3
DesignerServices
 90
        0
280
     1
281
     0
  0
CLASS
  1
PARAMMGR
  2
AcAdParamMgr
  3
DesignerServices
 90
        0
280
     1
281
     0
  0
CLASS
  1
PARAMSCOPE
  2
AcAdParamScope
  3
DesignerServices
 90
        0
280
     1
281
     0
  0
CLASS
  1
NAMEDAPPL
  2
AcAdNamedAppl
  3
DesignerServices
 90
        0
280
     1
281
     0
  0
CLASS
  1
AMDTDMMENUSTATE
  2
AmdtDmMenuState
  3
AcMechDwgViewMgmt
 90
        0
280
     1
281
     0
  0
CLASS
  1
AMDTAMMENUSTATE
  2
AmdtAmMenuState
  3
DesignerAssemblies
 90
        0
280
     1
281
     0
  0
CLASS
  1
ACAMPROJECT
  2
AcAmProject
  3
DesignerAssemblies
 90
        0
280
     1
281
     0
  0
CLASS
  1
ACAMGRCOMPDEF
  2
AcAmGrCompDef
  3
DesignerAssemblies
 90
        0
280
     1
281
     0
  0
CLASS
  1
ACCMCONTEXT
  2
AcCmContext
  3
DesignerAssemblies
 90
        0
280
     1
281
     0
  0
CLASS
  1
ACAMCOMPDEF
  2
AcAmCompDef
  3
DesignerAssemblies
 90
        0
280
     1
281
     0
  0
CLASS
  1
ACAMCOMPDEFMGR
  2
AcAmCompDefMgr
  3
DesignerAssemblies
 90
        0
280
     1
281
     0
  0
CLASS
  1
AMCONTEXTMGR
  2
AcAmContextMgr
  3
DesignerAssemblies
 90
        0
280
     1
281
     0
  0
CLASS
  1
ACAMCONTEXTMODELER
  2
AcAmContextModeler
  3
DesignerAssemblies
 90
        0
280
     1
281
     0
  0
CLASS
  1
ACAMGTITLESTD
  2
AcAmgTitleStd
  3
"TITLEAPP"
 90
        0
280
     1
281
     0
  0
CLASS
  1
ACMDETAILSTANDARDJIS
  2
AmdtDetailSymStdJIS
  3
"Amdt_StdImp|Product Description: AutoCAD Mechanical 2004 DX|Company: Autodesk"
 90
        0
280
     1
281
     0
  0
CLASS
  1
ACMSECTIONSTANDARDJIS
  2
AmdtSectionSymStdJIS
  3
"Amdt_StdImp|Product Description: AutoCAD Mechanical 2004 DX|Company: Autodesk"
 90
        0
280
     1
281
     0
  0
CLASS
  1
ACMCENTERLINESTANDARDJIS
  2
AmdtCenterLineStdJIS
  3
"Amdt_StdImp|Product Description: AutoCAD Mechanical 2004 DX|Company: Autodesk"
 90
        0
280
     1
281
     0
  0
CLASS
  1
ACMTHREADLINESTANDARDJIS
  2
AmdtThreadLineStdJIS
  3
"Amdt_StdImp|Product Description: AutoCAD Mechanical 2004 DX|Company: Autodesk"
 90
        0
280
     1
281
     0
  0
CLASS
  1
ACMNOTESTANDARDJIS
  2
AmdtNoteStdJIS
  3
"Amdt_StdImp|Product Description: AutoCAD Mechanical 2004 DX|Company: Autodesk"
 90
        0
280
     1
281
     0
  0
CLASS
  1
AMDTNOTETEMPLATEDB
  2
AmdtNoteTemplateDB
  3
AMDT_STDIMP_MODULE_NAME
 90
        0
280
     1
281
     0
  0
CLASS
  1
ACAMGLAYSTD
  2
AcAmgLayStd
  3
"AcAmgLayStd|Product Description: AutoCAD Mechanical 2000|Company: Autodesk"
 90
        0
280
     1
281
     0
  0
CLASS
  1
ACAMGDIMSTD
  2
AcAmgDimStd
  3
"AcAmgDimStd|Product Description: AutoCAD Mechanical 2000|Company: Autodesk"
 90
        0
280
     1
281
     0
  0
CLASS
  1
ACAMGHOLECHARTSTDJIS
  2
AcAmgHoleChartStdJIS
  3
ACMSYMBB_MODULE_NAME
 90
        0
280
     1
281
     0
  0
CLASS
  1
CATALOGSTATE
  2
AcAmCatalogState
  3
DesignerAssemblies
 90
        0
280
     1
281
     0
  0
CLASS
  1
ACAMGRCOMPDEFSET
  2
AcAmGrCompDefSet
  3
DesignerAssemblies
 90
        0
280
     1
281
     0
  0
CLASS
  1
AMDTBROWSERDBTAB
  2
AmdtBrowserDbTab
  3
McadcomServices
 90
        0
280
     1
281
     0
  0
CLASS
  1
CBROWSERAPPOBJECT
  2
CBrowserAppObject
  3
McadcomServices
 90
        0
280
     1
281
     0
  0
CLASS
  1
DM_PLACEHOLDER
  2
AcDmSelsetPlaceholder
  3
AcMechDwgViewMgmt
 90
        0
280
     1
281
     0
  0
CLASS
  1
SORTENTSTABLE
  2
AcDbSortentsTable
  3
ObjectDBX Classes
 90
        0
280
     0
281
     0
  0
CLASS
  1
ACMSTANDARDANSI
  2
AcmStandardANSI
  3
"Amdt_StdImp|Product Description: AutoCAD Mechanical 2004 DX|Company: Autodesk"
 90
        0
280
     1
281
     0
  0
CLASS
  1
ACMSURFSTANDARDANSI
  2
AcmSurfTextStdANSI
  3
"Amdt_StdImp|Product Description: AutoCAD Mechanical 2004 DX|Company: Autodesk"
 90
        0
280
     1
281
     0
  0
CLASS
  1
ACMFCFSTANDARDANSI
  2
AcmFCFStdANSI
  3
"Amdt_StdImp|Product Description: AutoCAD Mechanical 2004 DX|Company: Autodesk"
 90
        0
280
     1
281
     0
  0
CLASS
  1
ACMWELDSTANDARDANSI
  2
AcmWeldingStdANSI
  3
"Amdt_StdImp|Product Description: AutoCAD Mechanical 2004 DX|Company: Autodesk"
 90
        0
280
     1
281
     0
  0
CLASS
  1
ACMIDSTANDARDANSI
  2
AcmIdStdANSI
  3
"Amdt_StdImp|Product Description: AutoCAD Mechanical 2004 DX|Company: Autodesk"
 90
        0
280
     1
281
     0
  0
CLASS
  1
ACMDATUMSTANDARDANSI
  2
AcmDatumStdANSI
  3
"Amdt_StdImp|Product Description: AutoCAD Mechanical 2004 DX|Company: Autodesk"
 90
        0
280
     1
281
     0
  0
CLASS
  1
ACMBOMSTANDARDANSI
  2
AcmBOMStdANSI
  3
"Amdt_StdImp|Product Description: AutoCAD Mechanical 2004 DX|Company: Autodesk"
 90
        0
280
     1
281
     0
  0
CLASS
  1
ACMDETAILSTANDARDANSI
  2
AmdtDetailSymStdANSI
  3
"Amdt_StdImp|Product Description: AutoCAD Mechanical 2004 DX|Company: Autodesk"
 90
        0
280
     1
281
     0
  0
CLASS
  1
ACMSECTIONSTANDARDANSI
  2
AmdtSectionSymStdANSI
  3
"Amdt_StdImp|Product Description: AutoCAD Mechanical 2004 DX|Company: Autodesk"
 90
        0
280
     1
281
     0
  0
CLASS
  1
ACMCENTERLINESTANDARDANSI
  2
AmdtCenterLineStdANSI
  3
"Amdt_StdImp|Product Description: AutoCAD Mechanical 2004 DX|Company: Autodesk"
 90
        0
280
     1
281
     0
  0
CLASS
  1
ACMTHREADLINESTANDARDANSI
  2
AmdtThreadLineStdANSI
  3
"Amdt_StdImp|Product Description: AutoCAD Mechanical 2004 DX|Company: Autodesk"
 90
        0
280
     1
281
     0
  0
CLASS
  1
ACMNOTESTANDARDANSI
  2
AmdtNoteStdANSI
  3
"Amdt_StdImp|Product Description: AutoCAD Mechanical 2004 DX|Company: Autodesk"
 90
        0
280
     1
281
     0
  0
CLASS
  1
ACAMGHOLECHARTSTDANSI
  2
AcAmgHoleChartStdANSI
  3
ACMSYMBB_MODULE_NAME
 90
        0
280
     1
281
     0
  0
CLASS
  1
AMDTNOTE
  2
AmdtNote
  3
"AcmSymBB|Product Description: AutoCAD Mechanical 2004 DX|Company: Autodesk"
 90
     1023
280
     1
281
     1
  0
ENDSEC
  0
SECTION
  2
TABLES
  0
TABLE
  2
VPORT
  5
8
330
0
100
AcDbSymbolTable
 70
    11
  0
VPORT
  5
731B
330
8
100
AcDbSymbolTableRecord
100
AcDbViewportTableRecord
  2
*Active
 70
     0
 10
0.0
 20
0.0
 11
1.0
 21
1.0
 12
40.71324837580265
 22
-25.98012198339097
 13
0.0
 23
0.0
 14
2.5
 24
2.5
 15
10.0
 25
10.0
 16
0.0
 26
0.0
 36
1.0
 17
0.0
 27
0.0
 37
0.0
 40
148.7825632748847
 41
1.697058823529412
 42
50.0
 43
0.0
 44
0.0
 50
0.0
 51
0.0
 71
     0
 72
  2000
 73
     1
 74
     3
 75
     0
 76
     0
 77
     0
 78
     0
281
     0
 65
     1
110
0.0
120
0.0
130
0.0
111
1.0
121
0.0
131
0.0
112
0.0
122
1.0
132
0.0
 79
     0
146
0.0
  0
ENDTAB
  0
TABLE
  2
LTYPE
  5
5
330
0
100
AcDbSymbolTable
 70
    15
  0
LTYPE
  5
14
330
5
100
AcDbSymbolTableRecord
100
AcDbLinetypeTableRecord
  2
ByBlock
 70
     0
  3

 72
    65
 73
     0
 40
0.0
  0
LTYPE
  5
15
330
5
100
AcDbSymbolTableRecord
100
AcDbLinetypeTableRecord
  2
ByLayer
 70
     0
  3

 72
    65
 73
     0
 40
0.0
  0
LTYPE
  5
16
330
5
100
AcDbSymbolTableRecord
100
AcDbLinetypeTableRecord
  2
Continuous
 70
     0
  3
Solid line
 72
    65
 73
     0
 40
0.0
  0
LTYPE
  5
48
330
5
100
AcDbSymbolTableRecord
100
AcDbLinetypeTableRecord
  2
AM_ISO02W050
 70
     0
  3
__ __ __ __ __ __ __ __ __ __ __ __ __ __ __
 72
    65
 73
     2
 40
7.5
 49
6.0
 74
     0
 49
-1.5
 74
     0
  0
LTYPE
  5
49
330
5
100
AcDbSymbolTableRecord
100
AcDbLinetypeTableRecord
  2
AM_ISO08W050
 70
     0
  3
____ . ____ . ____ . ____ . ____ . ____ . ____
 72
    65
 73
     4
 40
18.0
 49
12.0
 74
     0
 49
-1.5
 74
     0
 49
3.0
 74
     0
 49
-1.5
 74
     0
  0
LTYPE
  5
4A
330
5
100
AcDbSymbolTableRecord
100
AcDbLinetypeTableRecord
  2
AM_ISO09W050
 70
     0
  3
_____ . . _____ . . _____ . . ____ .. ____
 72
    65
 73
     6
 40
22.5
 49
12.0
 74
     0
 49
-1.5
 74
     0
 49
3.0
 74
     0
 49
-1.5
 74
     0
 49
3.0
 74
     0
 49
-1.5
 74
     0
  0
LTYPE
  5
4B
330
5
100
AcDbSymbolTableRecord
100
AcDbLinetypeTableRecord
  2
Amconstr
 70
     0
  3
_______________________
 72
    65
 73
     2
 40
9999.0
 49
9999.0
 74
     0
 49
0.0
 74
     0
  0
LTYPE
  5
4C
330
5
100
AcDbSymbolTableRecord
100
AcDbLinetypeTableRecord
  2
AM_ISO02W050x2
 70
     0
  3
 _ _ _ _ _ _ _ _ _ _ _ _
 72
    65
 73
     2
 40
3.75
 49
3.0
 74
     0
 49
-0.75
 74
     0
  0
LTYPE
  5
4D
330
5
100
AcDbSymbolTableRecord
100
AcDbLinetypeTableRecord
  2
AM_ISO08W050x2
 70
     0
  3
__ . __ . __ . __ . __ . __
 72
    65
 73
     4
 40
9.0
 49
6.0
 74
     0
 49
-0.75
 74
     0
 49
1.5
 74
     0
 49
-0.75
 74
     0
  0
LTYPE
  5
50
330
5
100
AcDbSymbolTableRecord
100
AcDbLinetypeTableRecord
  2
Amzigzag
 70
     0
  3
/\/-/\/-/\/-/\/-/\/-/\/
 72
    65
 73
     2
 40
11.0001
 49
0.0001
 74
     4
 75
   135
340
4F
 46
0.04
 50
0.0
 44
0.0
 45
0.0
 49
-11.0
 74
     0
  0
LTYPE
  5
118
330
5
100
AcDbSymbolTableRecord
100
AcDbLinetypeTableRecord
  2
CENTER
 70
     0
  3
____ _ ____ _ ____ _ ____ _ ____ _ ____ _ ____
 72
    65
 73
     4
 40
17.5
 49
13.0
 74
     0
 49
-1.5
 74
     0
 49
1.5
 74
     0
 49
-1.5
 74
     0
  0
LTYPE
  5
7AA
330
5
100
AcDbSymbolTableRecord
100
AcDbLinetypeTableRecord
  2
ACJISTGB
 70
     0
  3
__ . . __ . .
 72
    65
 73
     6
 40
9.0
 49
4.0
 74
     0
 49
-1.0
 74
     0
 49
1.0
 74
     0
 49
-1.0
 74
     0
 49
1.0
 74
     0
 49
-1.0
 74
     0
  0
LTYPE
  5
7AB
330
5
100
AcDbSymbolTableRecord
100
AcDbLinetypeTableRecord
  2
ACJISTGL
 70
     0
  3
_ _ _ _ _
 72
    65
 73
     2
 40
3.0
 49
2.0
 74
     0
 49
-1.0
 74
     0
  0
LTYPE
  5
1645
330
5
100
AcDbSymbolTableRecord
100
AcDbLinetypeTableRecord
  2
HIDDEN
 70
     0
  3
Hidden __ __ __ __ __ __ __ __ __ __ __ __ __ _
 72
    65
 73
     2
 40
9.524999999999999
 49
6.35
 74
     0
 49
-3.175
 74
     0
  0
LTYPE
  5
1646
330
5
100
AcDbSymbolTableRecord
100
AcDbLinetypeTableRecord
  2
PHANTOM2
 70
     0
  3
Phantom (.5x) ___ _ _ ___ _ _ ___ _ _ ___ _ _
 72
    65
 73
     6
 40
31.75
 49
15.875
 74
     0
 49
-3.175
 74
     0
 49
3.175
 74
     0
 49
-3.175
 74
     0
 49
3.175
 74
     0
 49
-3.175
 74
     0
  0
LTYPE
  5
1907
330
5
100
AcDbSymbolTableRecord
100
AcDbLinetypeTableRecord
  2
ACANSTGB
 70
     0
  3
__ . . __ . .
 72
    65
 73
     6
 40
0.35433070866
 49
0.15748031496
 74
     0
 49
-0.03937007874
 74
     0
 49
0.03937007874
 74
     0
 49
-0.03937007874
 74
     0
 49
0.03937007874
 74
     0
 49
-0.03937007874
 74
     0
  0
LTYPE
  5
1908
330
5
100
AcDbSymbolTableRecord
100
AcDbLinetypeTableRecord
  2
ACANSTGL
 70
     0
  3
_ _ _ _ _
 72
    65
 73
     2
 40
0.11811023622
 49
0.07874015748
 74
     0
 49
-0.03937007874
 74
     0
  0
ENDTAB
  0
TABLE
  2
LAYER
  5
2
102
{ACAD_XDICTIONARY
360
1832
102
}
330
0
100
AcDbSymbolTable
 70
     6
  0
LAYER
  5
10
330
2
100
AcDbSymbolTableRecord
100
AcDbLayerTableRecord
  2
0
 70
     0
 62
     7
  6
Continuous
370
    -3
390
F
  0
LAYER
  5
68
330
2
100
AcDbSymbolTableRecord
100
AcDbLayerTableRecord
  2
AM_5
 70
     0
 62
     3
  6
Continuous
370
    13
390
F
  0
LAYER
  5
7B
330
2
100
AcDbSymbolTableRecord
100
AcDbLayerTableRecord
  2
Defpoints
 70
     0
 62
     7
  6
Continuous
290
     0
370
    -3
390
F
  0
LAYER
  5
5A3
330
2
100
AcDbSymbolTableRecord
100
AcDbLayerTableRecord
  2
AM_7
 70
     0
 62
     4
  6
AM_ISO08W050
370
    13
390
F
  0
LAYER
  5
5A4
330
2
100
AcDbSymbolTableRecord
100
AcDbLayerTableRecord
  2
AM_6
 70
     0
 62
     2
  6
Continuous
370
    30
390
F
  0
LAYER
  5
5F1
330
2
100
AcDbSymbolTableRecord
100
AcDbLayerTableRecord
  2
AM_0
 70
     0
 62
     7
  6
Continuous
370
    30
390
F
  0
ENDTAB
  0
TABLE
  2
STYLE
  5
3
330
0
100
AcDbSymbolTable
 70
     7
  0
STYLE
  5
11
330
3
100
AcDbSymbolTableRecord
100
AcDbTextStyleTableRecord
  2
STANDARD
 70
     0
 40
0.0
 41
1.0
 50
0.0
 71
     0
 42
2.5
  3
ISOCP.SHX
  4
EXTFONT.SHX
  0
STYLE
  5
4F
330
3
100
AcDbSymbolTableRecord
100
AcDbTextStyleTableRecord
  2

 70
     1
 40
0.0
 41
1.0
 50
0.0
 71
     0
 42
2.5
  3
ltypeshp.shx
  4

  0
STYLE
  5
7A2
330
3
100
AcDbSymbolTableRecord
100
AcDbTextStyleTableRecord
  2
ACJISTS
 70
     0
 40
1.0
 41
1.0
 50
0.0
 71
     0
 42
2.5
  3
isocp.shx
  4
bigfont.shx
  0
STYLE
  5
7A9
330
3
100
AcDbSymbolTableRecord
100
AcDbTextStyleTableRecord
  2
ACJISGDT
 70
     0
 40
0.0
 41
1.0
 50
0.0
 71
     0
 42
2.5
  3
amgdt.shx
  4

  0
STYLE
  5
182F
330
3
100
AcDbSymbolTableRecord
100
AcDbTextStyleTableRecord
  2
ACISOTS
 70
     0
 40
1.0
 41
1.0
 50
0.0
 71
     0
 42
1.0
  3
isocp.shx
  4
extfont.shx
  0
STYLE
  5
190A
330
3
100
AcDbSymbolTableRecord
100
AcDbTextStyleTableRecord
  2
ACANSTS
 70
     0
 40
1.0
 41
1.0
 50
0.0
 71
     0
 42
2.5
  3
romans.shx
  4
extfont.shx
  0
STYLE
  5
190B
330
3
100
AcDbSymbolTableRecord
100
AcDbTextStyleTableRecord
  2
ACANSGDT
 70
     0
 40
0.0
 41
1.0
 50
0.0
 71
     0
 42
2.5
  3
amgdtans.shx
  4

  0
ENDTAB
  0
TABLE
  2
VIEW
  5
6
330
0
100
AcDbSymbolTable
 70
     6
  0
VIEW
  5
4F5
330
6
100
AcDbSymbolTableRecord
100
AcDbViewTableRecord
  2
AM_VIEW1
 70
     0
 40
150.0
 10
113.2040050062578
 20
225.0
 41
226.4080100125157
 11
0.0
 21
0.0
 31
1.0
 12
0.0
 22
0.0
 32
0.0
 42
50.0
 43
0.0
 44
0.0
 50
0.0
 71
     0
281
     0
 72
     0
  0
VIEW
  5
4F6
330
6
100
AcDbSymbolTableRecord
100
AcDbViewTableRecord
  2
AM_VIEW2
 70
     0
 40
150.0
 10
309.7959949937422
 20
225.0
 41
226.4080100125157
 11
0.0
 21
0.0
 31
1.0
 12
0.0
 22
0.0
 32
0.0
 42
50.0
 43
0.0
 44
0.0
 50
0.0
 71
     0
281
     0
 72
     0
  0
VIEW
  5
4F7
330
6
100
AcDbSymbolTableRecord
100
AcDbViewTableRecord
  2
AM_VIEW3
 70
     0
 40
150.0
 10
113.2040050062578
 20
75.0
 41
226.4080100125157
 11
0.0
 21
0.0
 31
1.0
 12
0.0
 22
0.0
 32
0.0
 42
50.0
 43
0.0
 44
0.0
 50
0.0
 71
     0
281
     0
 72
     0
  0
VIEW
  5
4F8
330
6
100
AcDbSymbolTableRecord
100
AcDbViewTableRecord
  2
AM_VIEW4
 70
     0
 40
150.0
 10
309.7959949937422
 20
75.0
 41
226.4080100125157
 11
0.0
 21
0.0
 31
1.0
 12
0.0
 22
0.0
 32
0.0
 42
50.0
 43
0.0
 44
0.0
 50
0.0
 71
     0
281
     0
 72
     0
  0
VIEW
  5
4F9
330
6
100
AcDbSymbolTableRecord
100
AcDbViewTableRecord
  2
AM_VIEW5
 70
     0
 40
150.0
 10
211.5
 20
150.0
 41
226.4080100125157
 11
0.0
 21
0.0
 31
1.0
 12
0.0
 22
0.0
 32
0.0
 42
50.0
 43
0.0
 44
0.0
 50
0.0
 71
     0
281
     0
 72
     0
  0
VIEW
  5
4FA
330
6
100
AcDbSymbolTableRecord
100
AcDbViewTableRecord
  2
AM_VIEW6
 70
     0
 40
299.9970000000001
 10
211.5
 20
150.0
 41
452.8114918648312
 11
0.0
 21
0.0
 31
1.0
 12
0.0
 22
0.0
 32
0.0
 42
50.0
 43
0.0
 44
0.0
 50
0.0
 71
     0
281
     0
 72
     0
  0
ENDTAB
  0
TABLE
  2
UCS
  5
7
330
0
100
AcDbSymbolTable
 70
     0
  0
ENDTAB
  0
TABLE
  2
APPID
  5
9
330
0
100
AcDbSymbolTable
 70
    32
  0
APPID
  5
12
330
9
100
AcDbSymbolTableRecord
100
AcDbRegAppTableRecord
  2
ACAD
 70
     0
  0
APPID
  5
2C
330
9
100
AcDbSymbolTableRecord
100
AcDbRegAppTableRecord
  2
MCAD_NO_VIS
 70
     0
  0
APPID
  5
2D
330
9
100
AcDbSymbolTableRecord
100
AcDbRegAppTableRecord
  2
ACAD_TEMP_GRAPHIC
 70
     0
  0
APPID
  5
B5
330
9
100
AcDbSymbolTableRecord
100
AcDbRegAppTableRecord
  2
GENIUS_GENDTOL_13
 70
     0
  0
APPID
  5
12C
330
9
100
AcDbSymbolTableRecord
100
AcDbRegAppTableRecord
  2
GENIUS_GENCFG_13
 70
     0
  0
APPID
  5
12D
330
9
100
AcDbSymbolTableRecord
100
AcDbRegAppTableRecord
  2
GENIUS_GENCFG0_13
 70
     0
  0
APPID
  5
12E
330
9
100
AcDbSymbolTableRecord
100
AcDbRegAppTableRecord
  2
GENIUS_GENCFG1_13
 70
     0
  0
APPID
  5
12F
330
9
100
AcDbSymbolTableRecord
100
AcDbRegAppTableRecord
  2
GENIUS_GENCFG2_13
 70
     0
  0
APPID
  5
130
330
9
100
AcDbSymbolTableRecord
100
AcDbRegAppTableRecord
  2
GENIUS_GENCFG3_13
 70
     0
  0
APPID
  5
131
330
9
100
AcDbSymbolTableRecord
100
AcDbRegAppTableRecord
  2
GENIUS_GENCFG4_13
 70
     0
  0
APPID
  5
53B
330
9
100
AcDbSymbolTableRecord
100
AcDbRegAppTableRecord
  2
GENIUS_GENBLLY_14
 70
     0
  0
APPID
  5
53C
330
9
100
AcDbSymbolTableRecord
100
AcDbRegAppTableRecord
  2
GENIUS_GENODEF_13
 70
     0
  0
APPID
  5
53D
330
9
100
AcDbSymbolTableRecord
100
AcDbRegAppTableRecord
  2
GENIUS_GENOBJ-N-CEN_13
 70
     0
  0
APPID
  5
549
330
9
100
AcDbSymbolTableRecord
100
AcDbRegAppTableRecord
  2
GENIUS_GENTRA_14
 70
     0
  0
APPID
  5
553
330
9
100
AcDbSymbolTableRecord
100
AcDbRegAppTableRecord
  2
GENIUS_GENOBJ-N-TIT_13
 70
     0
  0
APPID
  5
554
330
9
100
AcDbSymbolTableRecord
100
AcDbRegAppTableRecord
  2
GENIUS_GENTITLE_13
 70
     0
  0
APPID
  5
555
330
9
100
AcDbSymbolTableRecord
100
AcDbRegAppTableRecord
  2
GENIUS_GENOENT_13
 70
     0
  0
APPID
  5
556
330
9
100
AcDbSymbolTableRecord
100
AcDbRegAppTableRecord
  2
GENIUS_GENOREF_13
 70
     0
  0
APPID
  5
557
330
9
100
AcDbSymbolTableRecord
100
AcDbRegAppTableRecord
  2
GENIUS_GENOLIS_13
 70
     0
  0
APPID
  5
558
330
9
100
AcDbSymbolTableRecord
100
AcDbRegAppTableRecord
  2
GENIUS_GENZVEED_13
 70
     0
  0
APPID
  5
559
330
9
100
AcDbSymbolTableRecord
100
AcDbRegAppTableRecord
  2
GENIUS_GENSCREG_15
 70
     0
  0
APPID
  5
55A
330
9
100
AcDbSymbolTableRecord
100
AcDbRegAppTableRecord
  2
GENIUS_GENOBJ-N-SDF_13
 70
     0
  0
APPID
  5
567
330
9
100
AcDbSymbolTableRecord
100
AcDbRegAppTableRecord
  2
GENIUS_GENREC_14
 70
     0
  0
APPID
  5
568
330
9
100
AcDbSymbolTableRecord
100
AcDbRegAppTableRecord
  2
GENIUS_GENOBJ-N-REC_13
 70
     0
  0
APPID
  5
609
330
9
100
AcDbSymbolTableRecord
100
AcDbRegAppTableRecord
  2
GENIUS_GENOBJ-N-HTC_13
 70
     0
  0
APPID
  5
60A
330
9
100
AcDbSymbolTableRecord
100
AcDbRegAppTableRecord
  2
GENIUS_GENHATCH_13
 70
     0
  0
APPID
  5
1648
330
9
100
AcDbSymbolTableRecord
100
AcDbRegAppTableRecord
  2
AD_DRAW
 70
     0
  0
APPID
  5
164B
330
9
100
AcDbSymbolTableRecord
100
AcDbRegAppTableRecord
  2
ACATTRIBSERVICES
 70
     0
  0
APPID
  5
1669
330
9
100
AcDbSymbolTableRecord
100
AcDbRegAppTableRecord
  2
DESIGNERASSEMBLIES
 70
     0
  0
APPID
  5
167C
330
9
100
AcDbSymbolTableRecord
100
AcDbRegAppTableRecord
  2
ACADM_DIM_EDIT
 70
     0
  0
APPID
  5
167D
330
9
100
AcDbSymbolTableRecord
100
AcDbRegAppTableRecord
  2
AMDT_DM_ADJ
 70
     0
  0
APPID
  5
2B0B
330
9
100
AcDbSymbolTableRecord
100
AcDbRegAppTableRecord
  2
GENIUS_GENOBJ-N-CRS_13
 70
     0
  0
ENDTAB
  0
TABLE
  2
DIMSTYLE
  5
A
330
0
100
AcDbSymbolTable
 70
    15
100
AcDbDimStyleTable
  0
DIMSTYLE
105
69
102
{ACAD_REACTORS
330
6C2A
330
6ED6
102
}
330
A
100
AcDbSymbolTableRecord
100
AcDbDimStyleTableRecord
  2
AM_JIS
 70
     0
  4
"
 41
2.5
 42
0.0
 43
10.0
 44
1.0
 47
0.1
 48
0.1000000001
 73
     0
 74
     0
 77
     3
 78
     1
 79
     2
140
3.8
141
0.0
143
0.0393701
146
0.71
147
1.5
172
     1
176
     3
177
     3
178
     2
271
     2
272
     2
275
     1
283
     0
284
     8
340
11
341
6A
342
6A
371
    13
372
    13
  0
DIMSTYLE
105
70
330
A
100
AcDbSymbolTableRecord
100
AcDbDimStyleTableRecord
  2
AM_JIS$3
 70
     0
  4
"
 41
2.5
 42
0.0
 43
10.0
 44
1.0
 47
0.1
 48
0.1000000001
 73
     0
 74
     0
 77
     3
 78
     1
 79
     2
140
3.8
141
0.0
143
0.0393701
146
0.71
147
1.5
172
     1
176
     3
177
     3
178
     2
271
     2
272
     2
275
     1
283
     0
284
     8
288
     1
289
     0
340
11
341
6A
342
6A
371
    13
372
    13
  0
DIMSTYLE
105
71
330
A
100
AcDbSymbolTableRecord
100
AcDbDimStyleTableRecord
  2
AM_JIS$4
 70
     0
  4
"
 41
2.5
 42
0.0
 43
10.0
 44
1.0
 47
0.1
 48
0.1000000001
 73
     0
 74
     0
 77
     3
 78
     1
 79
     2
140
3.8
141
0.0
143
0.0393701
146
0.71
147
1.5
172
     1
176
     3
177
     3
178
     2
271
     2
272
     2
275
     1
283
     0
284
     8
288
     1
289
     0
340
11
341
6A
342
6A
371
    13
372
    13
  0
DIMSTYLE
105
72
330
A
100
AcDbSymbolTableRecord
100
AcDbDimStyleTableRecord
  2
AM_JIS$6
 70
     0
  4
"
 41
2.5
 42
0.0
 43
10.0
 44
1.0
 47
0.1
 48
0.1000000001
 73
     0
 74
     0
 78
     1
 79
     2
140
3.8
141
0.0
143
0.0393701
146
0.71
147
1.5
172
     1
176
     3
177
     3
178
     2
271
     2
272
     2
275
     1
283
     0
284
     8
340
11
341
6A
342
6A
371
    13
372
    13
  0
DIMSTYLE
105
73
330
A
100
AcDbSymbolTableRecord
100
AcDbDimStyleTableRecord
  2
AM_JIS$7
 70
     0
  4
"
 41
2.5
 42
0.0
 43
10.0
 44
1.0
 47
0.1
 48
0.1000000001
 73
     0
 74
     0
 77
     3
 78
     1
 79
     2
140
5.0
141
0.0
143
0.0393701
146
0.71
147
1.5
172
     1
176
     3
177
     3
178
     2
271
     2
272
     2
275
     1
283
     0
284
     8
340
11
341
6A
342
6A
371
    13
372
    13
  0
DIMSTYLE
105
74
330
A
100
AcDbSymbolTableRecord
100
AcDbDimStyleTableRecord
  2
AM_JIS$SF
 70
     0
  4
"
 41
2.5
 42
1.0
 43
10.0
 44
1.0
 47
0.1
 48
0.1
 73
     0
 74
     0
 75
     1
 76
     1
 77
     3
 78
     8
 79
     2
140
3.5
141
0.0
143
0.0393701
146
0.71
147
1.5
176
   256
177
   256
178
     2
271
     2
272
     3
274
     4
340
11
341
6A
342
6A
343
6A
344
6A
371
    -1
372
    -1
  0
DIMSTYLE
105
79
330
A
100
AcDbSymbolTableRecord
100
AcDbDimStyleTableRecord
  2
AM_JIS$SH
 70
     0
  4
"
 41
2.5
 42
1.0
 43
10.0
 44
1.0
 47
0.1
 48
0.1
 73
     0
 74
     0
 75
     1
 76
     1
 77
     3
 78
     8
 79
     2
140
3.5
141
0.0
143
0.0393701
144
2.0
146
0.71
147
1.5
173
     1
176
   256
177
   256
178
     2
271
     2
272
     3
274
     4
340
11
341
6A
342
6A
343
75
344
6A
371
    -1
372
    -1
  0
DIMSTYLE
105
124
330
A
100
AcDbSymbolTableRecord
100
AcDbDimStyleTableRecord
  2
STANDARD
 70
     0
340
11
  0
DIMSTYLE
105
927
102
{ACAD_REACTORS
330
6B45
330
6B6A
330
6BB3
330
6BC2
330
6C5E
330
6E9B
330
6EB2
330
6FBA
102
}
330
A
100
AcDbSymbolTableRecord
100
AcDbDimStyleTableRecord
  2
AM_JIS$0
 70
     0
  4
"
 41
2.5
 42
0.0
 43
10.0
 44
1.0
 47
0.1
 48
0.1000000001
 73
     0
 74
     0
 77
     3
 78
     1
 79
     2
140
3.8
141
0.0
143
0.0393701
146
0.71
147
1.5
172
     1
176
     3
177
     3
178
     2
271
     2
272
     2
275
     1
283
     0
284
     8
289
     0
340
11
341
6A
342
6A
371
    13
372
    13
  0
DIMSTYLE
105
190C
330
A
100
AcDbSymbolTableRecord
100
AcDbDimStyleTableRecord
  2
AM_ANSI
 70
     0
  4
mm
 41
0.1
 42
0.05
 43
0.5
 44
0.1
 47
0.1
 48
0.1
 78
     7
 79
     2
140
0.12
141
0.0
146
0.71
147
0.06
176
   256
177
   256
178
     2
274
     4
284
     7
340
11
371
    -1
372
    -1
  0
DIMSTYLE
105
190D
330
A
100
AcDbSymbolTableRecord
100
AcDbDimStyleTableRecord
  2
AM_ANSI$3
 70
     0
  4
mm
 41
0.1
 42
0.05
 43
0.5
 44
0.1
 47
0.1
 48
0.1
 78
     7
 79
     2
140
0.12
141
0.0
146
0.71
147
0.06
176
   256
177
   256
178
     2
274
     4
284
     7
288
     1
289
     0
340
11
371
    -1
372
    -1
  0
DIMSTYLE
105
190E
330
A
100
AcDbSymbolTableRecord
100
AcDbDimStyleTableRecord
  2
AM_ANSI$4
 70
     0
  4
mm
 41
0.1
 42
0.05
 43
0.5
 44
0.1
 47
0.1
 48
0.1
 78
     7
 79
     2
140
0.12
141
0.0
146
0.71
147
0.06
176
   256
177
   256
178
     2
274
     4
284
     7
288
     1
289
     0
340
11
371
    -1
372
    -1
  0
DIMSTYLE
105
190F
330
A
100
AcDbSymbolTableRecord
100
AcDbDimStyleTableRecord
  2
AM_ANSI$7
 70
     0
  4
mm
 41
0.1
 42
0.05
 43
0.5
 44
0.1
 47
0.1
 48
0.1
 78
     7
 79
     2
140
0.24
141
0.0
146
0.71
147
0.06
176
   256
177
   256
178
     2
274
     4
284
     7
340
11
371
    -1
372
    -1
  0
DIMSTYLE
105
1910
330
A
100
AcDbSymbolTableRecord
100
AcDbDimStyleTableRecord
  2
AM_ANSI$SF
 70
     0
  4
mm
 41
0.1
 42
0.05
 43
0.5
 44
0.1
 47
0.1
 48
0.1
 75
     1
 76
     1
 78
     7
 79
     2
140
0.12
141
0.0
146
0.71
147
0.06
176
   256
177
   256
178
     2
274
     4
284
     7
340
11
371
    -1
372
    -1
  0
DIMSTYLE
105
1911
330
A
100
AcDbSymbolTableRecord
100
AcDbDimStyleTableRecord
  2
AM_ANSI$SH
 70
     0
  4
mm
 41
0.1
 42
0.05
 43
0.5
 44
0.1
 47
0.1
 48
0.1
 75
     1
 76
     1
 78
     7
 79
     2
140
0.12
141
0.0
146
0.71
147
0.06
173
     1
176
   256
177
   256
178
     2
274
     4
284
     7
340
11
343
75
371
    -1
372
    -1
  0
ENDTAB
  0
TABLE
  2
BLOCK_RECORD
  5
1
330
0
100
AcDbSymbolTable
 70
    14
  0
BLOCK_RECORD
  5
1F
102
{ACAD_XDICTIONARY
360
10B
102
}
330
1
100
AcDbSymbolTableRecord
100
AcDbBlockTableRecord
  2
*Model_Space
340
22
  0
BLOCK_RECORD
  5
1B
330
1
100
AcDbSymbolTableRecord
100
AcDbBlockTableRecord
  2
*Paper_Space
340
1E
  0
BLOCK_RECORD
  5
23
330
1
100
AcDbSymbolTableRecord
100
AcDbBlockTableRecord
  2
*Paper_Space0
340
26
  0
BLOCK_RECORD
  5
6A
330
1
100
AcDbSymbolTableRecord
100
AcDbBlockTableRecord
  2
_Open30
340
0
102
{BLKREFS
331
728B
331
728C
331
7294
331
7295
331
729D
331
729E
331
72A7
331
72A8
331
72AF
331
72B0
331
72BB
331
72BC
331
72C4
331
72C5
331
72CD
331
72CE
331
72D7
331
72E1
331
72E2
102
}
  0
BLOCK_RECORD
  5
75
330
1
100
AcDbSymbolTableRecord
100
AcDbBlockTableRecord
  2
GENAXEH
340
0
  0
BLOCK_RECORD
  5
1660
330
1
100
AcDbSymbolTableRecord
100
AcDbBlockTableRecord
  2
*U3
340
0
  0
BLOCK_RECORD
  5
6B46
330
1
100
AcDbSymbolTableRecord
100
AcDbBlockTableRecord
  2
*D4
340
0
  0
BLOCK_RECORD
  5
6B6B
330
1
100
AcDbSymbolTableRecord
100
AcDbBlockTableRecord
  2
*D5
340
0
  0
BLOCK_RECORD
  5
6BB4
330
1
100
AcDbSymbolTableRecord
100
AcDbBlockTableRecord
  2
*D6
340
0
  0
BLOCK_RECORD
  5
6BC3
330
1
100
AcDbSymbolTableRecord
100
AcDbBlockTableRecord
  2
*D7
340
0
  0
BLOCK_RECORD
  5
6C2B
330
1
100
AcDbSymbolTableRecord
100
AcDbBlockTableRecord
  2
*D8
340
0
  0
BLOCK_RECORD
  5
6C5F
330
1
100
AcDbSymbolTableRecord
100
AcDbBlockTableRecord
  2
*D9
340
0
  0
BLOCK_RECORD
  5
6E9C
330
1
100
AcDbSymbolTableRecord
100
AcDbBlockTableRecord
  2
*D10
340
0
  0
BLOCK_RECORD
  5
6EB3
330
1
100
AcDbSymbolTableRecord
100
AcDbBlockTableRecord
  2
*D11
340
0
  0
BLOCK_RECORD
  5
6ED7
330
1
100
AcDbSymbolTableRecord
100
AcDbBlockTableRecord
  2
*D12
340
0
  0
BLOCK_RECORD
  5
6FBB
330
1
100
AcDbSymbolTableRecord
100
AcDbBlockTableRecord
  2
*D13
340
0
  0
ENDTAB
  0
ENDSEC
  0
SECTION
  2
BLOCKS
  0
BLOCK
  5
20
330
1F
100
AcDbEntity
  8
0
100
AcDbBlockBegin
  2
*Model_Space
 70
     0
 71
     0
 10
0.0
 20
0.0
 30
0.0
  3
*Model_Space
  1

  0
ENDBLK
  5
21
330
1F
100
AcDbEntity
  8
0
100
AcDbBlockEnd
  0
BLOCK
  5
1C
330
1B
100
AcDbEntity
 67
     1
  8
0
100
AcDbBlockBegin
  2
*Paper_Space
 70
     0
 71
     0
 10
0.0
 20
0.0
 30
0.0
  3
*Paper_Space
  1

  0
ENDBLK
  5
1D
330
1B
100
AcDbEntity
 67
     1
  8
0
100
AcDbBlockEnd
  0
BLOCK
  5
24
330
23
100
AcDbEntity
  8
0
100
AcDbBlockBegin
  2
*Paper_Space0
 70
     0
 71
     0
 10
0.0
 20
0.0
 30
0.0
  3
*Paper_Space0
  1

  0
ENDBLK
  5
25
330
23
100
AcDbEntity
  8
0
100
AcDbBlockEnd
  0
BLOCK
  5
6E
330
6A
100
AcDbEntity
  8
0
100
AcDbBlockBegin
  2
_Open30
 70
     0
 71
     0
 10
0.0
 20
0.0
 30
0.0
  3
_Open30
  1

  0
LINE
  5
6B
330
6A
100
AcDbEntity
  8
0
 62
     0
370
    -2
100
AcDbLine
 10
-1.0
 20
0.26794919
 30
0.0
 11
0.0
 21
0.0
 31
0.0
  0
LINE
  5
6C
330
6A
100
AcDbEntity
  8
0
 62
     0
370
    -2
100
AcDbLine
 10
0.0
 20
0.0
 30
0.0
 11
-1.0
 21
-0.26794919
 31
0.0
  0
LINE
  5
6D
330
6A
100
AcDbEntity
  8
0
 62
     0
370
    -2
100
AcDbLine
 10
0.0
 20
0.0
 30
0.0
 11
-1.0
 21
0.0
 31
0.0
  0
ENDBLK
  5
6F
330
6A
100
AcDbEntity
  8
0
100
AcDbBlockEnd
  0
BLOCK
  5
77
330
75
100
AcDbEntity
  8
0
100
AcDbBlockBegin
  2
GENAXEH
 70
     0
 71
     0
 10
0.0
 20
0.0
 30
0.0
  3
GENAXEH
  1

  0
LINE
  5
76
330
75
100
AcDbEntity
  8
0
100
AcDbLine
 10
-1.0
 20
0.0
 30
0.0
 11
1.0
 21
0.0
 31
0.0
  0
ENDBLK
  5
78
330
75
100
AcDbEntity
  8
0
100
AcDbBlockEnd
  0
BLOCK
  5
1661
330
1660
100
AcDbEntity
  8
0
100
AcDbBlockBegin
  2
*U3
 70
     1
 71
     0
 10
0.0
 20
0.0
 30
0.0
  3
*U3
  1

  0
ENDBLK
  5
1662
330
1660
100
AcDbEntity
  8
0
100
AcDbBlockEnd
  0
BLOCK
  5
6B50
330
6B46
100
AcDbEntity
  8
0
370
    13
100
AcDbBlockBegin
  2
*D4
 70
     1
 71
     0
 10
0.0
 20
0.0
 30
0.0
  3
*D4
  1

  0
LINE
  5
7288
330
6B46
100
AcDbEntity
  8
AM_5
 62
     3
370
    13
100
AcDbLine
 10
140.0
 20
25.0
 30
0.0
 11
155.7431248903241
 21
25.0
 31
0.0
  0
LINE
  5
7289
330
6B46
100
AcDbEntity
  8
AM_5
 62
     3
370
    13
100
AcDbLine
 10
140.0
 20
6.000000000000028
 30
0.0
 11
155.7431248903241
 21
6.000000000000024
 31
0.0
  0
LINE
  5
728A
330
6B46
100
AcDbEntity
  8
AM_5
 62
     3
370
    13
100
AcDbLine
 10
154.7431248903241
 20
22.5
 30
0.0
 11
154.7431248903241
 21
8.500000000000025
 31
0.0
  0
INSERT
  5
728B
330
6B46
100
AcDbEntity
  8
AM_5
 62
     3
370
    13
100
AcDbBlockReference
  2
_Open30
 10
154.7431248903241
 20
25.0
 30
0.0
 41
2.5
 42
2.5
 43
2.5
 50
90.0
  0
INSERT
  5
728C
330
6B46
100
AcDbEntity
  8
AM_5
 62
     3
370
    13
100
AcDbBlockReference
  2
_Open30
 10
154.7431248903241
 20
6.000000000000024
 30
0.0
 41
2.5
 42
2.5
 43
2.5
 50
270.0
  0
MTEXT
  5
728D
330
6B46
100
AcDbEntity
  8
AM_5
 62
     2
370
    13
100
AcDbMText
 10
151.3431248903241
 20
15.10034717006758
 30
0.0
 40
3.8
 41
0.0
 71
     5
 72
     1
  1
19
 11
6.123031769111886E-17
 21
1.0
 31
0.0
 73
     1
 44
1.0
  0
POINT
  5
728E
330
6B46
100
AcDbEntity
  8
Defpoints
 62
     0
370
    13
100
AcDbPoint
 10
140.0
 20
25.0
 30
0.0
  0
POINT
  5
728F
330
6B46
100
AcDbEntity
  8
Defpoints
 62
     0
370
    13
100
AcDbPoint
 10
140.0
 20
6.000000000000028
 30
0.0
  0
POINT
  5
7290
330
6B46
100
AcDbEntity
  8
Defpoints
 62
     0
370
    13
100
AcDbPoint
 10
154.7431248903241
 20
6.000000000000024
 30
0.0
  0
ENDBLK
  5
6B51
330
6B46
100
AcDbEntity
  8
0
370
    13
100
AcDbBlockEnd
  0
BLOCK
  5
6B75
330
6B6B
100
AcDbEntity
  8
0
370
    13
100
AcDbBlockBegin
  2
*D5
 70
     1
 71
     0
 10
0.0
 20
0.0
 30
0.0
  3
*D5
  1

  0
LINE
  5
7291
330
6B6B
100
AcDbEntity
  8
AM_5
 62
     3
370
    13
100
AcDbLine
 10
0.0
 20
-1.40106603391817
 30
0.0
 11
-0.0000000000000012
 21
-20.95036249323042
 31
0.0
  0
LINE
  5
7292
330
6B6B
100
AcDbEntity
  8
AM_5
 62
     3
370
    13
100
AcDbLine
 10
140.0
 20
6.000000000000028
 30
0.0
 11
140.0
 21
-20.95036249323042
 31
0.0
  0
LINE
  5
7293
330
6B6B
100
AcDbEntity
  8
AM_5
 62
     3
370
    13
100
AcDbLine
 10
2.499999999999999
 20
-19.95036249323042
 30
0.0
 11
137.5
 21
-19.95036249323042
 31
0.0
  0
INSERT
  5
7294
330
6B6B
100
AcDbEntity
  8
AM_5
 62
     3
370
    13
100
AcDbBlockReference
  2
_Open30
 10
-0.0000000000000011
 20
-19.95036249323042
 30
0.0
 41
2.5
 42
2.5
 43
2.5
 50
180.0
  0
INSERT
  5
7295
330
6B6B
100
AcDbEntity
  8
AM_5
 62
     3
370
    13
100
AcDbBlockReference
  2
_Open30
 10
140.0
 20
-19.95036249323042
 30
0.0
 41
2.5
 42
2.5
 43
2.5
  0
MTEXT
  5
7296
330
6B6B
100
AcDbEntity
  8
AM_5
 62
     2
370
    13
100
AcDbMText
 10
69.56549467234356
 20
-16.55036249323042
 30
0.0
 40
3.8
 41
0.0
 71
     5
 72
     1
  1
140
 73
     1
 44
1.0
  0
POINT
  5
7297
330
6B6B
100
AcDbEntity
  8
Defpoints
 62
     0
370
    13
100
AcDbPoint
 10
0.0
 20
-1.40106603391817
 30
0.0
  0
POINT
  5
7298
330
6B6B
100
AcDbEntity
  8
Defpoints
 62
     0
370
    13
100
AcDbPoint
 10
140.0
 20
6.000000000000028
 30
0.0
  0
POINT
  5
7299
330
6B6B
100
AcDbEntity
  8
Defpoints
 62
     0
370
    13
100
AcDbPoint
 10
140.0
 20
-19.95036249323042
 30
0.0
  0
ENDBLK
  5
6B76
330
6B6B
100
AcDbEntity
  8
0
370
    13
100
AcDbBlockEnd
  0
BLOCK
  5
6BBE
330
6BB4
100
AcDbEntity
  8
0
370
    13
100
AcDbBlockBegin
  2
*D6
 70
     1
 71
     0
 10
0.0
 20
0.0
 30
0.0
  3
*D6
  1

  0
LINE
  5
729A
330
6BB4
100
AcDbEntity
  8
AM_5
 62
     3
370
    13
100
AcDbLine
 10
-1.259911351749793
 20
0.0
 30
0.0
 11
-21.80976703490762
 21
0.0000000000000058
 31
0.0
  0
LINE
  5
729B
330
6BB4
100
AcDbEntity
  8
AM_5
 62
     3
370
    13
100
AcDbLine
 10
25.99999999999994
 20
25.0
 30
0.0
 11
-21.80976703490762
 21
25.00000000000001
 31
0.0
  0
LINE
  5
729C
330
6BB4
100
AcDbEntity
  8
AM_5
 62
     3
370
    13
100
AcDbLine
 10
-20.80976703490762
 20
2.500000000000005
 30
0.0
 11
-20.80976703490762
 21
22.50000000000001
 31
0.0
  0
INSERT
  5
729D
330
6BB4
100
AcDbEntity
  8
AM_5
 62
     3
370
    13
100
AcDbBlockReference
  2
_Open30
 10
-20.80976703490762
 20
0.0000000000000055
 30
0.0
 41
2.5
 42
2.5
 43
2.5
 50
270.0
  0
INSERT
  5
729E
330
6BB4
100
AcDbEntity
  8
AM_5
 62
     3
370
    13
100
AcDbBlockReference
  2
_Open30
 10
-20.80976703490762
 20
25.00000000000001
 30
0.0
 41
2.5
 42
2.5
 43
2.5
 50
90.0
  0
MTEXT
  5
729F
330
6BB4
100
AcDbEntity
  8
AM_5
 62
     2
370
    13
100
AcDbMText
 10
-24.21014105065565
 20
12.84417931770574
 30
0.0
 40
3.8
 41
0.0
 71
     5
 72
     1
  1
25
 11
6.123031769111886E-17
 21
1.0
 31
0.0
 73
     1
 44
1.0
  0
POINT
  5
72A0
330
6BB4
100
AcDbEntity
  8
Defpoints
 62
     0
370
    13
100
AcDbPoint
 10
-1.259911351749793
 20
0.0
 30
0.0
  0
POINT
  5
72A1
330
6BB4
100
AcDbEntity
  8
Defpoints
 62
     0
370
    13
100
AcDbPoint
 10
25.99999999999994
 20
25.0
 30
0.0
  0
POINT
  5
72A2
330
6BB4
100
AcDbEntity
  8
Defpoints
 62
     0
370
    13
100
AcDbPoint
 10
-20.80976703490762
 20
25.00000000000001
 30
0.0
  0
ENDBLK
  5
6BBF
330
6BB4
100
AcDbEntity
  8
0
370
    13
100
AcDbBlockEnd
  0
BLOCK
  5
6BCF
330
6BC3
100
AcDbEntity
  8
0
370
    13
100
AcDbBlockBegin
  2
*D7
 70
     1
 71
     0
 10
0.0
 20
0.0
 30
0.0
  3
*D7
  1

  0
LINE
  5
72A3
330
6BC3
100
AcDbEntity
  8
AM_5
 62
     3
370
    13
100
AcDbLine
 10
11.07179699999995
 20
33.0
 30
0.0
 11
51.12322194925822
 21
32.99999999999999
 31
0.0
  0
LINE
  5
72A4
330
6BC3
100
AcDbEntity
  8
AM_5
 62
     3
370
    13
100
AcDbLine
 10
50.12322194925822
 20
35.49999999999999
 30
0.0
 11
50.12322194925822
 21
37.99999999999999
 31
0.0
  0
LINE
  5
72A5
330
6BC3
100
AcDbEntity
  8
AM_5
 62
     3
370
    13
100
AcDbLine
 10
50.12322194925822
 20
22.5
 30
0.0
 11
50.12322194925822
 21
20.0
 31
0.0
  0
LINE
  5
72A6
330
6BC3
100
AcDbEntity
  8
AM_5
 62
     3
370
    13
100
AcDbLine
 10
50.12322194925822
 20
32.99999999999999
 30
0.0
 11
50.12322194925822
 21
25.0
 31
0.0
  0
INSERT
  5
72A7
330
6BC3
100
AcDbEntity
  8
AM_5
 62
     3
370
    13
100
AcDbBlockReference
  2
_Open30
 10
50.12322194925822
 20
32.99999999999999
 30
0.0
 41
2.5
 42
2.5
 43
2.5
 50
270.0
  0
INSERT
  5
72A8
330
6BC3
100
AcDbEntity
  8
AM_5
 62
     3
370
    13
100
AcDbBlockReference
  2
_Open30
 10
50.12322194925822
 20
25.0
 30
0.0
 41
2.5
 42
2.5
 43
2.5
 50
90.0
  0
MTEXT
  5
72A9
330
6BC3
100
AcDbEntity
  8
AM_5
 62
     2
370
    13
100
AcDbMText
 10
46.72322194925821
 20
29.0
 30
0.0
 40
3.8
 41
0.0
 71
     5
 72
     1
  1
8
 11
6.123031769111886E-17
 21
1.0
 31
0.0
 73
     1
 44
1.0
  0
POINT
  5
72AA
330
6BC3
100
AcDbEntity
  8
Defpoints
 62
     0
370
    13
100
AcDbPoint
 10
11.07179699999995
 20
33.0
 30
0.0
  0
POINT
  5
72AB
330
6BC3
100
AcDbEntity
  8
Defpoints
 62
     0
370
    13
100
AcDbPoint
 10
26.24992899999995
 20
25.0
 30
0.0
  0
POINT
  5
72AC
330
6BC3
100
AcDbEntity
  8
Defpoints
 62
     0
370
    13
100
AcDbPoint
 10
50.12322194925822
 20
25.0
 30
0.0
  0
ENDBLK
  5
6BD0
330
6BC3
100
AcDbEntity
  8
0
370
    13
100
AcDbBlockEnd
  0
BLOCK
  5
6C36
330
6C2B
100
AcDbEntity
  8
0
370
    13
100
AcDbBlockBegin
  2
*D8
 70
     1
 71
     0
 10
0.0
 20
0.0
 30
0.0
  3
*D8
  1

  0
LINE
  5
72AD
330
6C2B
100
AcDbEntity
  8
AM_5
 62
     3
370
    13
100
AcDbLine
 10
-1.259911351749793
 20
0.0
 30
0.0
 11
-12.65172494446574
 21
0.0
 31
0.0
  0
ARC
  5
72AE
330
6C2B
100
AcDbEntity
  8
AM_5
 62
     3
370
    13
100
AcDbCircle
 10
-0.0070423521714505
 20
0.0
 30
0.0
 40
11.64468259229429
100
AcDbArc
 50
101.3245930458189
 51
167.6754067986596
  0
INSERT
  5
72AF
330
6C2B
100
AcDbEntity
  8
AM_5
 62
     3
370
    13
100
AcDbBlockReference
  2
_Open30
 10
0.1961854128655052
 20
11.64290905018157
 30
0.0
 41
2.5
 42
2.5
 43
2.5
 50
5.162296445148708
  0
INSERT
  5
72B0
330
6C2B
100
AcDbEntity
  8
AM_5
 62
     3
370
    13
100
AcDbBlockReference
  2
_Open30
 10
-11.65172494446574
 20
-0.0000000000000009
 30
0.0
 41
2.5
 42
2.5
 43
2.5
 50
263.8377033993298
  0
MTEXT
  5
72B1
330
6C2B
100
AcDbEntity
  8
AM_5
 62
     2
370
    13
100
AcDbMText
 10
-9.244184601132279
 20
11.87508641548961
 30
0.0
 40
3.8
 41
0.0
 71
     5
 72
     1
  1
91°
 11
0.789321166640756
 21
0.6139805338061427
 31
0.0
 73
     1
 44
1.0
  0
POINT
  5
72B2
330
6C2B
100
AcDbEntity
  8
Defpoints
 62
     0
370
    13
100
AcDbPoint
 10
-10.05758981029856
 20
5.880912213867547
 30
0.0
  0
POINT
  5
72B3
330
6C2B
100
AcDbEntity
  8
Defpoints
 62
     0
370
    13
100
AcDbPoint
 10
0.4001598201076604
 20
0.0
 30
0.0
  0
POINT
  5
72B4
330
6C2B
100
AcDbEntity
  8
Defpoints
 62
     0
370
    13
100
AcDbPoint
 10
0.2638049999999339
 20
15.51683199999999
 30
0.0
  0
POINT
  5
72B5
330
6C2B
100
AcDbEntity
  8
Defpoints
 62
     0
370
    13
100
AcDbPoint
 10
0.0000619999999571
 20
0.4070079999999905
 30
0.0
  0
POINT
  5
72B6
330
6C2B
100
AcDbEntity
  8
Defpoints
 62
     0
370
    13
100
AcDbPoint
 10
-1.259911351749793
 20
0.0
 30
0.0
  0
ENDBLK
  5
6C37
330
6C2B
100
AcDbEntity
  8
0
370
    13
100
AcDbBlockEnd
  0
BLOCK
  5
6C6B
330
6C5F
100
AcDbEntity
  8
0
370
    13
100
AcDbBlockBegin
  2
*D9
 70
     1
 71
     0
 10
0.0
 20
0.0
 30
0.0
  3
*D9
  1

  0
LINE
  5
72B7
330
6C5F
100
AcDbEntity
  8
AM_5
 62
     3
370
    13
100
AcDbLine
 10
0.0
 20
0.0
 30
0.0
 11
50.92927922212709
 21
-0.0000000000000144
 31
0.0
  0
LINE
  5
72B8
330
6C5F
100
AcDbEntity
  8
AM_5
 62
     3
370
    13
100
AcDbLine
 10
49.92927922212709
 20
-2.500000000000014
 30
0.0
 11
49.92927922212709
 21
-5.000000000000013
 31
0.0
  0
LINE
  5
72B9
330
6C5F
100
AcDbEntity
  8
AM_5
 62
     3
370
    13
100
AcDbLine
 10
49.92927922212709
 20
8.499999999999993
 30
0.0
 11
49.92927922212709
 21
10.99999999999999
 31
0.0
  0
LINE
  5
72BA
330
6C5F
100
AcDbEntity
  8
AM_5
 62
     3
370
    13
100
AcDbLine
 10
49.92927922212709
 20
-0.0000000000000141
 30
0.0
 11
49.92927922212709
 21
5.999999999999993
 31
0.0
  0
INSERT
  5
72BB
330
6C5F
100
AcDbEntity
  8
AM_5
 62
     3
370
    13
100
AcDbBlockReference
  2
_Open30
 10
49.92927922212709
 20
-0.0000000000000141
 30
0.0
 41
2.5
 42
2.5
 43
2.5
 50
90.0
  0
INSERT
  5
72BC
330
6C5F
100
AcDbEntity
  8
AM_5
 62
     3
370
    13
100
AcDbBlockReference
  2
_Open30
 10
49.92927922212709
 20
5.999999999999993
 30
0.0
 41
2.5
 42
2.5
 43
2.5
 50
270.0
  0
MTEXT
  5
72BD
330
6C5F
100
AcDbEntity
  8
AM_5
 62
     2
370
    13
100
AcDbMText
 10
46.52927922212709
 20
2.999999999999998
 30
0.0
 40
3.8
 41
0.0
 71
     5
 72
     1
  1
6
 11
6.123031769111886E-17
 21
1.0
 31
0.0
 73
     1
 44
1.0
  0
POINT
  5
72BE
330
6C5F
100
AcDbEntity
  8
Defpoints
 62
     0
370
    13
100
AcDbPoint
 10
0.0
 20
0.0
 30
0.0
  0
POINT
  5
72BF
330
6C5F
100
AcDbEntity
  8
Defpoints
 62
     0
370
    13
100
AcDbPoint
 10
25.99999999999994
 20
6.0
 30
0.0
  0
POINT
  5
72C0
330
6C5F
100
AcDbEntity
  8
Defpoints
 62
     0
370
    13
100
AcDbPoint
 10
49.92927922212709
 20
5.999999999999993
 30
0.0
  0
ENDBLK
  5
6C6C
330
6C5F
100
AcDbEntity
  8
0
370
    13
100
AcDbBlockEnd
  0
BLOCK
  5
6EA6
330
6E9C
100
AcDbEntity
  8
0
370
    13
100
AcDbBlockBegin
  2
*D10
 70
     1
 71
     0
 10
0.0
 20
0.0
 30
0.0
  3
*D10
  1

  0
LINE
  5
72C1
330
6E9C
100
AcDbEntity
  8
AM_5
 62
     3
370
    13
100
AcDbLine
 10
140.0
 20
-62.20718191039686
 30
0.0
 11
155.4657963043718
 21
-62.20718191039686
 31
0.0
  0
LINE
  5
72C2
330
6E9C
100
AcDbEntity
  8
AM_5
 62
     3
370
    13
100
AcDbLine
 10
140.0
 20
-81.20718191039686
 30
0.0
 11
155.4657963043718
 21
-81.20718191039686
 31
0.0
  0
LINE
  5
72C3
330
6E9C
100
AcDbEntity
  8
AM_5
 62
     3
370
    13
100
AcDbLine
 10
154.4657963043718
 20
-64.70718191039686
 30
0.0
 11
154.4657963043718
 21
-78.70718191039686
 31
0.0
  0
INSERT
  5
72C4
330
6E9C
100
AcDbEntity
  8
AM_5
 62
     3
370
    13
100
AcDbBlockReference
  2
_Open30
 10
154.4657963043718
 20
-62.20718191039686
 30
0.0
 41
2.5
 42
2.5
 43
2.5
 50
90.0
  0
INSERT
  5
72C5
330
6E9C
100
AcDbEntity
  8
AM_5
 62
     3
370
    13
100
AcDbBlockReference
  2
_Open30
 10
154.4657963043718
 20
-81.20718191039686
 30
0.0
 41
2.5
 42
2.5
 43
2.5
 50
270.0
  0
MTEXT
  5
72C6
330
6E9C
100
AcDbEntity
  8
AM_5
 62
     2
370
    13
100
AcDbMText
 10
151.0657963043718
 20
-71.70718191039684
 30
0.0
 40
3.8
 41
0.0
 71
     5
 72
     1
  1
19
 11
6.123031769111886E-17
 21
1.0
 31
0.0
 73
     1
 44
1.0
  0
POINT
  5
72C7
330
6E9C
100
AcDbEntity
  8
Defpoints
 62
     0
370
    13
100
AcDbPoint
 10
140.0
 20
-62.20718191039686
 30
0.0
  0
POINT
  5
72C8
330
6E9C
100
AcDbEntity
  8
Defpoints
 62
     0
370
    13
100
AcDbPoint
 10
140.0
 20
-81.20718191039686
 30
0.0
  0
POINT
  5
72C9
330
6E9C
100
AcDbEntity
  8
Defpoints
 62
     0
370
    13
100
AcDbPoint
 10
154.4657963043718
 20
-81.20718191039686
 30
0.0
  0
ENDBLK
  5
6EA7
330
6E9C
100
AcDbEntity
  8
0
370
    13
100
AcDbBlockEnd
  0
BLOCK
  5
6EBD
330
6EB3
100
AcDbEntity
  8
0
370
    13
100
AcDbBlockBegin
  2
*D11
 70
     1
 71
     0
 10
0.0
 20
0.0
 30
0.0
  3
*D11
  1

  0
LINE
  5
72CA
330
6EB3
100
AcDbEntity
  8
AM_5
 62
     3
370
    13
100
AcDbLine
 10
-0.0000000000000568
 20
-62.20718191039686
 30
0.0
 11
-14.52722960660152
 21
-62.20718191039686
 31
0.0
  0
LINE
  5
72CB
330
6EB3
100
AcDbEntity
  8
AM_5
 62
     3
370
    13
100
AcDbLine
 10
1.944523999999944
 20
-81.20718191039686
 30
0.0
 11
-14.52722960660152
 21
-81.20718191039686
 31
0.0
  0
LINE
  5
72CC
330
6EB3
100
AcDbEntity
  8
AM_5
 62
     3
370
    13
100
AcDbLine
 10
-13.52722960660152
 20
-64.70718191039686
 30
0.0
 11
-13.52722960660152
 21
-78.70718191039686
 31
0.0
  0
INSERT
  5
72CD
330
6EB3
100
AcDbEntity
  8
AM_5
 62
     3
370
    13
100
AcDbBlockReference
  2
_Open30
 10
-13.52722960660152
 20
-62.20718191039686
 30
0.0
 41
2.5
 42
2.5
 43
2.5
 50
90.0
  0
INSERT
  5
72CE
330
6EB3
100
AcDbEntity
  8
AM_5
 62
     3
370
    13
100
AcDbBlockReference
  2
_Open30
 10
-13.52722960660152
 20
-81.20718191039686
 30
0.0
 41
2.5
 42
2.5
 43
2.5
 50
270.0
  0
MTEXT
  5
72CF
330
6EB3
100
AcDbEntity
  8
AM_5
 62
     2
370
    13
100
AcDbMText
 10
-16.92722960660151
 20
-71.32542934242386
 30
0.0
 40
3.8
 41
0.0
 71
     5
 72
     1
  1
19
 11
6.123031769111886E-17
 21
1.0
 31
0.0
 73
     1
 44
1.0
  0
POINT
  5
72D0
330
6EB3
100
AcDbEntity
  8
Defpoints
 62
     0
370
    13
100
AcDbPoint
 10
-0.0000000000000568
 20
-62.20718191039686
 30
0.0
  0
POINT
  5
72D1
330
6EB3
100
AcDbEntity
  8
Defpoints
 62
     0
370
    13
100
AcDbPoint
 10
1.944523999999944
 20
-81.20718191039686
 30
0.0
  0
POINT
  5
72D2
330
6EB3
100
AcDbEntity
  8
Defpoints
 62
     0
370
    13
100
AcDbPoint
 10
-13.52722960660152
 20
-81.20718191039686
 30
0.0
  0
ENDBLK
  5
6EBE
330
6EB3
100
AcDbEntity
  8
0
370
    13
100
AcDbBlockEnd
  0
BLOCK
  5
6EE7
330
6ED7
100
AcDbEntity
  8
0
370
    13
100
AcDbBlockBegin
  2
*D12
 70
     1
 71
     0
 10
0.0
 20
0.0
 30
0.0
  3
*D12
  1

  0
LINE
  5
72D3
330
6ED7
100
AcDbEntity
  8
AM_5
 62
     3
370
    13
100
AcDbLine
 10
-0.0000008576597743
 20
-62.20718191039686
 30
0.0
 11
-14.4999411048892
 21
-60.93860042421574
 31
0.0
  0
LINE
  5
72D4
330
6ED7
100
AcDbEntity
  8
AM_5
 62
     3
370
    13
100
AcDbLine
 10
-0.9227586430446237
 20
-62.20718191039686
 30
0.0
 11
-14.55532861626093
 21
-62.20718191039686
 31
0.0
  0
ARC
  5
72D5
330
6ED7
100
AcDbEntity
  8
AM_5
 62
     3
370
    13
100
AcDbCircle
 10
-0.0000008576597743
 20
-62.20718191039686
 30
0.0
 40
13.55532775860115
100
AcDbArc
 50
153.8358838194789
 51
164.4179397671755
  0
ARC
  5
72D6
330
6ED7
100
AcDbEntity
  8
AM_5
 62
     3
370
    13
100
AcDbCircle
 10
-0.0000008576597743
 20
-62.20718191039686
 30
0.0
 40
13.55532775860115
100
AcDbArc
 50
174.999995714872
 51
180.0
  0
INSERT
  5
72D7
330
6ED7
100
AcDbEntity
  8
AM_5
 62
     3
370
    13
100
AcDbBlockReference
  2
_Open30
 10
-13.5037464133158
 20
-61.02575624146839
 30
0.0
 41
2.5
 42
2.5
 43
2.5
 50
259.7089677410237
  0
MTEXT
  5
72D8
330
6ED7
100
AcDbEntity
  8
AM_5
 62
     2
370
    13
100
AcDbMText
 10
-13.819220344292
 20
-52.38311390463291
 30
0.0
 40
3.8
 41
0.0
 71
     5
 72
     1
  1
5°
 11
0.5794089117964936
 21
0.8150370009581179
 31
0.0
 73
     1
 44
1.0
  0
POINT
  5
72D9
330
6ED7
100
AcDbEntity
  8
Defpoints
 62
     0
370
    13
100
AcDbPoint
 10
-13.54959402613824
 20
-61.81292867727773
 30
0.0
  0
POINT
  5
72DA
330
6ED7
100
AcDbEntity
  8
Defpoints
 62
     0
370
    13
100
AcDbPoint
 10
-0.0000000000000604
 20
-62.20718191039686
 30
0.0
  0
POINT
  5
72DB
330
6ED7
100
AcDbEntity
  8
Defpoints
 62
     0
370
    13
100
AcDbPoint
 10
0.591640999999985
 20
-62.25894391039685
 30
0.0
  0
POINT
  5
72DC
330
6ED7
100
AcDbEntity
  8
Defpoints
 62
     0
370
    13
100
AcDbPoint
 10
8.288482999999925
 20
-62.93233091039685
 30
0.0
  0
POINT
  5
72DD
330
6ED7
100
AcDbEntity
  8
Defpoints
 62
     0
370
    13
100
AcDbPoint
 10
-0.9227586430446237
 20
-62.20718191039686
 30
0.0
  0
ENDBLK
  5
6EE8
330
6ED7
100
AcDbEntity
  8
0
370
    13
100
AcDbBlockEnd
  0
BLOCK
  5
6FC5
330
6FBB
100
AcDbEntity
  8
0
370
    13
100
AcDbBlockBegin
  2
*D13
 70
     1
 71
     0
 10
0.0
 20
0.0
 30
0.0
  3
*D13
  1

  0
LINE
  5
72DE
330
6FBB
100
AcDbEntity
  8
AM_5
 62
     3
370
    13
100
AcDbLine
 10
0.0
 20
0.0
 30
0.0
 11
0.0000000000000027
 21
43.43397483942019
 31
0.0
  0
LINE
  5
72DF
330
6FBB
100
AcDbEntity
  8
AM_5
 62
     3
370
    13
100
AcDbLine
 10
25.99999999999994
 20
29.0
 30
0.0
 11
25.99999999999994
 21
43.43397483942019
 31
0.0
  0
LINE
  5
72E0
330
6FBB
100
AcDbEntity
  8
AM_5
 62
     3
370
    13
100
AcDbLine
 10
2.500000000000003
 20
42.43397483942019
 30
0.0
 11
23.49999999999994
 21
42.43397483942019
 31
0.0
  0
INSERT
  5
72E1
330
6FBB
100
AcDbEntity
  8
AM_5
 62
     3
370
    13
100
AcDbBlockReference
  2
_Open30
 10
0.0000000000000026
 20
42.43397483942019
 30
0.0
 41
2.5
 42
2.5
 43
2.5
 50
180.0
  0
INSERT
  5
72E2
330
6FBB
100
AcDbEntity
  8
AM_5
 62
     3
370
    13
100
AcDbBlockReference
  2
_Open30
 10
25.99999999999994
 20
42.43397483942019
 30
0.0
 41
2.5
 42
2.5
 43
2.5
  0
MTEXT
  5
72E3
330
6FBB
100
AcDbEntity
  8
AM_5
 62
     2
370
    13
100
AcDbMText
 10
12.99999999999997
 20
45.83434885516822
 30
0.0
 40
3.8
 41
0.0
 71
     5
 72
     1
  1
26
 73
     1
 44
1.0
  0
POINT
  5
72E4
330
6FBB
100
AcDbEntity
  8
Defpoints
 62
     0
370
    13
100
AcDbPoint
 10
0.0
 20
0.0
 30
0.0
  0
POINT
  5
72E5
330
6FBB
100
AcDbEntity
  8
Defpoints
 62
     0
370
    13
100
AcDbPoint
 10
25.99999999999994
 20
29.0
 30
0.0
  0
POINT
  5
72E6
330
6FBB
100
AcDbEntity
  8
Defpoints
 62
     0
370
    13
100
AcDbPoint
 10
25.99999999999994
 20
42.43397483942019
 30
0.0
  0
ENDBLK
  5
6FC6
330
6FBB
100
AcDbEntity
  8
0
370
    13
100
AcDbBlockEnd
  0
ENDSEC
  0
SECTION
  2
ENTITIES
  0
MTEXT
  5
2E3B
330
1F
100
AcDbEntity
  8
AM_5
 62
     2
370
    13
100
AcDbMText
 10
58.05642293843363
 20
96.00167122089064
 30
0.0
 40
3.15
 41
0.0
 71
     7
 72
     5
  1

  7
ACJISTS
 73
     1
 44
1.0
  0
TEXT
  5
6173
330
1F
100
AcDbEntity
  8
AM_6
  6
Continuous
 62
     0
370
    30
100
AcDbText
 10
58.93498824639534
 20
-99.73897900275713
 30
0.0
 40
3.8
  1
FP25R-33
  7
ACISOTS
100
AcDbText
  0
LINE
  5
6705
330
1F
100
AcDbEntity
  8
AM_0
100
AcDbLine
 10
17.39899399999996
 20
22.104761
 30
0.0
 11
16.12194999999997
 21
20.18687900000001
 31
0.0
  0
LINE
  5
6706
330
1F
100
AcDbEntity
  8
AM_0
100
AcDbLine
 10
16.38904199999996
 20
24.17783600000001
 30
0.0
 11
17.39899399999996
 21
22.104761
 31
0.0
  0
LINE
  5
6707
330
1F
100
AcDbEntity
  8
AM_0
100
AcDbLine
 10
14.10204599999997
 20
24.33302800000001
 30
0.0
 11
16.38904199999996
 21
24.17783600000001
 31
0.0
  0
LINE
  5
6708
330
1F
100
AcDbEntity
  8
AM_0
100
AcDbLine
 10
12.82500199999993
 20
22.41514600000002
 30
0.0
 11
14.10204599999997
 21
24.33302800000001
 31
0.0
  0
LINE
  5
6709
330
1F
100
AcDbEntity
  8
AM_0
100
AcDbLine
 10
13.83495399999993
 20
20.342071
 30
0.0
 11
12.82500199999993
 21
22.41514600000002
 31
0.0
  0
LINE
  5
670A
330
1F
100
AcDbEntity
  8
AM_0
100
AcDbLine
 10
16.12194999999997
 20
20.18687900000001
 30
0.0
 11
13.83495399999993
 21
20.342071
 31
0.0
  0
LINE
  5
670B
330
1F
100
AcDbEntity
  8
AM_0
100
AcDbLine
 10
16.38904199999996
 20
24.17783600000001
 30
0.0
 11
16.08438199999995
 21
24.179351
 31
0.0
  0
LINE
  5
670C
330
1F
100
AcDbEntity
  8
AM_0
100
AcDbLine
 10
14.08984099999998
 20
24.31469799999999
 30
0.0
 11
16.08438199999995
 21
24.179351
 31
0.0
  0
LINE
  5
670D
330
1F
100
AcDbEntity
  8
AM_0
100
AcDbLine
 10
17.39899399999996
 20
22.104761
 30
0.0
 11
17.09433299999995
 21
22.10627600000001
 31
0.0
  0
LINE
  5
670E
330
1F
100
AcDbEntity
  8
AM_0
100
AcDbLine
 10
17.09433299999995
 20
22.10627600000001
 30
0.0
 11
15.82949499999995
 21
20.20672400000001
 31
0.0
  0
LINE
  5
670F
330
1F
100
AcDbEntity
  8
AM_0
100
AcDbLine
 10
16.08438199999995
 20
24.179351
 30
0.0
 11
17.09433299999995
 21
22.10627600000001
 31
0.0
  0
LINE
  5
6714
330
1F
100
AcDbEntity
  8
AM_0
100
AcDbLine
 10
22.87070099999994
 20
29.18933300000001
 30
0.0
 11
9.487191999999936
 21
33.054487
 31
0.0
  0
LINE
  5
6719
330
1F
100
AcDbEntity
  8
AM_0
100
AcDbLine
 10
10.65985699999993
 20
3.692552000000006
 30
0.0
 11
15.99680099999995
 21
4.067325000000011
 31
0.0
  0
LINE
  5
671F
330
1F
100
AcDbEntity
  8
AM_0
100
AcDbLine
 10
8.863846999999964
 20
33.14427700000002
 30
0.0
 11
7.936169999999947
 21
33.14889100000002
 31
0.0
  0
LINE
  5
6721
330
1F
100
AcDbEntity
  8
AM_0
100
AcDbLine
 10
19.68244599999991
 20
6.137608
 30
0.0
 11
24.26577099999997
 21
13.823545
 31
0.0
  0
LINE
  5
6722
330
1F
100
AcDbEntity
  8
AM_0
100
AcDbLine
 10
24.75588399999992
 20
15.48289600000001
 30
0.0
 11
24.94907999999998
 21
26.648203
 31
0.0
  0
LINE
  5
6723
330
1F
100
AcDbEntity
  8
AM_0
100
AcDbLine
 10
9.912910999999951
 20
3.696267000000006
 30
0.0
 11
10.65985699999993
 21
3.692552000000006
 31
0.0
  0
LINE
  5
6724
330
1F
100
AcDbEntity
  8
AM_0
100
AcDbLine
 10
9.055216999999971
 20
4.453982999999994
 30
0.0
 11
9.320357999999942
 21
4.452663999999999
 31
0.0
  0
LINE
  5
6726
330
1F
100
AcDbEntity
  8
AM_0
100
AcDbLine
 10
5.055459999999926
 20
31.00423800000002
 30
0.0
 11
4.957967999999937
 21
31.00472300000001
 31
0.0
  0
LINE
  5
6728
330
1F
100
AcDbEntity
  8
AM_0
100
AcDbLine
 10
2.465514999999982
 20
26.661069
 30
0.0
 11
5.055459999999926
 21
31.00423800000002
 31
0.0
  0
LINE
  5
672A
330
1F
100
AcDbEntity
  8
AM_0
100
AcDbLine
 10
2.805109999999957
 20
23.108597
 30
0.0
 11
6.505305999999962
 21
18.96871400000001
 31
0.0
  0
LINE
  5
672B
330
1F
100
AcDbEntity
  8
AM_0
100
AcDbLine
 10
9.122093999999947
 20
14.70903100000001
 30
0.0
 11
8.756500999999958
 21
14.710849
 31
0.0
  0
LINE
  5
672D
330
1F
100
AcDbEntity
  8
AM_0
100
AcDbLine
 10
9.291080999999963
 20
4.711792000000003
 30
0.0
 11
9.418943999999954
 21
12.101315
 31
0.0
  0
LINE
  5
672F
330
1F
100
AcDbEntity
  8
AM_0
100
AcDbLine
 10
0.8674749999999563
 20
15.852677
 30
0.0
 11
4.484818999999959
 21
13.670526
 31
0.0
  0
LINE
  5
6730
330
1F
100
AcDbEntity
  8
AM_0
100
AcDbLine
 10
0.5916409999999814
 20
0.0501390000000015
 30
0.0
 11
8.056092999999919
 21
4.202904000000018
 31
0.0
  0
LINE
  5
6731
330
1F
100
AcDbEntity
  8
AM_0
100
AcDbLine
 10
0.2638049999999339
 20
15.51683199999999
 30
0.0
 11
0.0000619999999572
 21
0.4070079999999905
 31
0.0
  0
LINE
  5
6732
330
1F
100
AcDbEntity
  8
AM_0
100
AcDbLine
 10
26.24992899999995
 20
25.0
 30
0.0
 11
140.0
 21
25.0
 31
0.0
  0
LINE
  5
6733
330
1F
100
AcDbEntity
  8
AM_0
100
AcDbLine
 10
140.0
 20
6.0
 30
0.0
 11
140.0
 21
25.0
 31
0.0
  0
LINE
  5
6735
330
1F
100
AcDbEntity
  8
AM_0
100
AcDbLine
 10
26.24865699999998
 20
6.0
 30
0.0
 11
140.0
 21
6.0
 31
0.0
  0
LINE
  5
6736
330
1F
100
AcDbEntity
  8
AM_0
100
AcDbLine
 10
26.00569099999996
 20
6.0
 30
0.0
 11
26.00695299999995
 21
25.0
 31
0.0
  0
LINE
  5
6737
330
1F
100
AcDbEntity
  8
AM_0
100
AcDbLine
 10
26.00695299999995
 20
25.0
 30
0.0
 11
26.24992899999995
 21
25.0
 31
0.0
  0
LINE
  5
6738
330
1F
100
AcDbEntity
  8
AM_0
100
AcDbLine
 10
26.00569099999996
 20
6.0
 30
0.0
 11
26.24865699999998
 21
6.0
 31
0.0
  0
LINE
  5
6739
330
1F
100
AcDbEntity
  8
AM_0
100
AcDbLine
 10
0.2568809999999644
 20
16.08133799999999
 30
0.0
 11
0.5623589999999581
 21
15.89705900000001
 31
0.0
  0
LINE
  5
673A
330
1F
100
AcDbEntity
  8
AM_0
100
AcDbLine
 10
4.996702154066952
 20
31.00453030660236
 30
0.0
 11
3.203666999999939
 21
27.89890199999999
 31
0.0
  0
LINE
  5
673B
330
1F
100
AcDbEntity
  8
AM_0
100
AcDbLine
 10
2.286028999999928
 20
26.309506
 30
0.0
 11
0.3788769999999317
 21
23.00622300000001
 31
0.0
  0
LINE
  5
673C
330
1F
100
AcDbEntity
  8
AM_0
100
AcDbLine
 10
11.07179699999995
 20
33.0
 30
0.0
 11
9.675858999999946
 21
33.0
 31
0.0
  0
LINE
  5
673D
330
1F
100
AcDbEntity
  8
AM_0
100
AcDbLine
 10
11.07179699999995
 20
33.0
 30
0.0
 11
25.99999999999994
 21
29.0
 31
0.0
  0
LINE
  5
673E
330
1F
100
AcDbEntity
  8
AM_0
100
AcDbLine
 10
25.99999999999994
 20
29.0
 30
0.0
 11
25.99999999999994
 21
25.0
 31
0.0
  0
LINE
  5
673F
330
1F
100
AcDbEntity
  8
AM_0
100
AcDbLine
 10
25.99999999999994
 20
6.0
 30
0.0
 11
23.06279199999995
 21
3.062792000000002
 31
0.0
  0
LINE
  5
6740
330
1F
100
AcDbEntity
  8
AM_0
100
AcDbLine
 10
23.06279199999995
 20
3.062792000000002
 30
0.0
 11
5.199999999999932
 21
1.5
 31
0.0
  0
LINE
  5
6741
330
1F
100
AcDbEntity
  8
AM_0
100
AcDbLine
 10
5.199999999999932
 20
1.5
 30
0.0
 11
3.197715999999957
 21
1.5
 31
0.0
  0
LINE
  5
6742
330
1F
100
AcDbEntity
  8
AM_0
100
AcDbLine
 10
0.3788769999999317
 20
23.00622300000001
 30
0.0
 11
0.2568809999999644
 21
16.08133799999999
 31
0.0
  0
LINE
  5
6743
330
1F
100
AcDbEntity
  8
AM_0
100
AcDbLine
 10
0.3517229999999358
 20
15.76052799999999
 30
0.0
 11
0.2568809999999644
 21
16.08133799999999
 31
0.0
  0
LINE
  5
6744
330
1F
100
AcDbEntity
  8
AM_0
100
AcDbLine
 10
2.150999999999954
 20
2.790391
 30
0.0
 11
5.686072999999965
 21
3.607327999999995
 31
0.0
  0
LINE
  5
6746
330
1F
100
AcDbEntity
  8
AM_0
100
AcDbLine
 10
5.262092999999936
 20
4.653636000000006
 30
0.0
 11
5.402720999999929
 21
12.78093000000001
 31
0.0
  0
LINE
  5
6749
330
1F
100
AcDbEntity
  8
AM_0
100
AcDbLine
 10
8.855104880045417
 20
14.71035866825426
 30
0.0
 11
3.874858999999958
 21
13.45883000000001
 31
0.0
  0
LINE
  5
674E
330
1F
100
AcDbEntity
  8
AM_0
100
AcDbLine
 10
6.551242999999943
 20
4.824600000000004
 30
0.0
 11
6.694529999999929
 21
13.10556
 31
0.0
  0
LINE
  5
6750
330
1F
100
AcDbEntity
  8
AM_0
100
AcDbLine
 10
5.686714999999936
 20
3.607483000000002
 30
0.0
 11
9.306636999999967
 21
4.517164000000008
 31
0.0
  0
LINE
  5
6755
330
1F
100
AcDbEntity
  8
AM_0
100
AcDbLine
 10
7.691561999999976
 20
13.35611299999999
 30
0.0
 11
7.548274999999933
 21
5.075152000000003
 31
0.0
  0
LINE
  5
6757
330
1F
100
AcDbEntity
  8
AM_0
100
AcDbLine
 10
8.046790999999928
 20
5.200429000000014
 30
0.0
 11
8.190077999999971
 21
13.48138900000001
 31
0.0
  0
LINE
  5
6759
330
1F
100
AcDbEntity
  8
AM_0
100
AcDbLine
 10
9.187109999999962
 20
13.731942
 30
0.0
 11
9.043821999999977
 21
5.450981000000013
 31
0.0
  0
LINE
  5
675C
330
1F
100
AcDbEntity
  8
AM_0
100
AcDbLine
 10
1.434335999999917
 20
12.92360600000001
 30
0.0
 11
2.711489999999913
 21
13.24316200000001
 31
0.0
  0
LINE
  5
6767
330
1F
100
AcDbEntity
  8
AM_0
100
AcDbLine
 10
1.271008999999935
 20
3.484524999999991
 30
0.0
 11
1.434335999999917
 21
12.92360600000001
 31
0.0
  0
LINE
  5
6768
330
1F
100
AcDbEntity
  8
AM_0
100
AcDbLine
 10
1.965220999999929
 20
2.772369999999995
 30
0.0
 11
1.988405999999941
 21
2.772254000000004
 31
0.0
  0
LINE
  5
676C
330
1F
100
AcDbEntity
  8
AM_0
100
AcDbLine
 10
8.956161999999949
 20
-62.99074491039686
 30
0.0
 11
8.288482999999928
 21
-62.93233091039686
 31
0.0
  0
LINE
  5
676D
330
1F
100
AcDbEntity
  8
AM_0
100
AcDbLine
 10
5.262092999999936
 20
-59.28140691039687
 30
0.0
 11
1.859204999999975
 21
-61.08202891039686
 31
0.0
  0
LINE
  5
676E
330
1F
100
AcDbEntity
  8
AM_0
100
AcDbLine
 10
1.29720999999995
 20
-62.10498091039686
 30
0.0
 11
1.271008999999935
 21
-62.31838091039685
 31
0.0
  0
LINE
  5
676F
330
1F
100
AcDbEntity
  8
AM_0
100
AcDbLine
 10
6.551242999999943
 20
-59.43958291039687
 30
0.0
 11
5.278694999999971
 21
-59.28353591039684
 31
0.0
  0
LINE
  5
6770
330
1F
100
AcDbEntity
  8
AM_0
100
AcDbLine
 10
8.046790999999928
 20
-59.62297591039686
 30
0.0
 11
7.548274999999933
 21
-59.56184491039684
 31
0.0
  0
LINE
  5
6771
330
1F
100
AcDbEntity
  8
AM_0
100
AcDbLine
 10
9.320586381206226
 20
-59.77917583451796
 30
0.0
 11
9.043821999999977
 21
-59.74523791039684
 31
0.0
  0
LINE
  5
6773
330
1F
100
AcDbEntity
  8
AM_0
100
AcDbLine
 10
6.551242999999943
 20
-59.43958291039687
 30
0.0
 11
6.694529999999929
 21
-59.45211891039685
 31
0.0
  0
LINE
  5
6775
330
1F
100
AcDbEntity
  8
AM_0
100
AcDbLine
 10
5.402720999999929
 20
-59.29370991039684
 30
0.0
 11
6.694529999999929
 21
-59.45211891039685
 31
0.0
  0
LINE
  5
6776
330
1F
100
AcDbEntity
  8
AM_0
100
AcDbLine
 10
5.262092999999936
 20
-59.28140691039687
 30
0.0
 11
5.402720999999929
 21
-59.29370991039684
 31
0.0
  0
LINE
  5
6777
330
1F
100
AcDbEntity
  8
AM_0
100
AcDbLine
 10
8.046790999999928
 20
-59.62297591039686
 30
0.0
 11
8.190077999999971
 21
-59.63551191039684
 31
0.0
  0
LINE
  5
6778
330
1F
100
AcDbEntity
  8
AM_0
100
AcDbLine
 10
7.691561999999976
 20
-59.57438091039685
 30
0.0
 11
8.190077999999971
 21
-59.63551191039684
 31
0.0
  0
LINE
  5
6779
330
1F
100
AcDbEntity
  8
AM_0
100
AcDbLine
 10
7.691561999999976
 20
-59.57438091039685
 30
0.0
 11
7.548274999999933
 21
-59.56184491039684
 31
0.0
  0
LINE
  5
677A
330
1F
100
AcDbEntity
  8
AM_0
100
AcDbLine
 10
9.187109999999962
 20
-59.75777391039685
 30
0.0
 11
9.321195365961899
 21
-59.77421583264932
 31
0.0
  0
LINE
  5
677B
330
1F
100
AcDbEntity
  8
AM_0
100
AcDbLine
 10
9.187109999999962
 20
-59.75777391039685
 30
0.0
 11
9.043821999999977
 21
-59.74523791039684
 31
0.0
  0
LINE
  5
677C
330
1F
100
AcDbEntity
  8
AM_0
100
AcDbLine
 10
14.65331099999992
 20
-63.99109091039685
 30
0.0
 11
14.72807599999993
 21
-63.71121891039685
 31
0.0
  0
LINE
  5
677E
330
1F
100
AcDbEntity
  8
AM_0
100
AcDbLine
 10
17.39899399999996
 20
-52.32428891039686
 30
0.0
 11
16.12194999999997
 21
-52.16866491039684
 31
0.0
  0
LINE
  5
677F
330
1F
100
AcDbEntity
  8
AM_0
100
AcDbLine
 10
16.38904199999996
 20
-52.19902191039685
 30
0.0
 11
17.39899399999996
 21
-52.32428891039686
 31
0.0
  0
LINE
  5
6780
330
1F
100
AcDbEntity
  8
AM_0
100
AcDbLine
 10
14.10204599999997
 20
-51.91813091039685
 30
0.0
 11
16.38904199999996
 21
-52.19902191039685
 31
0.0
  0
LINE
  5
6781
330
1F
100
AcDbEntity
  8
AM_0
100
AcDbLine
 10
12.82500199999993
 20
-51.76250791039686
 30
0.0
 11
14.10204599999997
 21
-51.91813091039685
 31
0.0
  0
LINE
  5
6782
330
1F
100
AcDbEntity
  8
AM_0
100
AcDbLine
 10
13.83495399999993
 20
-51.88777491039687
 30
0.0
 11
12.82500199999993
 21
-51.76250791039686
 31
0.0
  0
LINE
  5
6783
330
1F
100
AcDbEntity
  8
AM_0
100
AcDbLine
 10
16.12194999999997
 20
-52.16866491039684
 30
0.0
 11
13.83495399999993
 21
-51.88777491039687
 31
0.0
  0
LINE
  5
6784
330
1F
100
AcDbEntity
  8
AM_0
100
AcDbLine
 10
0.8005649999999491
 20
-68.66151691039684
 30
0.0
 11
0.4532049999999686
 21
-68.63112691039686
 31
0.0
  0
LINE
  5
6785
330
1F
100
AcDbEntity
  8
AM_0
100
AcDbLine
 10
1.977825999999936
 20
-65.57236691039685
 30
0.0
 11
0.891762999999969
 21
-65.47734791039686
 31
0.0
  0
LINE
  5
6787
330
1F
100
AcDbEntity
  8
AM_0
100
AcDbLine
 10
17.14699399999995
 20
-54.93873691039684
 30
0.0
 11
13.03721399999995
 21
-54.43431891039685
 31
0.0
  0
LINE
  5
678A
330
1F
100
AcDbEntity
  8
AM_0
100
AcDbLine
 10
9.987142999999946
 20
-63.12933491039684
 30
0.0
 11
15.22713699999997
 21
-63.77247091039685
 31
0.0
  0
LINE
  5
678C
330
1F
100
AcDbEntity
  8
AM_0
100
AcDbLine
 10
8.95476599999995
 20
-63.00211891039685
 30
0.0
 11
9.320358000256647
 21
-60.02447890830547
 31
0.0
  0
LINE
  5
678D
330
1F
100
AcDbEntity
  8
AM_0
100
AcDbLine
 10
13.02319099999994
 20
-54.43125691039685
 30
0.0
 11
12.93111199999993
 21
-54.42320091039684
 31
0.0
  0
LINE
  5
678E
330
1F
100
AcDbEntity
  8
AM_0
100
AcDbLine
 10
13.03721399999995
 20
-54.43431891039685
 30
0.0
 11
13.12731599999995
 21
-54.44220191039685
 31
0.0
  0
LINE
  5
6791
330
1F
100
AcDbEntity
  8
AM_0
100
AcDbLine
 10
22.12081999999998
 20
-55.54432591039685
 30
0.0
 11
17.14699399999995
 21
-54.93873691039684
 31
0.0
  0
LINE
  5
6793
330
1F
100
AcDbEntity
  8
AM_0
100
AcDbLine
 10
19.50748999999996
 20
-64.29615491039687
 30
0.0
 11
19.87308199999995
 21
-61.31851491039684
 31
0.0
  0
LINE
  5
6794
330
1F
100
AcDbEntity
  8
AM_0
100
AcDbLine
 10
23.66806399999996
 20
-61.78057391039685
 30
0.0
 11
19.87308199999995
 21
-61.31851491039684
 31
0.0
  0
LINE
  5
6795
330
1F
100
AcDbEntity
  8
AM_0
100
AcDbLine
 10
19.13479499999994
 20
-64.25077691039685
 30
0.0
 11
19.50748999999996
 21
-64.29615491039687
 31
0.0
  0
LINE
  5
6796
330
1F
100
AcDbEntity
  8
AM_0
100
AcDbLine
 10
20.45332699999995
 20
-55.33263191039686
 30
0.0
 11
22.30879699999991
 21
-55.56077191039685
 31
0.0
  0
LINE
  5
6797
330
1F
100
AcDbEntity
  8
AM_0
100
AcDbLine
 10
22.30879699999991
 20
-55.56077191039685
 30
0.0
 11
22.12081999999998
 21
-55.54432591039685
 31
0.0
  0
LINE
  5
6799
330
1F
100
AcDbEntity
  8
AM_0
100
AcDbLine
 10
23.37384799999995
 20
-64.75403891039684
 30
0.0
 11
23.73788499999995
 21
-61.78907191039686
 31
0.0
  0
LINE
  5
679B
330
1F
100
AcDbEntity
  8
AM_0
100
AcDbLine
 10
22.25559299999998
 20
-64.62684891039686
 30
0.0
 11
22.62071299999991
 21
-61.65305291039685
 31
0.0
  0
LINE
  5
679C
330
1F
100
AcDbEntity
  8
AM_0
100
AcDbLine
 10
23.03303999999991
 20
-64.72422191039685
 30
0.0
 11
22.25559299999998
 21
-64.62684891039686
 31
0.0
  0
LINE
  5
679D
330
1F
100
AcDbEntity
  8
AM_0
100
AcDbLine
 10
19.50825099999997
 20
-64.28995491039686
 30
0.0
 11
22.25559299999998
 21
-64.62684891039686
 31
0.0
  0
LINE
  5
679F
330
1F
100
AcDbEntity
  8
AM_0
100
AcDbLine
 10
24.92039299999993
 20
-58.90398091039685
 30
0.0
 11
24.19332399999996
 21
-64.82573391039684
 31
0.0
  0
LINE
  5
67A0
330
1F
100
AcDbEntity
  8
AM_0
100
AcDbLine
 10
21.38741899999997
 20
-64.58024891039685
 30
0.0
 11
21.39465899999993
 21
-64.52127691039685
 31
0.0
  0
LINE
  5
67A2
330
1F
100
AcDbEntity
  8
AM_0
100
AcDbLine
 10
15.77709799999997
 20
-64.08940891039684
 30
0.0
 11
15.80727199999996
 21
-63.84365391039685
 31
0.0
  0
LINE
  5
67A4
330
1F
100
AcDbEntity
  8
AM_0
100
AcDbLine
 10
8.590218999999934
 20
-53.87885391039686
 30
0.0
 11
6.114660999999956
 21
-53.57321491039684
 31
0.0
  0
LINE
  5
67A6
330
1F
100
AcDbEntity
  8
AM_0
100
AcDbLine
 10
6.114660999999956
 20
-53.57321491039684
 30
0.0
 11
8.588215999999932
 21
-53.87438291039686
 31
0.0
  0
LINE
  5
67A7
330
1F
100
AcDbEntity
  8
AM_0
100
AcDbLine
 10
8.588215999999932
 20
-53.87438291039686
 30
0.0
 11
9.115517999999952
 21
-53.93858491039683
 31
0.0
  0
LINE
  5
67A8
330
1F
100
AcDbEntity
  8
AM_0
100
AcDbLine
 10
2.959691999999961
 20
-54.65190991039682
 30
0.0
 11
2.19181599999996
 21
-60.90602891039686
 31
0.0
  0
LINE
  5
67A9
330
1F
100
AcDbEntity
  8
AM_0
100
AcDbLine
 10
24.19377499999996
 20
-64.82577291039685
 30
0.0
 11
24.92718999999994
 21
-58.85232391039685
 31
0.0
  0
LINE
  5
67AA
330
1F
100
AcDbEntity
  8
AM_0
100
AcDbLine
 10
0.2191269999999577
 20
-64.29203591039685
 30
0.0
 11
0.5916409999999814
 21
-62.25894391039685
 31
0.0
  0
LINE
  5
67AB
330
1F
100
AcDbEntity
  8
AM_0
100
AcDbLine
 10
0.2191269999999577
 20
-64.29203591039685
 30
0.0
 11
0.0000619999999572
 21
-62.20718791039684
 31
0.0
  0
LINE
  5
67AC
330
1F
100
AcDbEntity
  8
AM_0
100
AcDbLine
 10
0.891762999999969
 20
-65.47734791039686
 30
0.0
 11
0.6937919999999167
 21
-65.46002791039686
 31
0.0
  0
LINE
  5
67AD
330
1F
100
AcDbEntity
  8
AM_0
100
AcDbLine
 10
0.6937919999999167
 20
-65.46002791039686
 30
0.0
 11
0.3451829999999632
 21
-65.42952891039685
 31
0.0
  0
LINE
  5
67AE
330
1F
100
AcDbEntity
  8
AM_0
100
AcDbLine
 10
0.3451829999999632
 20
-65.42952891039685
 30
0.0
 11
0.2191269999999577
 21
-64.29203591039685
 31
0.0
  0
LINE
  5
67B0
330
1F
100
AcDbEntity
  8
AM_0
100
AcDbLine
 10
0.5916409999999814
 20
-62.25894391039685
 30
0.0
 11
8.288482999999928
 21
-62.93233091039686
 31
0.0
  0
LINE
  5
67B1
330
1F
100
AcDbEntity
  8
AM_0
100
AcDbLine
 10
13.82412699999998
 20
-63.91854691039686
 30
0.0
 11
13.91228799999993
 21
-63.61109191039685
 31
0.0
  0
LINE
  5
67B2
330
1F
100
AcDbEntity
  8
AM_0
100
AcDbLine
 10
5.199999999999932
 20
-81.20718191039686
 30
0.0
 11
23.06279199999995
 21
-81.20718191039686
 31
0.0
  0
LINE
  5
67B3
330
1F
100
AcDbEntity
  8
AM_0
100
AcDbLine
 10
5.199999999999932
 20
-81.20718191039686
 30
0.0
 11
5.199999999999932
 21
-63.16403291039686
 31
0.0
  0
LINE
  5
67B4
330
1F
100
AcDbEntity
  8
AM_0
100
AcDbLine
 10
23.06279199999995
 20
-81.20718191039686
 30
0.0
 11
23.06279199999995
 21
-64.72682491039686
 31
0.0
  0
LINE
  5
67B5
330
1F
100
AcDbEntity
  8
AM_0
100
AcDbLine
 10
23.06279199999995
 20
-64.72682491039686
 30
0.0
 11
5.199999999999932
 21
-63.16403291039686
 31
0.0
  0
LINE
  5
67B6
330
1F
100
AcDbEntity
  8
AM_0
100
AcDbLine
 10
1.944523999999944
 20
-81.20718191039686
 30
0.0
 11
5.199999999999932
 21
-81.20718191039686
 31
0.0
  0
LINE
  5
67B7
330
1F
100
AcDbEntity
  8
AM_0
100
AcDbLine
 10
0.6240979999999468
 20
-68.64607791039686
 30
0.0
 11
1.944523999999944
 21
-81.20718191039686
 31
0.0
  0
LINE
  5
67B8
330
1F
100
AcDbEntity
  8
AM_0
100
AcDbLine
 10
1.700669999999946
 20
-68.74026591039684
 30
0.0
 11
2.049292999999921
 21
-64.75548691039684
 31
0.0
  0
LINE
  5
67B9
330
1F
100
AcDbEntity
  8
AM_0
100
AcDbLine
 10
2.049292999999921
 20
-64.75548691039684
 30
0.0
 11
2.954405999999949
 21
-62.96756891039685
 31
0.0
  0
LINE
  5
67BA
330
1F
100
AcDbEntity
  8
AM_0
100
AcDbLine
 10
1.700669999999946
 20
-68.74026591039684
 30
0.0
 11
0.8005649999999491
 21
-68.66151691039684
 31
0.0
  0
LINE
  5
67BB
330
1F
100
AcDbEntity
  8
AM_0
100
AcDbLine
 10
5.199999999999932
 20
-63.16403291039686
 30
0.0
 11
2.954405999999949
 21
-62.96756891039685
 31
0.0
  0
LINE
  5
67BC
330
1F
100
AcDbEntity
  8
AM_0
100
AcDbLine
 10
25.99999999999994
 20
-81.20718191039686
 30
0.0
 11
25.99999999999994
 21
-64.98379691039685
 31
0.0
  0
LINE
  5
67BD
330
1F
100
AcDbEntity
  8
AM_0
100
AcDbLine
 10
23.06279199999995
 20
-81.20718191039686
 30
0.0
 11
25.99999999999994
 21
-81.20718191039686
 31
0.0
  0
LINE
  5
67BE
330
1F
100
AcDbEntity
  8
AM_0
100
AcDbLine
 10
25.99999999999994
 20
-64.98379691039685
 30
0.0
 11
23.06279199999995
 21
-64.72682491039686
 31
0.0
  0
LINE
  5
67BF
330
1F
100
AcDbEntity
  8
AM_0
100
AcDbLine
 10
140.0
 20
-81.20718191039686
 30
0.0
 11
140.0
 21
-62.20718191039686
 31
0.0
  0
LINE
  5
67C0
330
1F
100
AcDbEntity
  8
AM_0
100
AcDbLine
 10
26.00569099999996
 20
-64.98429491039686
 30
0.0
 11
26.24865699999998
 21
-62.20718191039686
 31
0.0
  0
LINE
  5
67C1
330
1F
100
AcDbEntity
  8
AM_0
100
AcDbLine
 10
26.24865699999998
 20
-62.20718191039686
 30
0.0
 11
140.0
 21
-62.20718191039686
 31
0.0
  0
LINE
  5
67C2
330
1F
100
AcDbEntity
  8
AM_0
100
AcDbLine
 10
25.99999999999994
 20
-81.20718191039686
 30
0.0
 11
140.0
 21
-81.20718191039686
 31
0.0
  0
LINE
  5
67C3
330
1F
100
AcDbEntity
  8
AM_0
100
AcDbLine
 10
-0.0000000000000568
 20
-62.20718191039686
 30
0.0
 11
0.5916409999999814
 21
-62.25894391039685
 31
0.0
  0
LINE
  5
67C4
330
1F
100
AcDbEntity
  8
AM_0
100
AcDbLine
 10
0.4532049999999686
 20
-68.63112691039686
 30
0.0
 11
0.3559269999999515
 21
-68.62261591039685
 31
0.0
  0
LINE
  5
67C5
330
1F
100
AcDbEntity
  8
AM_0
100
AcDbLine
 10
0.891762999999969
 20
-65.47734791039686
 30
0.0
 11
0.6938079999999331
 21
-65.46002991039686
 31
0.0
  0
LINE
  5
67C6
330
1F
100
AcDbEntity
  8
AM_0
100
AcDbLine
 10
0.3443649999999252
 20
-65.42945691039687
 30
0.0
 11
0.3075549999999794
 21
-65.42623691039684
 31
0.0
  0
LINE
  5
67CC
330
1F
100
AcDbEntity
  8
AM_0
100
AcDbLine
 10
9.987142999999946
 20
-63.12933491039684
 30
0.0
 11
9.84864499999992
 21
-63.11232991039687
 31
0.0
  0
LINE
  5
67CD
330
1F
100
AcDbEntity
  8
AM_0
100
AcDbLine
 10
9.84864499999992
 20
-63.11232991039687
 30
0.0
 11
9.711494999999957
 21
-63.09547891039686
 31
0.0
  0
LINE
  5
67CE
330
1F
100
AcDbEntity
  8
AM_0
100
AcDbLine
 10
9.711494999999957
 20
-63.09547891039686
 30
0.0
 11
9.578363999999965
 21
-63.07910991039684
 31
0.0
  0
LINE
  5
67CF
330
1F
100
AcDbEntity
  8
AM_0
100
AcDbLine
 10
9.578363999999965
 20
-63.07910991039684
 30
0.0
 11
9.45184299999994
 21
-63.06354091039685
 31
0.0
  0
LINE
  5
67D0
330
1F
100
AcDbEntity
  8
AM_0
100
AcDbLine
 10
9.45184299999994
 20
-63.06354091039685
 30
0.0
 11
9.334396999999967
 21
-63.04907591039685
 31
0.0
  0
LINE
  5
67D1
330
1F
100
AcDbEntity
  8
AM_0
100
AcDbLine
 10
9.334396999999967
 20
-63.04907591039685
 30
0.0
 11
9.22831199999996
 21
-63.03599591039685
 31
0.0
  0
LINE
  5
67D2
330
1F
100
AcDbEntity
  8
AM_0
100
AcDbLine
 10
9.22831199999996
 20
-63.03599591039685
 30
0.0
 11
9.135652999999934
 21
-63.02455591039686
 31
0.0
  0
LINE
  5
67D3
330
1F
100
AcDbEntity
  8
AM_0
100
AcDbLine
 10
9.135652999999934
 20
-63.02455591039686
 30
0.0
 11
9.058224999999936
 21
-63.01497891039686
 31
0.0
  0
LINE
  5
67D4
330
1F
100
AcDbEntity
  8
AM_0
100
AcDbLine
 10
9.058224999999936
 20
-63.01497891039686
 30
0.0
 11
8.997535999999968
 21
-63.00745091039686
 31
0.0
  0
LINE
  5
67D5
330
1F
100
AcDbEntity
  8
AM_0
100
AcDbLine
 10
8.997535999999968
 20
-63.00745091039686
 30
0.0
 11
8.95476599999995
 21
-63.00211891039685
 31
0.0
  0
LINE
  5
67D6
330
1F
100
AcDbEntity
  8
AM_0
100
AcDbLine
 10
19.13479499999994
 20
-64.25077691039685
 30
0.0
 11
18.87023799999997
 21
-64.21853891039685
 31
0.0
  0
LINE
  5
67D7
330
1F
100
AcDbEntity
  8
AM_0
100
AcDbLine
 10
18.87023799999997
 20
-64.21853891039685
 30
0.0
 11
18.56894799999998
 21
-64.18177291039686
 31
0.0
  0
LINE
  5
67D8
330
1F
100
AcDbEntity
  8
AM_0
100
AcDbLine
 10
18.56894799999998
 20
-64.18177291039686
 30
0.0
 11
18.23369999999994
 21
-64.14081991039684
 31
0.0
  0
LINE
  5
67D9
330
1F
100
AcDbEntity
  8
AM_0
100
AcDbLine
 10
18.23369999999994
 20
-64.14081991039684
 30
0.0
 11
17.86757999999998
 21
-64.09605491039686
 31
0.0
  0
LINE
  5
67DA
330
1F
100
AcDbEntity
  8
AM_0
100
AcDbLine
 10
17.86757999999998
 20
-64.09605491039686
 30
0.0
 11
17.47395999999992
 21
-64.04789191039684
 31
0.0
  0
LINE
  5
67DB
330
1F
100
AcDbEntity
  8
AM_0
100
AcDbLine
 10
17.47395999999992
 20
-64.04789191039684
 30
0.0
 11
17.05646299999995
 21
-63.99677291039686
 31
0.0
  0
LINE
  5
67DC
330
1F
100
AcDbEntity
  8
AM_0
100
AcDbLine
 10
17.05646299999995
 20
-63.99677291039686
 30
0.0
 11
16.61893299999997
 21
-63.94316891039685
 31
0.0
  0
LINE
  5
67DD
330
1F
100
AcDbEntity
  8
AM_0
100
AcDbLine
 10
16.61893299999997
 20
-63.94316891039685
 30
0.0
 11
16.16540099999997
 21
-63.88757391039685
 31
0.0
  0
LINE
  5
67DE
330
1F
100
AcDbEntity
  8
AM_0
100
AcDbLine
 10
16.16540099999997
 20
-63.88757391039685
 30
0.0
 11
15.70003999999994
 21
-63.83049991039685
 31
0.0
  0
LINE
  5
67DF
330
1F
100
AcDbEntity
  8
AM_0
100
AcDbLine
 10
15.70003999999994
 20
-63.83049991039685
 30
0.0
 11
15.22713699999997
 21
-63.77247091039685
 31
0.0
  0
LINE
  5
67E0
330
1F
100
AcDbEntity
  8
AM_0
100
AcDbLine
 10
20.73817199999996
 20
-55.36932791039686
 30
0.0
 11
20.61680599999994
 21
-55.35420191039685
 31
0.0
  0
LINE
  5
67E1
330
1F
100
AcDbEntity
  8
AM_0
100
AcDbLine
 10
20.61680599999994
 20
-55.35420191039685
 30
0.0
 11
20.47300299999995
 21
-55.33632591039685
 31
0.0
  0
LINE
  5
67F4
330
1F
100
AcDbEntity
  8
AM_0
100
AcDbLine
 10
23.73788499999995
 20
-61.78907191039686
 30
0.0
 11
23.73105399999997
 21
-61.78824091039685
 31
0.0
  0
LINE
  5
67F5
330
1F
100
AcDbEntity
  8
AM_0
100
AcDbLine
 10
23.71735899999993
 20
-61.78657391039685
 30
0.0
 11
23.71729099999993
 21
-61.78656591039685
 31
0.0
  0
LINE
  5
67F6
330
1F
100
AcDbEntity
  8
AM_0
100
AcDbLine
 10
23.71729099999993
 20
-61.78656591039685
 30
0.0
 11
23.70339399999995
 21
-61.78487491039685
 31
0.0
  0
LINE
  5
67F7
330
1F
100
AcDbEntity
  8
AM_0
100
AcDbLine
 10
23.70339399999995
 20
-61.78487491039685
 30
0.0
 11
23.68936199999996
 21
-61.78316691039684
 31
0.0
  0
LINE
  5
67F8
330
1F
100
AcDbEntity
  8
AM_0
100
AcDbLine
 10
23.68936199999996
 20
-61.78316691039684
 30
0.0
 11
23.66806399999996
 21
-61.78057391039685
 31
0.0
  0
LINE
  5
67F9
330
1F
100
AcDbEntity
  8
AM_0
100
AcDbLine
 10
9.114786999999978
 20
-53.94177191039685
 30
0.0
 11
9.020610999999917
 21
-53.93034791039685
 31
0.0
  0
LINE
  5
67FA
330
1F
100
AcDbEntity
  8
AM_0
100
AcDbLine
 10
9.020610999999917
 20
-53.93034791039685
 30
0.0
 11
8.93543399999993
 21
-53.92003091039686
 31
0.0
  0
LINE
  5
67FB
330
1F
100
AcDbEntity
  8
AM_0
100
AcDbLine
 10
8.93543399999993
 20
-53.92003091039686
 30
0.0
 11
8.859389999999962
 21
-53.91083791039685
 31
0.0
  0
LINE
  5
67FC
330
1F
100
AcDbEntity
  8
AM_0
100
AcDbLine
 10
8.859389999999962
 20
-53.91083791039685
 30
0.0
 11
8.792595999999946
 21
-53.90278191039684
 31
0.0
  0
LINE
  5
67FD
330
1F
100
AcDbEntity
  8
AM_0
100
AcDbLine
 10
8.792595999999946
 20
-53.90278191039684
 30
0.0
 11
8.735155999999961
 21
-53.89587591039685
 31
0.0
  0
LINE
  5
67FE
330
1F
100
AcDbEntity
  8
AM_0
370
    30
100
AcDbLine
 10
-61.76057409238138
 20
1.365427000000011
 30
0.0
 11
-61.78067409238133
 21
14.526993
 31
0.0
  0
LINE
  5
67FF
330
1F
100
AcDbEntity
  8
AM_0
370
    30
100
AcDbLine
 10
-58.56354909238132
 20
1.371282000000008
 30
0.0
 11
-58.58364909238134
 21
14.532848
 31
0.0
  0
LINE
  5
6800
330
1F
100
AcDbEntity
  8
AM_0
370
    30
100
AcDbLine
 10
-61.79947409238133
 20
1.5
 30
0.0
 11
-61.76908409238138
 21
1.306749999999994
 31
0.0
  0
LINE
  5
6801
330
1F
100
AcDbEntity
  8
AM_0
370
    30
100
AcDbLine
 10
-61.78935709238135
 20
14.582213
 30
0.0
 11
-61.80404309238134
 21
14.480954
 31
0.0
  0
LINE
  5
6802
330
1F
100
AcDbEntity
  8
AM_0
370
    30
100
AcDbLine
 10
-61.76635809238132
 20
1.298508999999996
 30
0.0
 11
-58.59872709238135
 21
0.9642910000000029
 31
0.0
  0
LINE
  5
6803
330
1F
100
AcDbEntity
  8
AM_0
370
    30
100
AcDbLine
 10
-58.61882609238137
 20
14.92582300000001
 30
0.0
 11
-61.78645709238134
 21
14.59160600000001
 31
0.0
  0
LINE
  5
6804
330
1F
100
AcDbEntity
  8
AM_0
370
    30
100
AcDbLine
 10
-47.06176209238134
 20
21.56784000000002
 30
0.0
 11
-46.67724109238134
 21
25.05240599999999
 31
0.0
  0
LINE
  5
6805
330
1F
100
AcDbEntity
  8
AM_0
370
    30
100
AcDbLine
 10
-46.67709909238135
 20
25.05999800000001
 30
0.0
 11
-47.08237309238137
 21
30.64184399999999
 31
0.0
  0
LINE
  5
6806
330
1F
100
AcDbEntity
  8
AM_0
370
    30
100
AcDbLine
 10
-56.90250109238133
 20
33.032792
 30
0.0
 11
-56.91646309238138
 21
33.0
 31
0.0
  0
LINE
  5
6807
330
1F
100
AcDbEntity
  8
AM_0
370
    30
100
AcDbLine
 10
-49.23166409238138
 20
33.144305
 30
0.0
 11
-56.80166709238137
 21
33.14892699999999
 31
0.0
  0
LINE
  5
6808
330
1F
100
AcDbEntity
  8
AM_0
370
    30
100
AcDbLine
 10
-54.71331409238132
 20
14.70999700000002
 30
0.0
 11
-55.36698809238135
 21
14.710396
 31
0.0
  0
LINE
  5
6809
330
1F
100
AcDbEntity
  8
AM_0
370
    30
100
AcDbLine
 10
-52.97882609238138
 20
3.694252000000006
 30
0.0
 11
-50.18374009238136
 21
3.692544999999996
 31
0.0
  0
LINE
  5
680B
330
1F
100
AcDbEntity
  8
AM_0
370
    30
100
AcDbLine
 10
-47.54931509238134
 20
6.445761000000005
 30
0.0
 11
-47.55780209238134
 21
12.05196900000001
 31
0.0
  0
LINE
  5
680D
330
1F
100
AcDbEntity
  8
AM_0
370
    30
100
AcDbLine
 10
-55.34875709238133
 20
2.772257999999994
 30
0.0
 11
-55.32866509238136
 21
2.772245999999996
 31
0.0
  0
LINE
  5
680E
330
1F
100
AcDbEntity
  8
AM_0
370
    30
100
AcDbLine
 10
-54.86887009238137
 20
2.868798999999996
 30
0.0
 11
-52.98256509238138
 21
3.692610000000002
 31
0.0
  0
LINE
  5
680F
330
1F
100
AcDbEntity
  8
AM_0
370
    30
100
AcDbLine
 10
-52.79757009238136
 20
13.77762799999999
 30
0.0
 11
-52.88517209238137
 21
13.95715100000001
 31
0.0
  0
LINE
  5
6810
330
1F
100
AcDbEntity
  8
AM_0
370
    30
100
AcDbLine
 10
-52.52092109238134
 20
13.21068800000001
 30
0.0
 11
-52.70177909238134
 21
13.581322
 31
0.0
  0
LINE
  5
6813
330
1F
100
AcDbEntity
  8
AM_0
370
    30
100
AcDbLine
 10
-55.00068809238132
 20
13.96360000000001
 30
0.0
 11
-54.94412509238134
 21
14.24160700000002
 31
0.0
  0
LINE
  5
6814
330
1F
100
AcDbEntity
  8
AM_0
370
    30
100
AcDbLine
 10
-61.78403509238137
 20
1.5
 30
0.0
 11
-74.34514009238137
 21
1.5
 31
0.0
  0
LINE
  5
6815
330
1F
100
AcDbEntity
  8
AM_0
370
    30
100
AcDbLine
 10
-74.34514009238137
 20
26.47301400000001
 30
0.0
 11
-74.34514009238137
 21
1.5
 31
0.0
  0
LINE
  5
6816
330
1F
100
AcDbEntity
  8
AM_0
370
    30
100
AcDbLine
 10
-55.88019709238137
 20
23.00622300000001
 30
0.0
 11
-74.34514009238137
 21
26.47301400000001
 31
0.0
  0
LINE
  5
6817
330
1F
100
AcDbEntity
  8
AM_0
370
    30
100
AcDbLine
 10
-57.75298509238132
 20
15.44895800000001
 30
0.0
 11
-55.86952409238137
 21
16.08133799999999
 31
0.0
  0
LINE
  5
6818
330
1F
100
AcDbEntity
  8
AM_0
370
    30
100
AcDbLine
 10
-61.80482209238136
 20
14.98658
 30
0.0
 11
-57.75298509238132
 21
15.44895800000001
 31
0.0
  0
LINE
  5
6819
330
1F
100
AcDbEntity
  8
AM_0
370
    30
100
AcDbLine
 10
-61.78403509238137
 20
1.5
 30
0.0
 11
-61.80404309238134
 21
14.480954
 31
0.0
  0
LINE
  5
681A
330
1F
100
AcDbEntity
  8
AM_0
370
    30
100
AcDbLine
 10
-61.80404309238134
 20
14.480954
 30
0.0
 11
-61.80482209238136
 21
14.98658
 31
0.0
  0
LINE
  5
681B
330
1F
100
AcDbEntity
  8
AM_0
370
    30
100
AcDbLine
 10
-55.88019709238137
 20
23.00622300000001
 30
0.0
 11
-55.86952409238137
 21
16.08133799999999
 31
0.0
  0
LINE
  5
681C
330
1F
100
AcDbEntity
  8
AM_0
370
    30
100
AcDbLine
 10
-57.75298509238132
 20
15.44895800000001
 30
0.0
 11
-57.75905909238134
 21
15.40707399999999
 31
0.0
  0
LINE
  5
681D
330
1F
100
AcDbEntity
  8
AM_0
370
    30
100
AcDbLine
 10
-55.86952409238137
 20
16.08133799999999
 30
0.0
 11
-55.90870109238136
 21
15.81120899999999
 31
0.0
  0
LINE
  5
681E
330
1F
100
AcDbEntity
  8
AM_0
370
    30
100
AcDbLine
 10
-74.34514009238137
 20
26.47301400000001
 30
0.0
 11
-74.34514009238137
 21
33.0
 31
0.0
  0
LINE
  5
681F
330
1F
100
AcDbEntity
  8
AM_0
370
    30
100
AcDbLine
 10
-74.34514009238137
 20
33.0
 30
0.0
 11
-56.38499909238135
 21
33.0
 31
0.0
  0
LINE
  5
6820
330
1F
100
AcDbEntity
  8
AM_0
370
    30
100
AcDbLine
 10
-56.38499909238135
 20
33.0
 30
0.0
 11
-55.88019709238137
 21
23.00622300000001
 31
0.0
  0
LINE
  5
6822
330
1F
100
AcDbEntity
  8
AM_0
370
    30
100
AcDbLine
 10
-57.45306709238133
 20
15.50982400000001
 30
0.0
 11
-55.36822009238136
 21
15.51683199999999
 31
0.0
  0
LINE
  5
6823
330
1F
100
AcDbEntity
  8
AM_0
370
    30
100
AcDbLine
 10
-55.36822009238136
 20
15.51683199999999
 30
0.0
 11
-55.34514509238136
 21
0.4070079999999905
 31
0.0
  0
LINE
  5
6824
330
1F
100
AcDbEntity
  8
AM_0
370
    30
100
AcDbLine
 10
-57.42999309238132
 20
0.4000000000000057
 30
0.0
 11
-55.34514509238136
 21
0.4070079999999905
 31
0.0
  0
LINE
  5
6825
330
1F
100
AcDbEntity
  8
AM_0
370
    30
100
AcDbLine
 10
-58.56748609238139
 20
0.7739320000000021
 30
0.0
 11
-57.42999309238132
 21
0.4000000000000057
 31
0.0
  0
LINE
  5
6826
330
1F
100
AcDbEntity
  8
AM_0
370
    30
100
AcDbLine
 10
-58.56748609238139
 20
0.7739320000000021
 30
0.0
 11
-58.56809709238132
 21
1.173961999999989
 31
0.0
  0
LINE
  5
6827
330
1F
100
AcDbEntity
  8
AM_0
370
    30
100
AcDbLine
 10
-58.58879609238136
 20
14.728219
 30
0.0
 11
-58.58940709238135
 21
15.12824900000001
 31
0.0
  0
LINE
  5
6828
330
1F
100
AcDbEntity
  8
AM_0
370
    30
100
AcDbLine
 10
-58.58940709238135
 20
15.12824900000001
 30
0.0
 11
-57.45306709238133
 21
15.50982400000001
 31
0.0
  0
LINE
  5
6829
330
1F
100
AcDbEntity
  8
AM_0
370
    30
100
AcDbLine
 10
-58.59798609238135
 20
0.9678770000000156
 30
0.0
 11
-58.56748609238139
 21
0.7739320000000021
 31
0.0
  0
LINE
  5
682A
330
1F
100
AcDbEntity
  8
AM_0
370
    30
100
AcDbLine
 10
-58.58940709238135
 20
15.12824900000001
 30
0.0
 11
-58.62104609238133
 21
14.91009500000001
 31
0.0
  0
LINE
  5
682B
330
1F
100
AcDbEntity
  8
AM_0
370
    30
100
AcDbLine
 10
-57.42999309238132
 20
0.4000000000000057
 30
0.0
 11
-55.38059509238133
 21
0.0000579999999957
 31
0.0
  0
LINE
  5
682C
330
1F
100
AcDbEntity
  8
AM_0
370
    30
100
AcDbLine
 10
-55.40366909238134
 20
15.90976600000002
 30
0.0
 11
-57.45306709238133
 21
15.50982400000001
 31
0.0
  0
ARC
  5
682D
330
1F
100
AcDbEntity
  8
AM_0
100
AcDbCircle
 10
14.64662399999997
 20
22.31210100000001
 30
0.0
 40
5.944533742981871
100
AcDbArc
 50
34.97626514406606
 51
136.3948362380476
  0
ARC
  5
682E
330
1F
100
AcDbEntity
  8
AM_0
100
AcDbCircle
 10
14.69790499999994
 20
22.26325800000001
 30
0.0
 40
6.015353660208191
100
AcDbArc
 50
136.394836582492
 51
237.147520247554
  0
ARC
  5
682F
330
1F
100
AcDbEntity
  8
AM_0
100
AcDbCircle
 10
14.64423699999998
 20
22.18015
 30
0.0
 40
5.916422688321379
100
AcDbArc
 50
237.1475263286078
 51
280.7974953336213
  0
ARC
  5
6830
330
1F
100
AcDbEntity
  8
AM_0
100
AcDbCircle
 10
14.63686599999994
 20
22.21879900000002
 30
0.0
 40
5.955768260981281
100
AcDbArc
 50
280.7974959000432
 51
324.1859578127907
  0
ARC
  5
6831
330
1F
100
AcDbEntity
  8
AM_0
100
AcDbCircle
 10
15.11401499999994
 20
22.26013700000001
 30
0.0
 40
2.47935059428734
100
AcDbArc
 50
266.3760971797431
 51
359.9957479083597
  0
ARC
  5
6832
330
1F
100
AcDbEntity
  8
AM_0
100
AcDbCircle
 10
15.11426799999993
 20
22.26414300000002
 30
0.0
 40
2.48336417606138
100
AcDbArc
 50
172.8489277853843
 51
266.3761136212698
  0
ARC
  5
6833
330
1F
100
AcDbEntity
  8
AM_0
100
AcDbCircle
 10
15.11002099999996
 20
22.26467600000001
 30
0.0
 40
2.479083912985
100
AcDbArc
 50
86.36994046880271
 51
172.8489315311319
  0
ARC
  5
6834
330
1F
100
AcDbEntity
  8
AM_0
100
AcDbCircle
 10
15.10973299999995
 20
22.26013700000001
 30
0.0
 40
2.48363200681582
100
AcDbArc
 50
359.9957552393394
 51
86.36993955963729
  0
ARC
  5
6841
330
1F
100
AcDbEntity
  8
AM_0
100
AcDbCircle
 10
14.79266699999994
 20
22.16872000000001
 30
0.0
 40
6.1571793891571
100
AcDbArc
 50
268.6657557682137
 51
269.7150450634912
  0
ARC
  5
6842
330
1F
100
AcDbEntity
  8
AM_0
100
AcDbCircle
 10
14.79266999999993
 20
22.16884300000001
 30
0.0
 40
6.15730210967507
100
AcDbArc
 50
267.6164759718578
 51
268.6657545105967
  0
ARC
  5
6843
330
1F
100
AcDbEntity
  8
AM_0
100
AcDbCircle
 10
14.79269999999997
 20
22.16955200000001
 30
0.0
 40
6.15801244247395
100
AcDbArc
 50
257.5498364139245
 51
267.6164714322235
  0
ARC
  5
6844
330
1F
100
AcDbEntity
  8
AM_0
100
AcDbCircle
 10
14.79551899999996
 20
22.18231900000001
 30
0.0
 40
6.171086902906
100
AcDbArc
 50
247.5044188816093
 51
257.5498339420741
  0
ARC
  5
6845
330
1F
100
AcDbEntity
  8
AM_0
100
AcDbCircle
 10
14.79365699999994
 20
22.34018600000002
 30
0.0
 40
6.171352369304559
100
AcDbArc
 50
90.26771880961894
 51
135.1309170926256
  0
ARC
  5
6846
330
1F
100
AcDbEntity
  8
AM_0
100
AcDbCircle
 10
14.87295599999993
 20
22.261248
 30
0.0
 40
6.283243515193171
100
AcDbArc
 50
135.1309134702856
 51
179.2725081815953
  0
ARC
  5
6847
330
1F
100
AcDbEntity
  8
AM_0
100
AcDbCircle
 10
14.73460299999994
 20
22.24761700000002
 30
0.0
 40
6.27998443843374
100
AcDbArc
 50
343.9002915960541
 51
57.55033185688488
  0
ARC
  5
6848
330
1F
100
AcDbEntity
  8
AM_0
100
AcDbCircle
 10
14.79297599999995
 20
22.23076900000001
 30
0.0
 40
6.219228917306791
100
AcDbArc
 50
269.7150413522671
 51
343.9002900127366
  0
ARC
  5
6849
330
1F
100
AcDbEntity
  8
AM_0
100
AcDbCircle
 10
14.54613999999992
 20
22.26207500000001
 30
0.0
 40
6.25074929602332
100
AcDbArc
 50
359.2904609896713
 51
87.71864777511742
  0
ARC
  5
684A
330
1F
100
AcDbEntity
  8
AM_0
100
AcDbCircle
 10
14.54757399999994
 20
22.262057
 30
0.0
 40
6.24931428639599
100
AcDbArc
 50
270.849137687245
 51
359.2904631966362
  0
ARC
  5
684B
330
1F
100
AcDbEntity
  8
AM_0
100
AcDbCircle
 10
5.058390999999915
 20
25.11487
 30
0.0
 40
3.01889670227005
100
AcDbArc
 50
149.1912833344426
 51
185.436253723191
  0
ARC
  5
684C
330
1F
100
AcDbEntity
  8
AM_0
100
AcDbCircle
 10
5.048757999999964
 20
25.11395300000001
 30
0.0
 40
3.00922079255411
100
AcDbArc
 50
185.4362487321267
 51
221.790109158509
  0
ARC
  5
684F
330
1F
100
AcDbEntity
  8
AM_0
100
AcDbCircle
 10
7.92147099999994
 20
30.19348099999999
 30
0.0
 40
2.95544655317957
100
AcDbArc
 50
89.71503658752758
 51
91.57009625950673
  0
ARC
  5
6850
330
1F
100
AcDbEntity
  8
AM_0
100
AcDbCircle
 10
7.921475999999927
 20
30.193297
 30
0.0
 40
2.95563068526787
100
AcDbArc
 50
91.57009541697545
 51
93.42501822861537
  0
ARC
  5
6851
330
1F
100
AcDbEntity
  8
AM_0
100
AcDbCircle
 10
7.921486999999956
 20
30.19311400000001
 30
0.0
 40
2.95581356883769
100
AcDbArc
 50
93.42501914975829
 51
95.27994432537444
  0
ARC
  5
6852
330
1F
100
AcDbEntity
  8
AM_0
100
AcDbCircle
 10
7.921536999999944
 20
30.19256799999999
 30
0.0
 40
2.95636188915092
100
AcDbArc
 50
95.2799354842652
 51
97.13451638479648
  0
ARC
  5
6853
330
1F
100
AcDbEntity
  8
AM_0
100
AcDbCircle
 10
7.921582999999941
 20
30.192206
 30
0.0
 40
2.95672714428166
100
AcDbArc
 50
97.13452963368191
 51
98.98911001819002
  0
ARC
  5
6854
330
1F
100
AcDbEntity
  8
AM_0
100
AcDbCircle
 10
7.921723999999927
 20
30.19131300000001
 30
0.0
 40
2.95763142396682
100
AcDbArc
 50
98.98910497968653
 51
100.8431387827319
  0
ARC
  5
6855
330
1F
100
AcDbEntity
  8
AM_0
100
AcDbCircle
 10
7.921824999999956
 20
30.19078300000001
 30
0.0
 40
2.95817040331925
100
AcDbArc
 50
100.8431289568242
 51
102.6971302917332
  0
ARC
  5
6856
330
1F
100
AcDbEntity
  8
AM_0
100
AcDbCircle
 10
7.922098999999946
 20
30.18956900000001
 30
0.0
 40
2.95941495581812
100
AcDbArc
 50
102.6971393041782
 51
104.5503917964006
  0
ARC
  5
6858
330
1F
100
AcDbEntity
  8
AM_0
100
AcDbCircle
 10
7.922717999999918
 20
30.18738400000001
 30
0.0
 40
2.96168599735894
100
AcDbArc
 50
106.4036150324414
 51
108.2558670023633
  0
ARC
  5
6859
330
1F
100
AcDbEntity
  8
AM_0
100
AcDbCircle
 10
9.927339999999958
 20
4.694828000000001
 30
0.0
 40
1.00183075245922
100
AcDbArc
 50
195.308945291669
 51
232.2409962396736
  0
ARC
  5
685A
330
1F
100
AcDbEntity
  8
AM_0
100
AcDbCircle
 10
9.917815999999959
 20
4.682532000000009
 30
0.0
 40
0.986276742795855
100
AcDbArc
 50
232.2410113283289
 51
269.7150527682534
  0
ARC
  5
685B
330
1F
100
AcDbEntity
  8
AM_0
100
AcDbCircle
 10
10.29845899999998
 20
4.694361000000015
 30
0.0
 40
1.00752879593836
100
AcDbArc
 50
179.0086908029995
 51
186.4444583424667
  0
ARC
  5
685C
330
1F
100
AcDbEntity
  8
AM_0
100
AcDbCircle
 10
10.29755299999994
 20
4.694259000000017
 30
0.0
 40
1.00661672141138
100
AcDbArc
 50
186.4444773518563
 51
193.8869431148423
  0
ARC
  5
685D
330
1F
100
AcDbEntity
  8
AM_0
100
AcDbCircle
 10
-0.9450850000000628
 20
12.30960999999999
 30
0.0
 40
9.99259683902803
100
AcDbArc
 50
27.84599494912772
 51
41.79010740018129
  0
ARC
  5
685E
330
1F
100
AcDbEntity
  8
AM_0
100
AcDbCircle
 10
-0.9975400000000718
 20
12.28190000000001
 30
0.0
 40
10.0519206659365
100
AcDbArc
 50
13.9833716983286
 51
27.84599383334624
  0
ARC
  5
685F
330
1F
100
AcDbEntity
  8
AM_0
100
AcDbCircle
 10
-0.6456600000000208
 20
12.276667
 30
0.0
 40
10.066052205182
100
AcDbArc
 50
6.492612989468179
 51
13.98337275857771
  0
ARC
  5
6860
330
1F
100
AcDbEntity
  8
AM_0
100
AcDbCircle
 10
-0.6548350000000482
 20
12.275623
 30
0.0
 40
10.075286924932
100
AcDbArc
 50
359.0087020764407
 51
6.492612080014879
  0
ARC
  5
6861
330
1F
100
AcDbEntity
  8
AM_0
100
AcDbCircle
 10
0.6621209999999564
 20
15.512261
 30
0.0
 40
0.397559201090858
100
AcDbArc
 50
58.89976058808261
 51
82.96171666457325
  0
ARC
  5
6862
330
1F
100
AcDbEntity
  8
AM_0
100
AcDbCircle
 10
0.6621909999999502
 20
15.51282900000001
 30
0.0
 40
0.39698751460468
100
AcDbArc
 50
82.96169848690268
 51
107.0573559913053
  0
ARC
  5
6863
330
1F
100
AcDbEntity
  8
AM_0
100
AcDbCircle
 10
0.6625389999999243
 20
15.511695
 30
0.0
 40
0.398174057287766
100
AcDbArc
 50
107.0573642077823
 51
143.1598313493461
  0
ARC
  5
6864
330
1F
100
AcDbEntity
  8
AM_0
100
AcDbCircle
 10
0.6650309999999422
 20
15.509828
 30
0.0
 40
0.401287654010187
100
AcDbArc
 50
143.1598291142754
 51
178.9999180397537
  0
ARC
  5
6865
330
1F
100
AcDbEntity
  8
AM_0
100
AcDbCircle
 10
0.4015099999999165
 20
0.4000000000000057
 30
0.0
 40
0.401509163990063
100
AcDbArc
 50
178.999900253646
 51
202.8939726212392
  0
ARC
  5
6866
330
1F
100
AcDbEntity
  8
AM_0
100
AcDbCircle
 10
0.3999369999999658
 20
0.3993360000000052
 30
0.0
 40
0.399801961000693
100
AcDbArc
 50
202.8940077680539
 51
226.8872152653416
  0
ARC
  5
6867
330
1F
100
AcDbEntity
  8
AM_0
100
AcDbCircle
 10
0.3986569999999574
 20
0.3979690000000176
 30
0.0
 40
0.3979287621484529
100
AcDbArc
 50
226.8872375245945
 51
262.9549389402453
  0
ARC
  5
6868
330
1F
100
AcDbEntity
  8
AM_0
100
AcDbCircle
 10
0.3985609999999724
 20
0.3971930000000157
 30
0.0
 40
0.397147451585679
100
AcDbArc
 50
262.9549532043118
 51
299.0889348784169
  0
ARC
  5
6875
330
1F
100
AcDbEntity
  8
AM_0
100
AcDbCircle
 10
1.296868999999958
 20
-62.10887991039687
 30
0.0
 40
0.003913883237915
100
AcDbArc
 50
85.0017252037397
 51
263.9718367008534
  0
ARC
  5
687B
330
1F
100
AcDbEntity
  8
AM_0
100
AcDbCircle
 10
35.38700099999994
 20
104.2604520896032
 30
0.0
 40
157.616163381216
100
AcDbArc
 50
262.7872875944921
 51
263.5158780925781
  0
ARC
  5
687C
330
1F
100
AcDbEntity
  8
AM_0
100
AcDbCircle
 10
-61.67985300000004
 20
-662.7341919103968
 30
0.0
 40
615.496220473903
100
AcDbArc
 50
82.78728750274917
 51
82.97386718518267
  0
ARC
  5
687D
330
1F
100
AcDbEntity
  8
AM_0
100
AcDbCircle
 10
283.75568
 20
2140.043510089603
 30
0.0
 40
2208.48829757914
100
AcDbArc
 50
262.96443017576
 51
262.9738671583939
  0
ARC
  5
687E
330
1F
100
AcDbEntity
  8
AM_0
100
AcDbCircle
 10
87.29160399999995
 20
548.1427870896032
 30
0.0
 40
604.510104140199
100
AcDbArc
 50
262.9299535549757
 51
262.9644301923649
  0
ARC
  5
687F
330
1F
100
AcDbEntity
  8
AM_0
100
AcDbCircle
 10
12.55871999999994
 20
-54.41678491039684
 30
0.0
 40
2.66618143078843
100
AcDbArc
 50
82.92996995110431
 51
88.44785768315714
  0
ARC
  5
6880
330
1F
100
AcDbEntity
  8
AM_0
100
AcDbCircle
 10
12.63111199999992
 20
-51.74515091039686
 30
0.0
 40
0.0064331187615213
100
AcDbArc
 50
94.18079978443242
 51
268.4501579873529
  0
ARC
  5
6881
330
1F
100
AcDbEntity
  8
AM_0
100
AcDbCircle
 10
15.91249499999992
 20
-58.12066691039685
 30
0.0
 40
6.01235081237489
100
AcDbArc
 50
73.76565503231454
 51
87.54085449252332
  0
ARC
  5
6882
330
1F
100
AcDbEntity
  8
AM_0
100
AcDbCircle
 10
16.95744199999996
 20
-33.78934891039685
 30
0.0
 40
18.3413948099257
100
AcDbArc
 50
263.0057996468005
 51
267.5408526731037
  0
ARC
  5
6883
330
1F
100
AcDbEntity
  8
AM_0
100
AcDbCircle
 10
16.07231299999995
 20
-41.00418091039686
 30
0.0
 40
11.0724710103538
100
AcDbArc
 50
257.5149216399087
 51
263.0058013328093
  0
ARC
  5
6884
330
1F
100
AcDbEntity
  8
AM_0
100
AcDbCircle
 10
12.89491599999997
 20
-55.35417591039686
 30
0.0
 40
3.62508688868625
100
AcDbArc
 50
77.51491631435
 51
94.18063698958095
  0
ARC
  5
688D
330
1F
100
AcDbEntity
  8
AM_0
100
AcDbCircle
 10
12.76180299999993
 20
-57.41894091039686
 30
0.0
 40
2.99909566824569
100
AcDbArc
 50
82.99970781600742
 51
83.99986375287287
  0
ARC
  5
688E
330
1F
100
AcDbEntity
  8
AM_0
100
AcDbCircle
 10
12.76180299999993
 20
-57.41893991039686
 30
0.0
 40
2.99909511323482
100
AcDbArc
 50
83.99986175587908
 51
85.00000747390479
  0
ARC
  5
688F
330
1F
100
AcDbEntity
  8
AM_0
100
AcDbCircle
 10
13.12733699999996
 20
-54.44195791039687
 30
0.0
 40
0.0002449020212199
100
AcDbArc
 50
265.0809276167722
 51
82.70021313212961
  0
ARC
  5
6890
330
1F
100
AcDbEntity
  8
AM_0
100
AcDbCircle
 10
13.66047099999992
 20
-50.21473391039686
 30
0.0
 40
4.26046630735417
100
AcDbArc
 50
262.4677760873111
 51
262.8118613302412
  0
ARC
  5
6893
330
1F
100
AcDbEntity
  8
AM_0
100
AcDbCircle
 10
8.071824999999933
 20
-92.48099391039685
 30
0.0
 40
38.3736714052924
100
AcDbArc
 50
82.46777254333388
 51
82.97010706063522
  0
ARC
  5
6894
330
1F
100
AcDbEntity
  8
AM_0
100
AcDbCircle
 10
45.87049299999995
 20
214.0422800896032
 30
0.0
 40
270.47136572109
100
AcDbArc
 50
262.8988372540889
 51
262.9701073700007
  0
ARC
  5
689B
330
1F
100
AcDbEntity
  8
AM_0
100
AcDbCircle
 10
144.4791549999999
 20
930.436883089603
 30
0.0
 40
999.5452966195061
100
AcDbArc
 50
263.0607591786649
 51
263.0615499955982
  0
ARC
  5
689E
330
1F
100
AcDbEntity
  8
AM_0
100
AcDbCircle
 10
333.263785
 20
2523.048196089603
 30
0.0
 40
2597.29102212509
100
AcDbArc
 50
262.9943563698647
 51
263.0842675282356
  0
ARC
  5
689F
330
1F
100
AcDbEntity
  8
AM_0
100
AcDbCircle
 10
3436.412642
 20
27775.60383608961
 30
0.0
 40
28039.7967789644
100
AcDbArc
 50
262.9860280200767
 51
262.9943563783144
  0
ARC
  5
68A0
330
1F
100
AcDbEntity
  8
AM_0
100
AcDbCircle
 10
9.648164999999949
 20
-46.28672591039685
 30
0.0
 40
7.66372941075362
100
AcDbArc
 50
262.6148486113798
 51
263.1578872319156
  0
ARC
  5
68A1
330
1F
100
AcDbEntity
  8
AM_0
100
AcDbCircle
 10
8.416453999999931
 20
-55.78965591039687
 30
0.0
 40
1.91869150321279
100
AcDbArc
 50
82.61484582086477
 51
84.78362621491989
  0
ARC
  5
68A8
330
1F
100
AcDbEntity
  8
AM_0
370
    30
100
AcDbCircle
 10
-53.15380309238134
 20
23.027703
 30
0.0
 40
8.24979256345789
100
AcDbArc
 50
5.003075909079108
 51
7.27285699080208
  0
ARC
  5
68A9
330
1F
100
AcDbEntity
  8
AM_0
370
    30
100
AcDbCircle
 10
-58.45541509238137
 20
22.56358500000002
 30
0.0
 40
13.5716813264412
100
AcDbArc
 50
3.62323636417581
 51
5.003076985927473
  0
ARC
  5
68AA
330
1F
100
AcDbEntity
  8
AM_0
370
    30
100
AcDbCircle
 10
-65.68040309238137
 20
22.10608500000001
 30
0.0
 40
20.8111396251053
100
AcDbArc
 50
359.4807470073712
 51
3.623237763288246
  0
ARC
  5
68AB
330
1F
100
AcDbEntity
  8
AM_0
370
    30
100
AcDbCircle
 10
-57.05005409238135
 20
22.02786900000001
 30
0.0
 40
12.1804361851008
100
AcDbArc
 50
352.4089098855865
 51
359.4807461415588
  0
ARC
  5
68AC
330
1F
100
AcDbEntity
  8
AM_0
370
    30
100
AcDbCircle
 10
-57.46565009238134
 20
25.60071200000002
 30
0.0
 40
1.69560688097212
100
AcDbArc
 50
357.5587603701902
 51
33.94861937085959
  0
ARC
  5
68AD
330
1F
100
AcDbEntity
  8
AM_0
370
    30
100
AcDbCircle
 10
-40.91866209238134
 20
24.89526100000001
 30
0.0
 40
14.8664121078332
100
AcDbArc
 50
177.5587778643341
 51
181.8526410283664
  0
ARC
  5
68AE
330
1F
100
AcDbEntity
  8
AM_0
370
    30
100
AcDbCircle
 10
-82.71177709238134
 20
23.54342399999999
 30
0.0
 40
26.9485602901659
100
AcDbArc
 50
358.7591694375321
 51
1.852638042442592
  0
ARC
  5
68AF
330
1F
100
AcDbEntity
  8
AM_0
370
    30
100
AcDbCircle
 10
-69.49056009238137
 20
23.25705300000001
 30
0.0
 40
13.7242419710789
100
AcDbArc
 50
352.6891216844635
 51
358.7591690247029
  0
ARC
  5
68B0
330
1F
100
AcDbEntity
  8
AM_0
370
    30
100
AcDbCircle
 10
-56.80170409238133
 20
33.08834200000001
 30
0.0
 40
0.0605855048175766
100
AcDbArc
 50
37.65617823285383
 51
89.96500877149829
  0
ARC
  5
68B1
330
1F
100
AcDbEntity
  8
AM_0
370
    30
100
AcDbCircle
 10
-57.04447809238138
 20
32.901006
 30
0.0
 40
0.3672350058001079
100
AcDbArc
 50
28.39204382452683
 51
37.65560442333257
  0
ARC
  5
68B2
330
1F
100
AcDbEntity
  8
AM_0
370
    30
100
AcDbCircle
 10
-57.12736109238136
 20
32.85620600000001
 30
0.0
 40
0.461450958989133
100
AcDbArc
 50
23.25663128226
 51
28.39206588832066
  0
ARC
  5
68B3
330
1F
100
AcDbEntity
  8
AM_0
370
    30
100
AcDbCircle
 10
-57.46195509238135
 20
32.71240800000001
 30
0.0
 40
0.8256362731281959
100
AcDbArc
 50
20.38506502248498
 51
23.25658010760842
  0
ARC
  5
68B4
330
1F
100
AcDbEntity
  8
AM_0
370
    30
100
AcDbCircle
 10
-56.80171109238137
 20
33.076964
 30
0.0
 40
0.0719630134513524
100
AcDbArc
 50
89.96496791428022
 51
151.9799204674261
  0
ARC
  5
68B5
330
1F
100
AcDbEntity
  8
AM_0
370
    30
100
AcDbCircle
 10
-55.98332909238138
 20
32.641457
 30
0.0
 40
0.99900994924776
100
AcDbArc
 50
151.9800412704423
 51
156.9382511043941
  0
ARC
  5
68B6
330
1F
100
AcDbEntity
  8
AM_0
370
    30
100
AcDbCircle
 10
-59.98206309238134
 20
0.3999259999999936
 30
0.0
 40
4.63692291257597
100
AcDbArc
 50
358.9377316240731
 51
0.0875082101955115
  0
ARC
  5
68B7
330
1F
100
AcDbEntity
  8
AM_0
370
    30
100
AcDbCircle
 10
-59.05879309238134
 20
0.3828070000000139
 30
0.0
 40
3.713494560231911
100
AcDbArc
 50
357.5020749881116
 51
358.937724499077
  0
ARC
  5
68B8
330
1F
100
AcDbEntity
  8
AM_0
370
    30
100
AcDbCircle
 10
-54.90942109238137
 20
0.2017920000000117
 30
0.0
 40
0.4398239231749501
100
AcDbArc
 50
177.5020667520724
 51
198.5500064729849
  0
ARC
  5
68B9
330
1F
100
AcDbEntity
  8
AM_0
370
    30
100
AcDbCircle
 10
-55.37148509238136
 20
0.0467390000000023
 30
0.0
 40
0.0475616217238235
100
AcDbArc
 50
258.9572718508022
 51
18.54999431478945
  0
ARC
  5
68BA
330
1F
100
AcDbEntity
  8
AM_0
370
    30
100
AcDbCircle
 10
-55.38828709238135
 20
15.830941
 30
0.0
 40
0.0803121203368349
100
AcDbArc
 50
338.2064066936859
 51
101.0419990370548
  0
ARC
  5
68BB
330
1F
100
AcDbEntity
  8
AM_0
370
    30
100
AcDbCircle
 10
-54.60562309238139
 20
15.51799600000001
 30
0.0
 40
0.7625980231078571
100
AcDbArc
 50
158.2061802529619
 51
180.087454101656
  0
SPLINE
  5
68C1
330
1F
100
AcDbEntity
  8
AM_0
100
AcDbSpline
210
0.0
220
0.0
230
1.0
 70
     8
 71
     3
 72
    11
 73
     7
 74
     5
 42
0.0000000001
 43
0.0000000001
 44
0.0000000001
 40
0.0
 40
0.0
 40
0.0
 40
0.0
 40
0.5151261343205289
 40
1.025673673553623
 40
1.529795455913829
 40
2.026289296448631
 40
2.026289296448631
 40
2.026289296448631
 40
2.026289296448631
 10
22.87070099999994
 20
29.18933300000001
 30
0.0
 10
23.03392669458981
 20
29.13500067615922
 30
0.0
 10
23.35892728499698
 20
29.02681895041552
 30
0.0
 10
23.80788599206266
 20
28.78046455510308
 30
0.0
 10
24.21782384067413
 20
28.48350460807135
 30
0.0
 10
24.44606860242512
 20
28.2393377544676
 30
0.0
 10
24.55932099999995
 20
28.11818500000001
 30
0.0
 11
22.87070099999994
 21
29.18933300000001
 31
0.0
 11
23.35432699999996
 21
29.01196100000001
 31
0.0
 11
23.80406799999992
 21
28.77031700000001
 31
0.0
 11
24.20892899999996
 21
28.46994000000001
 31
0.0
 11
24.55932099999995
 21
28.11818500000001
 31
0.0
  0
SPLINE
  5
68C6
330
1F
100
AcDbEntity
  8
AM_0
100
AcDbSpline
210
0.0
220
0.0
230
1.0
 70
     8
 71
     3
 72
    11
 73
     7
 74
     5
 42
0.0000000001
 43
0.0000000001
 44
0.0000000001
 40
0.0
 40
0.0
 40
0.0
 40
0.0
 40
0.1580043835151171
 40
0.3158294918344382
 40
0.4736538214702296
 40
0.6316589564057996
 40
0.6316589564057996
 40
0.6316589564057996
 40
0.6316589564057996
 10
8.863846999999964
 20
33.14427700000002
 30
0.0
 10
8.916522718955228
 20
33.14297409196614
 30
0.0
 10
9.02181438985412
 20
33.14036975420608
 30
0.0
 10
9.178845973795768
 20
33.12247689437493
 30
0.0
 10
9.334543913626064
 20
33.09532333466822
 30
0.0
 10
9.436289888777457
 20
33.06810430565104
 30
0.0
 10
9.487191999999936
 20
33.054487
 30
0.0
 11
8.863846999999964
 21
33.14427700000002
 31
0.0
 11
9.021727999999939
 21
33.13803400000001
 31
0.0
 11
9.178623999999957
 21
33.12093400000001
 31
0.0
 11
9.333966999999916
 21
33.09305800000001
 31
0.0
 11
9.487191999999936
 21
33.054487
 31
0.0
  0
SPLINE
  5
68C8
330
1F
100
AcDbEntity
  8
AM_0
100
AcDbSpline
210
0.0
220
0.0
230
1.0
 70
     8
 71
     3
 72
    11
 73
     7
 74
     5
 42
0.0000000001
 43
0.0000000001
 44
0.0000000001
 40
0.0
 40
0.0
 40
0.0
 40
0.0
 40
0.3777106551978653
 40
0.7595859977901958
 40
1.146801723117823
 40
1.540183661312757
 40
1.540183661312757
 40
1.540183661312757
 40
1.540183661312757
 10
24.55932099999995
 20
28.11818500000001
 30
0.0
 10
24.62065896150486
 20
28.0079462491199
 30
0.0
 10
24.74401120495087
 20
27.78625324038403
 30
0.0
 10
24.86485803129583
 20
27.42169732296848
 30
0.0
 10
24.94102407662419
 20
27.04014959378295
 30
0.0
 10
24.9463805878919
 20
26.7795380849586
 30
0.0
 10
24.94907999999998
 20
26.648203
 30
0.0
 11
24.55932099999995
 21
28.11818500000001
 31
0.0
 11
24.73262599999998
 21
27.78258000000002
 31
0.0
 11
24.85673799999995
 21
27.421436
 31
0.0
 11
24.92935299999994
 21
27.04109
 31
0.0
 11
24.94907999999998
 21
26.648203
 31
0.0
  0
SPLINE
  5
68CB
330
1F
100
AcDbEntity
  8
AM_0
100
AcDbSpline
210
0.0
220
0.0
230
1.0
 70
     8
 71
     3
 72
    11
 73
     7
 74
     5
 42
0.0000000001
 43
0.0000000001
 44
0.0000000001
 40
0.0
 40
0.0
 40
0.0
 40
0.0
 40
0.0372501238253062
 40
0.074619651143689
 40
0.1122167995728095
 40
0.1501467152199593
 40
0.1501467152199593
 40
0.1501467152199593
 40
0.1501467152199593
 10
5.278694999999971
 20
4.504809999999992
 30
0.0
 10
5.275939611804291
 20
4.516922321958737
 30
0.0
 10
5.270420003147656
 20
4.54118579134586
 30
0.0
 10
5.26523423510848
 20
4.578266028360461
 30
0.0
 10
5.262115502888583
 20
4.615802317007428
 30
0.0
 10
5.262100522963003
 20
4.640987783838887
 30
0.0
 10
5.262092999999936
 20
4.653636000000006
 30
0.0
 11
5.278694999999971
 21
4.504809999999992
 31
0.0
 11
5.270944999999983
 21
4.541245000000004
 31
0.0
 11
5.265590999999972
 21
4.578228999999993
 31
0.0
 11
5.262637999999924
 21
4.615710000000007
 31
0.0
 11
5.262092999999936
 21
4.653636000000006
 31
0.0
  0
SPLINE
  5
68CC
330
1F
100
AcDbEntity
  8
AM_0
100
AcDbSpline
210
0.0
220
0.0
230
1.0
 70
     8
 71
     3
 72
    11
 73
     7
 74
     5
 42
0.0000000001
 43
0.0000000001
 44
0.0000000001
 40
0.0
 40
0.0
 40
0.0
 40
0.0
 40
0.37267717481082
 40
0.6886151458827168
 40
0.9055256048398331
 40
1.006985549433775
 40
1.006985549433775
 40
1.006985549433775
 40
1.006985549433775
 10
5.278694999999971
 20
4.504809999999992
 30
0.0
 10
5.310131749476247
 20
4.38384893410646
 30
0.0
 10
5.368219078912703
 20
4.160342833743091
 30
0.0
 10
5.482068585262035
 20
3.887189889446174
 30
0.0
 10
5.561039572845335
 20
3.67610858079421
 30
0.0
 10
5.655856307358398
 20
3.623950128312906
 30
0.0
 10
5.686072999999965
 20
3.607327999999995
 30
0.0
 11
5.278694999999971
 21
4.504809999999992
 31
0.0
 11
5.381349999999941
 21
4.146550000000019
 31
0.0
 11
5.494288999999981
 21
3.851487999999989
 31
0.0
 11
5.601026999999931
 21
3.662656999999996
 31
0.0
 11
5.686072999999965
 21
3.607327999999995
 31
0.0
  0
SPLINE
  5
68CD
330
1F
100
AcDbEntity
  8
AM_0
100
AcDbSpline
210
0.0
220
0.0
230
1.0
 70
     8
 71
     3
 72
    11
 73
     7
 74
     5
 42
0.0000000001
 43
0.0000000001
 44
0.0000000001
 40
0.0
 40
0.0
 40
0.0
 40
0.0
 40
0.5930131436190715
 40
1.102305920339918
 40
1.520851008501228
 40
1.906063187204092
 40
1.906063187204092
 40
1.906063187204092
 40
1.906063187204092
 10
3.874858999999958
 20
13.45883000000001
 30
0.0
 10
4.071617357155344
 20
13.49059765686026
 30
0.0
 10
4.43735613428447
 20
13.54964807860753
 30
0.0
 10
4.9415077806972
 20
13.45285193044097
 30
0.0
 10
5.334736830885506
 20
13.1868781914477
 30
0.0
 10
5.380694925234499
 20
12.91245246077567
 30
0.0
 10
5.402720999999929
 20
12.78093000000001
 30
0.0
 11
3.874858999999958
 21
13.45883000000001
 31
0.0
 11
4.465037999999936
 21
13.516738
 31
0.0
 11
4.962639999999965
 21
13.408242
 31
0.0
 11
5.291909999999916
 21
13.14986000000002
 31
0.0
 11
5.402720999999929
 21
12.78093000000001
 31
0.0
  0
SPLINE
  5
68D1
330
1F
100
AcDbEntity
  8
AM_0
100
AcDbSpline
210
0.0
220
0.0
230
1.0
 70
     8
 71
     3
 72
    11
 73
     7
 74
     5
 42
0.0000000001
 43
0.0000000001
 44
0.0000000001
 40
0.0
 40
0.0
 40
0.0
 40
0.0
 40
0.3005679965565706
 40
0.5577189157187932
 40
0.7844150018098471
 40
1.005794143792552
 40
1.005794143792552
 40
1.005794143792552
 40
1.005794143792552
 10
8.517564999999934
 20
14.37533500000001
 30
0.0
 10
8.614679586382088
 20
14.34848104212576
 30
0.0
 10
8.794880547356122
 20
14.2986521832986
 30
0.0
 10
9.016469725033453
 20
14.15295205870603
 30
0.0
 10
9.164645402655925
 20
13.95780870406313
 30
0.0
 10
9.179681273700675
 20
13.806632941436
 30
0.0
 10
9.187109999999962
 20
13.731942
 30
0.0
 11
8.517564999999934
 21
14.37533500000001
 31
0.0
 11
8.802329999999984
 21
14.279158
 31
0.0
 11
9.015180999999927
 21
14.134863
 31
0.0
 11
9.145512999999937
 21
13.949378
 31
0.0
 11
9.187109999999962
 21
13.731942
 31
0.0
  0
SPLINE
  5
68D2
330
1F
100
AcDbEntity
  8
AM_0
100
AcDbSpline
210
0.0
220
0.0
230
1.0
 70
     8
 71
     3
 72
    11
 73
     7
 74
     5
 42
0.0000000001
 43
0.0000000001
 44
0.0000000001
 40
0.0
 40
0.0
 40
0.0
 40
0.0
 40
0.1864932580121808
 40
0.3693693879389807
 40
0.5428186622816613
 40
0.7013787561262274
 40
0.7013787561262274
 40
0.7013787561262274
 40
0.7013787561262274
 10
8.190077999999971
 20
13.48138900000001
 30
0.0
 10
8.191599225291467
 20
13.54353877023945
 30
0.0
 10
8.194612170964815
 20
13.66663288548296
 30
0.0
 10
8.20485279806217
 20
13.84730317989999
 30
0.0
 10
8.218315243753047
 20
14.01844154181198
 30
0.0
 10
8.231607108753931
 20
14.12832105382136
 30
0.0
 10
8.237954999999943
 20
14.18079700000001
 30
0.0
 11
8.190077999999971
 21
13.48138900000001
 31
0.0
 11
8.195649999999944
 21
13.667799
 31
0.0
 11
8.205713999999944
 21
13.85039800000001
 31
0.0
 11
8.21996299999995
 21
14.02326100000002
 31
0.0
 11
8.237954999999943
 21
14.18079700000001
 31
0.0
  0
SPLINE
  5
68D3
330
1F
100
AcDbEntity
  8
AM_0
100
AcDbSpline
210
0.0
220
0.0
230
1.0
 70
     8
 71
     3
 72
    11
 73
     7
 74
     5
 42
0.0000000001
 43
0.0000000001
 44
0.0000000001
 40
0.0
 40
0.0
 40
0.0
 40
0.0
 40
0.3005689439795658
 40
0.5577190354145121
 40
0.7844151215055892
 40
1.005794263488294
 40
1.005794263488294
 40
1.005794263488294
 40
1.005794263488294
 10
7.022016999999948
 20
13.999506
 30
0.0
 10
7.119131989285635
 20
13.97265217055228
 30
0.0
 10
7.299333168527846
 20
13.92282369639768
 30
0.0
 10
7.520921815924165
 20
13.77712270038927
 30
0.0
 10
7.66909742177233
 20
13.58197973382921
 30
0.0
 10
7.684133280022214
 20
13.43080395127921
 30
0.0
 10
7.691561999999976
 20
13.35611299999999
 30
0.0
 11
7.022016999999948
 21
13.999506
 31
0.0
 11
7.306782999999939
 21
13.90332900000001
 31
0.0
 11
7.519632999999942
 21
13.75903400000001
 31
0.0
 11
7.649964999999952
 21
13.57354899999999
 31
0.0
 11
7.691561999999976
 21
13.35611299999999
 31
0.0
  0
SPLINE
  5
68D4
330
1F
100
AcDbEntity
  8
AM_0
100
AcDbSpline
210
0.0
220
0.0
230
1.0
 70
     8
 71
     3
 72
    11
 73
     7
 74
     5
 42
0.0000000001
 43
0.0000000001
 44
0.0000000001
 40
0.0
 40
0.0
 40
0.0
 40
0.0
 40
0.1864932580121826
 40
0.3693693879389824
 40
0.5428186622816631
 40
0.7013788696005157
 40
0.7013788696005157
 40
0.7013788696005157
 40
0.7013788696005157
 10
6.694529999999929
 20
13.10556
 30
0.0
 10
6.6960512178005
 20
13.16770977109512
 30
0.0
 10
6.699064148637291
 20
13.29080388803341
 30
0.0
 10
6.709304883484013
 20
13.4714741701423
 30
0.0
 10
6.722766955470373
 20
13.64261261279796
 30
0.0
 10
6.736059690753533
 20
13.7524920634871
 30
0.0
 10
6.742407999999955
 20
13.804968
 30
0.0
 11
6.694529999999929
 21
13.10556
 31
0.0
 11
6.700101999999959
 21
13.29196999999999
 31
0.0
 11
6.710165999999958
 21
13.474569
 31
0.0
 11
6.724414999999965
 21
13.64743200000001
 31
0.0
 11
6.742407999999955
 21
13.804968
 31
0.0
  0
SPLINE
  5
68D6
330
1F
100
AcDbEntity
  8
AM_0
100
AcDbSpline
210
0.0
220
0.0
230
1.0
 70
     8
 71
     3
 72
    11
 73
     7
 74
     5
 42
0.0000000001
 43
0.0000000001
 44
0.0000000001
 40
0.0
 40
0.0
 40
0.0
 40
0.0
 40
0.1438181523348084
 40
0.3062720542577705
 40
0.4823586964570201
 40
0.6666097035126066
 40
0.6666097035126066
 40
0.6666097035126066
 40
0.6666097035126066
 10
6.575497999999925
 20
4.15882400000001
 30
0.0
 10
6.570871236690058
 20
4.206545997260685
 30
0.0
 10
6.561018180726864
 20
4.308173739635547
 30
0.0
 10
6.553423354350914
 20
4.468830895910343
 30
0.0
 10
6.549349743530837
 20
4.643066863959418
 30
0.0
 10
6.550602453402055
 20
4.763181785092547
 30
0.0
 10
6.551242999999943
 20
4.824600000000004
 30
0.0
 11
6.575497999999925
 21
4.15882400000001
 31
0.0
 11
6.562726999999939
 21
4.302074000000005
 31
0.0
 11
6.554257999999948
 21
4.464306999999991
 31
0.0
 11
6.550382999999954
 21
4.64035100000001
 31
0.0
 11
6.551242999999943
 21
4.824600000000004
 31
0.0
  0
SPLINE
  5
68D7
330
1F
100
AcDbEntity
  8
AM_0
100
AcDbSpline
210
0.0
220
0.0
230
1.0
 70
     8
 71
     3
 72
    11
 73
     7
 74
     5
 42
0.0000000001
 43
0.0000000001
 44
0.0000000001
 40
0.0
 40
0.0
 40
0.0
 40
0.0
 40
0.2438773618050563
 40
0.5278659299288492
 40
0.8574185788091528
 40
1.22849625029313
 40
1.22849625029313
 40
1.22849625029313
 40
1.22849625029313
 10
7.548274999999933
 20
5.075152000000003
 30
0.0
 10
7.536689156588416
 20
4.99393936692209
 30
0.0
 10
7.511611913005146
 20
4.818156827024392
 30
0.0
 10
7.358691339085081
 20
4.56943912789882
 30
0.0
 10
7.139230091447836
 20
4.32416551559376
 30
0.0
 10
6.95074704077374
 20
4.185036476122733
 30
0.0
 10
6.850919999999974
 20
4.11134899999999
 30
0.0
 11
7.548274999999933
 21
5.075152000000003
 31
0.0
 11
7.498774999999966
 21
4.836351000000008
 31
0.0
 11
7.36096299999997
 21
4.588042000000002
 31
0.0
 11
7.141334999999913
 21
4.342342000000002
 31
0.0
 11
6.850919999999974
 21
4.11134899999999
 31
0.0
  0
SPLINE
  5
68D8
330
1F
100
AcDbEntity
  8
AM_0
100
AcDbSpline
210
0.0
220
0.0
230
1.0
 70
     8
 71
     3
 72
    11
 73
     7
 74
     5
 42
0.0000000001
 43
0.0000000001
 44
0.0000000001
 40
0.0
 40
0.0
 40
0.0
 40
0.0
 40
0.1438182411378963
 40
0.3062720909322192
 40
0.4823587331314404
 40
0.6666097401870554
 40
0.6666097401870554
 40
0.6666097401870554
 40
0.6666097401870554
 10
8.071045999999967
 20
4.53465300000002
 30
0.0
 10
8.066418726514346
 20
4.582374984941702
 30
0.0
 10
8.056564588996439
 20
4.68400265049986
 30
0.0
 10
8.048971840972254
 20
4.844659942138028
 30
0.0
 10
8.044897610907526
 20
5.018895856102069
 30
0.0
 10
8.046150408531521
 20
5.139010782434165
 30
0.0
 10
8.046790999999928
 20
5.200429000000014
 30
0.0
 11
8.071045999999967
 21
4.53465300000002
 31
0.0
 11
8.058273999999983
 21
4.677903000000015
 31
0.0
 11
8.049805999999933
 21
4.840136000000001
 31
0.0
 11
8.045930999999939
 21
5.016179999999991
 31
0.0
 11
8.046790999999928
 21
5.200429000000014
 31
0.0
  0
SPLINE
  5
68D9
330
1F
100
AcDbEntity
  8
AM_0
100
AcDbSpline
210
0.0
220
0.0
230
1.0
 70
     8
 71
     3
 72
    11
 73
     7
 74
     5
 42
0.0000000001
 43
0.0000000001
 44
0.0000000001
 40
0.0
 40
0.0
 40
0.0
 40
0.0
 40
0.2438773618050679
 40
0.5278659299288607
 40
0.8574179123671414
 40
1.228495583851163
 40
1.228495583851163
 40
1.228495583851163
 40
1.228495583851163
 10
9.043821999999977
 20
5.450981000000013
 30
0.0
 10
9.032236166401592
 20
5.369768358184577
 30
0.0
 10
9.007158944058585
 20
5.193985799374752
 30
0.0
 10
8.854238299470856
 20
4.945268462322152
 30
0.0
 10
8.634778141973712
 20
4.699994176237533
 30
0.0
 10
8.446295120345791
 20
4.560865404443574
 30
0.0
 10
8.346467999999959
 20
4.487178
 30
0.0
 11
9.043821999999977
 21
5.450981000000013
 31
0.0
 11
8.994321999999954
 21
5.212180000000018
 31
0.0
 11
8.856509999999958
 21
4.963871000000012
 31
0.0
 11
8.636882999999955
 21
4.718171000000012
 31
0.0
 11
8.346467999999959
 21
4.487178
 31
0.0
  0
SPLINE
  5
68DF
330
1F
100
AcDbEntity
  8
AM_0
100
AcDbSpline
210
0.0
220
0.0
230
1.0
 70
     8
 71
     3
 72
    11
 73
     7
 74
     5
 42
0.0000000001
 43
0.0000000001
 44
0.0000000001
 40
0.0
 40
0.0
 40
0.0
 40
0.0
 40
0.2752446877706994
 40
0.5501987279028617
 40
0.8247709846842071
 40
1.099193117851332
 40
1.099193117851332
 40
1.099193117851332
 40
1.099193117851332
 10
1.271008999999935
 20
3.484524999999991
 30
0.0
 10
1.280074614596945
 20
3.391909520968613
 30
0.0
 10
1.298196270856075
 20
3.206776361233922
 30
0.0
 10
1.457905461322724
 20
2.971526888540307
 30
0.0
 10
1.68883822530676
 20
2.80599270490463
 30
0.0
 10
1.873110204949366
 20
2.78357552496064
 30
0.0
 10
1.965220999999929
 20
2.772369999999995
 30
0.0
 11
1.271008999999935
 21
3.484524999999991
 31
0.0
 11
1.320333999999946
 21
3.213736000000012
 31
0.0
 11
1.469897999999944
 21
2.983019000000013
 31
0.0
 11
1.696484999999939
 21
2.827944000000002
 31
0.0
 11
1.965220999999929
 21
2.772369999999995
 31
0.0
  0
SPLINE
  5
68E0
330
1F
100
AcDbEntity
  8
AM_0
100
AcDbSpline
210
0.0
220
0.0
230
1.0
 70
     8
 71
     3
 72
    11
 73
     7
 74
     5
 42
0.0000000001
 43
0.0000000001
 44
0.0000000001
 40
0.0
 40
0.0
 40
0.0
 40
0.0
 40
0.8408466493106974
 40
1.681796877984177
 40
2.522842762840659
 40
3.363823469457033
 40
3.363823469457033
 40
3.363823469457033
 40
3.363823469457033
 10
19.46627199999995
 20
18.733396
 30
0.0
 10
19.62134578854272
 20
18.96748680824144
 30
0.0
 10
19.93151246833173
 20
19.43569726110821
 30
0.0
 10
20.26499155115627
 20
20.21157679333633
 30
0.0
 10
20.50300070847616
 20
21.02189097874816
 30
0.0
 10
20.56286167602605
 20
21.5803928735334
 30
0.0
 10
20.59279099999992
 20
21.859633
 30
0.0
 11
19.46627199999995
 21
18.733396
 31
0.0
 11
19.90953099999996
 21
19.44792000000001
 31
0.0
 11
20.24906599999997
 21
20.21727899999999
 31
0.0
 11
20.47830099999993
 21
21.02648200000002
 31
0.0
 11
20.59279099999992
 21
21.859633
 31
0.0
  0
SPLINE
  5
68E1
330
1F
100
AcDbEntity
  8
AM_0
100
AcDbSpline
210
0.0
220
0.0
230
1.0
 70
     8
 71
     3
 72
    11
 73
     7
 74
     5
 42
0.0000000001
 43
0.0000000001
 44
0.0000000001
 40
0.0
 40
0.0
 40
0.0
 40
0.0
 40
1.019997192439761
 40
2.039985067644654
 40
3.059906439497418
 40
4.079711729350818
 40
4.079711729350818
 40
4.079711729350818
 40
4.079711729350818
 10
20.59279099999992
 20
21.859633
 30
0.0
 10
20.59903213249296
 20
22.20048833191511
 30
0.0
 10
20.61151434046897
 20
22.88219588217874
 30
0.0
 10
20.40910599481817
 20
23.88835398325482
 30
0.0
 10
20.06230323320842
 20
24.85424846104343
 30
0.0
 10
19.69913352167146
 20
25.43120309861952
 30
0.0
 10
19.51755899999995
 20
25.719664
 30
0.0
 11
20.59279099999992
 21
21.859633
 31
0.0
 11
20.57465799999994
 21
22.879469
 31
0.0
 11
20.38503099999997
 21
23.881675
 31
0.0
 11
20.02929199999994
 21
24.837546
 31
0.0
 11
19.51755899999995
 21
25.719664
 31
0.0
  0
SPLINE
  5
68E2
330
1F
100
AcDbEntity
  8
AM_0
100
AcDbSpline
210
0.0
220
0.0
230
1.0
 70
     8
 71
     3
 72
    11
 73
     7
 74
     5
 42
0.0000000001
 43
0.0000000001
 44
0.0000000001
 40
0.0
 40
0.0
 40
0.0
 40
0.0
 40
0.5435732564843524
 40
1.090109221302765
 40
1.6405427208656
 40
2.194007343183053
 40
2.194007343183053
 40
2.194007343183053
 40
2.194007343183053
 10
8.914044999999931
 20
20.18051800000001
 30
0.0
 10
8.861687953771975
 20
20.35410958879231
 30
0.0
 10
8.756688492866909
 20
20.70223891529192
 30
0.0
 10
8.657000874070105
 20
21.24081145943669
 30
0.0
 10
8.595450804282663
 20
21.78826240323811
 30
0.0
 10
8.5919661242137
 20
22.15643382168429
 30
0.0
 10
8.590218999999934
 20
22.341025
 30
0.0
 11
8.914044999999931
 21
20.18051800000001
 31
0.0
 11
8.766610999999955
 21
20.70371500000002
 31
0.0
 11
8.663628999999958
 21
21.24046100000001
 31
0.0
 11
8.60493299999996
 21
21.787756
 31
0.0
 11
8.590218999999934
 21
22.341025
 31
0.0
  0
SPLINE
  5
68E3
330
1F
100
AcDbEntity
  8
AM_0
100
AcDbSpline
210
0.0
220
0.0
230
1.0
 70
     8
 71
     3
 72
    11
 73
     7
 74
     5
 42
0.0000000001
 43
0.0000000001
 44
0.0000000001
 40
0.0
 40
0.0
 40
0.0
 40
0.0
 40
1.319521906774224
 40
2.638049697380467
 40
3.957351509091869
 40
5.259410939038143
 40
5.259410939038143
 40
5.259410939038143
 40
5.259410939038143
 10
12.43438599999996
 20
16.480796
 30
0.0
 10
12.03690209662637
 20
16.67294054865464
 30
0.0
 10
11.24223375074667
 20
17.05708488595545
 30
0.0
 10
10.23043078874683
 20
17.92154877712778
 30
0.0
 10
9.402151926420327
 20
18.96043839893248
 30
0.0
 10
9.076032275789032
 20
19.77561210720273
 30
0.0
 10
8.914044999999931
 20
20.18051800000001
 30
0.0
 11
12.43438599999996
 21
16.480796
 31
0.0
 11
11.27200199999993
 21
17.10529700000001
 31
0.0
 11
10.26058199999994
 21
17.95119600000001
 31
0.0
 11
9.455510999999945
 21
18.99638400000001
 31
0.0
 11
8.914044999999931
 21
20.18051800000001
 31
0.0
  0
LINE
  5
68E4
330
1F
100
AcDbEntity
  8
AM_0
100
AcDbLine
 10
14.76482099999998
 20
28.511471
 30
0.0
 11
14.82415799999995
 21
28.511462
 31
0.0
  0
SPLINE
  5
68E5
330
1F
100
AcDbEntity
  8
AM_0
100
AcDbSpline
210
0.0
220
0.0
230
1.0
 70
     8
 71
     3
 72
    11
 73
     7
 74
     5
 42
0.0000000001
 43
0.0000000001
 44
0.0000000001
 40
0.0
 40
0.0
 40
0.0
 40
0.0
 40
0.864039756785506
 40
1.728573130265687
 40
2.594533312940395
 40
3.461244900070139
 40
3.461244900070139
 40
3.461244900070139
 40
3.461244900070139
 10
14.82415799999995
 20
28.511462
 30
0.0
 10
15.11241264690337
 20
28.49840772494967
 30
0.0
 10
15.68908661751462
 20
28.47229171708095
 30
0.0
 10
16.53559509641949
 20
28.27785063812564
 30
0.0
 10
17.35341647569199
 20
27.98281992211901
 30
0.0
 10
17.85385448389907
 20
27.69235796206737
 30
0.0
 10
18.10418199999992
 20
27.54706400000001
 30
0.0
 11
14.82415799999995
 21
28.511462
 31
0.0
 11
15.68574899999993
 21
28.44645700000001
 31
0.0
 11
16.53021399999994
 21
28.26126300000001
 31
0.0
 11
17.34190099999995
 21
27.95951600000001
 31
0.0
 11
18.10418199999992
 21
27.54706400000001
 31
0.0
  0
SPLINE
  5
68E7
330
1F
100
AcDbEntity
  8
AM_0
100
AcDbSpline
210
0.0
220
0.0
230
1.0
 70
     8
 71
     3
 72
    11
 73
     7
 74
     5
 42
0.0000000001
 43
0.0000000001
 44
0.0000000001
 40
0.0
 40
0.0
 40
0.0
 40
0.0
 40
0.6476157887698719
 40
1.28562321835825
 40
1.917528512187182
 40
2.546445862668987
 40
2.546445862668987
 40
2.546445862668987
 40
2.546445862668987
 10
18.41868499999998
 20
4.788511999999997
 30
0.0
 10
18.22699949970115
 20
4.688639288985895
 30
0.0
 10
17.84647244325788
 20
4.490375629596114
 30
0.0
 10
17.24069495167299
 20
4.280879587749795
 30
0.0
 10
16.62418319627731
 20
4.130841484098565
 30
0.0
 10
16.20559106714305
 20
4.088463018022923
 30
0.0
 10
15.99679099999992
 20
4.067324000000014
 30
0.0
 11
18.41868499999998
 21
4.788511999999997
 31
0.0
 11
17.83712699999995
 21
4.503562000000017
 31
0.0
 11
17.23595799999998
 21
4.289905000000005
 31
0.0
 11
16.62089499999996
 21
4.144984999999991
 31
0.0
 11
15.99679099999992
 21
4.067324000000014
 31
0.0
  0
SPLINE
  5
68E8
330
1F
100
AcDbEntity
  8
AM_0
100
AcDbSpline
210
0.0
220
0.0
230
1.0
 70
     8
 71
     3
 72
    11
 73
     7
 74
     5
 42
0.0000000001
 43
0.0000000001
 44
0.0000000001
 40
0.0
 40
0.0
 40
0.0
 40
0.0
 40
0.459990445624686
 40
0.9213747711246089
 40
1.387582692089039
 40
1.862182542836994
 40
1.862182542836994
 40
1.862182542836994
 40
1.862182542836994
 10
19.68234999999993
 20
6.137446000000011
 30
0.0
 10
19.59989576403412
 20
6.007983165978731
 30
0.0
 10
19.43473743626043
 20
5.74866519492064
 30
0.0
 10
19.13520550557089
 20
5.394771602042114
 30
0.0
 10
18.80030964020693
 20
5.066896358508513
 30
0.0
 10
18.54664742892144
 20
4.881856965013714
 30
0.0
 10
18.41868499999998
 20
4.788511999999997
 30
0.0
 11
19.68234999999993
 21
6.137446000000011
 31
0.0
 11
19.42657899999995
 21
5.755121000000003
 31
0.0
 11
19.13097499999992
 21
5.400869999999998
 31
0.0
 11
18.79520199999996
 21
5.077440999999993
 31
0.0
 11
18.41868499999998
 21
4.788511999999997
 31
0.0
  0
SPLINE
  5
68E9
330
1F
100
AcDbEntity
  8
AM_0
100
AcDbSpline
210
0.0
220
0.0
230
1.0
 70
     8
 71
     3
 72
    11
 73
     7
 74
     5
 42
0.0000000001
 43
0.0000000001
 44
0.0000000001
 40
0.0
 40
0.0
 40
0.0
 40
0.0
 40
0.2337112549129806
 40
0.4670358735133117
 40
0.7002762799719994
 40
0.9336247167655486
 40
0.9336247167655486
 40
0.9336247167655486
 40
0.9336247167655486
 10
24.67167199999994
 20
14.663117
 30
0.0
 10
24.64317384012841
 20
14.59059722387478
 30
0.0
 10
24.58622466584032
 20
14.44567764350521
 30
0.0
 10
24.48850893277131
 20
14.23357769614694
 30
0.0
 10
24.38285286743837
 20
14.02546146610555
 30
0.0
 10
24.30482231134118
 20
13.8908908745096
 30
0.0
 10
24.26579799999996
 20
13.82359
 30
0.0
 11
24.67167199999994
 21
14.663117
 31
0.0
 11
24.58411899999993
 21
14.44642500000001
 31
0.0
 11
24.48716499999995
 21
14.23419800000002
 31
0.0
 11
24.38097099999993
 21
14.026535
 31
0.0
 11
24.26579799999996
 21
13.82359
 31
0.0
  0
SPLINE
  5
68EA
330
1F
100
AcDbEntity
  8
AM_0
100
AcDbSpline
210
0.0
220
0.0
230
1.0
 70
     8
 71
     3
 72
    11
 73
     7
 74
     5
 42
0.0000000001
 43
0.0000000001
 44
0.0000000001
 40
0.0
 40
0.0
 40
0.0
 40
0.0
 40
0.2062459341320209
 40
0.4123561757431618
 40
0.6185156221068906
 40
0.8249389904182448
 40
0.8249389904182448
 40
0.8249389904182448
 40
0.8249389904182448
 10
24.75588299999993
 20
15.48279099999999
 30
0.0
 10
24.75387524372371
 20
15.41406006275261
 30
0.0
 10
24.74986105210648
 20
15.27664340744813
 30
0.0
 10
24.73265326003611
 20
15.07111110345621
 30
0.0
 10
24.70789543905256
 20
14.86628565308673
 30
0.0
 10
24.68375162780752
 20
14.73086875896161
 30
0.0
 10
24.67167199999994
 20
14.663117
 30
0.0
 11
24.75588299999993
 21
15.48279099999999
 31
0.0
 11
24.74799399999995
 21
15.27669600000002
 31
0.0
 11
24.73139799999996
 21
15.07125500000001
 31
0.0
 11
24.70599999999996
 21
14.86666600000001
 31
0.0
 11
24.67167199999994
 21
14.663117
 31
0.0
  0
SPLINE
  5
68ED
330
1F
100
AcDbEntity
  8
AM_0
100
AcDbSpline
210
0.0
220
0.0
230
1.0
 70
     8
 71
     3
 72
    11
 73
     7
 74
     5
 42
0.0000000001
 43
0.0000000001
 44
0.0000000001
 40
0.0
 40
0.0
 40
0.0
 40
0.0
 40
0.0832723302543956
 40
0.171239706229831
 40
0.2726685248663666
 40
0.378716306795047
 40
0.378716306795047
 40
0.378716306795047
 40
0.378716306795047
 10
8.237954999999943
 20
14.18079700000001
 30
0.0
 10
8.244160074294539
 20
14.20827963062796
 30
0.0
 10
8.256920076279535
 20
14.26479441267833
 30
0.0
 10
8.320357644736227
 20
14.33442955821917
 30
0.0
 10
8.411569816756073
 20
14.38040931303702
 30
0.0
 10
8.4817127514803
 20
14.37705135659756
 30
0.0
 10
8.517564999999934
 20
14.37533500000001
 30
0.0
 11
8.237954999999943
 21
14.18079700000001
 31
0.0
 11
8.262973999999929
 21
14.260222
 31
0.0
 11
8.320333999999946
 21
14.32691600000001
 31
0.0
 11
8.411598999999967
 21
14.371171
 31
0.0
 11
8.517564999999934
 21
14.37533500000001
 31
0.0
  0
SPLINE
  5
68EE
330
1F
100
AcDbEntity
  8
AM_0
100
AcDbSpline
210
0.0
220
0.0
230
1.0
 70
     8
 71
     3
 72
    11
 73
     7
 74
     5
 42
0.0000000001
 43
0.0000000001
 44
0.0000000001
 40
0.0
 40
0.0
 40
0.0
 40
0.0
 40
0.0832720298119469
 40
0.1712394057873607
 40
0.2726691242183629
 40
0.37871590691829
 40
0.37871590691829
 40
0.37871590691829
 40
0.37871590691829
 10
6.742407999999955
 20
13.804968
 30
0.0
 10
6.748612676417967
 20
13.83245064416078
 30
0.0
 10
6.761371883865204
 20
13.8889655587868
 30
0.0
 10
6.824809901550082
 20
13.95860084185035
 30
0.0
 10
6.916022252631837
 20
14.00458002947772
 30
0.0
 10
6.986165111093529
 20
14.00122225052807
 30
0.0
 10
7.022016999999948
 20
13.999506
 30
0.0
 11
6.742407999999955
 21
13.804968
 31
0.0
 11
6.767425999999944
 21
13.88439300000002
 31
0.0
 11
6.824785999999961
 21
13.951087
 31
0.0
 11
6.916051999999922
 21
13.99534199999999
 31
0.0
 11
7.022016999999948
 21
13.999506
 31
0.0
  0
SPLINE
  5
68EF
330
1F
100
AcDbEntity
  8
AM_0
100
AcDbSpline
210
0.0
220
0.0
230
1.0
 70
     8
 71
     3
 72
    11
 73
     7
 74
     5
 42
0.0000000001
 43
0.0000000001
 44
0.0000000001
 40
0.0
 40
0.0
 40
0.0
 40
0.0
 40
0.0701208052007522
 40
0.1440562691744321
 40
0.2399687813925794
 40
0.3400109172054743
 40
0.3400109172054743
 40
0.3400109172054743
 40
0.3400109172054743
 10
6.575497999999925
 20
4.15882400000001
 30
0.0
 10
6.580576759159157
 20
4.134757417625471
 30
0.0
 10
6.591010568275004
 20
4.085315000945719
 30
0.0
 10
6.672810741807281
 20
4.048376880456573
 30
0.0
 10
6.764221428732747
 20
4.063421847849092
 30
0.0
 10
6.821617282149928
 20
4.095150396074843
 30
0.0
 10
6.850919999999974
 20
4.11134899999999
 30
0.0
 11
6.575497999999925
 21
4.15882400000001
 31
0.0
 11
6.599896999999942
 21
4.093085000000002
 31
0.0
 11
6.66524899999996
 21
4.058507999999989
 31
0.0
 11
6.76067299999994
 21
4.068175999999994
 31
0.0
 11
6.850919999999974
 21
4.11134899999999
 31
0.0
  0
SPLINE
  5
68F0
330
1F
100
AcDbEntity
  8
AM_0
100
AcDbSpline
210
0.0
220
0.0
230
1.0
 70
     8
 71
     3
 72
    11
 73
     7
 74
     5
 42
0.0000000001
 43
0.0000000001
 44
0.0000000001
 40
0.0
 40
0.0
 40
0.0
 40
0.0
 40
0.0701204572503573
 40
0.1440559212240372
 40
0.2399694283489809
 40
0.3400115641618245
 40
0.3400115641618245
 40
0.3400115641618245
 40
0.3400115641618245
 10
8.071045999999967
 20
4.53465300000002
 30
0.0
 10
8.076124372819685
 20
4.510586400030105
 30
0.0
 10
8.08655741480986
 20
4.461143821282819
 30
0.0
 10
8.168358174708253
 20
4.424205844504908
 30
0.0
 10
8.259769101328812
 20
4.439250676566665
 30
0.0
 10
8.317165269985251
 20
4.470979392631047
 30
0.0
 10
8.346467999999959
 20
4.487178
 30
0.0
 11
8.071045999999967
 21
4.53465300000002
 31
0.0
 11
8.09544399999993
 21
4.468914000000012
 31
0.0
 11
8.160795999999948
 21
4.434336999999999
 31
0.0
 11
8.256220999999982
 21
4.444005000000004
 31
0.0
 11
8.346467999999959
 21
4.487178
 31
0.0
  0
SPLINE
  5
68F2
330
1F
100
AcDbEntity
  8
AM_0
100
AcDbSpline
210
0.0
220
0.0
230
1.0
 70
     8
 71
     3
 72
    10
 73
     6
 74
     0
 42
0.0000000001
 43
0.0000000001
 40
0.0
 40
0.0
 40
0.0
 40
0.0
 40
2.259911564532569
 40
4.549383120330763
 40
6.215697843542556
 40
6.215697843542556
 40
6.215697843542556
 40
6.215697843542556
 10
2.711489999999913
 20
13.24316200000001
 30
0.0
 10
3.443944243678516
 20
13.41916794129588
 30
0.0
 10
4.918433345332915
 20
13.77348200870276
 30
0.0
 10
6.931488527952865
 20
14.26377383804802
 30
0.0
 10
8.212099980165476
 20
14.57798938023217
 30
0.0
 10
8.75140808067448
 20
14.71087432577846
 30
0.0
  0
LINE
  5
68F3
330
1F
100
AcDbEntity
  8
AM_0
100
AcDbLine
 10
1.988405999999941
 20
2.772254000000004
 30
0.0
 11
2.151569999999936
 21
2.790523000000007
 31
0.0
  0
SPLINE
  5
68F6
330
1F
100
AcDbEntity
  8
AM_0
100
AcDbSpline
210
0.0
220
0.0
230
1.0
 70
     8
 71
     3
 72
    11
 73
     7
 74
     5
 42
0.0000000001
 43
0.0000000001
 44
0.0000000001
 40
0.0
 40
0.0
 40
0.0
 40
0.0
 40
0.0078109651132111
 40
0.0132079750261245
 40
0.0161859666312651
 40
0.0167383478402003
 40
0.0167383478402003
 40
0.0167383478402003
 40
0.0167383478402003
 10
5.278694999999971
 20
-59.28353591039684
 30
0.0
 10
5.276111047451156
 20
-59.2832154693666
 30
0.0
 10
5.271741705092206
 20
-59.28267361863967
 30
0.0
 10
5.266393719806997
 20
-59.28196517722909
 30
0.0
 10
5.263435165902935
 20
-59.28163247476948
 30
0.0
 10
5.262274589980599
 20
-59.2814374284051
 30
0.0
 10
5.262092999999936
 20
-59.28140691039687
 30
0.0
 11
5.278694999999971
 21
-59.28353591039684
 31
0.0
 11
5.270944999999983
 21
-59.28256191039684
 31
0.0
 11
5.265590999999972
 21
-59.28188191039686
 31
0.0
 11
5.262637999999924
 21
-59.28149691039685
 31
0.0
 11
5.262092999999936
 21
-59.28140691039687
 31
0.0
  0
SPLINE
  5
68F8
330
1F
100
AcDbEntity
  8
AM_0
100
AcDbSpline
210
0.0
220
0.0
230
1.0
 70
     8
 71
     3
 72
    11
 73
     7
 74
     5
 42
0.0000000001
 43
0.0000000001
 44
0.0000000001
 40
0.0
 40
0.0
 40
0.0
 40
0.0
 40
0.0604868411474746
 40
0.126322044435672
 40
0.195123630536587
 40
0.2644875961455486
 40
0.2644875961455486
 40
0.2644875961455486
 40
0.2644875961455486
 10
1.330912999999953
 20
-61.84265091039686
 30
0.0
 10
1.32823354048382
 20
-61.86263437706504
 30
0.0
 10
1.322637698518207
 20
-61.90436828673117
 30
0.0
 10
1.314279573331502
 20
-61.96887039154833
 30
0.0
 10
1.305695574111274
 20
-62.03632676561444
 30
0.0
 10
1.300046189658339
 20
-62.0820341807021
 30
0.0
 10
1.29720999999995
 20
-62.10498091039686
 30
0.0
 11
1.330912999999953
 21
-61.84265091039686
 31
0.0
 11
1.322916999999961
 21
-61.90260691039686
 31
0.0
 11
1.314430999999956
 21
-61.96789291039684
 31
0.0
 11
1.305759999999964
 21
-62.03614591039685
 31
0.0
 11
1.29720999999995
 21
-62.10498091039686
 31
0.0
  0
SPLINE
  5
68F9
330
1F
100
AcDbEntity
  8
AM_0
100
AcDbSpline
210
0.0
220
0.0
230
1.0
 70
     8
 71
     3
 72
    11
 73
     7
 74
     5
 42
0.0000000001
 43
0.0000000001
 44
0.0000000001
 40
0.0
 40
0.0
 40
0.0
 40
0.0
 40
0.2405793383667653
 40
0.480790773506741
 40
0.7206679327383028
 40
0.9602356201462753
 40
0.9602356201462753
 40
0.9602356201462753
 40
0.9602356201462753
 10
1.859204999999975
 20
-61.08202891039686
 30
0.0
 10
1.790676681597955
 20
-61.12448278650331
 30
0.0
 10
1.653724840948222
 20
-61.20932561660725
 30
0.0
 10
1.494690319174709
 20
-61.39334267557398
 30
0.0
 10
1.37787936837831
 20
-61.60633259097109
 30
0.0
 10
1.346561717825518
 20
-61.76391204202376
 30
0.0
 10
1.330912999999953
 20
-61.84265091039686
 30
0.0
 11
1.859204999999975
 21
-61.08202891039686
 31
0.0
 11
1.661344999999983
 21
-61.21888591039684
 31
0.0
 11
1.501630999999975
 21
-61.39830991039685
 31
0.0
 11
1.38946999999996
 21
-61.61034991039685
 31
0.0
 11
1.330912999999953
 21
-61.84265091039686
 31
0.0
  0
SPLINE
  5
68FA
330
1F
100
AcDbEntity
  8
AM_0
100
AcDbSpline
210
0.0
220
0.0
230
1.0
 70
     8
 71
     3
 72
    11
 73
     7
 74
     5
 42
0.0000000001
 43
0.0000000001
 44
0.0000000001
 40
0.0
 40
0.0
 40
0.0
 40
0.0
 40
0.1090176211903342
 40
0.189433819322293
 40
0.2385539039517172
 40
0.2548586003303432
 40
0.2548586003303432
 40
0.2548586003303432
 40
0.2548586003303432
 10
6.575497999999925
 20
-59.69306791039685
 30
0.0
 10
6.571021374940677
 20
-59.65698705546828
 30
0.0
 10
6.56324259410334
 20
-59.59429137307395
 30
0.0
 10
6.555952045366453
 20
-59.51524582396666
 30
0.0
 10
6.549340172165922
 20
-59.46679287008602
 30
0.0
 10
6.550863393631635
 20
-59.44501118603735
 30
0.0
 10
6.551242999999943
 20
-59.43958291039687
 30
0.0
 11
6.575497999999925
 21
-59.69306791039685
 31
0.0
 11
6.562726999999939
 21
-59.58480091039685
 31
0.0
 11
6.554257999999948
 21
-59.50483191039686
 31
0.0
 11
6.550382999999954
 21
-59.45586491039684
 31
0.0
 11
6.551242999999943
 21
-59.43958291039687
 31
0.0
  0
SPLINE
  5
68FB
330
1F
100
AcDbEntity
  8
AM_0
100
AcDbSpline
210
0.0
220
0.0
230
1.0
 70
     8
 71
     3
 72
    11
 73
     7
 74
     5
 42
0.0000000001
 43
0.0000000001
 44
0.0000000001
 40
0.0
 40
0.0
 40
0.0
 40
0.0
 40
0.0529829731989144
 40
0.2018469590652082
 40
0.4395939833158206
 40
0.7542871142560561
 40
0.7542871142560561
 40
0.7542871142560561
 40
0.7542871142560561
 10
7.548274999999933
 20
-59.56184491039684
 30
0.0
 10
7.531754579208336
 20
-59.56809078862827
 30
0.0
 10
7.46881744114433
 20
-59.59188544286506
 30
0.0
 10
7.333685701500538
 20
-59.64861765227731
 30
0.0
 10
7.117547750574357
 20
-59.73764640942549
 30
0.0
 10
6.94768242737509
 20
-59.80875784687713
 30
0.0
 10
6.850919999999974
 20
-59.84926591039685
 30
0.0
 11
7.548274999999933
 21
-59.56184491039684
 31
0.0
 11
7.498774999999966
 21
-59.58073791039685
 31
0.0
 11
7.36096299999997
 21
-59.63702591039686
 31
0.0
 11
7.141334999999913
 21
-59.72805991039684
 31
0.0
 11
6.850919999999974
 21
-59.84926591039685
 31
0.0
  0
SPLINE
  5
68FC
330
1F
100
AcDbEntity
  8
AM_0
100
AcDbSpline
210
0.0
220
0.0
230
1.0
 70
     8
 71
     3
 72
    11
 73
     7
 74
     5
 42
0.0000000001
 43
0.0000000001
 44
0.0000000001
 40
0.0
 40
0.0
 40
0.0
 40
0.0
 40
0.1090187314547302
 40
0.1894338298380554
 40
0.2385539144674513
 40
0.2548586108461057
 40
0.2548586108461057
 40
0.2548586108461057
 40
0.2548586108461057
 10
8.071045999999967
 20
-59.87646091039684
 30
0.0
 10
8.066568782926385
 20
-59.84037975039854
 30
0.0
 10
8.058789052177845
 20
-59.77768417292965
 30
0.0
 10
8.051500207269456
 20
-59.6986384363439
 30
0.0
 10
8.044888160839514
 20
-59.65018587127622
 30
0.0
 10
8.04641139137205
 20
-59.62840418627479
 30
0.0
 10
8.046790999999928
 20
-59.62297591039686
 30
0.0
 11
8.071045999999967
 21
-59.87646091039684
 31
0.0
 11
8.058273999999983
 21
-59.76819291039685
 31
0.0
 11
8.049805999999933
 21
-59.68822491039686
 31
0.0
 11
8.045930999999939
 21
-59.63925791039686
 31
0.0
 11
8.046790999999928
 21
-59.62297591039686
 31
0.0
  0
SPLINE
  5
68FD
330
1F
100
AcDbEntity
  8
AM_0
100
AcDbSpline
210
0.0
220
0.0
230
1.0
 70
     8
 71
     3
 72
    11
 73
     7
 74
     5
 42
0.0000000001
 43
0.0000000001
 44
0.0000000001
 40
0.0
 40
0.0
 40
0.0
 40
0.0
 40
0.0529826166209554
 40
0.2018466024872385
 40
0.4395927029494862
 40
0.7542862190472766
 40
0.7542862190472766
 40
0.7542862190472766
 40
0.7542862190472766
 10
9.043821999999977
 20
-59.74523791039684
 30
0.0
 10
9.027301563931431
 20
-59.75148341519585
 30
0.0
 10
8.964364055278359
 20
-59.775276764881
 30
0.0
 10
8.829233131280571
 20
-59.83200991932854
 30
0.0
 10
8.613095281184396
 20
-59.92103840350892
 30
0.0
 10
8.443230392582453
 20
-59.99215042506943
 30
0.0
 10
8.346467999999959
 20
-60.03265891039683
 30
0.0
 11
9.043821999999977
 21
-59.74523791039684
 31
0.0
 11
8.994321999999954
 21
-59.76412991039686
 31
0.0
 11
8.856509999999958
 21
-59.82041791039684
 31
0.0
 11
8.636882999999955
 21
-59.91145191039686
 31
0.0
 11
8.346467999999959
 21
-60.03265891039683
 31
0.0
  0
SPLINE
  5
68FE
330
1F
100
AcDbEntity
  8
AM_0
100
AcDbSpline
210
0.0
220
0.0
230
1.0
 70
     8
 71
     3
 72
    11
 73
     7
 74
     5
 42
0.0000000001
 43
0.0000000001
 44
0.0000000001
 40
0.0
 40
0.0
 40
0.0
 40
0.0
 40
0.0178632574856932
 40
0.0682720992894804
 40
0.1498718156921947
 40
0.2601890566339433
 40
0.2601890566339433
 40
0.2601890566339433
 40
0.2601890566339433
 10
6.694529999999929
 20
-59.45211891039685
 30
0.0
 10
6.696478044912123
 20
-59.45775191734668
 30
0.0
 10
6.703923333979484
 20
-59.47928086916782
 30
0.0
 10
6.711541116435064
 20
-59.52888164298867
 30
0.0
 10
6.726505327974859
 20
-59.60814931906546
 30
0.0
 10
6.736603432180172
 20
-59.67134495048872
 30
0.0
 10
6.742407999999955
 20
-59.70767091039686
 30
0.0
 11
6.694529999999929
 21
-59.45211891039685
 31
0.0
 11
6.700101999999959
 21
-59.46909091039684
 31
0.0
 11
6.710165999999958
 21
-59.51848491039684
 31
0.0
 11
6.724414999999965
 21
-59.59883091039686
 31
0.0
 11
6.742407999999955
 21
-59.70767091039686
 31
0.0
  0
SPLINE
  5
68FF
330
1F
100
AcDbEntity
  8
AM_0
100
AcDbSpline
210
0.0
220
0.0
230
1.0
 70
     8
 71
     3
 72
    11
 73
     7
 74
     5
 42
0.0000000001
 43
0.0000000001
 44
0.0000000001
 40
0.0
 40
0.0
 40
0.0
 40
0.0
 40
0.0178623073817497
 40
0.0682721290537255
 40
0.1498718454564118
 40
0.260187936689728
 40
0.260187936689728
 40
0.260187936689728
 40
0.260187936689728
 10
8.190077999999971
 20
-59.63551191039684
 30
0.0
 10
8.192026053593093
 20
-59.64114458112287
 30
0.0
 10
8.199471775104373
 20
-59.66267340237233
 30
0.0
 10
8.207088733948131
 20
-59.71227440686695
 30
0.0
 10
8.222053543910276
 20
-59.79154188230226
 30
0.0
 10
8.232150892335287
 20
-59.85473725828669
 30
0.0
 10
8.237954999999943
 20
-59.89106291039684
 30
0.0
 11
8.190077999999971
 21
-59.63551191039684
 31
0.0
 11
8.195649999999944
 21
-59.65248291039686
 31
0.0
 11
8.205713999999944
 21
-59.70187791039686
 31
0.0
 11
8.21996299999995
 21
-59.78222391039685
 31
0.0
 11
8.237954999999943
 21
-59.89106291039684
 31
0.0
  0
SPLINE
  5
6902
330
1F
100
AcDbEntity
  8
AM_0
100
AcDbSpline
210
0.0
220
0.0
230
1.0
 70
     8
 71
     3
 72
    11
 73
     7
 74
     5
 42
0.0000000001
 43
0.0000000001
 44
0.0000000001
 40
0.0
 40
0.0
 40
0.0
 40
0.0
 40
0.0266727471776102
 40
0.0533443238089428
 40
0.0800156875723702
 40
0.106687798868598
 40
0.106687798868598
 40
0.106687798868598
 40
0.106687798868598
 10
12.93111199999993
 20
-54.42320091039684
 30
0.0
 10
12.93996720309818
 20
-54.42399768659821
 30
0.0
 10
12.95767722067985
 20
-54.42559120403401
 30
0.0
 10
12.98421432779511
 20
-54.42827346899239
 30
0.0
 10
13.0107308336652
 20
-54.43115031825352
 30
0.0
 10
13.02838619541679
 20
-54.43326270314839
 30
0.0
 10
13.03721399999995
 20
-54.43431891039685
 30
0.0
 11
12.93111199999993
 21
-54.42320091039684
 31
0.0
 11
12.95767299999994
 21
-54.42563991039683
 31
0.0
 11
12.98421099999996
 21
-54.42830591039686
 31
0.0
 11
13.01072499999998
 21
-54.43119891039686
 31
0.0
 11
13.03721399999995
 21
-54.43431891039685
 31
0.0
  0
SPLINE
  5
6904
330
1F
100
AcDbEntity
  8
AM_0
100
AcDbSpline
210
0.0
220
0.0
230
1.0
 70
     8
 71
     3
 72
    11
 73
     7
 74
     5
 42
0.0000000001
 43
0.0000000001
 44
0.0000000001
 40
0.0
 40
0.0
 40
0.0
 40
0.0
 40
0.473793517635045
 40
0.9483556269526769
 40
1.42398647525944
 40
1.900902652257037
 40
1.900902652257037
 40
1.900902652257037
 40
1.900902652257037
 10
24.55932099999995
 20
-57.01852891039684
 30
0.0
 10
24.63159761871111
 20
-57.15938057399747
 30
0.0
 10
24.77626810384984
 20
-57.44131239190848
 30
0.0
 10
24.90257842488102
 20
-57.90165782318479
 30
0.0
 10
24.96364531416717
 20
-58.37609433004017
 30
0.0
 10
24.93935269788253
 20
-58.69343798002023
 30
0.0
 10
24.92718999999994
 20
-58.85232391039685
 30
0.0
 11
24.55932099999995
 21
-57.01852891039684
 31
0.0
 11
24.76103799999993
 21
-57.44723691039684
 31
0.0
 11
24.89160199999992
 21
-57.90348491039684
 31
0.0
 11
24.94737099999998
 21
-58.37583491039685
 31
0.0
 11
24.92718999999994
 21
-58.85232391039685
 31
0.0
  0
SPLINE
  5
6905
330
1F
100
AcDbEntity
  8
AM_0
100
AcDbSpline
210
0.0
220
0.0
230
1.0
 70
     8
 71
     3
 72
    11
 73
     7
 74
     5
 42
0.0000000001
 43
0.0000000001
 44
0.0000000001
 40
0.0
 40
0.0
 40
0.0
 40
0.0
 40
0.6946108219492629
 40
1.388186892437573
 40
2.08016267796768
 40
2.770113594114614
 40
2.770113594114614
 40
2.770113594114614
 40
2.770113594114614
 10
22.30879699999991
 20
-55.56077191039685
 30
0.0
 10
22.5373987295869
 20
-55.60397035430231
 30
0.0
 10
22.9942616441477
 20
-55.69030289003064
 30
0.0
 10
23.61740425178071
 20
-56.01157614780597
 30
0.0
 10
24.16458913341388
 20
-56.44770651878274
 30
0.0
 10
24.42787230310757
 20
-56.82844073691439
 30
0.0
 10
24.55932099999995
 20
-57.01852891039684
 30
0.0
 11
22.30879699999991
 21
-55.56077191039685
 31
0.0
 11
22.98433399999993
 21
-55.72243191039686
 31
0.0
 11
23.60541099999995
 21
-56.03115691039685
 31
0.0
 11
24.13978699999996
 21
-56.47078491039684
 31
0.0
 11
24.55932099999995
 21
-57.01852891039684
 31
0.0
  0
SPLINE
  5
6907
330
1F
100
AcDbEntity
  8
AM_0
100
AcDbSpline
210
0.0
220
0.0
230
1.0
 70
     8
 71
     3
 72
    11
 73
     7
 74
     5
 42
0.0000000001
 43
0.0000000001
 44
0.0000000001
 40
0.0
 40
0.0
 40
0.0
 40
0.0
 40
0.7811843099889889
 40
1.599393098679267
 40
2.446702234429022
 40
3.309874480971973
 40
3.309874480971973
 40
3.309874480971973
 40
3.309874480971973
 10
3.002605999999958
 20
-54.41595391039684
 30
0.0
 10
3.213225609762374
 20
-54.26078239952172
 30
0.0
 10
3.644447212645409
 20
-53.94308497468636
 30
0.0
 10
4.419665167984943
 20
-53.66248437029344
 30
0.0
 10
5.255775421105627
 20
-53.51410397084092
 30
0.0
 10
5.826601182489485
 20
-53.55338981741615
 30
0.0
 10
6.114660999999956
 20
-53.57321491039684
 30
0.0
 11
3.002605999999958
 21
-54.41595391039684
 31
0.0
 11
3.652483999999959
 21
-53.98247091039687
 31
0.0
 11
4.415994999999953
 21
-53.68833391039684
 31
0.0
 11
5.251819999999952
 21
-53.54930391039684
 31
0.0
 11
6.114660999999956
 21
-53.57321491039684
 31
0.0
  0
SPLINE
  5
6908
330
1F
100
AcDbEntity
  8
AM_0
100
AcDbSpline
210
0.0
220
0.0
230
1.0
 70
     8
 71
     3
 72
    11
 73
     7
 74
     5
 42
0.0000000001
 43
0.0000000001
 44
0.0000000001
 40
0.0
 40
0.0
 40
0.0
 40
0.0
 40
0.0587104228736441
 40
0.1182614743924884
 40
0.1786715262712838
 40
0.2399589845722884
 40
0.2399589845722884
 40
0.2399589845722884
 40
0.2399589845722884
 10
3.002605999999958
 20
-54.41595391039684
 30
0.0
 10
2.998106617192671
 20
-54.43500157644587
 30
0.0
 10
2.989043428433307
 20
-54.47336963718257
 30
0.0
 10
2.977650303463631
 20
-54.53183946198017
 30
0.0
 10
2.96760674585754
 20
-54.59142578027083
 30
0.0
 10
2.962342898927543
 20
-54.63165186060319
 30
0.0
 10
2.959691999999961
 20
-54.65190991039682
 30
0.0
 11
3.002605999999958
 21
-54.41595391039684
 31
0.0
 11
2.98948299999995
 21
-54.47317891039685
 31
0.0
 11
2.977951999999959
 21
-54.53160291039686
 31
0.0
 11
2.968019999999967
 21
-54.59119091039685
 31
0.0
 11
2.959691999999961
 21
-54.65190991039682
 31
0.0
  0
SPLINE
  5
6909
330
1F
100
AcDbEntity
  8
AM_0
100
AcDbSpline
210
0.0
220
0.0
230
1.0
 70
     8
 71
     3
 72
    11
 73
     7
 74
     5
 42
0.0000000001
 43
0.0000000001
 44
0.0000000001
 40
0.0
 40
0.0
 40
0.0
 40
0.0
 40
0.0130245153844517
 40
0.0260491508879961
 40
0.0390752748318297
 40
0.0521028653227859
 40
0.0521028653227859
 40
0.0521028653227859
 40
0.0521028653227859
 10
24.92718999999994
 20
-58.85232391039685
 30
0.0
 10
24.92665563901446
 20
-58.85663241240883
 30
0.0
 10
24.92558691211532
 20
-58.86524945616812
 30
0.0
 10
24.92391225248167
 20
-58.87816649739273
 30
0.0
 10
24.9221875548983
 20
-58.89107798423746
 30
0.0
 10
24.92099120741327
 20
-58.89967977361397
 30
0.0
 10
24.92039299999993
 20
-58.90398091039685
 30
0.0
 11
24.92718999999994
 21
-58.85232391039685
 31
0.0
 11
24.92557499999998
 21
-58.86524791039685
 31
0.0
 11
24.92390399999994
 21
-58.87816491039685
 31
0.0
 11
24.92217599999992
 21
-58.89107591039685
 31
0.0
 11
24.92039299999993
 21
-58.90398091039685
 31
0.0
  0
SPLINE
  5
690A
330
1F
100
AcDbEntity
  8
AM_0
100
AcDbSpline
210
0.0
220
0.0
230
1.0
 70
     8
 71
     3
 72
    11
 73
     7
 74
     5
 42
0.0000000001
 43
0.0000000001
 44
0.0000000001
 40
0.0
 40
0.0
 40
0.0
 40
0.0
 40
0.0551896960129316
 40
0.1200979513892672
 40
0.1930232151049459
 40
0.2669221722356237
 40
0.2669221722356237
 40
0.2669221722356237
 40
0.2669221722356237
 10
6.575497999999925
 20
-59.69306791039685
 30
0.0
 10
6.579270339008223
 20
-59.71121525023842
 30
0.0
 10
6.587479302267167
 20
-59.75070556266245
 30
0.0
 10
6.624220492455193
 20
-59.80529305230174
 30
0.0
 10
6.681663756625822
 20
-59.850022940632
 30
0.0
 10
6.730283109306542
 20
-59.85955518216986
 30
0.0
 10
6.754753999999934
 20
-59.86435291039686
 30
0.0
 11
6.575497999999925
 21
-59.69306791039685
 31
0.0
 11
6.589908999999921
 21
-59.74634291039685
 31
0.0
 11
6.625168999999914
 21
-59.80083891039685
 31
0.0
 11
6.683566999999925
 21
-59.84451691039685
 31
0.0
 11
6.754753999999934
 21
-59.86435291039686
 31
0.0
  0
SPLINE
  5
690B
330
1F
100
AcDbEntity
  8
AM_0
100
AcDbSpline
210
0.0
220
0.0
230
1.0
 70
     8
 71
     3
 72
    11
 73
     7
 74
     5
 42
0.0000000001
 43
0.0000000001
 44
0.0000000001
 40
0.0
 40
0.0
 40
0.0
 40
0.0
 40
0.0551896960129316
 40
0.1200979513892791
 40
0.1930226161673928
 40
0.2669206099966807
 40
0.2669206099966807
 40
0.2669206099966807
 40
0.2669206099966807
 10
8.071045999999967
 20
-59.87646091039684
 30
0.0
 10
8.074818349292336
 20
-59.89460823627576
 30
0.0
 10
8.083027334930382
 20
-59.93409851831574
 30
0.0
 10
8.119768212272332
 20
-59.98868610853941
 30
0.0
 10
8.177211853898799
 20
-60.03341454362375
 30
0.0
 10
8.225830515666255
 20
-60.04294705689433
 30
0.0
 10
8.250300999999922
 20
-60.04774491039684
 30
0.0
 11
8.071045999999967
 21
-59.87646091039684
 31
0.0
 11
8.085456999999963
 21
-59.92973591039684
 31
0.0
 11
8.120716999999956
 21
-59.98423191039686
 31
0.0
 11
8.179114999999968
 21
-60.02790891039685
 31
0.0
 11
8.250300999999922
 21
-60.04774491039684
 31
0.0
  0
SPLINE
  5
690C
330
1F
100
AcDbEntity
  8
AM_0
100
AcDbSpline
210
0.0
220
0.0
230
1.0
 70
     8
 71
     3
 72
    11
 73
     7
 74
     5
 42
0.0000000001
 43
0.0000000001
 44
0.0000000001
 40
0.0
 40
0.0
 40
0.0
 40
0.0
 40
0.0257330073058101
 40
0.0507703305852522
 40
0.0748383313539339
 40
0.0982359801674432
 40
0.0982359801674432
 40
0.0982359801674432
 40
0.0982359801674432
 10
6.754753999999934
 20
-59.86435291039686
 30
0.0
 10
6.763335055499745
 20
-59.86477326227318
 30
0.0
 10
6.780265180273675
 20
-59.86560260194068
 30
0.0
 10
6.805128377495398
 20
-59.86277955646744
 30
0.0
 10
6.828855567192504
 20
-59.85780074834381
 30
0.0
 10
6.843634764034586
 20
-59.85208394378627
 30
0.0
 10
6.850919999999974
 20
-59.84926591039685
 30
0.0
 11
6.754753999999934
 21
-59.86435291039686
 31
0.0
 11
6.780480999999952
 21
-59.86490891039684
 31
0.0
 11
6.805386999999939
 21
-59.86234791039685
 31
0.0
 11
6.828880999999967
 21
-59.85712291039685
 31
0.0
 11
6.850919999999974
 21
-59.84926591039685
 31
0.0
  0
SPLINE
  5
690D
330
1F
100
AcDbEntity
  8
AM_0
100
AcDbSpline
210
0.0
220
0.0
230
1.0
 70
     8
 71
     3
 72
    11
 73
     7
 74
     5
 42
0.0000000001
 43
0.0000000001
 44
0.0000000001
 40
0.0
 40
0.0
 40
0.0
 40
0.0
 40
0.0410100491708987
 40
0.0853384360691506
 40
0.1333908851846571
 40
0.1855406707067407
 40
0.1855406707067407
 40
0.1855406707067407
 40
0.1855406707067407
 10
6.742407999999955
 20
-59.70767091039686
 30
0.0
 10
6.745367500770271
 20
-59.72107112400281
 30
0.0
 10
6.751525971008423
 20
-59.74895583263503
 30
0.0
 10
6.772384412374247
 20
-59.78869983237442
 30
0.0
 10
6.802934193634987
 20
-59.82673930167482
 30
0.0
 10
6.831066613390449
 20
-59.84511523936121
 30
0.0
 10
6.845707999999945
 20
-59.85467891039686
 30
0.0
 11
6.742407999999955
 21
-59.70767091039686
 31
0.0
 11
6.752945999999952
 21
-59.74730391039685
 31
0.0
 11
6.772971999999982
 21
-59.78685091039685
 31
0.0
 11
6.803666999999962
 21
-59.82382191039685
 31
0.0
 11
6.845707999999945
 21
-59.85467891039686
 31
0.0
  0
SPLINE
  5
690E
330
1F
100
AcDbEntity
  8
AM_0
100
AcDbSpline
210
0.0
220
0.0
230
1.0
 70
     8
 71
     3
 72
    11
 73
     7
 74
     5
 42
0.0000000001
 43
0.0000000001
 44
0.0000000001
 40
0.0
 40
0.0
 40
0.0
 40
0.0
 40
0.0257340286974425
 40
0.050771351976944
 40
0.0748383765956772
 40
0.0982369673438489
 40
0.0982369673438489
 40
0.0982369673438489
 40
0.0982369673438489
 10
8.250300999999922
 20
-60.04774491039684
 30
0.0
 10
8.258882384588103
 20
-60.04816568723828
 30
0.0
 10
8.275812827252112
 20
-60.04899584909795
 30
0.0
 10
8.300676084596297
 20
-60.04617265177923
 30
0.0
 10
8.324403132272366
 20
-60.04119342402851
 30
0.0
 10
8.339182420464473
 20
-60.03547691404988
 30
0.0
 10
8.346467999999959
 20
-60.03265891039683
 30
0.0
 11
8.250300999999922
 21
-60.04774491039684
 31
0.0
 11
8.276028999999937
 21
-60.04830191039686
 31
0.0
 11
8.300934999999981
 21
-60.04574091039684
 31
0.0
 11
8.324427999999955
 21
-60.04051591039685
 31
0.0
 11
8.346467999999959
 21
-60.03265891039683
 31
0.0
  0
SPLINE
  5
690F
330
1F
100
AcDbEntity
  8
AM_0
100
AcDbSpline
210
0.0
220
0.0
230
1.0
 70
     8
 71
     3
 72
    11
 73
     7
 74
     5
 42
0.0000000001
 43
0.0000000001
 44
0.0000000001
 40
0.0
 40
0.0
 40
0.0
 40
0.0
 40
0.0410112725601194
 40
0.0853392077026592
 40
0.1333915262315124
 40
0.1855405055983182
 40
0.1855405055983182
 40
0.1855405055983182
 40
0.1855405055983182
 10
8.237954999999943
 20
-59.89106291039684
 30
0.0
 10
8.240914971105536
 20
-59.90446338840947
 30
0.0
 10
8.247074292024037
 20
-59.93234806754881
 30
0.0
 10
8.267930725950802
 20
-59.97209341208414
 30
0.0
 10
8.298482647502876
 20
-60.0101306254209
 30
0.0
 10
8.326614169881875
 20
-60.02850704631406
 30
0.0
 10
8.341254999999933
 20
-60.03807091039685
 30
0.0
 11
8.237954999999943
 21
-59.89106291039684
 31
0.0
 11
8.248493999999937
 21
-59.93069691039685
 31
0.0
 11
8.268518999999969
 21
-59.97024391039685
 31
0.0
 11
8.299214999999947
 21
-60.00721391039684
 31
0.0
 11
8.341254999999933
 21
-60.03807091039685
 31
0.0
  0
SPLINE
  5
6910
330
1F
100
AcDbEntity
  8
AM_0
100
AcDbSpline
210
0.0
220
0.0
230
1.0
 70
     8
 71
     3
 72
    11
 73
     7
 74
     5
 42
0.0000000001
 43
0.0000000001
 44
0.0000000001
 40
0.0
 40
0.0
 40
0.0
 40
0.0
 40
1.158744428151859
 40
2.317506767888968
 40
3.476322033506434
 40
4.635086367922181
 40
4.635086367922181
 40
4.635086367922181
 40
4.635086367922181
 10
12.66441599999996
 20
-51.73685091039684
 30
0.0
 10
12.27881090951146
 20
-51.78714635946892
 30
0.0
 10
11.50759476794618
 20
-51.8877380350677
 30
0.0
 10
10.46029723485397
 20
-52.42540501465077
 30
0.0
 10
9.567870610586294
 20
-53.19320245327023
 30
0.0
 10
9.184303393767015
 20
-53.86981704778914
 30
0.0
 10
8.992523999999946
 20
-54.20811691039685
 30
0.0
 11
12.66441599999996
 21
-51.73685091039684
 31
0.0
 11
11.52585799999997
 21
-51.95219791039685
 31
0.0
 11
10.48612499999996
 21
-52.46374991039684
 31
0.0
 11
9.620706999999925
 21
-53.23440191039686
 31
0.0
 11
8.992523999999946
 21
-54.20811691039685
 31
0.0
  0
SPLINE
  5
6911
330
1F
100
AcDbEntity
  8
AM_0
100
AcDbSpline
210
0.0
220
0.0
230
1.0
 70
     8
 71
     3
 72
    11
 73
     7
 74
     5
 42
0.0000000001
 43
0.0000000001
 44
0.0000000001
 40
0.0
 40
0.0
 40
0.0
 40
0.0
 40
1.080967682723204
 40
2.161946757645607
 40
3.242868271671903
 40
4.323695927426988
 40
4.323695927426988
 40
4.323695927426988
 40
4.323695927426988
 10
20.45818599999996
 20
-55.33219091039686
 30
0.0
 10
20.33875753664359
 20
-54.98997731773767
 30
0.0
 10
20.09989935128746
 20
-54.30554652586796
 30
0.0
 10
19.43016784265184
 20
-53.43806455725189
 30
0.0
 10
18.5875252735744
 20
-52.73741536167526
 30
0.0
 10
17.91225598496848
 20
-52.47395258116985
 30
0.0
 10
17.57463599999994
 20
-52.34222691039687
 30
0.0
 11
20.45818599999996
 21
-55.33219091039686
 31
0.0
 11
20.04799199999997
 21
-54.33207491039687
 31
0.0
 11
19.40132999999992
 21
-53.46585091039685
 31
0.0
 11
18.55911699999996
 21
-52.78830491039687
 31
0.0
 11
17.57463599999994
 21
-52.34222691039687
 31
0.0
  0
SPLINE
  5
6912
330
1F
100
AcDbEntity
  8
AM_0
100
AcDbSpline
210
0.0
220
0.0
230
1.0
 70
     8
 71
     3
 72
    11
 73
     7
 74
     5
 42
0.0000000001
 43
0.0000000001
 44
0.0000000001
 40
0.0
 40
0.0
 40
0.0
 40
0.0
 40
0.799377538624272
 40
1.598756059659815
 40
2.398133580847409
 40
3.197511119471681
 40
3.197511119471681
 40
3.197511119471681
 40
3.197511119471681
 10
0.3559369999999262
 20
-68.62261691039684
 30
0.0
 10
0.351290581387012
 20
-68.3561982452174
 30
0.0
 10
0.3419977384508727
 20
-67.82336058743786
 30
0.0
 10
0.3280600120372282
 20
-67.02410424352026
 30
0.0
 10
0.3141222482660211
 20
-66.22484790025413
 30
0.0
 10
0.3048294161224224
 20
-65.69201057561972
 30
0.0
 10
0.3001829999999472
 20
-65.42559191039685
 30
0.0
 11
0.3559369999999262
 21
-68.62261691039684
 31
0.0
 11
0.3419979999999327
 21
-67.82336091039684
 31
0.0
 11
0.3280599999999367
 21
-67.02410391039686
 31
0.0
 11
0.3141219999999407
 21
-66.22484791039685
 31
0.0
 11
0.3001829999999472
 21
-65.42559191039685
 31
0.0
  0
SPLINE
  5
6913
330
1F
100
AcDbEntity
  8
AM_0
100
AcDbSpline
210
0.0
220
0.0
230
1.0
 70
     8
 71
     3
 72
    11
 73
     7
 74
     5
 42
0.0000000001
 43
0.0000000001
 44
0.0000000001
 40
0.0
 40
0.0
 40
0.0
 40
0.0
 40
0.7960316875759383
 40
1.592063237419283
 40
2.388093934525885
 40
3.184125484369221
 40
3.184125484369221
 40
3.184125484369221
 40
3.184125484369221
 10
0.891762999999969
 20
-65.47734791039686
 30
0.0
 10
0.8552162124838688
 20
-65.74016289359179
 30
0.0
 10
0.7821226437751401
 20
-66.26579281450836
 30
0.0
 10
0.6724845083124786
 20
-67.05423769410108
 30
0.0
 10
0.5628435641969019
 20
-67.84268213677564
 30
0.0
 10
0.4897512011154678
 20
-68.36831189201092
 30
0.0
 10
0.4532049999999686
 20
-68.63112691039686
 30
0.0
 11
0.891762999999969
 21
-65.47734791039686
 31
0.0
 11
0.7821229999999559
 21
-66.26579291039685
 31
0.0
 11
0.6724839999999404
 21
-67.05423791039685
 31
0.0
 11
0.5628439999999273
 21
-67.84268191039686
 31
0.0
 11
0.4532049999999686
 21
-68.63112691039686
 31
0.0
  0
LINE
  5
6914
330
1F
100
AcDbEntity
  8
AM_0
100
AcDbLine
 10
0.3075549999999794
 20
-65.42623691039684
 30
0.0
 11
0.3001829999999472
 21
-65.42559191039685
 31
0.0
  0
SPLINE
  5
691A
330
1F
100
AcDbEntity
  8
AM_0
100
AcDbSpline
210
0.0
220
0.0
230
1.0
 70
     8
 71
     3
 72
    11
 73
     7
 74
     5
 42
0.0000000001
 43
0.0000000001
 44
0.0000000001
 40
0.0
 40
0.0
 40
0.0
 40
0.0
 40
1.162528390681309
 40
2.177395556460147
 40
2.983268731187408
 40
3.567580027745176
 40
3.567580027745176
 40
3.567580027745176
 40
3.567580027745176
 10
12.43438599999996
 20
-54.35441591039685
 30
0.0
 10
12.04578739413262
 20
-54.33637782575663
 30
0.0
 10
11.31794893062098
 20
-54.30259280540143
 30
0.0
 10
10.33712973475837
 20
-54.42833659661306
 30
0.0
 10
9.513096878398724
 20
-54.45540870650962
 30
0.0
 10
9.091322047372378
 20
-54.2503060360027
 30
0.0
 10
8.914044999999931
 20
-54.16409891039686
 30
0.0
 11
12.43438599999996
 21
-54.35441591039685
 31
0.0
 11
11.27200199999993
 21
-54.33609391039684
 31
0.0
 11
10.26058199999994
 21
-54.41966991039683
 31
0.0
 11
9.455510999999945
 21
-54.38372191039687
 31
0.0
 11
8.914044999999931
 21
-54.16409891039686
 31
0.0
  0
LINE
  5
691C
330
1F
100
AcDbEntity
  8
AM_0
100
AcDbLine
 10
8.589652999999942
 20
-53.87931391039686
 30
0.0
 11
8.590218999999934
 21
-53.87885391039686
 31
0.0
  0
SPLINE
  5
691D
330
1F
100
AcDbEntity
  8
AM_0
100
AcDbSpline
210
0.0
220
0.0
230
1.0
 70
     8
 71
     3
 72
    11
 73
     7
 74
     5
 42
0.0000000001
 43
0.0000000001
 44
0.0000000001
 40
0.0
 40
0.0
 40
0.0
 40
0.0
 40
0.1764863642466496
 40
0.3114750111840721
 40
0.399535801465558
 40
0.4338711110607841
 40
0.4338711110607841
 40
0.4338711110607841
 40
0.4338711110607841
 10
8.914044999999931
 20
-54.16409891039686
 30
0.0
 10
8.86551646824487
 20
-54.13067181420009
 30
0.0
 10
8.779870049975239
 20
-54.0716774255617
 30
0.0
 10
8.680651556869485
 20
-53.98298029342363
 30
0.0
 10
8.618423543873377
 20
-53.92301981032192
 30
0.0
 10
8.595955792365846
 20
-53.88888860643336
 30
0.0
 10
8.589652999999942
 20
-53.87931391039686
 30
0.0
 11
8.914044999999931
 21
-54.16409891039686
 31
0.0
 11
8.771122999999932
 21
-54.06055791039685
 31
0.0
 11
8.669533999999942
 21
-53.97166691039686
 31
0.0
 11
8.609121999999957
 21
-53.90759591039685
 31
0.0
 11
8.589652999999942
 21
-53.87931391039686
 31
0.0
  0
SPLINE
  5
691E
330
1F
100
AcDbEntity
  8
AM_0
370
    30
100
AcDbSpline
210
0.0
220
0.0
230
1.0
 70
     8
 71
     3
 72
    11
 73
     7
 74
     5
 42
0.0000000001
 43
0.0000000001
 44
0.0000000001
 40
0.0
 40
0.0
 40
0.0
 40
0.0
 40
0.0019032530047408
 40
0.0038018972578698
 40
0.005700914108778
 40
0.0076032876262611
 40
0.0076032876262611
 40
0.0076032876262611
 40
0.0076032876262611
 10
-46.67724109238134
 20
25.05240599999999
 30
0.0
 10
-46.67717956003953
 20
25.05303755193156
 30
0.0
 10
-46.67705664435731
 20
25.0542991264836
 30
0.0
 10
-46.67698360770116
 20
25.05619889028244
 30
0.0
 10
-46.67698552302903
 20
25.05809976543943
 30
0.0
 10
-46.67706121365205
 20
25.05936488277596
 30
0.0
 10
-46.67709909238135
 20
25.05999800000001
 30
0.0
 11
-46.67724109238134
 21
25.05240599999999
 31
0.0
 11
-46.67707509238136
 21
25.05430200000001
 31
0.0
 11
-46.67699609238139
 21
25.05619899999999
 31
0.0
 11
-46.67700409238137
 21
25.058098
 31
0.0
 11
-46.67709909238135
 21
25.05999800000001
 31
0.0
  0
SPLINE
  5
691F
330
1F
100
AcDbEntity
  8
AM_0
370
    30
100
AcDbSpline
210
0.0
220
0.0
230
1.0
 70
     8
 71
     3
 72
    11
 73
     7
 74
     5
 42
0.0000000001
 43
0.0000000001
 44
0.0000000001
 40
0.0
 40
0.0
 40
0.0
 40
0.0
 40
0.0235071772231433
 40
0.0474089994967615
 40
0.0717123346588371
 40
0.0964233978694641
 40
0.0964233978694641
 40
0.0964233978694641
 40
0.0964233978694641
 10
-52.98096309238133
 20
14.153457
 30
0.0
 10
-52.97759909203641
 20
14.14637915469312
 30
0.0
 10
-52.97081461557013
 20
14.1321046392374
 30
0.0
 10
-52.96152431037393
 20
14.11007287609297
 30
0.0
 10
-52.95272262201226
 20
14.08741142414288
 30
0.0
 10
-52.94743759016794
 20
14.07195001348253
 30
0.0
 10
-52.94477309238135
 20
14.064155
 30
0.0
 11
-52.98096309238133
 21
14.153457
 31
0.0
 11
-52.97102909238134
 21
14.13215199999999
 31
0.0
 11
-52.96168109238136
 21
14.11015399999999
 31
0.0
 11
-52.95292709238134
 21
14.08748199999999
 31
0.0
 11
-52.94477309238135
 21
14.064155
 31
0.0
  0
SPLINE
  5
6920
330
1F
100
AcDbEntity
  8
AM_0
370
    30
100
AcDbSpline
210
0.0
220
0.0
230
1.0
 70
     8
 71
     3
 72
    11
 73
     7
 74
     5
 42
0.0000000001
 43
0.0000000001
 44
0.0000000001
 40
0.0
 40
0.0
 40
0.0
 40
0.0
 40
0.0664981417033561
 40
0.1330997381556891
 40
0.1997726823684747
 40
0.2664850565204942
 40
0.2664850565204942
 40
0.2664850565204942
 40
0.2664850565204942
 10
-52.88517209238137
 20
13.95715100000001
 30
0.0
 10
-52.89523224524218
 20
13.97691078138096
 30
0.0
 10
-52.91536820208673
 20
14.01646108550149
 30
0.0
 10
-52.95000758560941
 20
14.07339177462267
 30
0.0
 10
-52.98748943924092
 20
14.12857825279047
 30
0.0
 10
-53.01517448001611
 20
14.16338732096885
 30
0.0
 10
-53.02902109238136
 20
14.18079700000001
 30
0.0
 11
-52.88517209238137
 21
13.95715100000001
 31
0.0
 11
-52.91608709238136
 21
14.01602600000001
 31
0.0
 11
-52.95046209238137
 21
14.073071
 31
0.0
 11
-52.98815309238137
 21
14.12806800000001
 31
0.0
 11
-53.02902109238136
 21
14.18079700000001
 31
0.0
  0
SPLINE
  5
6921
330
1F
100
AcDbEntity
  8
AM_0
370
    30
100
AcDbSpline
210
0.0
220
0.0
230
1.0
 70
     8
 71
     3
 72
    11
 73
     7
 74
     5
 42
0.0000000001
 43
0.0000000001
 44
0.0000000001
 40
0.0
 40
0.0
 40
0.0
 40
0.0
 40
0.0235071772231176
 40
0.0474089994967579
 40
0.0717123346588131
 40
0.0964230679138375
 40
0.0964230679138375
 40
0.0964230679138375
 40
0.0964230679138375
 10
-52.79757009238136
 20
13.77762799999999
 30
0.0
 10
-52.79420608709181
 20
13.77055015642171
 30
0.0
 10
-52.78742160065322
 20
13.7562756444522
 30
0.0
 10
-52.77813137163884
 20
13.7342438546755
 30
0.0
 10
-52.76932942625649
 20
13.71158260904662
 30
0.0
 10
-52.76404517765195
 20
13.69612104114671
 30
0.0
 10
-52.76138109238138
 20
13.68832599999999
 30
0.0
 11
-52.79757009238136
 21
13.77762799999999
 31
0.0
 11
-52.78763609238138
 21
13.75632300000001
 31
0.0
 11
-52.77828809238133
 21
13.73432500000001
 31
0.0
 11
-52.76953409238138
 21
13.71165300000001
 31
0.0
 11
-52.76138109238138
 21
13.68832599999999
 31
0.0
  0
SPLINE
  5
6922
330
1F
100
AcDbEntity
  8
AM_0
370
    30
100
AcDbSpline
210
0.0
220
0.0
230
1.0
 70
     8
 71
     3
 72
    11
 73
     7
 74
     5
 42
0.0000000001
 43
0.0000000001
 44
0.0000000001
 40
0.0
 40
0.0
 40
0.0
 40
0.0
 40
0.0664986066094582
 40
0.1330996869385552
 40
0.199773196468187
 40
0.2664849580248964
 40
0.2664849580248964
 40
0.2664849580248964
 40
0.2664849580248964
 10
-52.70177909238134
 20
13.581322
 30
0.0
 10
-52.71183975130652
 20
13.60108168026318
 30
0.0
 10
-52.7319765725365
 20
13.64063149026869
 30
0.0
 10
-52.76661417487399
 20
13.69756346609416
 30
0.0
 10
-52.80409768577667
 20
13.75274860097051
 30
0.0
 10
-52.83178197709332
 20
13.78755820610813
 30
0.0
 10
-52.84562809238133
 20
13.804968
 30
0.0
 11
-52.70177909238134
 21
13.581322
 31
0.0
 11
-52.73269509238133
 21
13.640197
 31
0.0
 11
-52.76706909238135
 21
13.69724200000002
 31
0.0
 11
-52.80476109238134
 21
13.752239
 31
0.0
 11
-52.84562809238133
 21
13.804968
 31
0.0
  0
SPLINE
  5
6923
330
1F
100
AcDbEntity
  8
AM_0
370
    30
100
AcDbSpline
210
0.0
220
0.0
230
1.0
 70
     8
 71
     3
 72
    11
 73
     7
 74
     5
 42
0.0000000001
 43
0.0000000001
 44
0.0000000001
 40
0.0
 40
0.0
 40
0.0
 40
0.0
 40
0.0722353296732559
 40
0.1466390739472942
 40
0.224464957000418
 40
0.3067119166402978
 40
0.3067119166402978
 40
0.3067119166402978
 40
0.3067119166402978
 10
-53.18558509238136
 20
14.37533500000001
 30
0.0
 10
-53.16479293922772
 20
14.3630564301713
 30
0.0
 10
-53.12258447838714
 20
14.33813070314515
 30
0.0
 10
-53.06793177310291
 20
14.28627939397902
 30
0.0
 10
-53.01903717147525
 20
14.22487516677671
 30
0.0
 10
-52.99388600341219
 20
14.17769739234057
 30
0.0
 10
-52.98096309238133
 20
14.153457
 30
0.0
 11
-53.18558509238136
 21
14.37533500000001
 31
0.0
 11
-53.12478709238133
 21
14.33632800000001
 31
0.0
 11
-53.07003609238137
 21
14.28594699999999
 31
0.0
 11
-53.02190409238136
 21
14.22479000000001
 31
0.0
 11
-52.98096309238133
 21
14.153457
 31
0.0
  0
SPLINE
  5
6924
330
1F
100
AcDbEntity
  8
AM_0
370
    30
100
AcDbSpline
210
0.0
220
0.0
230
1.0
 70
     8
 71
     3
 72
    11
 73
     7
 74
     5
 42
0.0000000001
 43
0.0000000001
 44
0.0000000001
 40
0.0
 40
0.0
 40
0.0
 40
0.0
 40
0.0722361713409338
 40
0.1466399156149947
 40
0.2244651802146233
 40
0.3067126376403649
 40
0.3067126376403649
 40
0.3067126376403649
 40
0.3067126376403649
 10
-53.00219309238133
 20
13.999506
 30
0.0
 10
-52.98140059194272
 20
13.98722746703392
 30
0.0
 10
-52.93919167564577
 20
13.96230196219893
 30
0.0
 10
-52.88453867881574
 20
13.91045070355332
 30
0.0
 10
-52.83564537680958
 20
13.8490455791213
 30
0.0
 10
-52.81049347062446
 20
13.80186830186645
 30
0.0
 10
-52.79757009238136
 20
13.77762799999999
 30
0.0
 11
-53.00219309238133
 21
13.999506
 31
0.0
 11
-52.94139409238136
 21
13.960499
 31
0.0
 11
-52.88664309238135
 21
13.91011800000001
 31
0.0
 11
-52.83851209238134
 21
13.848961
 31
0.0
 11
-52.79757009238136
 21
13.77762799999999
 31
0.0
  0
SPLINE
  5
6925
330
1F
100
AcDbEntity
  8
AM_0
370
    30
100
AcDbSpline
210
0.0
220
0.0
230
1.0
 70
     8
 71
     3
 72
    11
 73
     7
 74
     5
 42
0.0000000001
 43
0.0000000001
 44
0.0000000001
 40
0.0
 40
0.0
 40
0.0
 40
0.0
 40
0.9294904928464767
 40
1.930004841976983
 40
2.964584826908054
 40
4.006563850459378
 40
4.006563850459378
 40
4.006563850459378
 40
4.006563850459378
 10
-44.96780609238135
 20
24.05238
 30
0.0
 10
-45.01597829088856
 20
24.35917004150858
 30
0.0
 10
-45.11600360269448
 20
24.99619244264
 30
0.0
 10
-45.47607185761827
 20
25.92413279402716
 30
0.0
 10
-46.04071227107566
 20
26.79688843875486
 30
0.0
 10
-46.57526525896756
 20
27.24205208839172
 30
0.0
 10
-46.84349409238132
 20
27.46542700000001
 30
0.0
 11
-44.96780609238135
 21
24.05238
 31
0.0
 11
-45.14349209238134
 21
24.965116
 31
0.0
 11
-45.50245209238136
 21
25.89902000000001
 31
0.0
 11
-46.07745809238134
 21
26.75909200000001
 31
0.0
 11
-46.84349409238132
 21
27.46542700000001
 31
0.0
  0
SPLINE
  5
6926
330
1F
100
AcDbEntity
  8
AM_0
370
    30
100
AcDbSpline
210
0.0
220
0.0
230
1.0
 70
     8
 71
     3
 72
    11
 73
     7
 74
     5
 42
0.0000000001
 43
0.0000000001
 44
0.0000000001
 40
0.0
 40
0.0
 40
0.0
 40
0.0
 40
1.203712037776904
 40
2.402272016355334
 40
3.572177913015416
 40
4.653588883413796
 40
4.653588883413796
 40
4.653588883413796
 40
4.653588883413796
 10
-47.43609109238133
 20
16.701257
 30
0.0
 10
-47.09093699564282
 20
16.91111625822964
 30
0.0
 10
-46.40210611092667
 20
17.32993654713298
 30
0.0
 10
-45.64588374191477
 20
18.27751125735536
 30
0.0
 10
-45.16006529117898
 20
19.33379902589488
 30
0.0
 10
-45.03468635724575
 20
20.07635583420992
 30
0.0
 10
-44.97446109238138
 20
20.43304000000001
 30
0.0
 11
-47.43609109238133
 21
16.701257
 31
0.0
 11
-46.44589109238132
 21
17.385674
 31
0.0
 11
-45.68280609238138
 21
18.30992900000001
 31
0.0
 11
-45.19935809238137
 21
19.37527300000002
 31
0.0
 11
-44.97446109238138
 21
20.43304000000001
 31
0.0
  0
SPLINE
  5
6927
330
1F
100
AcDbEntity
  8
AM_0
370
    30
100
AcDbSpline
210
0.0
220
0.0
230
1.0
 70
     8
 71
     3
 72
    11
 73
     7
 74
     5
 42
0.0000000001
 43
0.0000000001
 44
0.0000000001
 40
0.0
 40
0.0
 40
0.0
 40
0.0
 40
0.7992573408058398
 40
1.598514679780605
 40
2.397772020586445
 40
3.197030361390604
 40
3.197030361390604
 40
3.197030361390604
 40
3.197030361390604
 10
-61.76057409238138
 20
1.365427000000011
 30
0.0
 10
-61.49415542592181
 20
1.365915113105771
 30
0.0
 10
-60.96131809361306
 20
1.366891339316173
 30
0.0
 10
-60.16206209111677
 20
1.36835364272865
 30
0.0
 10
-59.36280575921352
 20
1.369818090386749
 30
0.0
 10
-58.82996809243615
 20
1.370794029925413
 30
0.0
 10
-58.56354909238132
 20
1.371282000000008
 30
0.0
 11
-61.76057409238138
 21
1.365427000000011
 31
0.0
 11
-60.96131809238136
 21
1.36689100000001
 31
0.0
 11
-60.16206209238135
 21
1.368354000000011
 31
0.0
 11
-59.36280609238133
 21
1.369818000000009
 31
0.0
 11
-58.56354909238132
 21
1.371282000000008
 31
0.0
  0
SPLINE
  5
6928
330
1F
100
AcDbEntity
  8
AM_0
370
    30
100
AcDbSpline
210
0.0
220
0.0
230
1.0
 70
     8
 71
     3
 72
    11
 73
     7
 74
     5
 42
0.0000000001
 43
0.0000000001
 44
0.0000000001
 40
0.0
 40
0.0
 40
0.0
 40
0.0
 40
0.7992573408058398
 40
1.59851468161168
 40
2.397772022417462
 40
3.197030361390549
 40
3.197030361390549
 40
3.197030361390549
 40
3.197030361390549
 10
-58.58364909238134
 20
14.532848
 30
0.0
 10
-58.85006775903709
 20
14.53235999403675
 30
0.0
 10
-59.38290509234859
 20
14.53138398211025
 30
0.0
 10
-60.18216109251236
 20
14.52992007155903
 30
0.0
 10
-60.98141742461183
 20
14.52845573104405
 30
0.0
 10
-61.51425509221754
 20
14.52748057721766
 30
0.0
 10
-61.78067409238133
 20
14.526993
 30
0.0
 11
-58.58364909238134
 21
14.532848
 31
0.0
 11
-59.38290509238135
 21
14.531384
 31
0.0
 11
-60.18216109238136
 21
14.52992
 31
0.0
 11
-60.98141709238132
 21
14.52845600000001
 31
0.0
 11
-61.78067409238133
 21
14.526993
 31
0.0
  0
SPLINE
  5
6929
330
1F
100
AcDbEntity
  8
AM_0
370
    30
100
AcDbSpline
210
0.0
220
0.0
230
1.0
 70
     8
 71
     3
 72
    11
 73
     7
 74
     5
 42
0.0000000001
 43
0.0000000001
 44
0.0000000001
 40
0.0
 40
0.0
 40
0.0
 40
0.0
 40
0.0035954272346947
 40
0.0062353880298387
 40
0.0079497021784359
 40
0.0088719787096498
 40
0.0088719787096498
 40
0.0088719787096498
 40
0.0088719787096498
 10
-61.76908409238138
 20
1.306749999999994
 30
0.0
 10
-61.76889077476397
 20
1.305560591490725
 30
0.0
 10
-61.76855551269942
 20
1.303497853713774
 30
0.0
 10
-61.7678556428484
 20
1.300991571275203
 30
0.0
 10
-61.76734805873915
 20
1.299200318076391
 30
0.0
 10
-61.76661241852299
 20
1.298687413469546
 30
0.0
 10
-61.76635509238133
 20
1.298507999999998
 30
0.0
 11
-61.76908409238138
 21
1.306749999999994
 31
0.0
 11
-61.76843309238137
 21
1.303213999999997
 31
0.0
 11
-61.76776109238136
 21
1.300661000000019
 31
0.0
 11
-61.76706809238135
 21
1.299092999999999
 31
0.0
 11
-61.76635509238133
 21
1.298507999999998
 31
0.0
  0
SPLINE
  5
692A
330
1F
100
AcDbEntity
  8
AM_0
370
    30
100
AcDbSpline
210
0.0
220
0.0
230
1.0
 70
     8
 71
     3
 72
    11
 73
     7
 74
     5
 42
0.0000000001
 43
0.0000000001
 44
0.0000000001
 40
0.0
 40
0.0
 40
0.0
 40
0.0
 40
0.0249324115359794
 40
0.0460483370189137
 40
0.060087702389177
 40
0.0652630980262564
 40
0.0652630980262564
 40
0.0652630980262564
 40
0.0652630980262564
 10
-61.78067409238133
 20
14.526993
 30
0.0
 10
-61.78070533080707
 20
14.5353249497857
 30
0.0
 10
-61.78076302589024
 20
14.55071345046094
 30
0.0
 10
-61.78250875500399
 20
14.57049164001446
 30
0.0
 10
-61.78270662977383
 20
14.58433294416402
 30
0.0
 10
-61.78566678894994
 20
14.59006192807166
 30
0.0
 10
-61.78646409238138
 20
14.59160500000002
 30
0.0
 11
-61.78067409238133
 21
14.526993
 31
0.0
 11
-61.78114309238134
 21
14.55192099999999
 31
0.0
 11
-61.78240809238139
 21
14.57299900000001
 31
0.0
 11
-61.78428009238132
 21
14.58691300000001
 31
0.0
 11
-61.78646409238138
 21
14.59160500000002
 31
0.0
  0
SPLINE
  5
692B
330
1F
100
AcDbEntity
  8
AM_0
370
    30
100
AcDbSpline
210
0.0
220
0.0
230
1.0
 70
     8
 71
     3
 72
    11
 73
     7
 74
     5
 42
0.0000000001
 43
0.0000000001
 44
0.0000000001
 40
0.0
 40
0.0
 40
0.0
 40
0.0
 40
0.0054245668029984
 40
0.0200701603382464
 40
0.0419258781484599
 40
0.0675601731846064
 40
0.0675601731846064
 40
0.0675601731846064
 40
0.0675601731846064
 10
-61.76635509238133
 20
1.298507999999998
 30
0.0
 10
-61.76554054891672
 20
1.300135472368171
 30
0.0
 10
-61.76252684873915
 20
1.306156899066658
 30
0.0
 10
-61.76234027314776
 20
1.320525063967894
 30
0.0
 10
-61.76060174330399
 20
1.340993089356935
 30
0.0
 10
-61.76058378562741
 20
1.356861502527982
 30
0.0
 10
-61.76057409238138
 20
1.365427000000011
 30
0.0
 11
-61.76635509238133
 21
1.298507999999998
 31
0.0
 11
-61.76412509238134
 21
1.303453000000019
 31
0.0
 11
-61.76223409238139
 21
1.317976000000016
 31
0.0
 11
-61.76098509238136
 21
1.339796000000007
 31
0.0
 11
-61.76057409238138
 21
1.365427000000011
 31
0.0
  0
SPLINE
  5
692C
330
1F
100
AcDbEntity
  8
AM_0
370
    30
100
AcDbSpline
210
0.0
220
0.0
230
1.0
 70
     8
 71
     3
 72
    11
 73
     7
 74
     5
 42
0.0000000001
 43
0.0000000001
 44
0.0000000001
 40
0.0
 40
0.0
 40
0.0
 40
0.0
 40
0.018058489194843
 40
0.0586883399206295
 40
0.1233224876213637
 40
0.2122420779263193
 40
0.2122420779263193
 40
0.2122420779263193
 40
0.2122420779263193
 10
-58.59875709238133
 20
0.9642949999999928
 30
0.0
 10
-58.59523693207441
 20
0.9692569249772355
 30
0.0
 10
-58.58379675219898
 20
0.9853827003166387
 30
0.0
 10
-58.58031948349814
 20
1.027884160300715
 30
0.0
 10
-58.57186957855137
 20
1.091297839216895
 30
0.0
 10
-58.56930638269281
 20
1.14259433070198
 30
0.0
 10
-58.56782209238133
 20
1.17229900000001
 30
0.0
 11
-58.59875709238133
 21
0.9642949999999928
 31
0.0
 11
-58.58912309238133
 21
0.9795689999999979
 31
0.0
 11
-58.58075609238136
 21
1.019328000000002
 31
0.0
 11
-58.57365609238138
 21
1.083571000000006
 31
0.0
 11
-58.56782209238133
 21
1.17229900000001
 31
0.0
  0
SPLINE
  5
692D
330
1F
100
AcDbEntity
  8
AM_0
370
    30
100
AcDbSpline
210
0.0
220
0.0
230
1.0
 70
     8
 71
     3
 72
    11
 73
     7
 74
     5
 42
0.0000000001
 43
0.0000000001
 44
0.0000000001
 40
0.0
 40
0.0
 40
0.0
 40
0.0
 40
0.0463301999240164
 40
0.0949436440110244
 40
0.1458468994373637
 40
0.1990465105825658
 40
0.1990465105825658
 40
0.1990465105825658
 40
0.1990465105825658
 10
-58.56782209238133
 20
1.17229900000001
 30
0.0
 10
-58.56715206496814
 20
1.187728110791859
 30
0.0
 10
-58.56577898986162
 20
1.219346709563945
 30
0.0
 10
-58.56450247611167
 20
1.267947471917614
 30
0.0
 10
-58.56367757270515
 20
1.318847402239923
 30
0.0
 10
-58.56359254435593
 20
1.353548647977323
 30
0.0
 10
-58.56354909238132
 20
1.371282000000008
 30
0.0
 11
-58.56782209238133
 21
1.17229900000001
 31
0.0
 11
-58.56594109238137
 21
1.218591000000004
 31
0.0
 11
-58.56460209238134
 21
1.26718600000001
 31
0.0
 11
-58.56380409238136
 21
1.318083000000001
 31
0.0
 11
-58.56354909238132
 21
1.371282000000008
 31
0.0
  0
SPLINE
  5
692E
330
1F
100
AcDbEntity
  8
AM_0
370
    30
100
AcDbSpline
210
0.0
220
0.0
230
1.0
 70
     8
 71
     3
 72
    11
 73
     7
 74
     5
 42
0.0000000001
 43
0.0000000001
 44
0.0000000001
 40
0.0
 40
0.0
 40
0.0
 40
0.0
 40
0.0010095033432198
 40
0.0029801611014279
 40
0.0059898152343647
 40
0.0100225378878813
 40
0.0100225378878813
 40
0.0100225378878813
 40
0.0100225378878813
 10
-61.78646409238138
 20
14.59160500000002
 30
0.0
 10
-61.78673716389638
 20
14.5913975581335
 30
0.0
 10
-61.78754330001506
 20
14.59078516770851
 30
0.0
 10
-61.78805627726728
 20
14.58873677246701
 30
0.0
 10
-61.78881425595861
 20
14.58588465076905
 30
0.0
 10
-61.78915943196746
 20
14.58354994052251
 30
0.0
 10
-61.78935709238135
 20
14.582213
 30
0.0
 11
-61.78646409238138
 21
14.59160500000002
 31
0.0
 11
-61.78722009238135
 21
14.590936
 31
0.0
 11
-61.78796609238134
 21
14.589112
 31
0.0
 11
-61.78868309238135
 21
14.58618900000002
 31
0.0
 11
-61.78935709238135
 21
14.582213
 31
0.0
  0
SPLINE
  5
692F
330
1F
100
AcDbEntity
  8
AM_0
370
    30
100
AcDbSpline
210
0.0
220
0.0
230
1.0
 70
     8
 71
     3
 72
    11
 73
     7
 74
     5
 42
0.0000000001
 43
0.0000000001
 44
0.0000000001
 40
0.0
 40
0.0
 40
0.0
 40
0.0
 40
0.0530656384584288
 40
0.1036196029814999
 40
0.1516696175288347
 40
0.1972224715009095
 40
0.1972224715009095
 40
0.1972224715009095
 40
0.1972224715009095
 10
-58.58364909238134
 20
14.532848
 30
0.0
 10
-58.58374634637706
 20
14.55053648267159
 30
0.0
 10
-58.58393625119528
 20
14.58507622637432
 30
0.0
 10
-58.58491317391304
 20
14.6356245027095
 30
0.0
 10
-58.58633554368873
 20
14.6836577125483
 30
0.0
 10
-58.58780901267433
 20
14.71482439501476
 30
0.0
 10
-58.58852609238136
 20
14.72999200000001
 30
0.0
 11
-58.58364909238134
 21
14.532848
 31
0.0
 11
-58.58406609238136
 21
14.58591200000001
 31
0.0
 11
-58.58501809238135
 21
14.63645700000001
 31
0.0
 11
-58.58650509238134
 21
14.684484
 31
0.0
 11
-58.58852609238136
 21
14.72999200000001
 31
0.0
  0
SPLINE
  5
6930
330
1F
100
AcDbEntity
  8
AM_0
370
    30
100
AcDbSpline
210
0.0
220
0.0
230
1.0
 70
     8
 71
     3
 72
    11
 73
     7
 74
     5
 42
0.0000000001
 43
0.0000000001
 44
0.0000000001
 40
0.0
 40
0.0
 40
0.0
 40
0.0
 40
0.0842753581837542
 40
0.1453407114538214
 40
0.1834761464192198
 40
0.2001563970768052
 40
0.2001563970768052
 40
0.2001563970768052
 40
0.2001563970768052
 10
-58.58852609238136
 20
14.72999200000001
 30
0.0
 10
-58.59003562531856
 20
14.75815158535238
 30
0.0
 10
-58.59263895558951
 20
14.8067154153682
 30
0.0
 10
-58.60105192341117
 20
14.86648325970672
 30
0.0
 10
-58.60436091132043
 20
14.90659707963074
 30
0.0
 10
-58.61553258514893
 20
14.9213283255356
 30
0.0
 10
-58.61893209238133
 20
14.92581100000001
 30
0.0
 11
-58.58852609238136
 21
14.72999200000001
 31
0.0
 11
-58.59442009238137
 21
14.81406100000001
 31
0.0
 11
-58.60145309238135
 21
14.87472
 31
0.0
 11
-58.60962309238136
 21
14.91197
 31
0.0
 11
-58.61893209238133
 21
14.92581100000001
 31
0.0
  0
SPLINE
  5
6931
330
1F
100
AcDbEntity
  8
AM_0
370
    30
100
AcDbSpline
210
0.0
220
0.0
230
1.0
 70
     8
 71
     3
 72
    11
 73
     7
 74
     5
 42
0.0000000001
 43
0.0000000001
 44
0.0000000001
 40
0.0
 40
0.0
 40
0.0
 40
0.0
 40
1.190954681367853
 40
2.372934410548082
 40
3.534889857777439
 40
4.665783265521951
 40
4.665783265521951
 40
4.665783265521951
 40
4.665783265521951
 10
-47.55780209238134
 20
12.05196900000001
 30
0.0
 10
-47.55710626593614
 20
12.44895836699005
 30
0.0
 10
-47.55571985674577
 20
13.2399454165312
 30
0.0
 10
-47.53617011047477
 20
14.41811278296321
 30
0.0
 10
-47.50536115572751
 20
15.576018165767
 30
0.0
 10
-47.47276792948468
 20
16.33961697018079
 30
0.0
 10
-47.45669209238133
 20
16.71624399999999
 30
0.0
 11
-47.55780209238134
 21
12.05196900000001
 31
0.0
 11
-47.55275809238134
 21
13.24291300000002
 31
0.0
 11
-47.53407109238134
 21
14.424745
 31
0.0
 11
-47.50193609238136
 21
15.58625599999999
 31
0.0
 11
-47.45669209238133
 21
16.71624399999999
 31
0.0
  0
SPLINE
  5
6932
330
1F
100
AcDbEntity
  8
AM_0
370
    30
100
AcDbSpline
210
0.0
220
0.0
230
1.0
 70
     8
 71
     3
 72
    11
 73
     7
 74
     5
 42
0.0000000001
 43
0.0000000001
 44
0.0000000001
 40
0.0
 40
0.0
 40
0.0
 40
0.0
 40
0.1181422247166384
 40
0.2358779604683545
 40
0.3539764531344731
 40
0.4718705708206
 40
0.4718705708206
 40
0.4718705708206
 40
0.4718705708206
 10
-55.32866509238136
 20
2.772245999999996
 30
0.0
 10
-55.289262454509
 20
2.773431609685372
 30
0.0
 10
-55.21059275042397
 20
2.775798749758863
 30
0.0
 10
-55.09389240692936
 20
2.794983230612079
 30
0.0
 10
-54.97943490532609
 20
2.824387637462895
 30
0.0
 10
-54.90636126888467
 20
2.853717679315905
 30
0.0
 10
-54.86985609238138
 20
2.868369999999999
 30
0.0
 11
-55.32866509238136
 21
2.772245999999996
 31
0.0
 11
-55.21068409238137
 21
2.778415999999993
 31
0.0
 11
-55.09437109238138
 21
2.796663999999993
 31
0.0
 11
-54.98019209238134
 21
2.826837000000012
 31
0.0
 11
-54.86985609238138
 21
2.868369999999999
 31
0.0
  0
LINE
  5
6934
330
1F
100
AcDbEntity
  8
AM_0
370
    30
100
AcDbLine
 10
-54.94412509238134
 20
14.24160700000002
 30
0.0
 11
-54.94975109238135
 21
14.04010600000001
 31
0.0
  0
SPLINE
  5
6935
330
1F
100
AcDbEntity
  8
AM_0
370
    30
100
AcDbSpline
210
0.0
220
0.0
230
1.0
 70
     8
 71
     3
 72
    11
 73
     7
 74
     5
 42
0.0000000001
 43
0.0000000001
 44
0.0000000001
 40
0.0
 40
0.0
 40
0.0
 40
0.0
 40
0.1194372829772801
 40
0.2386980816875
 40
0.3577898896761313
 40
0.4767194215679302
 40
0.4767194215679302
 40
0.4767194215679302
 40
0.4767194215679302
 10
-54.94412509238134
 20
14.24160700000002
 30
0.0
 10
-54.93626900922278
 20
14.28063682990642
 30
0.0
 10
-54.92056845129999
 20
14.35863881802115
 30
0.0
 10
-54.89814359183538
 20
14.47577632235715
 30
0.0
 10
-54.87649354169487
 20
14.59288740679912
 30
0.0
 10
-54.86281480022847
 20
14.67104022971458
 30
0.0
 10
-54.85598009238134
 20
14.71009000000001
 30
0.0
 11
-54.94412509238134
 21
14.24160700000002
 31
0.0
 11
-54.92074209238137
 21
14.358733
 31
0.0
 11
-54.89825709238136
 21
14.475855
 31
0.0
 11
-54.87667009238135
 21
14.592974
 31
0.0
 11
-54.85598009238134
 21
14.71009000000001
 31
0.0
  0
SPLINE
  5
6936
330
1F
100
AcDbEntity
  8
AM_0
370
    30
100
AcDbSpline
210
0.0
220
0.0
230
1.0
 70
     8
 71
     3
 72
    11
 73
     7
 74
     5
 42
0.0000000001
 43
0.0000000001
 44
0.0000000001
 40
0.0
 40
0.0
 40
0.0
 40
0.0
 40
0.0869485351342933
 40
0.1667170578985939
 40
0.2296718422839171
 40
0.2616033135622425
 40
0.2616033135622425
 40
0.2616033135622425
 40
0.2616033135622425
 10
-53.02902109238136
 20
14.18079700000001
 30
0.0
 10
-53.04793233991381
 20
14.20278025309051
 30
0.0
 10
-53.08419318714874
 20
14.24493143220616
 30
0.0
 10
-53.13641193162835
 20
14.30072662830611
 30
0.0
 10
-53.17932385093013
 20
14.34082432113495
 30
0.0
 10
-53.19590585534802
 20
14.3678681211018
 30
0.0
 10
-53.20148609238134
 20
14.376969
 30
0.0
 11
-53.02902109238136
 21
14.18079700000001
 31
0.0
 11
-53.08620209238137
 21
14.246298
 31
0.0
 11
-53.14105209238136
 21
14.304216
 31
0.0
 11
-53.18398309238137
 21
14.35026200000002
 31
0.0
 11
-53.20148609238134
 21
14.376969
 31
0.0
  0
SPLINE
  5
6937
330
1F
100
AcDbEntity
  8
AM_0
370
    30
100
AcDbSpline
210
0.0
220
0.0
230
1.0
 70
     8
 71
     3
 72
    11
 73
     7
 74
     5
 42
0.0000000001
 43
0.0000000001
 44
0.0000000001
 40
0.0
 40
0.0
 40
0.0
 40
0.0
 40
0.0869485351343147
 40
0.1667177455165461
 40
0.2296718479721865
 40
0.2616033192505429
 40
0.2616033192505429
 40
0.2616033192505429
 40
0.2616033192505429
 10
-52.84562809238133
 20
13.804968
 30
0.0
 10
-52.86453924284492
 20
13.82695134464933
 30
0.0
 10
-52.90080005351351
 20
13.86910287317351
 30
0.0
 10
-52.95302002713761
 20
13.92489691194059
 30
0.0
 10
-52.99593088033637
 20
13.96499560032485
 30
0.0
 10
-53.01251283274584
 20
13.99203914246158
 30
0.0
 10
-53.01809309238138
 20
14.00113999999999
 30
0.0
 11
-52.84562809238133
 21
13.804968
 31
0.0
 11
-52.90280909238135
 21
13.87046900000001
 31
0.0
 11
-52.95766009238139
 21
13.92838700000002
 31
0.0
 11
-53.00059009238134
 21
13.97443300000001
 31
0.0
 11
-53.01809309238138
 21
14.00113999999999
 31
0.0
  0
SPLINE
  5
6938
330
1F
100
AcDbEntity
  8
AM_0
370
    30
100
AcDbSpline
210
0.0
220
0.0
230
1.0
 70
     8
 71
     3
 72
    11
 73
     7
 74
     5
 42
0.0000000001
 43
0.0000000001
 44
0.0000000001
 40
0.0
 40
0.0
 40
0.0
 40
0.0
 40
0.0024431285271303
 40
0.0055139924121294
 40
0.0106589660757898
 40
0.0182307508059852
 40
0.0182307508059852
 40
0.0182307508059852
 40
0.0182307508059852
 10
-53.01809309238138
 20
14.00113999999999
 30
0.0
 10
-53.01787451795938
 20
14.00201215534246
 30
0.0
 10
-53.01738120879003
 20
14.00398055687647
 30
0.0
 10
-53.01314594449264
 20
14.00401961643362
 30
0.0
 10
-53.00835854828879
 20
14.00249547404308
 30
0.0
 10
-53.00449407104745
 20
14.00062168651196
 30
0.0
 10
-53.00219309238133
 20
13.999506
 30
0.0
 11
-53.01809309238138
 21
14.00113999999999
 31
0.0
 11
-53.01710409238137
 21
14.00337400000001
 31
0.0
 11
-53.01407809238134
 21
14.003897
 31
0.0
 11
-53.00909309238136
 21
14.002624
 31
0.0
 11
-53.00219309238133
 21
13.999506
 31
0.0
  0
SPLINE
  5
6939
330
1F
100
AcDbEntity
  8
AM_0
370
    30
100
AcDbSpline
210
0.0
220
0.0
230
1.0
 70
     8
 71
     3
 72
    11
 73
     7
 74
     5
 42
0.0000000001
 43
0.0000000001
 44
0.0000000001
 40
0.0
 40
0.0
 40
0.0
 40
0.0
 40
0.0024435335070234
 40
0.0055134120062303
 40
0.0106583856698907
 40
0.0182310816891684
 40
0.0182310816891684
 40
0.0182310816891684
 40
0.0182310816891684
 10
-53.20148609238134
 20
14.376969
 30
0.0
 10
-53.20126716306922
 20
14.37784116886794
 30
0.0
 10
-53.20077318682763
 20
14.37980906752539
 30
0.0
 10
-53.19653883259676
 20
14.3798487984161
 30
0.0
 10
-53.19175121300747
 20
14.37832418453469
 30
0.0
 10
-53.1878863893518
 20
14.37645061251084
 30
0.0
 10
-53.18558509238136
 20
14.37533500000001
 30
0.0
 11
-53.20148609238134
 21
14.376969
 31
0.0
 11
-53.20049609238134
 21
14.37920299999999
 31
0.0
 11
-53.19747109238136
 21
14.37972600000001
 31
0.0
 11
-53.19248609238139
 21
14.37845300000001
 31
0.0
 11
-53.18558509238136
 21
14.37533500000001
 31
0.0
  0
LINE
  5
6B19
330
1F
100
AcDbEntity
  8
AM_0
100
AcDbLine
 10
4.957967999999937
 20
31.00472300000001
 30
0.0
 11
5.368879999999933
 21
31.69379400000003
 31
0.0
  0
LINE
  5
6B1A
330
1F
100
AcDbEntity
  8
AM_0
100
AcDbLine
 10
4.957967999999937
 20
31.00472300000001
 30
0.0
 11
4.991261999999949
 21
30.99510700000002
 31
0.0
  0
LINE
  5
6B1B
330
1F
100
AcDbEntity
  8
AM_0
100
AcDbLine
 10
4.996702154066952
 20
31.00453030660242
 30
0.0
 11
3.203666999999939
 21
27.89890200000002
 31
0.0
  0
ARC
  5
6B1D
330
1F
100
AcDbEntity
  8
AM_0
100
AcDbCircle
 10
6.419564884816964
 20
31.2141766007872
 30
0.0
 40
1.144225622330529
100
AcDbArc
 50
140.1657000166462
 51
147.342512631602
  0
ARC
  5
6B1E
330
1F
100
AcDbEntity
  8
AM_0
100
AcDbCircle
 10
7.948881999999969
 20
30.15527100000003
 30
0.0
 40
3.00390855067527
100
AcDbArc
 50
146.0785638358524
 51
149.1912653293861
  0
ARC
  5
6B29
330
1F
100
AcDbEntity
  8
AM_0
100
AcDbCircle
 10
7.922717999999975
 20
30.18738400000001
 30
0.0
 40
2.96168599735894
100
AcDbArc
 50
106.4036150324394
 51
108.2558670023636
  0
ARC
  5
6B2F
330
1F
100
AcDbEntity
  8
AM_0
100
AcDbCircle
 10
7.922275999999954
 20
30.18888600000003
 30
0.0
 40
2.960121136494305
100
AcDbArc
 50
104.5387523327681
 51
143.5601940185747
  0
LINE
  5
6B3E
330
1F
100
AcDbEntity
  8
AM_7
  6
CENTER
370
    13
100
AcDbLine
 10
15.11002099999996
 20
22.26467600000001
 30
0.0
 11
24.6014906910122
 21
22.26467600000001
 31
0.0
1001
GENIUS_GENOREF_13
1005
6B42
  0
LINE
  5
6B3F
330
1F
100
AcDbEntity
  8
AM_7
  6
CENTER
370
    13
100
AcDbLine
 10
15.11002099999996
 20
22.26467600000001
 30
0.0
 11
15.11002099999996
 21
31.75614569101228
 31
0.0
1001
GENIUS_GENOREF_13
1005
6B42
  0
LINE
  5
6B40
330
1F
100
AcDbEntity
  8
AM_7
  6
CENTER
370
    13
100
AcDbLine
 10
15.11002099999996
 20
22.26467600000001
 30
0.0
 11
5.618551308987719
 21
22.26467600000001
 31
0.0
1001
GENIUS_GENOREF_13
1005
6B42
  0
LINE
  5
6B41
330
1F
100
AcDbEntity
  8
AM_7
  6
CENTER
370
    13
100
AcDbLine
 10
15.11002099999996
 20
22.26467600000001
 30
0.0
 11
15.11002099999996
 21
12.77320630898774
 31
0.0
1001
GENIUS_GENOREF_13
1005
6B42
  0
POINT
  5
6B42
330
1F
100
AcDbEntity
  8
0
 60
     1
370
    13
100
AcDbPoint
 10
0.0
 20
0.0
 30
0.0
1001
GENIUS_GENOENT_13
1002
{
1000
MYREF
1005
6B42
1002
}
1002
{
1000
GRP
1005
0
1002
}
1001
GENIUS_GENOBJ-N-CRS_13
1002
{
1000
OWNER
1000
GEN
1002
}
1001
GENIUS_GENOLIS_13
1002
{
1000
ENT
1005
6B41
1005
6B40
1005
6B3F
1005
6B3E
1002
}
1001
GENIUS_GENODEF_13
1002
{
1000
HIER
1070
    10
1002
}
1002
{
1000
MANEDIT
1070
     0
1002
}
1002
{
1000
NOSEL
1070
     0
1002
}
1002
{
1000
BEHIND
1070
     0
1002
}
1002
{
1000
OTHER
1070
     0
1002
}
1002
{
1000
REACTOR
1002
}
  0
DIMENSION
  5
6B45
330
1F
100
AcDbEntity
  8
AM_5
370
    13
100
AcDbDimension
  2
*D4
 10
154.7431248903241
 20
6.000000000000024
 30
0.0
 11
154.7431248903241
 21
15.10034717006758
 31
0.0
 70
   160
 71
     5
 42
18.99999999999997
  3
AM_JIS$0
100
AcDbAlignedDimension
 13
140.0
 23
25.0
 33
0.0
 14
140.0
 24
6.000000000000028
 34
0.0
 50
90.0
100
AcDbRotatedDimension
1001
ACAD
1000
DSTYLE
1002
{
1070
   271
1070
     0
1002
}
  0
LINE
  5
6B66
330
1F
100
AcDbEntity
  8
AM_5
370
    13
100
AcDbLine
 10
0.0
 20
0.4411041333164292
 30
0.0
 11
0.0
 21
-1.40106603391817
 31
0.0
  0
DIMENSION
  5
6B6A
330
1F
100
AcDbEntity
  8
AM_5
370
    13
100
AcDbDimension
  2
*D5
 10
140.0
 20
-19.95036249323042
 30
0.0
 11
69.56549467234356
 21
-19.95036249323042
 31
0.0
 70
   160
 71
     5
 42
140.0
  3
AM_JIS$0
100
AcDbAlignedDimension
 13
0.0
 23
-1.40106603391817
 33
0.0
 14
140.0
 24
6.000000000000028
 34
0.0
100
AcDbRotatedDimension
1001
ACAD
1000
DSTYLE
1002
{
1070
   271
1070
     0
1002
}
  0
LINE
  5
6BB0
330
1F
100
AcDbEntity
  8
AM_5
370
    13
100
AcDbLine
 10
0.4001598201076604
 20
0.0
 30
0.0
 11
-1.259911351749793
 21
0.0
 31
0.0
  0
DIMENSION
  5
6BB3
330
1F
100
AcDbEntity
  8
AM_5
370
    13
100
AcDbDimension
  2
*D6
 10
-20.80976703490762
 20
25.00000000000001
 30
0.0
 11
-20.80976703490762
 21
12.84417931770574
 31
0.0
 70
   160
 71
     5
 42
25.00000000000001
  3
AM_JIS$0
100
AcDbAlignedDimension
 13
-1.259911351749793
 23
0.0
 33
0.0
 14
25.99999999999994
 24
25.0
 34
0.0
 50
90.0
100
AcDbRotatedDimension
1001
ACAD
1000
DSTYLE
1002
{
1070
   271
1070
     0
1002
}
  0
DIMENSION
  5
6BC2
330
1F
100
AcDbEntity
  8
AM_5
370
    13
100
AcDbDimension
  2
*D7
 10
50.12322194925822
 20
25.0
 30
0.0
 11
50.12322194925821
 21
29.0
 31
0.0
 70
   160
 71
     5
 42
7.999999999999993
  3
AM_JIS$0
100
AcDbAlignedDimension
 13
11.07179699999995
 23
33.0
 33
0.0
 14
26.24992899999995
 24
25.0
 34
0.0
 50
90.0
100
AcDbRotatedDimension
1001
ACAD
1000
DSTYLE
1002
{
1070
    76
1070
     1
1070
   271
1070
     0
1002
}
  0
DIMENSION
  5
6C2A
330
1F
100
AcDbEntity
  8
AM_5
370
    13
100
AcDbDimension
  2
*D8
 10
-1.259911351749793
 20
0.0
 30
0.0
 11
-7.156650786191394
 21
9.191394448911042
 31
0.0
 70
   162
 71
     5
 42
1.588249622029203
  3
AM_JIS
100
AcDb2LineAngularDimension
 13
0.2638049999999339
 23
15.51683199999999
 33
0.0
 14
0.0000619999999572
 24
0.4070079999999905
 34
0.0
 15
0.4001598201076604
 25
0.0
 35
0.0
 16
-10.05758981029856
 26
5.880912213867547
 36
0.0
1001
ACAD
1000
DSTYLE
1002
{
1070
   271
1070
     0
1002
}
  0
DIMENSION
  5
6C5E
330
1F
100
AcDbEntity
  8
AM_5
370
    13
100
AcDbDimension
  2
*D9
 10
49.92927922212709
 20
5.999999999999993
 30
0.0
 11
49.92927922212709
 21
2.999999999999997
 31
0.0
 70
   160
 71
     5
 42
6.000000000000005
  3
AM_JIS$0
100
AcDbAlignedDimension
 13
0.0
 23
0.0
 33
0.0
 14
25.99999999999994
 24
6.0
 34
0.0
 50
90.0
100
AcDbRotatedDimension
1001
ACAD
1000
DSTYLE
1002
{
1070
    76
1070
     1
1070
   271
1070
     0
1002
}
  0
LINE
  5
6E8F
330
1F
100
AcDbEntity
  8
AM_0
100
AcDbLine
 10
9.660168052691006
 20
-57.01338291500673
 30
0.0
 11
9.29093005269101
 21
-60.02071791500671
 31
0.0
  0
SPLINE
  5
6E91
330
1F
100
AcDbEntity
  8
AM_0
100
AcDbSpline
210
0.0
220
0.0
230
1.0
 70
     8
 71
     3
 72
    11
 73
     7
 74
     5
 42
0.0000000001
 43
0.0000000001
 44
0.0000000001
 40
0.0
 40
0.0
 40
0.0
 40
0.0
 40
0.8026322631703728
 40
1.609191784312489
 40
2.419228759192024
 40
3.231417454063501
 40
3.231417454063501
 40
3.231417454063501
 40
3.231417454063501
 10
10.13122005269105
 20
-55.73470091500673
 30
0.0
 10
10.29990771042415
 20
-55.52475250680041
 30
0.0
 10
10.63810841004067
 20
-55.10382841850048
 30
0.0
 10
11.33513055356293
 20
-54.67379879824171
 30
0.0
 10
12.11450559799565
 20
-54.41356490003247
 30
0.0
 10
12.65866930822609
 20
-54.41998607100177
 30
0.0
 10
12.93111205269105
 20
-54.42320091500673
 30
0.0
 11
10.13122005269105
 21
-55.73470091500673
 31
0.0
 11
10.66848905269103
 21
-55.13841191500671
 31
0.0
 11
11.34731705269104
 21
-54.70283091500673
 31
0.0
 11
12.11970105269103
 21
-54.45873491500672
 31
0.0
 11
12.93111205269105
 21
-54.42320091500673
 31
0.0
  0
SPLINE
  5
6E92
330
1F
100
AcDbEntity
  8
AM_0
100
AcDbSpline
210
0.0
220
0.0
230
1.0
 70
     8
 71
     3
 72
    11
 73
     7
 74
     5
 42
0.0000000001
 43
0.0000000001
 44
0.0000000001
 40
0.0
 40
0.0
 40
0.0
 40
0.0
 40
0.3529215647378435
 40
0.697706418442281
 40
1.037187579572037
 40
1.374184017459749
 40
1.374184017459749
 40
1.374184017459749
 40
1.374184017459749
 10
10.13122005269105
 20
-55.73470091500673
 30
0.0
 10
10.06955970140803
 20
-55.83507220246128
 30
0.0
 10
9.947660596473703
 20
-56.03350068765845
 30
0.0
 10
9.812958462678555
 20
-56.35303752285456
 30
0.0
 10
9.712153038619615
 20
-56.67918076058118
 30
0.0
 10
9.677453230175653
 20
-56.90226265911333
 30
0.0
 10
9.660167052691008
 20
-57.01339391500673
 30
0.0
 11
10.13122005269105
 21
-55.73470091500673
 31
0.0
 11
9.954244052691024
 21
-56.04004191500673
 31
0.0
 11
9.81768405269105
 21
-56.35662991500672
 31
0.0
 11
9.719985052691015
 21
-56.68174891500672
 31
0.0
 11
9.660167052691008
 21
-57.01339391500673
 31
0.0
  0
LINE
  5
6E93
330
1F
100
AcDbEntity
  8
AM_0
100
AcDbLine
 10
9.29093005269101
 20
-60.02071791500671
 30
0.0
 11
9.320358052691006
 21
-60.02447891500674
 31
0.0
  0
DIMENSION
  5
6E9B
330
1F
100
AcDbEntity
  8
AM_5
370
    13
100
AcDbDimension
  2
*D10
 10
154.4657963043718
 20
-81.20718191039686
 30
0.0
 11
151.0657963043718
 21
-71.70718191039684
 31
0.0
 70
    32
 71
     5
 42
19.0
  3
AM_JIS$0
100
AcDbAlignedDimension
 13
140.0
 23
-62.20718191039686
 33
0.0
 14
140.0
 24
-81.20718191039686
 34
0.0
 50
90.0
100
AcDbRotatedDimension
1001
ACAD
1000
DSTYLE
1002
{
1070
   271
1070
     0
1002
}
  0
DIMENSION
  5
6EB2
330
1F
100
AcDbEntity
  8
AM_5
370
    13
100
AcDbDimension
  2
*D11
 10
-13.52722960660152
 20
-81.20718191039686
 30
0.0
 11
-13.52722960660151
 21
-71.32542934242386
 31
0.0
 70
   160
 71
     5
 42
19.0
  3
AM_JIS$0
100
AcDbAlignedDimension
 13
-0.0000000000000568
 23
-62.20718191039686
 33
0.0
 14
1.944523999999944
 24
-81.20718191039686
 34
0.0
 50
90.0
100
AcDbRotatedDimension
1001
ACAD
1000
DSTYLE
1002
{
1070
   271
1070
     0
1002
}
  0
LINE
  5
6ED5
330
1F
100
AcDbEntity
  8
AM_5
370
    13
100
AcDbLine
 10
-0.0000000000000568
 20
-62.20718191039686
 30
0.0
 11
-0.9227586430446308
 21
-62.20718191039686
 31
0.0
  0
DIMENSION
  5
6ED6
330
1F
100
AcDbEntity
  8
AM_5
370
    13
100
AcDbDimension
  2
*D12
 10
-0.9227586430446308
 20
-62.20718191039686
 30
0.0
 11
-11.0480945410344
 21
-54.35310420474099
 31
0.0
 70
   162
 71
     5
 42
0.0872665373893087
  3
AM_JIS
100
AcDb2LineAngularDimension
 13
0.5916409999999814
 23
-62.25894391039685
 33
0.0
 14
8.288482999999928
 24
-62.93233091039686
 34
0.0
 15
-0.0000000000000568
 25
-62.20718191039686
 35
0.0
 16
-13.54959402613824
 26
-61.81292867727773
 36
0.0
1001
ACAD
1000
DSTYLE
1002
{
1070
   271
1070
     0
1070
   282
1070
     1
1002
}
  0
DIMENSION
  5
6FBA
330
1F
100
AcDbEntity
  8
AM_5
370
    13
100
AcDbDimension
  2
*D13
 10
25.99999999999994
 20
42.43397483942019
 30
0.0
 11
12.99999999999997
 21
45.83434885516822
 31
0.0
 70
    32
 71
     5
 42
25.99999999999994
  3
AM_JIS$0
100
AcDbAlignedDimension
 13
0.0
 23
0.0
 33
0.0
 14
25.99999999999994
 24
29.0
 34
0.0
100
AcDbRotatedDimension
1001
ACAD
1000
DSTYLE
1002
{
1070
   271
1070
     0
1002
}
  0
LINE
  5
70E2
330
1F
100
AcDbEntity
  8
AM_0
370
    30
100
AcDbLine
 10
-47.06176209238146
 20
21.56783999999999
 30
0.0
 11
-46.67724109238145
 21
25.05240599999996
 31
0.0
  0
LINE
  5
70E5
330
1F
100
AcDbEntity
  8
AM_0
370
    30
100
AcDbLine
 10
-46.67709909238141
 20
25.05999799999995
 30
0.0
 11
-47.08237309238143
 21
30.64184399999999
 31
0.0
  0
LINE
  5
70EA
330
1F
100
AcDbEntity
  8
AM_0
370
    30
100
AcDbLine
 10
-49.23166409238144
 20
33.14430499999997
 30
0.0
 11
-56.80166709238142
 21
33.14892699999996
 31
0.0
  0
LINE
  5
70EF
330
1F
100
AcDbEntity
  8
AM_0
370
    30
100
AcDbLine
 10
-53.11278568980941
 20
14.7100824429067
 30
0.0
 11
-55.36698809238146
 21
14.71039599999995
 31
0.0
  0
LINE
  5
70F2
330
1F
100
AcDbEntity
  8
AM_0
370
    30
100
AcDbLine
 10
-52.97882609238144
 20
3.694251999999977
 30
0.0
 11
-50.18374009238141
 21
3.692544999999967
 31
0.0
  0
LINE
  5
70F6
330
1F
100
AcDbEntity
  8
AM_0
370
    30
100
AcDbLine
 10
-47.54931509238145
 20
6.445760999999976
 30
0.0
 11
-47.55780209238145
 21
12.05196899999999
 31
0.0
  0
LINE
  5
710F
330
1F
100
AcDbEntity
  8
AM_0
370
    30
100
AcDbLine
 10
-55.34875709238145
 20
2.772257999999965
 30
0.0
 11
-55.32866509238141
 21
2.772245999999967
 31
0.0
  0
LINE
  5
7110
330
1F
100
AcDbEntity
  8
AM_0
370
    30
100
AcDbLine
 10
-54.86887009238143
 20
2.868798999999967
 30
0.0
 11
-52.98256509238144
 21
3.692609999999974
 31
0.0
  0
LINE
  5
7111
330
1F
100
AcDbEntity
  8
AM_0
370
    30
100
AcDbLine
 10
-52.41936409238144
 20
4.653635999999978
 30
0.0
 11
-52.43166709238142
 21
12.78092999999996
 31
0.0
  0
LINE
  5
7112
330
1F
100
AcDbEntity
  8
AM_0
370
    30
100
AcDbLine
 10
-52.79757009238142
 20
13.77762799999999
 30
0.0
 11
-52.88517209238142
 21
13.95715099999995
 31
0.0
  0
LINE
  5
7113
330
1F
100
AcDbEntity
  8
AM_0
370
    30
100
AcDbLine
 10
-52.52092109238146
 20
13.21068799999995
 30
0.0
 11
-52.70177909238146
 21
13.58132199999994
 31
0.0
  0
LINE
  5
7116
330
1F
100
AcDbEntity
  8
AM_0
370
    30
100
AcDbLine
 10
-55.00068809238144
 20
13.96359999999999
 30
0.0
 11
-54.94412509238146
 21
14.24160699999999
 31
0.0
  0
ARC
  5
712B
330
1F
100
AcDbEntity
  8
AM_0
370
    30
100
AcDbCircle
 10
-53.15380309238145
 20
23.02770299999997
 30
0.0
 40
8.24979256345789
100
AcDbArc
 50
5.003075909079249
 51
7.272856990801873
  0
ARC
  5
712C
330
1F
100
AcDbEntity
  8
AM_0
370
    30
100
AcDbCircle
 10
-58.45541509238143
 20
22.56358499999999
 30
0.0
 40
13.5716813264412
100
AcDbArc
 50
3.623236364175913
 51
5.003076985927473
  0
ARC
  5
712D
330
1F
100
AcDbEntity
  8
AM_0
370
    30
100
AcDbCircle
 10
-65.68040309238143
 20
22.10608499999995
 30
0.0
 40
20.8111396251053
100
AcDbArc
 50
359.4807470073712
 51
3.623237763288143
  0
ARC
  5
712E
330
1F
100
AcDbEntity
  8
AM_0
370
    30
100
AcDbCircle
 10
-57.05005409238146
 20
22.02786899999995
 30
0.0
 40
12.1804361851008
100
AcDbArc
 50
352.4089098855863
 51
359.4807461415588
  0
SPLINE
  5
7193
330
1F
100
AcDbEntity
  8
AM_0
370
    30
100
AcDbSpline
210
0.0
220
0.0
230
1.0
 70
     8
 71
     3
 72
    11
 73
     7
 74
     5
 42
0.0000000001
 43
0.0000000001
 44
0.0000000001
 40
0.0
 40
0.0
 40
0.0
 40
0.0
 40
0.0019032530047174
 40
0.0038018972578465
 40
0.005700914108783
 40
0.0076032876262378
 40
0.0076032876262378
 40
0.0076032876262378
 40
0.0076032876262378
 10
-46.67724109238145
 20
25.05240599999996
 30
0.0
 10
-46.67717956003963
 20
25.05303755193153
 30
0.0
 10
-46.67705664435734
 20
25.05429912648354
 30
0.0
 10
-46.67698360770123
 20
25.05619889028239
 30
0.0
 10
-46.67698552302907
 20
25.05809976543938
 30
0.0
 10
-46.6770612136521
 20
25.05936488277592
 30
0.0
 10
-46.67709909238141
 20
25.05999799999995
 30
0.0
 11
-46.67724109238145
 21
25.05240599999996
 31
0.0
 11
-46.67707509238142
 21
25.05430199999995
 31
0.0
 11
-46.67699609238144
 21
25.05619899999994
 31
0.0
 11
-46.67700409238142
 21
25.05809799999997
 31
0.0
 11
-46.67709909238141
 21
25.05999799999995
 31
0.0
  0
SPLINE
  5
7195
330
1F
100
AcDbEntity
  8
AM_0
370
    30
100
AcDbSpline
210
0.0
220
0.0
230
1.0
 70
     8
 71
     3
 72
    11
 73
     7
 74
     5
 42
0.0000000001
 43
0.0000000001
 44
0.0000000001
 40
0.0
 40
0.0
 40
0.0
 40
0.0
 40
0.6686410364649773
 40
1.320987869560684
 40
1.953373550892088
 40
2.564779689592865
 40
2.564779689592865
 40
2.564779689592865
 40
2.564779689592865
 10
-47.08237309238143
 20
30.64184399999999
 30
0.0
 10
-47.10903387865326
 20
30.86375480781284
 30
0.0
 10
-47.16170575090962
 20
31.30216864910948
 30
0.0
 10
-47.37929289966323
 20
31.92011110428275
 30
0.0
 10
-47.68277366784899
 20
32.48072007232643
 30
0.0
 10
-47.96639124857597
 20
32.78518252143919
 30
0.0
 10
-48.10580809238144
 20
32.93484599999994
 30
0.0
 11
-47.08237309238143
 21
30.64184399999999
 31
0.0
 11
-47.18656009238146
 21
31.30231799999996
 31
0.0
 11
-47.39763509238145
 21
31.91957299999996
 31
0.0
 11
-47.70798709238142
 21
32.47056599999996
 31
0.0
 11
-48.10580809238144
 21
32.93484599999994
 31
0.0
  0
SPLINE
  5
7197
330
1F
100
AcDbEntity
  8
AM_0
370
    30
100
AcDbSpline
210
0.0
220
0.0
230
1.0
 70
     8
 71
     3
 72
    11
 73
     7
 74
     5
 42
0.0000000001
 43
0.0000000001
 44
0.0000000001
 40
0.0
 40
0.0
 40
0.0
 40
0.0
 40
0.2770184309048975
 40
0.5611965172416025
 40
0.8527865621882949
 40
1.151840509793048
 40
1.151840509793048
 40
1.151840509793048
 40
1.151840509793048
 10
-48.10580809238144
 20
32.93484599999994
 30
0.0
 10
-48.19245156207467
 20
32.96703574316829
 30
0.0
 10
-48.36797783761789
 20
33.03224718667394
 30
0.0
 10
-48.64577856619236
 20
33.09551796080211
 30
0.0
 10
-48.9349552305457
 20
33.13683443034078
 30
0.0
 10
-49.1319314163614
 20
33.14179391927628
 30
0.0
 10
-49.23166409238144
 20
33.14430499999997
 30
0.0
 11
-48.10580809238144
 21
32.93484599999994
 31
0.0
 11
-48.36751409238144
 21
33.02567099999999
 31
0.0
 11
-48.64403709238144
 21
33.09118599999994
 31
0.0
 11
-48.93291109238146
 21
33.13089199999996
 31
0.0
 11
-49.23166409238144
 21
33.14430499999997
 31
0.0
  0
SPLINE
  5
7198
330
1F
100
AcDbEntity
  8
AM_0
370
    30
100
AcDbSpline
210
0.0
220
0.0
230
1.0
 70
     8
 71
     3
 72
    11
 73
     7
 74
     5
 42
0.0000000001
 43
0.0000000001
 44
0.0000000001
 40
0.0
 40
0.0
 40
0.0
 40
0.0
 40
0.7057628802890891
 40
1.424851811089747
 40
2.166723304773785
 40
2.93496164617574
 40
2.93496164617574
 40
2.93496164617574
 40
2.93496164617574
 10
-48.87265809238141
 20
3.966354999999965
 30
0.0
 10
-48.67869444710023
 20
4.102434582441854
 30
0.0
 10
-48.28710478011283
 20
4.377163170342705
 30
0.0
 10
-47.87061487395989
 20
4.982463478335203
 30
0.0
 10
-47.59750031501692
 20
5.683637623289775
 30
0.0
 10
-47.56556271243336
 20
6.188779909528531
 30
0.0
 10
-47.54931509238145
 20
6.445760999999976
 30
0.0
 11
-48.87265809238141
 21
3.966354999999965
 31
0.0
 11
-48.31964509238145
 21
4.404849999999954
 31
0.0
 11
-47.89966509238144
 21
4.988549999999975
 31
0.0
 11
-47.63767509238141
 21
5.682620999999955
 31
0.0
 11
-47.54931509238145
 21
6.445760999999976
 31
0.0
  0
SPLINE
  5
7199
330
1F
100
AcDbEntity
  8
AM_0
370
    30
100
AcDbSpline
210
0.0
220
0.0
230
1.0
 70
     8
 71
     3
 72
    11
 73
     7
 74
     5
 42
0.0000000001
 43
0.0000000001
 44
0.0000000001
 40
0.0
 40
0.0
 40
0.0
 40
0.0
 40
0.0235071772231176
 40
0.0474089994967579
 40
0.0717123346588131
 40
0.09642339786944
 40
0.09642339786944
 40
0.09642339786944
 40
0.09642339786944
 10
-52.98096309238144
 20
14.15345699999995
 30
0.0
 10
-52.97759909203654
 20
14.14637915469308
 30
0.0
 10
-52.97081461557027
 20
14.13210463923736
 30
0.0
 10
-52.96152431037397
 20
14.11007287609296
 30
0.0
 10
-52.95272262201237
 20
14.08741142414284
 30
0.0
 10
-52.94743759016806
 20
14.0719500134825
 30
0.0
 10
-52.94477309238147
 20
14.06415499999997
 30
0.0
 11
-52.98096309238144
 21
14.15345699999995
 31
0.0
 11
-52.97102909238146
 21
14.13215199999996
 31
0.0
 11
-52.96168109238141
 21
14.11015399999997
 31
0.0
 11
-52.95292709238146
 21
14.08748199999997
 31
0.0
 11
-52.94477309238147
 21
14.06415499999997
 31
0.0
  0
SPLINE
  5
719A
330
1F
100
AcDbEntity
  8
AM_0
370
    30
100
AcDbSpline
210
0.0
220
0.0
230
1.0
 70
     8
 71
     3
 72
    11
 73
     7
 74
     5
 42
0.0000000001
 43
0.0000000001
 44
0.0000000001
 40
0.0
 40
0.0
 40
0.0
 40
0.0
 40
0.0664981417033561
 40
0.1330997381557135
 40
0.1997726823684991
 40
0.2664850565205186
 40
0.2664850565205186
 40
0.2664850565205186
 40
0.2664850565205186
 10
-52.88517209238142
 20
13.95715099999995
 30
0.0
 10
-52.89523224524223
 20
13.9769107813809
 30
0.0
 10
-52.91536820208677
 20
14.01646108550143
 30
0.0
 10
-52.95000758560946
 20
14.07339177462264
 30
0.0
 10
-52.98748943924097
 20
14.12857825279044
 30
0.0
 10
-53.01517448001617
 20
14.16338732096883
 30
0.0
 10
-53.02902109238141
 20
14.18079699999998
 30
0.0
 11
-52.88517209238142
 21
13.95715099999995
 31
0.0
 11
-52.91608709238142
 21
14.01602599999995
 31
0.0
 11
-52.95046209238143
 21
14.07307099999997
 31
0.0
 11
-52.98815309238142
 21
14.12806799999999
 31
0.0
 11
-53.02902109238141
 21
14.18079699999998
 31
0.0
  0
SPLINE
  5
719B
330
1F
100
AcDbEntity
  8
AM_0
370
    30
100
AcDbSpline
210
0.0
220
0.0
230
1.0
 70
     8
 71
     3
 72
    11
 73
     7
 74
     5
 42
0.0000000001
 43
0.0000000001
 44
0.0000000001
 40
0.0
 40
0.0
 40
0.0
 40
0.0
 40
0.0235071772231691
 40
0.0474089994967872
 40
0.0717123346588629
 40
0.0964230679138604
 40
0.0964230679138604
 40
0.0964230679138604
 40
0.0964230679138604
 10
-52.79757009238142
 20
13.77762799999999
 30
0.0
 10
-52.79420608709186
 20
13.7705501564217
 30
0.0
 10
-52.78742160065326
 20
13.75627564445217
 30
0.0
 10
-52.77813137163898
 20
13.73424385467541
 30
0.0
 10
-52.76932942625652
 20
13.71158260904658
 30
0.0
 10
-52.76404517765198
 20
13.69612104114667
 30
0.0
 10
-52.76138109238144
 20
13.68832599999996
 30
0.0
 11
-52.79757009238142
 21
13.77762799999999
 31
0.0
 11
-52.78763609238143
 21
13.75632299999995
 31
0.0
 11
-52.77828809238145
 21
13.73432499999996
 31
0.0
 11
-52.76953409238143
 21
13.71165299999996
 31
0.0
 11
-52.76138109238144
 21
13.68832599999996
 31
0.0
  0
SPLINE
  5
719C
330
1F
100
AcDbEntity
  8
AM_0
370
    30
100
AcDbSpline
210
0.0
220
0.0
230
1.0
 70
     8
 71
     3
 72
    11
 73
     7
 74
     5
 42
0.0000000001
 43
0.0000000001
 44
0.0000000001
 40
0.0
 40
0.0
 40
0.0
 40
0.0
 40
0.0664986066094582
 40
0.1330996869385552
 40
0.1997731964682105
 40
0.2664849580249198
 40
0.2664849580249198
 40
0.2664849580249198
 40
0.2664849580249198
 10
-52.70177909238146
 20
13.58132199999994
 30
0.0
 10
-52.71183975130663
 20
13.60108168026312
 30
0.0
 10
-52.73197657253662
 20
13.64063149026863
 30
0.0
 10
-52.76661417487411
 20
13.69756346609411
 30
0.0
 10
-52.80409768577678
 20
13.75274860097048
 30
0.0
 10
-52.83178197709344
 20
13.78755820610811
 30
0.0
 10
-52.84562809238145
 20
13.80496799999997
 30
0.0
 11
-52.70177909238146
 21
13.58132199999994
 31
0.0
 11
-52.73269509238145
 21
13.64019699999994
 31
0.0
 11
-52.76706909238146
 21
13.69724199999996
 31
0.0
 11
-52.80476109238146
 21
13.75223899999998
 31
0.0
 11
-52.84562809238145
 21
13.80496799999997
 31
0.0
  0
SPLINE
  5
719D
330
1F
100
AcDbEntity
  8
AM_0
370
    30
100
AcDbSpline
210
0.0
220
0.0
230
1.0
 70
     8
 71
     3
 72
    11
 73
     7
 74
     5
 42
0.0000000001
 43
0.0000000001
 44
0.0000000001
 40
0.0
 40
0.0
 40
0.0
 40
0.0
 40
0.10215258284057
 40
0.2099781242720953
 40
0.3234642439916209
 40
0.4423841385131243
 40
0.4423841385131243
 40
0.4423841385131243
 40
0.4423841385131243
 10
-52.52092109238146
 20
13.21068799999995
 30
0.0
 10
-52.50725010511272
 20
13.17944692548706
 30
0.0
 10
-52.47914892368571
 20
13.11522982941323
 30
0.0
 10
-52.4524441986514
 20
13.01037747956013
 30
0.0
 10
-52.43485066214997
 20
12.89811215541403
 30
0.0
 10
-52.43274469517596
 20
12.8205948502546
 30
0.0
 10
-52.43166709238142
 20
12.78092999999996
 30
0.0
 11
-52.52092109238146
 21
13.21068799999995
 31
0.0
 11
-52.48245609238143
 21
13.11605399999996
 31
0.0
 11
-52.45453209238144
 21
13.01190699999995
 31
0.0
 11
-52.43749509238143
 21
12.89970699999998
 31
0.0
 11
-52.43166709238142
 21
12.78092999999996
 31
0.0
  0
SPLINE
  5
719E
330
1F
100
AcDbEntity
  8
AM_0
370
    30
100
AcDbSpline
210
0.0
220
0.0
230
1.0
 70
     8
 71
     3
 72
    11
 73
     7
 74
     5
 42
0.0000000001
 43
0.0000000001
 44
0.0000000001
 40
0.0
 40
0.0
 40
0.0
 40
0.0
 40
0.0722353296731927
 40
0.1466390739472728
 40
0.2244649570003966
 40
0.3067119166402729
 40
0.3067119166402729
 40
0.3067119166402729
 40
0.3067119166402729
 10
-53.18558509238142
 20
14.37533499999995
 30
0.0
 10
-53.16479293922779
 20
14.36305643017125
 30
0.0
 10
-53.12258447838722
 20
14.33813070314509
 30
0.0
 10
-53.06793177310297
 20
14.28627939397901
 30
0.0
 10
-53.0190371714753
 20
14.22487516677669
 30
0.0
 10
-52.99388600341229
 20
14.17769739234053
 30
0.0
 10
-52.98096309238144
 20
14.15345699999995
 30
0.0
 11
-53.18558509238142
 21
14.37533499999995
 31
0.0
 11
-53.12478709238144
 21
14.33632799999998
 31
0.0
 11
-53.07003609238143
 21
14.28594699999997
 31
0.0
 11
-53.02190409238142
 21
14.22478999999999
 31
0.0
 11
-52.98096309238144
 21
14.15345699999995
 31
0.0
  0
SPLINE
  5
719F
330
1F
100
AcDbEntity
  8
AM_0
370
    30
100
AcDbSpline
210
0.0
220
0.0
230
1.0
 70
     8
 71
     3
 72
    11
 73
     7
 74
     5
 42
0.0000000001
 43
0.0000000001
 44
0.0000000001
 40
0.0
 40
0.0
 40
0.0
 40
0.0
 40
0.0722361713409663
 40
0.1466399156150046
 40
0.2244651802146109
 40
0.3067126376403561
 40
0.3067126376403561
 40
0.3067126376403561
 40
0.3067126376403561
 10
-53.00219309238145
 20
13.99950599999994
 30
0.0
 10
-52.98140059194282
 20
13.98722746703389
 30
0.0
 10
-52.9391916756458
 20
13.96230196219893
 30
0.0
 10
-52.88453867881589
 20
13.91045070355324
 30
0.0
 10
-52.83564537680969
 20
13.84904557912126
 30
0.0
 10
-52.81049347062455
 20
13.80186830186644
 30
0.0
 10
-52.79757009238142
 20
13.77762799999999
 30
0.0
 11
-53.00219309238145
 21
13.99950599999994
 31
0.0
 11
-52.94139409238142
 21
13.96049899999997
 31
0.0
 11
-52.88664309238146
 21
13.91011799999995
 31
0.0
 11
-52.83851209238145
 21
13.84896099999997
 31
0.0
 11
-52.79757009238142
 21
13.77762799999999
 31
0.0
  0
SPLINE
  5
71A0
330
1F
100
AcDbEntity
  8
AM_0
370
    30
100
AcDbSpline
210
0.0
220
0.0
230
1.0
 70
     8
 71
     3
 72
    11
 73
     7
 74
     5
 42
0.0000000001
 43
0.0000000001
 44
0.0000000001
 40
0.0
 40
0.0
 40
0.0
 40
0.0
 40
0.9294904928464874
 40
1.930004841976947
 40
2.964584826908049
 40
4.006563850459393
 40
4.006563850459393
 40
4.006563850459393
 40
4.006563850459393
 10
-44.96780609238141
 20
24.05237999999997
 30
0.0
 10
-45.01597829088865
 20
24.35917004150855
 30
0.0
 10
-45.11600360269463
 20
24.99619244263995
 30
0.0
 10
-45.47607185761831
 20
25.92413279402715
 30
0.0
 10
-46.04071227107578
 20
26.79688843875477
 30
0.0
 10
-46.57526525896769
 20
27.24205208839167
 30
0.0
 10
-46.84349409238143
 20
27.46542699999998
 30
0.0
 11
-44.96780609238141
 21
24.05237999999997
 31
0.0
 11
-45.14349209238145
 21
24.96511599999997
 31
0.0
 11
-45.50245209238142
 21
25.89901999999995
 31
0.0
 11
-46.07745809238145
 21
26.75909199999995
 31
0.0
 11
-46.84349409238143
 21
27.46542699999998
 31
0.0
  0
SPLINE
  5
71A1
330
1F
100
AcDbEntity
  8
AM_0
370
    30
100
AcDbSpline
210
0.0
220
0.0
230
1.0
 70
     8
 71
     3
 72
    11
 73
     7
 74
     5
 42
0.0000000001
 43
0.0000000001
 44
0.0000000001
 40
0.0
 40
0.0
 40
0.0
 40
0.0
 40
1.203712037776904
 40
2.40227201635537
 40
3.572177913015427
 40
4.653588883413835
 40
4.653588883413835
 40
4.653588883413835
 40
4.653588883413835
 10
-47.43609109238145
 20
16.70125699999994
 30
0.0
 10
-47.09093699564293
 20
16.91111625822958
 30
0.0
 10
-46.40210611092679
 20
17.32993654713294
 30
0.0
 10
-45.64588374191483
 20
18.27751125735528
 30
0.0
 10
-45.16006529117902
 20
19.33379902589482
 30
0.0
 10
-45.03468635724581
 20
20.07635583420986
 30
0.0
 10
-44.97446109238143
 20
20.43303999999995
 30
0.0
 11
-47.43609109238145
 21
16.70125699999994
 31
0.0
 11
-46.44589109238143
 21
17.38567399999994
 31
0.0
 11
-45.68280609238144
 21
18.30992899999995
 31
0.0
 11
-45.19935809238143
 21
19.37527299999994
 31
0.0
 11
-44.97446109238143
 21
20.43303999999995
 31
0.0
  0
SPLINE
  5
71A2
330
1F
100
AcDbEntity
  8
AM_0
370
    30
100
AcDbSpline
210
0.0
220
0.0
230
1.0
 70
     8
 71
     3
 72
    11
 73
     7
 74
     5
 42
0.0000000001
 43
0.0000000001
 44
0.0000000001
 40
0.0
 40
0.0
 40
0.0
 40
0.0
 40
0.3457775886332506
 40
0.6965133179295306
 40
1.051118954455524
 40
1.408561262527721
 40
1.408561262527721
 40
1.408561262527721
 40
1.408561262527721
 10
-47.30205609238141
 20
20.18051799999995
 30
0.0
 10
-47.2780019157868
 20
20.29324267500234
 30
0.0
 10
-47.22954864726761
 20
20.5203083957993
 30
0.0
 10
-47.16384567067942
 20
20.86448295122807
 30
0.0
 10
-47.10511314500048
 20
21.21393456559106
 30
0.0
 10
-47.07625143654776
 20
21.44954997199662
 30
0.0
 10
-47.06176309238145
 20
21.56782699999997
 30
0.0
 11
-47.30205609238141
 21
20.18051799999995
 31
0.0
 11
-47.23110509238143
 21
20.51893799999999
 31
0.0
 11
-47.16535109238146
 21
20.86345499999999
 31
0.0
 11
-47.10787109238146
 21
21.213371
 31
0.0
 11
-47.06176309238145
 21
21.56782699999997
 31
0.0
  0
SPLINE
  5
71A3
330
1F
100
AcDbEntity
  8
AM_0
370
    30
100
AcDbSpline
210
0.0
220
0.0
230
1.0
 70
     8
 71
     3
 72
    11
 73
     7
 74
     5
 42
0.0000000001
 43
0.0000000001
 44
0.0000000001
 40
0.0
 40
0.0
 40
0.0
 40
0.0
 40
0.6360152668183519
 40
1.445240890481501
 40
2.407457272419038
 40
3.491863593172004
 40
3.491863593172004
 40
3.491863593172004
 40
3.491863593172004
 10
-47.45680009238146
 20
16.71399699999995
 30
0.0
 10
-47.46949037274352
 20
16.92559965429709
 30
0.0
 10
-47.49832696369938
 20
17.40643215074719
 30
0.0
 10
-47.59692222580684
 20
18.20470271927734
 30
0.0
 10
-47.52278823791036
 20
19.16026830000472
 30
0.0
 10
-47.37850486753256
 20
19.82716285217562
 30
0.0
 10
-47.30205609238141
 20
20.18051799999995
 30
0.0
 11
-47.45680009238146
 21
16.71399699999995
 31
0.0
 11
-47.50074909238145
 21
17.34849199999997
 31
0.0
 11
-47.56592109238142
 21
18.15508899999998
 31
0.0
 11
-47.50581109238141
 21
19.11542599999996
 31
0.0
 11
-47.30205609238141
 21
20.18051799999995
 31
0.0
  0
SPLINE
  5
71A4
330
1F
100
AcDbEntity
  8
AM_0
370
    30
100
AcDbSpline
210
0.0
220
0.0
230
1.0
 70
     8
 71
     3
 72
    11
 73
     7
 74
     5
 42
0.0000000001
 43
0.0000000001
 44
0.0000000001
 40
0.0
 40
0.0
 40
0.0
 40
0.0
 40
1.190954681367853
 40
2.372934410548082
 40
3.534889857777469
 40
4.665783265521951
 40
4.665783265521951
 40
4.665783265521951
 40
4.665783265521951
 10
-47.55780209238145
 20
12.05196899999999
 30
0.0
 10
-47.55710626593624
 20
12.44895836699002
 30
0.0
 10
-47.55571985674587
 20
13.23994541653117
 30
0.0
 10
-47.53617011047491
 20
14.41811278296319
 30
0.0
 10
-47.50536115572755
 20
15.57601816576698
 30
0.0
 10
-47.47276792948477
 20
16.33961697018077
 30
0.0
 10
-47.45669209238145
 20
16.71624399999996
 30
0.0
 11
-47.55780209238145
 21
12.05196899999999
 31
0.0
 11
-47.55275809238145
 21
13.24291299999999
 31
0.0
 11
-47.53407109238145
 21
14.42474499999997
 31
0.0
 11
-47.50193609238141
 21
15.58625599999999
 31
0.0
 11
-47.45669209238145
 21
16.71624399999996
 31
0.0
  0
SPLINE
  5
71A5
330
1F
100
AcDbEntity
  8
AM_0
370
    30
100
AcDbSpline
210
0.0
220
0.0
230
1.0
 70
     8
 71
     3
 72
    11
 73
     7
 74
     5
 42
0.0000000001
 43
0.0000000001
 44
0.0000000001
 40
0.0
 40
0.0
 40
0.0
 40
0.0
 40
0.3337410288471829
 40
0.6686947471621263
 40
1.006485195449252
 40
1.348690831817216
 40
1.348690831817216
 40
1.348690831817216
 40
1.348690831817216
 10
-50.18371509238142
 20
3.692544999999967
 30
0.0
 10
-50.0724031311527
 20
3.695608733318624
 30
0.0
 10
-49.84937474286292
 20
3.701747332411363
 30
0.0
 10
-49.51728442133427
 20
3.754280087108442
 30
0.0
 10
-49.18831481043995
 20
3.836996286263462
 30
0.0
 10
-48.97833146961749
 20
3.92304918271995
 30
0.0
 10
-48.87265809238141
 20
3.966354999999965
 30
0.0
 11
-50.18371509238142
 21
3.692544999999967
 31
0.0
 11
-49.85037509238146
 21
3.708900999999969
 31
0.0
 11
-49.51919209238145
 21
3.759018999999967
 31
0.0
 11
-49.19231709238142
 21
3.844195999999954
 31
0.0
 11
-48.87265809238141
 21
3.966354999999965
 31
0.0
  0
SPLINE
  5
71B2
330
1F
100
AcDbEntity
  8
AM_0
370
    30
100
AcDbSpline
210
0.0
220
0.0
230
1.0
 70
     8
 71
     3
 72
    11
 73
     7
 74
     5
 42
0.0000000001
 43
0.0000000001
 44
0.0000000001
 40
0.0
 40
0.0
 40
0.0
 40
0.0
 40
0.1181422247166384
 40
0.2358779604683545
 40
0.3539764531344108
 40
0.4718702185336272
 40
0.4718702185336272
 40
0.4718702185336272
 40
0.4718702185336272
 10
-55.32866509238141
 20
2.772245999999967
 30
0.0
 10
-55.28926245644838
 20
2.773431614828651
 30
0.0
 10
-55.2105927562353
 20
2.775798765171059
 30
0.0
 10
-55.09389238374789
 20
2.794983169131739
 30
0.0
 10
-54.97943510649336
 20
2.824387839380043
 30
0.0
 10
-54.90636129949846
 20
2.853717094334556
 30
0.0
 10
-54.86985609238144
 20
2.868368999999973
 30
0.0
 11
-55.32866509238141
 21
2.772245999999967
 31
0.0
 11
-55.21068409238143
 21
2.778415999999965
 31
0.0
 11
-55.09437109238144
 21
2.796663999999964
 31
0.0
 11
-54.98019209238146
 21
2.826836999999955
 31
0.0
 11
-54.86985609238144
 21
2.868368999999973
 31
0.0
  0
SPLINE
  5
71B3
330
1F
100
AcDbEntity
  8
AM_0
370
    30
100
AcDbSpline
210
0.0
220
0.0
230
1.0
 70
     8
 71
     3
 72
    11
 73
     7
 74
     0
 42
0.0000000001
 43
0.0000000001
 40
0.0
 40
0.0
 40
0.0
 40
0.0
 40
0.4618661417174898
 40
0.8829801485434314
 40
1.275109310224886
 40
1.410679532723224
 40
1.410679532723224
 40
1.410679532723224
 40
1.410679532723224
 10
-55.35148109238145
 20
13.47616499999998
 30
0.0
 10
-55.25151456451101
 20
13.59371359437051
 30
0.0
 10
-55.06040192027143
 20
13.81843904173155
 30
0.0
 10
-54.85201456880554
 20
14.19127478286748
 30
0.0
 10
-54.74432540309994
 20
14.49210003020494
 30
0.0
 10
-54.71699153541368
 20
14.6654994615912
 30
0.0
 10
-54.71134659079303
 20
14.71030480098295
 30
0.0
  0
LINE
  5
71B4
330
1F
100
AcDbEntity
  8
AM_0
370
    30
100
AcDbLine
 10
-54.94412509238146
 20
14.24160699999999
 30
0.0
 11
-54.94975109238146
 21
14.04010599999998
 31
0.0
  0
SPLINE
  5
71B5
330
1F
100
AcDbEntity
  8
AM_0
370
    30
100
AcDbSpline
210
0.0
220
0.0
230
1.0
 70
     8
 71
     3
 72
    11
 73
     7
 74
     5
 42
0.0000000001
 43
0.0000000001
 44
0.0000000001
 40
0.0
 40
0.0
 40
0.0
 40
0.0
 40
0.1194372829772912
 40
0.2386980816875111
 40
0.3577898896761321
 40
0.476719421567931
 40
0.476719421567931
 40
0.476719421567931
 40
0.476719421567931
 10
-54.94412509238146
 20
14.24160699999999
 30
0.0
 10
-54.93626900922286
 20
14.28063682990639
 30
0.0
 10
-54.92056845130001
 20
14.35863881802112
 30
0.0
 10
-54.89814359183545
 20
14.47577632235713
 30
0.0
 10
-54.87649354169498
 20
14.59288740679909
 30
0.0
 10
-54.86281480022859
 20
14.67104022971456
 30
0.0
 10
-54.85598009238146
 20
14.71008999999998
 30
0.0
 11
-54.94412509238146
 21
14.24160699999999
 31
0.0
 11
-54.92074209238143
 21
14.35873299999997
 31
0.0
 11
-54.89825709238141
 21
14.47585499999997
 31
0.0
 11
-54.87667009238146
 21
14.59297399999997
 31
0.0
 11
-54.85598009238146
 21
14.71008999999998
 31
0.0
  0
SPLINE
  5
71B6
330
1F
100
AcDbEntity
  8
AM_0
370
    30
100
AcDbSpline
210
0.0
220
0.0
230
1.0
 70
     8
 71
     3
 72
    11
 73
     7
 74
     5
 42
0.0000000001
 43
0.0000000001
 44
0.0000000001
 40
0.0
 40
0.0
 40
0.0
 40
0.0
 40
0.0869485351342933
 40
0.1667170578985733
 40
0.2296718422839173
 40
0.2616033135622738
 40
0.2616033135622738
 40
0.2616033135622738
 40
0.2616033135622738
 10
-53.02902109238141
 20
14.18079699999998
 30
0.0
 10
-53.04793233991389
 20
14.20278025309049
 30
0.0
 10
-53.08419318714879
 20
14.24493143220614
 30
0.0
 10
-53.13641193162844
 20
14.30072662830605
 30
0.0
 10
-53.17932385093013
 20
14.34082432113493
 30
0.0
 10
-53.19590585534812
 20
14.36786812110178
 30
0.0
 10
-53.20148609238146
 20
14.37696899999997
 30
0.0
 11
-53.02902109238141
 21
14.18079699999998
 31
0.0
 11
-53.08620209238143
 21
14.24629799999997
 31
0.0
 11
-53.14105209238142
 21
14.30421599999994
 31
0.0
 11
-53.18398309238143
 21
14.35026199999999
 31
0.0
 11
-53.20148609238146
 21
14.37696899999997
 31
0.0
  0
SPLINE
  5
71B8
330
1F
100
AcDbEntity
  8
AM_0
370
    30
100
AcDbSpline
210
0.0
220
0.0
230
1.0
 70
     8
 71
     3
 72
    11
 73
     7
 74
     5
 42
0.0000000001
 43
0.0000000001
 44
0.0000000001
 40
0.0
 40
0.0
 40
0.0
 40
0.0
 40
0.0024431285271043
 40
0.0055139924120571
 40
0.0106589660757796
 40
0.0182307508059349
 40
0.0182307508059349
 40
0.0182307508059349
 40
0.0182307508059349
 10
-53.01809309238143
 20
14.00113999999996
 30
0.0
 10
-53.01787451795943
 20
14.00201215534242
 30
0.0
 10
-53.01738120879009
 20
14.00398055687639
 30
0.0
 10
-53.01314594449271
 20
14.00401961643366
 30
0.0
 10
-53.00835854828888
 20
14.00249547404305
 30
0.0
 10
-53.00449407104753
 20
14.0006216865119
 30
0.0
 10
-53.00219309238145
 20
13.99950599999994
 30
0.0
 11
-53.01809309238143
 21
14.00113999999996
 31
0.0
 11
-53.01710409238143
 21
14.00337399999995
 31
0.0
 11
-53.01407809238145
 21
14.003897
 31
0.0
 11
-53.00909309238142
 21
14.00262399999997
 31
0.0
 11
-53.00219309238145
 21
13.99950599999994
 31
0.0
  0
SPLINE
  5
71B9
330
1F
100
AcDbEntity
  8
AM_0
370
    30
100
AcDbSpline
210
0.0
220
0.0
230
1.0
 70
     8
 71
     3
 72
    11
 73
     7
 74
     5
 42
0.0000000001
 43
0.0000000001
 44
0.0000000001
 40
0.0
 40
0.0
 40
0.0
 40
0.0
 40
0.0024435335070234
 40
0.0055134120062814
 40
0.0106583856699348
 40
0.0182310816892243
 40
0.0182310816892243
 40
0.0182310816892243
 40
0.0182310816892243
 10
-53.20148609238146
 20
14.37696899999997
 30
0.0
 10
-53.20126716306933
 20
14.37784116886791
 30
0.0
 10
-53.20077318682776
 20
14.37980906752539
 30
0.0
 10
-53.19653883259682
 20
14.37984879841602
 30
0.0
 10
-53.19175121300751
 20
14.37832418453469
 30
0.0
 10
-53.18788638935186
 20
14.3764506125108
 30
0.0
 10
-53.18558509238142
 20
14.37533499999995
 30
0.0
 11
-53.20148609238146
 21
14.37696899999997
 31
0.0
 11
-53.20049609238146
 21
14.37920299999996
 31
0.0
 11
-53.19747109238142
 21
14.37972599999995
 31
0.0
 11
-53.19248609238144
 21
14.37845299999998
 31
0.0
 11
-53.18558509238142
 21
14.37533499999995
 31
0.0
  0
LINE
  5
7219
330
1F
100
AcDbEntity
  8
AM_0
370
    30
100
AcDbLine
 10
-55.36426009238141
 20
12.92354099999994
 30
0.0
 11
-54.99476909238143
 21
12.92331499999995
 31
0.0
  0
LINE
  5
721C
330
1F
100
AcDbEntity
  8
AM_0
370
    30
100
AcDbLine
 10
-53.25117409238141
 20
13.45882999999998
 30
0.0
 11
-54.23385809238141
 21
13.02965999999998
 31
0.0
  0
LINE
  5
721E
330
1F
100
AcDbEntity
  8
AM_0
370
    30
100
AcDbLine
 10
-54.86887109238143
 20
2.868799999999965
 30
0.0
 11
-52.98256609238143
 21
3.692609999999945
 31
0.0
  0
LINE
  5
7220
330
1F
100
AcDbEntity
  8
AM_0
370
    30
100
AcDbLine
 10
-52.41936509238144
 20
4.653635999999949
 30
0.0
 11
-52.43166809238142
 21
12.78092999999996
 31
0.0
  0
LINE
  5
7221
330
1F
100
AcDbEntity
  8
AM_0
370
    30
100
AcDbLine
 10
-53.16435609238141
 20
14.52928599999996
 30
0.0
 11
-53.25258853434559
 21
14.71010188932974
 31
0.0
  0
LINE
  5
7222
330
1F
100
AcDbEntity
  8
AM_0
370
    30
100
AcDbLine
 10
-52.98096409238144
 20
14.15345699999995
 30
0.0
 11
-53.06856509238145
 21
14.33297999999996
 31
0.0
  0
LINE
  5
7223
330
1F
100
AcDbEntity
  8
AM_0
370
    30
100
AcDbLine
 10
-52.79757109238142
 20
13.77762799999994
 30
0.0
 11
-52.88517209238142
 21
13.95715099999995
 31
0.0
  0
LINE
  5
7224
330
1F
100
AcDbEntity
  8
AM_0
370
    30
100
AcDbLine
 10
-52.5209220923814
 20
13.21068799999995
 30
0.0
 11
-52.7017800923814
 21
13.58132199999994
 31
0.0
  0
LINE
  5
7228
330
1F
100
AcDbEntity
  8
AM_0
370
    30
100
AcDbLine
 10
-55.00068909238144
 20
13.96359999999999
 30
0.0
 11
-54.9441250923814
 21
14.24160699999999
 31
0.0
  0
SPLINE
  5
7251
330
1F
100
AcDbEntity
  8
AM_0
370
    30
100
AcDbSpline
210
0.0
220
0.0
230
1.0
 70
     8
 71
     3
 72
    11
 73
     7
 74
     5
 42
0.0000000001
 43
0.0000000001
 44
0.0000000001
 40
0.0
 40
0.0
 40
0.0
 40
0.0
 40
0.1439853773826012
 40
0.3266272022885991
 40
0.5397786395814056
 40
0.7722651042734761
 40
0.7722651042734761
 40
0.7722651042734761
 40
0.7722651042734761
 10
-54.23385809238141
 20
13.02965999999998
 30
0.0
 10
-54.27916814557784
 20
13.01359173470325
 30
0.0
 10
-54.38195286011015
 20
12.97714127956045
 30
0.0
 10
-54.56023091469015
 20
12.94798482628644
 30
0.0
 10
-54.76861792256776
 20
12.92682635887747
 30
0.0
 10
-54.9172359899896
 20
12.92451882551016
 30
0.0
 10
-54.99476909238143
 20
12.92331499999995
 30
0.0
 11
-54.23385809238141
 21
13.02965999999998
 31
0.0
 11
-54.37077809238144
 21
12.98510999999996
 31
0.0
 11
-54.55027209238142
 21
12.95134699999994
 31
0.0
 11
-54.7623900923814
 21
12.93038299999995
 31
0.0
 11
-54.99476909238143
 21
12.92331499999995
 31
0.0
  0
SPLINE
  5
7252
330
1F
100
AcDbEntity
  8
AM_0
370
    30
100
AcDbSpline
210
0.0
220
0.0
230
1.0
 70
     8
 71
     3
 72
    11
 73
     7
 74
     5
 42
0.0000000001
 43
0.0000000001
 44
0.0000000001
 40
0.0
 40
0.0
 40
0.0
 40
0.0
 40
0.0364480164206331
 40
0.0734382672443478
 40
0.1109212445273897
 40
0.1488473513141105
 40
0.1488473513141105
 40
0.1488473513141105
 40
0.1488473513141105
 10
-52.42149409238141
 20
4.504809999999964
 30
0.0
 10
-52.42114774681662
 20
4.516954481086142
 30
0.0
 10
-52.42044990313007
 20
4.541424115791577
 30
0.0
 10
-52.41979467247951
 20
4.578392626257264
 30
0.0
 10
-52.41939077025194
 20
4.615857389253876
 30
0.0
 10
-52.41937368513759
 20
4.6409938928611
 30
0.0
 10
-52.41936509238144
 20
4.653635999999949
 30
0.0
 11
-52.42149409238141
 21
4.504809999999964
 31
0.0
 11
-52.42052009238142
 21
4.541244999999947
 31
0.0
 11
-52.41984009238144
 21
4.578228999999965
 31
0.0
 11
-52.41945509238144
 21
4.615709999999979
 31
0.0
 11
-52.41936509238144
 21
4.653635999999949
 31
0.0
  0
SPLINE
  5
7253
330
1F
100
AcDbEntity
  8
AM_0
370
    30
100
AcDbSpline
210
0.0
220
0.0
230
1.0
 70
     8
 71
     3
 72
    11
 73
     7
 74
     5
 42
0.0000000001
 43
0.0000000001
 44
0.0000000001
 40
0.0
 40
0.0
 40
0.0
 40
0.0
 40
0.2576625186440461
 40
0.5148881210497982
 40
0.7746187083359193
 40
1.038782335864422
 40
1.038782335864422
 40
1.038782335864422
 40
1.038782335864422
 10
-52.42149409238141
 20
4.504809999999964
 30
0.0
 10
-52.43128565108639
 20
4.418828797241189
 30
0.0
 10
-52.45085216502985
 20
4.247012189350205
 30
0.0
 10
-52.5719661897442
 20
4.013615509234294
 30
0.0
 10
-52.74897826005008
 20
3.816743822827148
 30
0.0
 10
-52.90426548318797
 20
3.734220703142644
 30
0.0
 10
-52.98256609238143
 20
3.692609999999945
 30
0.0
 11
-52.42149409238141
 21
4.504809999999964
 31
0.0
 11
-52.46612909238144
 21
4.251042999999982
 31
0.0
 11
-52.58056709238144
 21
4.02067599999998
 31
0.0
 11
-52.7569610923814
 21
3.83003199999996
 31
0.0
 11
-52.98256609238143
 21
3.692609999999945
 31
0.0
  0
SPLINE
  5
7254
330
1F
100
AcDbEntity
  8
AM_0
370
    30
100
AcDbSpline
210
0.0
220
0.0
230
1.0
 70
     8
 71
     3
 72
    11
 73
     7
 74
     5
 42
0.0000000001
 43
0.0000000001
 44
0.0000000001
 40
0.0
 40
0.0
 40
0.0
 40
0.0
 40
0.2298621180185822
 40
0.4370127725674098
 40
0.6397811962062949
 40
0.8587509760961344
 40
0.8587509760961344
 40
0.8587509760961344
 40
0.8587509760961344
 10
-53.25117409238141
 20
13.45882999999998
 30
0.0
 10
-53.17800418519742
 20
13.48424615377644
 30
0.0
 10
-53.03889390342234
 20
13.53256722523264
 30
0.0
 10
-52.81992270522522
 20
13.50715701403838
 30
0.0
 10
-52.63243000173418
 20
13.39620517796372
 30
0.0
 10
-52.55903128252552
 20
13.27409076175073
 30
0.0
 10
-52.5209220923814
 20
13.21068799999995
 30
0.0
 11
-53.25117409238141
 21
13.45882999999998
 31
0.0
 11
-53.02877009238142
 21
13.51690799999994
 31
0.0
 11
-52.8230420923814
 21
13.49267199999997
 31
0.0
 11
-52.64935809238142
 21
13.38803499999995
 31
0.0
 11
-52.5209220923814
 21
13.21068799999995
 31
0.0
  0
SPLINE
  5
7256
330
1F
100
AcDbEntity
  8
AM_0
370
    30
100
AcDbSpline
210
0.0
220
0.0
230
1.0
 70
     8
 71
     3
 72
    11
 73
     7
 74
     5
 42
0.0000000001
 43
0.0000000001
 44
0.0000000001
 40
0.0
 40
0.0
 40
0.0
 40
0.0
 40
0.0235071772231176
 40
0.0474089994967357
 40
0.0717123346588114
 40
0.0964230679138089
 40
0.0964230679138089
 40
0.0964230679138089
 40
0.0964230679138089
 10
-53.16435609238141
 20
14.52928599999996
 30
0.0
 10
-53.16099208709185
 20
14.52220815642168
 30
0.0
 10
-53.15420760065325
 20
14.50793364445218
 30
0.0
 10
-53.14491737163896
 20
14.48590185467543
 30
0.0
 10
-53.13611542625652
 20
14.46324060904661
 30
0.0
 10
-53.13083117765198
 20
14.44777904114669
 30
0.0
 10
-53.12816709238143
 20
14.43998399999998
 30
0.0
 11
-53.16435609238141
 21
14.52928599999996
 31
0.0
 11
-53.15442209238142
 21
14.50798099999997
 31
0.0
 11
-53.14507409238144
 21
14.48598299999998
 31
0.0
 11
-53.13632009238143
 21
14.46331099999998
 31
0.0
 11
-53.12816709238143
 21
14.43998399999998
 31
0.0
  0
SPLINE
  5
7257
330
1F
100
AcDbEntity
  8
AM_0
370
    30
100
AcDbSpline
210
0.0
220
0.0
230
1.0
 70
     8
 71
     3
 72
    11
 73
     7
 74
     5
 42
0.0000000001
 43
0.0000000001
 44
0.0000000001
 40
0.0
 40
0.0
 40
0.0
 40
0.0
 40
0.0664986066094582
 40
0.1330996869385258
 40
0.1997731964681664
 40
0.2664849580248757
 40
0.2664849580248757
 40
0.2664849580248757
 40
0.2664849580248757
 10
-53.06856509238145
 20
14.33297999999996
 30
0.0
 10
-53.07862575130663
 20
14.35273968026314
 30
0.0
 10
-53.09876257253661
 20
14.39228949026863
 30
0.0
 10
-53.13340017487401
 20
14.44922146609416
 30
0.0
 10
-53.17088368577681
 20
14.50440660097043
 30
0.0
 10
-53.19856797709343
 20
14.53921620610806
 30
0.0
 10
-53.21241409238144
 20
14.55662599999994
 30
0.0
 11
-53.06856509238145
 21
14.33297999999996
 31
0.0
 11
-53.09948109238144
 21
14.39185499999996
 31
0.0
 11
-53.1338550923814
 21
14.44889999999998
 31
0.0
 11
-53.17154709238145
 21
14.50389699999994
 31
0.0
 11
-53.21241409238144
 21
14.55662599999994
 31
0.0
  0
SPLINE
  5
7258
330
1F
100
AcDbEntity
  8
AM_0
370
    30
100
AcDbSpline
210
0.0
220
0.0
230
1.0
 70
     8
 71
     3
 72
    11
 73
     7
 74
     5
 42
0.0000000001
 43
0.0000000001
 44
0.0000000001
 40
0.0
 40
0.0
 40
0.0
 40
0.0
 40
0.0235071772231416
 40
0.0474089994967597
 40
0.0717126948742149
 40
0.0964234281292125
 40
0.0964234281292125
 40
0.0964234281292125
 40
0.0964234281292125
 10
-52.98096409238144
 20
14.15345699999995
 30
0.0
 10
-52.97760006240715
 20
14.14637916595379
 30
0.0
 10
-52.97081552618469
 20
14.13210467320855
 30
0.0
 10
-52.96152563082242
 20
14.11007262590342
 30
0.0
 10
-52.95272216481668
 20
14.08741183864773
 30
0.0
 10
-52.9474380770077
 20
14.07195008001697
 30
0.0
 10
-52.94477409238141
 20
14.06415499999997
 30
0.0
 11
-52.98096409238144
 21
14.15345699999995
 31
0.0
 11
-52.9710300923814
 21
14.13215199999996
 31
0.0
 11
-52.96168209238141
 21
14.11015399999997
 31
0.0
 11
-52.9529270923814
 21
14.08748199999997
 31
0.0
 11
-52.94477409238141
 21
14.06415499999997
 31
0.0
  0
SPLINE
  5
725A
330
1F
100
AcDbEntity
  8
AM_0
370
    30
100
AcDbSpline
210
0.0
220
0.0
230
1.0
 70
     8
 71
     3
 72
    11
 73
     7
 74
     5
 42
0.0000000001
 43
0.0000000001
 44
0.0000000001
 40
0.0
 40
0.0
 40
0.0
 40
0.0
 40
0.0235071772231176
 40
0.0474089994967357
 40
0.0717123346588114
 40
0.0964233978694383
 40
0.0964233978694383
 40
0.0964233978694383
 40
0.0964233978694383
 10
-52.79757109238142
 20
13.77762799999994
 30
0.0
 10
-52.79420709203651
 20
13.77055015469307
 30
0.0
 10
-52.78742261557024
 20
13.75627563923736
 30
0.0
 10
-52.77813231037402
 20
13.73424387609292
 30
0.0
 10
-52.76933062201233
 20
13.71158242414284
 30
0.0
 10
-52.76404559016802
 20
13.69612101348249
 30
0.0
 10
-52.76138109238144
 20
13.68832599999996
 30
0.0
 11
-52.79757109238142
 21
13.77762799999994
 31
0.0
 11
-52.78763709238143
 21
13.75632299999995
 31
0.0
 11
-52.77828909238144
 21
13.73432499999996
 31
0.0
 11
-52.76953509238143
 21
13.71165299999996
 31
0.0
 11
-52.76138109238144
 21
13.68832599999996
 31
0.0
  0
SPLINE
  5
725B
330
1F
100
AcDbEntity
  8
AM_0
370
    30
100
AcDbSpline
210
0.0
220
0.0
230
1.0
 70
     8
 71
     3
 72
    11
 73
     7
 74
     5
 42
0.0000000001
 43
0.0000000001
 44
0.0000000001
 40
0.0
 40
0.0
 40
0.0
 40
0.0
 40
0.0664986066094846
 40
0.1330996869385522
 40
0.1997726311513379
 40
0.2664850053033921
 40
0.2664850053033921
 40
0.2664850053033921
 40
0.2664850053033921
 10
-52.7017800923814
 20
13.58132199999994
 30
0.0
 10
-52.71184072774055
 20
13.60108169674446
 30
0.0
 10
-52.73197750180216
 20
13.640631539738
 30
0.0
 10
-52.76661536043091
 20
13.69756310666584
 30
0.0
 10
-52.80409751981043
 20
13.75274920533173
 30
0.0
 10
-52.83178250687798
 20
13.78755830514613
 30
0.0
 10
-52.84562909238144
 20
13.80496799999997
 30
0.0
 11
-52.7017800923814
 21
13.58132199999994
 31
0.0
 11
-52.73269609238145
 21
13.64019699999994
 31
0.0
 11
-52.7670700923814
 21
13.69724199999996
 31
0.0
 11
-52.8047610923814
 21
13.75223899999998
 31
0.0
 11
-52.84562909238144
 21
13.80496799999997
 31
0.0
  0
SPLINE
  5
725C
330
1F
100
AcDbEntity
  8
AM_0
370
    30
100
AcDbSpline
210
0.0
220
0.0
230
1.0
 70
     8
 71
     3
 72
    11
 73
     7
 74
     5
 42
0.0000000001
 43
0.0000000001
 44
0.0000000001
 40
0.0
 40
0.0
 40
0.0
 40
0.0
 40
0.1021525828405486
 40
0.2099781242720739
 40
0.3234643941199917
 40
0.4423842396379099
 40
0.4423842396379099
 40
0.4423842396379099
 40
0.4423842396379099
 10
-52.5209220923814
 20
13.21068799999995
 30
0.0
 10
-52.50725107554673
 20
13.17944692949128
 30
0.0
 10
-52.47914983334596
 20
13.11522984164828
 30
0.0
 10
-52.45244557961496
 20
13.01037737762144
 30
0.0
 10
-52.43485006103981
 20
12.8981122874614
 30
0.0
 10
-52.43274515261444
 20
12.82059487272185
 30
0.0
 10
-52.43166809238142
 20
12.78092999999996
 30
0.0
 11
-52.5209220923814
 21
13.21068799999995
 31
0.0
 11
-52.48245709238142
 21
13.11605399999996
 31
0.0
 11
-52.45453309238144
 21
13.01190699999995
 31
0.0
 11
-52.43749509238143
 21
12.89970699999998
 31
0.0
 11
-52.43166809238142
 21
12.78092999999996
 31
0.0
  0
SPLINE
  5
7260
330
1F
100
AcDbEntity
  8
AM_0
370
    30
100
AcDbSpline
210
0.0
220
0.0
230
1.0
 70
     8
 71
     3
 72
    11
 73
     7
 74
     5
 42
0.0000000001
 43
0.0000000001
 44
0.0000000001
 40
0.0
 40
0.0
 40
0.0
 40
0.0
 40
0.1181422247166384
 40
0.2358779604683589
 40
0.3539774199464063
 40
0.4718706017424426
 40
0.4718706017424426
 40
0.4718706017424426
 40
0.4718706017424426
 10
-55.32866609238141
 20
2.772245999999939
 30
0.0
 10
-55.28926345154275
 20
2.773431599309788
 30
0.0
 10
-55.21059374153535
 20
2.775798718667924
 30
0.0
 10
-55.09389312364467
 20
2.794983407034252
 30
0.0
 10
-54.97943545209584
 20
2.824387267980243
 30
0.0
 10
-54.90636192145498
 20
2.853717635073613
 30
0.0
 10
-54.86985709238144
 20
2.86836999999997
 30
0.0
 11
-55.32866609238141
 21
2.772245999999939
 31
0.0
 11
-55.21068509238143
 21
2.778415999999936
 31
0.0
 11
-55.09437209238143
 21
2.796663999999964
 31
0.0
 11
-54.9801920923814
 21
2.826836999999955
 31
0.0
 11
-54.86985709238144
 21
2.86836999999997
 31
0.0
  0
SPLINE
  5
7261
330
1F
100
AcDbEntity
  8
AM_0
370
    30
100
AcDbSpline
210
0.0
220
0.0
230
1.0
 70
     8
 71
     3
 72
    11
 73
     7
 74
     0
 42
0.0000000001
 43
0.0000000001
 40
0.0
 40
0.0
 40
0.0
 40
0.0
 40
0.4618661417174898
 40
0.8829810204287507
 40
1.27510923426193
 40
1.410679509305735
 40
1.410679509305735
 40
1.410679509305735
 40
1.410679509305735
 10
-55.35148209238145
 20
13.47616499999998
 30
0.0
 10
-55.25151551182893
 20
13.59371356415363
 30
0.0
 10
-55.06040257816204
 20
13.81843917564868
 30
0.0
 10
-54.85201599457849
 20
14.1912753373058
 30
0.0
 10
-54.74432655977239
 20
14.49210038734185
 30
0.0
 10
-54.71699233320078
 20
14.66549945865944
 30
0.0
 10
-54.7113472763636
 20
14.71030480107817
 30
0.0
  0
LINE
  5
7263
330
1F
100
AcDbEntity
  8
AM_0
370
    30
100
AcDbLine
 10
-54.9441250923814
 20
14.24160699999999
 30
0.0
 11
-54.9497520923814
 21
14.04010599999998
 31
0.0
  0
SPLINE
  5
7265
330
1F
100
AcDbEntity
  8
AM_0
370
    30
100
AcDbSpline
210
0.0
220
0.0
230
1.0
 70
     8
 71
     3
 72
    10
 73
     6
 74
     0
 42
0.0000000001
 43
0.0000000001
 40
0.0
 40
0.0
 40
0.0
 40
0.0
 40
0.0869499461069422
 40
0.1667177427983388
 40
0.2088510854781721
 40
0.2088510854781721
 40
0.2088510854781721
 40
0.2088510854781721
 10
-53.21241409238144
 20
14.55662599999994
 30
0.0
 10
-53.23132558141577
 20
14.57860967365525
 30
0.0
 10
-53.2675864522493
 20
14.62076114831774
 30
0.0
 10
-53.31507239255808
 20
14.6714972725689
 30
0.0
 10
-53.34469641135075
 20
14.69972158756985
 30
0.0
 10
-53.35412271848446
 20
14.7101160126274
 30
0.0
  0
LINE
  5
726E
330
1F
100
AcDbEntity
  8
AM_0
370
    30
100
AcDbLine
 10
-53.11278568980941
 20
14.7100824429067
 30
0.0
 11
-53.11278568980941
 21
14.41492097831673
 31
0.0
  0
ENDSEC
  0
SECTION
  2
OBJECTS
  0
DICTIONARY
  5
C
330
0
100
AcDbDictionary
281
     1
  3
ACAD_COLOR
350
1611
  3
ACAD_GROUP
350
D
  3
ACAD_LAYOUT
350
1A
  3
ACAD_MATERIAL
350
1610
  3
ACAD_MLINESTYLE
350
17
  3
ACAD_PLOTSETTINGS
350
19
  3
ACAD_PLOTSTYLENAME
350
E
  3
ACAD_TABLESTYLE
350
1612
  3
AcAmCatalogState
350
1679
  3
ACDBHEADERROUNDTRIPXREC
350
731E
  3
AcDbVariableDictionary
350
30
  3
ACDMSYSVARMGR
350
162A
  3
ACGREF_MASTER
350
1622
  3
ACGREFACAD_MASTER
350
164C
  3
AcmDictionary
350
43
  3
ACME_BOM_MANAGER_NAME
350
36
  3
ACME_COMMAND_HISTORY
350
2F
  3
ACME_SCOPE_NAME
350
2E
  3
ACMESTATEMGR
350
3B
  3
AcmeSysVarManager
350
32
  3
AcmSystemVariableManager
350
79D
  3
AD_APPL
350
1657
  3
ADSYSVARMGR
350
1656
  3
AmdtNamedDwgMgr
350
1647
  3
AMG
350
3F
  3
AMGSNAPSETTINGS
350
59
  3
AMI_MASTER
350
164F
  3
AUTOCAD_ASSEMBLIES_PROJECT
350
165F
  3
Designer_Assemblies_SysVars
350
165A
  3
DWGPROPS
350
7321
  3
GREFAM_MODULE
350
1650
  3
SAKAE_DICT
350
1605
  0
DICTIONARY
  5
1832
330
2
100
AcDbDictionary
280
     1
281
     1
  3
ACAD_LAYERSTATES
360
1833
  0
DICTIONARY
  5
10B
330
1F
100
AcDbDictionary
280
     1
281
     1
  3
ACAD_SORTENTS
360
1DD7
  0
DICTIONARY
  5
1611
102
{ACAD_REACTORS
330
C
102
}
330
C
100
AcDbDictionary
281
     1
  0
DICTIONARY
  5
D
102
{ACAD_REACTORS
330
C
102
}
330
C
100
AcDbDictionary
281
     1
  0
DICTIONARY
  5
1A
102
{ACAD_REACTORS
330
C
102
}
330
C
100
AcDbDictionary
281
     1
  3
Model
350
22
  3
ﾚｲｱｳﾄ1
350
1E
  3
ﾚｲｱｳﾄ2
350
26
  0
DICTIONARY
  5
1610
102
{ACAD_REACTORS
330
C
102
}
330
C
100
AcDbDictionary
281
     1
  0
DICTIONARY
  5
17
102
{ACAD_REACTORS
330
C
102
}
330
C
100
AcDbDictionary
281
     1
  3
Standard
350
18
  0
DICTIONARY
  5
19
102
{ACAD_REACTORS
330
C
102
}
330
C
100
AcDbDictionary
281
     1
  0
ACDBDICTIONARYWDFLT
  5
E
102
{ACAD_REACTORS
330
C
102
}
330
C
100
AcDbDictionary
281
     1
  3
Normal
350
F
100
AcDbDictionaryWithDefault
340
F
  0
DICTIONARY
  5
1612
102
{ACAD_REACTORS
330
C
102
}
330
C
100
AcDbDictionary
281
     1
  3
Standard
350
1613
  0
ACAD_PROXY_OBJECT
  5
1679
102
{ACAD_REACTORS
330
C
102
}
330
C
100
AcDbProxyObject
 90
      499
 91
      570
 95
       25
 70
     0
 93
      160
310
3FFFFFFFE00A028140283A19D2E3A32B6B8400AA
  0
DICTIONARY
  5
731E
102
{ACAD_REACTORS
330
C
102
}
330
C
100
AcDbDictionary
281
     1
  3
COLORDICT
350
731F
  3
MATERIALDICT
350
7320
  0
DICTIONARY
  5
30
102
{ACAD_REACTORS
330
C
102
}
330
C
100
AcDbDictionary
281
     1
  3
CTABLESTYLE
350
1684
  3
DIMASSOC
350
731C
  3
HIDETEXT
350
731D
  3
INDEXCTL
350
31
  0
ACAD_PROXY_OBJECT
  5
162A
102
{ACAD_REACTORS
330
C
102
}
330
C
100
AcDbProxyObject
 90
      499
 91
      507
 95
       25
 70
     0
 93
      240
310
4C51A47A0000000000000000000000000000000000000000000000000000
330
162B
330
162C
330
162D
330
162E
330
162F
330
1630
330
1631
330
1632
330
1633
330
1634
330
1635
330
1636
330
1637
330
1638
330
1639
330
163A
330
163B
330
163C
330
163D
330
163E
330
163F
330
1640
330
1641
330
1642
330
1643
330
1644
 94
        0
  0
ACAD_PROXY_OBJECT
  5
1622
102
{ACAD_REACTORS
330
C
102
}
330
C
100
AcDbProxyObject
 90
      499
 91
      534
 95
       25
 70
     0
 93
       34
310
0400004280
  0
ACAD_PROXY_OBJECT
  5
164C
102
{ACAD_REACTORS
330
C
102
}
330
C
100
AcDbProxyObject
 90
      499
 91
      540
 95
       25
 70
     0
 93
      114
310
04000041C080000000000000000000
  0
DICTIONARY
  5
43
102
{ACAD_REACTORS
330
C
102
}
330
C
100
AcDbDictionary
281
     1
  3
AcmBOMDATA
350
44
  3
AcmStdDictionary
350
7A0
  3
AMDTSECTSYM_ARROWCOLOR
350
166D
  0
ACAD_PROXY_OBJECT
  5
36
102
{ACAD_REACTORS
330
C
102
}
330
C
100
AcDbProxyObject
 90
      499
 91
      510
 95
       25
 70
     0
 93
       50
310
00010040400000
330
0
330
0
330
37
 94
        0
  0
ACAD_PROXY_OBJECT
  5
2F
102
{ACAD_REACTORS
330
C
102
}
330
C
100
AcDbProxyObject
 90
      499
 91
      505
 95
       25
 70
     0
 93
    10772
310
47805055153415645404052D4D5347202D205050413A2020206465736B746F702E6172782046696C6556657273696F6E3A20392E322E302E3401415454D05591501014B5354D1C80B481414104E88080819195CDADD1BDC0B985C9E08119A5B1955995C9CDA5BDB8E880E4B8C8B8C0B8D005055153415645404052D4D53472
310
02D205050413A2020206465736B746F702E6172782046696C6556657273696F6E3A20392E322E302E3401415454D05591501014B5354D1C80B481414104E88080819195CDADD1BDC0B985C9E08119A5B1955995C9CDA5BDB8E880E4B8C8B8C0B8D005055153415645404052D4D5347202D205050413A2020206465736B746F
310
702E6172782046696C6556657273696F6E3A20392E322E302E3401415454D05591501014B5354D1C80B481414104E88080819195CDADD1BDC0B985C9E08119A5B1955995C9CDA5BDB8E880E4B8C8B8C0B8D005055153415645404052D4D5347202D205050413A2020206465736B746F702E6172782046696C6556657273696
310
F6E3A20392E322E302E3401411353D591601415454D05591501014B5354D1C80B481414104E88080819195CDADD1BDC0B985C9E08119A5B1955995C9CDA5BDB8E880E4B8C8B8C0B8D005055153415645404052D4D5347202D205050413A2020206465736B746F702E6172782046696C6556657273696F6E3A20392E322E302
310
E3401415454D05591501014B5354D1C80B481414104E88080819195CDADD1BDC0B985C9E08119A5B1955995C9CDA5BDB8E880E4B8C8B8C0B8D005055153415645404052D4D5347202D205050413A2020206465736B746F702E6172782046696C6556657273696F6E3A20392E322E302E3401415454D05591501014B5354D1C
310
80B481414104E88080819195CDADD1BDC0B985C9E08119A5B1955995C9CDA5BDB8E880E4B8C8B8C0B8D005055153415645404052D4D5347202D205050413A2020206465736B746F702E6172782046696C6556657273696F6E3A20392E322E302E3401415454D05591501014B5354D1C80B481414104E88080819195CDADD1B
310
DC0B985C9E08119A5B1955995C9CDA5BDB8E880E4B8C8B8C0B8D005055153415645404052D4D5347202D205050413A2020206465736B746F702E6172782046696C6556657273696F6E3A20392E322E302E34014154155491D1601415454D05591501014B5354D1C80B481414104E88080819195CDADD1BDC0B985C9E08119A
310
5B1955995C9CDA5BDB8E880E4B8C8B8C0B8D005055153415645404052D4D5347202D205050413A2020206465736B746F702E6172782046696C6556657273696F6E3A20392E322E302E3401415454D05591501014B5354D1C80B481414104E88080819195CDADD1BDC0B985C9E08119A5B1955995C9CDA5BDB8E880E4B8C8B8
310
C0B8D005055153415645404052D4D5347202D205050413A2020206465736B746F702E6172782046696C6556657273696F6E3A20392E322E302E3401415454D05591501014B5354D1C80B481414104E88080819195CDADD1BDC0B985C9E08119A5B1955995C9CDA5BDB8E880E4B8C8B8C0B8D005055153415645404052D4D53
310
47202D205050413A2020206465736B746F702E6172782046696C6556657273696F6E3A20392E322E302E34014390535115149154D15511109353D1102014213880B4815539113C05084E202D20554E444F014115539113E014115539113E0142941493D4115495125154E014154155491D150101461354D1C80B4810DBDB5B
310
585B990810D05390D1531311510B805045A4F4F4D805055153415645404052D4D5347202D205050413A2020206465736B746F702E6172782046696C6556657273696F6E3A20392E322E302E340
  0
ACAD_PROXY_OBJECT
  5
2E
102
{ACAD_REACTORS
330
C
102
}
330
C
100
AcDbProxyObject
 90
      499
 91
      504
 95
       25
 70
     0
 93
      586
310
09000046408000000000000000001344E200000000000000000000000000000000000000000000000000000000000000000000000000000000000000000000000000000000AAA406AA80
360
33
360
34
360
35
360
37
360
79E
360
79F
360
1623
360
1624
360
1625
360
1626
360
1627
360
1628
360
162B
360
162C
360
162D
360
162E
360
162F
360
1630
360
1631
360
1632
360
1633
360
1634
360
1635
360
1636
360
1637
360
1638
360
1639
360
163A
360
163B
360
163C
360
163D
360
163E
360
163F
360
1640
360
1641
360
1642
360
1643
360
1644
360
1652
360
1653
360
1654
360
1655
360
165B
360
165C
360
165D
360
165E
360
1663
360
1664
360
1665
360
1666
360
1667
360
1668
 94
        0
  0
ACAD_PROXY_OBJECT
  5
3B
102
{ACAD_REACTORS
330
C
102
}
330
C
100
AcDbProxyObject
 90
      499
 91
      515
 95
       25
 70
     0
 93
       50
310
09000042641280
  0
ACAD_PROXY_OBJECT
  5
32
102
{ACAD_REACTORS
330
C
102
}
330
C
100
AcDbProxyObject
 90
      499
 91
      507
 95
       25
 70
     0
 93
       48
310
903412000000
330
33
330
34
330
35
 94
        0
  0
ACAD_PROXY_OBJECT
  5
79D
102
{ACAD_REACTORS
330
C
102
}
330
C
100
AcDbProxyObject
 90
      499
 91
      507
 95
       25
 70
     0
 93
       40
310
90240E0000
330
79E
330
79F
 94
        0
  0
ACAD_PROXY_OBJECT
  5
1657
102
{ACAD_REACTORS
330
C
102
}
330
C
100
AcDbProxyObject
 90
      499
 91
      550
 95
       25
 70
     0
 93
       42
310
000900004040
330
1652
 94
        0
  0
ACAD_PROXY_OBJECT
  5
1656
102
{ACAD_REACTORS
330
C
102
}
330
C
100
AcDbProxyObject
 90
      499
 91
      507
 95
       25
 70
     0
 93
        8
310
AA
  0
ACAD_PROXY_OBJECT
  5
1647
102
{ACAD_REACTORS
330
C
102
}
330
C
100
AcDbProxyObject
 90
      499
 91
      539
 95
       25
 70
     0
 93
       42
310
000100005E80
330
1623
 94
        0
  0
DICTIONARY
  5
3F
102
{ACAD_REACTORS
330
C
102
}
330
C
100
AcDbDictionary
281
     1
  3
AcMgSettings
350
40
  3
AMGLAYCFG
350
47
  0
DICTIONARY
  5
59
102
{ACAD_REACTORS
330
C
102
}
330
C
100
AcDbDictionary
281
     1
  3
DIMENSION
350
AE3
  3
FEA
350
AE4
  3
HATCH (1)
350
AE5
  3
HATCH (2)
350
AE6
  3
SYMBOLS
350
AE7
  0
ACAD_PROXY_OBJECT
  5
164F
102
{ACAD_REACTORS
330
C
102
}
330
C
100
AcDbProxyObject
 90
      499
 91
      543
 95
       25
 70
     0
 93
       34
310
0500004280
  0
ACAD_PROXY_OBJECT
  5
165F
102
{ACAD_REACTORS
330
C
102
}
330
C
100
AcDbProxyObject
 90
      499
 91
      553
 95
       25
 70
     0
 93
       98
310
0900004E400000000000000000
330
1666
330
0
330
1667
330
0
330
0
330
0
330
0
330
0
 94
        0
  0
ACAD_PROXY_OBJECT
  5
165A
102
{ACAD_REACTORS
330
C
102
}
330
C
100
AcDbProxyObject
 90
      499
 91
      507
 95
       25
 70
     0
 93
       56
310
90441600000000
330
165B
330
165C
330
165D
330
165E
 94
        0
  0
XRECORD
  5
7321
102
{ACAD_REACTORS
330
C
102
}
330
C
100
AcDbXrecord
280
     1
  1
DWGPROPS COOKIE
  2

  3

  4

  6

  7

  8

  9

300
AmdtFileType=82
301
=
302
=
303
=
304
=
305
=
306
=
307
=
308
=
309
=
 40
0.0
 41
2451948.235903461
 42
2455464.197908345
  1

 90
        1
  0
ACAD_PROXY_OBJECT
  5
1650
102
{ACAD_REACTORS
330
C
102
}
330
C
100
AcDbProxyObject
 90
      499
 91
      544
 95
       25
 70
     0
 93
        8
310
05
  0
DICTIONARY
  5
1605
102
{ACAD_REACTORS
330
C
102
}
330
C
100
AcDbDictionary
281
     1
  3
XREC1
350
1606
  0
DICTIONARY
  5
1833
102
{ACAD_REACTORS
330
1832
102
}
330
1832
100
AcDbDictionary
281
     1
  0
SORTENTSTABLE
  5
1DD7
102
{ACAD_REACTORS
330
10B
102
}
330
10B
100
AcDbSortentsTable
330
1F
331
2E3B
  5
2E38
331
6173
  5
6173
331
6705
  5
6705
331
6706
  5
6706
331
6707
  5
6707
331
6708
  5
6708
331
6709
  5
6709
331
670A
  5
670A
331
670B
  5
670B
331
670C
  5
670C
331
670D
  5
670D
331
670E
  5
670E
331
670F
  5
670F
331
6714
  5
6714
331
6719
  5
6719
331
671F
  5
671F
331
6721
  5
6721
331
6722
  5
6722
331
6723
  5
6723
331
6724
  5
6724
331
6726
  5
6726
331
6728
  5
6728
331
672A
  5
672A
331
672B
  5
672B
331
672D
  5
672D
331
672F
  5
672F
331
6730
  5
6730
331
6731
  5
6731
331
6732
  5
6732
331
6733
  5
6733
331
6735
  5
6735
331
6736
  5
6736
331
6737
  5
6737
331
6738
  5
6738
331
6739
  5
6739
331
673A
  5
673A
331
673B
  5
673B
331
673C
  5
673C
331
673D
  5
673D
331
673E
  5
673E
331
673F
  5
673F
331
6740
  5
6740
331
6741
  5
6741
331
6742
  5
6742
331
6743
  5
6743
331
6744
  5
6744
331
6746
  5
6746
331
6749
  5
6749
331
674E
  5
6750
331
6750
  5
6753
331
6755
  5
6757
331
6757
  5
6759
331
6759
  5
675C
331
675C
  5
675E
331
6767
  5
6768
331
6768
  5
6769
331
676C
  5
676D
331
676D
  5
676E
331
676E
  5
676F
331
676F
  5
6770
331
6770
  5
6771
331
6771
  5
6772
331
6773
  5
6774
331
6775
  5
6776
331
6776
  5
6777
331
6777
  5
6778
331
6778
  5
6779
331
6779
  5
677A
331
677A
  5
677B
331
677B
  5
677C
331
677C
  5
677D
331
677E
  5
677F
331
677F
  5
6780
331
6780
  5
6781
331
6781
  5
6782
331
6782
  5
6783
331
6783
  5
6784
331
6784
  5
6785
331
6785
  5
6786
331
6787
  5
6788
331
678A
  5
678B
331
678C
  5
678D
331
678D
  5
678E
331
678E
  5
678F
331
6791
  5
6792
331
6793
  5
6794
331
6794
  5
6795
331
6795
  5
6796
331
6796
  5
6797
331
6797
  5
6798
331
6799
  5
679A
331
679B
  5
679C
331
679C
  5
679D
331
679D
  5
679E
331
679F
  5
67A0
331
67A0
  5
67A1
331
67A2
  5
67A3
331
67A4
  5
67A5
331
67A6
  5
67A7
331
67A7
  5
67A8
331
67A8
  5
67A9
331
67A9
  5
67AA
331
67AA
  5
67AB
331
67AB
  5
67AC
331
67AC
  5
67AD
331
67AD
  5
67AE
331
67AE
  5
67AF
331
67B0
  5
67B1
331
67B1
  5
67B2
331
67B2
  5
67B3
331
67B3
  5
67B4
331
67B4
  5
67B5
331
67B5
  5
67B6
331
67B6
  5
67B7
331
67B7
  5
67B8
331
67B8
  5
67B9
331
67B9
  5
67BA
331
67BA
  5
67BB
331
67BB
  5
67BC
331
67BC
  5
67BD
331
67BD
  5
67BE
331
67BE
  5
67BF
331
67BF
  5
67C0
331
67C0
  5
67C1
331
67C1
  5
67C2
331
67C2
  5
67C3
331
67C3
  5
67C4
331
67C4
  5
67C5
331
67C5
  5
67C6
331
67C6
  5
67C7
331
67CC
  5
67CD
331
67CD
  5
67CE
331
67CE
  5
67CF
331
67CF
  5
67D0
331
67D0
  5
67D1
331
67D1
  5
67D2
331
67D2
  5
67D3
331
67D3
  5
67D4
331
67D4
  5
67D5
331
67D5
  5
67D6
331
67D6
  5
67D7
331
67D7
  5
67D8
331
67D8
  5
67D9
331
67D9
  5
67DA
331
67DA
  5
67DB
331
67DB
  5
67DC
331
67DC
  5
67DD
331
67DD
  5
67DE
331
67DE
  5
67DF
331
67DF
  5
67E0
331
67E0
  5
67E1
331
67E1
  5
67E2
331
67F4
  5
67F5
331
67F5
  5
67F6
331
67F6
  5
67F7
331
67F7
  5
67F8
331
67F8
  5
67F9
331
67F9
  5
67FA
331
67FA
  5
67FB
331
67FB
  5
67FC
331
67FC
  5
67FD
331
67FD
  5
67FE
331
67FE
  5
67FF
331
67FF
  5
6800
331
6800
  5
6801
331
6801
  5
6802
331
6802
  5
6803
331
6803
  5
6804
331
6804
  5
6805
331
6805
  5
6806
331
6806
  5
6807
331
6807
  5
6808
331
6808
  5
6809
331
6809
  5
680A
331
680B
  5
680C
331
680D
  5
680E
331
680E
  5
680F
331
680F
  5
6810
331
6810
  5
6811
331
6813
  5
6814
331
6814
  5
6815
331
6815
  5
6816
331
6816
  5
6817
331
6817
  5
6818
331
6818
  5
6819
331
6819
  5
681A
331
681A
  5
681B
331
681B
  5
681C
331
681C
  5
681D
331
681D
  5
681E
331
681E
  5
681F
331
681F
  5
6820
331
6820
  5
6821
331
6822
  5
6823
331
6823
  5
6824
331
6824
  5
6825
331
6825
  5
6826
331
6826
  5
6827
331
6827
  5
6828
331
6828
  5
6829
331
6829
  5
682A
331
682A
  5
682B
331
682B
  5
682C
331
682C
  5
682D
331
682D
  5
682E
331
682E
  5
682F
331
682F
  5
6830
331
6830
  5
6831
331
6831
  5
6832
331
6832
  5
6833
331
6833
  5
6834
331
6834
  5
683E
331
6841
  5
6842
331
6842
  5
6843
331
6843
  5
6844
331
6844
  5
6845
331
6845
  5
6846
331
6846
  5
6847
331
6847
  5
6848
331
6848
  5
6849
331
6849
  5
684A
331
684A
  5
684B
331
684B
  5
684C
331
684C
  5
684D
331
684F
  5
6850
331
6850
  5
6851
331
6851
  5
6852
331
6852
  5
6853
331
6853
  5
6854
331
6854
  5
6855
331
6855
  5
6856
331
6856
  5
6857
331
6858
  5
6859
331
6859
  5
685A
331
685A
  5
685B
331
685B
  5
685C
331
685C
  5
685D
331
685D
  5
685E
331
685E
  5
685F
331
685F
  5
6860
331
6860
  5
6861
331
6861
  5
6862
331
6862
  5
6863
331
6863
  5
6864
331
6864
  5
6865
331
6865
  5
6866
331
6866
  5
6867
331
6867
  5
6868
331
6868
  5
6875
331
6875
  5
6876
331
687B
  5
687C
331
687C
  5
687D
331
687D
  5
687E
331
687E
  5
687F
331
687F
  5
6880
331
6880
  5
6881
331
6881
  5
6882
331
6882
  5
6883
331
6883
  5
6884
331
6884
  5
6885
331
688D
  5
688E
331
688E
  5
688F
331
688F
  5
6890
331
6890
  5
6891
331
6893
  5
6894
331
6894
  5
6895
331
689B
  5
689C
331
689E
  5
689F
331
689F
  5
68A0
331
68A0
  5
68A1
331
68A1
  5
68A2
331
68A8
  5
68A9
331
68A9
  5
68AA
331
68AA
  5
68AB
331
68AB
  5
68AC
331
68AC
  5
68AD
331
68AD
  5
68AE
331
68AE
  5
68AF
331
68AF
  5
68B0
331
68B0
  5
68B1
331
68B1
  5
68B2
331
68B2
  5
68B3
331
68B3
  5
68B4
331
68B4
  5
68B5
331
68B5
  5
68B6
331
68B6
  5
68B7
331
68B7
  5
68B8
331
68B8
  5
68B9
331
68B9
  5
68BA
331
68BA
  5
68BB
331
68BB
  5
68C1
331
68C1
  5
68C6
331
68C6
  5
68C8
331
68C8
  5
68CB
331
68CB
  5
68CC
331
68CC
  5
68CD
331
68CD
  5
68CF
331
68D1
  5
68D2
331
68D2
  5
68D3
331
68D3
  5
68D4
331
68D4
  5
68D6
331
68D6
  5
68D7
331
68D7
  5
68D8
331
68D8
  5
68D9
331
68D9
  5
68DA
331
68DF
  5
68E0
331
68E0
  5
68E1
331
68E1
  5
68E2
331
68E2
  5
68E3
331
68E3
  5
68E4
331
68E4
  5
68E5
331
68E5
  5
68E6
331
68E7
  5
68E8
331
68E8
  5
68E9
331
68E9
  5
68EA
331
68EA
  5
68EB
331
68ED
  5
68EE
331
68EE
  5
68EF
331
68EF
  5
68F0
331
68F0
  5
68F1
331
68F2
  5
68F3
331
68F3
  5
68F4
331
68F6
  5
68F7
331
68F8
  5
68F9
331
68F9
  5
68FA
331
68FA
  5
68FB
331
68FB
  5
68FC
331
68FC
  5
68FD
331
68FD
  5
68FE
331
68FE
  5
68FF
331
68FF
  5
6900
331
6902
  5
6903
331
6904
  5
6905
331
6905
  5
6906
331
6907
  5
6908
331
6908
  5
6909
331
6909
  5
690A
331
690A
  5
690B
331
690B
  5
690C
331
690C
  5
690D
331
690D
  5
690E
331
690E
  5
690F
331
690F
  5
6910
331
6910
  5
6911
331
6911
  5
6912
331
6912
  5
6913
331
6913
  5
6914
331
6914
  5
6915
331
691A
  5
691B
331
691C
  5
691D
331
691D
  5
691E
331
691E
  5
691F
331
691F
  5
6920
331
6920
  5
6921
331
6921
  5
6922
331
6922
  5
6923
331
6923
  5
6924
331
6924
  5
6925
331
6925
  5
6926
331
6926
  5
6927
331
6927
  5
6928
331
6928
  5
6929
331
6929
  5
692A
331
692A
  5
692B
331
692B
  5
692C
331
692C
  5
692D
331
692D
  5
692E
331
692E
  5
692F
331
692F
  5
6930
331
6930
  5
6931
331
6931
  5
6932
331
6932
  5
6933
331
6934
  5
6935
331
6935
  5
6936
331
6936
  5
6937
331
6937
  5
6938
331
6938
  5
6939
331
6939
  5
693C
331
6B19
  5
6B19
331
6B1A
  5
6B1A
331
6B1B
  5
6B1B
331
6B1D
  5
6B1D
331
6B1E
  5
6B1E
331
6B29
  5
6B29
331
6B2F
  5
6B2F
331
6B3E
  5
6B3E
331
6B3F
  5
6B3F
331
6B40
  5
6B40
331
6B41
  5
6B41
331
6B45
  5
6B45
331
6B66
  5
6B66
331
6B6A
  5
6B6A
331
6BB0
  5
6BB0
  0
LAYOUT
  5
22
102
{ACAD_REACTORS
330
1A
102
}
330
1A
100
AcDbPlotSettings
  1

  2
SII LP-2150 (D-SCAN C2)
  4
User118
  6
AM_VIEW1
 40
3.174999952316284
 41
3.174999952316284
 42
3.17498779296875
 43
3.17498779296875
 44
296.9259948730469
 45
419.9889831542969
 46
0.0
 47
0.0
 48
0.0
 49
0.0
140
423.0
141
300.0
142
1.0
143
1.03243210946902
 70
 11952
 72
     1
 73
     1
 74
     4
  7
sei_cad.ctb
 75
     0
147
0.9685866904258728
148
0.0
149
0.0
100
AcDbLayout
  1
Model
 70
     1
 71
     0
 10
0.0
 20
0.0
 11
12.0
 21
9.0
 12
0.0
 22
0.0
 32
0.0
 14
0.0
 24
0.0
 34
0.0
 15
0.0
 25
0.0
 35
0.0
146
0.0
 13
0.0
 23
0.0
 33
0.0
 16
1.0
 26
0.0
 36
0.0
 17
0.0
 27
1.0
 37
0.0
 76
     0
330
1F
  0
LAYOUT
  5
1E
102
{ACAD_REACTORS
330
1A
102
}
330
1A
100
AcDbPlotSettings
  1

  2
SII LP-2150 (D-SCAN C2)
  4

  6

 40
0.0
 41
0.0
 42
0.0
 43
0.0
 44
0.0
 45
0.0
 46
0.0
 47
0.0
 48
0.0
 49
0.0
140
0.0
141
0.0
142
1.0
143
1.0
 70
   688
 72
     0
 73
     0
 74
     5
  7
sei_cad.ctb
 75
    16
147
1.0
148
0.0
149
0.0
100
AcDbLayout
  1
ﾚｲｱｳﾄ1
 70
     1
 71
     1
 10
0.0
 20
0.0
 11
420.0
 21
297.0
 12
0.0
 22
0.0
 32
0.0
 14
1.000000000000000E+20
 24
1.000000000000000E+20
 34
1.000000000000000E+20
 15
-1.000000000000000E+20
 25
-1.000000000000000E+20
 35
-1.000000000000000E+20
146
0.0
 13
0.0
 23
0.0
 33
0.0
 16
1.0
 26
0.0
 36
0.0
 17
0.0
 27
1.0
 37
0.0
 76
     0
330
1B
  0
LAYOUT
  5
26
102
{ACAD_REACTORS
330
1A
102
}
330
1A
100
AcDbPlotSettings
  1

  2
SII LP-2150 (D-SCAN C2)
  4

  6

 40
0.0
 41
0.0
 42
0.0
 43
0.0
 44
0.0
 45
0.0
 46
0.0
 47
0.0
 48
0.0
 49
0.0
140
0.0
141
0.0
142
1.0
143
1.0
 70
   688
 72
     0
 73
     0
 74
     5
  7
sei_cad.ctb
 75
    16
147
1.0
148
0.0
149
0.0
100
AcDbLayout
  1
ﾚｲｱｳﾄ2
 70
     1
 71
     2
 10
0.0
 20
0.0
 11
12.0
 21
9.0
 12
0.0
 22
0.0
 32
0.0
 14
0.0
 24
0.0
 34
0.0
 15
0.0
 25
0.0
 35
0.0
146
0.0
 13
0.0
 23
0.0
 33
0.0
 16
1.0
 26
0.0
 36
0.0
 17
0.0
 27
1.0
 37
0.0
 76
     0
330
23
  0
MLINESTYLE
  5
18
102
{ACAD_REACTORS
330
17
102
}
330
17
100
AcDbMlineStyle
  2
STANDARD
 70
     0
  3

 62
   256
 51
90.0
 52
90.0
 71
     2
 49
0.5
 62
   256
  6
BYLAYER
 49
-0.5
 62
   256
  6
BYLAYER
  0
ACDBPLACEHOLDER
  5
F
102
{ACAD_REACTORS
330
E
102
}
330
E
  0
TABLESTYLE
  5
1613
102
{ACAD_REACTORS
330
1612
102
}
330
1612
100
AcDbTableStyle
  3
Standard
 70
     0
 71
     8
 40
1.5
 41
1.5
280
     0
281
     0
  7
STANDARD
140
4.5
170
     2
 62
     0
 63
     7
283
     0
274
    -2
284
     1
 64
     0
275
    -2
285
     1
 65
     0
276
    -2
286
     1
 66
     0
277
    -2
287
     1
 67
     0
278
    -2
288
     1
 68
     0
279
    -2
289
     1
 69
     0
  7
STANDARD
140
6.0
170
     5
 62
     0
 63
     7
283
     0
274
    -2
284
     1
 64
     0
275
    -2
285
     1
 65
     0
276
    -2
286
     1
 66
     0
277
    -2
287
     1
 67
     0
278
    -2
288
     1
 68
     0
279
    -2
289
     1
 69
     0
  7
STANDARD
140
4.5
170
     5
 62
     0
 63
     7
283
     0
274
    -2
284
     1
 64
     0
275
    -2
285
     1
 65
     0
276
    -2
286
     1
 66
     0
277
    -2
287
     1
 67
     0
278
    -2
288
     1
 68
     0
279
    -2
289
     1
 69
     0
  0
XRECORD
  5
731F
102
{ACAD_REACTORS
330
731E
102
}
330
731E
100
AcDbXrecord
280
     1
340
1611
  0
XRECORD
  5
7320
102
{ACAD_REACTORS
330
731E
102
}
330
731E
100
AcDbXrecord
280
     1
340
1610
  0
DICTIONARYVAR
  5
1684
102
{ACAD_REACTORS
330
30
102
}
330
30
100
DictionaryVariables
280
     0
  1
STANDARD
  0
DICTIONARYVAR
  5
731C
102
{ACAD_REACTORS
330
30
102
}
330
30
100
DictionaryVariables
280
     0
  1
1
  0
DICTIONARYVAR
  5
731D
102
{ACAD_REACTORS
330
30
102
}
330
30
100
DictionaryVariables
280
     0
  1
0
  0
DICTIONARYVAR
  5
31
102
{ACAD_REACTORS
330
30
102
}
330
30
100
DictionaryVariables
280
     0
  1
1
  0
ACAD_PROXY_OBJECT
  5
44
102
{ACAD_REACTORS
330
43
102
}
330
43
100
AcDbProxyObject
 90
      499
 91
      519
 95
       25
 70
     0
 93
      118
310
405010040CA904C415CD5B075DD238
350
45
 94
        0
  0
DICTIONARY
  5
7A0
102
{ACAD_REACTORS
330
43
102
}
330
43
100
AcDbDictionary
281
     1
  3
ANSI
350
1B45
  3
JIS
350
7A1
  0
XRECORD
  5
166D
102
{ACAD_REACTORS
330
43
102
}
330
43
100
AcDbXrecord
280
     1
 90
-1023410169
  0
ACAD_PROXY_OBJECT
  5
33
330
2E
100
AcDbProxyObject
 90
      499
 91
      508
 95
       25
 70
     0
 93
      156
310
00010143D050D351505391D5531054925390D490
330
2E
 94
        0
  0
ACAD_PROXY_OBJECT
  5
34
330
2E
100
AcDbProxyObject
 90
      499
 91
      508
 95
       25
 70
     0
 93
      148
310
000101439050D351531253915054925390D490
330
2E
 94
        0
  0
ACAD_PROXY_OBJECT
  5
35
330
2E
100
AcDbProxyObject
 90
      499
 91
      509
 95
       25
 70
     0
 93
      156
310
000101439050D35154D6535093D314D256915080
330
2E
 94
        0
  0
ACAD_PROXY_OBJECT
  5
37
330
2E
100
AcDbProxyObject
 90
      499
 91
      511
 95
       25
 70
     0
 93
       88
310
000101411093D34C402B00
330
2E
330
0
330
0
 94
        0
  0
ACAD_PROXY_OBJECT
  5
79E
330
2E
100
AcDbProxyObject
 90
      499
 91
      509
 95
       25
 70
     0
 93
      108
310
00010142505351D153D35054D4E0
330
2E
 94
        0
  0
ACAD_PROXY_OBJECT
  5
79F
330
2E
100
AcDbProxyObject
 90
      499
 91
      525
 95
       25
 70
     0
 93
      140
310
00010142105350D55494D511005034A49530
330
2E
 94
        0
  0
ACAD_PROXY_OBJECT
  5
1623
330
2E
100
AcDbProxyObject
 90
      499
 91
      535
 95
       25
 70
     0
 93
      358
310
0001014124FEA55D00507392E322E302E32014124FEA55D00507392E322E302E3240501000041505391D311658
330
2E
330
1624
330
162A
 94
        0
  0
ACAD_PROXY_OBJECT
  5
1624
330
2E
100
AcDbProxyObject
 90
      499
 91
      536
 95
       25
 70
     0
 93
       56
310
000190240E0000
330
2E
330
1625
330
1627
 94
        0
  0
ACAD_PROXY_OBJECT
  5
1625
330
2E
100
AcDbProxyObject
 90
      499
 91
      537
 95
       25
 70
     0
 93
       48
310
0001AA000000
330
2E
330
1E
330
1626
330
0
 94
        0
  0
ACAD_PROXY_OBJECT
  5
1626
330
2E
100
AcDbProxyObject
 90
      499
 91
      538
 95
       25
 70
     0
 93
       28
310
0001AAA0
330
2E
 94
        0
  0
ACAD_PROXY_OBJECT
  5
1627
330
2E
100
AcDbProxyObject
 90
      499
 91
      537
 95
       25
 70
     0
 93
       48
310
0001AA000000
330
2E
330
26
330
1628
330
0
 94
        0
  0
ACAD_PROXY_OBJECT
  5
1628
330
2E
100
AcDbProxyObject
 90
      499
 91
      538
 95
       25
 70
     0
 93
       28
310
0001AAA0
330
2E
 94
        0
  0
ACAD_PROXY_OBJECT
  5
162B
330
2E
100
AcDbProxyObject
 90
      499
 91
      509
 95
       25
 70
     0
 93
      108
310
000101421053521310D05310D010
330
2E
 94
        0
  0
ACAD_PROXY_OBJECT
  5
162C
330
2E
100
AcDbProxyObject
 90
      499
 91
      509
 95
       25
 70
     0
 93
      124
310
00010142905354915554D15112535010
330
2E
 94
        0
  0
ACAD_PROXY_OBJECT
  5
162D
330
2E
100
AcDbProxyObject
 90
      499
 91
      509
 95
       25
 70
     0
 93
      132
310
00010143105354D150D51253D391125360
330
2E
 94
        0
  0
ACAD_PROXY_OBJECT
  5
162E
330
2E
100
AcDbProxyObject
 90
      499
 91
      509
 95
       25
 70
     0
 93
      124
310
00010142905355941093D49111549010
330
2E
 94
        0
  0
ACAD_PROXY_OBJECT
  5
162F
330
2E
100
AcDbProxyObject
 90
      499
 91
      509
 95
       25
 70
     0
 93
      116
310
0001014290535115D1D0D3D313D4A0
330
2E
 94
        0
  0
ACAD_PROXY_OBJECT
  5
1630
330
2E
100
AcDbProxyObject
 90
      499
 91
      509
 95
       25
 70
     0
 93
      148
310
00010143505355925155D49151949154D21010
330
2E
 94
        0
  0
ACAD_PROXY_OBJECT
  5
1631
330
2E
100
AcDbProxyObject
 90
      499
 91
      509
 95
       25
 70
     0
 93
      172
310
00010144105350539393D51154149154D15495915010
330
2E
 94
        0
  0
ACAD_PROXY_OBJECT
  5
1632
330
2E
100
AcDbProxyObject
 90
      499
 91
      509
 95
       25
 70
     0
 93
      172
310
00010144105350555513D11253505494905391D15010
330
2E
 94
        0
  0
ACAD_PROXY_OBJECT
  5
1633
330
2E
100
AcDbProxyObject
 90
      499
 91
      509
 95
       25
 70
     0
 93
      124
310
00010142D05351561514915191125360
330
2E
 94
        0
  0
ACAD_PROXY_OBJECT
  5
1634
330
2E
100
AcDbProxyObject
 90
      499
 91
      509
 95
       25
 70
     0
 93
      132
310
00010142D05355105410539393D5115010
330
2E
 94
        0
  0
ACAD_PROXY_OBJECT
  5
1635
330
2E
100
AcDbProxyObject
 90
      499
 91
      509
 95
       25
 70
     0
 93
      108
310
00010142105350555513D0D31010
330
2E
 94
        0
  0
ACAD_PROXY_OBJECT
  5
1636
330
2E
100
AcDbProxyObject
 90
      499
 91
      509
 95
       25
 70
     0
 93
      108
310
00010142105350D3119150551050
330
2E
 94
        0
  0
ACAD_PROXY_OBJECT
  5
1637
330
2E
100
AcDbProxyObject
 90
      499
 91
      509
 95
       25
 70
     0
 93
      108
310
00010142105350D315925155D3F0
330
2E
 94
        0
  0
ACAD_PROXY_OBJECT
  5
1638
330
2E
100
AcDbProxyObject
 90
      499
 91
      509
 95
       25
 70
     0
 93
      148
310
0001014350535212511156915493D112535010
330
2E
 94
        0
  0
ACAD_PROXY_OBJECT
  5
1639
330
2E
100
AcDbProxyObject
 90
      499
 91
      509
 95
       25
 70
     0
 93
      124
310
00010142905352105510D21254D3D010
330
2E
 94
        0
  0
ACAD_PROXY_OBJECT
  5
163A
330
2E
100
AcDbProxyObject
 90
      499
 91
      509
 95
       25
 70
     0
 93
      148
310
00010143905354D25391D31152105513105660
330
2E
 94
        0
  0
ACAD_PROXY_OBJECT
  5
163B
330
2E
100
AcDbProxyObject
 90
      499
 91
      509
 95
       25
 70
     0
 93
      124
310
00010142D0535115D1D193111254D420
330
2E
 94
        0
  0
ACAD_PROXY_OBJECT
  5
163C
330
2E
100
AcDbProxyObject
 90
      499
 91
      509
 95
       25
 70
     0
 93
      100
310
00010142105350555513D213A0
330
2E
 94
        0
  0
ACAD_PROXY_OBJECT
  5
163D
330
2E
100
AcDbProxyObject
 90
      499
 91
      509
 95
       25
 70
     0
 93
      116
310
000101425053521390D3D553951010
330
2E
 94
        0
  0
ACAD_PROXY_OBJECT
  5
163E
330
2E
100
AcDbProxyObject
 90
      499
 91
      509
 95
       25
 70
     0
 93
      108
310
0001014210535213941493D29010
330
2E
 94
        0
  0
ACAD_PROXY_OBJECT
  5
163F
330
2E
100
AcDbProxyObject
 90
      499
 91
      509
 95
       25
 70
     0
 93
      108
310
0001014210535213951654115070
330
2E
 94
        0
  0
ACAD_PROXY_OBJECT
  5
1640
330
2E
100
AcDbProxyObject
 90
      499
 91
      509
 95
       25
 70
     0
 93
      108
310
000101421053521395925155D0F0
330
2E
 94
        0
  0
ACAD_PROXY_OBJECT
  5
1641
330
2E
100
AcDbProxyObject
 90
      499
 91
      509
 95
       25
 70
     0
 93
      140
310
00010143505354D150D51253D390D3D41660
330
2E
 94
        0
  0
ACAD_PROXY_OBJECT
  5
1642
330
2E
100
AcDbProxyObject
 90
      499
 91
      509
 95
       25
 70
     0
 93
      108
310
00010142105350D3141493D29030
330
2E
 94
        0
  0
ACAD_PROXY_OBJECT
  5
1643
330
2E
100
AcDbProxyObject
 90
      499
 91
      508
 95
       25
 70
     0
 93
      212
310
00010143905350555513D2105510D21493D500000000000002E400
330
2E
 94
        0
  0
ACAD_PROXY_OBJECT
  5
1644
330
2E
100
AcDbProxyObject
 90
      499
 91
      509
 95
       25
 70
     0
 93
      156
310
00010143905350555513D2105510D21111551010
330
2E
 94
        0
  0
ACAD_PROXY_OBJECT
  5
1652
330
2E
100
AcDbProxyObject
 90
      499
 91
      546
 95
       25
 70
     0
 93
      698
310
0001000000009AA6A9AA4051E547565204175672032342030343A33343A353120323031302028555443290141CE4B8C8B8C0B8C80518467269205365702032342031333A34343A353920323031300141CE4B8C8B8C0B8C80
330
2E
330
1653
330
1654
330
1656
330
0
 94
        0
  0
ACAD_PROXY_OBJECT
  5
1653
330
2E
100
AcDbProxyObject
 90
      499
 91
      547
 95
       25
 70
     0
 93
       70
310
0001AAA80820000000
330
2E
330
1653
330
1653
 94
        0
  0
ACAD_PROXY_OBJECT
  5
1654
330
2E
100
AcDbProxyObject
 90
      499
 91
      548
 95
       25
 70
     0
 93
       48
310
000100000000
330
2E
330
0
330
1655
330
0
330
0
 94
        0
  0
ACAD_PROXY_OBJECT
  5
1655
330
2E
100
AcDbProxyObject
 90
      499
 91
      549
 95
       25
 70
     0
 93
       40
310
000100AAAA
330
2E
330
0
 94
        0
  0
ACAD_PROXY_OBJECT
  5
165B
330
2E
100
AcDbProxyObject
 90
      499
 91
      525
 95
       25
 70
     0
 93
      180
310
00010143105050D3D35411119390535140504434F4D500
330
2E
 94
        0
  0
ACAD_PROXY_OBJECT
  5
165C
330
2E
100
AcDbProxyObject
 90
      499
 91
      525
 95
       25
 70
     0
 93
      212
310
0001014390505193D311115491119390535140506466F6C6465720
330
2E
 94
        0
  0
ACAD_PROXY_OBJECT
  5
165D
330
2E
100
AcDbProxyObject
 90
      499
 91
      525
 95
       25
 70
     0
 93
      180
310
00010143105050539393D1119390535140504284156290
330
2E
 94
        0
  0
ACAD_PROXY_OBJECT
  5
165E
330
2E
100
AcDbProxyObject
 90
      499
 91
      525
 95
       25
 70
     0
 93
      436
310
00010143905050D3D35415925155D31254D50052295BD96CA0A90B396CA0A894591A496CA0A8DB691A496CA0A89BA96CA0A95E28F95310
330
2E
 94
        0
  0
ACAD_PROXY_OBJECT
  5
1663
330
2E
100
AcDbProxyObject
 90
      499
 91
      554
 95
       25
 70
     0
 93
       32
310
00010000
330
2E
340
1660
330
1665
330
1660
 94
        0
  0
ACAD_PROXY_OBJECT
  5
1664
330
2E
100
AcDbProxyObject
 90
      499
 91
      555
 95
       25
 70
     0
 93
       18
310
000180
330
2E
 94
        0
  0
ACAD_PROXY_OBJECT
  5
1665
330
2E
100
AcDbProxyObject
 90
      499
 91
      556
 95
       25
 70
     0
 93
      154
310
0001014211940C8D548B4CCCD050055401550000
330
2E
330
1663
330
1664
 94
        0
  0
ACAD_PROXY_OBJECT
  5
1666
330
2E
100
AcDbProxyObject
 90
      499
 91
      557
 95
       25
 70
     0
 93
      178
310
000100AAAAAAA1B6EE4AC073CF9060D2ADEC7D6EDDF840
330
2E
330
1665
 94
        0
  0
ACAD_PROXY_OBJECT
  5
1667
330
2E
100
AcDbProxyObject
 90
      499
 91
      558
 95
       25
 70
     0
 93
      108
310
000190140A000000000000AAAAA0
330
2E
330
1668
330
1668
330
1668
330
1668
330
1668
330
0
 94
        0
  0
ACAD_PROXY_OBJECT
  5
1668
330
2E
100
AcDbProxyObject
 90
      499
 91
      559
 95
       25
 70
     0
 93
       51
310
00010000AAAA80
330
2E
330
1667
330
1665
 94
        0
  0
DICTIONARY
  5
40
102
{ACAD_REACTORS
330
3F
102
}
330
3F
100
AcDbDictionary
281
     1
  3
DWGSETTINGS
350
41
  3
FEM
350
54
  3
Shaft
350
53
  3
TRANSSETTINGS
350
42
  0
ACAD_PROXY_OBJECT
  5
47
102
{ACAD_REACTORS
330
3F
102
}
330
3F
100
AcDbProxyObject
 90
      499
 91
      521
 95
       25
 70
     0
 93
    23232
310
41502491013041105357CC201C00030C011E441013141105357CC603800030C011E441013241105357CCA01400030C011E441013341105357CCE01800030C010D9013441105357CD200C00030C010D9013541105357CD600C00030C010D9013641105357CDA00800030C011E9013741105357CDE01000030C010D901384110
310
5357CE200400030C011E9013941105357CE63F400030C0241102324141505357CC4C201C00030C011E902344141505357CC4C600C00030C010D902495041505357CC4CA01C00030C011E40902304E41505357CC13A01C00030C011E902314E41505357CC53A03800030C011E902324E41505357CC93A01400030C011E90233
310
4E41505357CCD3A01800030C010D902344E41505357CD13A00C00030C010D902354E41505357CD53A00C00030C010D902364E41505357CD93A00800030C011E902374E41505357CDD3A01000030C010D902384E41505357CE13A00400030C011E902394E41505357CE53A3F400030C024110332414E41905357CC4C13A01C0
310
0030C011E90334414E41905357CC4C53A00C00030C010D90349504E41905357CC4C93A01C00030C011E409044B4C494E41505357D0D3200400030C011E42504494E464F42105357D410549151A01000030C010D42D055241484D3541905357D093D4A01C00030C011E425045649455742105357D5925155D4E00400030C011
310
E42D06424548494E4441905357D25395A3F400030C0243505545241494C41505357D514A00C00030C010D4250348494441905357D21251201C00030C011E4250356495341905357D59254E01C00030C011E4250650415244494D42505357D41054911253600C00030C010D4250652454644494D42505357D49151911253601
310
000030C010D425774110531514901348070000C300479034110915312501348000000C0003FFFFFFFD034110921395901398000000C0003FFFFFFFE415092139594D06424548494E448000000C0003FFFFFFFE411093125110234418000000C0003FFFFFFFD03411093D05410234418000000C0003FFFFFFFD03411093D48C
310
9055241484D358010000C30047A411093D48CD055241484D358020000C30047A411093D48D5055241484D358000000C0003FFFFFFFE411093D48DD055241484D3581E0000C30047903411094105410234418000000C0003FFFFFFFD03411094115610234418000000C0003FFFFFFFD034110951112501358000000C0003FFF
310
FFFFD034110D0530C901348000000C0003FFFFFFFE4110D0530CD01348020000C30047A4110D0530D501348070000C30047A4110D0530DD013481E0000C30047A4110D15393901378000000C0003FFFFFFFE4110D15395D01378000000C0003FFFFFFFE4110D312539044B4C494E8000000C0003FFFFFFFE4110D3D38C5013
310
08000000C0003FFFFFFFD034110D3D38C901318000000C0003FFFFFFFD034110D3D38CD01328000000C0003FFFFFFFD034110D3D38D101328000000C0003FFFFFFFD034111115494101348000000C0003FFFFFFFD034111115510501348000000C0003FFFFFFFE4111125051D01358000000C0003FFFFFFFE4111125312501
310
358000000C0003FFFFFFFE411112535410650415244494D8000000C0003FFFFFFFE411112535490652454644494D8000000C0003FFFFFFFE411156135410234418000000C0003FFFFFFFD034111915353901388000000C0003FFFFFFFE415191535413901388030000C3004364151915354D410234418000000C0003FFFFFF
310
FE4151915354D510234418030000C300436415191535593901328000000C0003FFFFFFFE415191535595101328030000C3004364111931055101308000000C0003FFFFFFFD03411194905490234418000000C0003FFFFFFFD034111D49312501358000000C0003FFFFFFFD034111D5931250234418000000C0003FFFFFFFD0
310
34112105510D01388000000C0003FFFFFFFD014112125113901338000000C0003FFFFFFFD034112125115D01338000000C0003FFFFFFFD034112131253901348000000C0003FFFFFFFD01411213D0D3901378000000C0003FFFFFFFE411213D0D5D01378000000C0003FFFFFFFE4112539193D04494E464F8000000C0003FF
310
FFFFFE4113105112501348000000C0003FFFFFFFD034113115051101358000000C0003FFFFFFFE419397D0921395902394E8000000C0003FFFFFFFE419397D0D3D38C502304E8000000C0003FFFFFFFD03419397D0D3D38C902314E8000000C0003FFFFFFFD03419397D0D3D38CD02324E8000000C0003FFFFFFFD03419397
310
D0D3D38D102324E8000000C0003FFFFFFFD03419397D0D15393902374E8000000C0003FFFFFFFE419397D0D15395D02374E8000000C0003FFFFFFFE419397D1125312502354E8000000C0003FFFFFFFE419397D2105510D02384E8000000C0003FFFFFFFD01419397D2125113902334E8000000C0003FFFFFFFD03419397D2
310
125115D02334E8000000C0003FFFFFFFD03419397D3115051102354E8000000C0003FFFFFFFE419397D391D25410349504E8000000C0003FFFFFFFE419397D412105390334414E8000000C0003FFFFFFFE419397D510D3D3902304E8000000C0003FFFFFFFD03419397D5121312502344E8000000C0003FFFFFFFD01419397
310
D5131153902304E8000000C0003FFFFFFFD03419397D516150CD02364E8000000C0003FFFFFFFD03419397D594131250332414E8000000C0003FFFFFFFE411391D25410249508000000C0003FFFFFFFE411410530C9055241484D358010000C30047A411410530CD055241484D358020000C30047A411410530D5055241484
310
D358000000C0003FFFFFFFE411410530DD055241484D3581E0000C30047903411412105390234418000000C0003FFFFFFFE411413D4D3901368070000C30047A419413D4D49151901368050000C30047903411413D4D6101368000000C0003FFFFFFFD03411414D150D0234418000000C0003FFFFFFFD03411490D1D390137
310
8000000C0003FFFFFFFE411490D1D5D01378000000C0003FFFFFFFE4114919112501348000000C0003FFFFFFFD034114945514901348070000C30047903411494D093D01348000000C0003FFFFFFFD034114D09492D01348000000C0003FFFFFFFD014114D0D153901378000000C0003FFFFFFFD034114D150D51013480000
310
00C0003FFFFFFFD014114D15313901378000000C0003FFFFFFFD034114D15315D01378000000C0003FFFFFFFD034114D4D654D01308000000C0003FFFFFFFD034114D51312501348070000C300479034114D6508C501358000000C0003FFFFFFFD034114D6508C901358000000C0003FFFFFFFD034114D6508CD0135802000
310
0C30047A4114D6508D501358070000C300479034114D65353901378000000C0003FFFFFFFD034114D65355D01378000000C0003FFFFFFFD03411510D3D3901308000000C0003FFFFFFFD034115121312501348000000C0003FFFFFFFD01411512550C9055241484D358010000C30047A411512550CD055241484D358020000
310
C30047A411512550D5055241484D358000000C0003FFFFFFFE411512550DD055241484D3581E0000C300479034115131153901308000000C0003FFFFFFFD03415514905253105545241494C8000000C0003FFFFFFFE41151492D3901378000000C0003FFFFFFFD0341151492D5D01378000000C0003FFFFFFFD03411514931
310
2501348000000C0003FFFFFFFD01411516150C501368030000C300436411516150C901368030000C300436411516150CD01368000000C0003FFFFFFFE411516150D501368070000C30047A411516150DD013681E0000C30047A4115925155D04564945578000000C0003FFFFFFFE41159151121034849448000000C0003FFF
310
FFFFD0241159151159035649538000000C0003FFFFFFFD02411594131250232418000000C0003FFFFFFFE4116925690501348000000C0003FFFFFFFD01411354D653501358020000C30047AAAA3F400030C01013F90A4051E4091E40D0D4110D4151E4190D41D1E4391E4791E7F6
340
16
340
16
340
16
340
48
340
16
340
16
340
16
340
49
340
16
340
16
340
49
340
4A
340
16
340
16
340
16
340
16
340
48
340
16
340
16
340
16
340
49
340
16
340
16
340
49
340
4A
340
16
340
4B
340
16
340
16
340
16
340
16
340
16
340
48
340
16
340
16
340
16
340
4C
340
15
340
15
340
15
340
15
340
15
340
15
340
15
340
15
340
15
340
15
340
15
340
15
340
15
340
15
340
15
340
15
340
4D
340
15
340
15
340
15
340
15
340
15
340
15
340
15
340
15
340
15
340
15
340
15
340
15
340
15
340
15
340
15
340
16
340
15
340
15
340
15
340
15
340
15
340
15
340
15
340
15
340
4C
340
15
340
15
340
4D
340
15
340
15
340
15
340
15
340
15
340
15
340
15
340
15
340
15
340
4D
340
15
340
15
340
15
340
4C
340
15
340
15
340
15
340
15
340
15
340
15
340
15
340
15
340
15
340
15
340
15
340
15
340
15
340
15
340
15
340
15
340
15
340
15
340
15
340
4D
340
15
340
15
340
4D
340
15
340
15
340
16
340
15
340
4D
340
15
340
15
340
4C
340
15
340
15
340
16
340
15
340
4D
340
15
340
15
340
15
340
15
340
15
340
15
340
15
340
15
340
15
340
4D
340
15
340
15
340
15
340
15
340
15
340
15
340
15
340
15
340
15
340
15
340
15
340
50
340
16
 94
        0
  0
ACAD_PROXY_OBJECT
  5
AE3
102
{ACAD_REACTORS
330
59
102
}
330
59
100
AcDbProxyObject
 90
      499
 91
      522
 95
       25
 70
     0
 93
      253
310
43D1444494D454E53494F4E2C414D44545F2A5F44494D404A9012A404A9012A0
  0
ACAD_PROXY_OBJECT
  5
AE4
102
{ACAD_REACTORS
330
59
102
}
330
59
100
AcDbProxyObject
 90
      499
 91
      522
 95
       25
 70
     0
 93
      181
310
43D012A42D05357D191504B505357CA9012A404A9012A8
  0
ACAD_PROXY_OBJECT
  5
AE5
102
{ACAD_REACTORS
330
59
102
}
330
59
100
AcDbProxyObject
 90
      499
 91
      522
 95
       25
 70
     0
 93
      133
310
43D054841544348404A9012A404A9012A8
  0
ACAD_PROXY_OBJECT
  5
AE6
102
{ACAD_REACTORS
330
59
102
}
330
59
100
AcDbProxyObject
 90
      499
 91
      522
 95
       25
 70
     0
 93
      549
310
43D044C494E4549CE0B0E138B0A8B4E0B0A8B4E138B105357CE0B105357CE138B0A8B505357CE0B0A8B505357CE139012A404A910494E534552542C5354445041525432448
  0
ACAD_PROXY_OBJECT
  5
AE7
102
{ACAD_REACTORS
330
59
102
}
330
59
100
AcDbProxyObject
 90
      499
 91
      522
 95
       25
 70
     0
 93
      909
310
43D6641434D46434652414D452C41434D444154554D5441524745542C41434D444154554D49442C41434D57454C4453594D2C41434D5355524653594D2C41434D4645415449442C41434D504152545245462C41434D42414C4C4F4F4E2C414D44544544474553594D404A9012A404A9012A8
  0
XRECORD
  5
1606
102
{ACAD_REACTORS
330
1605
102
}
330
1605
100
AcDbXrecord
280
     1
  1
PV
 40
1.0
 50
-12318.5925953127
 51
-8794.902155258136
 52
12318.5925953127
 53
8794.902155258136
  0
ACAD_PROXY_OBJECT
  5
45
102
{ACAD_REACTORS
330
44
102
}
330
44
100
AcDbProxyObject
 90
      499
 91
      520
 95
       25
 70
     0
 93
      157
310
057356C1D77406406AA8FFFFFFFF05DD01009010
330
1F
330
0
330
1665
 94
        0
  0
ACAD_PROXY_OBJECT
  5
1B45
102
{ACAD_REACTORS
330
7A0
102
}
330
7A0
100
AcDbProxyObject
 90
      499
 91
      576
 95
       25
 70
     0
 93
     2395
310
5DCB81E85EB51B8BE3F8030000C30041105394D2501640600800030C0200800030C00B81E85EB51B8BE3F48821E8720B1B6A9BAB9332A32BC3A29BA3220480A1282C6DA8C868CA6E8C88120286A0B1B6ABB2B63234B733A9BA3220480A1082C6DA92C8A6E8C88120285A0B1B6A230BA3AB6A9BA3220480A1282C6DA849E9AA
310
6E8C8812028820B6B23A2232BA30B4B629BCB6A9BA3220480A2282DAC8E8A6CAC6E8D2DEDCA6F2DAA6E8C88120288A0B6B23A21B2B73A32B92634B732A9BA3220480A2282DAC8E8A8D0E4CAC2C898D2DCCAA6E8C88120285A0B6B23A2737BA32A9BA3220480A1682C682DACE98C2F2A6E8C88120285A0B1A0B6B3A234B6A9B
310
A3220480A2282C682DACE90DED8CA86D0C2E4E8A6E8C88120286A0B1A0B6B3AA34BA3632A9BA3220480A02812020
340
190A
360
1B46
360
1B47
360
1B48
360
1B49
360
1B4A
360
1B4B
360
1B4C
360
1B4D
360
1B4E
360
1B4F
360
1B50
360
1B56
360
1B57
360
1B58
360
1B59
340
0
340
0
 94
        0
  0
ACAD_PROXY_OBJECT
  5
7A1
102
{ACAD_REACTORS
330
7A0
102
}
330
7A0
100
AcDbProxyObject
 90
      499
 91
      526
 95
       25
 70
     0
 93
     2379
310
5DC33333333333309408000000C00040D29254D01640600800030C0200800030C003333333333330940C8121E8720B1B6A9BAB9332A32BC3A29BA3220480A1282C6DA8C868CA6E8C88120286A0B1B6ABB2B63234B733A9BA3220480A1082C6DA92C8A6E8C88120285A0B1B6A230BA3AB6A9BA3220480A1282C6DA849E9AA6E
310
8C88120286A0B1A0B6B3AA34BA3632A9BA3220480A2082DAC8E888CAE8C2D2D8A6F2DAA6E8C88120288A0B6B23A29B2B1BA34B7B729BCB6A9BA3220480A2282DAC8E886CADCE8CAE498D2DCCAA6E8C88120288A0B6B23A2A343932B0B22634B732A9BA3220480A1682DAC8E89CDEE8CAA6E8C88120285A0B1A0B6B3A630BCA
310
9BA3220480A1682C682DACE88D2DAA6E8C88120288A0B1A0B6B3A437B632A1B430B93A29BA3220480C812020
340
7A2
360
7A3
360
7A4
360
7A5
360
7A6
360
7A7
360
7A8
360
166A
360
166B
360
166C
360
166E
360
166F
360
1670
360
1676
360
1677
360
1678
340
0
340
0
 94
        0
  0
ACAD_PROXY_OBJECT
  5
41
102
{ACAD_REACTORS
330
40
102
}
330
40
100
AcDbProxyObject
 90
      499
 91
      518
 95
       25
 70
     0
 93
     2908
310
4050B44574753455454494E4753A0E8482A68AA6A88882A069492A684A1A0A723A0A92920ACA0A8419983E1A1ABE1B1820C868A9C829C8E82A12686AF87260F862666A8321A2A72224A0A502032D1BF1AE5152020E868A9C889282A682A106260F86460F8666083A1A2A72224A9AA250000000000000042020C868A9C988A9
310
C94000000000000048808321A2A727A323250000000000000122020E868A9C9E8C8C62940000000000000488083A1A2A727A3231925000000000000012202128698929C82A4A482B282A0A646A5C60608421A624A722AA2CA820A82AC2624A722A1288AE8EAAA68682988A94283A620A9AA27A12520A821B211A192109A829
310
68AAC928AAE9FA04832829A1A0A622830020000419491559254D2505404C1055343414C4541503313A314214D510539110549110540D29254D0954494D455354414D504A04C8926C2732B734141D5915494D253D3905414C4D4B8C0C1107B44574753455454494E4753454E447D0
  0
ACAD_PROXY_OBJECT
  5
54
102
{ACAD_REACTORS
330
40
102
}
330
40
100
AcDbProxyObject
 90
      499
 91
      518
 95
       25
 70
     0
 93
      411
310
4050346454D21092DCC6E486DECACC942842630BCA3B937BAB820A8320A6AFA322A0A20F688AE8EA68AA8A8929C8EA68A9C88FA0
  0
ACAD_PROXY_OBJECT
  5
53
102
{ACAD_REACTORS
330
40
102
}
330
40
100
AcDbProxyObject
 90
      499
 91
      518
 95
       25
 70
     0
 93
      591
310
40505536861667421292DCE8CAE4E4EAE0E89FC84A634B3B43A2634B732A7E80A1A98D2CED0E898D2DCCAACD2CAEE9FA028229B4B232A7E80A20F688AE8EA68AA8A8929C8EA68A9C88FA
  0
ACAD_PROXY_OBJECT
  5
42
102
{ACAD_REACTORS
330
40
102
}
330
40
100
AcDbProxyObject
 90
      499
 91
      518
 95
       25
 70
     0
 93
      852
310
4050D5452414E5353455454494E4753A2488A482AE929C8EA8A4829CA69882A8929E9C0C00800050D4F524947494E414C4C595F4F4E0600400028529A7AAA921A2A620A723A0A81A52827212AAA0A48AA68AA4AC8A0C0080001107B44574753455454494E4753454E447D0
  0
ACAD_PROXY_OBJECT
  5
1B46
330
1B45
100
AcDbProxyObject
 90
      499
 91
      577
 95
       25
 70
     0
 93
       96
310
5DC20E80A0280A0280A02808
  0
ACAD_PROXY_OBJECT
  5
1B47
330
1B45
100
AcDbProxyObject
 90
      499
 91
      578
 95
       25
 70
     0
 93
      332
310
5DD0E4050140501405014050140501405014050142501405014050140501405012000000000000000400
340
190B
 94
        0
  0
ACAD_PROXY_OBJECT
  5
1B48
330
1B45
100
AcDbProxyObject
 90
      499
 91
      579
 95
       25
 70
     0
 93
      403
310
5DCC199999999999E99F91F4050140501405014050140501405014050140501405014050140501405014050140501405014040
340
0
 94
        0
  0
ACAD_PROXY_OBJECT
  5
1B49
330
1B45
100
AcDbProxyObject
 90
      499
 91
      580
 95
       25
 70
     0
 93
       10
310
5DC0
  0
ACAD_PROXY_OBJECT
  5
1B4A
330
1B45
100
AcDbProxyObject
 90
      499
 91
      581
 95
       25
 70
     0
 93
      257
310
5DE290EA22A7D90F49F9353333333333727F44D4CCCCCCCCCDC9FC010000618000
340
1907
340
1908
 94
        0
  0
ACAD_PROXY_OBJECT
  5
1B4B
330
1B45
100
AcDbProxyObject
 90
      499
 91
      582
 95
       25
 70
     0
 93
    13023
310
5DD0E411255115350141236025B6901405014069011309A4F2590CB64FD3347454E545241434F2C4A504E2C302C8D8096DA2C47454E54524154582C25732C2847454E4D53472067656E647767203232322940690120281A8AA2CA0282484A4BE52028120280A03202261349E4B2196C9FA668E8A9CA8A482869E5894A09C58
310
605921292F94588E8A9CA8A482A8B0584AE658508E8A9C9AA68E40CECADCC8EECE406464665280D202405044E414D454050496BC914F4051C40640A8B95C2E97CBE502404CD1D15395149050D3CB1294138B0C0B25AF2453CB11D15395149055160B095CCB0A11D1539354D1C819D95B991DD9C80C8C8D8A50192C3D494628
310
4953424C414E4B28504152543A4E414D45292C424C4F434B3A4E414D452C504152543A4E414D452940480A0A888AA686A480A09251B1DBE80A3A80C81D10782C06030180C8099A3A2A72A2920A1A7962528271618164946C76F9623A2A72A2920AA2C1612B9961423A2A726A9A39033B2B7323BB39019189B94A0248090142
310
14D51053911054911014122D2E29A50147501904A383BFDFEFF5FBFCFD3347454E545241434F2C4A504E2C302C8B4B8A692C47454E54524154582C25732C2847454E4D53472067656E64776720323138294049012028426A0AA22A924A0A62028246EF4BDFA028EA0320B41396D838E9017D9FA668E8A9CA8A482869E5894A
310
09C5860591BBD2F7E588E8A9CA8A482A8B0584AE658508E8A9C9AA68E40CECADCC8EECE406464625280D202405044E4F544540504928D8B4C4051D40641A8B95C2E97CBE5F23F4CD1D15395149050D3CB1294138B0C0B24A362D30B11D15395149055160B095CCB0A11D1539354D1C819D95B991DD9C80C8C8D4A501A40480
310
A0CAC8A9C889EA480A1106F1072706BF02B680A3A80C83D172B85D2F97CBE47E9BA3A2A72A2920A1A79625282716181641BC41C9C1AFC0AD9623A2A72A2920AA2C1612B9961423A2A726A9A39033B2B7323BB39019191A14A0348090141911154D0D48C90141A43825AF880C90147501908A20F0580C0603019013447454E5
310
45241434F2C4A504E2C302C90E096BE20322C47454E54524154582C25732C2847454E4D53472067656E6477672033362940490120284A9AA20A72220A922192028345A5C53490192028EA0321347077FBFDFEBF7F9FA6A8E8A9CA8A482869E5894A09C586059169714D24064588E8A9CA8A482A8B0584AE658508E8A9C9AA6
310
8E40CECADCC8EECE4064646052809202405094D4154455249414C32405068DDE97BF20324051D40642A8272DB071D202FB3F4D11D15395149050D3CB1294138B0C0B2377A5EFC80C8B11D15395149055160B095CCB0A11D1539354D1C819D95B991DD9C80D0C0A501240480A089A82A6A680A091D7F2F9480A3A80A0485A06
310
81172B85D2F97CBE47E9923A2A72A2920A1A796252827161816475FCBE51623A2A72A2920AA2C1612B9961423A2A726A9A39033B2B7323BB3901A1914A024809014154149250D150141226FE29A501475014090C409022E570BA5F2F97C8FD3247454E545241434F2C4A504E2C302C89BF8A692C47454E54524154582C2573
310
2C2847454E4D53472067656E6477672034332940490120281A224A6A02824850CB202028EA028121A81A045CAE174BE5F2F91FA648E8A9CA8A482869E5894A09C58605921432C80588E8A9CA8A482A8B0584AE658508E8A9C9AA68E40CECADCC8EECE406868528092024050E441022E07A17AD46E338FE07800030C0001018
310
ACD56AB55AADF63F2B355AAD56AB7D8FD073D3C4954454D3E405018ACD56AB55AADF63F2B355AAD56AB7D8FD073D3C4954454D3E40501890C7E3F1783CEE3F2431F8FC5E0F3B8FD073D3C4954454D3E40501890C7E3F1783CEE3F2431F8FC5E0F3B8FD073D3C4954454D3E405029012B355AAD56AB7D8FCACD56AB55AADF63
310
F41CF4F125511534F901418F4F1455164F9014062B355AAD56AB7D8FCACD56AB55AADF63F41CF4F125511534F9014061309A4F2590CBA4FC4C2693C96432E93F41CF4F125511534F901901002B355AAD56AB7D8FCACD56AB55AADF63FA2000000000000008204018000618048220681A048120280C88214844882034852034
310
8452028521485214814000000000000F0BF0000000000003C2FD018020000C3008070000C3000EF7D3E365DBA88FC3BDF4F8D976EA23F2E07A17AD46E2F8FF20341A405024150741A4069703D0BD6A3717C7F0040001860100400018601002000186002026280A02
340
0
340
0
 94
        0
  0
ACAD_PROXY_OBJECT
  5
1B4C
330
1B45
100
AcDbProxyObject
 90
      499
 91
      583
 95
       25
 70
     0
 93
      994
310
5DC0B81E85EB51B8CE3F4BCF511155105253080F11115510525317D3105091530F971414D0D05311480F11115510525317D05094D4D0D053114F92341C9A9999999999B93F26A666666666724FC000000000000E03F4000000000000004000000000000005100000000000000244081E0000C3002E07A17AD46E338FC0
340
1646
340
190A
 94
        0
  0
ACAD_PROXY_OBJECT
  5
1B4D
330
1B45
100
AcDbProxyObject
 90
      499
 91
      584
 95
       25
 70
     0
 93
      823
310
5DC031703D0BD6A3719C7E999EA9A2A1AA24A7A7101E29A2A1AA24A7A72FA620A122A62FA324A929AA1F169E29A2A1AA24A7A72FA620A122A62FA620A9AA1F1353333333333B27E3FFFE01C00030C008840F000061801353333333333B27F1703D0BD6A3719C7E
340
1646
340
190A
 94
        0
  0
ACAD_PROXY_OBJECT
  5
1B4E
330
1B45
100
AcDbProxyObject
 90
      499
 91
      585
 95
       25
 70
     0
 93
      280
310
5DC2B8716D9CEF7C33F0A5723F0BD4A2F0FC295C8FC2F528BC3FA199999999999F99FC
  0
ACAD_PROXY_OBJECT
  5
1B4F
330
1B45
100
AcDbProxyObject
 90
      499
 91
      586
 95
       25
 70
     0
 93
       14
310
5DE4
340
0
 94
        0
  0
ACAD_PROXY_OBJECT
  5
1B50
330
1B45
100
AcDbProxyObject
 90
      499
 91
      587
 95
       25
 70
     0
 93
     7123
310
5DD084050BA4050AA405024050E836583938376838C815B8367203140405013D3C696628657175616C28486F6C653A7461707065642C223022292C22252563222C486F6C653A6E6F6D696E616C2022202220696628657175616C28486F6C653A756E6974732C223122292C2278222C222D222920222022293E3C6966286571
310
75616C28486F6C653A7461707065642C223022292C486F6C653A6469612C486F6C653A706974636864657363293E207B5C46414D4744543B787D203C696628657175616C28486F6C653A7465726D696E6174696F6E2C223022292C486F6C653A64657074682C228AD192CA22293E5C507B5C46414D4744543B767D2525633C
310
486F6C653A63746469613E207B5C46414D4744543B787D203C486F6C653A637464657074683E406901405034050E836583938376838C815B83672031405FE3D3C696628657175616C28486F6C653A7461707065642C223022292C22252563222C486F6C653A6E6F6D696E616C2022202220696628657175616C28486F6C653
310
A756E6974732C223122292C2278222C222D222920222022293E3C696628657175616C28486F6C653A7461707065642C223022292C486F6C653A6469612C486F6C653A706974636864657363293E207B5C46414D4744543B787D203C696628657175616C28486F6C653A7465726D696E6174696F6E2C223022292C486F6C653
310
A64657074682C228AD192CA22293E5C507B5C46414D4744543B777D2525633C486F6C653A63746469613E2058203C486F6C653A6374616E676C653E252564406901405014050E836583938376838C815B83672031405CF3D3C696628657175616C28486F6C653A7461707065642C223022292C22252563222C486F6C653A6E
310
6F6D696E616C2022202220696628657175616C28486F6C653A756E6974732C223122292C2278222C222D222920222022293E3C696628657175616C28486F6C653A7461707065642C223022292C486F6C653A6469612C486F6C653A706974636864657363293E5C507B5C46414D4744543B787D203C696628657175616C2848
310
6F6C653A7465726D696E6174696F6E2C223022292C486F6C653A64657074682C228AD192CA22293E4069014051E4090E836583938376838C815B83672032405173D3C535444503A444553433E203C535444503A5354443E40690E836583938376838C815B836720314050C3D3C535444503A444553433E40690240515AAABB
310
A060
360
1B51
330
1B51
360
1B52
330
1B52
360
1B53
330
1B53
360
1B54
360
1B55
330
1B54
330
1B55
 94
        0
  0
ACAD_PROXY_OBJECT
  5
1B56
330
1B45
100
AcDbProxyObject
 90
      499
 91
      567
 95
       25
 70
     0
 93
       26
310
5DD02A80
340
0
 94
        0
  0
ACAD_PROXY_OBJECT
  5
1B57
330
1B45
100
AcDbProxyObject
 90
      499
 91
      568
 95
       25
 70
     0
 93
      258
310
5DD02000000000000380FC000000000000E03F408F0F9023C3E40DB18CCCFFFF80
340
190C
340
0
340
0
340
190D
340
190E
340
0
340
190F
340
1910
340
1911
340
0
 94
        0
  0
ACAD_PROXY_OBJECT
  5
1B58
330
1B45
100
AcDbProxyObject
 90
      499
 91
      588
 95
       25
 70
     0
 93
    13993
310
5DD1D023FFFFFFFD010300002E07A17AD46E2F8FE00800030C01010300002E07A17AD46E2F8FE00800030C00050C8DC0955782CC838A83588367014ED1D15395149050D3CB1294138B0C0B23702555E0B320E2A0D620D9CB11D15395149055160B095CCB0A11D1539354D1C819D95B991A5B5E880CCC0A78000C0000000000
310
00000000000000000000007B14AE47E17AA43F2E07A17AD46E2F8FE00800030C007B14AE47E17AA43F2E07A17AD46E2F8FE00800030C020143CF4F111959985D5B1D151A5D1B194F8050A8C8A8365815B8375838B014E51D15395149050D3CB1294138B0C0B2322A0D96056E0DD60E2CB11D15395149055160B095CCB0A11D
310
1539354D1C819D95B991A5B5E880CCC4A78000C000000000000000000000000000000007B14AE47E17AA43F2E07A17AD46E2F8FE00800030C007B14AE47E17AA43F2E07A17AD46E2F8FE00800030C020143CF4F111959985D5B1D151A5D1B194F90D4410F4450240D0441507431014391244D05449074510C4350F00014123
310
2D24D7C053247454E545241434F2C4A504E2C302C8CB4935F2C47454E54524154582C25732C2847454E4D53472067656E64696D7A20312900010104002214000282465A49AF80A648E8A9CA8A482869E5894A09C586059196926BE588E8A9CA8A482A8B0584AE658508E8A9C9AA68E40CECADCC8D2DAF44062520002020800
310
43E80005028C8A014C11D15395149050D3CB1294138B0C0B23228B11D15395149055160B095CCB0A11D1539354D1C819D95B991A5B5E880C8A4054E3D3C4946284953424C414E4B28486F6C654974656D292C4F726967696E2C20486F6C654974656D293E3C4946284953424C414E4B28486F6C654974656D292C22222C204
310
86F6C65496E646578293E010104002234000280AC00A5E8E8A9CA8A482869E5894A09C586058B0588E8A9CA8A482A8B0584AE658508E8A9C9AA68E40CECADCC8D2DAF4406652000202000040A800050159014BD1D15395149050D3CB1294138B0C0B164B11D15395149055160B095CCB0A11D1539354D1C819D95B991A5B5E
310
880D0A4000404000081D0000A02A40297A3A2A72A2920A1A796252827161816291623A2A72A2920AA2C1612B9961423A2A726A9A39033B2B73234B6BD101B148000808000104A000140A0F4C053047454E545241434F2C4A504E2C302C83D32C47454E54524154582C25732C2847454E4D53472067656E64696D7A20372900
310
0101030020B400028141E980A608E8A9CA8A482869E5894A09C58605907A6588E8A9CA8A482A8B0584AE658508E8A9C9AA68E40CECADCC8D2DAF4407052000202020041E800050490E096BE014CD1D15395149050D3CB1294138B0C0B243825AF8B11D15395149055160B095CCB0A11D1539354D1C819D95B991A5B5E880C8
310
C0A400040010008650000A091B012DB40299A3A2A72A2920A1A79625282716181646C04B6D1623A2A72A2920AA2C1612B9961423A2A726A9A39033B2B73234B6BD10189A148000808280501A00014320D0E0E4E0D9A0D8A0D3A0D60053B47454E545241434F2C4A504E2C302C8343839383668362834E83582C47454E54524
310
154582C25732C2847454E4D53472067656E64696D7A203135290001010500A1D4000281464500A628E8A9CA8A482869E5894A09C5860591914588E8A9CA8A482A8B0584AE658508E8A9C9AA68E40CECADCC8D2DAF440626C52000202080044A800050E8C8A8343839383668362834E8358014F51D15395149050D3CB129413
310
8B0C0B2322A0D0E0E4E0D9A0D8A0D3A0D60B11D15395149055160B095CCB0A11D1539354D1C819D95B991A5B5E880C4DCA4000404140089D0000A0921292F940299A3A2A72A2920A1A796252827161816484A4BE51623A2A72A2920AA2C1612B9961423A2A726A9A39033B2B73234B6BD10189C948000808300114A0001412
310
2D2E29A4053347454E545241434F2C4A504E2C302C8B4B8A692C47454E54524154582C25732C2847454E4D53472067656E64696D7A20323129000100040021B4878030026A6666666667A4FE064D4CCCCCCCCCF49FC049A9999999999E93F809353333333333D27F0226A6666666667A4FE044D4CCCCCCCCCF49FC0D818000
310
00000000000810026A666666666764FE004D4CCCCCCCCCF49FC009A9999999999E93F801353333333333D27F032E07A17AD46E378FE0633B333333333032050F006004D4CCCCCCCCCF49FC0C9A9999999999E93F819353333333333D27F0326A6666666667A4FE064D4CCCCCCCCCF49FC0C9A9999999999E93F81B03000000
310
00000000102004D4CCCCCCCCCEC9FC009A9999999999E93F819353333333333D27F0026A6666666667A4FE065C0F42F5A8DC6F1FC0C6766666666660640A088800000021E000000890000002260000008220E000200890000002060002008100008000
340
0
340
0
340
0
340
0
340
190A
340
190A
 94
        0
  0
ACAD_PROXY_OBJECT
  5
1B59
330
1B45
100
AcDbProxyObject
 90
      499
 91
      560
 95
       25
 70
     0
 93
     5214
310
5DD9741105394D2506414E53495F4342905394D257D512551554D15414E53495F54525F5265766973696F6E6C697374614191143202831372E307832322E30696E63682941905394D257D0D1146202832382E307834302E30696E63682941905394D257D191142202831312E307831372E30696E63682941905394D257D091
310
144202832322E307833342E30696E63682941905394D257D111145202833342E307834342E30696E63682941905394D257D1510412028382E357831312E30696E63682941905394D257D050543905B9CDA482557247A25E4C81110D0C414E53495F5449544C45444343505B9CDA482557247A25E4C81050B414E53495F5449
310
544C454143905B9CDA482557247A25E4C81050D0C414E53495F5449544C454143425554C82557247A25E4D0A414E53495F544954555343505B9CDA482557247A25E4C81110B414E53495F5449544C454442110979A97F0838A8358836720415F42525F45505394D257D09497D4995D9A5CDA5BDB9B1A5CDD18510979A97F08
310
38A8358836720415F54525F45505394D257D51497D4995D9A5CDA5BDB9B1A5CDD18510979A97F0838A8358836720445F42525F45505394D257D09497D4995D9A5CDA5BDB9B1A5CDD19110979A97F0838A8358836720445F54525F45505394D257D51497D4995D9A5CDA5BDB9B1A5CDD19110979A97F0838A8358836720415F
310
424C5F45505394D257D09317D4995D9A5CDA5BDB9B1A5CDD18510979A97F0838A8358836720415F544C5F45505394D257D51317D4995D9A5CDA5BDB9B1A5CDD18510979A97F0838A8358836720445F424C5F45505394D257D09317D4995D9A5CDA5BDB9B1A5CDD19110979A97F0838A8358836720445F544C5F45505394D25
310
7D51317D4995D9A5CDA5BDB9B1A5CDD190
  0
ACAD_PROXY_OBJECT
  5
7A3
330
7A1
100
AcDbProxyObject
 90
      499
 91
      527
 95
       25
 70
     0
 93
       86
310
5DEA0C80A0280A0280A034
  0
ACAD_PROXY_OBJECT
  5
7A4
330
7A1
100
AcDbProxyObject
 90
      499
 91
      528
 95
       25
 70
     0
 93
      282
310
5DD0E4050140501405014050140501405014050141101405014041000000000000001000
340
7A9
 94
        0
  0
ACAD_PROXY_OBJECT
  5
7A5
330
7A1
100
AcDbProxyObject
 90
      499
 91
      529
 95
       25
 70
     0
 93
      323
310
5DCC199999999999E99F91740501405014050140501405014050140501405014050140501405014040
340
0
 94
        0
  0
ACAD_PROXY_OBJECT
  5
7A6
330
7A1
100
AcDbProxyObject
 90
      499
 91
      530
 95
       25
 70
     0
 93
       10
310
5DC0
  0
ACAD_PROXY_OBJECT
  5
7A7
330
7A1
100
AcDbProxyObject
 90
      499
 91
      531
 95
       25
 70
     0
 93
      257
310
5DE0C16A22A7D90F49F80000000000001081400000000000004204010000618000
340
7AA
340
7AB
 94
        0
  0
ACAD_PROXY_OBJECT
  5
7A8
330
7A1
100
AcDbProxyObject
 90
      499
 91
      532
 95
       25
 70
     0
 93
     5277
310
5DD06411255115350141236025B6901405014069010000000000000910240690120281A8AA2CA0282484A4BE52028120280A032020000000000001220480D202405044E414D454050496BC914F4051C40640A80000000000004E4090193C3D3C4946284953424C414E4B28504152543A4E414D45292C424C4F434B3A4E414D
310
452C504152543A4E414D45293E3C41435F44455343524950544E3E40480A109A82A88AA492829880A091BBD2F7E80A3A80C81D0E27A15AF46E08A81203480901411393D5115014124A363B7D0147501904A0000000000000F902406428F4F1050D7D393D5114F901202832B22A72227A92028366EF6EE06F582028EA0320B4
310
0000000000001F20480C879E9E20A1AFAB27222FA620A122A61F20240506445020000000000000490201C00030C00010180000000000003E400000000000000F901073D3C4954454D3E4050180000000000003E400000000000000F901073D3C4954454D3E40501800000000000034400000000000000D101073D3C4954454
310
D3E40501800000000000034400000000000000D101073D3C4954454D3E405029010000000000000F9000000000000003E4041CF4F125511534F901418F4F1455164F9014060000000000000F9000000000000003E4041CF4F125511534F901800000000000034400000000000000D101073D3C4954454D3E40640400000000
310
0000003E400000000000000F90288800000000000020810000001800120881A068120480A032208521122080D21480D211480A1485214852050000000000003C2FC000000000000F0BF40600800030C0200400030C00CDCCCCCCCCCCEC3F3373333333333B0FC3333333333330940C80D069014090341504901A1999999999
310
9984A040100006180400800061804010000618008098A02808
340
0
340
0
 94
        0
  0
ACAD_PROXY_OBJECT
  5
166A
330
7A1
100
AcDbProxyObject
 90
      499
 91
      560
 95
       25
 70
     0
 93
     3042
310
5DD9740D29254D064A49535F413342929254D7D512551311505134A49535F42525F5265766973696F6E6C6973744190F4134522028323937783231306D6D2941D29254D7D04D1490E41312028353934783834316D6D2941929254D7D04C50F41344C2028323130783239376D6D2941D29254D7D04D1310E413320283239377
310
83432306D6D2941929254D7D04CD0E41322028343230783539346D6D2941929254D7D04C90F4130202838343178313138396D6D2941929254D7D04C10243129254C82557247A25E4C81050A4A49535F5449544C454143129254C82557247A25E4C81090A4A49535F5449544C45424110E979A97F0838A835883675F42525F4
310
4D29254D7D09497D4995D9A5CDA5BDB9B1A5CDD10E979A97F0838A835883675F54525F44D29254D7D51497D4995D9A5CDA5BDB9B1A5CDD10E979A97F0838A835883675F424C5F44D29254D7D09317D4995D9A5CDA5BDB9B1A5CDD10E979A97F0838A835883675F544C5F44D29254D7D51317D4995D9A5CDA5BDB9B1A5CDD00
  0
ACAD_PROXY_OBJECT
  5
166B
330
7A1
100
AcDbProxyObject
 90
      499
 91
      561
 95
       25
 70
     0
 93
      898
310
5DC4000000000000124048CF4F11115510525317D3105091530F880A0F11115510525317D05094D4D0D053114F8A50241C9A9999999999B93F26A666666666724FC000000000000E03F400000000000000400000000000000510000000000000024408070000C300000000000000049000
340
16
340
7A2
 94
        0
  0
ACAD_PROXY_OBJECT
  5
166C
330
7A1
100
AcDbProxyObject
 90
      499
 91
      562
 95
       25
 70
     0
 93
      823
310
5DC0B00000000000002480959E9E29A2A1AA24A7A72FA620A122A62FA324A929AA1F169E29A2A1AA24A7A72FA620A122A62FA620A9AA1F000000000000048803FFFE01C00030C008140380006180000000000000048800000000000000A2000000000000002480
340
118
340
7A2
 94
        0
  0
ACAD_PROXY_OBJECT
  5
166E
330
7A1
100
AcDbProxyObject
 90
      499
 91
      563
 95
       25
 70
     0
 93
      152
310
5DE8273108AC1C5A0640A3D0A5723F0BD1F200
  0
ACAD_PROXY_OBJECT
  5
166F
330
7A1
100
AcDbProxyObject
 90
      499
 91
      564
 95
       25
 70
     0
 93
       14
310
5DE0
340
0
 94
        0
  0
ACAD_PROXY_OBJECT
  5
1670
330
7A1
100
AcDbProxyObject
 90
      499
 91
      565
 95
       25
 70
     0
 93
     6059
310
5DD084050BA4050AA405024050E836583938376838C815B83672031405983D3C486F6C653A6469613E3C696628657175616C28486F6C653A7465726D696E6174696F6E2C223022292C2220905B82B320222C22208368838A838B22293E3C696628657175616C28486F6C653A7465726D696E6174696F6E2C223022292C486F
310
6C653A64657074682C2222293E2C203C486F6C653A63746469613E2082B482AE82E882CC905B82B3203C486F6C653A637464657074683E406901405034050E836583938376838C815B83672031405EF3D3C486F6C653A6374616E676C653E252564202525633C486F6C653A63746469613E208E4D8C8A2C203C69662865717
310
5616C28486F6C653A7461707065642C223022292C22252563222C486F6C653A6E6F6D696E616C202220782022293E3C696628657175616C28486F6C653A7461707065642C223022292C486F6C653A6469612C486F6C653A706974636864657363293E203C696628657175616C28486F6C653A7465726D696E6174696F6E2C2
310
23022292C22905B82B320222C222022293E3C696628657175616C28486F6C653A7465726D696E6174696F6E2C223022292C486F6C653A64657074682C2222293E406901405014050E836583938376838C815B83672031405C73D3C696628657175616C28486F6C653A7461707065642C223022292C22252563222C486F6C65
310
3A6E6F6D696E616C202220782022293E3C696628657175616C28486F6C653A7461707065642C223022292C486F6C653A6469612C486F6C653A706974636864657363293E203C696628657175616C28486F6C653A7465726D696E6174696F6E2C223022292C22905B82B320222C222022293E3C696628657175616C28486F6C
310
653A7465726D696E6174696F6E2C223022292C486F6C653A64657074682C2222293E4069014051E4090E836583938376838C815B83672032405173D3C535444503A444553433E203C535444503A5354443E40690E836583938376838C815B836720314050C3D3C535444503A444553433E40690240515AAABBA120
360
1674
330
1674
360
1675
330
1675
360
1673
330
1673
360
1672
360
1671
330
1672
330
1671
 94
        0
  0
ACAD_PROXY_OBJECT
  5
1676
330
7A1
100
AcDbProxyObject
 90
      499
 91
      567
 95
       25
 70
     0
 93
       26
310
5DD02A80
340
47
 94
        0
  0
ACAD_PROXY_OBJECT
  5
1677
330
7A1
100
AcDbProxyObject
 90
      499
 91
      568
 95
       25
 70
     0
 93
      250
310
5DD020000000000000A1000000000000002440408F0F9023C3E409A0DCFFFF80
340
69
340
0
340
0
340
70
340
71
340
72
340
73
340
74
340
79
340
0
 94
        0
  0
ACAD_PROXY_OBJECT
  5
1678
330
7A1
100
AcDbProxyObject
 90
      499
 91
      569
 95
       25
 70
     0
 93
    13889
310
5DD1D003FFFFFFFD030300030CCCCCCCCCCCC250200800030C01030300030CCCCCCCCCCCC250200800030C00050C8DC0955782CC838A83588367014ED1D15395149050D3CB1294138B0C0B23702555E0B320E2A0D620D9CB11D15395149055160B095CCB0A11D1539354D1C819D95B991A5B5E880CCC0A78000C0000000000
310
00000000000000000000010CCCCCCCCCCCC250200800030C010CCCCCCCCCCCC250200800030C020143CF4F111959985D5B1D151A5D1B194F8050A8C8A8365815B8375838B014E51D15395149050D3CB1294138B0C0B2322A0D96056E0DD60E2CB11D15395149055160B095CCB0A11D1539354D1C819D95B991A5B5E880CCC4
310
A78000C000000000000000000000000000000010CCCCCCCCCCCC250200800030C010CCCCCCCCCCCC250200800030C020143CF4F111959985D5B1D151A5D1B194F90D44111409034110541D0C4350F4050E44D03449074510F000141232D24D7C053247454E545241434F2C4A504E2C302C8CB4935F2C47454E54524154582C
310
25732C2847454E4D53472067656E64696D7A20312900010104002214000281464500A608E8A9CA8A482869E5894A09C5860591914588E8A9CA8A482A8B0584AE658508E8A9C9AA68E40CECADCC8D2DAF4406452029E9E9E27B934B3B4B71F1E24A31427A91424A9A12620A7259427B934B3B4B7149624A9A12620A7259424B
310
A32B6949496111116111711149F1E24BA32B69F00808200111A000140560052F47454E545241434F2C4A504E2C302C582C47454E54524154582C25732C2847454E4D53472067656E64696D7A20332900010100002054000280AC80A5E8E8A9CA8A482869E5894A09C586058B2588E8A9CA8A482A8B0584AE658508E8A9C9AA
310
68E40CECADCC8D2DAF4406852000202000040E800050152014BD1D15395149050D3CB1294138B0C0B148B11D15395149055160B095CCB0A11D1539354D1C819D95B991A5B5E880D8A400040400008250000A0507A6029823A2A72A2920A1A79625282716181641E99623A2A72A2920AA2C1612B9961423A2A726A9A39033B2
310
B73234B6BD101B948000808180105A000140A0F4C053047454E545241434F2C4A504E2C302C83D32C47454E54524154582C25732C2847454E4D53472067656E64696D7A203829000101010020F400028248704B5F00A668E8A9CA8A482869E5894A09C58605921C12D7C588E8A9CA8A482A8B0584AE658508E8A9C9AA68E40
310
CECADCC8D2DAF440646052000200080043280005048B4B8A69014CD1D15395149050D3CB1294138B0C0B22D2E29A4B11D15395149055160B095CCB0A11D1539354D1C819D95B991A5B5E880C8C4A4000400100086D0000A09196926BE029923A2A72A2920A1A796252827161816465A49AF9623A2A72A2920AA2C1612B9961
310
423A2A726A9A39033B2B73234B6BD10189480A02620202080043E80005048D8096DA014CD1D15395149050D3CB1294138B0C0B236025B68B11D15395149055160B095CCB0A11D1539354D1C819D95B991A5B5E880C4D0A4000404140280D0000A190687072706CD06C5069D06B0029DA3A2A72A2920A1A7962528271618164
310
1A1C1C9C1B341B141A741AC1623A2A72A2920AA2C1612B9961423A2A726A9A39033B2B73234B6BD10189A94800080820050EA000143A322A0D0E0E4E0D9A0D8A0D3A0D60053D47454E545241434F2C4A504E2C302C8C8A8343839383668362834E83582C47454E54524154582C25732C2847454E4D53472067656E64696D7A
310
2031372900010105002274000281464500A628E8A9CA8A482869E5894A09C5860591914588E8A9CA8A482A8B0584AE658508E8A9C9AA68E40CECADCC8D2DAF440626C52000202080044A8000504909497CA014CD1D15395149050D3CB1294138B0C0B242525F28B11D15395149055160B095CCB0A11D1539354D1C819D95B9
310
91A5B5E880C4E4A400040418008A521E000000000000001CA040C00000000000034408080000000000006881010000000000000D102040000000000001A204080000000000003440818000000000000728103000000000000125020600000000004028A040000000000000034408000000000000004881000000000000000D
310
102000000000000001A204000000000000003440818000000000000508143C0000000000000039408180000000000006881030000000000000D102060000000000001A2040C00000000000034408180000000000006881030000000000000E5020600000000000024A040C0000000000805140800000000000000688100000
310
00000000009102000000000000001A2040000000000000034408180000000000006881030000000000000A10284220000000878000002020000008380000020400000081800000208000000828000002028900000000
340
0
340
0
340
0
340
0
340
7A2
340
7A2
 94
        0
  0
ACAD_PROXY_OBJECT
  5
1B51
330
1B50
100
AcDbProxyObject
 90
      499
 91
      566
 95
       25
 70
     0
 93
     2256
310
5DE0143A0D960E4E0DDA0E32056E0D9C80C40405013D3C696628657175616C28486F6C653A7461707065642C223022292C22252563222C486F6C653A6E6F6D696E616C2022202220696628657175616C28486F6C653A756E6974732C223122292C2278222C222D222920222022293E3C696628657175616C28486F6C653A74
310
61707065642C223022292C486F6C653A6469612C486F6C653A706974636864657363293E207B5C46414D4744543B787D203C696628657175616C28486F6C653A7465726D696E6174696F6E2C223022292C486F6C653A64657074682C228AD192CA22293E5C507B5C46414D4744543B767D2525633C486F6C653A6374646961
310
3E207B5C46414D4744543B787D203C486F6C653A637464657074683E
  0
ACAD_PROXY_OBJECT
  5
1B52
330
1B50
100
AcDbProxyObject
 90
      499
 91
      566
 95
       25
 70
     0
 93
     2192
310
5DE0143A0D960E4E0DDA0E32056E0D9C80C405FE3D3C696628657175616C28486F6C653A7461707065642C223022292C22252563222C486F6C653A6E6F6D696E616C2022202220696628657175616C28486F6C653A756E6974732C223122292C2278222C222D222920222022293E3C696628657175616C28486F6C653A7461
310
707065642C223022292C486F6C653A6469612C486F6C653A706974636864657363293E207B5C46414D4744543B787D203C696628657175616C28486F6C653A7465726D696E6174696F6E2C223022292C486F6C653A64657074682C228AD192CA22293E5C507B5C46414D4744543B777D2525633C486F6C653A63746469613E
310
2058203C486F6C653A6374616E676C653E252564
  0
ACAD_PROXY_OBJECT
  5
1B53
330
1B50
100
AcDbProxyObject
 90
      499
 91
      566
 95
       25
 70
     0
 93
     1816
310
5DE0143A0D960E4E0DDA0E32056E0D9C80C405CF3D3C696628657175616C28486F6C653A7461707065642C223022292C22252563222C486F6C653A6E6F6D696E616C2022202220696628657175616C28486F6C653A756E6974732C223122292C2278222C222D222920222022293E3C696628657175616C28486F6C653A7461
310
707065642C223022292C486F6C653A6469612C486F6C653A706974636864657363293E5C507B5C46414D4744543B787D203C696628657175616C28486F6C653A7465726D696E6174696F6E2C223022292C486F6C653A64657074682C228AD192CA22293E
  0
ACAD_PROXY_OBJECT
  5
1B54
330
1B50
100
AcDbProxyObject
 90
      499
 91
      566
 95
       25
 70
     0
 93
      344
310
5DE0143A0D960E4E0DDA0E32056E0D9C80C805173D3C535444503A444553433E203C535444503A5354443E
  0
ACAD_PROXY_OBJECT
  5
1B55
330
1B50
100
AcDbProxyObject
 90
      499
 91
      566
 95
       25
 70
     0
 93
      256
310
5DE0143A0D960E4E0DDA0E32056E0D9C80C4050C3D3C535444503A444553433E
  0
ACAD_PROXY_OBJECT
  5
1674
330
1670
100
AcDbProxyObject
 90
      499
 91
      566
 95
       25
 70
     0
 93
     1376
310
5DE0143A0D960E4E0DDA0E32056E0D9C80C405983D3C486F6C653A6469613E3C696628657175616C28486F6C653A7465726D696E6174696F6E2C223022292C2220905B82B320222C22208368838A838B22293E3C696628657175616C28486F6C653A7465726D696E6174696F6E2C223022292C486F6C653A64657074682C22
310
22293E2C203C486F6C653A63746469613E2082B482AE82E882CC905B82B3203C486F6C653A637464657074683E
  0
ACAD_PROXY_OBJECT
  5
1675
330
1670
100
AcDbProxyObject
 90
      499
 91
      566
 95
       25
 70
     0
 93
     2072
310
5DE0143A0D960E4E0DDA0E32056E0D9C80C405EF3D3C486F6C653A6374616E676C653E252564202525633C486F6C653A63746469613E208E4D8C8A2C203C696628657175616C28486F6C653A7461707065642C223022292C22252563222C486F6C653A6E6F6D696E616C202220782022293E3C696628657175616C28486F6C
310
653A7461707065642C223022292C486F6C653A6469612C486F6C653A706974636864657363293E203C696628657175616C28486F6C653A7465726D696E6174696F6E2C223022292C22905B82B320222C222022293E3C696628657175616C28486F6C653A7465726D696E6174696F6E2C223022292C486F6C653A6465707468
310
2C2222293E
  0
ACAD_PROXY_OBJECT
  5
1673
330
1670
100
AcDbProxyObject
 90
      499
 91
      566
 95
       25
 70
     0
 93
     1752
310
5DE0143A0D960E4E0DDA0E32056E0D9C80C405C73D3C696628657175616C28486F6C653A7461707065642C223022292C22252563222C486F6C653A6E6F6D696E616C202220782022293E3C696628657175616C28486F6C653A7461707065642C223022292C486F6C653A6469612C486F6C653A706974636864657363293E20
310
3C696628657175616C28486F6C653A7465726D696E6174696F6E2C223022292C22905B82B320222C222022293E3C696628657175616C28486F6C653A7465726D696E6174696F6E2C223022292C486F6C653A64657074682C2222293E
  0
ACAD_PROXY_OBJECT
  5
1672
330
1670
100
AcDbProxyObject
 90
      499
 91
      566
 95
       25
 70
     0
 93
      344
310
5DE0143A0D960E4E0DDA0E32056E0D9C80C805173D3C535444503A444553433E203C535444503A5354443E
  0
ACAD_PROXY_OBJECT
  5
1671
330
1670
100
AcDbProxyObject
 90
      499
 91
      566
 95
       25
 70
     0
 93
      256
310
5DE0143A0D960E4E0DDA0E32056E0D9C80C4050C3D3C535444503A444553433E
  0
ENDSEC
  0
EOF
