  0
SECTION
  2
HEADER
  9
$ACADVER
  1
AC1014
  9
$ACADMAINTVER
 70
     9
  9
$DWGCODEPAGE
  3
ANSI_932
  9
$INSBASE
 10
0.0
 20
0.0
 30
0.0
  9
$EXTMIN
 10
-169.9744102225384
 20
-54.50000000000009
 30
0.0
  9
$EXTMAX
 10
83.58393925634922
 20
99.47967378396562
 30
0.0
  9
$LIMMIN
 10
-189.2686375399134
 20
-74.11470160510749
  9
$LIMMAX
 10
103.8373257402031
 20
115.9953626715569
  9
$ORTHOMODE
 70
     0
  9
$REGENMODE
 70
     1
  9
$FILLMODE
 70
     1
  9
$QTEXTMODE
 70
     0
  9
$MIRRTEXT
 70
     0
  9
$DRAGMODE
 70
     2
  9
$LTSCALE
 40
1.0
  9
$OSMODE
 70
  2103
  9
$ATTMODE
 70
     1
  9
$TEXTSIZE
 40
2.5
  9
$TRACEWID
 40
1.0
  9
$TEXTSTYLE
  7
STANDARD
  9
$CLAYER
  8
AM_0
  9
$CELTYPE
  6
BYLAYER
  9
$CECOLOR
 62
   256
  9
$CELTSCALE
 40
1.0
  9
$DELOBJ
 70
     1
  9
$DISPSILH
 70
     0
  9
$DIMSCALE
 40
1.0
  9
$DIMASZ
 40
2.5
  9
$DIMEXO
 40
1.0
  9
$DIMDLI
 40
12.0
  9
$DIMRND
 40
0.0
  9
$DIMDLE
 40
0.0
  9
$DIMEXE
 40
1.0
  9
$DIMTP
 40
0.1
  9
$DIMTM
 40
0.1
  9
$DIMTXT
 40
3.2
  9
$DIMCEN
 40
0.0
  9
$DIMTSZ
 40
0.0
  9
$DIMTOL
 70
     0
  9
$DIMLIM
 70
     0
  9
$DIMTIH
 70
     0
  9
$DIMTOH
 70
     0
  9
$DIMSE1
 70
     0
  9
$DIMSE2
 70
     0
  9
$DIMTAD
 70
     3
  9
$DIMZIN
 70
     8
  9
$DIMBLK
  1
OPEN30
  9
$DIMASO
 70
     1
  9
$DIMSHO
 70
     1
  9
$DIMPOST
  1

  9
$DIMAPOST
  1
"
  9
$DIMALT
 70
     0
  9
$DIMALTD
 70
     2
  9
$DIMALTF
 40
0.0393701
  9
$DIMLFAC
 40
1.0
  9
$DIMTOFL
 70
     1
  9
$DIMTVP
 40
0.0
  9
$DIMTIX
 70
     0
  9
$DIMSOXD
 70
     0
  9
$DIMSAH
 70
     0
  9
$DIMBLK1
  1

  9
$DIMBLK2
  1

  9
$DIMSTYLE
  2
AM_JIS
  9
$DIMCLRD
 70
     3
  9
$DIMCLRE
 70
     3
  9
$DIMCLRT
 70
     2
  9
$DIMTFAC
 40
0.71
  9
$DIMGAP
 40
1.5
  9
$DIMJUST
 70
     0
  9
$DIMSD1
 70
     0
  9
$DIMSD2
 70
     0
  9
$DIMTOLJ
 70
     0
  9
$DIMTZIN
 70
     0
  9
$DIMALTZ
 70
     0
  9
$DIMALTTZ
 70
     0
  9
$DIMFIT
 70
     3
  9
$DIMUPT
 70
     0
  9
$DIMUNIT
 70
     2
  9
$DIMDEC
 70
     3
  9
$DIMTDEC
 70
     3
  9
$DIMALTU
 70
     2
  9
$DIMALTTD
 70
     2
  9
$DIMTXSTY
  7
ASAMI
  9
$DIMAUNIT
 70
     0
  9
$LUNITS
 70
     2
  9
$LUPREC
 70
     2
  9
$SKETCHINC
 40
1.0
  9
$FILLETRAD
 40
0.8
  9
$AUNITS
 70
     0
  9
$AUPREC
 70
     0
  9
$MENU
  1
.
  9
$ELEVATION
 40
0.0
  9
$PELEVATION
 40
0.0
  9
$THICKNESS
 40
0.0
  9
$LIMCHECK
 70
     0
  9
$BLIPMODE
 70
     0
  9
$CHAMFERA
 40
1.5
  9
$CHAMFERB
 40
1.5
  9
$CHAMFERC
 40
20.0
  9
$CHAMFERD
 40
0.0
  9
$SKPOLY
 70
     0
  9
$TDCREATE
 40
2452838.620506898
  9
$TDUPDATE
 40
2452941.610751041
  9
$TDINDWG
 40
1.3443838310
  9
$TDUSRTIMER
 40
1.3443838310
  9
$USRTIMER
 70
     1
  9
$ANGBASE
 50
0.0
  9
$ANGDIR
 70
     0
  9
$PDMODE
 70
     0
  9
$PDSIZE
 40
0.0
  9
$PLINEWID
 40
0.0
  9
$COORDS
 70
     0
  9
$SPLFRAME
 70
     0
  9
$SPLINETYPE
 70
     6
  9
$SPLINESEGS
 70
     8
  9
$ATTDIA
 70
     1
  9
$ATTREQ
 70
     1
  9
$HANDLING
 70
 12289
  9
$HANDSEED
  5
7D00
  9
$SURFTAB1
 70
     6
  9
$SURFTAB2
 70
     6
  9
$SURFTYPE
 70
     6
  9
$SURFU
 70
     6
  9
$SURFV
 70
     6
  9
$UCSNAME
  2

  9
$UCSORG
 10
0.0
 20
0.0
 30
0.0
  9
$UCSXDIR
 10
1.0
 20
0.0
 30
0.0
  9
$UCSYDIR
 10
0.0
 20
1.0
 30
0.0
  9
$PUCSNAME
  2

  9
$PUCSORG
 10
0.0
 20
0.0
 30
0.0
  9
$PUCSXDIR
 10
1.0
 20
0.0
 30
0.0
  9
$PUCSYDIR
 10
0.0
 20
1.0
 30
0.0
  9
$USERI1
 70
     0
  9
$USERI2
 70
     0
  9
$USERI3
 70
     0
  9
$USERI4
 70
     0
  9
$USERI5
 70
     0
  9
$USERR1
 40
0.0
  9
$USERR2
 40
0.0
  9
$USERR3
 40
0.0
  9
$USERR4
 40
0.0
  9
$USERR5
 40
0.0
  9
$WORLDVIEW
 70
     1
  9
$SHADEDGE
 70
     3
  9
$SHADEDIF
 70
    70
  9
$TILEMODE
 70
     1
  9
$MAXACTVP
 70
    64
  9
$PINSBASE
 10
0.0
 20
0.0
 30
0.0
  9
$PLIMCHECK
 70
     0
  9
$PEXTMIN
 10
1.000000000000000E+20
 20
1.000000000000000E+20
 30
1.000000000000000E+20
  9
$PEXTMAX
 10
-1.000000000000000E+20
 20
-1.000000000000000E+20
 30
-1.000000000000000E+20
  9
$PLIMMIN
 10
0.0
 20
0.0
  9
$PLIMMAX
 10
841.0
 20
594.0
  9
$UNITMODE
 70
     0
  9
$VISRETAIN
 70
     1
  9
$PLINEGEN
 70
     0
  9
$PSLTSCALE
 70
     0
  9
$TREEDEPTH
 70
  3020
  9
$PICKSTYLE
 70
     0
  9
$CMLSTYLE
  2
STANDARD
  9
$CMLJUST
 70
     0
  9
$CMLSCALE
 40
20.0
  9
$PROXYGRAPHICS
 70
     1
  9
$MEASUREMENT
 70
     1
  0
ENDSEC
  0
SECTION
  2
CLASSES
  0
CLASS
  1
ACDBDICTIONARYWDFLT
  2
AcDbDictionaryWithDefault
  3
AutoCAD 2000
 90
        0
280
     0
281
     0
  0
CLASS
  1
ACDBPLACEHOLDER
  2
AcDbPlaceHolder
  3
AutoCAD 2000
 90
        0
280
     0
281
     0
  0
CLASS
  1
LAYOUT
  2
AcDbLayout
  3
AutoCAD 2000
 90
        0
280
     0
281
     0
  0
CLASS
  1
AMGSETTINGSOBJ
  2
AmgSettingsObj
  3
"AcadM|Product Description: AutoCAD Mechanical 2000|Company: Autodesk"
 90
        0
280
     0
281
     0
  0
CLASS
  1
ACME_DOCUMENT
  2
AcMeDbDoc
  3
AcMeServices
 90
        0
280
     0
281
     0
  0
CLASS
  1
ACMESCOPE
  2
AcMeScope
  3
AcMeServices
 90
        0
280
     0
281
     0
  0
CLASS
  1
ACMECOMMANDHISTORY
  2
AcMeCommandHistory
  3
AcMeServices
 90
        0
280
     0
281
     0
  0
CLASS
  1
DICTIONARYVAR
  2
AcDbDictionaryVar
  3
AutoCAD 2000
 90
        0
280
     0
281
     0
  0
CLASS
  1
ACIMSYSVARMAN
  2
AcImSysVarManager
  3
AcMeServices
 90
        0
280
     0
281
     0
  0
CLASS
  1
ACIMREALSYSVAR
  2
AcImRealSysVar
  3
AcMeServices
 90
        0
280
     0
281
     0
  0
CLASS
  1
ACIMINTSYSVAR
  2
AcImIntSysVar
  3
AcMeServices
 90
        0
280
     0
281
     0
  0
CLASS
  1
ACMEDRAWINGMAN
  2
AcMeDrawingMan
  3
AcMeServices
 90
        0
280
     0
281
     0
  0
CLASS
  1
ACMEVIEW
  2
AcMeView
  3
AcMeServices
 90
        0
280
     0
281
     0
  0
CLASS
  1
ACDBENTITYCACHE
  2
AcMeEntityCache
  3
AcMeServices
 90
        0
280
     0
281
     0
  0
CLASS
  1
GSMANAGER
  2
AcMeGSManager
  3
AcMeServices
 90
        0
280
     0
281
     0
  0
CLASS
  1
AmdtInternalReactor
  2
AmdtInternalReactor
  3
AcMeServices
 90
        0
280
     0
281
     0
  0
CLASS
  1
ACMESTATEMGR
  2
AcMeStateMgr
  3
AcMeServices
 90
        0
280
     0
281
     0
  0
CLASS
  1
ACME_DATABASE
  2
AcMeDbDatabase
  3
AcMeServices
 90
        0
280
     0
281
     0
  0
CLASS
  1
ACRFINSADJUSTERMGR
  2
AcRfInsAdjusterMgr
  3
AcMeServices
 90
        0
280
     0
281
     0
  0
CLASS
  1
ACMDATADICTIONARY
  2
AcmDataDictionary
  3
"AcmSymBB|Product Description: AutoCAD Mechanical 2000|Company: Autodesk"
 90
        0
280
     0
281
     0
  0
CLASS
  1
ACMDATAENTRYBLOCK
  2
AcmDataEntryBlock
  3
"AcmSymBB|Product Description: AutoCAD Mechanical 2000|Company: Autodesk"
 90
        0
280
     0
281
     0
  0
CLASS
  1
AMGOBJPROPCFG
  2
AmgObjPropCfg
  3
"AmgLay|Product Description: AutoCAD Mechanical 2000|Company: Autodesk"
 90
        1
280
     0
281
     0
  0
CLASS
  1
ACAMGFILTERDAT
  2
AcAmgFilterDat
  3
"AcadM|Product Description: AutoCAD Mechanical 2000|Company: Autodesk"
 90
        0
280
     0
281
     0
  0
CLASS
  1
LAYER_INDEX
  2
AcDbLayerIndex
  3
AutoCAD 2000
 90
        0
280
     0
281
     0
  0
CLASS
  1
IDBUFFER
  2
AcDbIdBuffer
  3
AutoCAD 2000
 90
        0
280
     0
281
     0
  0
CLASS
  1
ACIMSTRSYSVAR
  2
AcImStrSysVar
  3
AcMeServices
 90
        0
280
     0
281
     0
  0
CLASS
  1
ACMSTANDARDJIS
  2
AcmStandardJIS
  3
"AcmSymBB|Product Description: AutoCAD Mechanical 2000|Company: Autodesk"
 90
        0
280
     0
281
     0
  0
CLASS
  1
ACMSURFSTANDARDJIS
  2
AcmSurfTextStdJIS
  3
"AcmSymBB|Product Description: AutoCAD Mechanical 2000|Company: Autodesk"
 90
        0
280
     0
281
     0
  0
CLASS
  1
ACMFCFSTANDARDJIS
  2
AcmFCFStdJIS
  3
"AcmSymBB|Product Description: AutoCAD Mechanical 2000|Company: Autodesk"
 90
        0
280
     0
281
     0
  0
CLASS
  1
ACMWELDSTANDARDJIS
  2
AcmWeldingStdJIS
  3
"AcmSymBB|Product Description: AutoCAD Mechanical 2000|Company: Autodesk"
 90
        0
280
     0
281
     0
  0
CLASS
  1
ACMIDSTANDARDJIS
  2
AcmIdStdJIS
  3
"AcmSymBB|Product Description: AutoCAD Mechanical 2000|Company: Autodesk"
 90
        0
280
     0
281
     0
  0
CLASS
  1
ACMDATUMSTANDARDJIS
  2
AcmDatumStdJIS
  3
"AcmSymBB|Product Description: AutoCAD Mechanical 2000|Company: Autodesk"
 90
        0
280
     0
281
     0
  0
CLASS
  1
ACMBOMSTANDARDJIS
  2
AcmBOMStdJIS
  3
"AcmSymBB|Product Description: AutoCAD Mechanical 2000|Company: Autodesk"
 90
        0
280
     0
281
     0
  0
CLASS
  1
ACMSTANDARDANSI
  2
AcmStandardANSI
  3
"AcmSymBB|Product Description: AutoCAD Mechanical 2000|Company: Autodesk"
 90
        0
280
     0
281
     0
  0
CLASS
  1
ACMSURFSTANDARDANSI
  2
AcmSurfTextStdANSI
  3
"AcmSymBB|Product Description: AutoCAD Mechanical 2000|Company: Autodesk"
 90
        0
280
     0
281
     0
  0
CLASS
  1
ACMFCFSTANDARDANSI
  2
AcmFCFStdANSI
  3
"AcmSymBB|Product Description: AutoCAD Mechanical 2000|Company: Autodesk"
 90
        0
280
     0
281
     0
  0
CLASS
  1
ACMWELDSTANDARDANSI
  2
AcmWeldingStdANSI
  3
"AcmSymBB|Product Description: AutoCAD Mechanical 2000|Company: Autodesk"
 90
        0
280
     0
281
     0
  0
CLASS
  1
ACMIDSTANDARDANSI
  2
AcmIdStdANSI
  3
"AcmSymBB|Product Description: AutoCAD Mechanical 2000|Company: Autodesk"
 90
        0
280
     0
281
     0
  0
CLASS
  1
ACMDATUMSTANDARDANSI
  2
AcmDatumStdANSI
  3
"AcmSymBB|Product Description: AutoCAD Mechanical 2000|Company: Autodesk"
 90
        0
280
     0
281
     0
  0
CLASS
  1
ACMBOMSTANDARDANSI
  2
AcmBOMStdANSI
  3
"AcmSymBB|Product Description: AutoCAD Mechanical 2000|Company: Autodesk"
 90
        0
280
     0
281
     0
  0
CLASS
  1
ACMSTANDARDBSI
  2
AcmStandardBSI
  3
"AcmSymBB|Product Description: AutoCAD Mechanical 2000|Company: Autodesk"
 90
        0
280
     0
281
     0
  0
CLASS
  1
ACMSURFSTANDARDBSI
  2
AcmSurfTextStdBSI
  3
"AcmSymBB|Product Description: AutoCAD Mechanical 2000|Company: Autodesk"
 90
        0
280
     0
281
     0
  0
CLASS
  1
ACMFCFSTANDARDBSI
  2
AcmFCFStdBSI
  3
"AcmSymBB|Product Description: AutoCAD Mechanical 2000|Company: Autodesk"
 90
        0
280
     0
281
     0
  0
CLASS
  1
ACMWELDSTANDARDBSI
  2
AcmWeldingStdBSI
  3
"AcmSymBB|Product Description: AutoCAD Mechanical 2000|Company: Autodesk"
 90
        0
280
     0
281
     0
  0
CLASS
  1
ACMIDSTANDARDBSI
  2
AcmIdStdBSI
  3
"AcmSymBB|Product Description: AutoCAD Mechanical 2000|Company: Autodesk"
 90
        0
280
     0
281
     0
  0
CLASS
  1
ACMDATUMSTANDARDBSI
  2
AcmDatumStdBSI
  3
"AcmSymBB|Product Description: AutoCAD Mechanical 2000|Company: Autodesk"
 90
        0
280
     0
281
     0
  0
CLASS
  1
ACMBOMSTANDARDBSI
  2
AcmBOMStdBSI
  3
"AcmSymBB|Product Description: AutoCAD Mechanical 2000|Company: Autodesk"
 90
        0
280
     0
281
     0
  0
CLASS
  1
STDPART2D
  2
AmgStdPart
  3
"AmgStdPart|Product Description: AutoCAD Mechanical 2000|Company: Autodesk"
 90
     1023
280
     0
281
     1
  0
CLASS
  1
ACMDATAENTRYPART
  2
AcmDataEntryPart
  3
"AcmSymBB|Product Description: AutoCAD Mechanical 2000|Company: Autodesk"
 90
        0
280
     0
281
     0
  0
CLASS
  1
ACMPARTREF
  2
AcmPartRef
  3
"AcmSymBB|Product Description: AutoCAD Mechanical 2000|Company: Autodesk"
 90
     1023
280
     0
281
     1
  0
CLASS
  1
LONG_TRANSACTION
  2
AcDbLongTransaction
  3
AutoCAD 2000
 90
        0
280
     0
281
     0
  0
CLASS
  1
LWPOLYLINE
  2
AcDbPolyline
  3
AutoCAD 2000
 90
        0
280
     0
281
     1
  0
CLASS
  1
HATCH
  2
AcDbHatch
  3
AutoCAD 2000
 90
        0
280
     0
281
     1
  0
CLASS
  1
XRECORD
  2
AcDbXrecord
  3
AutoCAD 2000
 90
        0
280
     0
281
     0
  0
ENDSEC
  0
SECTION
  2
TABLES
  0
TABLE
  2
VPORT
  5
8
330
0
100
AcDbSymbolTable
 70
     3
  0
VPORT
  5
7CD5
330
8
100
AcDbSymbolTableRecord
100
AcDbViewportTableRecord
  2
*ACTIVE
 70
     0
 10
0.0
 20
0.0
 11
1.0
 21
1.0
 12
-43.1880947983888
 22
22.49021805225749
 13
0.0
 23
0.0
 14
2.5
 24
2.5
 15
10.0
 25
10.0
 16
0.0
 26
0.0
 36
1.0
 17
0.0
 27
0.0
 37
0.0
 40
162.594984648629
 41
1.56570841889117
 42
50.0
 43
0.0
 44
0.0
 50
0.0
 51
0.0
 71
     0
 72
   100
 73
     1
 74
     3
 75
     0
 76
     0
 77
     0
 78
     0
  0
ENDTAB
  0
TABLE
  2
LTYPE
  5
5
330
0
100
AcDbSymbolTable
 70
    10
  0
LTYPE
  5
14
330
5
100
AcDbSymbolTableRecord
100
AcDbLinetypeTableRecord
  2
BYBLOCK
 70
     0
  3

 72
    65
 73
     0
 40
0.0
  0
LTYPE
  5
15
330
5
100
AcDbSymbolTableRecord
100
AcDbLinetypeTableRecord
  2
BYLAYER
 70
     0
  3

 72
    65
 73
     0
 40
0.0
  0
LTYPE
  5
16
330
5
100
AcDbSymbolTableRecord
100
AcDbLinetypeTableRecord
  2
CONTINUOUS
 70
     0
  3
Solid line
 72
    65
 73
     0
 40
0.0
  0
LTYPE
  5
4B
330
5
100
AcDbSymbolTableRecord
100
AcDbLinetypeTableRecord
  2
AM_ISO02W050
 70
     0
  3
__ __ __ __ __ __ __ __ __ __ __ __ __ __ __
 72
    65
 73
     2
 40
7.5
 49
6.0
 74
     0
 49
-1.5
 74
     0
  0
LTYPE
  5
4C
330
5
100
AcDbSymbolTableRecord
100
AcDbLinetypeTableRecord
  2
AM_ISO08W050
 70
     0
  3
____ . ____ . ____ . ____ . ____ . ____ . ____
 72
    65
 73
     4
 40
18.0
 49
12.0
 74
     0
 49
-1.5
 74
     0
 49
3.0
 74
     0
 49
-1.5
 74
     0
  0
LTYPE
  5
4D
330
5
100
AcDbSymbolTableRecord
100
AcDbLinetypeTableRecord
  2
AM_ISO09W050
 70
     0
  3
_____ . . _____ . . _____ . . ____ .. ____
 72
    65
 73
     6
 40
22.5
 49
12.0
 74
     0
 49
-1.5
 74
     0
 49
3.0
 74
     0
 49
-1.5
 74
     0
 49
3.0
 74
     0
 49
-1.5
 74
     0
  0
LTYPE
  5
4E
330
5
100
AcDbSymbolTableRecord
100
AcDbLinetypeTableRecord
  2
AMCONSTR
 70
     0
  3
_______________________
 72
    65
 73
     2
 40
9999.0
 49
9999.0
 74
     0
 49
0.0
 74
     0
  0
LTYPE
  5
4F
330
5
100
AcDbSymbolTableRecord
100
AcDbLinetypeTableRecord
  2
AM_ISO02W050X2
 70
     0
  3
 _ _ _ _ _ _ _ _ _ _ _ _
 72
    65
 73
     2
 40
3.75
 49
3.0
 74
     0
 49
-0.75
 74
     0
  0
LTYPE
  5
50
330
5
100
AcDbSymbolTableRecord
100
AcDbLinetypeTableRecord
  2
AM_ISO08W050X2
 70
     0
  3
__ . __ . __ . __ . __ . __
 72
    65
 73
     4
 40
9.0
 49
6.0
 74
     0
 49
-0.75
 74
     0
 49
1.5
 74
     0
 49
-0.75
 74
     0
  0
LTYPE
  5
53
330
5
100
AcDbSymbolTableRecord
100
AcDbLinetypeTableRecord
  2
AMZIGZAG
 70
     0
  3
/\/-/\/-/\/-/\/-/\/-/\/
 72
    65
 73
     2
 40
11.00009999999999
 49
0.0001
 74
     4
 75
   135
340
52
 46
0.04
 50
0.0
 44
0.0
 45
0.0
 49
-11.0
 74
     0
  0
LTYPE
  5
166
330
5
100
AcDbSymbolTableRecord
100
AcDbLinetypeTableRecord
  2
ACJISTGL
 70
     0
  3
_ _ _ _ _
 72
    65
 73
     2
 40
3.0
 49
2.0
 74
     0
 49
-1.0
 74
     0
  0
LTYPE
  5
26A
330
5
100
AcDbSymbolTableRecord
100
AcDbLinetypeTableRecord
  2
ACJISTGB
 70
     0
  3
__ . . __ . .
 72
    65
 73
     6
 40
9.0
 49
4.0
 74
     0
 49
-1.0
 74
     0
 49
1.0
 74
     0
 49
-1.0
 74
     0
 49
1.0
 74
     0
 49
-1.0
 74
     0
  0
ENDTAB
  0
TABLE
  2
LAYER
  5
2
330
0
100
AcDbSymbolTable
 70
     8
  0
LAYER
  5
10
330
2
100
AcDbSymbolTableRecord
100
AcDbLayerTableRecord
  2
0
 70
     0
 62
     7
  6
CONTINUOUS
  0
LAYER
  5
3F9
330
2
100
AcDbSymbolTableRecord
100
AcDbLayerTableRecord
  2
AM_0
 70
     0
 62
     7
  6
CONTINUOUS
  0
LAYER
  5
BD6
330
2
100
AcDbSymbolTableRecord
100
AcDbLayerTableRecord
  2
AM_11
 70
     0
 62
     3
  6
AM_ISO09W050
  0
LAYER
  5
BD7
330
2
100
AcDbSymbolTableRecord
100
AcDbLayerTableRecord
  2
AM_7
 70
     0
 62
     4
  6
AM_ISO08W050
  0
LAYER
  5
BD8
330
2
100
AcDbSymbolTableRecord
100
AcDbLayerTableRecord
  2
AM_5
 70
     0
 62
     3
  6
CONTINUOUS
  0
LAYER
  5
BD9
330
2
100
AcDbSymbolTableRecord
100
AcDbLayerTableRecord
  2
DEFPOINTS
 70
     0
 62
     7
  6
CONTINUOUS
  0
LAYER
  5
BDA
330
2
100
AcDbSymbolTableRecord
100
AcDbLayerTableRecord
  2
AM_6
 70
     0
 62
     2
  6
CONTINUOUS
  0
LAYER
  5
68EC
330
2
100
AcDbSymbolTableRecord
100
AcDbLayerTableRecord
  2
AM_0N
 70
     0
 62
     7
  6
CONTINUOUS
  0
ENDTAB
  0
TABLE
  2
STYLE
  5
3
330
0
100
AcDbSymbolTable
 70
     5
  0
STYLE
  5
11
330
3
100
AcDbSymbolTableRecord
100
AcDbTextStyleTableRecord
  2
STANDARD
 70
     0
 40
0.0
 41
1.0
 50
0.0
 71
     0
 42
2.5
  3
simplex.shx
  4
EXTFONT.SHX
  0
STYLE
  5
52
330
3
100
AcDbSymbolTableRecord
100
AcDbTextStyleTableRecord
  2

 70
     1
 40
0.0
 41
1.0
 50
0.0
 71
     0
 42
2.5
  3
ltypeshp.shx
  4

  0
STYLE
  5
6B
330
3
100
AcDbSymbolTableRecord
100
AcDbTextStyleTableRecord
  2
ASAMI
 70
     0
 40
0.0
 41
1.0
 50
0.0
 71
     0
 42
2.5
  3
simplex.shx
  4
EXTFONT.SHX
  0
STYLE
  5
262
330
3
100
AcDbSymbolTableRecord
100
AcDbTextStyleTableRecord
  2
ACJISTS
 70
     0
 40
1.0
 41
1.0
 50
0.0
 71
     0
 42
2.5
  3
simplex.shx
  4
bigfont.shx
  0
STYLE
  5
269
330
3
100
AcDbSymbolTableRecord
100
AcDbTextStyleTableRecord
  2
ACJISGDT
 70
     0
 40
0.0
 41
1.0
 50
0.0
 71
     0
 42
2.5
  3
amgdtans.shx
  4

  0
ENDTAB
  0
TABLE
  2
VIEW
  5
6
330
0
100
AcDbSymbolTable
 70
     0
  0
ENDTAB
  0
TABLE
  2
UCS
  5
7
330
0
100
AcDbSymbolTable
 70
     0
  0
ENDTAB
  0
TABLE
  2
APPID
  5
9
330
0
100
AcDbSymbolTable
 70
    21
  0
APPID
  5
12
330
9
100
AcDbSymbolTableRecord
100
AcDbRegAppTableRecord
  2
ACAD
 70
     0
  0
APPID
  5
30
330
9
100
AcDbSymbolTableRecord
100
AcDbRegAppTableRecord
  2
MCAD_NO_VIS
 70
     0
  0
APPID
  5
31
330
9
100
AcDbSymbolTableRecord
100
AcDbRegAppTableRecord
  2
ACAD_TEMP_GRAPHIC
 70
     0
  0
APPID
  5
2C2
330
9
100
AcDbSymbolTableRecord
100
AcDbRegAppTableRecord
  2
GENIUS_GENDTOL_13
 70
     0
  0
APPID
  5
339
330
9
100
AcDbSymbolTableRecord
100
AcDbRegAppTableRecord
  2
GENIUS_GENODEF_13
 70
     0
  0
APPID
  5
33A
330
9
100
AcDbSymbolTableRecord
100
AcDbRegAppTableRecord
  2
GENIUS_GENOBJ-N-RSBK_13
 70
     0
  0
APPID
  5
33B
330
9
100
AcDbSymbolTableRecord
100
AcDbRegAppTableRecord
  2
GENIUS_GENOBJ-N-LIB_13
 70
     0
  0
APPID
  5
33C
330
9
100
AcDbSymbolTableRecord
100
AcDbRegAppTableRecord
  2
GENIUS_GENSCALE_13
 70
     0
  0
APPID
  5
378
330
9
100
AcDbSymbolTableRecord
100
AcDbRegAppTableRecord
  2
GENIUS_GENDIMSH_14
 70
     0
  0
APPID
  5
BDB
330
9
100
AcDbSymbolTableRecord
100
AcDbRegAppTableRecord
  2
GENIUS_GENOBJ-N-CEN_13
 70
     0
  0
APPID
  5
BDC
330
9
100
AcDbSymbolTableRecord
100
AcDbRegAppTableRecord
  2
GENIUS_GENFIL_13
 70
     0
  0
APPID
  5
BDD
330
9
100
AcDbSymbolTableRecord
100
AcDbRegAppTableRecord
  2
GENIUS_GENOBJ-N-FIL_13
 70
     0
  0
APPID
  5
12AD
330
9
100
AcDbSymbolTableRecord
100
AcDbRegAppTableRecord
  2
GENIUS_GENOREF_13
 70
     0
  0
APPID
  5
68E9
330
9
100
AcDbSymbolTableRecord
100
AcDbRegAppTableRecord
  2
GEVID1060695448
 70
     0
  0
APPID
  5
68EA
330
9
100
AcDbSymbolTableRecord
100
AcDbRegAppTableRecord
  2
GEVDC
 70
     0
  0
APPID
  5
68ED
330
9
100
AcDbSymbolTableRecord
100
AcDbRegAppTableRecord
  2
GENIUS_GENBH_13
 70
     0
  0
APPID
  5
68EF
330
9
100
AcDbSymbolTableRecord
100
AcDbRegAppTableRecord
  2
GENIUS_GENOBJ-NBEHI-BHF_13
 70
     0
  0
APPID
  5
68F0
330
9
100
AcDbSymbolTableRecord
100
AcDbRegAppTableRecord
  2
GENIUS_GENOENT_13
 70
     0
  0
APPID
  5
68F1
330
9
100
AcDbSymbolTableRecord
100
AcDbRegAppTableRecord
  2
GENIUS_GENOLIS_13
 70
     0
  0
APPID
  5
68F3
330
9
100
AcDbSymbolTableRecord
100
AcDbRegAppTableRecord
  2
GENIUS_GENOBJ-NBEHI-BHB_13
 70
     0
  0
APPID
  5
6B27
330
9
100
AcDbSymbolTableRecord
100
AcDbRegAppTableRecord
  2
GENIUS_GENOBJ-N-CHA_13
 70
     0
  0
ENDTAB
  0
TABLE
  2
DIMSTYLE
  5
A
330
0
100
AcDbSymbolTable
 70
     8
  0
DIMSTYLE
105
58
102
{ACAD_REACTORS
330
6EEF
330
7139
330
71C5
330
7251
330
7439
330
7B10
102
}
330
A
100
AcDbSymbolTableRecord
100
AcDbDimStyleTableRecord
  2
AM_JIS
 70
     0
  3

  4
"
  5
OPEN30
  6

  7

 40
1.0
 41
2.5
 42
1.0
 43
12.0
 44
1.0
 45
0.0
 46
0.0
 47
0.1
 48
0.1
140
3.2
141
0.0
142
0.0
143
0.0393701
144
1.0
145
0.0
146
0.71
147
1.5
 71
     0
 72
     0
 73
     0
 74
     0
 75
     0
 76
     0
 77
     3
 78
     8
170
     0
171
     2
172
     1
173
     0
174
     0
175
     0
176
     3
177
     3
178
     2
270
     2
271
     3
272
     3
273
     2
274
     2
340
6B
275
     0
280
     0
281
     0
282
     0
283
     0
284
     0
285
     0
286
     0
287
     3
288
     0
  0
DIMSTYLE
105
5F
330
A
100
AcDbSymbolTableRecord
100
AcDbDimStyleTableRecord
  2
AM_JIS$3
 70
     0
  3

  4
"
  5
OPEN30
  6

  7

 40
1.0
 41
2.5
 42
1.0
 43
10.0
 44
1.0
 45
0.0
 46
0.0
 47
0.1
 48
0.1
140
3.2
141
0.0
142
0.0
143
0.0393701
144
1.0
145
0.0
146
0.71
147
1.5
 71
     0
 72
     0
 73
     0
 74
     1
 75
     0
 76
     0
 77
     3
 78
     8
170
     0
171
     2
172
     0
173
     0
174
     0
175
     0
176
     3
177
     3
178
     2
270
     2
271
     2
272
     3
273
     2
274
     2
340
6B
275
     0
280
     0
281
     0
282
     0
283
     0
284
     0
285
     0
286
     0
287
     0
288
     1
  0
DIMSTYLE
105
60
330
A
100
AcDbSymbolTableRecord
100
AcDbDimStyleTableRecord
  2
AM_JIS$4
 70
     0
  3

  4
"
  5
OPEN30
  6

  7

 40
1.0
 41
2.5
 42
1.0
 43
10.0
 44
1.0
 45
0.0
 46
0.0
 47
0.1
 48
0.1
140
3.2
141
0.0
142
0.0
143
0.0393701
144
1.0
145
0.0
146
0.71
147
1.5
 71
     0
 72
     0
 73
     0
 74
     1
 75
     0
 76
     0
 77
     3
 78
     8
170
     0
171
     2
172
     0
173
     0
174
     0
175
     0
176
     3
177
     3
178
     2
270
     2
271
     2
272
     3
273
     2
274
     2
340
6B
275
     0
280
     0
281
     0
282
     0
283
     0
284
     0
285
     0
286
     0
287
     0
288
     1
  0
DIMSTYLE
105
61
330
A
100
AcDbSymbolTableRecord
100
AcDbDimStyleTableRecord
  2
AM_JIS$6
 70
     0
  3

  4
"
  5
OPEN30
  6

  7

 40
1.0
 41
2.5
 42
1.0
 43
10.0
 44
1.0
 45
0.0
 46
0.0
 47
0.1
 48
0.1
140
3.2
141
0.0
142
0.0
143
0.0393701
144
1.0
145
0.0
146
0.71
147
1.5
 71
     0
 72
     0
 73
     0
 74
     0
 75
     0
 76
     0
 77
     0
 78
     8
170
     0
171
     2
172
     1
173
     0
174
     0
175
     0
176
     3
177
     3
178
     2
270
     2
271
     2
272
     2
273
     2
274
     2
340
6B
275
     0
280
     0
281
     0
282
     0
283
     0
284
     0
285
     0
286
     0
287
     3
288
     0
  0
DIMSTYLE
105
62
330
A
100
AcDbSymbolTableRecord
100
AcDbDimStyleTableRecord
  2
AM_JIS$7
 70
     0
  3

  4
"
  5
OPEN30
  6

  7

 40
1.0
 41
2.5
 42
1.0
 43
10.0
 44
1.0
 45
0.0
 46
0.0
 47
0.1
 48
0.1
140
3.2
141
0.0
142
0.0
143
0.0393701
144
1.0
145
0.0
146
0.71
147
1.5
 71
     0
 72
     0
 73
     0
 74
     0
 75
     0
 76
     0
 77
     3
 78
     8
170
     0
171
     2
172
     1
173
     0
174
     0
175
     0
176
     3
177
     3
178
     2
270
     2
271
     2
272
     3
273
     2
274
     2
340
6B
275
     0
280
     0
281
     0
282
     0
283
     0
284
     0
285
     0
286
     0
287
     3
288
     0
  0
DIMSTYLE
105
63
330
A
100
AcDbSymbolTableRecord
100
AcDbDimStyleTableRecord
  2
AM_JIS$SF
 70
     0
  3

  4
"
  5
OPEN30
  6

  7

 40
1.0
 41
2.5
 42
1.0
 43
10.0
 44
1.0
 45
0.0
 46
0.0
 47
0.1
 48
0.1
140
3.2
141
0.0
142
0.0
143
0.0393701
144
1.0
145
0.0
146
0.71
147
1.5
 71
     0
 72
     0
 73
     0
 74
     0
 75
     1
 76
     1
 77
     3
 78
     8
170
     0
171
     2
172
     1
173
     0
174
     0
175
     0
176
   256
177
   256
178
     2
270
     2
271
     2
272
     2
273
     2
274
     2
340
6B
275
     0
280
     0
281
     0
282
     0
283
     0
284
     0
285
     0
286
     0
287
     3
288
     0
  0
DIMSTYLE
105
68
330
A
100
AcDbSymbolTableRecord
100
AcDbDimStyleTableRecord
  2
AM_JIS$SH
 70
     0
  3

  4
"
  5

  6
GENAXEH
  7
OPEN30
 40
1.0
 41
2.5
 42
1.0
 43
10.0
 44
1.0
 45
0.0
 46
0.0
 47
0.1
 48
0.1
140
3.2
141
0.0
142
0.0
143
0.0393701
144
2.0
145
0.0
146
0.71
147
1.5
 71
     0
 72
     0
 73
     0
 74
     0
 75
     1
 76
     1
 77
     3
 78
     8
170
     0
171
     2
172
     1
173
     1
174
     0
175
     0
176
   256
177
   256
178
     2
270
     2
271
     2
272
     2
273
     2
274
     2
340
6B
275
     0
280
     0
281
     0
282
     0
283
     0
284
     0
285
     0
286
     0
287
     3
288
     0
  0
DIMSTYLE
105
B34
102
{ACAD_REACTORS
330
6FED
330
72EC
330
76A6
102
}
330
A
100
AcDbSymbolTableRecord
100
AcDbDimStyleTableRecord
  2
AM_JIS$2
 70
     0
  3

  4
"
  5
OPEN30
  6

  7

 40
1.0
 41
2.5
 42
1.0
 43
12.0
 44
1.0
 45
0.0
 46
0.0
 47
0.1
 48
0.1
140
3.2
141
0.0
142
0.0
143
0.0393701
144
1.0
145
0.0
146
0.71
147
1.5
 71
     0
 72
     0
 73
     0
 74
     0
 75
     0
 76
     0
 77
     3
 78
     8
170
     0
171
     2
172
     1
173
     0
174
     0
175
     0
176
     3
177
     3
178
     2
270
     2
271
     3
272
     3
273
     2
274
     2
340
6B
275
     0
280
     0
281
     0
282
     0
283
     0
284
     0
285
     0
286
     0
287
     3
288
     0
  0
ENDTAB
  0
TABLE
  2
BLOCK_RECORD
  5
1
330
0
100
AcDbSymbolTable
 70
    14
  0
BLOCK_RECORD
  5
1F
102
{ACAD_XDICTIONARY
360
74
102
}
330
1
100
AcDbSymbolTableRecord
100
AcDbBlockTableRecord
  2
*MODEL_SPACE
  0
BLOCK_RECORD
  5
101
102
{ACAD_XDICTIONARY
360
7CFE
102
}
330
1
100
AcDbSymbolTableRecord
100
AcDbBlockTableRecord
  2
*PAPER_SPACE
  0
BLOCK_RECORD
  5
59
330
1
100
AcDbSymbolTableRecord
100
AcDbBlockTableRecord
  2
_OPEN30
  0
BLOCK_RECORD
  5
64
330
1
100
AcDbSymbolTableRecord
100
AcDbBlockTableRecord
  2
GENAXEH
  0
BLOCK_RECORD
  5
6EF0
330
1
100
AcDbSymbolTableRecord
100
AcDbBlockTableRecord
  2
*D5
  0
BLOCK_RECORD
  5
6FEE
330
1
100
AcDbSymbolTableRecord
100
AcDbBlockTableRecord
  2
*D6
  0
BLOCK_RECORD
  5
713A
330
1
100
AcDbSymbolTableRecord
100
AcDbBlockTableRecord
  2
*D7
  0
BLOCK_RECORD
  5
71C6
330
1
100
AcDbSymbolTableRecord
100
AcDbBlockTableRecord
  2
*D8
  0
BLOCK_RECORD
  5
7252
330
1
100
AcDbSymbolTableRecord
100
AcDbBlockTableRecord
  2
*D9
  0
BLOCK_RECORD
  5
72ED
330
1
100
AcDbSymbolTableRecord
100
AcDbBlockTableRecord
  2
*D10
  0
BLOCK_RECORD
  5
743A
330
1
100
AcDbSymbolTableRecord
100
AcDbBlockTableRecord
  2
*D11
  0
BLOCK_RECORD
  5
76A7
330
1
100
AcDbSymbolTableRecord
100
AcDbBlockTableRecord
  2
*D12
  0
BLOCK_RECORD
  5
7B11
330
1
100
AcDbSymbolTableRecord
100
AcDbBlockTableRecord
  2
*D13
  0
ENDTAB
  0
ENDSEC
  0
SECTION
  2
BLOCKS
  0
BLOCK
  5
20
330
1F
100
AcDbEntity
  8
0
100
AcDbBlockBegin
  2
*MODEL_SPACE
 70
     0
 10
0.0
 20
0.0
 30
0.0
  3
*MODEL_SPACE
  1

  0
ENDBLK
  5
21
330
1F
100
AcDbEntity
  8
0
100
AcDbBlockEnd
  0
BLOCK
  5
103
330
101
100
AcDbEntity
 67
     1
  8
0
100
AcDbBlockBegin
  2
*PAPER_SPACE
 70
     0
 10
0.0
 20
0.0
 30
0.0
  3
*PAPER_SPACE
  1

  0
ENDBLK
  5
104
330
101
100
AcDbEntity
 67
     1
  8
0
100
AcDbBlockEnd
  0
BLOCK
  5
5D
330
59
100
AcDbEntity
  8
0
100
AcDbBlockBegin
  2
_OPEN30
 70
     0
 10
0.0
 20
0.0
 30
0.0
  3
_OPEN30
  1

  0
LINE
  5
5A
330
59
100
AcDbEntity
  8
0
 62
     0
100
AcDbLine
 10
-1.0
 20
0.26794919
 30
0.0
 11
0.0
 21
0.0
 31
0.0
  0
LINE
  5
5B
330
59
100
AcDbEntity
  8
0
 62
     0
100
AcDbLine
 10
0.0
 20
0.0
 30
0.0
 11
-1.0
 21
-0.26794919
 31
0.0
  0
LINE
  5
5C
330
59
100
AcDbEntity
  8
0
 62
     0
100
AcDbLine
 10
0.0
 20
0.0
 30
0.0
 11
-1.0
 21
0.0
 31
0.0
  0
ENDBLK
  5
5E
330
59
100
AcDbEntity
  8
0
100
AcDbBlockEnd
  0
BLOCK
  5
66
330
64
100
AcDbEntity
  8
0
100
AcDbBlockBegin
  2
GENAXEH
 70
     0
 10
0.0
 20
0.0
 30
0.0
  3
GENAXEH
  1

  0
LINE
  5
65
330
64
100
AcDbEntity
  8
0
100
AcDbLine
 10
-1.0
 20
0.0
 30
0.0
 11
1.0
 21
0.0
 31
0.0
  0
ENDBLK
  5
67
330
64
100
AcDbEntity
  8
0
100
AcDbBlockEnd
  0
BLOCK
  5
6EFA
330
6EF0
100
AcDbEntity
  8
0
100
AcDbBlockBegin
  2
*D5
 70
     1
 10
0.0
 20
0.0
 30
0.0
  3
*D5
  1

  0
LINE
  5
7CB1
330
6EF0
100
AcDbEntity
  8
AM_5
 62
     3
100
AcDbLine
 10
0.0000000000000001
 20
0.9999999999999914
 30
0.0
 11
0.0000000000000014
 21
22.37620881633531
 31
0.0
  0
LINE
  5
7CB2
330
6EF0
100
AcDbEntity
  8
AM_5
 62
     3
100
AcDbLine
 10
-32.00000000000001
 20
-4.000000000000008
 30
0.0
 11
-32.00000000000001
 21
22.37620881633531
 31
0.0
  0
LINE
  5
7CB3
330
6EF0
100
AcDbEntity
  8
AM_5
 62
     3
100
AcDbLine
 10
-2.499999999999998
 20
21.37620881633531
 30
0.0
 11
-29.50000000000001
 21
21.37620881633531
 31
0.0
  0
INSERT
  5
7CB4
330
6EF0
100
AcDbEntity
  8
AM_5
 62
     3
100
AcDbBlockReference
  2
_OPEN30
 10
0.0000000000000013
 20
21.37620881633531
 30
0.0
 41
2.5
 42
2.5
 43
2.5
  0
INSERT
  5
7CB5
330
6EF0
100
AcDbEntity
  8
AM_5
 62
     3
100
AcDbBlockReference
  2
_OPEN30
 10
-32.00000000000001
 20
21.37620881633531
 30
0.0
 41
2.5
 42
2.5
 43
2.5
 50
180.0
  0
MTEXT
  5
7CB6
330
6EF0
100
AcDbEntity
  8
AM_5
 62
     2
100
AcDbMText
 10
-16.0
 20
24.47620881633531
 30
0.0
 40
3.2
 41
0.0
 71
     5
 72
     1
  1
32
  7
ASAMI
1001
ACAD
1000
MTEXTBEGIN
1070
    73
1070
     1
1070
    44
1040
1.0
1070
    74
1070
     0
1000
MTEXTEND
  0
POINT
  5
7CB7
330
6EF0
100
AcDbEntity
  8
DEFPOINTS
 62
     0
100
AcDbPoint
 10
0.0
 20
-0.0000000000000085
 30
0.0
  0
POINT
  5
7CB8
330
6EF0
100
AcDbEntity
  8
DEFPOINTS
 62
     0
100
AcDbPoint
 10
-32.00000000000001
 20
-5.000000000000008
 30
0.0
  0
POINT
  5
7CB9
330
6EF0
100
AcDbEntity
  8
DEFPOINTS
 62
     0
100
AcDbPoint
 10
-32.00000000000001
 20
21.37620881633531
 30
0.0
  0
ENDBLK
  5
6EFB
330
6EF0
100
AcDbEntity
  8
0
100
AcDbBlockEnd
  0
BLOCK
  5
6FFC
330
6FEE
100
AcDbEntity
  8
0
100
AcDbBlockBegin
  2
*D6
 70
     1
 10
0.0
 20
0.0
 30
0.0
  3
*D6
  1

  0
ARC
  5
7CA8
330
6FEE
100
AcDbEntity
  8
AM_5
 62
     3
100
AcDbCircle
 10
0.0000000000000007
 20
0.0430241002247602
 30
0.0
 40
13.22884891903914
100
AcDbArc
 50
100.8439866237189
 51
172.1560133762812
  0
INSERT
  5
7CA9
330
6FEE
100
AcDbEntity
  8
AM_5
 62
     3
100
AcDbBlockReference
  2
_OPEN30
 10
0.0000000000000009
 20
13.2718730192639
 30
0.0
 41
2.5
 42
2.5
 43
2.5
 50
5.421993311859454
  0
INSERT
  5
7CAA
330
6FEE
100
AcDbEntity
  8
AM_5
 62
     3
100
AcDbBlockReference
  2
_OPEN30
 10
-13.2107192413586
 20
-0.6493203579466203
 30
0.0
 41
2.5
 42
2.5
 43
2.5
 50
267.5780066881407
  0
MTEXT
  5
7CAB
330
6FEE
100
AcDbEntity
  8
AM_5
 62
     2
100
AcDbMText
 10
-11.8445285140027
 20
11.28306196945734
 30
0.0
 40
3.2
 41
0.0
 71
     5
 72
     1
  1
93°
  7
ASAMI
 11
0.6883545756937532
 21
0.7253743710122885
 31
0.0
1001
ACAD
1000
MTEXTBEGIN
1070
    73
1070
     1
1070
    44
1040
1.0
1070
    74
1070
     0
1000
MTEXTEND
  0
POINT
  5
7CAC
330
6FEE
100
AcDbEntity
  8
DEFPOINTS
 62
     0
100
AcDbPoint
 10
-6.813360880537875
 20
11.38236081955359
 30
0.0
  0
POINT
  5
7CAD
330
6FEE
100
AcDbEntity
  8
DEFPOINTS
 62
     0
100
AcDbPoint
 10
-0.841868764994345
 20
-0.0010963721963521
 30
0.0
  0
POINT
  5
7CAE
330
6FEE
100
AcDbEntity
  8
DEFPOINTS
 62
     0
100
AcDbPoint
 10
0.0
 20
11.68810440816766
 30
0.0
  0
POINT
  5
7CAF
330
6FEE
100
AcDbEntity
  8
DEFPOINTS
 62
     0
100
AcDbPoint
 10
0.0
 20
-16.7851149733323
 30
0.0
  0
POINT
  5
7CB0
330
6FEE
100
AcDbEntity
  8
DEFPOINTS
 62
     0
100
AcDbPoint
 10
-14.54955972015461
 20
-0.7194860142545654
 30
0.0
  0
ENDBLK
  5
6FFD
330
6FEE
100
AcDbEntity
  8
0
100
AcDbBlockEnd
  0
BLOCK
  5
7144
330
713A
100
AcDbEntity
  8
0
100
AcDbBlockBegin
  2
*D7
 70
     1
 10
0.0
 20
0.0
 30
0.0
  3
*D7
  1

  0
LINE
  5
7C6A
330
713A
100
AcDbEntity
  8
AM_5
 62
     3
100
AcDbLine
 10
-155.9935967359741
 20
89.93670798657461
 30
0.0
 11
-169.9744102225384
 21
89.20400459917338
 31
0.0
  0
LINE
  5
7C6B
330
713A
100
AcDbEntity
  8
AM_5
 62
     3
100
AcDbLine
 10
-154.6851978299005
 20
64.97096961771025
 30
0.0
 11
-168.6660113164648
 21
64.23826623030902
 31
0.0
  0
LINE
  5
7C6C
330
713A
100
AcDbEntity
  8
AM_5
 62
     3
100
AcDbLine
 10
-168.8449407971765
 20
86.75976671852991
 30
0.0
 11
-167.7982216723176
 21
66.78717602343841
 31
0.0
  0
INSERT
  5
7C6D
330
713A
100
AcDbEntity
  8
AM_5
 62
     3
100
AcDbBlockReference
  2
_OPEN30
 10
-168.9757806877838
 20
89.25634055541634
 30
0.0
 41
2.5
 42
2.5
 43
2.5
 50
93.0
  0
INSERT
  5
7C6E
330
713A
100
AcDbEntity
  8
AM_5
 62
     3
100
AcDbBlockReference
  2
_OPEN30
 10
-167.6673817817102
 20
64.29060218655198
 30
0.0
 41
2.5
 42
2.5
 43
2.5
 50
273.0
  0
MTEXT
  5
7C6F
330
713A
100
AcDbEntity
  8
AM_5
 62
     2
100
AcDbMText
 10
-165.2258296770079
 20
76.93571283533731
 30
0.0
 40
3.2
 41
0.0
 71
     5
 72
     1
  1
25
  7
ASAMI
 11
0.0523359562429442
 21
-0.9986295347545739
 31
0.0
1001
ACAD
1000
MTEXTBEGIN
1070
    73
1070
     1
1070
    44
1040
1.0
1070
    74
1070
     0
1000
MTEXTEND
  0
POINT
  5
7C70
330
713A
100
AcDbEntity
  8
DEFPOINTS
 62
     0
100
AcDbPoint
 10
-154.9949672012196
 20
89.98904394281757
 30
0.0
  0
POINT
  5
7C71
330
713A
100
AcDbEntity
  8
DEFPOINTS
 62
     0
100
AcDbPoint
 10
-153.6865682951459
 20
65.02330557395321
 30
0.0
  0
POINT
  5
7C72
330
713A
100
AcDbEntity
  8
DEFPOINTS
 62
     0
100
AcDbPoint
 10
-167.6673817817102
 20
64.29060218655198
 30
0.0
  0
ENDBLK
  5
7145
330
713A
100
AcDbEntity
  8
0
100
AcDbBlockEnd
  0
BLOCK
  5
71D0
330
71C6
100
AcDbEntity
  8
0
100
AcDbBlockBegin
  2
*D8
 70
     1
 10
0.0
 20
0.0
 30
0.0
  3
*D8
  1

  0
LINE
  5
7C73
330
71C6
100
AcDbEntity
  8
AM_5
 62
     3
100
AcDbLine
 10
-151.0
 20
-7.000000000000008
 30
0.0
 11
-165.000001
 21
-7.000000000000005
 31
0.0
  0
LINE
  5
7C74
330
71C6
100
AcDbEntity
  8
AM_5
 62
     3
100
AcDbLine
 10
-151.0
 20
-32.00000000000001
 30
0.0
 11
-165.000001
 21
-32.00000000000001
 31
0.0
  0
LINE
  5
7C75
330
71C6
100
AcDbEntity
  8
AM_5
 62
     3
100
AcDbLine
 10
-164.000001
 20
-9.500000000000005
 30
0.0
 11
-164.000001
 21
-29.50000000000001
 31
0.0
  0
INSERT
  5
7C76
330
71C6
100
AcDbEntity
  8
AM_5
 62
     3
100
AcDbBlockReference
  2
_OPEN30
 10
-164.000001
 20
-7.000000000000005
 30
0.0
 41
2.5
 42
2.5
 43
2.5
 50
90.0
  0
INSERT
  5
7C77
330
71C6
100
AcDbEntity
  8
AM_5
 62
     3
100
AcDbBlockReference
  2
_OPEN30
 10
-164.000001
 20
-32.00000000000001
 30
0.0
 41
2.5
 42
2.5
 43
2.5
 50
270.0
  0
MTEXT
  5
7C78
330
71C6
100
AcDbEntity
  8
AM_5
 62
     2
100
AcDbMText
 10
-167.100001
 20
-19.50000000000003
 30
0.0
 40
3.2
 41
0.0
 71
     5
 72
     1
  1
25
  7
ASAMI
 11
0.0000000000000001
 21
1.0
 31
0.0
1001
ACAD
1000
MTEXTBEGIN
1070
    73
1070
     1
1070
    44
1040
1.0
1070
    74
1070
     0
1000
MTEXTEND
  0
POINT
  5
7C79
330
71C6
100
AcDbEntity
  8
DEFPOINTS
 62
     0
100
AcDbPoint
 10
-150.0
 20
-7.000000000000008
 30
0.0
  0
POINT
  5
7C7A
330
71C6
100
AcDbEntity
  8
DEFPOINTS
 62
     0
100
AcDbPoint
 10
-150.0
 20
-32.00000000000001
 30
0.0
  0
POINT
  5
7C7B
330
71C6
100
AcDbEntity
  8
DEFPOINTS
 62
     0
100
AcDbPoint
 10
-164.000001
 20
-32.00000000000001
 30
0.0
  0
ENDBLK
  5
71D1
330
71C6
100
AcDbEntity
  8
0
100
AcDbBlockEnd
  0
BLOCK
  5
725C
330
7252
100
AcDbEntity
  8
0
100
AcDbBlockBegin
  2
*D9
 70
     1
 10
0.0
 20
0.0
 30
0.0
  3
*D9
  1

  0
LINE
  5
7C89
330
7252
100
AcDbEntity
  8
AM_5
 62
     3
100
AcDbLine
 10
-2.893508547205406
 20
72.92603496663786
 30
0.0
 11
27.40543695642847
 21
74.51393541510126
 31
0.0
  0
LINE
  5
7C8A
330
7252
100
AcDbEntity
  8
AM_5
 62
     3
100
AcDbLine
 10
-6.209390291980366
 20
97.78656561797705
 30
0.0
 11
26.09703805035482
 21
99.47967378396562
 31
0.0
  0
LINE
  5
7C8B
330
7252
100
AcDbEntity
  8
AM_5
 62
     3
100
AcDbLine
 10
26.27596753106653
 20
76.95817329574473
 30
0.0
 11
25.22924840620762
 21
96.93076399083622
 31
0.0
  0
INSERT
  5
7C8C
330
7252
100
AcDbEntity
  8
AM_5
 62
     3
100
AcDbBlockReference
  2
_OPEN30
 10
26.4068074216739
 20
74.4615994588583
 30
0.0
 41
2.5
 42
2.5
 43
2.5
 50
273.0000000000001
  0
INSERT
  5
7C8D
330
7252
100
AcDbEntity
  8
AM_5
 62
     3
100
AcDbBlockReference
  2
_OPEN30
 10
25.09840851560025
 20
99.42733782772265
 30
0.0
 41
2.5
 42
2.5
 43
2.5
 50
93.00000000000009
  0
MTEXT
  5
7C8E
330
7252
100
AcDbEntity
  8
AM_5
 62
     2
100
AcDbMText
 10
28.84835952637624
 20
87.10671010764361
 30
0.0
 40
3.2
 41
0.0
 71
     5
 72
     1
  1
25
  7
ASAMI
 11
0.052335956242946
 21
-0.9986295347545739
 31
0.0
1001
ACAD
1000
MTEXTBEGIN
1070
    73
1070
     1
1070
    44
1040
1.0
1070
    74
1070
     0
1000
MTEXTEND
  0
POINT
  5
7C8F
330
7252
100
AcDbEntity
  8
DEFPOINTS
 62
     0
100
AcDbPoint
 10
-3.892138081959979
 20
72.87369901039491
 30
0.0
  0
POINT
  5
7C90
330
7252
100
AcDbEntity
  8
DEFPOINTS
 62
     0
100
AcDbPoint
 10
-7.20801982673494
 20
97.73422966173411
 30
0.0
  0
POINT
  5
7C91
330
7252
100
AcDbEntity
  8
DEFPOINTS
 62
     0
100
AcDbPoint
 10
25.09840851560025
 20
99.42733782772265
 30
0.0
  0
ENDBLK
  5
725D
330
7252
100
AcDbEntity
  8
0
100
AcDbBlockEnd
  0
BLOCK
  5
72FC
330
72ED
100
AcDbEntity
  8
0
100
AcDbBlockBegin
  2
*D10
 70
     1
 10
0.0
 20
0.0
 30
0.0
  3
*D10
  1

  0
LINE
  5
7C7C
330
72ED
100
AcDbEntity
  8
AM_5
 62
     3
100
AcDbLine
 10
12.2559642046115
 20
73.7199851908695
 30
0.0
 11
16.03761082759285
 21
73.91817289241316
 31
0.0
  0
LINE
  5
7C7D
330
72ED
100
AcDbEntity
  8
AM_5
 62
     3
100
AcDbLine
 10
-2.904449741364839
 20
73.03013347543512
 30
0.0
 11
15.81925632797169
 21
75.99567718202816
 31
0.0
  0
ARC
  5
7C7E
330
72ED
100
AcDbEntity
  8
AM_5
 62
     3
100
AcDbCircle
 10
-3.892138081959991
 20
72.87369901039489
 30
0.0
 40
18.95709942070844
100
AcDbArc
 50
347.8770693351647
 51
355.4385346675823
  0
ARC
  5
7C7F
330
72ED
100
AcDbEntity
  8
AM_5
 62
     3
100
AcDbCircle
 10
-3.892138081959991
 20
72.87369901039489
 30
0.0
 40
18.95709942070844
100
AcDbArc
 50
16.5614653324178
 51
24.12293066483547
  0
ARC
  5
7C80
330
72ED
100
AcDbEntity
  8
AM_5
 62
     3
100
AcDbCircle
 10
-3.892138081959991
 20
72.87369901039489
 30
0.0
 40
18.95709942070844
100
AcDbArc
 50
3.00000000000003
 51
9.000000000000127
  0
INSERT
  5
7C81
330
72ED
100
AcDbEntity
  8
AM_5
 62
     3
100
AcDbBlockReference
  2
_OPEN30
 10
15.03898129283828
 20
73.86583693617023
 30
0.0
 41
2.5
 42
2.5
 43
2.5
 50
89.21926733379118
  0
INSERT
  5
7C82
330
72ED
100
AcDbEntity
  8
AM_5
 62
     3
100
AcDbBlockReference
  2
_OPEN30
 10
14.83156798737656
 20
75.83924271698791
 30
0.0
 41
2.5
 42
2.5
 43
2.5
 50
282.7807326662089
  0
MTEXT
  5
7C83
330
72ED
100
AcDbEntity
  8
AM_5
 62
     2
100
AcDbMText
 10
16.23350659749286
 20
81.89999731542714
 30
0.0
 40
3.2
 41
0.0
 71
     5
 72
     1
  1
-6°
  7
ASAMI
 11
0.4092241746236961
 21
-0.9124338742635297
 31
0.0
1001
ACAD
1000
MTEXTBEGIN
1070
    73
1070
     1
1070
    44
1040
1.0
1070
    74
1070
     0
1000
MTEXTEND
  0
POINT
  5
7C84
330
72ED
100
AcDbEntity
  8
DEFPOINTS
 62
     0
100
AcDbPoint
 10
14.99282385214786
 20
74.52591909074794
 30
0.0
  0
POINT
  5
7C85
330
72ED
100
AcDbEntity
  8
DEFPOINTS
 62
     0
100
AcDbPoint
 10
-18.449322331585
 20
70.56806753031684
 30
0.0
  0
POINT
  5
7C86
330
72ED
100
AcDbEntity
  8
DEFPOINTS
 62
     0
100
AcDbPoint
 10
11.25733466985692
 20
73.66764923462657
 30
0.0
  0
POINT
  5
7C87
330
72ED
100
AcDbEntity
  8
DEFPOINTS
 62
     0
100
AcDbPoint
 10
-27.78660997655062
 20
71.62144280125833
 30
0.0
  0
POINT
  5
7C88
330
72ED
100
AcDbEntity
  8
DEFPOINTS
 62
     0
100
AcDbPoint
 10
-3.892138081959977
 20
72.87369901039489
 30
0.0
  0
ENDBLK
  5
72FD
330
72ED
100
AcDbEntity
  8
0
100
AcDbBlockEnd
  0
BLOCK
  5
7444
330
743A
100
AcDbEntity
  8
0
100
AcDbBlockBegin
  2
*D11
 70
     1
 10
0.0
 20
0.0
 30
0.0
  3
*D11
  1

  0
LINE
  5
7C9F
330
743A
100
AcDbEntity
  8
AM_5
 62
     3
100
AcDbLine
 10
-27.6749018360206
 20
-32.00000000000002
 30
0.0
 11
15.00000100999999
 21
-32.00000000000002
 31
0.0
  0
LINE
  5
7CA0
330
743A
100
AcDbEntity
  8
AM_5
 62
     3
100
AcDbLine
 10
1.0
 20
-0.0000000000000088
 30
0.0
 11
15.00000100999999
 21
-0.0000000000000127
 31
0.0
  0
LINE
  5
7CA1
330
743A
100
AcDbEntity
  8
AM_5
 62
     3
100
AcDbLine
 10
14.00000100999999
 20
-29.50000000000003
 30
0.0
 11
14.00000100999999
 21
-2.500000000000012
 31
0.0
  0
INSERT
  5
7CA2
330
743A
100
AcDbEntity
  8
AM_5
 62
     3
100
AcDbBlockReference
  2
_OPEN30
 10
14.00000100999999
 20
-32.00000000000002
 30
0.0
 41
2.5
 42
2.5
 43
2.5
 50
270.0
  0
INSERT
  5
7CA3
330
743A
100
AcDbEntity
  8
AM_5
 62
     3
100
AcDbBlockReference
  2
_OPEN30
 10
14.00000100999999
 20
-0.0000000000000125
 30
0.0
 41
2.5
 42
2.5
 43
2.5
 50
90.0
  0
MTEXT
  5
7CA4
330
743A
100
AcDbEntity
  8
AM_5
 62
     2
100
AcDbMText
 10
10.90000100999999
 20
-16.00000000000001
 30
0.0
 40
3.2
 41
0.0
 71
     5
 72
     1
  1
32
  7
ASAMI
 11
0.0000000000000001
 21
1.0
 31
0.0
1001
ACAD
1000
MTEXTBEGIN
1070
    73
1070
     1
1070
    44
1040
1.0
1070
    74
1070
     0
1000
MTEXTEND
  0
POINT
  5
7CA5
330
743A
100
AcDbEntity
  8
DEFPOINTS
 62
     0
100
AcDbPoint
 10
-28.6749018360206
 20
-32.00000000000002
 30
0.0
  0
POINT
  5
7CA6
330
743A
100
AcDbEntity
  8
DEFPOINTS
 62
     0
100
AcDbPoint
 10
0.0
 20
-0.0000000000000085
 30
0.0
  0
POINT
  5
7CA7
330
743A
100
AcDbEntity
  8
DEFPOINTS
 62
     0
100
AcDbPoint
 10
14.00000100999999
 20
-0.0000000000000125
 30
0.0
  0
ENDBLK
  5
7445
330
743A
100
AcDbEntity
  8
0
100
AcDbBlockEnd
  0
BLOCK
  5
76B6
330
76A7
100
AcDbEntity
  8
0
100
AcDbBlockBegin
  2
*D12
 70
     1
 10
0.0
 20
0.0
 30
0.0
  3
*D12
  1

  0
LINE
  5
7C92
330
76A7
100
AcDbEntity
  8
AM_5
 62
     3
100
AcDbLine
 10
54.9256144029095
 20
3.919115398711513
 30
0.0
 11
55.51187462014028
 21
20.70741146902965
 31
0.0
  0
LINE
  5
7C93
330
76A7
100
AcDbEntity
  8
AM_5
 62
     3
100
AcDbLine
 10
54.83837894996405
 20
3.91835410644699
 30
0.0
 11
53.9592118565953
 21
20.69386158636855
 31
0.0
  0
ARC
  5
7C94
330
76A7
100
AcDbEntity
  8
AM_5
 62
     3
100
AcDbCircle
 10
54.89071490620699
 20
2.91972457169242
 30
0.0
 40
16.79852928047473
100
AcDbArc
 50
70.93041445592946
 51
79.46520722796474
  0
ARC
  5
7C95
330
76A7
100
AcDbEntity
  8
AM_5
 62
     3
100
AcDbCircle
 10
54.89071490620699
 20
2.91972457169242
 30
0.0
 40
16.79852928047473
100
AcDbArc
 50
101.5347927720353
 51
110.0695855440706
  0
ARC
  5
7C96
330
76A7
100
AcDbEntity
  8
AM_5
 62
     3
100
AcDbCircle
 10
54.89071490620699
 20
2.91972457169242
 30
0.0
 40
16.79852928047473
100
AcDbArc
 50
88.00000000000002
 51
93.00000000000006
  0
INSERT
  5
7C97
330
76A7
100
AcDbEntity
  8
AM_5
 62
     3
100
AcDbBlockReference
  2
_OPEN30
 10
55.47697512343778
 20
19.70802064201055
 30
0.0
 41
2.5
 42
2.5
 43
2.5
 50
173.7326036139823
  0
INSERT
  5
7C98
330
76A7
100
AcDbEntity
  8
AM_5
 62
     3
100
AcDbBlockReference
  2
_OPEN30
 10
54.01154781283825
 20
19.69523205161398
 30
0.0
 41
2.5
 42
2.5
 43
2.5
 50
7.267396386017689
  0
MTEXT
  5
7C99
330
76A7
100
AcDbEntity
  8
AM_5
 62
     2
100
AcDbMText
 10
48.06231282369194
 20
21.60994641428739
 30
0.0
 40
3.2
 41
0.0
 71
     5
 72
     1
  1
-5°
  7
ASAMI
 11
0.9392765454748758
 21
0.3431611445382231
 31
0.0
1001
ACAD
1000
MTEXTBEGIN
1070
    73
1070
     1
1070
    44
1040
1.0
1070
    74
1070
     0
1000
MTEXTEND
  0
POINT
  5
7C9A
330
76A7
100
AcDbEntity
  8
DEFPOINTS
 62
     0
100
AcDbPoint
 10
54.98844423671979
 20
19.71796956826644
 30
0.0
  0
POINT
  5
7C9B
330
76A7
100
AcDbEntity
  8
DEFPOINTS
 62
     0
100
AcDbPoint
 10
54.89071490620699
 20
2.91972457169242
 30
0.0
  0
POINT
  5
7C9C
330
76A7
100
AcDbEntity
  8
DEFPOINTS
 62
     0
100
AcDbPoint
 10
54.40653502094619
 20
-10.94537325712908
 30
0.0
  0
POINT
  5
7C9D
330
76A7
100
AcDbEntity
  8
DEFPOINTS
 62
     0
100
AcDbPoint
 10
54.89071490620699
 20
2.91972457169242
 30
0.0
  0
POINT
  5
7C9E
330
76A7
100
AcDbEntity
  8
DEFPOINTS
 62
     0
100
AcDbPoint
 10
55.33994305225911
 20
-5.652059087102639
 30
0.0
  0
ENDBLK
  5
76B7
330
76A7
100
AcDbEntity
  8
0
100
AcDbBlockEnd
  0
BLOCK
  5
7B1B
330
7B11
100
AcDbEntity
  8
0
100
AcDbBlockBegin
  2
*D13
 70
     1
 10
0.0
 20
0.0
 30
0.0
  3
*D13
  1

  0
LINE
  5
7C61
330
7B11
100
AcDbEntity
  8
AM_5
 62
     3
100
AcDbLine
 10
0.0000000000000005
 20
0.9999999999999914
 30
0.0
 11
0.0000000000000025
 21
34.45242865759208
 31
0.0
  0
LINE
  5
7C62
330
7B11
100
AcDbEntity
  8
AM_5
 62
     3
100
AcDbLine
 10
-150.0
 20
-6.000000000000008
 30
0.0
 11
-150.0
 21
34.45242865759208
 31
0.0
  0
LINE
  5
7C63
330
7B11
100
AcDbEntity
  8
AM_5
 62
     3
100
AcDbLine
 10
-2.499999999999997
 20
33.45242865759209
 30
0.0
 11
-147.5
 21
33.45242865759209
 31
0.0
  0
INSERT
  5
7C64
330
7B11
100
AcDbEntity
  8
AM_5
 62
     3
100
AcDbBlockReference
  2
_OPEN30
 10
0.0000000000000025
 20
33.45242865759209
 30
0.0
 41
2.5
 42
2.5
 43
2.5
  0
INSERT
  5
7C65
330
7B11
100
AcDbEntity
  8
AM_5
 62
     3
100
AcDbBlockReference
  2
_OPEN30
 10
-150.0
 20
33.45242865759209
 30
0.0
 41
2.5
 42
2.5
 43
2.5
 50
180.0
  0
MTEXT
  5
7C66
330
7B11
100
AcDbEntity
  8
AM_5
 62
     2
100
AcDbMText
 10
-75.0
 20
36.55242865759209
 30
0.0
 40
3.2
 41
0.0
 71
     5
 72
     1
  1
150
  7
ASAMI
1001
ACAD
1000
MTEXTBEGIN
1070
    73
1070
     1
1070
    44
1040
1.0
1070
    74
1070
     0
1000
MTEXTEND
  0
POINT
  5
7C67
330
7B11
100
AcDbEntity
  8
DEFPOINTS
 62
     0
100
AcDbPoint
 10
0.0000000000000004
 20
-0.0000000000000085
 30
0.0
  0
POINT
  5
7C68
330
7B11
100
AcDbEntity
  8
DEFPOINTS
 62
     0
100
AcDbPoint
 10
-150.0
 20
-7.000000000000008
 30
0.0
  0
POINT
  5
7C69
330
7B11
100
AcDbEntity
  8
DEFPOINTS
 62
     0
100
AcDbPoint
 10
-150.0
 20
33.45242865759209
 30
0.0
  0
ENDBLK
  5
7B1C
330
7B11
100
AcDbEntity
  8
0
100
AcDbBlockEnd
  0
ENDSEC
  0
SECTION
  2
ENTITIES
  0
TEXT
  5
C58
330
1F
100
AcDbEntity
  8
AM_6
100
AcDbText
 10
-103.6904761904761
 20
-54.50000000000009
 30
0.0
 40
5.0
  1
MTJNR2525-33
 50
0.0000000000002036
 72
     4
 11
-74.99999999999992
 21
-52.0
 31
0.0
100
AcDbText
  0
LINE
  5
5F9C
330
1F
100
AcDbEntity
  8
AM_0
100
AcDbLine
 10
-28.67490183602058
 20
-32.00000000000001
 30
0.0
 11
-150.0
 21
-32.00000000000001
 31
0.0
  0
LINE
  5
5FA5
330
1F
100
AcDbEntity
  8
AM_0
100
AcDbLine
 10
-150.0
 20
-7.000000000000008
 30
0.0
 11
-150.0
 21
-32.00000000000001
 31
0.0
  0
LINE
  5
5FAD
330
1F
100
AcDbEntity
  8
AM_0
100
AcDbLine
 10
-27.07972992762925
 20
-6.999999999999994
 30
0.0
 11
-150.0
 21
-7.000000000000008
 31
0.0
  0
LINE
  5
5FB6
330
1F
100
AcDbEntity
  8
AM_0
100
AcDbLine
 10
-9.329172793768066
 20
-19.4367366640195
 30
0.0
 11
-28.6749018360206
 21
-32.00000000000002
 31
0.0
  0
LINE
  5
5FBF
330
1F
100
AcDbEntity
  8
AM_0
100
AcDbLine
 10
-32.00000000000001
 20
-7.000000000000008
 30
0.0
 11
-32.00000000000001
 21
-32.00000000000001
 31
0.0
  0
LINE
  5
603E
330
1F
100
AcDbEntity
  8
AM_0
100
AcDbLine
 10
-19.18264302535662
 20
-1.871571801523609
 30
0.0
 11
-27.07972992762926
 21
-7.000000000000008
 31
0.0
  0
LINE
  5
60F9
330
1F
100
AcDbEntity
  8
AM_0
100
AcDbLine
 10
-156.8314999577867
 20
89.89279533946533
 30
0.0
 11
-8.072874625841034
 21
97.68890454231067
 31
0.0
  0
LINE
  5
60FA
330
1F
100
AcDbEntity
  8
AM_0
100
AcDbLine
 10
-154.2126625241573
 20
65.03248858287893
 30
0.0
 11
-155.521061430231
 21
89.99822695174328
 31
0.0
  0
LINE
  5
6103
330
1F
100
AcDbEntity
  8
AM_0
100
AcDbLine
 10
-155.5231010517132
 20
64.92705697060097
 30
0.0
 11
-35.26643226849711
 21
71.22944192550562
 31
0.0
  0
LINE
  5
6111
330
1F
100
AcDbEntity
  8
AM_0
100
AcDbLine
 10
-29.85640646055102
 20
-7.000000000000008
 30
0.0
 11
-29.85640646055102
 21
-32.00000000000001
 31
0.0
  0
LINE
  5
6131
330
1F
100
AcDbEntity
  8
AM_0
100
AcDbLine
 10
-6.264230845400472
 20
-13.4214493973899
 30
0.0
 11
-9.329172793768083
 21
-19.43673666401952
 31
0.0
  0
LINE
  5
6165
330
1F
100
AcDbEntity
  8
AM_0
100
AcDbLine
 10
-29.16764582214342
 20
96.58337442942858
 30
0.0
 11
-28.09232477755022
 21
76.06502659435547
 31
0.0
  0
LINE
  5
6171
330
1F
100
AcDbEntity
  8
AM_0
100
AcDbLine
 10
51.2937987327271
 20
-27.85265566637344
 30
0.0
 11
81.4700579477604
 21
-26.22754725856863
 31
0.0
  0
LINE
  5
6187
330
1F
100
AcDbEntity
  8
AM_0
100
AcDbLine
 10
81.45261525261435
 20
-26.22846139148594
 30
0.0
 11
79.98834205548603
 21
1.711535631095979
 31
0.0
  0
LINE
  5
61B2
330
1F
100
AcDbEntity
  8
AM_0
100
AcDbLine
 10
-23.02574902409167
 20
76.86940684841478
 30
0.0
 11
-26.97317472594257
 21
96.59361667482849
 31
0.0
  0
LINE
  5
627C
330
1F
100
AcDbEntity
  8
AM_0
100
AcDbLine
 10
-6.901576897556601
 20
-14.69964095716111
 30
0.0
 11
-7.91419207466831
 21
-13.14035032409988
 31
0.0
  0
LINE
  5
6286
330
1F
100
AcDbEntity
  8
AM_0
100
AcDbLine
 10
-15.36224584828914
 20
-1.671353269494014
 30
0.0
 11
-19.18264302535666
 21
-1.87157180152358
 31
0.0
  0
LINE
  5
628D
330
1F
100
AcDbEntity
  8
AM_7
100
AcDbLine
 10
-15.82787571499711
 20
99.19221117048429
 30
0.0
 11
-10.77603615299229
 21
67.29615148398116
 31
0.0
  0
LINE
  5
6345
330
1F
100
AcDbEntity
  8
AM_11
100
AcDbLine
 10
0.0
 20
-0.0000000000000085
 30
0.0
 11
0.0
 21
-0.8000000000000198
 31
0.0
  0
LINE
  5
634D
330
1F
100
AcDbEntity
  8
AM_11
100
AcDbLine
 10
0.0
 20
-0.0000000000000085
 30
0.0
 11
-0.8419262234264195
 21
-0.0000000000000085
 31
0.0
  0
LINE
  5
638B
330
1F
100
AcDbEntity
  8
AM_7
100
AcDbLine
 10
-3.79056667848107
 20
-2.745659643679525
 30
0.0
 11
-25.26358422793451
 21
-16.69040028915797
 31
0.0
  0
LINE
  5
64EC
330
1F
100
AcDbEntity
  8
AM_7
100
AcDbLine
 10
-5.350245290032479
 20
-8.344158486921779
 30
0.0
 11
-9.901092627341594
 21
-1.336468116530463
 31
0.0
  0
LINE
  5
68B3
330
1F
100
AcDbEntity
  8
AM_0
100
AcDbLine
 10
-17.49282526018497
 20
-24.73827456393625
 30
0.0
 11
-29.01219545222728
 21
-6.999999999999994
 31
0.0
  0
LINE
  5
68BF
330
1F
100
AcDbEntity
  8
AM_0
100
AcDbLine
 10
-12.02336762749876
 20
-2.130774790252226
 30
0.0
 11
-20.01322159620344
 21
-2.549505293547846
 31
0.0
  0
LINE
  5
68C7
330
1F
100
AcDbEntity
  8
AM_0
100
AcDbLine
 10
-16.23481940826682
 20
-23.92131601141373
 30
0.0
 11
-17.31417086236074
 21
-22.25926052361214
 31
0.0
  0
LINE
  5
68CF
330
1F
100
AcDbEntity
  8
AM_7
100
AcDbLine
 10
-10.91764800749282
 20
-20.46830452941848
 30
0.0
 11
-23.71744299222422
 21
-0.7583486884207474
 31
0.0
  0
LINE
  5
68DD
330
1F
100
AcDbEntity
  8
AM_0
100
AcDbLine
 10
-20.01322159620344
 20
-2.549505293547846
 30
0.0
 11
-28.37567934454929
 21
-7.980148853116967
 31
0.0
  0
LINE
  5
68DE
330
1F
100
AcDbEntity
  8
AM_0
100
AcDbLine
 10
-6.577423234774073
 20
-10.51679375549148
 30
0.0
 11
-10.20971896593297
 21
-17.64557551656546
 31
0.0
  0
LINE
  5
68DF
330
1F
100
AcDbEntity
  8
AM_0
100
AcDbLine
 10
-10.20971896593297
 20
-17.64557551656546
 30
0.0
 11
-18.57217671427878
 21
-23.07621907613461
 31
0.0
  0
LINE
  5
68E0
330
1F
100
AcDbEntity
  8
AM_0
100
AcDbLine
 10
-6.577423234774073
 20
-10.51679375549148
 30
0.0
 11
-12.02336762749876
 21
-2.130774790252226
 31
0.0
  0
CIRCLE
  5
68E1
330
1F
100
AcDbEntity
  8
AM_0
100
AcDbCircle
 10
-16.89875077672197
 20
-11.25821393010802
 30
0.0
 40
4.25
  0
POINT
  5
68EE
330
1F
100
AcDbEntity
  8
0
 60
     1
100
AcDbPoint
 10
0.0
 20
0.0
 30
0.0
1001
GENIUS_GENOBJ-NBEHI-BHF_13
1002
{
1000
OWNER
1000
GENBEHI
1002
}
1001
GENIUS_GENOENT_13
1002
{
1000
MYREF
1005
68EE
1002
}
1002
{
1000
GRP
1005
0
1002
}
1001
GENIUS_GENOLIS_13
1002
{
1000
ENT
1005
68EB
1002
}
1001
GENIUS_GENBH_13
1002
{
1000
OIUMAP
1000
OIU
1002
}
1002
{
1000
FLAGS
1070
    32
1002
}
1002
{
1000
BGO
1005
68F2
1002
}
1001
GENIUS_GENODEF_13
1002
{
1000
HIER
1070
     1
1002
}
1002
{
1000
MANEDIT
1070
     1
1002
}
1002
{
1000
NOSEL
1070
     1
1002
}
1002
{
1000
BEHIND
1070
     0
1002
}
1002
{
1000
REACTOR
1002
}
  0
POINT
  5
68F2
330
1F
100
AcDbEntity
  8
0
 60
     1
100
AcDbPoint
 10
0.0
 20
0.0
 30
0.0
1001
GENIUS_GENOBJ-NBEHI-BHB_13
1002
{
1000
OWNER
1000
GENBEHI
1002
}
1001
GENIUS_GENOENT_13
1002
{
1000
MYREF
1005
68F2
1002
}
1002
{
1000
GRP
1005
0
1002
}
1001
GENIUS_GENOLIS_13
1002
{
1000
ENT
1002
}
1001
GENIUS_GENODEF_13
1002
{
1000
HIER
1070
     1
1002
}
1002
{
1000
MANEDIT
1070
     0
1002
}
1002
{
1000
NOSEL
1070
     1
1002
}
1002
{
1000
BEHIND
1070
     0
1002
}
1002
{
1000
REACTOR
1002
}
1002
{
1000
OTHER
1070
     1
1002
}
1001
GENIUS_GENBH_13
1002
{
1000
FGO
1005
68EE
1002
}
  0
LINE
  5
6905
330
1F
100
AcDbEntity
  8
AM_0N
100
AcDbLine
 10
-18.05345131510122
 20
-9.258213930108022
 30
0.0
 11
-19.20815185348047
 21
-11.25821393010802
 31
0.0
1001
GENIUS_GENOREF_13
1005
68EE
  0
LINE
  5
6906
330
1F
100
AcDbEntity
  8
AM_0N
100
AcDbLine
 10
-14.58934969996347
 20
-11.25821393010802
 30
0.0
 11
-15.74405023834272
 21
-9.258213930108022
 31
0.0
1001
GENIUS_GENOREF_13
1005
68EE
  0
LINE
  5
6907
330
1F
100
AcDbEntity
  8
AM_0N
100
AcDbLine
 10
-15.74405023834272
 20
-9.258213930108022
 30
0.0
 11
-18.05345131510122
 21
-9.258213930108022
 31
0.0
1001
GENIUS_GENOREF_13
1005
68EE
  0
LINE
  5
6909
330
1F
100
AcDbEntity
  8
AM_0N
100
AcDbLine
 10
-18.05345131510102
 20
-13.25821393010813
 30
0.0
 11
-15.74405023834293
 21
-13.25821393010813
 31
0.0
1001
GENIUS_GENOREF_13
1005
68EE
  0
LINE
  5
690A
330
1F
100
AcDbEntity
  8
AM_0N
100
AcDbLine
 10
-15.74405023834293
 20
-13.25821393010813
 30
0.0
 11
-14.58934969996347
 21
-11.25821393010802
 31
0.0
1001
GENIUS_GENOREF_13
1005
68EE
  0
LINE
  5
690B
330
1F
100
AcDbEntity
  8
AM_0N
100
AcDbLine
 10
-19.20815185348047
 20
-11.25821393010802
 30
0.0
 11
-18.05345131510102
 21
-13.25821393010813
 31
0.0
1001
GENIUS_GENOREF_13
1005
68EE
  0
CIRCLE
  5
697A
330
1F
100
AcDbEntity
  8
AM_0N
100
AcDbCircle
 10
-16.89875077672197
 20
-11.25821393010802
 30
0.0
 40
2.75
1001
GENIUS_GENOREF_13
1005
68EE
  0
LINE
  5
697B
330
1F
100
AcDbEntity
  8
AM_0
100
AcDbLine
 10
-27.11767349263115
 20
-7.163190300594473
 30
0.0
 11
-27.22365051297337
 21
-6.999999999999994
 31
0.0
  0
LINE
  5
697C
330
1F
100
AcDbEntity
  8
AM_0
100
AcDbLine
 10
-14.9638186841262
 20
-2.284877300220537
 30
0.0
 11
-15.34353290370373
 21
-1.700168677230899
 31
0.0
  0
CIRCLE
  5
6986
330
1F
100
AcDbEntity
  8
AM_0
100
AcDbCircle
 10
-7.44646425096748
 20
-5.116264352494093
 30
0.0
 40
1.817499999999999
  0
LINE
  5
6987
330
1F
100
AcDbEntity
  8
AM_0
100
AcDbLine
 10
-6.318896578391459
 20
-13.39359581521572
 30
0.0
 11
-0.0871947806493125
 21
-1.163192399791662
 31
0.0
  0
ARC
  5
6988
330
1F
100
AcDbEntity
  8
AM_0
100
AcDbCircle
 10
-0.8000000000000042
 20
-0.8000000000000198
 30
0.0
 40
0.8000000000000003
100
AcDbArc
 50
332.9999999999995
 51
92.99999999999897
  0
LINE
  5
6989
330
1F
100
AcDbEntity
  8
AM_0
100
AcDbLine
 10
-0.841868764994345
 20
-0.001096372196352
 30
0.0
 11
-14.54955972015461
 21
-0.7194860142545651
 31
0.0
  0
ARC
  5
698A
330
1F
100
AcDbEntity
  8
AM_0
100
AcDbCircle
 10
-14.50769095516027
 20
-1.518389642058232
 30
0.0
 40
0.8000000000000083
100
AcDbArc
 50
92.99999999999947
 51
212.9999999999985
  0
LINE
  5
698B
330
1F
100
AcDbEntity
  8
AM_0
100
AcDbLine
 10
-15.1786274095166
 20
-1.954100870070229
 30
0.0
 11
-14.96381868412622
 21
-2.284877300220566
 31
0.0
  0
ARC
  5
698C
330
1F
100
AcDbEntity
  8
AM_0
100
AcDbCircle
 10
-7.031701797742147
 20
-13.03040341542411
 30
0.0
 40
0.7999999999999812
100
AcDbArc
 50
212.9999999999987
 51
333.0000000000012
  0
LINE
  5
698D
330
1F
100
AcDbEntity
  8
AM_0
100
AcDbLine
 10
-7.914192074668285
 20
-13.14035032409982
 30
0.0
 11
-7.702638252098481
 21
-13.4661146434361
 31
0.0
  0
LINE
  5
6993
330
1F
100
AcDbEntity
  8
AM_0
100
AcDbLine
 10
-18.44932233158501
 20
70.56806753031685
 30
0.0
 11
-19.69141198400446
 21
78.41031295464225
 31
0.0
  0
LINE
  5
69A2
330
1F
100
AcDbEntity
  8
AM_0
100
AcDbLine
 10
-5.134227734379405
 20
80.71594443472028
 30
0.0
 11
-3.892138081959981
 21
72.8736990103949
 31
0.0
  0
LINE
  5
69B2
330
1F
100
AcDbEntity
  8
AM_0
100
AcDbLine
 10
-18.449322331585
 20
70.56806753031684
 30
0.0
 11
-3.892138081959981
 21
72.8736990103949
 31
0.0
  0
LINE
  5
69B4
330
1F
100
AcDbEntity
  8
AM_0
100
AcDbLine
 10
-5.686098869866978
 20
80.62847443332087
 30
0.0
 11
-8.078400107175315
 21
97.6505822240866
 31
0.0
  0
LINE
  5
69F6
330
1F
100
AcDbEntity
  8
AM_0
100
AcDbLine
 10
-31.65073295282084
 20
73.94448117683322
 30
0.0
 11
-20.26905049001321
 21
75.74716258365663
 31
0.0
  0
LINE
  5
69F7
330
1F
100
AcDbEntity
  8
AM_0
100
AcDbLine
 10
-32.21909364422293
 20
65.34444805068557
 30
0.0
 11
-31.65123368466057
 21
73.94764267324487
 31
0.0
  0
LINE
  5
6A00
330
1F
100
AcDbEntity
  8
AM_0
100
AcDbLine
 10
-11.57766417761406
 20
-18.53392952410937
 30
0.0
 11
-14.1807742043778
 21
-14.52549159694141
 31
0.0
  0
LINE
  5
6A04
330
1F
100
AcDbEntity
  8
AM_0
100
AcDbLine
 10
-12.41633474555946
 20
-19.07856855912437
 30
0.0
 11
-15.0194447723232
 21
-15.07013063195641
 31
0.0
  0
LINE
  5
6A05
330
1F
100
AcDbEntity
  8
AM_0
100
AcDbLine
 10
-19.61672734906615
 20
-7.990936263274628
 30
0.0
 11
-22.21983737582988
 21
-3.982498336106667
 31
0.0
  0
LINE
  5
6A06
330
1F
100
AcDbEntity
  8
AM_0
100
AcDbLine
 10
-18.77805678112074
 20
-7.446297228259632
 30
0.0
 11
-21.38116680788444
 21
-3.4378593010917
 31
0.0
  0
LINE
  5
6A10
330
1F
100
AcDbEntity
  8
AM_0
100
AcDbLine
 10
-15.85488781289346
 20
70.97898558951847
 30
0.0
 11
-15.77667058037335
 21
70.4851414192209
 31
0.0
  0
LINE
  5
6A2A
330
1F
100
AcDbEntity
  8
AM_0
100
AcDbLine
 10
-17.41224957396011
 20
70.7323237186091
 30
0.0
 11
-17.98819334572788
 21
70.50223812296469
 31
0.0
  0
ARC
  5
6A2B
330
1F
100
AcDbEntity
  8
AM_0
100
AcDbCircle
 10
-18.47241711288313
 20
70.62684688398096
 30
0.0
 40
0.5
100
AcDbArc
 50
98.69336708299069
 51
345.5687859873742
  0
LINE
  5
6A2D
330
1F
100
AcDbEntity
  8
AM_0
100
AcDbLine
 10
-18.62152381616755
 20
71.65530491442914
 30
0.0
 11
-20.24795190025262
 21
75.72653380919529
 31
0.0
  0
LINE
  5
6A35
330
1F
100
AcDbEntity
  8
AM_0
100
AcDbLine
 10
-19.33394979780714
 20
66.88432836392554
 30
0.0
 11
-15.77553228129458
 21
70.47794228791016
 31
0.0
  0
LINE
  5
6A41
330
1F
100
AcDbEntity
  8
AM_0
100
AcDbLine
 10
-25.56050147760814
 20
69.94799996412051
 30
0.0
 11
-24.9347636174472
 21
65.99724660173992
 31
0.0
  0
LINE
  5
6A46
330
1F
100
AcDbEntity
  8
AM_0
100
AcDbLine
 10
-26.553660415283
 20
69.84361475347888
 30
0.0
 11
-25.99796386052582
 21
66.33508478918101
 31
0.0
  0
LINE
  5
6A56
330
1F
100
AcDbEntity
  8
AM_0
100
AcDbLine
 10
-8.264376334573832
 20
-13.82762563145298
 30
0.0
 11
-15.73410868964057
 21
-2.32524648881347
 31
0.0
  0
LINE
  5
6A5E
330
1F
100
AcDbEntity
  8
AM_0
100
AcDbLine
 10
-33.63633253214309
 20
65.1252860421344
 30
0.0
 11
-25.01298084996732
 21
66.4910907720375
 31
0.0
  0
LINE
  5
6A5F
330
1F
100
AcDbEntity
  8
AM_0
100
AcDbLine
 10
-25.18246612776323
 20
65.95801437827653
 30
0.0
 11
-14.36871237061691
 21
67.6707447149095
 31
0.0
  0
ARC
  5
6A69
330
1F
100
AcDbEntity
  8
AM_0
100
AcDbCircle
 10
-26.05434564790552
 20
69.86978273160038
 30
0.0
 40
0.5
100
AcDbArc
 50
9.000000000000218
 51
182.9999999999984
  0
LINE
  5
6A79
330
1F
100
AcDbEntity
  8
AM_0
100
AcDbLine
 10
-20.35669966507736
 20
77.28233033533109
 30
0.0
 11
-20.46288629968182
 21
75.7164620074274
 31
0.0
  0
LINE
  5
6A7A
330
1F
100
AcDbEntity
  8
AM_0
100
AcDbLine
 10
-33.6363325321431
 20
65.12528604213443
 30
0.0
 11
-35.26643226849715
 21
71.22944192550564
 31
0.0
  0
LINE
  5
6A81
330
1F
100
AcDbEntity
  8
AM_7
100
AcDbLine
 10
-24.13243283735225
 20
86.49629129185877
 30
0.0
 11
-20.02144437383822
 21
60.54053165353543
 31
0.0
  0
LINE
  5
6A8B
330
1F
100
AcDbEntity
  8
AM_0
100
AcDbLine
 10
-24.98359581457963
 20
75.05008673559474
 30
0.0
 11
-23.58366008129693
 21
66.21124037913358
 31
0.0
  0
LINE
  5
6AA1
330
1F
100
AcDbEntity
  8
AM_0
100
AcDbLine
 10
-10.88965038570322
 20
71.76540194050244
 30
0.0
 11
-10.81143315318311
 21
71.27155777020483
 31
0.0
  0
LINE
  5
6AA9
330
1F
100
AcDbEntity
  8
AM_0
100
AcDbLine
 10
-16.4042559772614
 20
64.87042912715728
 30
0.0
 11
-16.79534213986197
 21
67.3396499786451
 31
0.0
  0
LINE
  5
6AAD
330
1F
100
AcDbEntity
  8
AM_0
100
AcDbLine
 10
-24.79960687232007
 20
63.5407361743153
 30
0.0
 11
-25.19069303492068
 21
66.00995702580314
 31
0.0
  0
LINE
  5
6AB5
330
1F
100
AcDbEntity
  8
AM_0
100
AcDbLine
 10
-23.08342266386702
 20
62.29385536098295
 30
0.0
 11
-17.65113679059376
 21
63.15424491870422
 31
0.0
  0
LINE
  5
6B26
330
1F
100
AcDbEntity
  8
AM_0
100
AcDbLine
 10
-17.65113679059376
 20
63.15424491870423
 30
0.0
 11
-16.4042559772614
 21
64.87042912715728
 31
0.0
1001
GENIUS_GENFIL_13
1070
     0
1040
1.5
1040
1.5
1040
20.0
1040
0.0
1002
{
1002
}
1001
GENIUS_GENODEF_13
1002
{
1000
HIER
1070
     0
1002
}
1002
{
1000
MANEDIT
1070
     0
1002
}
1002
{
1000
NOSEL
1070
     0
1002
}
1002
{
1000
BEHIND
1070
     0
1002
}
1002
{
1000
REACTOR
1002
}
1001
GENIUS_GENOBJ-N-CHA_13
1002
{
1000
OWNER
1000
GEN
1002
}
  0
LINE
  5
6B29
330
1F
100
AcDbEntity
  8
AM_0
100
AcDbLine
 10
-23.08342266386702
 20
62.29385536098295
 30
0.0
 11
-24.79960687232007
 21
63.5407361743153
 31
0.0
1001
GENIUS_GENFIL_13
1070
     0
1040
1.5
1040
1.5
1040
20.0
1040
0.0
1002
{
1002
}
1001
GENIUS_GENODEF_13
1002
{
1000
HIER
1070
     0
1002
}
1002
{
1000
MANEDIT
1070
     0
1002
}
1002
{
1000
NOSEL
1070
     0
1002
}
1002
{
1000
BEHIND
1070
     0
1002
}
1002
{
1000
REACTOR
1002
}
1001
GENIUS_GENOBJ-N-CHA_13
1002
{
1000
OWNER
1000
GEN
1002
}
  0
LINE
  5
6B2B
330
1F
100
AcDbEntity
  8
AM_0
100
AcDbLine
 10
-16.4042559772614
 20
64.87042912715728
 30
0.0
 11
-24.79960687232007
 21
63.54073617431531
 31
0.0
  0
LINE
  5
6B3E
330
1F
100
AcDbEntity
  8
AM_0
100
AcDbLine
 10
54.4065350209462
 20
-10.94537325712908
 30
0.0
 11
54.89071490620701
 21
2.919724571692418
 31
0.0
  0
LINE
  5
6C0F
330
1F
100
AcDbEntity
  8
AM_0
100
AcDbLine
 10
79.95041348913279
 20
1.709547879162017
 30
0.0
 11
62.81358922118113
 21
2.307978969243734
 31
0.0
  0
LINE
  5
6C20
330
1F
100
AcDbEntity
  8
AM_0
100
AcDbLine
 10
62.33149441526723
 20
-11.49740999928491
 30
0.0
 11
62.82527596739427
 21
2.642643593856498
 31
0.0
  0
LINE
  5
6C82
330
1F
100
AcDbEntity
  8
AM_0
100
AcDbLine
 10
62.8252759673943
 20
2.642643593856503
 30
0.0
 11
54.89071490620701
 21
2.919724571692418
 31
0.0
  0
LINE
  5
6D36
330
1F
100
AcDbEntity
  8
AM_0
100
AcDbLine
 10
62.3410960821335
 20
-11.222454234965
 30
0.0
 11
54.4065350209462
 21
-10.94537325712908
 31
0.0
  0
LINE
  5
6D42
330
1F
100
AcDbEntity
  8
AM_0
100
AcDbLine
 10
-19.19395038517652
 20
75.26946403154972
 30
0.0
 11
-4.636766135551487
 21
77.57509551162775
 31
0.0
  0
LINE
  5
6D4A
330
1F
100
AcDbEntity
  8
AM_0
100
AcDbLine
 10
-19.69141198400446
 20
78.41031295464225
 30
0.0
 11
-5.134227734379405
 21
80.71594443472028
 31
0.0
  0
LINE
  5
6D52
330
1F
100
AcDbEntity
  8
AM_0
100
AcDbLine
 10
-19.53497751896422
 20
77.4226246140471
 30
0.0
 11
-32.13350270799725
 21
75.4272142530675
 31
0.0
  0
LINE
  5
6D59
330
1F
100
AcDbEntity
  8
AM_7
100
AcDbLine
 10
82.15093457074013
 20
-2.818428558878078
 30
0.0
 11
51.4614178698036
 21
-1.746727020351519
 31
0.0
  0
LINE
  5
6D63
330
1F
100
AcDbEntity
  8
AM_0
100
AcDbLine
 10
54.52076125337429
 20
-7.674361933765121
 30
0.0
 11
54.02106583986473
 21
-7.656912185413874
 31
0.0
  0
LINE
  5
6D6D
330
1F
100
AcDbEntity
  8
AM_0
100
AcDbLine
 10
54.81454122882264
 20
0.7383958526216183
 30
0.0
 11
54.31484581531305
 21
0.7558456009728611
 31
0.0
  0
LINE
  5
6D9B
330
1F
100
AcDbEntity
  8
AM_0
100
AcDbLine
 10
59.1636353575571
 20
-11.11149486143298
 30
0.0
 11
59.64781524281791
 21
2.753602967388511
 31
0.0
  0
LINE
  5
6DA4
330
1F
100
AcDbEntity
  8
AM_0
100
AcDbLine
 10
51.04695982980386
 20
-21.18989431014944
 30
0.0
 11
61.03845187061152
 21
-19.87159546578812
 31
0.0
  0
LINE
  5
6DAF
330
1F
100
AcDbEntity
  8
AM_0
100
AcDbLine
 10
51.10708546616541
 20
-19.46812135850317
 30
0.0
 11
59.14943146125569
 21
-18.39513123700712
 31
0.0
  0
LINE
  5
6DB7
330
1F
100
AcDbEntity
  8
AM_0
100
AcDbLine
 10
59.14943146125569
 20
-18.39513123700712
 30
0.0
 11
59.37659207525275
 21
-11.89010235868509
 31
0.0
  0
LINE
  5
6DC8
330
1F
100
AcDbEntity
  8
AM_0
100
AcDbLine
 10
54.02258668564304
 20
-7.613360860501829
 30
0.0
 11
54.31542443997344
 21
0.7724152433036968
 31
0.0
  0
LINE
  5
6DC9
330
1F
100
AcDbEntity
  8
AM_0
100
AcDbLine
 10
54.02258668564304
 20
-7.613360860501829
 30
0.0
 11
50.89773988396595
 21
-11.13614030010489
 31
0.0
  0
LINE
  5
6DCC
330
1F
100
AcDbEntity
  8
AM_0
100
AcDbLine
 10
59.25880841174651
 20
-15.26298517943865
 30
0.0
 11
50.7639863820842
 21
-14.96633945746742
 31
0.0
  0
LINE
  5
6ED3
330
1F
100
AcDbEntity
  8
AM_0
100
AcDbLine
 10
54.31542443997344
 20
0.7724152433036968
 30
0.0
 11
51.30070051377899
 21
0.4031423582645747
 31
0.0
  0
LINE
  5
6ED5
330
1F
100
AcDbEntity
  8
AM_0
100
AcDbLine
 10
59.3716857775701
 20
-11.913184674489
 30
0.0
 11
54.93450196741059
 21
-10.97003214030362
 31
0.0
  0
ARC
  5
6ED6
330
1F
100
AcDbEntity
  8
AM_0
100
AcDbCircle
 10
54.44542816704371
 20
-10.86607629489472
 30
0.0
 40
0.5
100
AcDbArc
 50
92.95126043947794
 51
347.9999999999992
  0
LINE
  5
6EDC
330
1F
100
AcDbEntity
  8
AM_7
100
AcDbLine
 10
83.58393925634922
 20
-9.190141213420055
 30
0.0
 11
44.03526705255487
 21
-7.809071147686637
 31
0.0
  0
LINE
  5
6EE1
330
1F
100
AcDbEntity
  8
AM_0
100
AcDbLine
 10
47.05956398099329
 20
-5.163005676777492
 30
0.0
 11
46.8676167491295
 21
-10.65965522538253
 31
0.0
  0
LINE
  5
6EE2
330
1F
100
AcDbEntity
  8
AM_0
100
AcDbLine
 10
48.31435374460439
 20
-12.2110907109649
 30
0.0
 11
48.6109994665757
 21
-3.716268681302579
 31
0.0
  0
LINE
  5
6EE3
330
1F
100
AcDbEntity
  8
AM_0
100
AcDbLine
 10
48.31435374460439
 20
-12.2110907109649
 30
0.0
 11
50.81283081215218
 21
-12.29833945272121
 31
0.0
  0
LINE
  5
6EE4
330
1F
100
AcDbEntity
  8
AM_0
100
AcDbLine
 10
46.8676167491295
 20
-10.65965522538253
 30
0.0
 11
48.31435374460439
 21
-12.2110907109649
 31
0.0
1001
GENIUS_GENFIL_13
1070
     0
1040
1.5
1040
1.5
1040
20.0
1040
0.0
1002
{
1002
}
1001
GENIUS_GENODEF_13
1002
{
1000
HIER
1070
     0
1002
}
1002
{
1000
MANEDIT
1070
     0
1002
}
1002
{
1000
NOSEL
1070
     0
1002
}
1002
{
1000
BEHIND
1070
     0
1002
}
1002
{
1000
REACTOR
1002
}
1001
GENIUS_GENOBJ-N-CHA_13
1002
{
1000
OWNER
1000
GEN
1002
}
  0
LINE
  5
6EE5
330
1F
100
AcDbEntity
  8
AM_0
100
AcDbLine
 10
48.61099946657566
 20
-3.716268681302584
 30
0.0
 11
51.10947653412339
 21
-3.803517423058856
 31
0.0
  0
LINE
  5
6EE6
330
1F
100
AcDbEntity
  8
AM_0
100
AcDbLine
 10
47.05956398099329
 20
-5.163005676777492
 30
0.0
 11
48.61099946657566
 21
-3.716268681302584
 31
0.0
1001
GENIUS_GENFIL_13
1070
     0
1040
1.5
1040
1.5
1040
20.0
1040
0.0
1002
{
1002
}
1001
GENIUS_GENODEF_13
1002
{
1000
HIER
1070
     0
1002
}
1002
{
1000
MANEDIT
1070
     0
1002
}
1002
{
1000
NOSEL
1070
     0
1002
}
1002
{
1000
BEHIND
1070
     0
1002
}
1002
{
1000
REACTOR
1002
}
1001
GENIUS_GENOBJ-N-CHA_13
1002
{
1000
OWNER
1000
GEN
1002
}
  0
DIMENSION
  5
6EEF
330
1F
100
AcDbEntity
  8
AM_5
100
AcDbDimension
  2
*D5
 10
-32.00000000000001
 20
21.37620881633531
 30
0.0
 11
-16.0
 21
24.47620881633531
 31
0.0
 70
    32
  1
<>
  3
AM_JIS
100
AcDbAlignedDimension
 13
0.0
 23
-0.0000000000000085
 33
0.0
 14
-32.00000000000001
 24
-5.000000000000008
 34
0.0
 50
180.0
100
AcDbRotatedDimension
1001
GENIUS_GENDTOL_13
1000

1000
h7
1000

1040
0.0
  0
LINE
  5
6FBA
330
1F
100
AcDbEntity
  8
AM_0
100
AcDbLine
 10
54.92752802462722
 20
-16.00402447049838
 30
0.0
 11
50.73286484749229
 21
-15.85754360459415
 31
0.0
  0
LINE
  5
6FBF
330
1F
100
AcDbEntity
  8
AM_0
100
AcDbLine
 10
54.90852039642064
 20
-16.54833172612896
 30
0.0
 11
51.21355263279527
 21
-16.41930060857596
 31
0.0
  0
ARC
  5
6FCC
330
1F
100
AcDbEntity
  8
AM_0
100
AcDbCircle
 10
54.91802421052394
 20
-16.27617809831367
 30
0.0
 40
0.2723195175075119
100
AcDbArc
 50
268.0
 51
88.00000000000002
  0
LINE
  5
6FCD
330
1F
100
AcDbEntity
  8
AM_0
100
AcDbLine
 10
50.7328648474923
 20
-15.85754360459412
 30
0.0
 11
51.30070051377899
 21
0.4031423582645747
 31
0.0
  0
DIMENSION
  5
6FED
330
1F
100
AcDbEntity
  8
AM_5
100
AcDbDimension
  2
*D6
 10
-14.54955972015461
 20
-0.7194860142545651
 30
0.0
 11
-11.8445285140027
 21
11.28306196945734
 31
0.0
 70
    34
  1
<>
  3
AM_JIS$2
100
AcDb2LineAngularDimension
 13
0.0
 23
11.68810440816766
 33
0.0
 14
0.0
 24
-16.7851149733323
 34
0.0
 15
-0.841868764994345
 25
-0.001096372196352
 35
0.0
 16
-6.813360880537875
 26
11.38236081955359
 36
0.0
1001
ACAD
1000
DSTYLE
1002
{
1070
   179
1070
     3
1070
    76
1070
     1
1070
    75
1070
     1
1002
}
1001
GENIUS_GENDTOL_13
1000

1000
h7
1000

1040
0.0
  0
DIMENSION
  5
7139
330
1F
100
AcDbEntity
  8
AM_5
100
AcDbDimension
  2
*D7
 10
-167.6673817817102
 20
64.29060218655198
 30
0.0
 11
-165.2258296770079
 21
76.93571283533731
 31
0.0
 70
    32
  1
<>
  3
AM_JIS
100
AcDbAlignedDimension
 13
-154.9949672012196
 23
89.98904394281757
 33
0.0
 14
-153.686568295146
 24
65.02330557395322
 34
0.0
 50
273.0
100
AcDbRotatedDimension
1001
GENIUS_GENDTOL_13
1000

1000
h7
1000

1040
0.0
  0
DIMENSION
  5
71C5
330
1F
100
AcDbEntity
  8
AM_5
100
AcDbDimension
  2
*D8
 10
-164.000001
 20
-32.00000000000001
 30
0.0
 11
-167.100001
 21
-19.50000000000003
 31
0.0
 70
    32
  1
<>
  3
AM_JIS
100
AcDbAlignedDimension
 13
-150.0
 23
-7.000000000000008
 33
0.0
 14
-150.0
 24
-32.00000000000001
 34
0.0
 50
270.0
100
AcDbRotatedDimension
1001
GENIUS_GENDTOL_13
1000

1000
h7
1000

1040
0.0
  0
DIMENSION
  5
7251
330
1F
100
AcDbEntity
  8
AM_5
100
AcDbDimension
  2
*D9
 10
25.09840851560025
 20
99.42733782772265
 30
0.0
 11
28.84835952637624
 21
87.10671010764361
 31
0.0
 70
    32
  1
<>
  3
AM_JIS
100
AcDbAlignedDimension
 13
-3.892138081959979
 23
72.8736990103949
 33
0.0
 14
-7.20801982673494
 24
97.73422966173409
 34
0.0
 50
93.00000000000013
100
AcDbRotatedDimension
1001
GENIUS_GENDTOL_13
1000

1000
h7
1000

1040
0.0
  0
DIMENSION
  5
72EC
330
1F
100
AcDbEntity
  8
AM_5
100
AcDbDimension
  2
*D10
 10
-3.892138081959979
 20
72.8736990103949
 30
0.0
 11
13.40496158727591
 21
80.63140237409369
 31
0.0
 70
   162
  1
-<>
  3
AM_JIS$2
100
AcDb2LineAngularDimension
 13
11.25733466985693
 23
73.66764923462657
 33
0.0
 14
-27.78660997655062
 24
71.62144280125834
 34
0.0
 15
-18.44932233158501
 25
70.56806753031684
 35
0.0
 16
14.99282385214786
 26
74.52591909074794
 36
0.0
1001
GENIUS_GENDTOL_13
1000

1000
h7
1000

1040
0.0
1001
ACAD
1000
DSTYLE
1002
{
1070
   179
1070
     3
1070
    76
1070
     0
1070
    75
1070
     0
1002
}
  0
DIMENSION
  5
7439
330
1F
100
AcDbEntity
  8
AM_5
100
AcDbDimension
  2
*D11
 10
14.00000100999999
 20
-0.0000000000000125
 30
0.0
 11
10.90000100999999
 21
-16.00000000000001
 31
0.0
 70
    32
  1
<>
  3
AM_JIS
100
AcDbAlignedDimension
 13
-28.6749018360206
 23
-32.00000000000002
 33
0.0
 14
0.0
 24
-0.0000000000000085
 34
0.0
 50
90.00000000000003
100
AcDbRotatedDimension
1001
GENIUS_GENDTOL_13
1000

1000
h7
1000

1040
0.0
  0
DIMENSION
  5
76A6
330
1F
100
AcDbEntity
  8
AM_5
100
AcDbDimension
  2
*D12
 10
55.33994305225912
 20
-5.652059087102639
 30
0.0
 11
49.12611237176044
 21
18.69818912331528
 31
0.0
 70
   162
  1
-<>
  3
AM_JIS$2
100
AcDb2LineAngularDimension
 13
54.4065350209462
 23
-10.94537325712908
 33
0.0
 14
54.89071490620701
 24
2.919724571692418
 34
0.0
 15
54.89071490620701
 25
2.919724571692418
 35
0.0
 16
54.98844423671979
 26
19.71796956826644
 36
0.0
1001
ACAD
1000
DSTYLE
1002
{
1070
   179
1070
     3
1002
}
1001
GENIUS_GENDTOL_13
1000

1000
h7
1000

1040
0.0
  0
LINE
  5
787B
330
1F
100
AcDbEntity
  8
AM_0
100
AcDbLine
 10
51.0469598299003
 20
-21.1898943101528
 30
0.0
 11
51.2937987327271
 21
-27.85265566637342
 31
0.0
  0
LINE
  5
7884
330
1F
100
AcDbEntity
  8
AM_0
100
AcDbLine
 10
61.16980840612713
 20
-16.17496885657236
 30
0.0
 11
80.90471738419003
 21
-15.92402452214487
 31
0.0
  0
LINE
  5
7885
330
1F
100
AcDbEntity
  8
AM_0
100
AcDbLine
 10
62.33149441526723
 20
-11.49740999928491
 30
0.0
 11
61.33210358824813
 21
-11.46251050258241
 31
0.0
  0
LINE
  5
7886
330
1F
100
AcDbEntity
  8
AM_0
100
AcDbLine
 10
61.03845187061152
 20
-19.87159546578812
 30
0.0
 11
61.34170525511438
 21
-11.1875547382625
 31
0.0
  0
LINE
  5
7956
330
1F
100
AcDbEntity
  8
AM_0
100
AcDbLine
 10
-10.81134607011467
 20
71.27093928427784
 30
0.0
 11
-15.77553228129456
 21
70.47794228791014
 31
0.0
  0
LINE
  5
7A5E
330
1F
100
AcDbEntity
  8
AM_5
100
AcDbLine
 10
54.89071490620698
 20
2.919724571692418
 30
0.0
 11
-0.8418687649938995
 21
-0.0010963721963307
 31
0.0
  0
LINE
  5
7A8D
330
1F
100
AcDbEntity
  8
AM_5
100
AcDbLine
 10
0.0000000000000004
 20
-0.0000000000000085
 30
0.0
 11
-3.813911383249464
 21
72.77376441866806
 31
0.0
  0
LINE
  5
7B0E
330
1F
100
AcDbEntity
  8
AM_0
100
AcDbLine
 10
-155.5250219942351
 20
64.96371073743109
 30
0.0
 11
-156.8334209003086
 21
89.92944910629544
 31
0.0
  0
DIMENSION
  5
7B10
330
1F
100
AcDbEntity
  8
AM_5
100
AcDbDimension
  2
*D13
 10
-150.0
 20
33.45242865759209
 30
0.0
 11
-75.0
 21
36.55242865759209
 31
0.0
 70
    32
  3
AM_JIS
100
AcDbAlignedDimension
 13
0.0000000000000004
 23
-0.0000000000000085
 33
0.0
 14
-150.0
 24
-7.000000000000008
 34
0.0
100
AcDbRotatedDimension
  0
LINE
  5
7B64
330
1F
100
AcDbEntity
  8
AM_0
100
AcDbLine
 10
-32.80514963026782
 20
65.251625901337
 30
0.0
 11
-32.13350270799722
 21
75.42721425306749
 31
0.0
  0
LINE
  5
7C09
330
1F
100
AcDbEntity
  8
AM_0
100
AcDbLine
 10
-14.36871237061688
 20
67.67074471490949
 30
0.0
 11
-10.81029485410432
 21
71.26435863889411
 31
0.0
  0
LINE
  5
7C0E
330
1F
100
AcDbEntity
  8
AM_0
100
AcDbLine
 10
51.04695982980386
 20
-21.18989431014943
 30
0.0
 11
51.23256026100182
 21
-15.87499335294541
 31
0.0
  0
LINE
  5
7C33
330
1F
100
AcDbEntity
  8
AM_0
100
AcDbLine
 10
-35.77405465669992
 20
65.01325277286262
 30
0.0
 11
-37.40415439305397
 21
71.11740865623383
 31
0.0
  0
LINE
  5
7C34
330
1F
100
AcDbEntity
  8
AM_0
100
AcDbLine
 10
-33.63633253214313
 20
65.12528604213445
 30
0.0
 11
-35.77405465669996
 21
65.01325277286262
 31
0.0
  0
VIEWPORT
  5
110
330
101
100
AcDbEntity
 67
     1
  8
0
100
AcDbViewport
 10
420.5
 20
297.0
 30
0.0
 40
948.9782706766916
 41
628.452
 68
     1
 69
     1
1001
ACAD
1000
MVIEW
1002
{
1070
    16
1010
0.0
1020
0.0
1030
0.0
1010
0.0
1020
0.0
1030
1.0
1040
0.0
1040
628.452
1040
420.5
1040
297.0
1040
50.0
1040
0.0
1040
0.0
1070
     0
1070
   100
1070
     1
1070
     1
1070
     0
1070
     0
1070
     0
1070
     0
1040
0.0
1040
0.0
1040
0.0
1040
10.0
1040
10.0
1040
10.0
1040
10.0
1070
     0
1002
{
1002
}
1002
}
  0
ENDSEC
  0
SECTION
  2
OBJECTS
  0
DICTIONARY
  5
C
330
0
100
AcDbDictionary
  3
ACAD_GROUP
350
D
  3
ACAD_LAYOUT
350
1A
  3
ACAD_MLINESTYLE
350
17
  3
ACAD_PLOTSETTINGS
350
19
  3
ACAD_PLOTSTYLENAME
350
E
  3
ACDBVARIABLEDICTIONARY
350
34
  3
ACMDICTIONARY
350
43
  3
AMG
350
2B
  3
AMGSNAPSETTINGS
350
6E
  3
DWGPROPS
350
7CC9
  3
ACDBHEADERROUNDTRIPXREC
350
7CD6
  0
DICTIONARY
  5
74
330
1F
100
AcDbDictionary
280
     1
  3
ACAD_INDEX
360
7CCB
  3
ACAD_LAYOUTSELFREF
360
7CF9
  0
DICTIONARY
  5
7CFE
330
101
100
AcDbDictionary
280
     1
  3
ACAD_LAYOUTSELFREF
360
7CFF
  0
DICTIONARY
  5
D
102
{ACAD_REACTORS
330
C
102
}
330
C
100
AcDbDictionary
  0
DICTIONARY
  5
1A
102
{ACAD_REACTORS
330
C
102
}
330
C
100
AcDbDictionary
  0
DICTIONARY
  5
17
102
{ACAD_REACTORS
330
C
102
}
330
C
100
AcDbDictionary
  3
STANDARD
350
18
  0
DICTIONARY
  5
19
102
{ACAD_REACTORS
330
C
102
}
330
C
100
AcDbDictionary
  0
ACDBDICTIONARYWDFLT
  5
E
102
{ACAD_REACTORS
330
C
102
}
330
C
100
AcDbDictionary
281
     1
  3
Normal
350
F
100
AcDbDictionaryWithDefault
340
F
  0
DICTIONARY
  5
34
102
{ACAD_REACTORS
330
C
102
}
330
C
100
AcDbDictionary
  3
INDEXCTL
350
35
  3
SORTENTS
350
B5E
  0
DICTIONARY
  5
43
102
{ACAD_REACTORS
330
C
102
}
330
C
100
AcDbDictionary
  3
ACMSTDDICTIONARY
350
260
  0
DICTIONARY
  5
2B
102
{ACAD_REACTORS
330
C
102
}
330
C
100
AcDbDictionary
  3
ACMGSETTINGS
350
2C
  0
DICTIONARY
  5
6E
102
{ACAD_REACTORS
330
C
102
}
330
C
100
AcDbDictionary
  0
XRECORD
  5
7CC9
102
{ACAD_REACTORS
330
C
102
}
330
C
100
AcDbXrecord
  1
DWGPROPS COOKIE
  2

  3

  4

  6

  7

  8

  9

300
AmdtFileType=82
301
=
302
=
303
=
304
=
305
=
306
=
307
=
308
=
309
=
 40
1.344338796296296
 41
2452838.620506898
 42
2452909.637157651
  1

 90
        1
  0
DICTIONARY
  5
7CD6
102
{ACAD_REACTORS
330
C
102
}
330
C
100
AcDbDictionary
  3
TSTACKALIGN
350
7CD7
  3
TSTACKSIZE
350
7CD8
  3
HYPERLINKBASE
350
7CD9
  3
STYLESHEET
350
7CDA
  3
LAYOUTDICT
350
7CDB
  3
PLOTSETDICT
350
7CDC
  3
PLOTSTYLNAMDICT
350
7CDD
  3
LWETCUNION
350
7CDE
  3
INSUNITS
350
7CDF
  3
CEPSNTYPE
350
7CE0
  3
FINGERPRINTGUID
350
7CE1
  3
VERSIONGUID
350
7CE2
  3
PSVPSCALE
350
7CE3
  3
DIMSTYLEDATA
350
7CE4
  3
PUCSORTHOREF
350
7CE5
  3
PUCSORTHOVIEW
350
7CE6
  3
PUCSBASE
350
7CE7
  3
PUCSORGTOP
350
7CE8
  3
PUCSORGBOTTOM
350
7CE9
  3
PUCSORGLEFT
350
7CEA
  3
PUCSORGRIGHT
350
7CEB
  3
PUCSORGFRONT
350
7CEC
  3
PUCSORGBACK
350
7CED
  3
UCSORTHOREF
350
7CEE
  3
UCSORTHOVIEW
350
7CEF
  3
UCSBASE
350
7CF0
  3
UCSORGTOP
350
7CF1
  3
UCSORGBOTTOM
350
7CF2
  3
UCSORGLEFT
350
7CF3
  3
UCSORGRIGHT
350
7CF4
  3
UCSORGFRONT
350
7CF5
  3
UCSORGBACK
350
7CF6
  0
DICTIONARY
  5
7CCB
102
{ACAD_REACTORS
330
74
102
}
330
74
100
AcDbDictionary
  3
*A1
350
7CCC
  0
XRECORD
  5
7CF9
102
{ACAD_REACTORS
330
74
102
}
330
74
100
AcDbXrecord
340
1F
  0
XRECORD
  5
7CFF
102
{ACAD_REACTORS
330
7CFE
102
}
330
7CFE
100
AcDbXrecord
340
101
  0
MLINESTYLE
  5
18
102
{ACAD_REACTORS
330
17
102
}
330
17
100
AcDbMlineStyle
  2
STANDARD
 70
     0
  3

 62
   256
 51
90.0
 52
90.0
 71
     2
 49
0.5
 62
   256
  6
BYLAYER
 49
-0.5
 62
   256
  6
BYLAYER
  0
ACDBPLACEHOLDER
  5
F
102
{ACAD_REACTORS
330
E
102
}
330
E
100
AcDbPlaceHolder
280
     0
  0
DICTIONARYVAR
  5
35
102
{ACAD_REACTORS
330
34
102
}
330
34
100
DictionaryVariables
280
     0
  1
1
  0
DICTIONARYVAR
  5
B5E
102
{ACAD_REACTORS
330
34
102
}
330
34
100
DictionaryVariables
280
     0
  1
96
  0
DICTIONARY
  5
260
102
{ACAD_REACTORS
330
43
102
}
330
43
100
AcDbDictionary
  0
DICTIONARY
  5
2C
102
{ACAD_REACTORS
330
2B
102
}
330
2B
100
AcDbDictionary
  3
DWGSETTINGS
350
2D
  0
XRECORD
  5
7CD7
102
{ACAD_REACTORS
330
7CD6
102
}
330
7CD6
100
AcDbXrecord
 90
        1
  0
XRECORD
  5
7CD8
102
{ACAD_REACTORS
330
7CD6
102
}
330
7CD6
100
AcDbXrecord
 90
       70
  0
XRECORD
  5
7CD9
102
{ACAD_REACTORS
330
7CD6
102
}
330
7CD6
100
AcDbXrecord
  1

  0
XRECORD
  5
7CDA
102
{ACAD_REACTORS
330
7CD6
102
}
330
7CD6
100
AcDbXrecord
  1
ASAMI.ctb
  0
XRECORD
  5
7CDB
102
{ACAD_REACTORS
330
7CD6
102
}
330
7CD6
100
AcDbXrecord
340
1A
  0
XRECORD
  5
7CDC
102
{ACAD_REACTORS
330
7CD6
102
}
330
7CD6
100
AcDbXrecord
340
19
  0
XRECORD
  5
7CDD
102
{ACAD_REACTORS
330
7CD6
102
}
330
7CD6
100
AcDbXrecord
340
E
  0
XRECORD
  5
7CDE
102
{ACAD_REACTORS
330
7CD6
102
}
330
7CD6
100
AcDbXrecord
 90
    10781
  0
XRECORD
  5
7CDF
102
{ACAD_REACTORS
330
7CD6
102
}
330
7CD6
100
AcDbXrecord
 90
        4
  0
XRECORD
  5
7CE0
102
{ACAD_REACTORS
330
7CD6
102
}
330
7CD6
100
AcDbXrecord
 90
        0
  0
XRECORD
  5
7CE1
102
{ACAD_REACTORS
330
7CD6
102
}
330
7CD6
100
AcDbXrecord
  1
{AFB28963-8C59-40AE-9337-C84526B81ACE}
  0
XRECORD
  5
7CE2
102
{ACAD_REACTORS
330
7CD6
102
}
330
7CD6
100
AcDbXrecord
  1
{69F51426-0D60-4154-8860-EF212D7D7FF8}
  0
XRECORD
  5
7CE3
102
{ACAD_REACTORS
330
7CD6
102
}
330
7CD6
100
AcDbXrecord
 40
0.0
  0
XRECORD
  5
7CE4
102
{ACAD_REACTORS
330
7CD6
102
}
330
7CD6
100
AcDbXrecord
1000
DSTYLE
1002
{
1070
    79
 70
     2
1070
   341
340
59
1070
   342
340
59
1070
   371
 70
    -1
1070
   372
 70
    -1
1002
}
  0
XRECORD
  5
7CE5
102
{ACAD_REACTORS
330
7CD6
102
}
330
7CD6
100
AcDbXrecord
340
0
  0
XRECORD
  5
7CE6
102
{ACAD_REACTORS
330
7CD6
102
}
330
7CD6
100
AcDbXrecord
 70
     0
  0
XRECORD
  5
7CE7
102
{ACAD_REACTORS
330
7CD6
102
}
330
7CD6
100
AcDbXrecord
340
0
  0
XRECORD
  5
7CE8
102
{ACAD_REACTORS
330
7CD6
102
}
330
7CD6
100
AcDbXrecord
 10
0.0
 20
0.0
 30
0.0
  0
XRECORD
  5
7CE9
102
{ACAD_REACTORS
330
7CD6
102
}
330
7CD6
100
AcDbXrecord
 10
0.0
 20
0.0
 30
0.0
  0
XRECORD
  5
7CEA
102
{ACAD_REACTORS
330
7CD6
102
}
330
7CD6
100
AcDbXrecord
 10
0.0
 20
0.0
 30
0.0
  0
XRECORD
  5
7CEB
102
{ACAD_REACTORS
330
7CD6
102
}
330
7CD6
100
AcDbXrecord
 10
0.0
 20
0.0
 30
0.0
  0
XRECORD
  5
7CEC
102
{ACAD_REACTORS
330
7CD6
102
}
330
7CD6
100
AcDbXrecord
 10
0.0
 20
0.0
 30
0.0
  0
XRECORD
  5
7CED
102
{ACAD_REACTORS
330
7CD6
102
}
330
7CD6
100
AcDbXrecord
 10
0.0
 20
0.0
 30
0.0
  0
XRECORD
  5
7CEE
102
{ACAD_REACTORS
330
7CD6
102
}
330
7CD6
100
AcDbXrecord
340
0
  0
XRECORD
  5
7CEF
102
{ACAD_REACTORS
330
7CD6
102
}
330
7CD6
100
AcDbXrecord
 70
     0
  0
XRECORD
  5
7CF0
102
{ACAD_REACTORS
330
7CD6
102
}
330
7CD6
100
AcDbXrecord
340
0
  0
XRECORD
  5
7CF1
102
{ACAD_REACTORS
330
7CD6
102
}
330
7CD6
100
AcDbXrecord
 10
0.0
 20
0.0
 30
0.0
  0
XRECORD
  5
7CF2
102
{ACAD_REACTORS
330
7CD6
102
}
330
7CD6
100
AcDbXrecord
 10
0.0
 20
0.0
 30
0.0
  0
XRECORD
  5
7CF3
102
{ACAD_REACTORS
330
7CD6
102
}
330
7CD6
100
AcDbXrecord
 10
0.0
 20
0.0
 30
0.0
  0
XRECORD
  5
7CF4
102
{ACAD_REACTORS
330
7CD6
102
}
330
7CD6
100
AcDbXrecord
 10
0.0
 20
0.0
 30
0.0
  0
XRECORD
  5
7CF5
102
{ACAD_REACTORS
330
7CD6
102
}
330
7CD6
100
AcDbXrecord
 10
0.0
 20
0.0
 30
0.0
  0
XRECORD
  5
7CF6
102
{ACAD_REACTORS
330
7CD6
102
}
330
7CD6
100
AcDbXrecord
 10
0.0
 20
0.0
 30
0.0
  0
LAYER_INDEX
  5
7CCC
102
{ACAD_REACTORS
330
7CCB
102
}
330
7CCB
100
AcDbIndex
 40
2452941.610751041
100
AcDbLayerIndex
  8
0
360
7CCD
 90
        2
  8
AM_0
360
7CCE
 90
      107
  8
AM_11
360
7CCF
 90
        2
  8
AM_7
360
7CD0
 90
        7
  8
AM_5
360
7CD1
 90
       11
  8
Defpoints
360
7CD2
 90
        0
  8
AM_6
360
7CD3
 90
        1
  8
AM_0N
360
7CD4
 90
        7
  0
XRECORD
  5
2D
102
{ACAD_REACTORS
330
2C
102
}
330
2C
100
AcDbXrecord
  1
VERSION
140
15.0
  1
PRODUCT
  2
AutoCAD Mechanical 2000
  0
IDBUFFER
  5
7CCD
330
0
100
AcDbIdBuffer
330
68EE
330
68F2
  0
IDBUFFER
  5
7CCE
330
0
100
AcDbIdBuffer
330
6A2D
330
6A35
330
6A41
330
6A46
330
6A56
330
6A5E
330
6A5F
330
6A69
330
6A79
330
6A7A
330
6A8B
330
6AA1
330
6AA9
330
6AAD
330
6AB5
330
6B26
330
6B29
330
6B2B
330
6B3E
330
6C0F
330
6C20
330
6C82
330
6D36
330
6D42
330
6D4A
330
6D52
330
6D63
330
6D6D
330
6D9B
330
6DA4
330
6DAF
330
6DB7
330
6DC8
330
6DC9
330
6DCC
330
6ED3
330
6ED5
330
6ED6
330
6EE1
330
6EE2
330
6EE3
330
6EE4
330
6EE5
330
6EE6
330
6FBA
330
6FBF
330
6FCC
330
6FCD
330
787B
330
7884
330
7885
330
7886
330
7956
330
7B0E
330
7B64
330
7C09
330
7C0E
330
7C33
330
7C34
330
5F9C
330
5FA5
330
5FAD
330
5FB6
330
5FBF
330
603E
330
60F9
330
60FA
330
6103
330
6111
330
6131
330
6165
330
6171
330
6187
330
61B2
330
627C
330
6286
330
68B3
330
68BF
330
68C7
330
68DD
330
68DE
330
68DF
330
68E0
330
68E1
330
697B
330
697C
330
6986
330
6987
330
6988
330
6989
330
698A
330
698B
330
698C
330
698D
330
6993
330
69A2
330
69B2
330
69B4
330
69F6
330
69F7
330
6A00
330
6A04
330
6A05
330
6A06
330
6A10
330
6A2A
330
6A2B
  0
IDBUFFER
  5
7CCF
330
0
100
AcDbIdBuffer
330
6345
330
634D
  0
IDBUFFER
  5
7CD0
330
0
100
AcDbIdBuffer
330
628D
330
638B
330
64EC
330
68CF
330
6A81
330
6D59
330
6EDC
  0
IDBUFFER
  5
7CD1
330
0
100
AcDbIdBuffer
330
6EEF
330
6FED
330
7139
330
71C5
330
7251
330
72EC
330
7439
330
76A6
330
7A5E
330
7A8D
330
7B10
  0
IDBUFFER
  5
7CD2
330
0
100
AcDbIdBuffer
  0
IDBUFFER
  5
7CD3
330
0
100
AcDbIdBuffer
330
C58
  0
IDBUFFER
  5
7CD4
330
0
100
AcDbIdBuffer
330
6905
330
6906
330
6907
330
6909
330
690A
330
690B
330
697A
  0
ENDSEC
  0
EOF
