  0
SECTION
  2
HEADER
  9
$ACADVER
  1
AC1014
  9
$ACADMAINTVER
 70
     9
  9
$DWGCODEPAGE
  3
ANSI_932
  9
$INSBASE
 10
0.0
 20
0.0
 30
0.0
  9
$EXTMIN
 10
-169.1010157705387
 20
-54.50000000000009
 30
0.0
  9
$EXTMAX
 10
83.54504975766314
 20
84.20703460206363
 30
0.0
  9
$LIMMIN
 10
-182.6949713489421
 20
-71.30506810294867
  9
$LIMMAX
 10
98.21725712346712
 20
96.78889303260246
  9
$ORTHOMODE
 70
     0
  9
$REGENMODE
 70
     1
  9
$FILLMODE
 70
     1
  9
$QTEXTMODE
 70
     0
  9
$MIRRTEXT
 70
     0
  9
$DRAGMODE
 70
     2
  9
$LTSCALE
 40
1.0
  9
$OSMODE
 70
  2103
  9
$ATTMODE
 70
     1
  9
$TEXTSIZE
 40
2.5
  9
$TRACEWID
 40
1.0
  9
$TEXTSTYLE
  7
STANDARD
  9
$CLAYER
  8
AM_0
  9
$CELTYPE
  6
BYLAYER
  9
$CECOLOR
 62
   256
  9
$CELTSCALE
 40
1.0
  9
$DELOBJ
 70
     1
  9
$DISPSILH
 70
     0
  9
$DIMSCALE
 40
1.0
  9
$DIMASZ
 40
2.5
  9
$DIMEXO
 40
1.0
  9
$DIMDLI
 40
12.0
  9
$DIMRND
 40
0.0
  9
$DIMDLE
 40
0.0
  9
$DIMEXE
 40
1.0
  9
$DIMTP
 40
0.1
  9
$DIMTM
 40
0.1
  9
$DIMTXT
 40
3.2
  9
$DIMCEN
 40
0.0
  9
$DIMTSZ
 40
0.0
  9
$DIMTOL
 70
     0
  9
$DIMLIM
 70
     0
  9
$DIMTIH
 70
     0
  9
$DIMTOH
 70
     0
  9
$DIMSE1
 70
     0
  9
$DIMSE2
 70
     0
  9
$DIMTAD
 70
     3
  9
$DIMZIN
 70
     8
  9
$DIMBLK
  1
OPEN30
  9
$DIMASO
 70
     1
  9
$DIMSHO
 70
     1
  9
$DIMPOST
  1

  9
$DIMAPOST
  1
"
  9
$DIMALT
 70
     0
  9
$DIMALTD
 70
     2
  9
$DIMALTF
 40
0.0393701
  9
$DIMLFAC
 40
1.0
  9
$DIMTOFL
 70
     1
  9
$DIMTVP
 40
0.0
  9
$DIMTIX
 70
     0
  9
$DIMSOXD
 70
     0
  9
$DIMSAH
 70
     0
  9
$DIMBLK1
  1

  9
$DIMBLK2
  1

  9
$DIMSTYLE
  2
AM_JIS
  9
$DIMCLRD
 70
     3
  9
$DIMCLRE
 70
     3
  9
$DIMCLRT
 70
     2
  9
$DIMTFAC
 40
0.71
  9
$DIMGAP
 40
1.5
  9
$DIMJUST
 70
     0
  9
$DIMSD1
 70
     0
  9
$DIMSD2
 70
     0
  9
$DIMTOLJ
 70
     0
  9
$DIMTZIN
 70
     0
  9
$DIMALTZ
 70
     0
  9
$DIMALTTZ
 70
     0
  9
$DIMFIT
 70
     3
  9
$DIMUPT
 70
     0
  9
$DIMUNIT
 70
     2
  9
$DIMDEC
 70
     3
  9
$DIMTDEC
 70
     3
  9
$DIMALTU
 70
     2
  9
$DIMALTTD
 70
     2
  9
$DIMTXSTY
  7
ASAMI
  9
$DIMAUNIT
 70
     0
  9
$LUNITS
 70
     2
  9
$LUPREC
 70
     2
  9
$SKETCHINC
 40
1.0
  9
$FILLETRAD
 40
0.8
  9
$AUNITS
 70
     0
  9
$AUPREC
 70
     0
  9
$MENU
  1
.
  9
$ELEVATION
 40
0.0
  9
$PELEVATION
 40
0.0
  9
$THICKNESS
 40
0.0
  9
$LIMCHECK
 70
     0
  9
$BLIPMODE
 70
     0
  9
$CHAMFERA
 40
1.5
  9
$CHAMFERB
 40
1.5
  9
$CHAMFERC
 40
20.0
  9
$CHAMFERD
 40
0.0
  9
$SKPOLY
 70
     0
  9
$TDCREATE
 40
2452838.620506898
  9
$TDUPDATE
 40
2452941.610835856
  9
$TDINDWG
 40
1.4462037616
  9
$TDUSRTIMER
 40
1.4462037616
  9
$USRTIMER
 70
     1
  9
$ANGBASE
 50
0.0
  9
$ANGDIR
 70
     0
  9
$PDMODE
 70
     0
  9
$PDSIZE
 40
0.0
  9
$PLINEWID
 40
0.0
  9
$COORDS
 70
     0
  9
$SPLFRAME
 70
     0
  9
$SPLINETYPE
 70
     6
  9
$SPLINESEGS
 70
     8
  9
$ATTDIA
 70
     1
  9
$ATTREQ
 70
     1
  9
$HANDLING
 70
 12289
  9
$HANDSEED
  5
81DA
  9
$SURFTAB1
 70
     6
  9
$SURFTAB2
 70
     6
  9
$SURFTYPE
 70
     6
  9
$SURFU
 70
     6
  9
$SURFV
 70
     6
  9
$UCSNAME
  2

  9
$UCSORG
 10
0.0
 20
0.0
 30
0.0
  9
$UCSXDIR
 10
1.0
 20
0.0
 30
0.0
  9
$UCSYDIR
 10
0.0
 20
1.0
 30
0.0
  9
$PUCSNAME
  2

  9
$PUCSORG
 10
0.0
 20
0.0
 30
0.0
  9
$PUCSXDIR
 10
1.0
 20
0.0
 30
0.0
  9
$PUCSYDIR
 10
0.0
 20
1.0
 30
0.0
  9
$USERI1
 70
     0
  9
$USERI2
 70
     0
  9
$USERI3
 70
     0
  9
$USERI4
 70
     0
  9
$USERI5
 70
     0
  9
$USERR1
 40
0.0
  9
$USERR2
 40
0.0
  9
$USERR3
 40
0.0
  9
$USERR4
 40
0.0
  9
$USERR5
 40
0.0
  9
$WORLDVIEW
 70
     1
  9
$SHADEDGE
 70
     3
  9
$SHADEDIF
 70
    70
  9
$TILEMODE
 70
     1
  9
$MAXACTVP
 70
    64
  9
$PINSBASE
 10
0.0
 20
0.0
 30
0.0
  9
$PLIMCHECK
 70
     0
  9
$PEXTMIN
 10
1.000000000000000E+20
 20
1.000000000000000E+20
 30
1.000000000000000E+20
  9
$PEXTMAX
 10
-1.000000000000000E+20
 20
-1.000000000000000E+20
 30
-1.000000000000000E+20
  9
$PLIMMIN
 10
0.0
 20
0.0
  9
$PLIMMAX
 10
841.0
 20
594.0
  9
$UNITMODE
 70
     0
  9
$VISRETAIN
 70
     1
  9
$PLINEGEN
 70
     0
  9
$PSLTSCALE
 70
     0
  9
$TREEDEPTH
 70
  3020
  9
$PICKSTYLE
 70
     0
  9
$CMLSTYLE
  2
STANDARD
  9
$CMLJUST
 70
     0
  9
$CMLSCALE
 40
20.0
  9
$PROXYGRAPHICS
 70
     1
  9
$MEASUREMENT
 70
     1
  0
ENDSEC
  0
SECTION
  2
CLASSES
  0
CLASS
  1
ACDBDICTIONARYWDFLT
  2
AcDbDictionaryWithDefault
  3
AutoCAD 2000
 90
        0
280
     0
281
     0
  0
CLASS
  1
ACDBPLACEHOLDER
  2
AcDbPlaceHolder
  3
AutoCAD 2000
 90
        0
280
     0
281
     0
  0
CLASS
  1
LAYOUT
  2
AcDbLayout
  3
AutoCAD 2000
 90
        0
280
     0
281
     0
  0
CLASS
  1
AMGSETTINGSOBJ
  2
AmgSettingsObj
  3
"AcadM|Product Description: AutoCAD Mechanical 2000|Company: Autodesk"
 90
        0
280
     0
281
     0
  0
CLASS
  1
ACME_DOCUMENT
  2
AcMeDbDoc
  3
AcMeServices
 90
        0
280
     0
281
     0
  0
CLASS
  1
ACMESCOPE
  2
AcMeScope
  3
AcMeServices
 90
        0
280
     0
281
     0
  0
CLASS
  1
ACMECOMMANDHISTORY
  2
AcMeCommandHistory
  3
AcMeServices
 90
        0
280
     0
281
     0
  0
CLASS
  1
DICTIONARYVAR
  2
AcDbDictionaryVar
  3
AutoCAD 2000
 90
        0
280
     0
281
     0
  0
CLASS
  1
ACIMSYSVARMAN
  2
AcImSysVarManager
  3
AcMeServices
 90
        0
280
     0
281
     0
  0
CLASS
  1
ACIMREALSYSVAR
  2
AcImRealSysVar
  3
AcMeServices
 90
        0
280
     0
281
     0
  0
CLASS
  1
ACIMINTSYSVAR
  2
AcImIntSysVar
  3
AcMeServices
 90
        0
280
     0
281
     0
  0
CLASS
  1
ACMEDRAWINGMAN
  2
AcMeDrawingMan
  3
AcMeServices
 90
        0
280
     0
281
     0
  0
CLASS
  1
ACMEVIEW
  2
AcMeView
  3
AcMeServices
 90
        0
280
     0
281
     0
  0
CLASS
  1
ACDBENTITYCACHE
  2
AcMeEntityCache
  3
AcMeServices
 90
        0
280
     0
281
     0
  0
CLASS
  1
GSMANAGER
  2
AcMeGSManager
  3
AcMeServices
 90
        0
280
     0
281
     0
  0
CLASS
  1
AmdtInternalReactor
  2
AmdtInternalReactor
  3
AcMeServices
 90
        0
280
     0
281
     0
  0
CLASS
  1
ACMESTATEMGR
  2
AcMeStateMgr
  3
AcMeServices
 90
        0
280
     0
281
     0
  0
CLASS
  1
ACME_DATABASE
  2
AcMeDbDatabase
  3
AcMeServices
 90
        0
280
     0
281
     0
  0
CLASS
  1
ACRFINSADJUSTERMGR
  2
AcRfInsAdjusterMgr
  3
AcMeServices
 90
        0
280
     0
281
     0
  0
CLASS
  1
ACMDATADICTIONARY
  2
AcmDataDictionary
  3
"AcmSymBB|Product Description: AutoCAD Mechanical 2000|Company: Autodesk"
 90
        0
280
     0
281
     0
  0
CLASS
  1
ACMDATAENTRYBLOCK
  2
AcmDataEntryBlock
  3
"AcmSymBB|Product Description: AutoCAD Mechanical 2000|Company: Autodesk"
 90
        0
280
     0
281
     0
  0
CLASS
  1
AMGOBJPROPCFG
  2
AmgObjPropCfg
  3
"AmgLay|Product Description: AutoCAD Mechanical 2000|Company: Autodesk"
 90
        1
280
     0
281
     0
  0
CLASS
  1
ACAMGFILTERDAT
  2
AcAmgFilterDat
  3
"AcadM|Product Description: AutoCAD Mechanical 2000|Company: Autodesk"
 90
        0
280
     0
281
     0
  0
CLASS
  1
LAYER_INDEX
  2
AcDbLayerIndex
  3
AutoCAD 2000
 90
        0
280
     0
281
     0
  0
CLASS
  1
IDBUFFER
  2
AcDbIdBuffer
  3
AutoCAD 2000
 90
        0
280
     0
281
     0
  0
CLASS
  1
ACIMSTRSYSVAR
  2
AcImStrSysVar
  3
AcMeServices
 90
        0
280
     0
281
     0
  0
CLASS
  1
ACMSTANDARDJIS
  2
AcmStandardJIS
  3
"AcmSymBB|Product Description: AutoCAD Mechanical 2000|Company: Autodesk"
 90
        0
280
     0
281
     0
  0
CLASS
  1
ACMSURFSTANDARDJIS
  2
AcmSurfTextStdJIS
  3
"AcmSymBB|Product Description: AutoCAD Mechanical 2000|Company: Autodesk"
 90
        0
280
     0
281
     0
  0
CLASS
  1
ACMFCFSTANDARDJIS
  2
AcmFCFStdJIS
  3
"AcmSymBB|Product Description: AutoCAD Mechanical 2000|Company: Autodesk"
 90
        0
280
     0
281
     0
  0
CLASS
  1
ACMWELDSTANDARDJIS
  2
AcmWeldingStdJIS
  3
"AcmSymBB|Product Description: AutoCAD Mechanical 2000|Company: Autodesk"
 90
        0
280
     0
281
     0
  0
CLASS
  1
ACMIDSTANDARDJIS
  2
AcmIdStdJIS
  3
"AcmSymBB|Product Description: AutoCAD Mechanical 2000|Company: Autodesk"
 90
        0
280
     0
281
     0
  0
CLASS
  1
ACMDATUMSTANDARDJIS
  2
AcmDatumStdJIS
  3
"AcmSymBB|Product Description: AutoCAD Mechanical 2000|Company: Autodesk"
 90
        0
280
     0
281
     0
  0
CLASS
  1
ACMBOMSTANDARDJIS
  2
AcmBOMStdJIS
  3
"AcmSymBB|Product Description: AutoCAD Mechanical 2000|Company: Autodesk"
 90
        0
280
     0
281
     0
  0
CLASS
  1
ACMSTANDARDANSI
  2
AcmStandardANSI
  3
"AcmSymBB|Product Description: AutoCAD Mechanical 2000|Company: Autodesk"
 90
        0
280
     0
281
     0
  0
CLASS
  1
ACMSURFSTANDARDANSI
  2
AcmSurfTextStdANSI
  3
"AcmSymBB|Product Description: AutoCAD Mechanical 2000|Company: Autodesk"
 90
        0
280
     0
281
     0
  0
CLASS
  1
ACMFCFSTANDARDANSI
  2
AcmFCFStdANSI
  3
"AcmSymBB|Product Description: AutoCAD Mechanical 2000|Company: Autodesk"
 90
        0
280
     0
281
     0
  0
CLASS
  1
ACMWELDSTANDARDANSI
  2
AcmWeldingStdANSI
  3
"AcmSymBB|Product Description: AutoCAD Mechanical 2000|Company: Autodesk"
 90
        0
280
     0
281
     0
  0
CLASS
  1
ACMIDSTANDARDANSI
  2
AcmIdStdANSI
  3
"AcmSymBB|Product Description: AutoCAD Mechanical 2000|Company: Autodesk"
 90
        0
280
     0
281
     0
  0
CLASS
  1
ACMDATUMSTANDARDANSI
  2
AcmDatumStdANSI
  3
"AcmSymBB|Product Description: AutoCAD Mechanical 2000|Company: Autodesk"
 90
        0
280
     0
281
     0
  0
CLASS
  1
ACMBOMSTANDARDANSI
  2
AcmBOMStdANSI
  3
"AcmSymBB|Product Description: AutoCAD Mechanical 2000|Company: Autodesk"
 90
        0
280
     0
281
     0
  0
CLASS
  1
ACMSTANDARDBSI
  2
AcmStandardBSI
  3
"AcmSymBB|Product Description: AutoCAD Mechanical 2000|Company: Autodesk"
 90
        0
280
     0
281
     0
  0
CLASS
  1
ACMSURFSTANDARDBSI
  2
AcmSurfTextStdBSI
  3
"AcmSymBB|Product Description: AutoCAD Mechanical 2000|Company: Autodesk"
 90
        0
280
     0
281
     0
  0
CLASS
  1
ACMFCFSTANDARDBSI
  2
AcmFCFStdBSI
  3
"AcmSymBB|Product Description: AutoCAD Mechanical 2000|Company: Autodesk"
 90
        0
280
     0
281
     0
  0
CLASS
  1
ACMWELDSTANDARDBSI
  2
AcmWeldingStdBSI
  3
"AcmSymBB|Product Description: AutoCAD Mechanical 2000|Company: Autodesk"
 90
        0
280
     0
281
     0
  0
CLASS
  1
ACMIDSTANDARDBSI
  2
AcmIdStdBSI
  3
"AcmSymBB|Product Description: AutoCAD Mechanical 2000|Company: Autodesk"
 90
        0
280
     0
281
     0
  0
CLASS
  1
ACMDATUMSTANDARDBSI
  2
AcmDatumStdBSI
  3
"AcmSymBB|Product Description: AutoCAD Mechanical 2000|Company: Autodesk"
 90
        0
280
     0
281
     0
  0
CLASS
  1
ACMBOMSTANDARDBSI
  2
AcmBOMStdBSI
  3
"AcmSymBB|Product Description: AutoCAD Mechanical 2000|Company: Autodesk"
 90
        0
280
     0
281
     0
  0
CLASS
  1
STDPART2D
  2
AmgStdPart
  3
"AmgStdPart|Product Description: AutoCAD Mechanical 2000|Company: Autodesk"
 90
     1023
280
     0
281
     1
  0
CLASS
  1
ACMDATAENTRYPART
  2
AcmDataEntryPart
  3
"AcmSymBB|Product Description: AutoCAD Mechanical 2000|Company: Autodesk"
 90
        0
280
     0
281
     0
  0
CLASS
  1
ACMPARTREF
  2
AcmPartRef
  3
"AcmSymBB|Product Description: AutoCAD Mechanical 2000|Company: Autodesk"
 90
     1023
280
     0
281
     1
  0
CLASS
  1
LONG_TRANSACTION
  2
AcDbLongTransaction
  3
AutoCAD 2000
 90
        0
280
     0
281
     0
  0
CLASS
  1
LWPOLYLINE
  2
AcDbPolyline
  3
AutoCAD 2000
 90
        0
280
     0
281
     1
  0
CLASS
  1
HATCH
  2
AcDbHatch
  3
AutoCAD 2000
 90
        0
280
     0
281
     1
  0
CLASS
  1
XRECORD
  2
AcDbXrecord
  3
AutoCAD 2000
 90
        0
280
     0
281
     0
  0
ENDSEC
  0
SECTION
  2
TABLES
  0
TABLE
  2
VPORT
  5
8
330
0
100
AcDbSymbolTable
 70
     3
  0
VPORT
  5
81AF
330
8
100
AcDbSymbolTableRecord
100
AcDbViewportTableRecord
  2
*ACTIVE
 70
     0
 10
0.0
 20
0.0
 11
1.0
 21
1.0
 12
-42.78681467593223
 22
14.84992926458575
 13
0.0
 23
0.0
 14
2.5
 24
2.5
 15
10.0
 25
10.0
 16
0.0
 26
0.0
 36
1.0
 17
0.0
 27
0.0
 37
0.0
 40
162.009423863784
 41
1.56570841889117
 42
50.0
 43
0.0
 44
0.0
 50
0.0
 51
0.0
 71
     0
 72
   100
 73
     1
 74
     3
 75
     0
 76
     0
 77
     0
 78
     0
  0
ENDTAB
  0
TABLE
  2
LTYPE
  5
5
330
0
100
AcDbSymbolTable
 70
    10
  0
LTYPE
  5
14
330
5
100
AcDbSymbolTableRecord
100
AcDbLinetypeTableRecord
  2
BYBLOCK
 70
     0
  3

 72
    65
 73
     0
 40
0.0
  0
LTYPE
  5
15
330
5
100
AcDbSymbolTableRecord
100
AcDbLinetypeTableRecord
  2
BYLAYER
 70
     0
  3

 72
    65
 73
     0
 40
0.0
  0
LTYPE
  5
16
330
5
100
AcDbSymbolTableRecord
100
AcDbLinetypeTableRecord
  2
CONTINUOUS
 70
     0
  3
Solid line
 72
    65
 73
     0
 40
0.0
  0
LTYPE
  5
4B
330
5
100
AcDbSymbolTableRecord
100
AcDbLinetypeTableRecord
  2
AM_ISO02W050
 70
     0
  3
__ __ __ __ __ __ __ __ __ __ __ __ __ __ __
 72
    65
 73
     2
 40
7.5
 49
6.0
 74
     0
 49
-1.5
 74
     0
  0
LTYPE
  5
4C
330
5
100
AcDbSymbolTableRecord
100
AcDbLinetypeTableRecord
  2
AM_ISO08W050
 70
     0
  3
____ . ____ . ____ . ____ . ____ . ____ . ____
 72
    65
 73
     4
 40
18.0
 49
12.0
 74
     0
 49
-1.5
 74
     0
 49
3.0
 74
     0
 49
-1.5
 74
     0
  0
LTYPE
  5
4D
330
5
100
AcDbSymbolTableRecord
100
AcDbLinetypeTableRecord
  2
AM_ISO09W050
 70
     0
  3
_____ . . _____ . . _____ . . ____ .. ____
 72
    65
 73
     6
 40
22.5
 49
12.0
 74
     0
 49
-1.5
 74
     0
 49
3.0
 74
     0
 49
-1.5
 74
     0
 49
3.0
 74
     0
 49
-1.5
 74
     0
  0
LTYPE
  5
4E
330
5
100
AcDbSymbolTableRecord
100
AcDbLinetypeTableRecord
  2
AMCONSTR
 70
     0
  3
_______________________
 72
    65
 73
     2
 40
9999.0
 49
9999.0
 74
     0
 49
0.0
 74
     0
  0
LTYPE
  5
4F
330
5
100
AcDbSymbolTableRecord
100
AcDbLinetypeTableRecord
  2
AM_ISO02W050X2
 70
     0
  3
 _ _ _ _ _ _ _ _ _ _ _ _
 72
    65
 73
     2
 40
3.75
 49
3.0
 74
     0
 49
-0.75
 74
     0
  0
LTYPE
  5
50
330
5
100
AcDbSymbolTableRecord
100
AcDbLinetypeTableRecord
  2
AM_ISO08W050X2
 70
     0
  3
__ . __ . __ . __ . __ . __
 72
    65
 73
     4
 40
9.0
 49
6.0
 74
     0
 49
-0.75
 74
     0
 49
1.5
 74
     0
 49
-0.75
 74
     0
  0
LTYPE
  5
53
330
5
100
AcDbSymbolTableRecord
100
AcDbLinetypeTableRecord
  2
AMZIGZAG
 70
     0
  3
/\/-/\/-/\/-/\/-/\/-/\/
 72
    65
 73
     2
 40
11.00009999999999
 49
0.0001
 74
     4
 75
   135
340
52
 46
0.04
 50
0.0
 44
0.0
 45
0.0
 49
-11.0
 74
     0
  0
LTYPE
  5
166
330
5
100
AcDbSymbolTableRecord
100
AcDbLinetypeTableRecord
  2
ACJISTGL
 70
     0
  3
_ _ _ _ _
 72
    65
 73
     2
 40
3.0
 49
2.0
 74
     0
 49
-1.0
 74
     0
  0
LTYPE
  5
26A
330
5
100
AcDbSymbolTableRecord
100
AcDbLinetypeTableRecord
  2
ACJISTGB
 70
     0
  3
__ . . __ . .
 72
    65
 73
     6
 40
9.0
 49
4.0
 74
     0
 49
-1.0
 74
     0
 49
1.0
 74
     0
 49
-1.0
 74
     0
 49
1.0
 74
     0
 49
-1.0
 74
     0
  0
ENDTAB
  0
TABLE
  2
LAYER
  5
2
330
0
100
AcDbSymbolTable
 70
     7
  0
LAYER
  5
10
330
2
100
AcDbSymbolTableRecord
100
AcDbLayerTableRecord
  2
0
 70
     0
 62
     7
  6
CONTINUOUS
  0
LAYER
  5
3F9
330
2
100
AcDbSymbolTableRecord
100
AcDbLayerTableRecord
  2
AM_0
 70
     0
 62
     7
  6
CONTINUOUS
  0
LAYER
  5
BD6
330
2
100
AcDbSymbolTableRecord
100
AcDbLayerTableRecord
  2
AM_11
 70
     0
 62
     3
  6
AM_ISO09W050
  0
LAYER
  5
BD7
330
2
100
AcDbSymbolTableRecord
100
AcDbLayerTableRecord
  2
AM_7
 70
     0
 62
     4
  6
AM_ISO08W050
  0
LAYER
  5
BD8
330
2
100
AcDbSymbolTableRecord
100
AcDbLayerTableRecord
  2
AM_5
 70
     0
 62
     3
  6
CONTINUOUS
  0
LAYER
  5
BD9
330
2
100
AcDbSymbolTableRecord
100
AcDbLayerTableRecord
  2
DEFPOINTS
 70
     0
 62
     7
  6
CONTINUOUS
  0
LAYER
  5
BDA
330
2
100
AcDbSymbolTableRecord
100
AcDbLayerTableRecord
  2
AM_6
 70
     0
 62
     2
  6
CONTINUOUS
  0
ENDTAB
  0
TABLE
  2
STYLE
  5
3
330
0
100
AcDbSymbolTable
 70
     5
  0
STYLE
  5
11
330
3
100
AcDbSymbolTableRecord
100
AcDbTextStyleTableRecord
  2
STANDARD
 70
     0
 40
0.0
 41
1.0
 50
0.0
 71
     0
 42
2.5
  3
simplex.shx
  4
EXTFONT.SHX
  0
STYLE
  5
52
330
3
100
AcDbSymbolTableRecord
100
AcDbTextStyleTableRecord
  2

 70
     1
 40
0.0
 41
1.0
 50
0.0
 71
     0
 42
2.5
  3
ltypeshp.shx
  4

  0
STYLE
  5
6B
330
3
100
AcDbSymbolTableRecord
100
AcDbTextStyleTableRecord
  2
ASAMI
 70
     0
 40
0.0
 41
1.0
 50
0.0
 71
     0
 42
2.5
  3
simplex.shx
  4
EXTFONT.SHX
  0
STYLE
  5
262
330
3
100
AcDbSymbolTableRecord
100
AcDbTextStyleTableRecord
  2
ACJISTS
 70
     0
 40
1.0
 41
1.0
 50
0.0
 71
     0
 42
2.5
  3
simplex.shx
  4
bigfont.shx
  0
STYLE
  5
269
330
3
100
AcDbSymbolTableRecord
100
AcDbTextStyleTableRecord
  2
ACJISGDT
 70
     0
 40
0.0
 41
1.0
 50
0.0
 71
     0
 42
2.5
  3
amgdtans.shx
  4

  0
ENDTAB
  0
TABLE
  2
VIEW
  5
6
330
0
100
AcDbSymbolTable
 70
     0
  0
ENDTAB
  0
TABLE
  2
UCS
  5
7
330
0
100
AcDbSymbolTable
 70
     0
  0
ENDTAB
  0
TABLE
  2
APPID
  5
9
330
0
100
AcDbSymbolTable
 70
    22
  0
APPID
  5
12
330
9
100
AcDbSymbolTableRecord
100
AcDbRegAppTableRecord
  2
ACAD
 70
     0
  0
APPID
  5
30
330
9
100
AcDbSymbolTableRecord
100
AcDbRegAppTableRecord
  2
MCAD_NO_VIS
 70
     0
  0
APPID
  5
31
330
9
100
AcDbSymbolTableRecord
100
AcDbRegAppTableRecord
  2
ACAD_TEMP_GRAPHIC
 70
     0
  0
APPID
  5
2C2
330
9
100
AcDbSymbolTableRecord
100
AcDbRegAppTableRecord
  2
GENIUS_GENDTOL_13
 70
     0
  0
APPID
  5
339
330
9
100
AcDbSymbolTableRecord
100
AcDbRegAppTableRecord
  2
GENIUS_GENODEF_13
 70
     0
  0
APPID
  5
33A
330
9
100
AcDbSymbolTableRecord
100
AcDbRegAppTableRecord
  2
GENIUS_GENOBJ-N-RSBK_13
 70
     0
  0
APPID
  5
33B
330
9
100
AcDbSymbolTableRecord
100
AcDbRegAppTableRecord
  2
GENIUS_GENOBJ-N-LIB_13
 70
     0
  0
APPID
  5
33C
330
9
100
AcDbSymbolTableRecord
100
AcDbRegAppTableRecord
  2
GENIUS_GENSCALE_13
 70
     0
  0
APPID
  5
378
330
9
100
AcDbSymbolTableRecord
100
AcDbRegAppTableRecord
  2
GENIUS_GENDIMSH_14
 70
     0
  0
APPID
  5
BDB
330
9
100
AcDbSymbolTableRecord
100
AcDbRegAppTableRecord
  2
GENIUS_GENOBJ-N-CEN_13
 70
     0
  0
APPID
  5
BDC
330
9
100
AcDbSymbolTableRecord
100
AcDbRegAppTableRecord
  2
GENIUS_GENFIL_13
 70
     0
  0
APPID
  5
BDD
330
9
100
AcDbSymbolTableRecord
100
AcDbRegAppTableRecord
  2
GENIUS_GENOBJ-N-FIL_13
 70
     0
  0
APPID
  5
12AD
330
9
100
AcDbSymbolTableRecord
100
AcDbRegAppTableRecord
  2
GENIUS_GENOREF_13
 70
     0
  0
APPID
  5
68E9
330
9
100
AcDbSymbolTableRecord
100
AcDbRegAppTableRecord
  2
GEVID1060695448
 70
     0
  0
APPID
  5
68EA
330
9
100
AcDbSymbolTableRecord
100
AcDbRegAppTableRecord
  2
GEVDC
 70
     0
  0
APPID
  5
68ED
330
9
100
AcDbSymbolTableRecord
100
AcDbRegAppTableRecord
  2
GENIUS_GENBH_13
 70
     0
  0
APPID
  5
68EF
330
9
100
AcDbSymbolTableRecord
100
AcDbRegAppTableRecord
  2
GENIUS_GENOBJ-NBEHI-BHF_13
 70
     0
  0
APPID
  5
68F0
330
9
100
AcDbSymbolTableRecord
100
AcDbRegAppTableRecord
  2
GENIUS_GENOENT_13
 70
     0
  0
APPID
  5
68F1
330
9
100
AcDbSymbolTableRecord
100
AcDbRegAppTableRecord
  2
GENIUS_GENOLIS_13
 70
     0
  0
APPID
  5
68F3
330
9
100
AcDbSymbolTableRecord
100
AcDbRegAppTableRecord
  2
GENIUS_GENOBJ-NBEHI-BHB_13
 70
     0
  0
APPID
  5
6B27
330
9
100
AcDbSymbolTableRecord
100
AcDbRegAppTableRecord
  2
GENIUS_GENOBJ-N-CHA_13
 70
     0
  0
APPID
  5
7C25
330
9
100
AcDbSymbolTableRecord
100
AcDbRegAppTableRecord
  2
GEVID1060740395
 70
     0
  0
ENDTAB
  0
TABLE
  2
DIMSTYLE
  5
A
330
0
100
AcDbSymbolTable
 70
     8
  0
DIMSTYLE
105
58
102
{ACAD_REACTORS
330
6EEF
330
7139
330
71C5
330
7251
330
7439
330
8091
102
}
330
A
100
AcDbSymbolTableRecord
100
AcDbDimStyleTableRecord
  2
AM_JIS
 70
     0
  3

  4
"
  5
OPEN30
  6

  7

 40
1.0
 41
2.5
 42
1.0
 43
12.0
 44
1.0
 45
0.0
 46
0.0
 47
0.1
 48
0.1
140
3.2
141
0.0
142
0.0
143
0.0393701
144
1.0
145
0.0
146
0.71
147
1.5
 71
     0
 72
     0
 73
     0
 74
     0
 75
     0
 76
     0
 77
     3
 78
     8
170
     0
171
     2
172
     1
173
     0
174
     0
175
     0
176
     3
177
     3
178
     2
270
     2
271
     3
272
     3
273
     2
274
     2
340
6B
275
     0
280
     0
281
     0
282
     0
283
     0
284
     0
285
     0
286
     0
287
     3
288
     0
  0
DIMSTYLE
105
5F
330
A
100
AcDbSymbolTableRecord
100
AcDbDimStyleTableRecord
  2
AM_JIS$3
 70
     0
  3

  4
"
  5
OPEN30
  6

  7

 40
1.0
 41
2.5
 42
1.0
 43
10.0
 44
1.0
 45
0.0
 46
0.0
 47
0.1
 48
0.1
140
3.2
141
0.0
142
0.0
143
0.0393701
144
1.0
145
0.0
146
0.71
147
1.5
 71
     0
 72
     0
 73
     0
 74
     1
 75
     0
 76
     0
 77
     3
 78
     8
170
     0
171
     2
172
     0
173
     0
174
     0
175
     0
176
     3
177
     3
178
     2
270
     2
271
     2
272
     3
273
     2
274
     2
340
6B
275
     0
280
     0
281
     0
282
     0
283
     0
284
     0
285
     0
286
     0
287
     0
288
     1
  0
DIMSTYLE
105
60
330
A
100
AcDbSymbolTableRecord
100
AcDbDimStyleTableRecord
  2
AM_JIS$4
 70
     0
  3

  4
"
  5
OPEN30
  6

  7

 40
1.0
 41
2.5
 42
1.0
 43
10.0
 44
1.0
 45
0.0
 46
0.0
 47
0.1
 48
0.1
140
3.2
141
0.0
142
0.0
143
0.0393701
144
1.0
145
0.0
146
0.71
147
1.5
 71
     0
 72
     0
 73
     0
 74
     1
 75
     0
 76
     0
 77
     3
 78
     8
170
     0
171
     2
172
     0
173
     0
174
     0
175
     0
176
     3
177
     3
178
     2
270
     2
271
     2
272
     3
273
     2
274
     2
340
6B
275
     0
280
     0
281
     0
282
     0
283
     0
284
     0
285
     0
286
     0
287
     0
288
     1
  0
DIMSTYLE
105
61
330
A
100
AcDbSymbolTableRecord
100
AcDbDimStyleTableRecord
  2
AM_JIS$6
 70
     0
  3

  4
"
  5
OPEN30
  6

  7

 40
1.0
 41
2.5
 42
1.0
 43
10.0
 44
1.0
 45
0.0
 46
0.0
 47
0.1
 48
0.1
140
3.2
141
0.0
142
0.0
143
0.0393701
144
1.0
145
0.0
146
0.71
147
1.5
 71
     0
 72
     0
 73
     0
 74
     0
 75
     0
 76
     0
 77
     0
 78
     8
170
     0
171
     2
172
     1
173
     0
174
     0
175
     0
176
     3
177
     3
178
     2
270
     2
271
     2
272
     2
273
     2
274
     2
340
6B
275
     0
280
     0
281
     0
282
     0
283
     0
284
     0
285
     0
286
     0
287
     3
288
     0
  0
DIMSTYLE
105
62
330
A
100
AcDbSymbolTableRecord
100
AcDbDimStyleTableRecord
  2
AM_JIS$7
 70
     0
  3

  4
"
  5
OPEN30
  6

  7

 40
1.0
 41
2.5
 42
1.0
 43
10.0
 44
1.0
 45
0.0
 46
0.0
 47
0.1
 48
0.1
140
3.2
141
0.0
142
0.0
143
0.0393701
144
1.0
145
0.0
146
0.71
147
1.5
 71
     0
 72
     0
 73
     0
 74
     0
 75
     0
 76
     0
 77
     3
 78
     8
170
     0
171
     2
172
     1
173
     0
174
     0
175
     0
176
     3
177
     3
178
     2
270
     2
271
     2
272
     3
273
     2
274
     2
340
6B
275
     0
280
     0
281
     0
282
     0
283
     0
284
     0
285
     0
286
     0
287
     3
288
     0
  0
DIMSTYLE
105
63
330
A
100
AcDbSymbolTableRecord
100
AcDbDimStyleTableRecord
  2
AM_JIS$SF
 70
     0
  3

  4
"
  5
OPEN30
  6

  7

 40
1.0
 41
2.5
 42
1.0
 43
10.0
 44
1.0
 45
0.0
 46
0.0
 47
0.1
 48
0.1
140
3.2
141
0.0
142
0.0
143
0.0393701
144
1.0
145
0.0
146
0.71
147
1.5
 71
     0
 72
     0
 73
     0
 74
     0
 75
     1
 76
     1
 77
     3
 78
     8
170
     0
171
     2
172
     1
173
     0
174
     0
175
     0
176
   256
177
   256
178
     2
270
     2
271
     2
272
     2
273
     2
274
     2
340
6B
275
     0
280
     0
281
     0
282
     0
283
     0
284
     0
285
     0
286
     0
287
     3
288
     0
  0
DIMSTYLE
105
68
330
A
100
AcDbSymbolTableRecord
100
AcDbDimStyleTableRecord
  2
AM_JIS$SH
 70
     0
  3

  4
"
  5

  6
GENAXEH
  7
OPEN30
 40
1.0
 41
2.5
 42
1.0
 43
10.0
 44
1.0
 45
0.0
 46
0.0
 47
0.1
 48
0.1
140
3.2
141
0.0
142
0.0
143
0.0393701
144
2.0
145
0.0
146
0.71
147
1.5
 71
     0
 72
     0
 73
     0
 74
     0
 75
     1
 76
     1
 77
     3
 78
     8
170
     0
171
     2
172
     1
173
     1
174
     0
175
     0
176
   256
177
   256
178
     2
270
     2
271
     2
272
     2
273
     2
274
     2
340
6B
275
     0
280
     0
281
     0
282
     0
283
     0
284
     0
285
     0
286
     0
287
     3
288
     0
  0
DIMSTYLE
105
B34
102
{ACAD_REACTORS
330
6FED
330
7973
330
76A6
102
}
330
A
100
AcDbSymbolTableRecord
100
AcDbDimStyleTableRecord
  2
AM_JIS$2
 70
     0
  3

  4
"
  5
OPEN30
  6

  7

 40
1.0
 41
2.5
 42
1.0
 43
12.0
 44
1.0
 45
0.0
 46
0.0
 47
0.1
 48
0.1
140
3.2
141
0.0
142
0.0
143
0.0393701
144
1.0
145
0.0
146
0.71
147
1.5
 71
     0
 72
     0
 73
     0
 74
     0
 75
     0
 76
     0
 77
     3
 78
     8
170
     0
171
     2
172
     1
173
     0
174
     0
175
     0
176
     3
177
     3
178
     2
270
     2
271
     3
272
     3
273
     2
274
     2
340
6B
275
     0
280
     0
281
     0
282
     0
283
     0
284
     0
285
     0
286
     0
287
     3
288
     0
  0
ENDTAB
  0
TABLE
  2
BLOCK_RECORD
  5
1
330
0
100
AcDbSymbolTable
 70
    14
  0
BLOCK_RECORD
  5
1F
102
{ACAD_XDICTIONARY
360
74
102
}
330
1
100
AcDbSymbolTableRecord
100
AcDbBlockTableRecord
  2
*MODEL_SPACE
  0
BLOCK_RECORD
  5
101
102
{ACAD_XDICTIONARY
360
81D8
102
}
330
1
100
AcDbSymbolTableRecord
100
AcDbBlockTableRecord
  2
*PAPER_SPACE
  0
BLOCK_RECORD
  5
59
330
1
100
AcDbSymbolTableRecord
100
AcDbBlockTableRecord
  2
_OPEN30
  0
BLOCK_RECORD
  5
64
330
1
100
AcDbSymbolTableRecord
100
AcDbBlockTableRecord
  2
GENAXEH
  0
BLOCK_RECORD
  5
6EF0
330
1
100
AcDbSymbolTableRecord
100
AcDbBlockTableRecord
  2
*D5
  0
BLOCK_RECORD
  5
6FEE
330
1
100
AcDbSymbolTableRecord
100
AcDbBlockTableRecord
  2
*D6
  0
BLOCK_RECORD
  5
713A
330
1
100
AcDbSymbolTableRecord
100
AcDbBlockTableRecord
  2
*D7
  0
BLOCK_RECORD
  5
71C6
330
1
100
AcDbSymbolTableRecord
100
AcDbBlockTableRecord
  2
*D8
  0
BLOCK_RECORD
  5
7252
330
1
100
AcDbSymbolTableRecord
100
AcDbBlockTableRecord
  2
*D9
  0
BLOCK_RECORD
  5
743A
330
1
100
AcDbSymbolTableRecord
100
AcDbBlockTableRecord
  2
*D10
  0
BLOCK_RECORD
  5
76A7
330
1
100
AcDbSymbolTableRecord
100
AcDbBlockTableRecord
  2
*D11
  0
BLOCK_RECORD
  5
7A12
330
1
100
AcDbSymbolTableRecord
100
AcDbBlockTableRecord
  2
*D12
  0
BLOCK_RECORD
  5
8092
330
1
100
AcDbSymbolTableRecord
100
AcDbBlockTableRecord
  2
*D13
  0
ENDTAB
  0
ENDSEC
  0
SECTION
  2
BLOCKS
  0
BLOCK
  5
20
330
1F
100
AcDbEntity
  8
0
100
AcDbBlockBegin
  2
*MODEL_SPACE
 70
     0
 10
0.0
 20
0.0
 30
0.0
  3
*MODEL_SPACE
  1

  0
ENDBLK
  5
21
330
1F
100
AcDbEntity
  8
0
100
AcDbBlockEnd
  0
BLOCK
  5
103
330
101
100
AcDbEntity
 67
     1
  8
0
100
AcDbBlockBegin
  2
*PAPER_SPACE
 70
     0
 10
0.0
 20
0.0
 30
0.0
  3
*PAPER_SPACE
  1

  0
ENDBLK
  5
104
330
101
100
AcDbEntity
 67
     1
  8
0
100
AcDbBlockEnd
  0
BLOCK
  5
5D
330
59
100
AcDbEntity
  8
0
100
AcDbBlockBegin
  2
_OPEN30
 70
     0
 10
0.0
 20
0.0
 30
0.0
  3
_OPEN30
  1

  0
LINE
  5
5A
330
59
100
AcDbEntity
  8
0
 62
     0
100
AcDbLine
 10
-1.0
 20
0.26794919
 30
0.0
 11
0.0
 21
0.0
 31
0.0
  0
LINE
  5
5B
330
59
100
AcDbEntity
  8
0
 62
     0
100
AcDbLine
 10
0.0
 20
0.0
 30
0.0
 11
-1.0
 21
-0.26794919
 31
0.0
  0
LINE
  5
5C
330
59
100
AcDbEntity
  8
0
 62
     0
100
AcDbLine
 10
0.0
 20
0.0
 30
0.0
 11
-1.0
 21
0.0
 31
0.0
  0
ENDBLK
  5
5E
330
59
100
AcDbEntity
  8
0
100
AcDbBlockEnd
  0
BLOCK
  5
66
330
64
100
AcDbEntity
  8
0
100
AcDbBlockBegin
  2
GENAXEH
 70
     0
 10
0.0
 20
0.0
 30
0.0
  3
GENAXEH
  1

  0
LINE
  5
65
330
64
100
AcDbEntity
  8
0
100
AcDbLine
 10
-1.0
 20
0.0
 30
0.0
 11
1.0
 21
0.0
 31
0.0
  0
ENDBLK
  5
67
330
64
100
AcDbEntity
  8
0
100
AcDbBlockEnd
  0
BLOCK
  5
6EFA
330
6EF0
100
AcDbEntity
  8
0
100
AcDbBlockBegin
  2
*D5
 70
     1
 10
0.0
 20
0.0
 30
0.0
  3
*D5
  1

  0
LINE
  5
817D
330
6EF0
100
AcDbEntity
  8
AM_5
 62
     3
100
AcDbLine
 10
0.0000000000000001
 20
0.9999999999999914
 30
0.0
 11
0.0000000000000014
 21
22.37620881633531
 31
0.0
  0
LINE
  5
817E
330
6EF0
100
AcDbEntity
  8
AM_5
 62
     3
100
AcDbLine
 10
-38.00000000000001
 20
-5.999999999999994
 30
0.0
 11
-38.00000000000001
 21
22.37620881633531
 31
0.0
  0
LINE
  5
817F
330
6EF0
100
AcDbEntity
  8
AM_5
 62
     3
100
AcDbLine
 10
-2.499999999999998
 20
21.37620881633531
 30
0.0
 11
-35.50000000000001
 21
21.37620881633531
 31
0.0
  0
INSERT
  5
8180
330
6EF0
100
AcDbEntity
  8
AM_5
 62
     3
100
AcDbBlockReference
  2
_OPEN30
 10
0.0000000000000013
 20
21.37620881633531
 30
0.0
 41
2.5
 42
2.5
 43
2.5
  0
INSERT
  5
8181
330
6EF0
100
AcDbEntity
  8
AM_5
 62
     3
100
AcDbBlockReference
  2
_OPEN30
 10
-38.00000000000001
 20
21.37620881633531
 30
0.0
 41
2.5
 42
2.5
 43
2.5
 50
180.0
  0
MTEXT
  5
8182
330
6EF0
100
AcDbEntity
  8
AM_5
 62
     2
100
AcDbMText
 10
-19.0
 20
24.47620881633531
 30
0.0
 40
3.2
 41
0.0
 71
     5
 72
     1
  1
38
  7
ASAMI
1001
ACAD
1000
MTEXTBEGIN
1070
    73
1070
     1
1070
    44
1040
1.0
1070
    74
1070
     0
1000
MTEXTEND
  0
POINT
  5
8183
330
6EF0
100
AcDbEntity
  8
DEFPOINTS
 62
     0
100
AcDbPoint
 10
0.0
 20
-0.0000000000000085
 30
0.0
  0
POINT
  5
8184
330
6EF0
100
AcDbEntity
  8
DEFPOINTS
 62
     0
100
AcDbPoint
 10
-38.00000000000001
 20
-6.999999999999994
 30
0.0
  0
POINT
  5
8185
330
6EF0
100
AcDbEntity
  8
DEFPOINTS
 62
     0
100
AcDbPoint
 10
-38.00000000000001
 20
21.37620881633531
 30
0.0
  0
ENDBLK
  5
6EFB
330
6EF0
100
AcDbEntity
  8
0
100
AcDbBlockEnd
  0
BLOCK
  5
6FFC
330
6FEE
100
AcDbEntity
  8
0
100
AcDbBlockBegin
  2
*D6
 70
     1
 10
0.0
 20
0.0
 30
0.0
  3
*D6
  1

  0
ARC
  5
8174
330
6FEE
100
AcDbEntity
  8
AM_5
 62
     3
100
AcDbCircle
 10
-0.0000000000000005
 20
0.0430241002247601
 30
0.0
 40
13.22884891903913
100
AcDbArc
 50
100.8439866237189
 51
172.1560133762812
  0
INSERT
  5
8175
330
6FEE
100
AcDbEntity
  8
AM_5
 62
     3
100
AcDbBlockReference
  2
_OPEN30
 10
0.0000000000000009
 20
13.27187301926389
 30
0.0
 41
2.5
 42
2.5
 43
2.5
 50
5.421993311859466
  0
INSERT
  5
8176
330
6FEE
100
AcDbEntity
  8
AM_5
 62
     3
100
AcDbBlockReference
  2
_OPEN30
 10
-13.21071924135859
 20
-0.6493203579466203
 30
0.0
 41
2.5
 42
2.5
 43
2.5
 50
267.5780066881407
  0
MTEXT
  5
8177
330
6FEE
100
AcDbEntity
  8
AM_5
 62
     2
100
AcDbMText
 10
-11.84452851400269
 20
11.28306196945734
 30
0.0
 40
3.2
 41
0.0
 71
     5
 72
     1
  1
93°
  7
ASAMI
 11
0.6883545756937532
 21
0.7253743710122885
 31
0.0
1001
ACAD
1000
MTEXTBEGIN
1070
    73
1070
     1
1070
    44
1040
1.0
1070
    74
1070
     0
1000
MTEXTEND
  0
POINT
  5
8178
330
6FEE
100
AcDbEntity
  8
DEFPOINTS
 62
     0
100
AcDbPoint
 10
-6.813360880537874
 20
11.38236081955358
 30
0.0
  0
POINT
  5
8179
330
6FEE
100
AcDbEntity
  8
DEFPOINTS
 62
     0
100
AcDbPoint
 10
-0.841868764994345
 20
-0.0010963721963521
 30
0.0
  0
POINT
  5
817A
330
6FEE
100
AcDbEntity
  8
DEFPOINTS
 62
     0
100
AcDbPoint
 10
0.0
 20
11.68810440816766
 30
0.0
  0
POINT
  5
817B
330
6FEE
100
AcDbEntity
  8
DEFPOINTS
 62
     0
100
AcDbPoint
 10
0.0
 20
-20.59804961731757
 30
0.0
  0
POINT
  5
817C
330
6FEE
100
AcDbEntity
  8
DEFPOINTS
 62
     0
100
AcDbPoint
 10
-14.54955972015461
 20
-0.7194860142545654
 30
0.0
  0
ENDBLK
  5
6FFD
330
6FEE
100
AcDbEntity
  8
0
100
AcDbBlockEnd
  0
BLOCK
  5
7144
330
713A
100
AcDbEntity
  8
0
100
AcDbBlockBegin
  2
*D7
 70
     1
 10
0.0
 20
0.0
 30
0.0
  3
*D7
  1

  0
LINE
  5
8143
330
713A
100
AcDbEntity
  8
AM_5
 62
     3
100
AcDbLine
 10
-155.1202022839747
 20
74.66406880467267
 30
0.0
 11
-169.1010157705387
 21
73.93136541727145
 31
0.0
  0
LINE
  5
8144
330
713A
100
AcDbEntity
  8
AM_5
 62
     3
100
AcDbLine
 10
-153.8118033779011
 20
49.69833043580832
 30
0.0
 11
-167.7926168644651
 21
48.9656270484071
 31
0.0
  0
LINE
  5
8145
330
713A
100
AcDbEntity
  8
AM_5
 62
     3
100
AcDbLine
 10
-167.9715463451768
 20
71.48712753662795
 30
0.0
 11
-166.9248272203179
 21
51.51453684153647
 31
0.0
  0
INSERT
  5
8146
330
713A
100
AcDbEntity
  8
AM_5
 62
     3
100
AcDbBlockReference
  2
_OPEN30
 10
-168.1023862357841
 20
73.98370137351439
 30
0.0
 41
2.5
 42
2.5
 43
2.5
 50
93.0
  0
INSERT
  5
8147
330
713A
100
AcDbEntity
  8
AM_5
 62
     3
100
AcDbBlockReference
  2
_OPEN30
 10
-166.7939873297106
 20
49.01796300465004
 30
0.0
 41
2.5
 42
2.5
 43
2.5
 50
273.0
  0
MTEXT
  5
8148
330
713A
100
AcDbEntity
  8
AM_5
 62
     2
100
AcDbMText
 10
-164.3524352250082
 20
61.66307365343537
 30
0.0
 40
3.2
 41
0.0
 71
     5
 72
     1
  1
25
  7
ASAMI
 11
0.0523359562429442
 21
-0.9986295347545739
 31
0.0
1001
ACAD
1000
MTEXTBEGIN
1070
    73
1070
     1
1070
    44
1040
1.0
1070
    74
1070
     0
1000
MTEXTEND
  0
POINT
  5
8149
330
713A
100
AcDbEntity
  8
DEFPOINTS
 62
     0
100
AcDbPoint
 10
-154.1215727492201
 20
74.71640476091561
 30
0.0
  0
POINT
  5
814A
330
713A
100
AcDbEntity
  8
DEFPOINTS
 62
     0
100
AcDbPoint
 10
-152.8131738431464
 20
49.75066639205127
 30
0.0
  0
POINT
  5
814B
330
713A
100
AcDbEntity
  8
DEFPOINTS
 62
     0
100
AcDbPoint
 10
-166.7939873297106
 20
49.01796300465004
 30
0.0
  0
ENDBLK
  5
7145
330
713A
100
AcDbEntity
  8
0
100
AcDbBlockEnd
  0
BLOCK
  5
71D0
330
71C6
100
AcDbEntity
  8
0
100
AcDbBlockBegin
  2
*D8
 70
     1
 10
0.0
 20
0.0
 30
0.0
  3
*D8
  1

  0
LINE
  5
814C
330
71C6
100
AcDbEntity
  8
AM_5
 62
     3
100
AcDbLine
 10
-151.0
 20
-7.000000000000008
 30
0.0
 11
-165.000001
 21
-7.000000000000005
 31
0.0
  0
LINE
  5
814D
330
71C6
100
AcDbEntity
  8
AM_5
 62
     3
100
AcDbLine
 10
-151.0
 20
-32.00000000000001
 30
0.0
 11
-165.000001
 21
-32.00000000000001
 31
0.0
  0
LINE
  5
814E
330
71C6
100
AcDbEntity
  8
AM_5
 62
     3
100
AcDbLine
 10
-164.000001
 20
-9.500000000000005
 30
0.0
 11
-164.000001
 21
-29.50000000000001
 31
0.0
  0
INSERT
  5
814F
330
71C6
100
AcDbEntity
  8
AM_5
 62
     3
100
AcDbBlockReference
  2
_OPEN30
 10
-164.000001
 20
-7.000000000000005
 30
0.0
 41
2.5
 42
2.5
 43
2.5
 50
90.0
  0
INSERT
  5
8150
330
71C6
100
AcDbEntity
  8
AM_5
 62
     3
100
AcDbBlockReference
  2
_OPEN30
 10
-164.000001
 20
-32.00000000000001
 30
0.0
 41
2.5
 42
2.5
 43
2.5
 50
270.0
  0
MTEXT
  5
8151
330
71C6
100
AcDbEntity
  8
AM_5
 62
     2
100
AcDbMText
 10
-167.100001
 20
-19.50000000000003
 30
0.0
 40
3.2
 41
0.0
 71
     5
 72
     1
  1
25
  7
ASAMI
 11
0.0000000000000001
 21
1.0
 31
0.0
1001
ACAD
1000
MTEXTBEGIN
1070
    73
1070
     1
1070
    44
1040
1.0
1070
    74
1070
     0
1000
MTEXTEND
  0
POINT
  5
8152
330
71C6
100
AcDbEntity
  8
DEFPOINTS
 62
     0
100
AcDbPoint
 10
-150.0
 20
-7.000000000000008
 30
0.0
  0
POINT
  5
8153
330
71C6
100
AcDbEntity
  8
DEFPOINTS
 62
     0
100
AcDbPoint
 10
-150.0
 20
-32.00000000000001
 30
0.0
  0
POINT
  5
8154
330
71C6
100
AcDbEntity
  8
DEFPOINTS
 62
     0
100
AcDbPoint
 10
-164.000001
 20
-32.00000000000001
 30
0.0
  0
ENDBLK
  5
71D1
330
71C6
100
AcDbEntity
  8
0
100
AcDbBlockEnd
  0
BLOCK
  5
725C
330
7252
100
AcDbEntity
  8
0
100
AcDbBlockBegin
  2
*D9
 70
     1
 10
0.0
 20
0.0
 30
0.0
  3
*D9
  1

  0
LINE
  5
8162
330
7252
100
AcDbEntity
  8
AM_5
 62
     3
100
AcDbLine
 10
-2.020114095205895
 20
57.65339578473589
 30
0.0
 11
28.27883140842799
 21
59.24129623319928
 31
0.0
  0
LINE
  5
8163
330
7252
100
AcDbEntity
  8
AM_5
 62
     3
100
AcDbLine
 10
-5.306891007898327
 20
82.51545175569093
 30
0.0
 11
26.97043250235434
 21
84.20703460206363
 31
0.0
  0
LINE
  5
8164
330
7252
100
AcDbEntity
  8
AM_5
 62
     3
100
AcDbLine
 10
27.14936198306605
 20
61.68553411384278
 30
0.0
 11
26.10264285820713
 21
81.65812480893427
 31
0.0
  0
INSERT
  5
8165
330
7252
100
AcDbEntity
  8
AM_5
 62
     3
100
AcDbBlockReference
  2
_OPEN30
 10
27.28020187367341
 20
59.18896027695634
 30
0.0
 41
2.5
 42
2.5
 43
2.5
 50
273.0000000000001
  0
INSERT
  5
8166
330
7252
100
AcDbEntity
  8
AM_5
 62
     3
100
AcDbBlockReference
  2
_OPEN30
 10
25.97180296759976
 20
84.15469864582069
 30
0.0
 41
2.5
 42
2.5
 43
2.5
 50
93.00000000000009
  0
MTEXT
  5
8167
330
7252
100
AcDbEntity
  8
AM_5
 62
     2
100
AcDbMText
 10
29.72175397837576
 20
71.83407092574164
 30
0.0
 40
3.2
 41
0.0
 71
     5
 72
     1
  1
25
  7
ASAMI
 11
0.052335956242946
 21
-0.9986295347545739
 31
0.0
1001
ACAD
1000
MTEXTBEGIN
1070
    73
1070
     1
1070
    44
1040
1.0
1070
    74
1070
     0
1000
MTEXTEND
  0
POINT
  5
8168
330
7252
100
AcDbEntity
  8
DEFPOINTS
 62
     0
100
AcDbPoint
 10
-3.018743629960468
 20
57.60105982849294
 30
0.0
  0
POINT
  5
8169
330
7252
100
AcDbEntity
  8
DEFPOINTS
 62
     0
100
AcDbPoint
 10
-6.305520542652901
 20
82.46311579944798
 30
0.0
  0
POINT
  5
816A
330
7252
100
AcDbEntity
  8
DEFPOINTS
 62
     0
100
AcDbPoint
 10
25.97180296759976
 20
84.15469864582069
 30
0.0
  0
ENDBLK
  5
725D
330
7252
100
AcDbEntity
  8
0
100
AcDbBlockEnd
  0
BLOCK
  5
7444
330
743A
100
AcDbEntity
  8
0
100
AcDbBlockBegin
  2
*D10
 70
     1
 10
0.0
 20
0.0
 30
0.0
  3
*D10
  1

  0
LINE
  5
816B
330
743A
100
AcDbEntity
  8
AM_5
 62
     3
100
AcDbLine
 10
-21.94285179239145
 20
-32.00000000000001
 30
0.0
 11
15.00000100999999
 21
-32.00000000000001
 31
0.0
  0
LINE
  5
816C
330
743A
100
AcDbEntity
  8
AM_5
 62
     3
100
AcDbLine
 10
1.0
 20
-0.0000000000000088
 30
0.0
 11
15.00000100999999
 21
-0.0000000000000127
 31
0.0
  0
LINE
  5
816D
330
743A
100
AcDbEntity
  8
AM_5
 62
     3
100
AcDbLine
 10
14.00000100999999
 20
-29.50000000000001
 30
0.0
 11
14.00000100999999
 21
-2.500000000000012
 31
0.0
  0
INSERT
  5
816E
330
743A
100
AcDbEntity
  8
AM_5
 62
     3
100
AcDbBlockReference
  2
_OPEN30
 10
14.00000100999999
 20
-32.00000000000001
 30
0.0
 41
2.5
 42
2.5
 43
2.5
 50
270.0
  0
INSERT
  5
816F
330
743A
100
AcDbEntity
  8
AM_5
 62
     3
100
AcDbBlockReference
  2
_OPEN30
 10
14.00000100999999
 20
-0.0000000000000125
 30
0.0
 41
2.5
 42
2.5
 43
2.5
 50
90.0
  0
MTEXT
  5
8170
330
743A
100
AcDbEntity
  8
AM_5
 62
     2
100
AcDbMText
 10
10.90000100999999
 20
-16.00000000000001
 30
0.0
 40
3.2
 41
0.0
 71
     5
 72
     1
  1
32
  7
ASAMI
 11
0.0000000000000001
 21
1.0
 31
0.0
1001
ACAD
1000
MTEXTBEGIN
1070
    73
1070
     1
1070
    44
1040
1.0
1070
    74
1070
     0
1000
MTEXTEND
  0
POINT
  5
8171
330
743A
100
AcDbEntity
  8
DEFPOINTS
 62
     0
100
AcDbPoint
 10
-22.94285179239145
 20
-32.00000000000001
 30
0.0
  0
POINT
  5
8172
330
743A
100
AcDbEntity
  8
DEFPOINTS
 62
     0
100
AcDbPoint
 10
0.0
 20
-0.0000000000000085
 30
0.0
  0
POINT
  5
8173
330
743A
100
AcDbEntity
  8
DEFPOINTS
 62
     0
100
AcDbPoint
 10
14.00000100999999
 20
-0.0000000000000125
 30
0.0
  0
ENDBLK
  5
7445
330
743A
100
AcDbEntity
  8
0
100
AcDbBlockEnd
  0
BLOCK
  5
76B6
330
76A7
100
AcDbEntity
  8
0
100
AcDbBlockBegin
  2
*D11
 70
     1
 10
0.0
 20
0.0
 30
0.0
  3
*D11
  1

  0
LINE
  5
8186
330
76A7
100
AcDbEntity
  8
AM_5
 62
     3
100
AcDbLine
 10
54.92561440290685
 20
3.919115398736373
 30
0.0
 11
55.52302386595346
 21
21.02668409614989
 31
0.0
  0
LINE
  5
8187
330
76A7
100
AcDbEntity
  8
AM_5
 62
     3
100
AcDbLine
 10
54.83837894996139
 20
3.91835410647185
 30
0.0
 11
53.94249223320861
 21
21.01289100555182
 31
0.0
  0
ARC
  5
8188
330
76A7
100
AcDbEntity
  8
AM_5
 62
     3
100
AcDbCircle
 10
54.89071490620434
 20
2.919724571717276
 30
0.0
 40
17.11799651837974
100
AcDbArc
 50
71.24955210457432
 51
79.62477605228714
  0
ARC
  5
8189
330
76A7
100
AcDbEntity
  8
AM_5
 62
     3
100
AcDbCircle
 10
54.89071490620434
 20
2.919724571717276
 30
0.0
 40
17.11799651837974
100
AcDbArc
 50
101.3752239477128
 51
109.7504478954256
  0
ARC
  5
818A
330
76A7
100
AcDbEntity
  8
AM_5
 62
     3
100
AcDbCircle
 10
54.89071490620434
 20
2.919724571717276
 30
0.0
 40
17.11799651837974
100
AcDbArc
 50
88.0
 51
92.99999999999997
  0
INSERT
  5
818B
330
76A7
100
AcDbEntity
  8
AM_5
 62
     3
100
AcDbBlockReference
  2
_OPEN30
 10
55.48812436925095
 20
20.0272932691308
 30
0.0
 41
2.5
 42
2.5
 43
2.5
 50
173.8123880261435
  0
INSERT
  5
818C
330
76A7
100
AcDbEntity
  8
AM_5
 62
     3
100
AcDbBlockReference
  2
_OPEN30
 10
53.99482818945156
 20
20.01426147079725
 30
0.0
 41
2.5
 42
2.5
 43
2.5
 50
7.187611973856395
  0
MTEXT
  5
818D
330
76A7
100
AcDbEntity
  8
AM_5
 62
     2
100
AcDbMText
 10
49.2086602083382
 20
22.32285930885891
 30
0.0
 40
3.2
 41
0.0
 71
     5
 72
     1
  1
-5°
  7
ASAMI
 11
0.9596962151765467
 21
0.2810394537708387
 31
0.0
1001
ACAD
1000
MTEXTBEGIN
1070
    73
1070
     1
1070
    44
1040
1.0
1070
    74
1070
     0
1000
MTEXTEND
  0
POINT
  5
818E
330
76A7
100
AcDbEntity
  8
DEFPOINTS
 62
     0
100
AcDbPoint
 10
54.99030281128399
 20
20.0374313998068
 30
0.0
  0
POINT
  5
818F
330
76A7
100
AcDbEntity
  8
DEFPOINTS
 62
     0
100
AcDbPoint
 10
54.89071490620434
 20
2.919724571717161
 30
0.0
  0
POINT
  5
8190
330
76A7
100
AcDbEntity
  8
DEFPOINTS
 62
     0
100
AcDbPoint
 10
54.40653502094352
 20
-10.94537325710432
 30
0.0
  0
POINT
  5
8191
330
76A7
100
AcDbEntity
  8
DEFPOINTS
 62
     0
100
AcDbPoint
 10
54.89071490620433
 20
2.919724571717166
 30
0.0
  0
POINT
  5
8192
330
76A7
100
AcDbEntity
  8
DEFPOINTS
 62
     0
100
AcDbPoint
 10
56.20450306978011
 20
-22.14884695619178
 30
0.0
  0
ENDBLK
  5
76B7
330
76A7
100
AcDbEntity
  8
0
100
AcDbBlockEnd
  0
BLOCK
  5
7A20
330
7A12
100
AcDbEntity
  8
0
100
AcDbBlockBegin
  2
*D12
 70
     1
 10
0.0
 20
0.0
 30
0.0
  3
*D12
  1

  0
LINE
  5
8155
330
7A12
100
AcDbEntity
  8
AM_5
 62
     3
100
AcDbLine
 10
13.12935865661103
 20
58.44734600896757
 30
0.0
 11
16.91100527959229
 21
58.64553371051123
 31
0.0
  0
LINE
  5
8156
330
7A12
100
AcDbEntity
  8
AM_5
 62
     3
100
AcDbLine
 10
-2.031055289365326
 20
57.75749429353317
 30
0.0
 11
16.69265077997116
 21
60.72303800012619
 31
0.0
  0
ARC
  5
8157
330
7A12
100
AcDbEntity
  8
AM_5
 62
     3
100
AcDbCircle
 10
-3.018743629960468
 20
57.60105982849293
 30
0.0
 40
18.95709942070836
100
AcDbArc
 50
347.8770693351646
 51
355.4385346675823
  0
ARC
  5
8158
330
7A12
100
AcDbEntity
  8
AM_5
 62
     3
100
AcDbCircle
 10
-3.018743629960468
 20
57.60105982849293
 30
0.0
 40
18.95709942070836
100
AcDbArc
 50
16.56146533241781
 51
24.12293066483552
  0
ARC
  5
8159
330
7A12
100
AcDbEntity
  8
AM_5
 62
     3
100
AcDbCircle
 10
-3.018743629960468
 20
57.60105982849293
 30
0.0
 40
18.95709942070836
100
AcDbArc
 50
3.000000000000042
 51
9.000000000000101
  0
INSERT
  5
815A
330
7A12
100
AcDbEntity
  8
AM_5
 62
     3
100
AcDbBlockReference
  2
_OPEN30
 10
15.91237574483773
 20
58.59319775426829
 30
0.0
 41
2.5
 42
2.5
 43
2.5
 50
89.21926733379118
  0
INSERT
  5
815B
330
7A12
100
AcDbEntity
  8
AM_5
 62
     3
100
AcDbBlockReference
  2
_OPEN30
 10
15.70496243937602
 20
60.56660353508596
 30
0.0
 41
2.5
 42
2.5
 43
2.5
 50
282.7807326662089
  0
MTEXT
  5
815C
330
7A12
100
AcDbEntity
  8
AM_5
 62
     2
100
AcDbMText
 10
17.6627242937902
 20
65.26868784332814
 30
0.0
 40
3.2
 41
0.0
 71
     5
 72
     1
  1
-6°
  7
ASAMI
 11
0.3476263070037409
 21
-0.9376331642379875
 31
0.0
1001
ACAD
1000
MTEXTBEGIN
1070
    73
1070
     1
1070
    44
1040
1.0
1070
    74
1070
     0
1000
MTEXTEND
  0
POINT
  5
815D
330
7A12
100
AcDbEntity
  8
DEFPOINTS
 62
     0
100
AcDbPoint
 10
15.8662183041473
 20
59.253279908846
 30
0.0
  0
POINT
  5
815E
330
7A12
100
AcDbEntity
  8
DEFPOINTS
 62
     0
100
AcDbPoint
 10
-17.5759278795855
 20
55.2954283484149
 30
0.0
  0
POINT
  5
815F
330
7A12
100
AcDbEntity
  8
DEFPOINTS
 62
     0
100
AcDbPoint
 10
12.13072912185646
 20
58.39501005272461
 30
0.0
  0
POINT
  5
8160
330
7A12
100
AcDbEntity
  8
DEFPOINTS
 62
     0
100
AcDbPoint
 10
-19.36192487184845
 20
56.74454999318533
 30
0.0
  0
POINT
  5
8161
330
7A12
100
AcDbEntity
  8
DEFPOINTS
 62
     0
100
AcDbPoint
 10
-3.018743629960471
 20
57.60105982849293
 30
0.0
  0
ENDBLK
  5
7A21
330
7A12
100
AcDbEntity
  8
0
100
AcDbBlockEnd
  0
BLOCK
  5
809C
330
8092
100
AcDbEntity
  8
0
100
AcDbBlockBegin
  2
*D13
 70
     1
 10
0.0
 20
0.0
 30
0.0
  3
*D13
  1

  0
LINE
  5
813A
330
8092
100
AcDbEntity
  8
AM_5
 62
     3
100
AcDbLine
 10
-150.0
 20
-6.000000000000008
 30
0.0
 11
-150.0
 21
34.48363607860434
 31
0.0
  0
LINE
  5
813B
330
8092
100
AcDbEntity
  8
AM_5
 62
     3
100
AcDbLine
 10
0.0000000000000001
 20
0.9999999999999914
 30
0.0
 11
0.0000000000000021
 21
34.48363607860434
 31
0.0
  0
LINE
  5
813C
330
8092
100
AcDbEntity
  8
AM_5
 62
     3
100
AcDbLine
 10
-147.5
 20
33.48363607860434
 30
0.0
 11
-2.499999999999997
 21
33.48363607860434
 31
0.0
  0
INSERT
  5
813D
330
8092
100
AcDbEntity
  8
AM_5
 62
     3
100
AcDbBlockReference
  2
_OPEN30
 10
-150.0
 20
33.48363607860434
 30
0.0
 41
2.5
 42
2.5
 43
2.5
 50
180.0
  0
INSERT
  5
813E
330
8092
100
AcDbEntity
  8
AM_5
 62
     3
100
AcDbBlockReference
  2
_OPEN30
 10
0.0000000000000021
 20
33.48363607860434
 30
0.0
 41
2.5
 42
2.5
 43
2.5
  0
MTEXT
  5
813F
330
8092
100
AcDbEntity
  8
AM_5
 62
     2
100
AcDbMText
 10
-75.0
 20
36.58363607860434
 30
0.0
 40
3.2
 41
0.0
 71
     5
 72
     1
  1
150
  7
ASAMI
1001
ACAD
1000
MTEXTBEGIN
1070
    73
1070
     1
1070
    44
1040
1.0
1070
    74
1070
     0
1000
MTEXTEND
  0
POINT
  5
8140
330
8092
100
AcDbEntity
  8
DEFPOINTS
 62
     0
100
AcDbPoint
 10
-150.0
 20
-7.000000000000008
 30
0.0
  0
POINT
  5
8141
330
8092
100
AcDbEntity
  8
DEFPOINTS
 62
     0
100
AcDbPoint
 10
0.0
 20
-0.0000000000000085
 30
0.0
  0
POINT
  5
8142
330
8092
100
AcDbEntity
  8
DEFPOINTS
 62
     0
100
AcDbPoint
 10
0.0000000000000021
 20
33.48363607860434
 30
0.0
  0
ENDBLK
  5
809D
330
8092
100
AcDbEntity
  8
0
100
AcDbBlockEnd
  0
ENDSEC
  0
SECTION
  2
ENTITIES
  0
TEXT
  5
C58
330
1F
100
AcDbEntity
  8
AM_6
100
AcDbText
 10
-103.6904761904761
 20
-54.50000000000009
 30
0.0
 40
5.0
  1
MTJNR2525-43
 50
0.0000000000002036
 72
     4
 11
-74.99999999999994
 21
-52.0
 31
0.0
100
AcDbText
  0
LINE
  5
5F9C
330
1F
100
AcDbEntity
  8
AM_0
100
AcDbLine
 10
-22.94285179239145
 20
-32.00000000000001
 30
0.0
 11
-150.0
 21
-32.00000000000001
 31
0.0
  0
LINE
  5
5FA5
330
1F
100
AcDbEntity
  8
AM_0
100
AcDbLine
 10
-150.0
 20
-7.000000000000008
 30
0.0
 11
-150.0
 21
-32.00000000000001
 31
0.0
  0
LINE
  5
5FAD
330
1F
100
AcDbEntity
  8
AM_0
100
AcDbLine
 10
-33.00000000000011
 20
-6.999999999999994
 30
0.0
 11
-150.0
 21
-7.000000000000008
 31
0.0
  0
LINE
  5
5FB6
330
1F
100
AcDbEntity
  8
AM_0
100
AcDbLine
 10
-12.16379704568943
 20
-25.0
 30
0.0
 11
-22.94285179239144
 21
-32.00000000000002
 31
0.0
  0
LINE
  5
5FBF
330
1F
100
AcDbEntity
  8
AM_0
100
AcDbLine
 10
-38.00000000000001
 20
-7.000000000000008
 30
0.0
 11
-38.00000000000001
 21
-32.00000000000001
 31
0.0
  0
LINE
  5
603E
330
1F
100
AcDbEntity
  8
AM_0
100
AcDbLine
 10
-25.6226254996708
 20
-2.209076981624535
 30
0.0
 11
-33.00000000000012
 21
-7.000000000000023
 31
0.0
  0
LINE
  5
60F9
330
1F
100
AcDbEntity
  8
AM_0
100
AcDbLine
 10
-155.5887401009335
 20
74.63951377817576
 30
0.0
 11
-5.784323443303255
 21
82.49043058199365
 31
0.0
  0
LINE
  5
60FA
330
1F
100
AcDbEntity
  8
AM_0
100
AcDbLine
 10
-152.9737354040178
 20
49.7422517172078
 30
0.0
 11
-154.2821343100914
 21
74.70799008607214
 31
0.0
  0
LINE
  5
6103
330
1F
100
AcDbEntity
  8
AM_0
100
AcDbLine
 10
-154.2803411948608
 20
49.67377540931135
 30
0.0
 11
-41.25307288487558
 21
55.5972835398662
 31
0.0
  0
LINE
  5
6111
330
1F
100
AcDbEntity
  8
AM_0
100
AcDbLine
 10
-35.85640646055102
 20
-7.485434973032576
 30
0.0
 11
-35.85640646055102
 21
-32.00000000000001
 31
0.0
  0
LINE
  5
6131
330
1F
100
AcDbEntity
  8
AM_0
100
AcDbLine
 10
-8.411698389131741
 20
-17.63609175894817
 30
0.0
 11
-12.16379704568943
 21
-25.0
 31
0.0
  0
LINE
  5
6171
330
1F
100
AcDbEntity
  8
AM_0
100
AcDbLine
 10
51.07339588566883
 20
-28.12104622007018
 30
0.0
 11
81.46976601131234
 21
-26.55571736252475
 31
0.0
  0
LINE
  5
6187
330
1F
100
AcDbEntity
  8
AM_0
100
AcDbLine
 10
81.46976601131234
 20
-26.55571736252475
 30
0.0
 11
79.98834205548345
 21
1.711535631120716
 31
0.0
  0
LINE
  5
61B2
330
1F
100
AcDbEntity
  8
AM_0
100
AcDbLine
 10
-29.14032825881845
 20
62.08739464478339
 30
0.0
 11
-32.93543345646554
 21
81.05050044728304
 31
0.0
  0
LINE
  5
6286
330
1F
100
AcDbEntity
  8
AM_0
100
AcDbLine
 10
-20.78534792098721
 20
-1.955566005949749
 30
0.0
 11
-25.6226254996708
 21
-2.209076981624535
 31
0.0
  0
LINE
  5
628D
330
1F
100
AcDbEntity
  8
AM_7
100
AcDbLine
 10
-17.75760715166181
 20
83.47560046354704
 30
0.0
 11
-12.70576758965698
 21
51.57954077704392
 31
0.0
  0
POINT
  5
68EE
330
1F
100
AcDbEntity
  8
0
 60
     1
100
AcDbPoint
 10
0.0
 20
0.0
 30
0.0
1001
GENIUS_GENOBJ-NBEHI-BHF_13
1002
{
1000
OWNER
1000
GENBEHI
1002
}
1001
GENIUS_GENOENT_13
1002
{
1000
MYREF
1005
68EE
1002
}
1002
{
1000
GRP
1005
0
1002
}
1001
GENIUS_GENOLIS_13
1002
{
1000
ENT
1005
68EB
1002
}
1001
GENIUS_GENBH_13
1002
{
1000
OIUMAP
1000
OIU
1002
}
1002
{
1000
FLAGS
1070
    32
1002
}
1002
{
1000
BGO
1005
68F2
1002
}
1001
GENIUS_GENODEF_13
1002
{
1000
HIER
1070
     1
1002
}
1002
{
1000
MANEDIT
1070
     1
1002
}
1002
{
1000
NOSEL
1070
     1
1002
}
1002
{
1000
BEHIND
1070
     0
1002
}
1002
{
1000
REACTOR
1002
}
  0
POINT
  5
68F2
330
1F
100
AcDbEntity
  8
0
 60
     1
100
AcDbPoint
 10
0.0
 20
0.0
 30
0.0
1001
GENIUS_GENOBJ-NBEHI-BHB_13
1002
{
1000
OWNER
1000
GENBEHI
1002
}
1001
GENIUS_GENOENT_13
1002
{
1000
MYREF
1005
68F2
1002
}
1002
{
1000
GRP
1005
0
1002
}
1001
GENIUS_GENOLIS_13
1002
{
1000
ENT
1002
}
1001
GENIUS_GENODEF_13
1002
{
1000
HIER
1070
     1
1002
}
1002
{
1000
MANEDIT
1070
     0
1002
}
1002
{
1000
NOSEL
1070
     1
1002
}
1002
{
1000
BEHIND
1070
     0
1002
}
1002
{
1000
REACTOR
1002
}
1002
{
1000
OTHER
1070
     1
1002
}
1001
GENIUS_GENBH_13
1002
{
1000
FGO
1005
68EE
1002
}
  0
LINE
  5
6993
330
1F
100
AcDbEntity
  8
AM_0
100
AcDbLine
 10
-23.58503179548395
 20
54.34367978784334
 30
0.0
 11
-25.07428790266698
 21
63.74647279030902
 31
0.0
  0
LINE
  5
69A2
330
1F
100
AcDbEntity
  8
AM_0
100
AcDbLine
 10
-4.507999737143455
 20
67.00385283095863
 30
0.0
 11
-3.018743629960467
 21
57.60105982849293
 31
0.0
  0
LINE
  5
69B2
330
1F
100
AcDbEntity
  8
AM_0
100
AcDbLine
 10
-23.58503179548395
 20
54.34367978784333
 30
0.0
 11
-3.018743629960467
 21
57.60105982849293
 31
0.0
  0
LINE
  5
69B4
330
1F
100
AcDbEntity
  8
AM_0
100
AcDbLine
 10
-5.032572975292435
 20
66.92028132782475
 30
0.0
 11
-7.205005655175801
 21
82.37794304218462
 31
0.0
  0
LINE
  5
69F7
330
1F
100
AcDbEntity
  8
AM_0
100
AcDbLine
 10
-38.08371043800555
 20
49.00991930823821
 30
0.0
 11
-37.36211851851612
 21
60.16007811163849
 31
0.0
  0
LINE
  5
6A07
330
1F
100
AcDbEntity
  8
AM_0
100
AcDbLine
 10
-37.9534539423045
 20
60.69414815948624
 30
0.0
 11
-38.81193483469517
 21
48.89457989473785
 31
0.0
  0
LINE
  5
6A10
330
1F
100
AcDbEntity
  8
AM_0
100
AcDbLine
 10
-13.22468193230751
 20
55.98459800248893
 30
0.0
 11
-13.19849046464955
 21
55.48483502805503
 31
0.0
  0
LINE
  5
6A2A
330
1F
100
AcDbEntity
  8
AM_0
100
AcDbLine
 10
-22.54795903785907
 20
54.50793597613557
 30
0.0
 11
-23.12390280962684
 21
54.27785038049117
 31
0.0
  0
ARC
  5
6A2B
330
1F
100
AcDbEntity
  8
AM_0
100
AcDbCircle
 10
-23.60812657678208
 20
54.40245914150743
 30
0.0
 40
0.5
100
AcDbArc
 50
98.69336708299069
 51
345.5687859873742
  0
LINE
  5
6A2D
330
1F
100
AcDbEntity
  8
AM_0
100
AcDbLine
 10
-23.7572332800665
 20
55.43091717195562
 30
0.0
 11
-26.34145066187671
 21
61.89965721532563
 31
0.0
  0
LINE
  5
6A41
330
1F
100
AcDbEntity
  8
AM_0
100
AcDbLine
 10
-31.05951883035642
 20
54.83736440330531
 30
0.0
 11
-30.25584129118305
 21
49.76314412303917
 31
0.0
  0
LINE
  5
6A46
330
1F
100
AcDbEntity
  8
AM_0
100
AcDbLine
 10
-31.82110114538337
 20
54.71674161457872
 30
0.0
 11
-31.09260556504638
 21
50.11720154079201
 31
0.0
  0
LINE
  5
6A5E
330
1F
100
AcDbEntity
  8
AM_0
100
AcDbLine
 10
-38.81193483469517
 20
48.89457989473785
 30
0.0
 11
-30.33102325001944
 21
50.23782432951862
 31
0.0
  0
LINE
  5
6A5F
330
1F
100
AcDbEntity
  8
AM_0
100
AcDbLine
 10
-30.25280601749932
 20
49.74398015922105
 30
0.0
 11
-16.70758326400468
 21
51.88933268410448
 31
0.0
  0
LINE
  5
6A7A
330
1F
100
AcDbEntity
  8
AM_0
100
AcDbLine
 10
-38.76024852706088
 20
49.60499304509363
 30
0.0
 11
-41.28050926339651
 21
55.59584566019633
 31
0.0
  0
LINE
  5
6A81
330
1F
100
AcDbEntity
  8
AM_7
100
AcDbLine
 10
-29.77168541882769
 20
81.55158890955217
 30
0.0
 11
-23.89734023722434
 21
44.46243312148002
 31
0.0
  0
LINE
  5
6A8B
330
1F
100
AcDbEntity
  8
AM_0
100
AcDbLine
 10
-32.03615891895798
 20
61.0036272420056
 30
0.0
 11
-30.25584129118305
 21
49.76314412303917
 31
0.0
  0
LINE
  5
6AB5
330
1F
100
AcDbEntity
  8
AM_0
100
AcDbLine
 10
-27.79142936717554
 20
45.07704468336549
 30
0.0
 11
-20.383766812712
 21
46.25030317116721
 31
0.0
  0
LINE
  5
6B26
330
1F
100
AcDbEntity
  8
AM_0
100
AcDbLine
 10
-20.383766812712
 20
46.25030317116723
 30
0.0
 11
-19.13688599937965
 21
47.96648737962028
 31
0.0
1001
GENIUS_GENFIL_13
1070
     0
1040
1.5
1040
1.5
1040
20.0
1040
0.0
1002
{
1002
}
1001
GENIUS_GENODEF_13
1002
{
1000
HIER
1070
     0
1002
}
1002
{
1000
MANEDIT
1070
     0
1002
}
1002
{
1000
NOSEL
1070
     0
1002
}
1002
{
1000
BEHIND
1070
     0
1002
}
1002
{
1000
REACTOR
1002
}
1001
GENIUS_GENOBJ-N-CHA_13
1002
{
1000
OWNER
1000
GEN
1002
}
  0
LINE
  5
6B29
330
1F
100
AcDbEntity
  8
AM_0
100
AcDbLine
 10
-27.79142936717554
 20
45.07704468336547
 30
0.0
 11
-29.50761357562859
 21
46.32392549669783
 31
0.0
1001
GENIUS_GENFIL_13
1070
     0
1040
1.5
1040
1.5
1040
20.0
1040
0.0
1002
{
1002
}
1001
GENIUS_GENODEF_13
1002
{
1000
HIER
1070
     0
1002
}
1002
{
1000
MANEDIT
1070
     0
1002
}
1002
{
1000
NOSEL
1070
     0
1002
}
1002
{
1000
BEHIND
1070
     0
1002
}
1002
{
1000
REACTOR
1002
}
1001
GENIUS_GENOBJ-N-CHA_13
1002
{
1000
OWNER
1000
GEN
1002
}
  0
LINE
  5
6B2B
330
1F
100
AcDbEntity
  8
AM_0
100
AcDbLine
 10
-19.13688599937965
 20
47.96648737962028
 30
0.0
 11
-29.50761357562861
 21
46.32392549669784
 31
0.0
  0
LINE
  5
6B3E
330
1F
100
AcDbEntity
  8
AM_0
100
AcDbLine
 10
54.26469378531982
 20
-15.00717480638926
 30
0.0
 11
54.89071490620443
 21
2.919724571717152
 31
0.0
  0
LINE
  5
6C0F
330
1F
100
AcDbEntity
  8
AM_0
100
AcDbLine
 10
79.95041348913019
 20
1.709547879186756
 30
0.0
 11
64.3932288332131
 21
2.252816738496575
 31
0.0
  0
LINE
  5
6C82
330
1F
100
AcDbEntity
  8
AM_0
100
AcDbLine
 10
64.40491557942621
 20
2.58748136310936
 30
0.0
 11
54.89071490620443
 21
2.919724571717152
 31
0.0
  0
LINE
  5
6D36
330
1F
100
AcDbEntity
  8
AM_0
100
AcDbLine
 10
63.77889445854163
 20
-15.33941801499706
 30
0.0
 11
54.26469378531981
 21
-15.00717480638926
 31
0.0
  0
LINE
  5
6D42
330
1F
100
AcDbEntity
  8
AM_0
100
AcDbLine
 10
-24.32965984907546
 20
59.04507628907618
 30
0.0
 11
-3.763371683551977
 21
62.30245632972579
 31
0.0
  0
LINE
  5
6D59
330
1F
100
AcDbEntity
  8
AM_7
100
AcDbLine
 10
82.09531998945005
 20
-4.411021794825254
 30
0.0
 11
51.40580328851354
 21
-3.339320256298692
 31
0.0
  0
LINE
  5
6D9B
330
1F
100
AcDbEntity
  8
AM_0
100
AcDbLine
 10
59.02179412193073
 20
-15.17329641069316
 30
0.0
 11
59.64781524281534
 21
2.753602967413256
 31
0.0
  0
LINE
  5
6DAF
330
1F
100
AcDbEntity
  8
AM_0
100
AcDbLine
 10
50.91227684217964
 20
-25.04671045655761
 30
0.0
 11
61.45467838314584
 21
-23.74317734397332
 31
0.0
  0
LINE
  5
6DB7
330
1F
100
AcDbEntity
  8
AM_0
100
AcDbLine
 10
61.45467838314584
 20
-23.74317734397332
 30
0.0
 11
61.70802130845769
 21
-16.48838516730905
 31
0.0
  0
LINE
  5
6DC8
330
1F
100
AcDbEntity
  8
AM_0
100
AcDbLine
 10
53.90745162557475
 20
-10.91039760226252
 30
0.0
 11
54.30196607803468
 21
0.3870181821504545
 31
0.0
  0
LINE
  5
6DC9
330
1F
100
AcDbEntity
  8
AM_0
100
AcDbLine
 10
53.90755516603115
 20
-10.90743259152929
 30
0.0
 11
50.78748696378577
 21
-14.29337084746687
 31
0.0
  0
LINE
  5
6DCC
330
1F
100
AcDbEntity
  8
AM_0
100
AcDbLine
 10
61.60593678411503
 20
-19.41170346265159
 30
0.0
 11
50.62214514645781
 21
-19.02814100672757
 31
0.0
  0
LINE
  5
6ED5
330
1F
100
AcDbEntity
  8
AM_0
100
AcDbLine
 10
61.63284620451553
 20
-16.48575999483276
 30
0.0
 11
54.79266073178421
 21
-15.03183368956377
 31
0.0
  0
ARC
  5
6ED6
330
1F
100
AcDbEntity
  8
AM_0
100
AcDbCircle
 10
54.30358693141732
 20
-14.92787784415488
 30
0.0
 40
0.5
100
AcDbArc
 50
92.95126043947794
 51
347.9999999999992
  0
LINE
  5
6EDC
330
1F
100
AcDbEntity
  8
AM_7
100
AcDbLine
 10
83.54504975766314
 20
-11.57306928160295
 30
0.0
 11
43.99637755386879
 21
-10.1919992158695
 31
0.0
  0
LINE
  5
6EE1
330
1F
100
AcDbEntity
  8
AM_0
100
AcDbLine
 10
46.05998613581177
 20
-6.511776224360184
 30
0.0
 11
45.79823991054298
 21
-14.00720742700337
 31
0.0
  0
LINE
  5
6EE2
330
1F
100
AcDbEntity
  8
AM_0
100
AcDbLine
 10
47.24497690601786
 20
-15.55864291258574
 30
0.0
 11
47.61142162139417
 21
-5.065039228885263
 31
0.0
  0
LINE
  5
6EE4
330
1F
100
AcDbEntity
  8
AM_0
100
AcDbLine
 10
45.79823991054296
 20
-14.00720742700337
 30
0.0
 11
47.24497690601785
 21
-15.55864291258574
 31
0.0
1001
GENIUS_GENFIL_13
1070
     0
1040
1.5
1040
1.5
1040
20.0
1040
0.0
1002
{
1002
}
1001
GENIUS_GENODEF_13
1002
{
1000
HIER
1070
     0
1002
}
1002
{
1000
MANEDIT
1070
     0
1002
}
1002
{
1000
NOSEL
1070
     0
1002
}
1002
{
1000
BEHIND
1070
     0
1002
}
1002
{
1000
REACTOR
1002
}
1001
GENIUS_GENOBJ-N-CHA_13
1002
{
1000
OWNER
1000
GEN
1002
}
  0
LINE
  5
6EE6
330
1F
100
AcDbEntity
  8
AM_0
100
AcDbLine
 10
46.05998613581181
 20
-6.511776224360184
 30
0.0
 11
47.61142162139417
 21
-5.065039228885263
 31
0.0
1001
GENIUS_GENFIL_13
1070
     0
1040
1.5
1040
1.5
1040
20.0
1040
0.0
1002
{
1002
}
1001
GENIUS_GENODEF_13
1002
{
1000
HIER
1070
     0
1002
}
1002
{
1000
MANEDIT
1070
     0
1002
}
1002
{
1000
NOSEL
1070
     0
1002
}
1002
{
1000
BEHIND
1070
     0
1002
}
1002
{
1000
REACTOR
1002
}
1001
GENIUS_GENOBJ-N-CHA_13
1002
{
1000
OWNER
1000
GEN
1002
}
  0
DIMENSION
  5
6EEF
330
1F
100
AcDbEntity
  8
AM_5
100
AcDbDimension
  2
*D5
 10
-38.00000000000001
 20
21.37620881633531
 30
0.0
 11
-19.0
 21
24.47620881633531
 31
0.0
 70
    32
  1
<>
  3
AM_JIS
100
AcDbAlignedDimension
 13
0.0
 23
-0.0000000000000085
 33
0.0
 14
-38.00000000000001
 24
-6.999999999999994
 34
0.0
 50
180.0
100
AcDbRotatedDimension
1001
GENIUS_GENDTOL_13
1000

1000
h7
1000

1040
0.0
  0
LINE
  5
6FBA
330
1F
100
AcDbEntity
  8
AM_0
100
AcDbLine
 10
54.86121123277502
 20
-21.50691825467828
 30
0.0
 11
50.66654805564009
 21
-21.36043738877405
 31
0.0
  0
LINE
  5
6FBF
330
1F
100
AcDbEntity
  8
AM_0
100
AcDbLine
 10
54.84220360456845
 20
-22.05122551030883
 30
0.0
 11
51.02154062771947
 21
-21.91780501918865
 31
0.0
  0
ARC
  5
6FCC
330
1F
100
AcDbEntity
  8
AM_0
100
AcDbCircle
 10
54.85170741867174
 20
-21.77907188249356
 30
0.0
 40
0.2723195175075119
100
AcDbArc
 50
268.0
 51
88.00000000000002
  0
LINE
  5
6FCD
330
1F
100
AcDbEntity
  8
AM_0
100
AcDbLine
 10
50.5408528424165
 20
-21.35604801520682
 30
0.0
 11
51.29463366600472
 21
0.2294105688701422
 31
0.0
  0
DIMENSION
  5
6FED
330
1F
100
AcDbEntity
  8
AM_5
100
AcDbDimension
  2
*D6
 10
-14.54955972015461
 20
-0.7194860142545651
 30
0.0
 11
-11.8445285140027
 21
11.28306196945734
 31
0.0
 70
    34
  1
<>
  3
AM_JIS$2
100
AcDb2LineAngularDimension
 13
0.0
 23
11.68810440816766
 33
0.0
 14
0.0
 24
-20.59804961731757
 34
0.0
 15
-0.841868764994345
 25
-0.001096372196352
 35
0.0
 16
-6.813360880537874
 26
11.38236081955358
 36
0.0
1001
ACAD
1000
DSTYLE
1002
{
1070
   179
1070
     3
1070
    76
1070
     1
1070
    75
1070
     1
1002
}
1001
GENIUS_GENDTOL_13
1000

1000
h7
1000

1040
0.0
  0
DIMENSION
  5
7139
330
1F
100
AcDbEntity
  8
AM_5
100
AcDbDimension
  2
*D7
 10
-166.7939873297106
 20
49.01796300465004
 30
0.0
 11
-164.3524352250082
 21
61.66307365343537
 31
0.0
 70
    32
  1
<>
  3
AM_JIS
100
AcDbAlignedDimension
 13
-154.1215727492201
 23
74.71640476091562
 33
0.0
 14
-152.8131738431465
 24
49.75066639205127
 34
0.0
 50
273.0
100
AcDbRotatedDimension
1001
GENIUS_GENDTOL_13
1000

1000
h7
1000

1040
0.0
  0
DIMENSION
  5
71C5
330
1F
100
AcDbEntity
  8
AM_5
100
AcDbDimension
  2
*D8
 10
-164.000001
 20
-32.00000000000001
 30
0.0
 11
-167.100001
 21
-19.50000000000003
 31
0.0
 70
    32
  1
<>
  3
AM_JIS
100
AcDbAlignedDimension
 13
-150.0
 23
-7.000000000000008
 33
0.0
 14
-150.0
 24
-32.00000000000001
 34
0.0
 50
270.0
100
AcDbRotatedDimension
1001
GENIUS_GENDTOL_13
1000

1000
h7
1000

1040
0.0
  0
DIMENSION
  5
7251
330
1F
100
AcDbEntity
  8
AM_5
100
AcDbDimension
  2
*D9
 10
25.97180296759976
 20
84.15469864582069
 30
0.0
 11
29.72175397837576
 21
71.83407092574164
 31
0.0
 70
    32
  1
<>
  3
AM_JIS
100
AcDbAlignedDimension
 13
-3.018743629960467
 23
57.60105982849293
 33
0.0
 14
-6.305520542652901
 24
82.46311579944798
 34
0.0
 50
93.00000000000013
100
AcDbRotatedDimension
1001
GENIUS_GENDTOL_13
1000

1000
h7
1000

1040
0.0
  0
DIMENSION
  5
7439
330
1F
100
AcDbEntity
  8
AM_5
100
AcDbDimension
  2
*D10
 10
14.00000100999999
 20
-0.0000000000000125
 30
0.0
 11
10.90000100999999
 21
-16.00000000000001
 31
0.0
 70
    32
  1
<>
  3
AM_JIS
100
AcDbAlignedDimension
 13
-22.94285179239145
 23
-32.00000000000001
 33
0.0
 14
0.0
 24
-0.0000000000000085
 34
0.0
 50
90.00000000000003
100
AcDbRotatedDimension
1001
GENIUS_GENDTOL_13
1000

1000
h7
1000

1040
0.0
  0
DIMENSION
  5
76A6
330
1F
100
AcDbEntity
  8
AM_5
100
AcDbDimension
  2
*D11
 10
56.20450306978012
 20
-22.14884695619178
 30
0.0
 11
50.07988251502779
 21
19.34780104181162
 31
0.0
 70
   162
  1
-<>
  3
AM_JIS$2
100
AcDb2LineAngularDimension
 13
54.40653502094352
 23
-10.94537325710433
 33
0.0
 14
54.89071490620433
 24
2.919724571717166
 34
0.0
 15
54.89071490620434
 25
2.919724571717159
 35
0.0
 16
54.99030281128399
 26
20.0374313998068
 36
0.0
1001
ACAD
1000
DSTYLE
1002
{
1070
   179
1070
     3
1002
}
1001
GENIUS_GENDTOL_13
1000

1000
h7
1000

1040
0.0
  0
LINE
  5
7885
330
1F
100
AcDbEntity
  8
AM_0
100
AcDbLine
 10
63.74856265644841
 20
-16.20800718226551
 30
0.0
 11
62.74917182942932
 21
-16.173107685563
 31
0.0
  0
LINE
  5
7955
330
1F
100
AcDbEntity
  8
AM_0
100
AcDbLine
 10
-37.28191718293511
 20
80.83971164134011
 30
0.0
 11
-36.23942226508984
 21
60.94772361767271
 31
0.0
  0
DIMENSION
  5
7973
330
1F
100
AcDbEntity
  8
AM_5
100
AcDbDimension
  2
*D12
 10
-3.018743629960467
 20
57.60105982849293
 30
0.0
 11
14.75606148465244
 21
64.19104629161655
 31
0.0
 70
   162
  1
-<>
  3
AM_JIS$2
100
AcDb2LineAngularDimension
 13
12.13072912185645
 23
58.39501005272461
 33
0.0
 14
-19.36192487184845
 24
56.74454999318532
 34
0.0
 15
-17.57592787958549
 25
55.29542834841489
 35
0.0
 16
15.8662183041473
 26
59.253279908846
 36
0.0
1001
ACAD
1000
DSTYLE
1002
{
1070
   179
1070
     3
1070
    76
1070
     0
1070
    75
1070
     0
1002
}
1001
GENIUS_GENDTOL_13
1000

1000
h7
1000

1040
0.0
  0
LINE
  5
7B00
330
1F
100
AcDbEntity
  8
AM_7
100
AcDbLine
 10
-7.833819635539637
 20
-10.34933847386246
 30
0.0
 11
-12.38466697284875
 21
-3.341648103471152
 31
0.0
  0
LINE
  5
7B01
330
1F
100
AcDbEntity
  8
AM_7
100
AcDbLine
 10
-6.45334573170777
 20
-4.474888579852242
 30
0.0
 11
-30.88770179613006
 21
-20.34274494297968
 31
0.0
  0
LINE
  5
7B02
330
1F
100
AcDbEntity
  8
AM_0
100
AcDbLine
 10
-9.45207119000816
 20
-19.51654781572963
 30
0.0
 11
-11.01256724990375
 21
-17.11359460692568
 31
0.0
  0
LINE
  5
7B23
330
1F
100
AcDbEntity
  8
AM_0
100
AcDbLine
 10
-9.544742641392465
 20
-14.23282661002243
 30
0.0
 11
-16.6250500965878
 21
-3.330109226731928
 31
0.0
  0
LINE
  5
7B24
330
1F
100
AcDbEntity
  8
AM_11
100
AcDbLine
 10
-0.7999999999999972
 20
-0.0000000000000085
 30
0.0
 11
0.0
 21
-0.0000000000000085
 31
0.0
  0
LINE
  5
7B25
330
1F
100
AcDbEntity
  8
AM_11
100
AcDbLine
 10
0.0
 20
-0.8000000000000127
 30
0.0
 11
0.0
 21
-0.0000000000000085
 31
0.0
  0
CIRCLE
  5
7B2F
330
1F
100
AcDbEntity
  8
AM_0
100
AcDbCircle
 10
-10.10761585278388
 20
-6.84799934407385
 30
0.0
 40
2.5
  0
LINE
  5
7B37
330
1F
100
AcDbEntity
  8
AM_0
100
AcDbLine
 10
-20.83502442448625
 20
-30.63116090213285
 30
0.0
 11
-36.19333267787237
 21
-6.981440119279222
 31
0.0
  0
LINE
  5
7B3F
330
1F
100
AcDbEntity
  8
AM_0
100
AcDbLine
 10
-9.544742641392465
 20
-14.23282661002243
 30
0.0
 11
-14.53863813852749
 21
-24.03389837609447
 31
0.0
  0
LINE
  5
7B43
330
1F
100
AcDbEntity
  8
AM_0
100
AcDbLine
 10
-16.62505009658781
 20
-3.330109226731928
 30
0.0
 11
-27.6099749788881
 21
-3.905804745404297
 31
0.0
  0
LINE
  5
7B4B
330
1F
100
AcDbEntity
  8
AM_0
100
AcDbLine
 10
-14.53863813852749
 20
-24.0338983760945
 30
0.0
 11
-21.98076639900561
 21
-28.86687297799876
 31
0.0
  0
LINE
  5
7B4F
330
1F
100
AcDbEntity
  8
AM_0
100
AcDbLine
 10
-27.60997497888811
 20
-3.905804745404297
 30
0.0
 11
-35.05210323936626
 21
-8.738779347308588
 31
0.0
  0
LINE
  5
7B50
330
1F
100
AcDbEntity
  8
AM_0
100
AcDbLine
 10
-33.79409738744814
 20
-7.921820794786052
 30
0.0
 11
-34.40689685665784
 21
-6.978192362305827
 31
0.0
  0
POLYLINE
  5
7B5A
330
1F
100
AcDbEntity
  8
AM_0
100
AcDb2dPolyline
 66
     1
 10
0.0
 20
0.0
 30
0.0
  0
VERTEX
  5
7B5B
330
7B5A
100
AcDbEntity
  8
AM_0
100
AcDbVertex
100
AcDb2dVertex
 10
-11.01256724990376
 20
-17.11359460692568
 30
0.0
  0
VERTEX
  5
7B5C
330
7B5A
100
AcDbEntity
  8
AM_0
100
AcDbVertex
100
AcDb2dVertex
 10
-10.19925064425385
 20
-18.36599235245459
 30
0.0
 42
0.5773502691896262
  0
VERTEX
  5
7B5D
330
7B5A
100
AcDbEntity
  8
AM_0
100
AcDbVertex
100
AcDb2dVertex
 10
-8.815508970546829
 20
-18.2934735242342
 30
0.0
  0
SEQEND
  5
7B5E
330
7B5A
100
AcDbEntity
  8
AM_0
  0
LINE
  5
7B5F
330
1F
100
AcDbEntity
  8
AM_0
100
AcDbLine
 10
-19.85378066857088
 20
-3.499319825912821
 30
0.0
 11
-20.67035217704139
 21
-2.241909969569861
 31
0.0
  0
LINE
  5
7C1D
330
1F
100
AcDbEntity
  8
AM_7
100
AcDbLine
 10
-14.49545289501352
 20
-24.97018593224036
 30
0.0
 11
-29.14849990713081
 21
-2.406472225152997
 31
0.0
  0
POINT
  5
7C29
330
1F
100
AcDbEntity
  8
0
 60
     1
100
AcDbPoint
 10
0.0
 20
0.0
 30
0.0
1001
GENIUS_GENOBJ-NBEHI-BHF_13
1002
{
1000
OWNER
1000
GENBEHI
1002
}
1001
GENIUS_GENOENT_13
1002
{
1000
MYREF
1005
7C29
1002
}
1002
{
1000
GRP
1005
0
1002
}
1001
GENIUS_GENOLIS_13
1002
{
1000
ENT
1005
7C27
1002
}
1001
GENIUS_GENBH_13
1002
{
1000
OIUMAP
1000
OIU
1002
}
1002
{
1000
FLAGS
1070
    32
1002
}
1002
{
1000
BGO
1005
7C2A
1002
}
1001
GENIUS_GENODEF_13
1002
{
1000
HIER
1070
     1
1002
}
1002
{
1000
MANEDIT
1070
     1
1002
}
1002
{
1000
NOSEL
1070
     1
1002
}
1002
{
1000
BEHIND
1070
     0
1002
}
1002
{
1000
REACTOR
1002
}
  0
POINT
  5
7C2A
330
1F
100
AcDbEntity
  8
0
 60
     1
100
AcDbPoint
 10
0.0
 20
0.0
 30
0.0
1001
GENIUS_GENOBJ-NBEHI-BHB_13
1002
{
1000
OWNER
1000
GENBEHI
1002
}
1001
GENIUS_GENOENT_13
1002
{
1000
MYREF
1005
7C2A
1002
}
1002
{
1000
GRP
1005
0
1002
}
1001
GENIUS_GENOLIS_13
1002
{
1000
ENT
1002
}
1001
GENIUS_GENODEF_13
1002
{
1000
HIER
1070
     1
1002
}
1002
{
1000
MANEDIT
1070
     0
1002
}
1002
{
1000
NOSEL
1070
     1
1002
}
1002
{
1000
BEHIND
1070
     0
1002
}
1002
{
1000
REACTOR
1002
}
1002
{
1000
OTHER
1070
     1
1002
}
1001
GENIUS_GENBH_13
1002
{
1000
FGO
1005
7C29
1002
}
  0
CIRCLE
  5
7C2E
330
1F
100
AcDbEntity
  8
AM_0
100
AcDbCircle
 10
-21.47160204844436
 20
-14.22785826852745
 30
0.0
 40
5.0
1001
GENIUS_GENOREF_13
1005
7C29
  0
LINE
  5
7C30
330
1F
100
AcDbEntity
  8
AM_0
100
AcDbLine
 10
-22.91497772141843
 20
-11.72785826852745
 30
0.0
 11
-24.3583533943925
 21
-14.22785826852745
 31
0.0
1001
GENIUS_GENOREF_13
1005
7C29
  0
LINE
  5
7C31
330
1F
100
AcDbEntity
  8
AM_0
100
AcDbLine
 10
-18.58485070249624
 20
-14.22785826852745
 30
0.0
 11
-20.0282263754703
 21
-11.72785826852745
 31
0.0
1001
GENIUS_GENOREF_13
1005
7C29
  0
LINE
  5
7C32
330
1F
100
AcDbEntity
  8
AM_0
100
AcDbLine
 10
-20.0282263754703
 20
-11.72785826852745
 30
0.0
 11
-22.91497772141843
 21
-11.72785826852745
 31
0.0
1001
GENIUS_GENOREF_13
1005
7C29
  0
LINE
  5
7C34
330
1F
100
AcDbEntity
  8
AM_0
100
AcDbLine
 10
-22.91497772141818
 20
-16.72785826852759
 30
0.0
 11
-20.02822637547056
 21
-16.72785826852759
 31
0.0
1001
GENIUS_GENOREF_13
1005
7C29
  0
LINE
  5
7C35
330
1F
100
AcDbEntity
  8
AM_0
100
AcDbLine
 10
-20.02822637547056
 20
-16.72785826852759
 30
0.0
 11
-18.58485070249624
 21
-14.22785826852745
 31
0.0
1001
GENIUS_GENOREF_13
1005
7C29
  0
LINE
  5
7C36
330
1F
100
AcDbEntity
  8
AM_0
100
AcDbLine
 10
-24.3583533943925
 20
-14.22785826852745
 30
0.0
 11
-22.91497772141818
 21
-16.72785826852759
 31
0.0
1001
GENIUS_GENOREF_13
1005
7C29
  0
CIRCLE
  5
7C46
330
1F
100
AcDbEntity
  8
AM_0
100
AcDbCircle
 10
-21.47160204844436
 20
-14.22785826852745
 30
0.0
 40
3.75
1001
GENIUS_GENOREF_13
1005
7C29
  0
LINE
  5
7C47
330
1F
100
AcDbEntity
  8
AM_0
100
AcDbLine
 10
-11.23169574119225
 20
-17.54365848598396
 30
0.0
 11
-20.33579115872961
 21
-3.524580925293173
 31
0.0
  0
LINE
  5
7C5A
330
1F
100
AcDbEntity
  8
AM_0
100
AcDbLine
 10
-15.35526891223676
 20
-24.56422460138004
 30
0.0
 11
-19.18139234442795
 21
-18.67251118091881
 31
0.0
  0
LINE
  5
7C5E
330
1F
100
AcDbEntity
  8
AM_0
100
AcDbLine
 10
-14.51659834429134
 20
-24.01958556636501
 30
0.0
 11
-18.34272177648253
 21
-18.12787214590378
 31
0.0
  0
LINE
  5
7C60
330
1F
100
AcDbEntity
  8
AM_0
100
AcDbLine
 10
-24.6004823204062
 20
-10.32784439115111
 30
0.0
 11
-28.42660575259741
 21
-4.436130970689868
 31
0.0
  0
LINE
  5
7C61
330
1F
100
AcDbEntity
  8
AM_0
100
AcDbLine
 10
-23.76181175246077
 20
-9.783205356136088
 30
0.0
 11
-27.58793518465198
 21
-3.891491935674844
 31
0.0
  0
LINE
  5
7C71
330
1F
100
AcDbEntity
  8
AM_0
100
AcDbLine
 10
-25.07428790266697
 20
63.74647279030902
 30
0.0
 11
-4.507999737143453
 21
67.00385283095863
 31
0.0
  0
LINE
  5
7C8D
330
1F
100
AcDbEntity
  8
AM_0
100
AcDbLine
 10
-24.91785343762674
 20
62.7587844497139
 30
0.0
 11
-37.9534539423045
 21
60.69414815948624
 31
0.0
  0
ARC
  5
7CB9
330
1F
100
AcDbEntity
  8
AM_0
100
AcDbCircle
 10
-31.43363879286651
 20
54.73493274138473
 30
0.0
 40
0.3878891487427301
100
AcDbArc
 50
15.31197112490232
 51
182.688028875097
  0
LINE
  5
7CC2
330
1F
100
AcDbEntity
  8
AM_0
100
AcDbLine
 10
-37.36211851851612
 20
60.16007811163849
 30
0.0
 11
-26.31688412247195
 21
61.90947137970928
 31
0.0
  0
LINE
  5
7CEC
330
1F
100
AcDbEntity
  8
AM_0
100
AcDbLine
 10
-19.13688599937966
 20
47.96648737962028
 30
0.0
 11
-19.68354966265296
 21
51.41798591162993
 31
0.0
  0
LINE
  5
7CF0
330
1F
100
AcDbEntity
  8
AM_0
100
AcDbLine
 10
-29.50761357562861
 20
46.32392549669784
 30
0.0
 11
-30.05427723890194
 21
49.7754240287075
 31
0.0
  0
LINE
  5
7CF9
330
1F
100
AcDbEntity
  8
AM_0
100
AcDbLine
 10
63.74856265644841
 20
-16.20800718226551
 30
0.0
 11
64.40491557942621
 21
2.587481363109346
 31
0.0
  0
LINE
  5
7D18
330
1F
100
AcDbEntity
  8
AM_0
100
AcDbLine
 10
-23.18613559129665
 20
50.86323079963312
 30
0.0
 11
-19.65482789461816
 21
54.48149507094321
 31
0.0
  0
LINE
  5
7D19
330
1F
100
AcDbEntity
  8
AM_0
100
AcDbLine
 10
-19.68001915893676
 20
54.9621730287431
 30
0.0
 11
-19.65482789461815
 21
54.48149507094321
 31
0.0
  0
LINE
  5
7D2B
330
1F
100
AcDbEntity
  8
AM_0
100
AcDbLine
 10
62.77950363152253
 20
-15.30451851829458
 30
0.0
 11
62.42288396703999
 21
-25.51676955608483
 31
0.0
  0
LINE
  5
7D91
330
1F
100
AcDbEntity
  8
AM_0
100
AcDbLine
 10
47.24497690601786
 20
-15.55864291258574
 30
0.0
 11
50.73904181676359
 21
-15.68065834792315
 31
0.0
  0
LINE
  5
7D95
330
1F
100
AcDbEntity
  8
AM_0
100
AcDbLine
 10
47.61142162139417
 20
-5.065039228885263
 30
0.0
 11
51.10548653213984
 21
-5.187054664222637
 31
0.0
  0
LINE
  5
7DFE
330
1F
100
AcDbEntity
  8
AM_0
100
AcDbLine
 10
-19.57701857256804
 20
-29.81420234961026
 30
0.0
 11
-20.72276054708737
 21
-28.04991442547615
 31
0.0
  0
LINE
  5
7E1F
330
1F
100
AcDbEntity
  8
AM_0
100
AcDbLine
 10
62.55344216781096
 20
-21.71290719591489
 30
0.0
 11
81.20118972789592
 21
-21.4757869434101
 31
0.0
  0
LINE
  5
7E20
330
1F
100
AcDbEntity
  8
AM_0
100
AcDbLine
 10
51.00701276916934
 20
-26.86085373118478
 30
0.0
 11
62.42288396703997
 21
-25.51676955608483
 31
0.0
  0
LINE
  5
7E32
330
1F
100
AcDbEntity
  8
AM_0
100
AcDbLine
 10
-13.19849046464955
 20
55.48483502805503
 30
0.0
 11
-19.65482789461816
 21
54.48149507094321
 31
0.0
  0
LINE
  5
7F65
330
1F
100
AcDbEntity
  8
AM_0
100
AcDbLine
 10
-8.815508970546829
 20
-18.2934735242342
 30
0.0
 11
-0.0871947806492983
 21
-1.163192399791648
 31
0.0
  0
ARC
  5
7F66
330
1F
100
AcDbEntity
  8
AM_0
100
AcDbCircle
 10
-0.7999999999999917
 20
-0.8000000000000056
 30
0.0
 40
0.8000000000000017
100
AcDbArc
 50
332.9999999999996
 51
92.99999999999993
  0
LINE
  5
7F67
330
1F
100
AcDbEntity
  8
AM_0
100
AcDbLine
 10
-0.841868764994345
 20
-0.001096372196352
 30
0.0
 11
-20.04128448767942
 21
-1.007295113754176
 31
0.0
  0
ARC
  5
7F68
330
1F
100
AcDbEntity
  8
AM_0
100
AcDbCircle
 10
-19.99941572268505
 20
-1.80619874155783
 30
0.0
 40
0.7999999999999949
100
AcDbArc
 50
93.00000000000052
 51
213.0000000000006
  0
LINE
  5
7F69
330
1F
100
AcDbEntity
  8
AM_0
100
AcDbLine
 10
-20.67035217704139
 20
-2.241909969569861
 30
0.0
 11
-19.85378066857088
 21
-3.499319825912821
 31
0.0
  0
LINE
  5
7F6A
330
1F
100
AcDbEntity
  8
AM_5
100
AcDbLine
 10
54.89071490620445
 20
2.919724571717159
 30
0.0
 11
-0.8418687649944963
 21
-0.0010963721963591
 31
0.0
  0
LINE
  5
803B
330
1F
100
AcDbEntity
  8
AM_0
100
AcDbLine
 10
50.91227684217964
 20
-25.04671045655761
 30
0.0
 11
51.02154062771947
 21
-21.91780501918865
 31
0.0
  0
LINE
  5
803C
330
1F
100
AcDbEntity
  8
AM_0
100
AcDbLine
 10
50.91227684217964
 20
-25.04671045655761
 30
0.0
 11
51.07339211637027
 21
-28.12097302586976
 31
0.0
  0
LINE
  5
8046
330
1F
100
AcDbEntity
  8
AM_5
100
AcDbLine
 10
0.0
 20
-0.0000000000000085
 30
0.0
 11
-3.018743629960468
 21
57.60105982849293
 31
0.0
  0
LINE
  5
806F
330
1F
100
AcDbEntity
  8
AM_0
100
AcDbLine
 10
51.29463366600472
 20
0.2294105688701351
 30
0.0
 11
54.80318814670635
 21
0.4132861176971744
 31
0.0
  0
LINE
  5
8070
330
1F
100
AcDbEntity
  8
AM_0
100
AcDbLine
 10
53.90755516603114
 20
-10.90743259152929
 30
0.0
 11
54.40877723470279
 21
-10.88116465598256
 31
0.0
  0
DIMENSION
  5
8091
330
1F
100
AcDbEntity
  8
AM_5
100
AcDbDimension
  2
*D13
 10
0.0000000000000021
 20
33.48363607860434
 30
0.0
 11
-75.0
 21
36.58363607860434
 31
0.0
 70
    32
  3
AM_JIS
100
AcDbAlignedDimension
 13
-150.0
 23
-7.000000000000008
 33
0.0
 14
0.0
 24
-0.0000000000000085
 34
0.0
100
AcDbRotatedDimension
  0
LINE
  5
80A1
330
1F
100
AcDbEntity
  8
AM_0
100
AcDbLine
 10
-154.2803411948608
 20
49.6737754093114
 30
0.0
 11
-155.5887401009345
 21
74.63951377817576
 31
0.0
  0
LINE
  5
80A6
330
1F
100
AcDbEntity
  8
AM_0
100
AcDbLine
 10
-16.70758326400468
 20
51.88933268410448
 30
0.0
 11
-13.19849046464955
 21
55.48483502805503
 31
0.0
  0
LINE
  5
80B0
330
1F
100
AcDbEntity
  8
AM_0
100
AcDbLine
 10
-39.77555612486907
 20
48.84407864284999
 30
0.0
 11
-42.58711505424098
 21
55.52736935229984
 31
0.0
  0
LINE
  5
8110
330
1F
100
AcDbEntity
  8
AM_0
100
AcDbLine
 10
-39.77555612486907
 20
48.84407864284999
 30
0.0
 11
-38.78449845617424
 21
48.89601777440771
 31
0.0
  0
VIEWPORT
  5
110
330
101
100
AcDbEntity
 67
     1
  8
0
100
AcDbViewport
 10
420.5
 20
297.0
 30
0.0
 40
948.9782706766916
 41
628.452
 68
     1
 69
     1
1001
ACAD
1000
MVIEW
1002
{
1070
    16
1010
0.0
1020
0.0
1030
0.0
1010
0.0
1020
0.0
1030
1.0
1040
0.0
1040
628.452
1040
420.5
1040
297.0
1040
50.0
1040
0.0
1040
0.0
1070
     0
1070
   100
1070
     1
1070
     1
1070
     0
1070
     0
1070
     0
1070
     0
1040
0.0
1040
0.0
1040
0.0
1040
10.0
1040
10.0
1040
10.0
1040
10.0
1070
     0
1002
{
1002
}
1002
}
  0
ENDSEC
  0
SECTION
  2
OBJECTS
  0
DICTIONARY
  5
C
330
0
100
AcDbDictionary
  3
ACAD_GROUP
350
D
  3
ACAD_LAYOUT
350
1A
  3
ACAD_MLINESTYLE
350
17
  3
ACAD_PLOTSETTINGS
350
19
  3
ACAD_PLOTSTYLENAME
350
E
  3
ACDBVARIABLEDICTIONARY
350
34
  3
ACMDICTIONARY
350
43
  3
AMG
350
2B
  3
AMGSNAPSETTINGS
350
6E
  3
DWGPROPS
350
81A4
  3
ACDBHEADERROUNDTRIPXREC
350
81B0
  0
DICTIONARY
  5
74
330
1F
100
AcDbDictionary
280
     1
  3
ACAD_INDEX
360
81A6
  3
ACAD_LAYOUTSELFREF
360
81D3
  0
DICTIONARY
  5
81D8
330
101
100
AcDbDictionary
280
     1
  3
ACAD_LAYOUTSELFREF
360
81D9
  0
DICTIONARY
  5
D
102
{ACAD_REACTORS
330
C
102
}
330
C
100
AcDbDictionary
  0
DICTIONARY
  5
1A
102
{ACAD_REACTORS
330
C
102
}
330
C
100
AcDbDictionary
  0
DICTIONARY
  5
17
102
{ACAD_REACTORS
330
C
102
}
330
C
100
AcDbDictionary
  3
STANDARD
350
18
  0
DICTIONARY
  5
19
102
{ACAD_REACTORS
330
C
102
}
330
C
100
AcDbDictionary
  0
ACDBDICTIONARYWDFLT
  5
E
102
{ACAD_REACTORS
330
C
102
}
330
C
100
AcDbDictionary
281
     1
  3
Normal
350
F
100
AcDbDictionaryWithDefault
340
F
  0
DICTIONARY
  5
34
102
{ACAD_REACTORS
330
C
102
}
330
C
100
AcDbDictionary
  3
INDEXCTL
350
35
  3
SORTENTS
350
B5E
  0
DICTIONARY
  5
43
102
{ACAD_REACTORS
330
C
102
}
330
C
100
AcDbDictionary
  3
ACMSTDDICTIONARY
350
260
  0
DICTIONARY
  5
2B
102
{ACAD_REACTORS
330
C
102
}
330
C
100
AcDbDictionary
  3
ACMGSETTINGS
350
2C
  0
DICTIONARY
  5
6E
102
{ACAD_REACTORS
330
C
102
}
330
C
100
AcDbDictionary
  0
XRECORD
  5
81A4
102
{ACAD_REACTORS
330
C
102
}
330
C
100
AcDbXrecord
  1
DWGPROPS COOKIE
  2

  3

  4

  6

  7

  8

  9

300
AmdtFileType=82
301
=
302
=
303
=
304
=
305
=
306
=
307
=
308
=
309
=
 40
1.446159097222222
 41
2452838.620506898
 42
2452909.638167488
  1

 90
        1
  0
DICTIONARY
  5
81B0
102
{ACAD_REACTORS
330
C
102
}
330
C
100
AcDbDictionary
  3
TSTACKALIGN
350
81B1
  3
TSTACKSIZE
350
81B2
  3
HYPERLINKBASE
350
81B3
  3
STYLESHEET
350
81B4
  3
LAYOUTDICT
350
81B5
  3
PLOTSETDICT
350
81B6
  3
PLOTSTYLNAMDICT
350
81B7
  3
LWETCUNION
350
81B8
  3
INSUNITS
350
81B9
  3
CEPSNTYPE
350
81BA
  3
FINGERPRINTGUID
350
81BB
  3
VERSIONGUID
350
81BC
  3
PSVPSCALE
350
81BD
  3
DIMSTYLEDATA
350
81BE
  3
PUCSORTHOREF
350
81BF
  3
PUCSORTHOVIEW
350
81C0
  3
PUCSBASE
350
81C1
  3
PUCSORGTOP
350
81C2
  3
PUCSORGBOTTOM
350
81C3
  3
PUCSORGLEFT
350
81C4
  3
PUCSORGRIGHT
350
81C5
  3
PUCSORGFRONT
350
81C6
  3
PUCSORGBACK
350
81C7
  3
UCSORTHOREF
350
81C8
  3
UCSORTHOVIEW
350
81C9
  3
UCSBASE
350
81CA
  3
UCSORGTOP
350
81CB
  3
UCSORGBOTTOM
350
81CC
  3
UCSORGLEFT
350
81CD
  3
UCSORGRIGHT
350
81CE
  3
UCSORGFRONT
350
81CF
  3
UCSORGBACK
350
81D0
  0
DICTIONARY
  5
81A6
102
{ACAD_REACTORS
330
74
102
}
330
74
100
AcDbDictionary
  3
*A1
350
81A7
  0
XRECORD
  5
81D3
102
{ACAD_REACTORS
330
74
102
}
330
74
100
AcDbXrecord
340
1F
  0
XRECORD
  5
81D9
102
{ACAD_REACTORS
330
81D8
102
}
330
81D8
100
AcDbXrecord
340
101
  0
MLINESTYLE
  5
18
102
{ACAD_REACTORS
330
17
102
}
330
17
100
AcDbMlineStyle
  2
STANDARD
 70
     0
  3

 62
   256
 51
90.0
 52
90.0
 71
     2
 49
0.5
 62
   256
  6
BYLAYER
 49
-0.5
 62
   256
  6
BYLAYER
  0
ACDBPLACEHOLDER
  5
F
102
{ACAD_REACTORS
330
E
102
}
330
E
100
AcDbPlaceHolder
280
     0
  0
DICTIONARYVAR
  5
35
102
{ACAD_REACTORS
330
34
102
}
330
34
100
DictionaryVariables
280
     0
  1
1
  0
DICTIONARYVAR
  5
B5E
102
{ACAD_REACTORS
330
34
102
}
330
34
100
DictionaryVariables
280
     0
  1
96
  0
DICTIONARY
  5
260
102
{ACAD_REACTORS
330
43
102
}
330
43
100
AcDbDictionary
  0
DICTIONARY
  5
2C
102
{ACAD_REACTORS
330
2B
102
}
330
2B
100
AcDbDictionary
  3
DWGSETTINGS
350
2D
  0
XRECORD
  5
81B1
102
{ACAD_REACTORS
330
81B0
102
}
330
81B0
100
AcDbXrecord
 90
        1
  0
XRECORD
  5
81B2
102
{ACAD_REACTORS
330
81B0
102
}
330
81B0
100
AcDbXrecord
 90
       70
  0
XRECORD
  5
81B3
102
{ACAD_REACTORS
330
81B0
102
}
330
81B0
100
AcDbXrecord
  1

  0
XRECORD
  5
81B4
102
{ACAD_REACTORS
330
81B0
102
}
330
81B0
100
AcDbXrecord
  1
ASAMI.ctb
  0
XRECORD
  5
81B5
102
{ACAD_REACTORS
330
81B0
102
}
330
81B0
100
AcDbXrecord
340
1A
  0
XRECORD
  5
81B6
102
{ACAD_REACTORS
330
81B0
102
}
330
81B0
100
AcDbXrecord
340
19
  0
XRECORD
  5
81B7
102
{ACAD_REACTORS
330
81B0
102
}
330
81B0
100
AcDbXrecord
340
E
  0
XRECORD
  5
81B8
102
{ACAD_REACTORS
330
81B0
102
}
330
81B0
100
AcDbXrecord
 90
    10781
  0
XRECORD
  5
81B9
102
{ACAD_REACTORS
330
81B0
102
}
330
81B0
100
AcDbXrecord
 90
        4
  0
XRECORD
  5
81BA
102
{ACAD_REACTORS
330
81B0
102
}
330
81B0
100
AcDbXrecord
 90
        0
  0
XRECORD
  5
81BB
102
{ACAD_REACTORS
330
81B0
102
}
330
81B0
100
AcDbXrecord
  1
{AFB28963-8C59-40AE-9337-C84526B81ACE}
  0
XRECORD
  5
81BC
102
{ACAD_REACTORS
330
81B0
102
}
330
81B0
100
AcDbXrecord
  1
{C5E1D2E9-855A-4255-AF84-21C3350B56AD}
  0
XRECORD
  5
81BD
102
{ACAD_REACTORS
330
81B0
102
}
330
81B0
100
AcDbXrecord
 40
0.0
  0
XRECORD
  5
81BE
102
{ACAD_REACTORS
330
81B0
102
}
330
81B0
100
AcDbXrecord
1000
DSTYLE
1002
{
1070
    79
 70
     2
1070
   341
340
59
1070
   342
340
59
1070
   371
 70
    -1
1070
   372
 70
    -1
1002
}
  0
XRECORD
  5
81BF
102
{ACAD_REACTORS
330
81B0
102
}
330
81B0
100
AcDbXrecord
340
0
  0
XRECORD
  5
81C0
102
{ACAD_REACTORS
330
81B0
102
}
330
81B0
100
AcDbXrecord
 70
     0
  0
XRECORD
  5
81C1
102
{ACAD_REACTORS
330
81B0
102
}
330
81B0
100
AcDbXrecord
340
0
  0
XRECORD
  5
81C2
102
{ACAD_REACTORS
330
81B0
102
}
330
81B0
100
AcDbXrecord
 10
0.0
 20
0.0
 30
0.0
  0
XRECORD
  5
81C3
102
{ACAD_REACTORS
330
81B0
102
}
330
81B0
100
AcDbXrecord
 10
0.0
 20
0.0
 30
0.0
  0
XRECORD
  5
81C4
102
{ACAD_REACTORS
330
81B0
102
}
330
81B0
100
AcDbXrecord
 10
0.0
 20
0.0
 30
0.0
  0
XRECORD
  5
81C5
102
{ACAD_REACTORS
330
81B0
102
}
330
81B0
100
AcDbXrecord
 10
0.0
 20
0.0
 30
0.0
  0
XRECORD
  5
81C6
102
{ACAD_REACTORS
330
81B0
102
}
330
81B0
100
AcDbXrecord
 10
0.0
 20
0.0
 30
0.0
  0
XRECORD
  5
81C7
102
{ACAD_REACTORS
330
81B0
102
}
330
81B0
100
AcDbXrecord
 10
0.0
 20
0.0
 30
0.0
  0
XRECORD
  5
81C8
102
{ACAD_REACTORS
330
81B0
102
}
330
81B0
100
AcDbXrecord
340
0
  0
XRECORD
  5
81C9
102
{ACAD_REACTORS
330
81B0
102
}
330
81B0
100
AcDbXrecord
 70
     0
  0
XRECORD
  5
81CA
102
{ACAD_REACTORS
330
81B0
102
}
330
81B0
100
AcDbXrecord
340
0
  0
XRECORD
  5
81CB
102
{ACAD_REACTORS
330
81B0
102
}
330
81B0
100
AcDbXrecord
 10
0.0
 20
0.0
 30
0.0
  0
XRECORD
  5
81CC
102
{ACAD_REACTORS
330
81B0
102
}
330
81B0
100
AcDbXrecord
 10
0.0
 20
0.0
 30
0.0
  0
XRECORD
  5
81CD
102
{ACAD_REACTORS
330
81B0
102
}
330
81B0
100
AcDbXrecord
 10
0.0
 20
0.0
 30
0.0
  0
XRECORD
  5
81CE
102
{ACAD_REACTORS
330
81B0
102
}
330
81B0
100
AcDbXrecord
 10
0.0
 20
0.0
 30
0.0
  0
XRECORD
  5
81CF
102
{ACAD_REACTORS
330
81B0
102
}
330
81B0
100
AcDbXrecord
 10
0.0
 20
0.0
 30
0.0
  0
XRECORD
  5
81D0
102
{ACAD_REACTORS
330
81B0
102
}
330
81B0
100
AcDbXrecord
 10
0.0
 20
0.0
 30
0.0
  0
LAYER_INDEX
  5
81A7
102
{ACAD_REACTORS
330
81A6
102
}
330
81A6
100
AcDbIndex
 40
2452941.610835856
100
AcDbLayerIndex
  8
0
360
81A8
 90
        4
  8
AM_0
360
81A9
 90
      111
  8
AM_11
360
81AA
 90
        2
  8
AM_7
360
81AB
 90
        7
  8
AM_5
360
81AC
 90
       11
  8
Defpoints
360
81AD
 90
        0
  8
AM_6
360
81AE
 90
        1
  0
XRECORD
  5
2D
102
{ACAD_REACTORS
330
2C
102
}
330
2C
100
AcDbXrecord
  1
VERSION
140
15.0
  1
PRODUCT
  2
AutoCAD Mechanical 2000
  0
IDBUFFER
  5
81A8
330
0
100
AcDbIdBuffer
330
68EE
330
68F2
330
7C29
330
7C2A
  0
IDBUFFER
  5
81A9
330
0
100
AcDbIdBuffer
330
6EE1
330
6EE2
330
6EE4
330
6EE6
330
6FBA
330
6FBF
330
6FCC
330
6FCD
330
7885
330
7955
330
7B02
330
7B23
330
7B2F
330
7B37
330
7B3F
330
7B43
330
7B4B
330
7B4F
330
7B50
330
7B5A
330
7B5F
330
7C2E
330
7C30
330
7C31
330
7C32
330
7C34
330
7C35
330
7C36
330
7C46
330
7C47
330
7C5A
330
7C5E
330
7C60
330
7C61
330
7C71
330
7C8D
330
7CB9
330
7CC2
330
7CEC
330
7CF0
330
7CF9
330
7D18
330
7D19
330
7D2B
330
7D91
330
7D95
330
7DFE
330
7E1F
330
7E20
330
7E32
330
7F65
330
7F66
330
7F67
330
7F68
330
7F69
330
803B
330
803C
330
806F
330
8070
330
80A1
330
80A6
330
80B0
330
8110
330
5F9C
330
5FA5
330
5FAD
330
5FB6
330
5FBF
330
603E
330
60F9
330
60FA
330
6103
330
6111
330
6131
330
6171
330
6187
330
61B2
330
6286
330
6993
330
69A2
330
69B2
330
69B4
330
69F7
330
6A07
330
6A10
330
6A2A
330
6A2B
330
6A2D
330
6A41
330
6A46
330
6A5E
330
6A5F
330
6A7A
330
6A8B
330
6AB5
330
6B26
330
6B29
330
6B2B
330
6B3E
330
6C0F
330
6C82
330
6D36
330
6D42
330
6D9B
330
6DAF
330
6DB7
330
6DC8
330
6DC9
330
6DCC
330
6ED5
330
6ED6
  0
IDBUFFER
  5
81AA
330
0
100
AcDbIdBuffer
330
7B24
330
7B25
  0
IDBUFFER
  5
81AB
330
0
100
AcDbIdBuffer
330
628D
330
6A81
330
6D59
330
6EDC
330
7B00
330
7B01
330
7C1D
  0
IDBUFFER
  5
81AC
330
0
100
AcDbIdBuffer
330
6EEF
330
6FED
330
7139
330
71C5
330
7251
330
7439
330
76A6
330
7973
330
7F6A
330
8046
330
8091
  0
IDBUFFER
  5
81AD
330
0
100
AcDbIdBuffer
  0
IDBUFFER
  5
81AE
330
0
100
AcDbIdBuffer
330
C58
  0
ENDSEC
  0
EOF
