  0
SECTION
  2
HEADER
  9
$ACADVER
  1
AC1014
  9
$ACADMAINTVER
 70
     9
  9
$DWGCODEPAGE
  3
ANSI_932
  9
$INSBASE
 10
0.0
 20
0.0
 30
0.0
  9
$EXTMIN
 10
-190.4867540797017
 20
-54.50000000000009
 30
0.0
  9
$EXTMAX
 10
91.93297009270356
 20
112.2639537760361
 30
0.0
  9
$LIMMIN
 10
-217.1135015259824
 20
-77.38396878428739
  9
$LIMMAX
 10
111.8584190963419
 20
120.7184470010925
  9
$ORTHOMODE
 70
     0
  9
$REGENMODE
 70
     1
  9
$FILLMODE
 70
     1
  9
$QTEXTMODE
 70
     0
  9
$MIRRTEXT
 70
     0
  9
$DRAGMODE
 70
     2
  9
$LTSCALE
 40
1.0
  9
$OSMODE
 70
  2103
  9
$ATTMODE
 70
     1
  9
$TEXTSIZE
 40
2.5
  9
$TRACEWID
 40
1.0
  9
$TEXTSTYLE
  7
STANDARD
  9
$CLAYER
  8
AM_0
  9
$CELTYPE
  6
BYLAYER
  9
$CECOLOR
 62
   256
  9
$CELTSCALE
 40
1.0
  9
$DELOBJ
 70
     1
  9
$DISPSILH
 70
     0
  9
$DIMSCALE
 40
1.0
  9
$DIMASZ
 40
2.5
  9
$DIMEXO
 40
1.0
  9
$DIMDLI
 40
12.0
  9
$DIMRND
 40
0.0
  9
$DIMDLE
 40
0.0
  9
$DIMEXE
 40
1.0
  9
$DIMTP
 40
0.1
  9
$DIMTM
 40
0.1
  9
$DIMTXT
 40
3.2
  9
$DIMCEN
 40
0.0
  9
$DIMTSZ
 40
0.0
  9
$DIMTOL
 70
     0
  9
$DIMLIM
 70
     0
  9
$DIMTIH
 70
     0
  9
$DIMTOH
 70
     0
  9
$DIMSE1
 70
     0
  9
$DIMSE2
 70
     0
  9
$DIMTAD
 70
     3
  9
$DIMZIN
 70
     8
  9
$DIMBLK
  1
OPEN30
  9
$DIMASO
 70
     1
  9
$DIMSHO
 70
     1
  9
$DIMPOST
  1

  9
$DIMAPOST
  1
"
  9
$DIMALT
 70
     0
  9
$DIMALTD
 70
     2
  9
$DIMALTF
 40
0.0393701
  9
$DIMLFAC
 40
1.0
  9
$DIMTOFL
 70
     1
  9
$DIMTVP
 40
0.0
  9
$DIMTIX
 70
     0
  9
$DIMSOXD
 70
     0
  9
$DIMSAH
 70
     0
  9
$DIMBLK1
  1

  9
$DIMBLK2
  1

  9
$DIMSTYLE
  2
AM_JIS
  9
$DIMCLRD
 70
     3
  9
$DIMCLRE
 70
     3
  9
$DIMCLRT
 70
     2
  9
$DIMTFAC
 40
0.71
  9
$DIMGAP
 40
1.5
  9
$DIMJUST
 70
     0
  9
$DIMSD1
 70
     0
  9
$DIMSD2
 70
     0
  9
$DIMTOLJ
 70
     0
  9
$DIMTZIN
 70
     0
  9
$DIMALTZ
 70
     0
  9
$DIMALTTZ
 70
     0
  9
$DIMFIT
 70
     3
  9
$DIMUPT
 70
     0
  9
$DIMUNIT
 70
     2
  9
$DIMDEC
 70
     3
  9
$DIMTDEC
 70
     3
  9
$DIMALTU
 70
     2
  9
$DIMALTTD
 70
     2
  9
$DIMTXSTY
  7
ASAMI
  9
$DIMAUNIT
 70
     0
  9
$LUNITS
 70
     2
  9
$LUPREC
 70
     2
  9
$SKETCHINC
 40
1.0
  9
$FILLETRAD
 40
0.8
  9
$AUNITS
 70
     0
  9
$AUPREC
 70
     0
  9
$MENU
  1
.
  9
$ELEVATION
 40
0.0
  9
$PELEVATION
 40
0.0
  9
$THICKNESS
 40
0.0
  9
$LIMCHECK
 70
     0
  9
$BLIPMODE
 70
     0
  9
$CHAMFERA
 40
1.5
  9
$CHAMFERB
 40
1.5
  9
$CHAMFERC
 40
20.0
  9
$CHAMFERD
 40
0.0
  9
$SKPOLY
 70
     0
  9
$TDCREATE
 40
2452838.620506898
  9
$TDUPDATE
 40
2452941.610922118
  9
$TDINDWG
 40
1.4154094213
  9
$TDUSRTIMER
 40
1.4154094213
  9
$USRTIMER
 70
     1
  9
$ANGBASE
 50
0.0
  9
$ANGDIR
 70
     0
  9
$PDMODE
 70
     0
  9
$PDSIZE
 40
0.0
  9
$PLINEWID
 40
0.0
  9
$COORDS
 70
     0
  9
$SPLFRAME
 70
     0
  9
$SPLINETYPE
 70
     6
  9
$SPLINESEGS
 70
     8
  9
$ATTDIA
 70
     1
  9
$ATTREQ
 70
     1
  9
$HANDLING
 70
 12289
  9
$HANDSEED
  5
81FC
  9
$SURFTAB1
 70
     6
  9
$SURFTAB2
 70
     6
  9
$SURFTYPE
 70
     6
  9
$SURFU
 70
     6
  9
$SURFV
 70
     6
  9
$UCSNAME
  2

  9
$UCSORG
 10
0.0
 20
0.0
 30
0.0
  9
$UCSXDIR
 10
1.0
 20
0.0
 30
0.0
  9
$UCSYDIR
 10
0.0
 20
1.0
 30
0.0
  9
$PUCSNAME
  2

  9
$PUCSORG
 10
0.0
 20
0.0
 30
0.0
  9
$PUCSXDIR
 10
1.0
 20
0.0
 30
0.0
  9
$PUCSYDIR
 10
0.0
 20
1.0
 30
0.0
  9
$USERI1
 70
     0
  9
$USERI2
 70
     0
  9
$USERI3
 70
     0
  9
$USERI4
 70
     0
  9
$USERI5
 70
     0
  9
$USERR1
 40
0.0
  9
$USERR2
 40
0.0
  9
$USERR3
 40
0.0
  9
$USERR4
 40
0.0
  9
$USERR5
 40
0.0
  9
$WORLDVIEW
 70
     1
  9
$SHADEDGE
 70
     3
  9
$SHADEDIF
 70
    70
  9
$TILEMODE
 70
     1
  9
$MAXACTVP
 70
    64
  9
$PINSBASE
 10
0.0
 20
0.0
 30
0.0
  9
$PLIMCHECK
 70
     0
  9
$PEXTMIN
 10
1.000000000000000E+20
 20
1.000000000000000E+20
 30
1.000000000000000E+20
  9
$PEXTMAX
 10
-1.000000000000000E+20
 20
-1.000000000000000E+20
 30
-1.000000000000000E+20
  9
$PLIMMIN
 10
0.0
 20
0.0
  9
$PLIMMAX
 10
841.0
 20
594.0
  9
$UNITMODE
 70
     0
  9
$VISRETAIN
 70
     1
  9
$PLINEGEN
 70
     0
  9
$PSLTSCALE
 70
     0
  9
$TREEDEPTH
 70
  3020
  9
$PICKSTYLE
 70
     0
  9
$CMLSTYLE
  2
STANDARD
  9
$CMLJUST
 70
     0
  9
$CMLSCALE
 40
20.0
  9
$PROXYGRAPHICS
 70
     1
  9
$MEASUREMENT
 70
     1
  0
ENDSEC
  0
SECTION
  2
CLASSES
  0
CLASS
  1
ACDBDICTIONARYWDFLT
  2
AcDbDictionaryWithDefault
  3
AutoCAD 2000
 90
        0
280
     0
281
     0
  0
CLASS
  1
ACDBPLACEHOLDER
  2
AcDbPlaceHolder
  3
AutoCAD 2000
 90
        0
280
     0
281
     0
  0
CLASS
  1
LAYOUT
  2
AcDbLayout
  3
AutoCAD 2000
 90
        0
280
     0
281
     0
  0
CLASS
  1
AMGSETTINGSOBJ
  2
AmgSettingsObj
  3
"AcadM|Product Description: AutoCAD Mechanical 2000|Company: Autodesk"
 90
        0
280
     0
281
     0
  0
CLASS
  1
ACME_DOCUMENT
  2
AcMeDbDoc
  3
AcMeServices
 90
        0
280
     0
281
     0
  0
CLASS
  1
ACMESCOPE
  2
AcMeScope
  3
AcMeServices
 90
        0
280
     0
281
     0
  0
CLASS
  1
ACMECOMMANDHISTORY
  2
AcMeCommandHistory
  3
AcMeServices
 90
        0
280
     0
281
     0
  0
CLASS
  1
DICTIONARYVAR
  2
AcDbDictionaryVar
  3
AutoCAD 2000
 90
        0
280
     0
281
     0
  0
CLASS
  1
ACIMSYSVARMAN
  2
AcImSysVarManager
  3
AcMeServices
 90
        0
280
     0
281
     0
  0
CLASS
  1
ACIMREALSYSVAR
  2
AcImRealSysVar
  3
AcMeServices
 90
        0
280
     0
281
     0
  0
CLASS
  1
ACIMINTSYSVAR
  2
AcImIntSysVar
  3
AcMeServices
 90
        0
280
     0
281
     0
  0
CLASS
  1
ACMEDRAWINGMAN
  2
AcMeDrawingMan
  3
AcMeServices
 90
        0
280
     0
281
     0
  0
CLASS
  1
ACMEVIEW
  2
AcMeView
  3
AcMeServices
 90
        0
280
     0
281
     0
  0
CLASS
  1
ACDBENTITYCACHE
  2
AcMeEntityCache
  3
AcMeServices
 90
        0
280
     0
281
     0
  0
CLASS
  1
GSMANAGER
  2
AcMeGSManager
  3
AcMeServices
 90
        0
280
     0
281
     0
  0
CLASS
  1
AmdtInternalReactor
  2
AmdtInternalReactor
  3
AcMeServices
 90
        0
280
     0
281
     0
  0
CLASS
  1
ACMESTATEMGR
  2
AcMeStateMgr
  3
AcMeServices
 90
        0
280
     0
281
     0
  0
CLASS
  1
ACME_DATABASE
  2
AcMeDbDatabase
  3
AcMeServices
 90
        0
280
     0
281
     0
  0
CLASS
  1
ACRFINSADJUSTERMGR
  2
AcRfInsAdjusterMgr
  3
AcMeServices
 90
        0
280
     0
281
     0
  0
CLASS
  1
ACMDATADICTIONARY
  2
AcmDataDictionary
  3
"AcmSymBB|Product Description: AutoCAD Mechanical 2000|Company: Autodesk"
 90
        0
280
     0
281
     0
  0
CLASS
  1
ACMDATAENTRYBLOCK
  2
AcmDataEntryBlock
  3
"AcmSymBB|Product Description: AutoCAD Mechanical 2000|Company: Autodesk"
 90
        0
280
     0
281
     0
  0
CLASS
  1
AMGOBJPROPCFG
  2
AmgObjPropCfg
  3
"AmgLay|Product Description: AutoCAD Mechanical 2000|Company: Autodesk"
 90
        1
280
     0
281
     0
  0
CLASS
  1
ACAMGFILTERDAT
  2
AcAmgFilterDat
  3
"AcadM|Product Description: AutoCAD Mechanical 2000|Company: Autodesk"
 90
        0
280
     0
281
     0
  0
CLASS
  1
LAYER_INDEX
  2
AcDbLayerIndex
  3
AutoCAD 2000
 90
        0
280
     0
281
     0
  0
CLASS
  1
IDBUFFER
  2
AcDbIdBuffer
  3
AutoCAD 2000
 90
        0
280
     0
281
     0
  0
CLASS
  1
ACIMSTRSYSVAR
  2
AcImStrSysVar
  3
AcMeServices
 90
        0
280
     0
281
     0
  0
CLASS
  1
ACMSTANDARDJIS
  2
AcmStandardJIS
  3
"AcmSymBB|Product Description: AutoCAD Mechanical 2000|Company: Autodesk"
 90
        0
280
     0
281
     0
  0
CLASS
  1
ACMSURFSTANDARDJIS
  2
AcmSurfTextStdJIS
  3
"AcmSymBB|Product Description: AutoCAD Mechanical 2000|Company: Autodesk"
 90
        0
280
     0
281
     0
  0
CLASS
  1
ACMFCFSTANDARDJIS
  2
AcmFCFStdJIS
  3
"AcmSymBB|Product Description: AutoCAD Mechanical 2000|Company: Autodesk"
 90
        0
280
     0
281
     0
  0
CLASS
  1
ACMWELDSTANDARDJIS
  2
AcmWeldingStdJIS
  3
"AcmSymBB|Product Description: AutoCAD Mechanical 2000|Company: Autodesk"
 90
        0
280
     0
281
     0
  0
CLASS
  1
ACMIDSTANDARDJIS
  2
AcmIdStdJIS
  3
"AcmSymBB|Product Description: AutoCAD Mechanical 2000|Company: Autodesk"
 90
        0
280
     0
281
     0
  0
CLASS
  1
ACMDATUMSTANDARDJIS
  2
AcmDatumStdJIS
  3
"AcmSymBB|Product Description: AutoCAD Mechanical 2000|Company: Autodesk"
 90
        0
280
     0
281
     0
  0
CLASS
  1
ACMBOMSTANDARDJIS
  2
AcmBOMStdJIS
  3
"AcmSymBB|Product Description: AutoCAD Mechanical 2000|Company: Autodesk"
 90
        0
280
     0
281
     0
  0
CLASS
  1
ACMSTANDARDANSI
  2
AcmStandardANSI
  3
"AcmSymBB|Product Description: AutoCAD Mechanical 2000|Company: Autodesk"
 90
        0
280
     0
281
     0
  0
CLASS
  1
ACMSURFSTANDARDANSI
  2
AcmSurfTextStdANSI
  3
"AcmSymBB|Product Description: AutoCAD Mechanical 2000|Company: Autodesk"
 90
        0
280
     0
281
     0
  0
CLASS
  1
ACMFCFSTANDARDANSI
  2
AcmFCFStdANSI
  3
"AcmSymBB|Product Description: AutoCAD Mechanical 2000|Company: Autodesk"
 90
        0
280
     0
281
     0
  0
CLASS
  1
ACMWELDSTANDARDANSI
  2
AcmWeldingStdANSI
  3
"AcmSymBB|Product Description: AutoCAD Mechanical 2000|Company: Autodesk"
 90
        0
280
     0
281
     0
  0
CLASS
  1
ACMIDSTANDARDANSI
  2
AcmIdStdANSI
  3
"AcmSymBB|Product Description: AutoCAD Mechanical 2000|Company: Autodesk"
 90
        0
280
     0
281
     0
  0
CLASS
  1
ACMDATUMSTANDARDANSI
  2
AcmDatumStdANSI
  3
"AcmSymBB|Product Description: AutoCAD Mechanical 2000|Company: Autodesk"
 90
        0
280
     0
281
     0
  0
CLASS
  1
ACMBOMSTANDARDANSI
  2
AcmBOMStdANSI
  3
"AcmSymBB|Product Description: AutoCAD Mechanical 2000|Company: Autodesk"
 90
        0
280
     0
281
     0
  0
CLASS
  1
ACMSTANDARDBSI
  2
AcmStandardBSI
  3
"AcmSymBB|Product Description: AutoCAD Mechanical 2000|Company: Autodesk"
 90
        0
280
     0
281
     0
  0
CLASS
  1
ACMSURFSTANDARDBSI
  2
AcmSurfTextStdBSI
  3
"AcmSymBB|Product Description: AutoCAD Mechanical 2000|Company: Autodesk"
 90
        0
280
     0
281
     0
  0
CLASS
  1
ACMFCFSTANDARDBSI
  2
AcmFCFStdBSI
  3
"AcmSymBB|Product Description: AutoCAD Mechanical 2000|Company: Autodesk"
 90
        0
280
     0
281
     0
  0
CLASS
  1
ACMWELDSTANDARDBSI
  2
AcmWeldingStdBSI
  3
"AcmSymBB|Product Description: AutoCAD Mechanical 2000|Company: Autodesk"
 90
        0
280
     0
281
     0
  0
CLASS
  1
ACMIDSTANDARDBSI
  2
AcmIdStdBSI
  3
"AcmSymBB|Product Description: AutoCAD Mechanical 2000|Company: Autodesk"
 90
        0
280
     0
281
     0
  0
CLASS
  1
ACMDATUMSTANDARDBSI
  2
AcmDatumStdBSI
  3
"AcmSymBB|Product Description: AutoCAD Mechanical 2000|Company: Autodesk"
 90
        0
280
     0
281
     0
  0
CLASS
  1
ACMBOMSTANDARDBSI
  2
AcmBOMStdBSI
  3
"AcmSymBB|Product Description: AutoCAD Mechanical 2000|Company: Autodesk"
 90
        0
280
     0
281
     0
  0
CLASS
  1
STDPART2D
  2
AmgStdPart
  3
"AmgStdPart|Product Description: AutoCAD Mechanical 2000|Company: Autodesk"
 90
     1023
280
     0
281
     1
  0
CLASS
  1
ACMDATAENTRYPART
  2
AcmDataEntryPart
  3
"AcmSymBB|Product Description: AutoCAD Mechanical 2000|Company: Autodesk"
 90
        0
280
     0
281
     0
  0
CLASS
  1
ACMPARTREF
  2
AcmPartRef
  3
"AcmSymBB|Product Description: AutoCAD Mechanical 2000|Company: Autodesk"
 90
     1023
280
     0
281
     1
  0
CLASS
  1
LONG_TRANSACTION
  2
AcDbLongTransaction
  3
AutoCAD 2000
 90
        0
280
     0
281
     0
  0
CLASS
  1
LWPOLYLINE
  2
AcDbPolyline
  3
AutoCAD 2000
 90
        0
280
     0
281
     1
  0
CLASS
  1
HATCH
  2
AcDbHatch
  3
AutoCAD 2000
 90
        0
280
     0
281
     1
  0
CLASS
  1
XRECORD
  2
AcDbXrecord
  3
AutoCAD 2000
 90
        0
280
     0
281
     0
  0
ENDSEC
  0
SECTION
  2
TABLES
  0
TABLE
  2
VPORT
  5
8
330
0
100
AcDbSymbolTable
 70
     3
  0
VPORT
  5
81D1
330
8
100
AcDbSymbolTableRecord
100
AcDbViewportTableRecord
  2
*ACTIVE
 70
     0
 10
0.0
 20
0.0
 11
1.0
 21
1.0
 12
-49.2764797721187
 22
28.88172207877664
 13
0.0
 23
0.0
 14
2.5
 24
2.5
 15
10.0
 25
10.0
 16
0.0
 26
0.0
 36
1.0
 17
0.0
 27
0.0
 37
0.0
 40
181.1092670161321
 41
1.56570841889117
 42
50.0
 43
0.0
 44
0.0
 50
0.0
 51
0.0
 71
     0
 72
   100
 73
     1
 74
     3
 75
     0
 76
     0
 77
     0
 78
     0
  0
ENDTAB
  0
TABLE
  2
LTYPE
  5
5
330
0
100
AcDbSymbolTable
 70
    10
  0
LTYPE
  5
14
330
5
100
AcDbSymbolTableRecord
100
AcDbLinetypeTableRecord
  2
BYBLOCK
 70
     0
  3

 72
    65
 73
     0
 40
0.0
  0
LTYPE
  5
15
330
5
100
AcDbSymbolTableRecord
100
AcDbLinetypeTableRecord
  2
BYLAYER
 70
     0
  3

 72
    65
 73
     0
 40
0.0
  0
LTYPE
  5
16
330
5
100
AcDbSymbolTableRecord
100
AcDbLinetypeTableRecord
  2
CONTINUOUS
 70
     0
  3
Solid line
 72
    65
 73
     0
 40
0.0
  0
LTYPE
  5
4B
330
5
100
AcDbSymbolTableRecord
100
AcDbLinetypeTableRecord
  2
AM_ISO02W050
 70
     0
  3
__ __ __ __ __ __ __ __ __ __ __ __ __ __ __
 72
    65
 73
     2
 40
7.5
 49
6.0
 74
     0
 49
-1.5
 74
     0
  0
LTYPE
  5
4C
330
5
100
AcDbSymbolTableRecord
100
AcDbLinetypeTableRecord
  2
AM_ISO08W050
 70
     0
  3
____ . ____ . ____ . ____ . ____ . ____ . ____
 72
    65
 73
     4
 40
18.0
 49
12.0
 74
     0
 49
-1.5
 74
     0
 49
3.0
 74
     0
 49
-1.5
 74
     0
  0
LTYPE
  5
4D
330
5
100
AcDbSymbolTableRecord
100
AcDbLinetypeTableRecord
  2
AM_ISO09W050
 70
     0
  3
_____ . . _____ . . _____ . . ____ .. ____
 72
    65
 73
     6
 40
22.5
 49
12.0
 74
     0
 49
-1.5
 74
     0
 49
3.0
 74
     0
 49
-1.5
 74
     0
 49
3.0
 74
     0
 49
-1.5
 74
     0
  0
LTYPE
  5
4E
330
5
100
AcDbSymbolTableRecord
100
AcDbLinetypeTableRecord
  2
AMCONSTR
 70
     0
  3
_______________________
 72
    65
 73
     2
 40
9999.0
 49
9999.0
 74
     0
 49
0.0
 74
     0
  0
LTYPE
  5
4F
330
5
100
AcDbSymbolTableRecord
100
AcDbLinetypeTableRecord
  2
AM_ISO02W050X2
 70
     0
  3
 _ _ _ _ _ _ _ _ _ _ _ _
 72
    65
 73
     2
 40
3.75
 49
3.0
 74
     0
 49
-0.75
 74
     0
  0
LTYPE
  5
50
330
5
100
AcDbSymbolTableRecord
100
AcDbLinetypeTableRecord
  2
AM_ISO08W050X2
 70
     0
  3
__ . __ . __ . __ . __ . __
 72
    65
 73
     4
 40
9.0
 49
6.0
 74
     0
 49
-0.75
 74
     0
 49
1.5
 74
     0
 49
-0.75
 74
     0
  0
LTYPE
  5
53
330
5
100
AcDbSymbolTableRecord
100
AcDbLinetypeTableRecord
  2
AMZIGZAG
 70
     0
  3
/\/-/\/-/\/-/\/-/\/-/\/
 72
    65
 73
     2
 40
11.00009999999999
 49
0.0001
 74
     4
 75
   135
340
52
 46
0.04
 50
0.0
 44
0.0
 45
0.0
 49
-11.0
 74
     0
  0
LTYPE
  5
166
330
5
100
AcDbSymbolTableRecord
100
AcDbLinetypeTableRecord
  2
ACJISTGL
 70
     0
  3
_ _ _ _ _
 72
    65
 73
     2
 40
3.0
 49
2.0
 74
     0
 49
-1.0
 74
     0
  0
LTYPE
  5
26A
330
5
100
AcDbSymbolTableRecord
100
AcDbLinetypeTableRecord
  2
ACJISTGB
 70
     0
  3
__ . . __ . .
 72
    65
 73
     6
 40
9.0
 49
4.0
 74
     0
 49
-1.0
 74
     0
 49
1.0
 74
     0
 49
-1.0
 74
     0
 49
1.0
 74
     0
 49
-1.0
 74
     0
  0
ENDTAB
  0
TABLE
  2
LAYER
  5
2
330
0
100
AcDbSymbolTable
 70
     7
  0
LAYER
  5
10
330
2
100
AcDbSymbolTableRecord
100
AcDbLayerTableRecord
  2
0
 70
     0
 62
     7
  6
CONTINUOUS
  0
LAYER
  5
3F9
330
2
100
AcDbSymbolTableRecord
100
AcDbLayerTableRecord
  2
AM_0
 70
     0
 62
     7
  6
CONTINUOUS
  0
LAYER
  5
BD6
330
2
100
AcDbSymbolTableRecord
100
AcDbLayerTableRecord
  2
AM_11
 70
     0
 62
     3
  6
AM_ISO09W050
  0
LAYER
  5
BD7
330
2
100
AcDbSymbolTableRecord
100
AcDbLayerTableRecord
  2
AM_7
 70
     0
 62
     4
  6
AM_ISO08W050
  0
LAYER
  5
BD8
330
2
100
AcDbSymbolTableRecord
100
AcDbLayerTableRecord
  2
AM_5
 70
     0
 62
     3
  6
CONTINUOUS
  0
LAYER
  5
BD9
330
2
100
AcDbSymbolTableRecord
100
AcDbLayerTableRecord
  2
DEFPOINTS
 70
     0
 62
     7
  6
CONTINUOUS
  0
LAYER
  5
BDA
330
2
100
AcDbSymbolTableRecord
100
AcDbLayerTableRecord
  2
AM_6
 70
     0
 62
     2
  6
CONTINUOUS
  0
ENDTAB
  0
TABLE
  2
STYLE
  5
3
330
0
100
AcDbSymbolTable
 70
     5
  0
STYLE
  5
11
330
3
100
AcDbSymbolTableRecord
100
AcDbTextStyleTableRecord
  2
STANDARD
 70
     0
 40
0.0
 41
1.0
 50
0.0
 71
     0
 42
2.5
  3
simplex.shx
  4
EXTFONT.SHX
  0
STYLE
  5
52
330
3
100
AcDbSymbolTableRecord
100
AcDbTextStyleTableRecord
  2

 70
     1
 40
0.0
 41
1.0
 50
0.0
 71
     0
 42
2.5
  3
ltypeshp.shx
  4

  0
STYLE
  5
6B
330
3
100
AcDbSymbolTableRecord
100
AcDbTextStyleTableRecord
  2
ASAMI
 70
     0
 40
0.0
 41
1.0
 50
0.0
 71
     0
 42
2.5
  3
simplex.shx
  4
EXTFONT.SHX
  0
STYLE
  5
262
330
3
100
AcDbSymbolTableRecord
100
AcDbTextStyleTableRecord
  2
ACJISTS
 70
     0
 40
1.0
 41
1.0
 50
0.0
 71
     0
 42
2.5
  3
simplex.shx
  4
bigfont.shx
  0
STYLE
  5
269
330
3
100
AcDbSymbolTableRecord
100
AcDbTextStyleTableRecord
  2
ACJISGDT
 70
     0
 40
0.0
 41
1.0
 50
0.0
 71
     0
 42
2.5
  3
amgdtans.shx
  4

  0
ENDTAB
  0
TABLE
  2
VIEW
  5
6
330
0
100
AcDbSymbolTable
 70
     0
  0
ENDTAB
  0
TABLE
  2
UCS
  5
7
330
0
100
AcDbSymbolTable
 70
     0
  0
ENDTAB
  0
TABLE
  2
APPID
  5
9
330
0
100
AcDbSymbolTable
 70
    22
  0
APPID
  5
12
330
9
100
AcDbSymbolTableRecord
100
AcDbRegAppTableRecord
  2
ACAD
 70
     0
  0
APPID
  5
30
330
9
100
AcDbSymbolTableRecord
100
AcDbRegAppTableRecord
  2
MCAD_NO_VIS
 70
     0
  0
APPID
  5
31
330
9
100
AcDbSymbolTableRecord
100
AcDbRegAppTableRecord
  2
ACAD_TEMP_GRAPHIC
 70
     0
  0
APPID
  5
2C2
330
9
100
AcDbSymbolTableRecord
100
AcDbRegAppTableRecord
  2
GENIUS_GENDTOL_13
 70
     0
  0
APPID
  5
339
330
9
100
AcDbSymbolTableRecord
100
AcDbRegAppTableRecord
  2
GENIUS_GENODEF_13
 70
     0
  0
APPID
  5
33A
330
9
100
AcDbSymbolTableRecord
100
AcDbRegAppTableRecord
  2
GENIUS_GENOBJ-N-RSBK_13
 70
     0
  0
APPID
  5
33B
330
9
100
AcDbSymbolTableRecord
100
AcDbRegAppTableRecord
  2
GENIUS_GENOBJ-N-LIB_13
 70
     0
  0
APPID
  5
33C
330
9
100
AcDbSymbolTableRecord
100
AcDbRegAppTableRecord
  2
GENIUS_GENSCALE_13
 70
     0
  0
APPID
  5
378
330
9
100
AcDbSymbolTableRecord
100
AcDbRegAppTableRecord
  2
GENIUS_GENDIMSH_14
 70
     0
  0
APPID
  5
BDB
330
9
100
AcDbSymbolTableRecord
100
AcDbRegAppTableRecord
  2
GENIUS_GENOBJ-N-CEN_13
 70
     0
  0
APPID
  5
BDC
330
9
100
AcDbSymbolTableRecord
100
AcDbRegAppTableRecord
  2
GENIUS_GENFIL_13
 70
     0
  0
APPID
  5
BDD
330
9
100
AcDbSymbolTableRecord
100
AcDbRegAppTableRecord
  2
GENIUS_GENOBJ-N-FIL_13
 70
     0
  0
APPID
  5
12AD
330
9
100
AcDbSymbolTableRecord
100
AcDbRegAppTableRecord
  2
GENIUS_GENOREF_13
 70
     0
  0
APPID
  5
68E9
330
9
100
AcDbSymbolTableRecord
100
AcDbRegAppTableRecord
  2
GEVID1060695448
 70
     0
  0
APPID
  5
68EA
330
9
100
AcDbSymbolTableRecord
100
AcDbRegAppTableRecord
  2
GEVDC
 70
     0
  0
APPID
  5
68ED
330
9
100
AcDbSymbolTableRecord
100
AcDbRegAppTableRecord
  2
GENIUS_GENBH_13
 70
     0
  0
APPID
  5
68EF
330
9
100
AcDbSymbolTableRecord
100
AcDbRegAppTableRecord
  2
GENIUS_GENOBJ-NBEHI-BHF_13
 70
     0
  0
APPID
  5
68F0
330
9
100
AcDbSymbolTableRecord
100
AcDbRegAppTableRecord
  2
GENIUS_GENOENT_13
 70
     0
  0
APPID
  5
68F1
330
9
100
AcDbSymbolTableRecord
100
AcDbRegAppTableRecord
  2
GENIUS_GENOLIS_13
 70
     0
  0
APPID
  5
68F3
330
9
100
AcDbSymbolTableRecord
100
AcDbRegAppTableRecord
  2
GENIUS_GENOBJ-NBEHI-BHB_13
 70
     0
  0
APPID
  5
6B27
330
9
100
AcDbSymbolTableRecord
100
AcDbRegAppTableRecord
  2
GENIUS_GENOBJ-N-CHA_13
 70
     0
  0
APPID
  5
7C25
330
9
100
AcDbSymbolTableRecord
100
AcDbRegAppTableRecord
  2
GEVID1060740395
 70
     0
  0
ENDTAB
  0
TABLE
  2
DIMSTYLE
  5
A
330
0
100
AcDbSymbolTable
 70
     8
  0
DIMSTYLE
105
58
102
{ACAD_REACTORS
330
6EEF
330
7139
330
71C5
330
7251
330
7439
330
7FF5
102
}
330
A
100
AcDbSymbolTableRecord
100
AcDbDimStyleTableRecord
  2
AM_JIS
 70
     0
  3

  4
"
  5
OPEN30
  6

  7

 40
1.0
 41
2.5
 42
1.0
 43
12.0
 44
1.0
 45
0.0
 46
0.0
 47
0.1
 48
0.1
140
3.2
141
0.0
142
0.0
143
0.0393701
144
1.0
145
0.0
146
0.71
147
1.5
 71
     0
 72
     0
 73
     0
 74
     0
 75
     0
 76
     0
 77
     3
 78
     8
170
     0
171
     2
172
     1
173
     0
174
     0
175
     0
176
     3
177
     3
178
     2
270
     2
271
     3
272
     3
273
     2
274
     2
340
6B
275
     0
280
     0
281
     0
282
     0
283
     0
284
     0
285
     0
286
     0
287
     3
288
     0
  0
DIMSTYLE
105
5F
330
A
100
AcDbSymbolTableRecord
100
AcDbDimStyleTableRecord
  2
AM_JIS$3
 70
     0
  3

  4
"
  5
OPEN30
  6

  7

 40
1.0
 41
2.5
 42
1.0
 43
10.0
 44
1.0
 45
0.0
 46
0.0
 47
0.1
 48
0.1
140
3.2
141
0.0
142
0.0
143
0.0393701
144
1.0
145
0.0
146
0.71
147
1.5
 71
     0
 72
     0
 73
     0
 74
     1
 75
     0
 76
     0
 77
     3
 78
     8
170
     0
171
     2
172
     0
173
     0
174
     0
175
     0
176
     3
177
     3
178
     2
270
     2
271
     2
272
     3
273
     2
274
     2
340
6B
275
     0
280
     0
281
     0
282
     0
283
     0
284
     0
285
     0
286
     0
287
     0
288
     1
  0
DIMSTYLE
105
60
330
A
100
AcDbSymbolTableRecord
100
AcDbDimStyleTableRecord
  2
AM_JIS$4
 70
     0
  3

  4
"
  5
OPEN30
  6

  7

 40
1.0
 41
2.5
 42
1.0
 43
10.0
 44
1.0
 45
0.0
 46
0.0
 47
0.1
 48
0.1
140
3.2
141
0.0
142
0.0
143
0.0393701
144
1.0
145
0.0
146
0.71
147
1.5
 71
     0
 72
     0
 73
     0
 74
     1
 75
     0
 76
     0
 77
     3
 78
     8
170
     0
171
     2
172
     0
173
     0
174
     0
175
     0
176
     3
177
     3
178
     2
270
     2
271
     2
272
     3
273
     2
274
     2
340
6B
275
     0
280
     0
281
     0
282
     0
283
     0
284
     0
285
     0
286
     0
287
     0
288
     1
  0
DIMSTYLE
105
61
330
A
100
AcDbSymbolTableRecord
100
AcDbDimStyleTableRecord
  2
AM_JIS$6
 70
     0
  3

  4
"
  5
OPEN30
  6

  7

 40
1.0
 41
2.5
 42
1.0
 43
10.0
 44
1.0
 45
0.0
 46
0.0
 47
0.1
 48
0.1
140
3.2
141
0.0
142
0.0
143
0.0393701
144
1.0
145
0.0
146
0.71
147
1.5
 71
     0
 72
     0
 73
     0
 74
     0
 75
     0
 76
     0
 77
     0
 78
     8
170
     0
171
     2
172
     1
173
     0
174
     0
175
     0
176
     3
177
     3
178
     2
270
     2
271
     2
272
     2
273
     2
274
     2
340
6B
275
     0
280
     0
281
     0
282
     0
283
     0
284
     0
285
     0
286
     0
287
     3
288
     0
  0
DIMSTYLE
105
62
330
A
100
AcDbSymbolTableRecord
100
AcDbDimStyleTableRecord
  2
AM_JIS$7
 70
     0
  3

  4
"
  5
OPEN30
  6

  7

 40
1.0
 41
2.5
 42
1.0
 43
10.0
 44
1.0
 45
0.0
 46
0.0
 47
0.1
 48
0.1
140
3.2
141
0.0
142
0.0
143
0.0393701
144
1.0
145
0.0
146
0.71
147
1.5
 71
     0
 72
     0
 73
     0
 74
     0
 75
     0
 76
     0
 77
     3
 78
     8
170
     0
171
     2
172
     1
173
     0
174
     0
175
     0
176
     3
177
     3
178
     2
270
     2
271
     2
272
     3
273
     2
274
     2
340
6B
275
     0
280
     0
281
     0
282
     0
283
     0
284
     0
285
     0
286
     0
287
     3
288
     0
  0
DIMSTYLE
105
63
330
A
100
AcDbSymbolTableRecord
100
AcDbDimStyleTableRecord
  2
AM_JIS$SF
 70
     0
  3

  4
"
  5
OPEN30
  6

  7

 40
1.0
 41
2.5
 42
1.0
 43
10.0
 44
1.0
 45
0.0
 46
0.0
 47
0.1
 48
0.1
140
3.2
141
0.0
142
0.0
143
0.0393701
144
1.0
145
0.0
146
0.71
147
1.5
 71
     0
 72
     0
 73
     0
 74
     0
 75
     1
 76
     1
 77
     3
 78
     8
170
     0
171
     2
172
     1
173
     0
174
     0
175
     0
176
   256
177
   256
178
     2
270
     2
271
     2
272
     2
273
     2
274
     2
340
6B
275
     0
280
     0
281
     0
282
     0
283
     0
284
     0
285
     0
286
     0
287
     3
288
     0
  0
DIMSTYLE
105
68
330
A
100
AcDbSymbolTableRecord
100
AcDbDimStyleTableRecord
  2
AM_JIS$SH
 70
     0
  3

  4
"
  5

  6
GENAXEH
  7
OPEN30
 40
1.0
 41
2.5
 42
1.0
 43
10.0
 44
1.0
 45
0.0
 46
0.0
 47
0.1
 48
0.1
140
3.2
141
0.0
142
0.0
143
0.0393701
144
2.0
145
0.0
146
0.71
147
1.5
 71
     0
 72
     0
 73
     0
 74
     0
 75
     1
 76
     1
 77
     3
 78
     8
170
     0
171
     2
172
     1
173
     1
174
     0
175
     0
176
   256
177
   256
178
     2
270
     2
271
     2
272
     2
273
     2
274
     2
340
6B
275
     0
280
     0
281
     0
282
     0
283
     0
284
     0
285
     0
286
     0
287
     3
288
     0
  0
DIMSTYLE
105
B34
102
{ACAD_REACTORS
330
6FED
330
72EC
330
76A6
102
}
330
A
100
AcDbSymbolTableRecord
100
AcDbDimStyleTableRecord
  2
AM_JIS$2
 70
     0
  3

  4
"
  5
OPEN30
  6

  7

 40
1.0
 41
2.5
 42
1.0
 43
12.0
 44
1.0
 45
0.0
 46
0.0
 47
0.1
 48
0.1
140
3.2
141
0.0
142
0.0
143
0.0393701
144
1.0
145
0.0
146
0.71
147
1.5
 71
     0
 72
     0
 73
     0
 74
     0
 75
     0
 76
     0
 77
     3
 78
     8
170
     0
171
     2
172
     1
173
     0
174
     0
175
     0
176
     3
177
     3
178
     2
270
     2
271
     3
272
     3
273
     2
274
     2
340
6B
275
     0
280
     0
281
     0
282
     0
283
     0
284
     0
285
     0
286
     0
287
     3
288
     0
  0
ENDTAB
  0
TABLE
  2
BLOCK_RECORD
  5
1
330
0
100
AcDbSymbolTable
 70
    14
  0
BLOCK_RECORD
  5
1F
102
{ACAD_XDICTIONARY
360
74
102
}
330
1
100
AcDbSymbolTableRecord
100
AcDbBlockTableRecord
  2
*MODEL_SPACE
  0
BLOCK_RECORD
  5
101
102
{ACAD_XDICTIONARY
360
81FA
102
}
330
1
100
AcDbSymbolTableRecord
100
AcDbBlockTableRecord
  2
*PAPER_SPACE
  0
BLOCK_RECORD
  5
59
330
1
100
AcDbSymbolTableRecord
100
AcDbBlockTableRecord
  2
_OPEN30
  0
BLOCK_RECORD
  5
64
330
1
100
AcDbSymbolTableRecord
100
AcDbBlockTableRecord
  2
GENAXEH
  0
BLOCK_RECORD
  5
6EF0
330
1
100
AcDbSymbolTableRecord
100
AcDbBlockTableRecord
  2
*D5
  0
BLOCK_RECORD
  5
6FEE
330
1
100
AcDbSymbolTableRecord
100
AcDbBlockTableRecord
  2
*D6
  0
BLOCK_RECORD
  5
713A
330
1
100
AcDbSymbolTableRecord
100
AcDbBlockTableRecord
  2
*D7
  0
BLOCK_RECORD
  5
71C6
330
1
100
AcDbSymbolTableRecord
100
AcDbBlockTableRecord
  2
*D8
  0
BLOCK_RECORD
  5
7252
330
1
100
AcDbSymbolTableRecord
100
AcDbBlockTableRecord
  2
*D9
  0
BLOCK_RECORD
  5
72ED
330
1
100
AcDbSymbolTableRecord
100
AcDbBlockTableRecord
  2
*D10
  0
BLOCK_RECORD
  5
743A
330
1
100
AcDbSymbolTableRecord
100
AcDbBlockTableRecord
  2
*D11
  0
BLOCK_RECORD
  5
76A7
330
1
100
AcDbSymbolTableRecord
100
AcDbBlockTableRecord
  2
*D12
  0
BLOCK_RECORD
  5
7FF6
330
1
100
AcDbSymbolTableRecord
100
AcDbBlockTableRecord
  2
*D13
  0
ENDTAB
  0
ENDSEC
  0
SECTION
  2
BLOCKS
  0
BLOCK
  5
20
330
1F
100
AcDbEntity
  8
0
100
AcDbBlockBegin
  2
*MODEL_SPACE
 70
     0
 10
0.0
 20
0.0
 30
0.0
  3
*MODEL_SPACE
  1

  0
ENDBLK
  5
21
330
1F
100
AcDbEntity
  8
0
100
AcDbBlockEnd
  0
BLOCK
  5
103
330
101
100
AcDbEntity
 67
     1
  8
0
100
AcDbBlockBegin
  2
*PAPER_SPACE
 70
     0
 10
0.0
 20
0.0
 30
0.0
  3
*PAPER_SPACE
  1

  0
ENDBLK
  5
104
330
101
100
AcDbEntity
 67
     1
  8
0
100
AcDbBlockEnd
  0
BLOCK
  5
5D
330
59
100
AcDbEntity
  8
0
100
AcDbBlockBegin
  2
_OPEN30
 70
     0
 10
0.0
 20
0.0
 30
0.0
  3
_OPEN30
  1

  0
LINE
  5
5A
330
59
100
AcDbEntity
  8
0
 62
     0
100
AcDbLine
 10
-1.0
 20
0.26794919
 30
0.0
 11
0.0
 21
0.0
 31
0.0
  0
LINE
  5
5B
330
59
100
AcDbEntity
  8
0
 62
     0
100
AcDbLine
 10
0.0
 20
0.0
 30
0.0
 11
-1.0
 21
-0.26794919
 31
0.0
  0
LINE
  5
5C
330
59
100
AcDbEntity
  8
0
 62
     0
100
AcDbLine
 10
0.0
 20
0.0
 30
0.0
 11
-1.0
 21
0.0
 31
0.0
  0
ENDBLK
  5
5E
330
59
100
AcDbEntity
  8
0
100
AcDbBlockEnd
  0
BLOCK
  5
66
330
64
100
AcDbEntity
  8
0
100
AcDbBlockBegin
  2
GENAXEH
 70
     0
 10
0.0
 20
0.0
 30
0.0
  3
GENAXEH
  1

  0
LINE
  5
65
330
64
100
AcDbEntity
  8
0
100
AcDbLine
 10
-1.0
 20
0.0
 30
0.0
 11
1.0
 21
0.0
 31
0.0
  0
ENDBLK
  5
67
330
64
100
AcDbEntity
  8
0
100
AcDbBlockEnd
  0
BLOCK
  5
6EFA
330
6EF0
100
AcDbEntity
  8
0
100
AcDbBlockBegin
  2
*D5
 70
     1
 10
0.0
 20
0.0
 30
0.0
  3
*D5
  1

  0
LINE
  5
8198
330
6EF0
100
AcDbEntity
  8
AM_5
 62
     3
100
AcDbLine
 10
0.0000000000000001
 20
1.0
 30
0.0
 11
0.0000000000000014
 21
22.37620881633532
 31
0.0
  0
LINE
  5
8199
330
6EF0
100
AcDbEntity
  8
AM_5
 62
     3
100
AcDbLine
 10
-38.00000000000001
 20
-5.999999999999992
 30
0.0
 11
-38.00000000000001
 21
22.37620881633532
 31
0.0
  0
LINE
  5
819A
330
6EF0
100
AcDbEntity
  8
AM_5
 62
     3
100
AcDbLine
 10
-2.499999999999998
 20
21.37620881633532
 30
0.0
 11
-35.50000000000001
 21
21.37620881633532
 31
0.0
  0
INSERT
  5
819B
330
6EF0
100
AcDbEntity
  8
AM_5
 62
     3
100
AcDbBlockReference
  2
_OPEN30
 10
0.0000000000000013
 20
21.37620881633532
 30
0.0
 41
2.5
 42
2.5
 43
2.5
  0
INSERT
  5
819C
330
6EF0
100
AcDbEntity
  8
AM_5
 62
     3
100
AcDbBlockReference
  2
_OPEN30
 10
-38.00000000000001
 20
21.37620881633532
 30
0.0
 41
2.5
 42
2.5
 43
2.5
 50
180.0
  0
MTEXT
  5
819D
330
6EF0
100
AcDbEntity
  8
AM_5
 62
     2
100
AcDbMText
 10
-19.0
 20
24.47620881633532
 30
0.0
 40
3.2
 41
0.0
 71
     5
 72
     1
  1
38
  7
ASAMI
1001
ACAD
1000
MTEXTBEGIN
1070
    73
1070
     1
1070
    44
1040
1.0
1070
    74
1070
     0
1000
MTEXTEND
  0
POINT
  5
819E
330
6EF0
100
AcDbEntity
  8
DEFPOINTS
 62
     0
100
AcDbPoint
 10
0.0
 20
0.0
 30
0.0
  0
POINT
  5
819F
330
6EF0
100
AcDbEntity
  8
DEFPOINTS
 62
     0
100
AcDbPoint
 10
-38.00000000000001
 20
-6.999999999999992
 30
0.0
  0
POINT
  5
81A0
330
6EF0
100
AcDbEntity
  8
DEFPOINTS
 62
     0
100
AcDbPoint
 10
-38.00000000000001
 20
21.37620881633532
 30
0.0
  0
ENDBLK
  5
6EFB
330
6EF0
100
AcDbEntity
  8
0
100
AcDbBlockEnd
  0
BLOCK
  5
6FFC
330
6FEE
100
AcDbEntity
  8
0
100
AcDbBlockBegin
  2
*D6
 70
     1
 10
0.0
 20
0.0
 30
0.0
  3
*D6
  1

  0
ARC
  5
818F
330
6FEE
100
AcDbEntity
  8
AM_5
 62
     3
100
AcDbCircle
 10
-0.0000000000000019
 20
0.0430241002247686
 30
0.0
 40
13.22884891903912
100
AcDbArc
 50
100.8439866237189
 51
172.1560133762812
  0
INSERT
  5
8190
330
6FEE
100
AcDbEntity
  8
AM_5
 62
     3
100
AcDbBlockReference
  2
_OPEN30
 10
0.0000000000000009
 20
13.27187301926389
 30
0.0
 41
2.5
 42
2.5
 43
2.5
 50
5.421993311859466
  0
INSERT
  5
8191
330
6FEE
100
AcDbEntity
  8
AM_5
 62
     3
100
AcDbBlockReference
  2
_OPEN30
 10
-13.21071924135859
 20
-0.6493203579466114
 30
0.0
 41
2.5
 42
2.5
 43
2.5
 50
267.5780066881407
  0
MTEXT
  5
8192
330
6FEE
100
AcDbEntity
  8
AM_5
 62
     2
100
AcDbMText
 10
-11.84452851400269
 20
11.28306196945734
 30
0.0
 40
3.2
 41
0.0
 71
     5
 72
     1
  1
93°
  7
ASAMI
 11
0.6883545756937532
 21
0.7253743710122885
 31
0.0
1001
ACAD
1000
MTEXTBEGIN
1070
    73
1070
     1
1070
    44
1040
1.0
1070
    74
1070
     0
1000
MTEXTEND
  0
POINT
  5
8193
330
6FEE
100
AcDbEntity
  8
DEFPOINTS
 62
     0
100
AcDbPoint
 10
-6.813360880537872
 20
11.38236081955358
 30
0.0
  0
POINT
  5
8194
330
6FEE
100
AcDbEntity
  8
DEFPOINTS
 62
     0
100
AcDbPoint
 10
-0.8418687649943448
 20
-0.0010963721963434
 30
0.0
  0
POINT
  5
8195
330
6FEE
100
AcDbEntity
  8
DEFPOINTS
 62
     0
100
AcDbPoint
 10
0.0
 20
11.68810440816767
 30
0.0
  0
POINT
  5
8196
330
6FEE
100
AcDbEntity
  8
DEFPOINTS
 62
     0
100
AcDbPoint
 10
0.0
 20
-4.075689078168721
 30
0.0
  0
POINT
  5
8197
330
6FEE
100
AcDbEntity
  8
DEFPOINTS
 62
     0
100
AcDbPoint
 10
-14.54955972015462
 20
-0.7194860142545556
 30
0.0
  0
ENDBLK
  5
6FFD
330
6FEE
100
AcDbEntity
  8
0
100
AcDbBlockEnd
  0
BLOCK
  5
7144
330
713A
100
AcDbEntity
  8
0
100
AcDbBlockBegin
  2
*D7
 70
     1
 10
0.0
 20
0.0
 30
0.0
  3
*D7
  1

  0
LINE
  5
815E
330
713A
100
AcDbEntity
  8
AM_5
 62
     3
100
AcDbLine
 10
-176.5059405931376
 20
100.5818124638635
 30
0.0
 11
-190.4867540797017
 21
99.84910907646231
 31
0.0
  0
LINE
  5
815F
330
713A
100
AcDbEntity
  8
AM_5
 62
     3
100
AcDbLine
 10
-174.8311899933634
 20
68.6256673517172
 30
0.0
 11
-188.8120034799275
 21
67.89296396431597
 31
0.0
  0
LINE
  5
8160
330
713A
100
AcDbEntity
  8
AM_5
 62
     3
100
AcDbLine
 10
-189.3572846543398
 20
97.40487119581883
 30
0.0
 11
-187.9442138357803
 21
70.44187375744535
 31
0.0
  0
INSERT
  5
8161
330
713A
100
AcDbEntity
  8
AM_5
 62
     3
100
AcDbBlockReference
  2
_OPEN30
 10
-189.4881245449471
 20
99.90144503270526
 30
0.0
 41
2.5
 42
2.5
 43
2.5
 50
93.0
  0
INSERT
  5
8162
330
713A
100
AcDbEntity
  8
AM_5
 62
     3
100
AcDbBlockReference
  2
_OPEN30
 10
-187.8133739451729
 20
67.94529992055891
 30
0.0
 41
2.5
 42
2.5
 43
2.5
 50
273.0
  0
MTEXT
  5
8163
330
713A
100
AcDbEntity
  8
AM_5
 62
     2
100
AcDbMText
 10
-185.5549976873209
 20
84.08561394098525
 30
0.0
 40
3.2
 41
0.0
 71
     5
 72
     1
  1
32
  7
ASAMI
 11
0.0523359562429442
 21
-0.9986295347545739
 31
0.0
1001
ACAD
1000
MTEXTBEGIN
1070
    73
1070
     1
1070
    44
1040
1.0
1070
    74
1070
     0
1000
MTEXTEND
  0
POINT
  5
8164
330
713A
100
AcDbEntity
  8
DEFPOINTS
 62
     0
100
AcDbPoint
 10
-175.507311058383
 20
100.6341484201064
 30
0.0
  0
POINT
  5
8165
330
713A
100
AcDbEntity
  8
DEFPOINTS
 62
     0
100
AcDbPoint
 10
-173.8325604586088
 20
68.67800330796014
 30
0.0
  0
POINT
  5
8166
330
713A
100
AcDbEntity
  8
DEFPOINTS
 62
     0
100
AcDbPoint
 10
-187.8133739451729
 20
67.94529992055891
 30
0.0
  0
ENDBLK
  5
7145
330
713A
100
AcDbEntity
  8
0
100
AcDbBlockEnd
  0
BLOCK
  5
71D0
330
71C6
100
AcDbEntity
  8
0
100
AcDbBlockBegin
  2
*D8
 70
     1
 10
0.0
 20
0.0
 30
0.0
  3
*D8
  1

  0
LINE
  5
8167
330
71C6
100
AcDbEntity
  8
AM_5
 62
     3
100
AcDbLine
 10
-170.9999999999999
 20
-6.999999999999992
 30
0.0
 11
-185.0000009999999
 21
-6.999999999999988
 31
0.0
  0
LINE
  5
8168
330
71C6
100
AcDbEntity
  8
AM_5
 62
     3
100
AcDbLine
 10
-171.0
 20
-31.99999999999999
 30
0.0
 11
-185.0000009999999
 21
-31.99999999999998
 31
0.0
  0
LINE
  5
8169
330
71C6
100
AcDbEntity
  8
AM_5
 62
     3
100
AcDbLine
 10
-184.0000009999999
 20
-9.499999999999987
 30
0.0
 11
-184.0000009999999
 21
-29.49999999999998
 31
0.0
  0
INSERT
  5
816A
330
71C6
100
AcDbEntity
  8
AM_5
 62
     3
100
AcDbBlockReference
  2
_OPEN30
 10
-184.0000009999999
 20
-6.999999999999988
 30
0.0
 41
2.5
 42
2.5
 43
2.5
 50
90.0
  0
INSERT
  5
816B
330
71C6
100
AcDbEntity
  8
AM_5
 62
     3
100
AcDbBlockReference
  2
_OPEN30
 10
-184.0000009999999
 20
-31.99999999999998
 30
0.0
 41
2.5
 42
2.5
 43
2.5
 50
270.0
  0
MTEXT
  5
816C
330
71C6
100
AcDbEntity
  8
AM_5
 62
     2
100
AcDbMText
 10
-187.1000009999999
 20
-19.50000000000001
 30
0.0
 40
3.2
 41
0.0
 71
     5
 72
     1
  1
25
  7
ASAMI
 11
0.0000000000000001
 21
1.0
 31
0.0
1001
ACAD
1000
MTEXTBEGIN
1070
    73
1070
     1
1070
    44
1040
1.0
1070
    74
1070
     0
1000
MTEXTEND
  0
POINT
  5
816D
330
71C6
100
AcDbEntity
  8
DEFPOINTS
 62
     0
100
AcDbPoint
 10
-169.9999999999999
 20
-6.999999999999992
 30
0.0
  0
POINT
  5
816E
330
71C6
100
AcDbEntity
  8
DEFPOINTS
 62
     0
100
AcDbPoint
 10
-170.0
 20
-31.99999999999999
 30
0.0
  0
POINT
  5
816F
330
71C6
100
AcDbEntity
  8
DEFPOINTS
 62
     0
100
AcDbPoint
 10
-184.0000009999999
 20
-31.99999999999998
 30
0.0
  0
ENDBLK
  5
71D1
330
71C6
100
AcDbEntity
  8
0
100
AcDbBlockEnd
  0
BLOCK
  5
725C
330
7252
100
AcDbEntity
  8
0
100
AcDbBlockBegin
  2
*D9
 70
     1
 10
0.0
 20
0.0
 30
0.0
  3
*D9
  1

  0
LINE
  5
817D
330
7252
100
AcDbEntity
  8
AM_5
 62
     3
100
AcDbLine
 10
-3.066910015576734
 20
77.62745182550364
 30
0.0
 11
27.23203548805715
 21
79.21535227396704
 31
0.0
  0
LINE
  5
817E
330
7252
100
AcDbEntity
  8
AM_5
 62
     3
100
AcDbLine
 10
-6.80577721868091
 20
109.4754211702882
 30
0.0
 11
25.5572848882829
 21
111.1714973861134
 31
0.0
  0
LINE
  5
817F
330
7252
100
AcDbEntity
  8
AM_5
 62
     3
100
AcDbLine
 10
26.10256606269522
 20
81.65959015461053
 30
0.0
 11
24.68949524413568
 21
108.622587592984
 31
0.0
  0
INSERT
  5
8180
330
7252
100
AcDbEntity
  8
AM_5
 62
     3
100
AcDbBlockReference
  2
_OPEN30
 10
26.23340595330258
 20
79.1630163177241
 30
0.0
 41
2.5
 42
2.5
 43
2.5
 50
273.0000000000001
  0
INSERT
  5
8181
330
7252
100
AcDbEntity
  8
AM_5
 62
     3
100
AcDbBlockReference
  2
_OPEN30
 10
24.55865535352832
 20
111.1191614298704
 30
0.0
 41
2.5
 42
2.5
 43
2.5
 50
93.00000000000009
  0
MTEXT
  5
8182
330
7252
100
AcDbEntity
  8
AM_5
 62
     2
100
AcDbMText
 10
28.49178221115461
 20
95.30333033815043
 30
0.0
 40
3.2
 41
0.0
 71
     5
 72
     1
  1
32
  7
ASAMI
 11
0.052335956242946
 21
-0.9986295347545739
 31
0.0
1001
ACAD
1000
MTEXTBEGIN
1070
    73
1070
     1
1070
    44
1040
1.0
1070
    74
1070
     0
1000
MTEXTEND
  0
POINT
  5
8183
330
7252
100
AcDbEntity
  8
DEFPOINTS
 62
     0
100
AcDbPoint
 10
-4.065539550331307
 20
77.5751158692607
 30
0.0
  0
POINT
  5
8184
330
7252
100
AcDbEntity
  8
DEFPOINTS
 62
     0
100
AcDbPoint
 10
-7.804406753435484
 20
109.4230852140453
 30
0.0
  0
POINT
  5
8185
330
7252
100
AcDbEntity
  8
DEFPOINTS
 62
     0
100
AcDbPoint
 10
24.55865535352832
 20
111.1191614298704
 30
0.0
  0
ENDBLK
  5
725D
330
7252
100
AcDbEntity
  8
0
100
AcDbBlockEnd
  0
BLOCK
  5
72FC
330
72ED
100
AcDbEntity
  8
0
100
AcDbBlockBegin
  2
*D10
 70
     1
 10
0.0
 20
0.0
 30
0.0
  3
*D10
  1

  0
LINE
  5
8170
330
72ED
100
AcDbEntity
  8
AM_5
 62
     3
100
AcDbLine
 10
12.08256273624016
 20
78.42140204973533
 30
0.0
 11
15.86420935922157
 21
78.61958975127911
 31
0.0
  0
LINE
  5
8171
330
72ED
100
AcDbEntity
  8
AM_5
 62
     3
100
AcDbLine
 10
-3.077851209736174
 20
77.73155033430092
 30
0.0
 11
15.64585485960041
 21
80.69709404089396
 31
0.0
  0
ARC
  5
8172
330
72ED
100
AcDbEntity
  8
AM_5
 62
     3
100
AcDbCircle
 10
-4.065539550335973
 20
77.57511586925994
 30
0.0
 40
18.95709942071317
100
AcDbArc
 50
347.8770693351703
 51
355.4385346675861
  0
ARC
  5
8173
330
72ED
100
AcDbEntity
  8
AM_5
 62
     3
100
AcDbCircle
 10
-4.065539550335973
 20
77.57511586925994
 30
0.0
 40
18.95709942071317
100
AcDbArc
 50
16.5614653324159
 51
24.1229306648317
  0
ARC
  5
8174
330
72ED
100
AcDbEntity
  8
AM_5
 62
     3
100
AcDbCircle
 10
-4.065539550335973
 20
77.57511586925994
 30
0.0
 40
18.95709942071317
100
AcDbArc
 50
3.000000000001886
 51
9.000000000000127
  0
INSERT
  5
8175
330
72ED
100
AcDbEntity
  8
AM_5
 62
     3
100
AcDbBlockReference
  2
_OPEN30
 10
14.86557982446699
 20
78.56725379503615
 30
0.0
 41
2.5
 42
2.5
 43
2.5
 50
89.21926733379399
  0
INSERT
  5
8176
330
72ED
100
AcDbEntity
  8
AM_5
 62
     3
100
AcDbBlockReference
  2
_OPEN30
 10
14.65816651900527
 20
80.5406595758537
 30
0.0
 41
2.5
 42
2.5
 43
2.5
 50
282.780732666208
  0
MTEXT
  5
8177
330
72ED
100
AcDbEntity
  8
AM_5
 62
     2
100
AcDbMText
 10
16.61592837341962
 20
85.24274388409578
 30
0.0
 40
3.2
 41
0.0
 71
     5
 72
     1
  1
-6°
  7
ASAMI
 11
0.3476263070036938
 21
-0.937633164238005
 31
0.0
1001
ACAD
1000
MTEXTBEGIN
1070
    73
1070
     1
1070
    44
1040
1.0
1070
    74
1070
     0
1000
MTEXTEND
  0
POINT
  5
8178
330
72ED
100
AcDbEntity
  8
DEFPOINTS
 62
     0
100
AcDbPoint
 10
14.81942238377656
 20
79.22733594961383
 30
0.0
  0
POINT
  5
8179
330
72ED
100
AcDbEntity
  8
DEFPOINTS
 62
     0
100
AcDbPoint
 10
-18.62272379995632
 20
75.26948438918262
 30
0.0
  0
POINT
  5
817A
330
72ED
100
AcDbEntity
  8
DEFPOINTS
 62
     0
100
AcDbPoint
 10
11.08393320148559
 20
78.36906609349236
 30
0.0
  0
POINT
  5
817B
330
72ED
100
AcDbEntity
  8
DEFPOINTS
 62
     0
100
AcDbPoint
 10
-36.36391880142013
 20
75.8824295382681
 30
0.0
  0
POINT
  5
817C
330
72ED
100
AcDbEntity
  8
DEFPOINTS
 62
     0
100
AcDbPoint
 10
-4.065539550331312
 20
77.57511586926068
 30
0.0
  0
ENDBLK
  5
72FD
330
72ED
100
AcDbEntity
  8
0
100
AcDbBlockEnd
  0
BLOCK
  5
7444
330
743A
100
AcDbEntity
  8
0
100
AcDbBlockBegin
  2
*D11
 70
     1
 10
0.0
 20
0.0
 30
0.0
  3
*D11
  1

  0
LINE
  5
8186
330
743A
100
AcDbEntity
  8
AM_5
 62
     3
100
AcDbLine
 10
-21.94285179239145
 20
-31.99999999999999
 30
0.0
 11
15.00000100999999
 21
-32.0
 31
0.0
  0
LINE
  5
8187
330
743A
100
AcDbEntity
  8
AM_5
 62
     3
100
AcDbLine
 10
1.0
 20
-0.0000000000000003
 30
0.0
 11
15.00000100999999
 21
-0.0000000000000042
 31
0.0
  0
LINE
  5
8188
330
743A
100
AcDbEntity
  8
AM_5
 62
     3
100
AcDbLine
 10
14.00000100999998
 20
-29.5
 30
0.0
 11
14.00000100999999
 21
-2.500000000000003
 31
0.0
  0
INSERT
  5
8189
330
743A
100
AcDbEntity
  8
AM_5
 62
     3
100
AcDbBlockReference
  2
_OPEN30
 10
14.00000100999998
 20
-32.0
 30
0.0
 41
2.5
 42
2.5
 43
2.5
 50
270.0
  0
INSERT
  5
818A
330
743A
100
AcDbEntity
  8
AM_5
 62
     3
100
AcDbBlockReference
  2
_OPEN30
 10
14.00000100999999
 20
-0.000000000000004
 30
0.0
 41
2.5
 42
2.5
 43
2.5
 50
90.0
  0
MTEXT
  5
818B
330
743A
100
AcDbEntity
  8
AM_5
 62
     2
100
AcDbMText
 10
10.90000100999999
 20
-16.0
 30
0.0
 40
3.2
 41
0.0
 71
     5
 72
     1
  1
32
  7
ASAMI
 11
0.0000000000000001
 21
1.0
 31
0.0
1001
ACAD
1000
MTEXTBEGIN
1070
    73
1070
     1
1070
    44
1040
1.0
1070
    74
1070
     0
1000
MTEXTEND
  0
POINT
  5
818C
330
743A
100
AcDbEntity
  8
DEFPOINTS
 62
     0
100
AcDbPoint
 10
-22.94285179239145
 20
-31.99999999999999
 30
0.0
  0
POINT
  5
818D
330
743A
100
AcDbEntity
  8
DEFPOINTS
 62
     0
100
AcDbPoint
 10
0.0
 20
0.0
 30
0.0
  0
POINT
  5
818E
330
743A
100
AcDbEntity
  8
DEFPOINTS
 62
     0
100
AcDbPoint
 10
14.00000100999999
 20
-0.000000000000004
 30
0.0
  0
ENDBLK
  5
7445
330
743A
100
AcDbEntity
  8
0
100
AcDbBlockEnd
  0
BLOCK
  5
76B6
330
76A7
100
AcDbEntity
  8
0
100
AcDbBlockBegin
  2
*D12
 70
     1
 10
0.0
 20
0.0
 30
0.0
  3
*D12
  1

  0
LINE
  5
81A1
330
76A7
100
AcDbEntity
  8
AM_5
 62
     3
100
AcDbLine
 10
54.92561440290693
 20
3.919115398736185
 30
0.0
 11
55.53701369719497
 21
21.42730044696449
 31
0.0
  0
LINE
  5
81A2
330
76A7
100
AcDbEntity
  8
AM_5
 62
     3
100
AcDbLine
 10
54.8383789499614
 20
3.918354106471662
 30
0.0
 11
53.92151281330495
 21
21.41320218433486
 31
0.0
  0
ARC
  5
81A3
330
76A7
100
AcDbEntity
  8
AM_5
 62
     3
100
AcDbCircle
 10
54.89071490620442
 20
2.91972457171709
 30
0.0
 40
17.51885706260717
100
AcDbArc
 50
71.63349073014154
 51
79.81674536507078
  0
ARC
  5
81A4
330
76A7
100
AcDbEntity
  8
AM_5
 62
     3
100
AcDbCircle
 10
54.89071490620442
 20
2.91972457171709
 30
0.0
 40
17.51885706260717
100
AcDbArc
 50
101.183254634934
 51
109.3665092698632
  0
ARC
  5
81A5
330
76A7
100
AcDbEntity
  8
AM_5
 62
     3
100
AcDbCircle
 10
54.89071490620442
 20
2.91972457171709
 30
0.0
 40
17.51885706260717
100
AcDbArc
 50
88.00000000000002
 51
93.00000000000478
  0
INSERT
  5
81A6
330
76A7
100
AcDbEntity
  8
AM_5
 62
     3
100
AcDbBlockReference
  2
_OPEN30
 10
55.50211420049246
 20
20.4279096199454
 30
0.0
 41
2.5
 42
2.5
 43
2.5
 50
173.9083726825354
  0
INSERT
  5
81A7
330
76A7
100
AcDbEntity
  8
AM_5
 62
     3
100
AcDbBlockReference
  2
_OPEN30
 10
53.97384876954797
 20
20.41457264958029
 30
0.0
 41
2.5
 42
2.5
 43
2.5
 50
7.091627317469405
  0
MTEXT
  5
81A8
330
76A7
100
AcDbEntity
  8
AM_5
 62
     2
100
AcDbMText
 10
48.05330108993298
 20
22.37189768613508
 30
0.0
 40
3.2
 41
0.0
 71
     5
 72
     1
  1
-5°
  7
ASAMI
 11
0.9434166527927979
 21
0.3316097393521995
 31
0.0
1001
ACAD
1000
MTEXTBEGIN
1070
    73
1070
     1
1070
    44
1040
1.0
1070
    74
1070
     0
1000
MTEXTEND
  0
POINT
  5
81A9
330
76A7
100
AcDbEntity
  8
DEFPOINTS
 62
     0
100
AcDbPoint
 10
54.99263491024072
 20
20.43828516021404
 30
0.0
  0
POINT
  5
81AA
330
76A7
100
AcDbEntity
  8
DEFPOINTS
 62
     0
100
AcDbPoint
 10
54.89071490620442
 20
2.91972457171709
 30
0.0
  0
POINT
  5
81AB
330
76A7
100
AcDbEntity
  8
DEFPOINTS
 62
     0
100
AcDbPoint
 10
54.40653502094362
 20
-10.9453732571044
 30
0.0
  0
POINT
  5
81AC
330
76A7
100
AcDbEntity
  8
DEFPOINTS
 62
     0
100
AcDbPoint
 10
54.89071490620442
 20
2.91972457171709
 30
0.0
  0
POINT
  5
81AD
330
76A7
100
AcDbEntity
  8
DEFPOINTS
 62
     0
100
AcDbPoint
 10
55.97321613334731
 20
-17.73562930799676
 30
0.0
  0
ENDBLK
  5
76B7
330
76A7
100
AcDbEntity
  8
0
100
AcDbBlockEnd
  0
BLOCK
  5
8000
330
7FF6
100
AcDbEntity
  8
0
100
AcDbBlockBegin
  2
*D13
 70
     1
 10
0.0
 20
0.0
 30
0.0
  3
*D13
  1

  0
LINE
  5
8155
330
7FF6
100
AcDbEntity
  8
AM_5
 62
     3
100
AcDbLine
 10
0.0000000000000001
 20
1.0
 30
0.0
 11
0.0000000000000023
 21
37.04193999282742
 31
0.0
  0
LINE
  5
8156
330
7FF6
100
AcDbEntity
  8
AM_5
 62
     3
100
AcDbLine
 10
-169.9999999999999
 20
-5.999999999999992
 30
0.0
 11
-169.9999999999999
 21
37.04193999282742
 31
0.0
  0
LINE
  5
8157
330
7FF6
100
AcDbEntity
  8
AM_5
 62
     3
100
AcDbLine
 10
-2.499999999999997
 20
36.04193999282742
 30
0.0
 11
-167.4999999999999
 21
36.04193999282742
 31
0.0
  0
INSERT
  5
8158
330
7FF6
100
AcDbEntity
  8
AM_5
 62
     3
100
AcDbBlockReference
  2
_OPEN30
 10
0.0000000000000022
 20
36.04193999282742
 30
0.0
 41
2.5
 42
2.5
 43
2.5
  0
INSERT
  5
8159
330
7FF6
100
AcDbEntity
  8
AM_5
 62
     3
100
AcDbBlockReference
  2
_OPEN30
 10
-169.9999999999999
 20
36.04193999282742
 30
0.0
 41
2.5
 42
2.5
 43
2.5
 50
180.0
  0
MTEXT
  5
815A
330
7FF6
100
AcDbEntity
  8
AM_5
 62
     2
100
AcDbMText
 10
-84.99999999999998
 20
39.14193999282742
 30
0.0
 40
3.2
 41
0.0
 71
     5
 72
     1
  1
170
  7
ASAMI
1001
ACAD
1000
MTEXTBEGIN
1070
    73
1070
     1
1070
    44
1040
1.0
1070
    74
1070
     0
1000
MTEXTEND
  0
POINT
  5
815B
330
7FF6
100
AcDbEntity
  8
DEFPOINTS
 62
     0
100
AcDbPoint
 10
0.0
 20
0.0
 30
0.0
  0
POINT
  5
815C
330
7FF6
100
AcDbEntity
  8
DEFPOINTS
 62
     0
100
AcDbPoint
 10
-169.9999999999999
 20
-6.999999999999992
 30
0.0
  0
POINT
  5
815D
330
7FF6
100
AcDbEntity
  8
DEFPOINTS
 62
     0
100
AcDbPoint
 10
-169.9999999999999
 20
36.04193999282742
 30
0.0
  0
ENDBLK
  5
8001
330
7FF6
100
AcDbEntity
  8
0
100
AcDbBlockEnd
  0
ENDSEC
  0
SECTION
  2
ENTITIES
  0
TEXT
  5
C58
330
1F
100
AcDbEntity
  8
AM_6
100
AcDbText
 10
-113.6904761904761
 20
-54.50000000000009
 30
0.0
 40
5.0
  1
MTJNR3225-43
 50
0.0000000000002036
 72
     4
 11
-84.99999999999998
 21
-52.0
 31
0.0
100
AcDbText
  0
LINE
  5
5F9C
330
1F
100
AcDbEntity
  8
AM_0
100
AcDbLine
 10
-22.94285179239144
 20
-31.99999999999999
 30
0.0
 11
-169.9999999999999
 21
-31.99999999999999
 31
0.0
  0
LINE
  5
5FA5
330
1F
100
AcDbEntity
  8
AM_0
100
AcDbLine
 10
-169.9999999999999
 20
-6.999999999999992
 30
0.0
 11
-169.9999999999999
 21
-31.99999999999999
 31
0.0
  0
LINE
  5
5FAD
330
1F
100
AcDbEntity
  8
AM_0
100
AcDbLine
 10
-33.00000000000011
 20
-6.999999999999992
 30
0.0
 11
-169.9999999999999
 21
-6.999999999999992
 31
0.0
  0
LINE
  5
5FB6
330
1F
100
AcDbEntity
  8
AM_0
100
AcDbLine
 10
-12.16379704568943
 20
-24.99999999999999
 30
0.0
 11
-22.94285179239144
 21
-32.00000000000002
 31
0.0
  0
LINE
  5
5FBF
330
1F
100
AcDbEntity
  8
AM_0
100
AcDbLine
 10
-38.00000000000001
 20
-6.999999999999992
 30
0.0
 11
-38.00000000000001
 21
-31.99999999999999
 31
0.0
  0
LINE
  5
603E
330
1F
100
AcDbEntity
  8
AM_0
100
AcDbLine
 10
-25.6226254996708
 20
-2.209076981624527
 30
0.0
 11
-33.00000000000012
 21
-7.000000000000021
 31
0.0
  0
LINE
  5
60F9
330
1F
100
AcDbEntity
  8
AM_0
100
AcDbLine
 10
-176.9471066687049
 20
100.558691929548
 30
0.0
 11
-9.224173408952111
 21
109.3486783965295
 31
0.0
  0
LINE
  5
60FA
330
1F
100
AcDbEntity
  8
AM_0
100
AcDbLine
 10
-173.9657502780852
 20
68.67102312529832
 30
0.0
 11
-175.6405008778594
 21
100.6271682374446
 31
0.0
  0
LINE
  5
6103
330
1F
100
AcDbEntity
  8
AM_0
100
AcDbLine
 10
-175.2723560689277
 20
68.60254681740187
 30
0.0
 11
-41.49618885003144
 21
75.61345866234105
 31
0.0
  0
LINE
  5
6111
330
1F
100
AcDbEntity
  8
AM_0
100
AcDbLine
 10
-35.85640646055102
 20
-7.48543497303256
 30
0.0
 11
-35.85640646055102
 21
-31.99999999999999
 31
0.0
  0
LINE
  5
6131
330
1F
100
AcDbEntity
  8
AM_0
100
AcDbLine
 10
-8.411698389131743
 20
-17.63609175894816
 30
0.0
 11
-12.16379704568944
 21
-24.99999999999999
 31
0.0
  0
LINE
  5
6171
330
1F
100
AcDbEntity
  8
AM_0
100
AcDbLine
 10
50.92913406214751
 20
-28.15628406088494
 30
0.0
 11
88.46017275459452
 21
-26.18936566882791
 31
0.0
  0
LINE
  5
6187
330
1F
100
AcDbEntity
  8
AM_0
100
AcDbLine
 10
88.46017275459454
 20
-26.18936566882796
 30
0.0
 11
87.01072953551411
 21
1.467658515546112
 31
0.0
  0
LINE
  5
61B2
330
1F
100
AcDbEntity
  8
AM_0
100
AcDbLine
 10
-30.18712417918928
 20
82.06145068555114
 30
0.0
 11
-35.34475586167471
 21
107.8327297915777
 31
0.0
  0
LINE
  5
6286
330
1F
100
AcDbEntity
  8
AM_0
100
AcDbLine
 10
-20.78534792098721
 20
-1.955566005949741
 30
0.0
 11
-25.6226254996708
 21
-2.209076981624527
 31
0.0
  0
LINE
  5
628D
330
1F
100
AcDbEntity
  8
AM_7
100
AcDbLine
 10
-19.85134667437642
 20
112.2639537760361
 30
0.0
 11
-13.41200275358369
 21
71.60753634261758
 31
0.0
  0
POINT
  5
68EE
330
1F
100
AcDbEntity
  8
0
 60
     1
100
AcDbPoint
 10
0.0
 20
0.0
 30
0.0
1001
GENIUS_GENOBJ-NBEHI-BHF_13
1002
{
1000
OWNER
1000
GENBEHI
1002
}
1001
GENIUS_GENOENT_13
1002
{
1000
MYREF
1005
68EE
1002
}
1002
{
1000
GRP
1005
0
1002
}
1001
GENIUS_GENOLIS_13
1002
{
1000
ENT
1005
68EB
1002
}
1001
GENIUS_GENBH_13
1002
{
1000
OIUMAP
1000
OIU
1002
}
1002
{
1000
FLAGS
1070
    32
1002
}
1002
{
1000
BGO
1005
68F2
1002
}
1001
GENIUS_GENODEF_13
1002
{
1000
HIER
1070
     1
1002
}
1002
{
1000
MANEDIT
1070
     1
1002
}
1002
{
1000
NOSEL
1070
     1
1002
}
1002
{
1000
BEHIND
1070
     0
1002
}
1002
{
1000
REACTOR
1002
}
  0
POINT
  5
68F2
330
1F
100
AcDbEntity
  8
0
 60
     1
100
AcDbPoint
 10
0.0
 20
0.0
 30
0.0
1001
GENIUS_GENOBJ-NBEHI-BHB_13
1002
{
1000
OWNER
1000
GENBEHI
1002
}
1001
GENIUS_GENOENT_13
1002
{
1000
MYREF
1005
68F2
1002
}
1002
{
1000
GRP
1005
0
1002
}
1001
GENIUS_GENOLIS_13
1002
{
1000
ENT
1002
}
1001
GENIUS_GENODEF_13
1002
{
1000
HIER
1070
     1
1002
}
1002
{
1000
MANEDIT
1070
     0
1002
}
1002
{
1000
NOSEL
1070
     1
1002
}
1002
{
1000
BEHIND
1070
     0
1002
}
1002
{
1000
REACTOR
1002
}
1002
{
1000
OTHER
1070
     1
1002
}
1001
GENIUS_GENBH_13
1002
{
1000
FGO
1005
68EE
1002
}
  0
LINE
  5
6993
330
1F
100
AcDbEntity
  8
AM_0
100
AcDbLine
 10
-24.63182771585479
 20
74.31773582861109
 30
0.0
 11
-26.12108382303782
 21
83.72052883107679
 31
0.0
  0
LINE
  5
69A2
330
1F
100
AcDbEntity
  8
AM_0
100
AcDbLine
 10
-5.554795657514287
 20
86.97790887172638
 30
0.0
 11
-4.065539550331306
 21
77.57511586926068
 31
0.0
  0
LINE
  5
69B2
330
1F
100
AcDbEntity
  8
AM_0
100
AcDbLine
 10
-24.63182771585479
 20
74.31773582861109
 30
0.0
 11
-4.065539550331306
 21
77.57511586926068
 31
0.0
  0
LINE
  5
69B4
330
1F
100
AcDbEntity
  8
AM_0
100
AcDbLine
 10
-6.079368895663276
 20
86.89433736859252
 30
0.0
 11
-9.227571878539661
 21
109.2949655528704
 31
0.0
  0
LINE
  5
69F7
330
1F
100
AcDbEntity
  8
AM_0
100
AcDbLine
 10
-39.12767394229014
 20
69.02774231542593
 30
0.0
 11
-38.40489415174731
 21
80.13477090333484
 31
0.0
  0
LINE
  5
6A07
330
1F
100
AcDbEntity
  8
AM_0
100
AcDbLine
 10
-38.98402768788503
 20
80.67077354032901
 30
0.0
 11
-40.15159437500409
 21
68.82225089497032
 31
0.0
  0
LINE
  5
6A10
330
1F
100
AcDbEntity
  8
AM_0
100
AcDbLine
 10
-13.54469839518877
 20
76.07376460087053
 30
0.0
 11
-13.46648116266867
 21
75.57992043057294
 31
0.0
  0
LINE
  5
6A2A
330
1F
100
AcDbEntity
  8
AM_0
100
AcDbLine
 10
-23.5947549582299
 20
74.48199201690332
 30
0.0
 11
-24.17069872999768
 21
74.25190642125892
 31
0.0
  0
ARC
  5
6A2B
330
1F
100
AcDbEntity
  8
AM_0
100
AcDbCircle
 10
-24.65492249715292
 20
74.3765151822752
 30
0.0
 40
0.5
100
AcDbArc
 50
98.69336708299069
 51
345.5687859873742
  0
LINE
  5
6A2D
330
1F
100
AcDbEntity
  8
AM_0
100
AcDbLine
 10
-24.80402920043733
 20
75.40497321272337
 30
0.0
 11
-27.38824658224754
 21
81.87371325609339
 31
0.0
  0
LINE
  5
6A35
330
1F
100
AcDbEntity
  8
AM_0
100
AcDbLine
 10
-17.04487933923261
 20
71.95886903204251
 30
0.0
 11
-13.46648116266867
 21
75.57992043057296
 31
0.0
  0
LINE
  5
6A41
330
1F
100
AcDbEntity
  8
AM_0
100
AcDbLine
 10
-32.10631475072726
 20
74.81142044407306
 30
0.0
 11
-31.30263721155389
 21
69.73720016380693
 31
0.0
  0
LINE
  5
6A46
330
1F
100
AcDbEntity
  8
AM_0
100
AcDbLine
 10
-32.86789706575421
 20
74.69079765534647
 30
0.0
 11
-32.13940148541722
 21
70.09125758155978
 31
0.0
  0
LINE
  5
6A5E
330
1F
100
AcDbEntity
  8
AM_0
100
AcDbLine
 10
-40.15159437500414
 20
68.8222508949703
 30
0.0
 11
-32.13940148541722
 21
70.09125758155978
 31
0.0
  0
LINE
  5
6A5F
330
1F
100
AcDbEntity
  8
AM_0
100
AcDbLine
 10
-31.29960193787016
 20
69.7180361999888
 30
0.0
 11
-17.04748951751541
 21
71.97534904912908
 31
0.0
  0
LINE
  5
6A7A
330
1F
100
AcDbEntity
  8
AM_0
100
AcDbLine
 10
-40.06682710067773
 20
69.75883419007178
 30
0.0
 11
-41.49618885003149
 21
75.61345866234109
 31
0.0
  0
LINE
  5
6A81
330
1F
100
AcDbEntity
  8
AM_7
100
AcDbLine
 10
-32.123883493716
 20
111.6772158650702
 30
0.0
 11
-24.64908888144358
 21
64.48322005995033
 31
0.0
  0
LINE
  5
6A8B
330
1F
100
AcDbEntity
  8
AM_0
100
AcDbLine
 10
-33.08295483932882
 20
80.97768328277334
 30
0.0
 11
-31.30263721155389
 21
69.73720016380693
 31
0.0
  0
LINE
  5
6AB5
330
1F
100
AcDbEntity
  8
AM_0
100
AcDbLine
 10
-28.54317801139476
 20
65.09783162183578
 30
0.0
 11
-21.13551545693122
 21
66.27109010963753
 31
0.0
  0
LINE
  5
6B26
330
1F
100
AcDbEntity
  8
AM_0
100
AcDbLine
 10
-21.13551545693124
 20
66.27109010963753
 30
0.0
 11
-19.88863464359888
 21
67.98727431809059
 31
0.0
1001
GENIUS_GENFIL_13
1070
     0
1040
1.5
1040
1.5
1040
20.0
1040
0.0
1002
{
1002
}
1001
GENIUS_GENODEF_13
1002
{
1000
HIER
1070
     0
1002
}
1002
{
1000
MANEDIT
1070
     0
1002
}
1002
{
1000
NOSEL
1070
     0
1002
}
1002
{
1000
BEHIND
1070
     0
1002
}
1002
{
1000
REACTOR
1002
}
1001
GENIUS_GENOBJ-N-CHA_13
1002
{
1000
OWNER
1000
GEN
1002
}
  0
LINE
  5
6B29
330
1F
100
AcDbEntity
  8
AM_0
100
AcDbLine
 10
-28.54317801139476
 20
65.09783162183578
 30
0.0
 11
-30.25936221984781
 21
66.34471243516813
 31
0.0
1001
GENIUS_GENFIL_13
1070
     0
1040
1.5
1040
1.5
1040
20.0
1040
0.0
1002
{
1002
}
1001
GENIUS_GENODEF_13
1002
{
1000
HIER
1070
     0
1002
}
1002
{
1000
MANEDIT
1070
     0
1002
}
1002
{
1000
NOSEL
1070
     0
1002
}
1002
{
1000
BEHIND
1070
     0
1002
}
1002
{
1000
REACTOR
1002
}
1001
GENIUS_GENOBJ-N-CHA_13
1002
{
1000
OWNER
1000
GEN
1002
}
  0
LINE
  5
6B2B
330
1F
100
AcDbEntity
  8
AM_0
100
AcDbLine
 10
-19.88863464359888
 20
67.98727431809059
 30
0.0
 11
-30.25936221984784
 21
66.34471243516813
 31
0.0
  0
LINE
  5
6B3E
330
1F
100
AcDbEntity
  8
AM_0
100
AcDbLine
 10
54.26469378531982
 20
-15.00717480638931
 30
0.0
 11
54.89071490620442
 21
2.91972457171709
 31
0.0
  0
LINE
  5
6C0F
330
1F
100
AcDbEntity
  8
AM_0
100
AcDbLine
 10
87.01097432458793
 20
1.462987661769211
 30
0.0
 11
64.3932288332131
 21
2.252816738496505
 31
0.0
  0
LINE
  5
6C82
330
1F
100
AcDbEntity
  8
AM_0
100
AcDbLine
 10
64.40491557942621
 20
2.587481363109283
 30
0.0
 11
54.89071490620442
 21
2.91972457171709
 31
0.0
  0
LINE
  5
6D36
330
1F
100
AcDbEntity
  8
AM_0
100
AcDbLine
 10
63.77889445854162
 20
-15.33941801499713
 30
0.0
 11
54.26469378531981
 21
-15.00717480638931
 31
0.0
  0
LINE
  5
6D42
330
1F
100
AcDbEntity
  8
AM_0
100
AcDbLine
 10
-25.37645576944629
 20
79.01913232984393
 30
0.0
 11
-4.810167603922818
 21
82.27651237049355
 31
0.0
  0
LINE
  5
6D59
330
1F
100
AcDbEntity
  8
AM_7
100
AcDbLine
 10
90.75758951497277
 20
-4.713514912199066
 30
0.0
 11
51.40580328851363
 21
-3.339320256296332
 31
0.0
  0
LINE
  5
6D63
330
1F
100
AcDbEntity
  8
AM_0
100
AcDbLine
 10
54.40877723470288
 20
-10.88116465597985
 30
0.0
 11
53.90744007304251
 21
-10.91072842350222
 31
0.0
  0
LINE
  5
6D9B
330
1F
100
AcDbEntity
  8
AM_0
100
AcDbLine
 10
59.02179412193073
 20
-15.17329641069323
 30
0.0
 11
59.64781524281534
 21
2.753602967413179
 31
0.0
  0
LINE
  5
6DAF
330
1F
100
AcDbEntity
  8
AM_0
100
AcDbLine
 10
50.90153729801139
 20
-25.01391768901603
 30
0.0
 11
61.45467838314561
 21
-23.74317734398049
 31
0.0
  0
LINE
  5
6DB7
330
1F
100
AcDbEntity
  8
AM_0
100
AcDbLine
 10
61.4546783831456
 20
-23.74317734398047
 30
0.0
 11
61.70802130845768
 21
-16.48838516730912
 31
0.0
  0
LINE
  5
6DC8
330
1F
100
AcDbEntity
  8
AM_0
100
AcDbLine
 10
53.90744007304251
 20
-10.91072842350222
 30
0.0
 11
54.30196607803477
 21
0.3870181821527865
 31
0.0
  0
LINE
  5
6DC9
330
1F
100
AcDbEntity
  8
AM_0
100
AcDbLine
 10
53.90744007304251
 20
-10.91072842350222
 30
0.0
 11
50.78748696378564
 21
-14.29337084747046
 31
0.0
  0
LINE
  5
6DCC
330
1F
100
AcDbEntity
  8
AM_0
100
AcDbLine
 10
61.60593678411502
 20
-19.41170346265163
 30
0.0
 11
50.62214514645781
 21
-19.02814100672764
 31
0.0
  0
LINE
  5
6ED5
330
1F
100
AcDbEntity
  8
AM_0
100
AcDbLine
 10
61.63284620451554
 20
-16.48575999483283
 30
0.0
 11
54.7926607317842
 21
-15.03183368956384
 31
0.0
  0
ARC
  5
6ED6
330
1F
100
AcDbEntity
  8
AM_0
100
AcDbCircle
 10
54.30358693141731
 20
-14.92787784415494
 30
0.0
 40
0.5
100
AcDbArc
 50
92.95126043947794
 51
347.9999999999992
  0
LINE
  5
6EDC
330
1F
100
AcDbEntity
  8
AM_7
100
AcDbLine
 10
91.93297009270356
 20
-11.86598191413749
 30
0.0
 11
43.9963775538688
 21
-10.19199921586894
 31
0.0
  0
LINE
  5
6EE1
330
1F
100
AcDbEntity
  8
AM_0
100
AcDbLine
 10
46.05998613581179
 20
-6.511776224359628
 30
0.0
 11
45.798239910543
 21
-14.00720742700283
 31
0.0
  0
LINE
  5
6EE2
330
1F
100
AcDbEntity
  8
AM_0
100
AcDbLine
 10
47.24497690601788
 20
-15.5586429125852
 30
0.0
 11
47.61142162139419
 21
-5.065039228884714
 31
0.0
  0
LINE
  5
6EE4
330
1F
100
AcDbEntity
  8
AM_0
100
AcDbLine
 10
45.79823991054298
 20
-14.00720742700283
 30
0.0
 11
47.24497690601786
 21
-15.5586429125852
 31
0.0
1001
GENIUS_GENFIL_13
1070
     0
1040
1.5
1040
1.5
1040
20.0
1040
0.0
1002
{
1002
}
1001
GENIUS_GENODEF_13
1002
{
1000
HIER
1070
     0
1002
}
1002
{
1000
MANEDIT
1070
     0
1002
}
1002
{
1000
NOSEL
1070
     0
1002
}
1002
{
1000
BEHIND
1070
     0
1002
}
1002
{
1000
REACTOR
1002
}
1001
GENIUS_GENOBJ-N-CHA_13
1002
{
1000
OWNER
1000
GEN
1002
}
  0
LINE
  5
6EE6
330
1F
100
AcDbEntity
  8
AM_0
100
AcDbLine
 10
46.05998613581181
 20
-6.511776224359628
 30
0.0
 11
47.61142162139419
 21
-5.065039228884714
 31
0.0
1001
GENIUS_GENFIL_13
1070
     0
1040
1.5
1040
1.5
1040
20.0
1040
0.0
1002
{
1002
}
1001
GENIUS_GENODEF_13
1002
{
1000
HIER
1070
     0
1002
}
1002
{
1000
MANEDIT
1070
     0
1002
}
1002
{
1000
NOSEL
1070
     0
1002
}
1002
{
1000
BEHIND
1070
     0
1002
}
1002
{
1000
REACTOR
1002
}
1001
GENIUS_GENOBJ-N-CHA_13
1002
{
1000
OWNER
1000
GEN
1002
}
  0
DIMENSION
  5
6EEF
330
1F
100
AcDbEntity
  8
AM_5
100
AcDbDimension
  2
*D5
 10
-38.00000000000001
 20
21.37620881633532
 30
0.0
 11
-19.0
 21
24.47620881633532
 31
0.0
 70
    32
  1
<>
  3
AM_JIS
100
AcDbAlignedDimension
 13
0.0
 23
0.0
 33
0.0
 14
-38.00000000000001
 24
-6.999999999999992
 34
0.0
 50
180.0
100
AcDbRotatedDimension
1001
GENIUS_GENDTOL_13
1000

1000
h7
1000

1040
0.0
  0
LINE
  5
6FBA
330
1F
100
AcDbEntity
  8
AM_0
100
AcDbLine
 10
54.86121123277501
 20
-21.50691825467833
 30
0.0
 11
50.66654805564009
 21
-21.36043738877409
 31
0.0
  0
LINE
  5
6FBF
330
1F
100
AcDbEntity
  8
AM_0
100
AcDbLine
 10
54.84220360456844
 20
-22.0512255103089
 30
0.0
 11
51.02154062771947
 21
-21.9178050191887
 31
0.0
  0
ARC
  5
6FCC
330
1F
100
AcDbEntity
  8
AM_0
100
AcDbCircle
 10
54.85170741867173
 20
-21.77907188249363
 30
0.0
 40
0.2723195175075119
100
AcDbArc
 50
268.0
 51
88.00000000000002
  0
LINE
  5
6FCD
330
1F
100
AcDbEntity
  8
AM_0
100
AcDbLine
 10
50.5408528424165
 20
-21.3560480152069
 30
0.0
 11
51.29463366600479
 21
0.2294105688723675
 31
0.0
  0
DIMENSION
  5
6FED
330
1F
100
AcDbEntity
  8
AM_5
100
AcDbDimension
  2
*D6
 10
-14.54955972015462
 20
-0.7194860142545565
 30
0.0
 11
-11.84452851400269
 21
11.28306196945735
 31
0.0
 70
    34
  1
<>
  3
AM_JIS$2
100
AcDb2LineAngularDimension
 13
0.0
 23
11.68810440816767
 33
0.0
 14
0.0
 24
-4.075689078168721
 34
0.0
 15
-0.8418687649943448
 25
-0.0010963721963435
 35
0.0
 16
-6.813360880537872
 26
11.38236081955358
 36
0.0
1001
ACAD
1000
DSTYLE
1002
{
1070
   179
1070
     3
1070
    76
1070
     1
1070
    75
1070
     1
1002
}
1001
GENIUS_GENDTOL_13
1000

1000
h7
1000

1040
0.0
  0
DIMENSION
  5
7139
330
1F
100
AcDbEntity
  8
AM_5
100
AcDbDimension
  2
*D7
 10
-187.8133739451729
 20
67.94529992055891
 30
0.0
 11
-185.5549976873209
 21
84.08561394098525
 31
0.0
 70
    32
  1
<>
  3
AM_JIS
100
AcDbAlignedDimension
 13
-175.507311058383
 23
100.6341484201065
 33
0.0
 14
-173.8325604586088
 24
68.67800330796015
 34
0.0
 50
273.0
100
AcDbRotatedDimension
1001
GENIUS_GENDTOL_13
1000

1000
h7
1000

1040
0.0
  0
DIMENSION
  5
71C5
330
1F
100
AcDbEntity
  8
AM_5
100
AcDbDimension
  2
*D8
 10
-184.0000009999999
 20
-31.99999999999998
 30
0.0
 11
-187.1000009999999
 21
-19.50000000000001
 31
0.0
 70
    32
  1
<>
  3
AM_JIS
100
AcDbAlignedDimension
 13
-169.9999999999999
 23
-6.999999999999992
 33
0.0
 14
-170.0
 24
-31.99999999999999
 34
0.0
 50
270.0
100
AcDbRotatedDimension
1001
GENIUS_GENDTOL_13
1000

1000
h7
1000

1040
0.0
  0
DIMENSION
  5
7251
330
1F
100
AcDbEntity
  8
AM_5
100
AcDbDimension
  2
*D9
 10
24.55865535352832
 20
111.1191614298704
 30
0.0
 11
28.49178221115461
 21
95.30333033815043
 31
0.0
 70
    32
  1
<>
  3
AM_JIS
100
AcDbAlignedDimension
 13
-4.065539550331307
 23
77.57511586926068
 33
0.0
 14
-7.804406753435482
 24
109.4230852140452
 34
0.0
 50
93.00000000000013
100
AcDbRotatedDimension
1001
GENIUS_GENDTOL_13
1000

1000
h7
1000

1040
0.0
  0
DIMENSION
  5
72EC
330
1F
100
AcDbEntity
  8
AM_5
100
AcDbDimension
  2
*D10
 10
-4.065539550331307
 20
77.57511586926068
 30
0.0
 11
13.70926556428178
 21
84.16510233238431
 31
0.0
 70
   162
  1
-<>
  3
AM_JIS$2
100
AcDb2LineAngularDimension
 13
11.0839332014856
 23
78.36906609349236
 33
0.0
 14
-36.36391880142014
 24
75.8824295382681
 34
0.0
 15
-18.62272379995633
 25
75.26948438918265
 35
0.0
 16
14.81942238377656
 26
79.22733594961383
 36
0.0
1001
GENIUS_GENDTOL_13
1000

1000
h7
1000

1040
0.0
1001
ACAD
1000
DSTYLE
1002
{
1070
   179
1070
     3
1070
    76
1070
     0
1070
    75
1070
     0
1002
}
  0
DIMENSION
  5
7439
330
1F
100
AcDbEntity
  8
AM_5
100
AcDbDimension
  2
*D11
 10
14.00000100999999
 20
-0.000000000000004
 30
0.0
 11
10.90000100999999
 21
-16.0
 31
0.0
 70
    32
  1
<>
  3
AM_JIS
100
AcDbAlignedDimension
 13
-22.94285179239145
 23
-31.99999999999999
 33
0.0
 14
0.0
 24
0.0
 34
0.0
 50
90.00000000000003
100
AcDbRotatedDimension
1001
GENIUS_GENDTOL_13
1000

1000
h7
1000

1040
0.0
  0
DIMENSION
  5
76A6
330
1F
100
AcDbEntity
  8
AM_5
100
AcDbDimension
  2
*D12
 10
55.9732161333473
 20
-17.73562930799676
 30
0.0
 11
49.0812912819248
 21
19.44730606247741
 31
0.0
 70
   162
  1
-<>
  3
AM_JIS$2
100
AcDb2LineAngularDimension
 13
54.40653502094361
 23
-10.9453732571044
 33
0.0
 14
54.89071490620442
 24
2.91972457171709
 34
0.0
 15
54.89071490620442
 25
2.91972457171709
 35
0.0
 16
54.99263491024072
 26
20.43828516021404
 36
0.0
1001
ACAD
1000
DSTYLE
1002
{
1070
   179
1070
     3
1002
}
1001
GENIUS_GENDTOL_13
1000

1000
h7
1000

1040
0.0
  0
LINE
  5
7885
330
1F
100
AcDbEntity
  8
AM_0
100
AcDbLine
 10
63.7485626564484
 20
-16.20800718226555
 30
0.0
 11
62.74917182942931
 21
-16.17310768556304
 31
0.0
  0
LINE
  5
7955
330
1F
100
AcDbEntity
  8
AM_0
100
AcDbLine
 10
-38.69506479700655
 20
107.8041744253898
 30
0.0
 11
-37.28621818546068
 21
80.92177965844047
 31
0.0
  0
LINE
  5
7B00
330
1F
100
AcDbEntity
  8
AM_7
100
AcDbLine
 10
-7.833819635539636
 20
-10.34933847386246
 30
0.0
 11
-12.38466697284875
 21
-3.341648103471143
 31
0.0
  0
LINE
  5
7B01
330
1F
100
AcDbEntity
  8
AM_7
100
AcDbLine
 10
-6.453345731707769
 20
-4.474888579852233
 30
0.0
 11
-30.88770179613006
 21
-20.34274494297968
 31
0.0
  0
LINE
  5
7B02
330
1F
100
AcDbEntity
  8
AM_0
100
AcDbLine
 10
-9.452071190008162
 20
-19.51654781572963
 30
0.0
 11
-11.01256724990376
 21
-17.11359460692568
 31
0.0
  0
LINE
  5
7B23
330
1F
100
AcDbEntity
  8
AM_0
100
AcDbLine
 10
-9.544742641392467
 20
-14.23282661002243
 30
0.0
 11
-16.6250500965878
 21
-3.33010922673192
 31
0.0
  0
LINE
  5
7B24
330
1F
100
AcDbEntity
  8
AM_11
100
AcDbLine
 10
-0.7999999999999971
 20
0.0
 30
0.0
 11
0.0
 21
0.0
 31
0.0
  0
LINE
  5
7B25
330
1F
100
AcDbEntity
  8
AM_11
100
AcDbLine
 10
0.0
 20
-0.8000000000000042
 30
0.0
 11
0.0
 21
0.0
 31
0.0
  0
CIRCLE
  5
7B2F
330
1F
100
AcDbEntity
  8
AM_0
100
AcDbCircle
 10
-10.10761585278388
 20
-6.847999344073848
 30
0.0
 40
2.5
  0
LINE
  5
7B37
330
1F
100
AcDbEntity
  8
AM_0
100
AcDbLine
 10
-20.83502442448625
 20
-30.63116090213284
 30
0.0
 11
-36.19333267787237
 21
-6.98144011927922
 31
0.0
  0
LINE
  5
7B3F
330
1F
100
AcDbEntity
  8
AM_0
100
AcDbLine
 10
-9.544742641392467
 20
-14.23282661002243
 30
0.0
 11
-14.53863813852749
 21
-24.03389837609446
 31
0.0
  0
LINE
  5
7B43
330
1F
100
AcDbEntity
  8
AM_0
100
AcDbLine
 10
-16.62505009658781
 20
-3.33010922673192
 30
0.0
 11
-27.6099749788881
 21
-3.905804745404289
 31
0.0
  0
LINE
  5
7B4B
330
1F
100
AcDbEntity
  8
AM_0
100
AcDbLine
 10
-14.5386381385275
 20
-24.03389837609449
 30
0.0
 11
-21.98076639900561
 21
-28.86687297799874
 31
0.0
  0
LINE
  5
7B4F
330
1F
100
AcDbEntity
  8
AM_0
100
AcDbLine
 10
-27.60997497888811
 20
-3.905804745404289
 30
0.0
 11
-35.05210323936626
 21
-8.738779347308586
 31
0.0
  0
LINE
  5
7B50
330
1F
100
AcDbEntity
  8
AM_0
100
AcDbLine
 10
-33.79409738744814
 20
-7.921820794786036
 30
0.0
 11
-34.40689685665784
 21
-6.978192362305826
 31
0.0
  0
POLYLINE
  5
7B5A
330
1F
100
AcDbEntity
  8
AM_0
100
AcDb2dPolyline
 66
     1
 10
0.0
 20
0.0
 30
0.0
  0
VERTEX
  5
7B5B
330
7B5A
100
AcDbEntity
  8
AM_0
100
AcDbVertex
100
AcDb2dVertex
 10
-11.01256724990376
 20
-17.11359460692568
 30
0.0
  0
VERTEX
  5
7B5C
330
7B5A
100
AcDbEntity
  8
AM_0
100
AcDbVertex
100
AcDb2dVertex
 10
-10.19925064425385
 20
-18.36599235245457
 30
0.0
 42
0.5773502691896262
  0
VERTEX
  5
7B5D
330
7B5A
100
AcDbEntity
  8
AM_0
100
AcDbVertex
100
AcDb2dVertex
 10
-8.815508970546831
 20
-18.29347352423419
 30
0.0
  0
SEQEND
  5
7B5E
330
7B5A
100
AcDbEntity
  8
AM_0
  0
LINE
  5
7B5F
330
1F
100
AcDbEntity
  8
AM_0
100
AcDbLine
 10
-19.85378066857088
 20
-3.499319825912813
 30
0.0
 11
-20.67035217704139
 21
-2.241909969569853
 31
0.0
  0
LINE
  5
7C1D
330
1F
100
AcDbEntity
  8
AM_7
100
AcDbLine
 10
-14.49545289501353
 20
-24.97018593224034
 30
0.0
 11
-29.14849990713081
 21
-2.406472225152988
 31
0.0
  0
POINT
  5
7C29
330
1F
100
AcDbEntity
  8
0
 60
     1
100
AcDbPoint
 10
0.0
 20
0.0
 30
0.0
1001
GENIUS_GENOBJ-NBEHI-BHF_13
1002
{
1000
OWNER
1000
GENBEHI
1002
}
1001
GENIUS_GENOENT_13
1002
{
1000
MYREF
1005
7C29
1002
}
1002
{
1000
GRP
1005
0
1002
}
1001
GENIUS_GENOLIS_13
1002
{
1000
ENT
1005
7C27
1002
}
1001
GENIUS_GENBH_13
1002
{
1000
OIUMAP
1000
OIU
1002
}
1002
{
1000
FLAGS
1070
    32
1002
}
1002
{
1000
BGO
1005
7C2A
1002
}
1001
GENIUS_GENODEF_13
1002
{
1000
HIER
1070
     1
1002
}
1002
{
1000
MANEDIT
1070
     1
1002
}
1002
{
1000
NOSEL
1070
     1
1002
}
1002
{
1000
BEHIND
1070
     0
1002
}
1002
{
1000
REACTOR
1002
}
  0
POINT
  5
7C2A
330
1F
100
AcDbEntity
  8
0
 60
     1
100
AcDbPoint
 10
0.0
 20
0.0
 30
0.0
1001
GENIUS_GENOBJ-NBEHI-BHB_13
1002
{
1000
OWNER
1000
GENBEHI
1002
}
1001
GENIUS_GENOENT_13
1002
{
1000
MYREF
1005
7C2A
1002
}
1002
{
1000
GRP
1005
0
1002
}
1001
GENIUS_GENOLIS_13
1002
{
1000
ENT
1002
}
1001
GENIUS_GENODEF_13
1002
{
1000
HIER
1070
     1
1002
}
1002
{
1000
MANEDIT
1070
     0
1002
}
1002
{
1000
NOSEL
1070
     1
1002
}
1002
{
1000
BEHIND
1070
     0
1002
}
1002
{
1000
REACTOR
1002
}
1002
{
1000
OTHER
1070
     1
1002
}
1001
GENIUS_GENBH_13
1002
{
1000
FGO
1005
7C29
1002
}
  0
CIRCLE
  5
7C2E
330
1F
100
AcDbEntity
  8
AM_0
100
AcDbCircle
 10
-21.47160204844436
 20
-14.22785826852744
 30
0.0
 40
5.0
1001
GENIUS_GENOREF_13
1005
7C29
  0
LINE
  5
7C30
330
1F
100
AcDbEntity
  8
AM_0
100
AcDbLine
 10
-22.91497772141843
 20
-11.72785826852744
 30
0.0
 11
-24.3583533943925
 21
-14.22785826852744
 31
0.0
1001
GENIUS_GENOREF_13
1005
7C29
  0
LINE
  5
7C31
330
1F
100
AcDbEntity
  8
AM_0
100
AcDbLine
 10
-18.58485070249624
 20
-14.22785826852744
 30
0.0
 11
-20.02822637547029
 21
-11.72785826852744
 31
0.0
1001
GENIUS_GENOREF_13
1005
7C29
  0
LINE
  5
7C32
330
1F
100
AcDbEntity
  8
AM_0
100
AcDbLine
 10
-20.02822637547029
 20
-11.72785826852744
 30
0.0
 11
-22.91497772141843
 21
-11.72785826852744
 31
0.0
1001
GENIUS_GENOREF_13
1005
7C29
  0
LINE
  5
7C34
330
1F
100
AcDbEntity
  8
AM_0
100
AcDbLine
 10
-22.91497772141818
 20
-16.72785826852759
 30
0.0
 11
-20.02822637547055
 21
-16.72785826852759
 31
0.0
1001
GENIUS_GENOREF_13
1005
7C29
  0
LINE
  5
7C35
330
1F
100
AcDbEntity
  8
AM_0
100
AcDbLine
 10
-20.02822637547055
 20
-16.72785826852759
 30
0.0
 11
-18.58485070249624
 21
-14.22785826852744
 31
0.0
1001
GENIUS_GENOREF_13
1005
7C29
  0
LINE
  5
7C36
330
1F
100
AcDbEntity
  8
AM_0
100
AcDbLine
 10
-24.3583533943925
 20
-14.22785826852744
 30
0.0
 11
-22.91497772141818
 21
-16.72785826852759
 31
0.0
1001
GENIUS_GENOREF_13
1005
7C29
  0
CIRCLE
  5
7C46
330
1F
100
AcDbEntity
  8
AM_0
100
AcDbCircle
 10
-21.47160204844436
 20
-14.22785826852744
 30
0.0
 40
3.75
1001
GENIUS_GENOREF_13
1005
7C29
  0
LINE
  5
7C47
330
1F
100
AcDbEntity
  8
AM_0
100
AcDbLine
 10
-11.23169574119225
 20
-17.54365848598396
 30
0.0
 11
-20.33579115872961
 21
-3.524580925293165
 31
0.0
  0
LINE
  5
7C5A
330
1F
100
AcDbEntity
  8
AM_0
100
AcDbLine
 10
-15.35526891223676
 20
-24.56422460138002
 30
0.0
 11
-19.18139234442795
 21
-18.67251118091879
 31
0.0
  0
LINE
  5
7C5E
330
1F
100
AcDbEntity
  8
AM_0
100
AcDbLine
 10
-14.51659834429134
 20
-24.019585566365
 30
0.0
 11
-18.34272177648253
 21
-18.12787214590377
 31
0.0
  0
LINE
  5
7C60
330
1F
100
AcDbEntity
  8
AM_0
100
AcDbLine
 10
-24.6004823204062
 20
-10.32784439115109
 30
0.0
 11
-28.4266057525974
 21
-4.436130970689859
 31
0.0
  0
LINE
  5
7C61
330
1F
100
AcDbEntity
  8
AM_0
100
AcDbLine
 10
-23.76181175246077
 20
-9.783205356136072
 30
0.0
 11
-27.58793518465198
 21
-3.891491935674835
 31
0.0
  0
LINE
  5
7C71
330
1F
100
AcDbEntity
  8
AM_0
100
AcDbLine
 10
-26.12108382303782
 20
83.72052883107679
 30
0.0
 11
-5.55479565751429
 21
86.97790887172642
 31
0.0
  0
LINE
  5
7C8D
330
1F
100
AcDbEntity
  8
AM_0
100
AcDbLine
 10
-25.96464935799758
 20
82.73284049048163
 30
0.0
 11
-38.98402768788498
 21
80.67077354032901
 31
0.0
  0
ARC
  5
7CB9
330
1F
100
AcDbEntity
  8
AM_0
100
AcDbCircle
 10
-32.48043471323736
 20
74.70898878215249
 30
0.0
 40
0.3878891487427301
100
AcDbArc
 50
15.31197112490232
 51
182.688028875097
  0
LINE
  5
7CC2
330
1F
100
AcDbEntity
  8
AM_0
100
AcDbLine
 10
-38.40489415174729
 20
80.13477090333481
 30
0.0
 11
-27.36368004284278
 21
81.88352742047703
 31
0.0
  0
LINE
  5
7CEC
330
1F
100
AcDbEntity
  8
AM_0
100
AcDbLine
 10
-19.8886346435989
 20
67.98727431809059
 30
0.0
 11
-20.43529830687219
 21
71.43877285010024
 31
0.0
  0
LINE
  5
7CF0
330
1F
100
AcDbEntity
  8
AM_0
100
AcDbLine
 10
-30.25936221984784
 20
66.34471243516813
 30
0.0
 11
-30.80602588312117
 21
69.79621096717782
 31
0.0
  0
LINE
  5
7CF9
330
1F
100
AcDbEntity
  8
AM_0
100
AcDbLine
 10
63.7485626564484
 20
-16.20800718226555
 30
0.0
 11
64.40491557942621
 21
2.587481363109276
 31
0.0
  0
LINE
  5
7D18
330
1F
100
AcDbEntity
  8
AM_0
100
AcDbLine
 10
-24.07653661484815
 20
70.84516392989019
 30
0.0
 11
-20.49813843828419
 21
74.46621532842062
 31
0.0
  0
LINE
  5
7D19
330
1F
100
AcDbEntity
  8
AM_0
100
AcDbLine
 10
-20.5763556708043
 20
74.96005949871821
 30
0.0
 11
-20.49813843828419
 21
74.46621532842058
 31
0.0
  0
LINE
  5
7D2B
330
1F
100
AcDbEntity
  8
AM_0
100
AcDbLine
 10
62.77950363152252
 20
-15.30451851829464
 30
0.0
 11
62.42288396703998
 21
-25.5167695560851
 31
0.0
  0
LINE
  5
7D91
330
1F
100
AcDbEntity
  8
AM_0
100
AcDbLine
 10
47.24497690601788
 20
-15.5586429125852
 30
0.0
 11
50.73904181676361
 21
-15.6806583479226
 31
0.0
  0
LINE
  5
7D95
330
1F
100
AcDbEntity
  8
AM_0
100
AcDbLine
 10
47.61142162139419
 20
-5.065039228884714
 30
0.0
 11
51.10548653213986
 21
-5.187054664222088
 31
0.0
  0
LINE
  5
7DFE
330
1F
100
AcDbEntity
  8
AM_0
100
AcDbLine
 10
-19.57701857256804
 20
-29.81420234961026
 30
0.0
 11
-20.72276054708737
 21
-28.04991442547613
 31
0.0
  0
LINE
  5
7E1F
330
1F
100
AcDbEntity
  8
AM_0
100
AcDbLine
 10
62.55344216781097
 20
-21.71290719591496
 30
0.0
 11
88.20847487365043
 21
-21.38668399852201
 31
0.0
  0
LINE
  5
7E20
330
1F
100
AcDbEntity
  8
AM_0
100
AcDbLine
 10
50.84861969397941
 20
-26.86961267568755
 30
0.0
 11
62.42288396703997
 21
-25.51676955608513
 31
0.0
  0
LINE
  5
7E7C
330
1F
100
AcDbEntity
  8
AM_0
100
AcDbLine
 10
-13.46648116266867
 20
75.57992043057294
 30
0.0
 11
-20.49813843828419
 21
74.46621532842058
 31
0.0
  0
LINE
  5
7F24
330
1F
100
AcDbEntity
  8
AM_0
100
AcDbLine
 10
-8.815508970546831
 20
-18.29347352423419
 30
0.0
 11
-0.0871947806492983
 21
-1.16319239979164
 31
0.0
  0
ARC
  5
7F25
330
1F
100
AcDbEntity
  8
AM_0
100
AcDbCircle
 10
-0.7999999999999918
 20
-0.7999999999999972
 30
0.0
 40
0.8000000000000017
100
AcDbArc
 50
332.9999999999996
 51
92.99999999999993
  0
LINE
  5
7F26
330
1F
100
AcDbEntity
  8
AM_0
100
AcDbLine
 10
-0.8418687649943448
 20
-0.0010963721963435
 30
0.0
 11
-20.04128448767941
 21
-1.007295113754167
 31
0.0
  0
ARC
  5
7F27
330
1F
100
AcDbEntity
  8
AM_0
100
AcDbCircle
 10
-19.99941572268505
 20
-1.806198741557821
 30
0.0
 40
0.7999999999999949
100
AcDbArc
 50
93.00000000000052
 51
213.0000000000006
  0
LINE
  5
7F28
330
1F
100
AcDbEntity
  8
AM_0
100
AcDbLine
 10
-20.67035217704139
 20
-2.241909969569853
 30
0.0
 11
-19.85378066857088
 21
-3.499319825912813
 31
0.0
  0
LINE
  5
7F29
330
1F
100
AcDbEntity
  8
AM_5
100
AcDbLine
 10
-0.8418687649942302
 20
-0.0010963721964004
 30
0.0
 11
54.89071490620442
 21
2.919724571717075
 31
0.0
  0
LINE
  5
7F56
330
1F
100
AcDbEntity
  8
AM_5
100
AcDbLine
 10
-4.06553955033095
 20
77.57511586926077
 30
0.0
 11
-0.0022486215399792
 21
0.0429062549633343
 31
0.0
  0
LINE
  5
7FBA
330
1F
100
AcDbEntity
  8
AM_0
100
AcDbLine
 10
50.84861969397942
 20
-26.86961267568755
 30
0.0
 11
51.04054825592601
 21
-21.37349776355818
 31
0.0
  0
LINE
  5
7FBB
330
1F
100
AcDbEntity
  8
AM_0
100
AcDbLine
 10
50.86414914400099
 20
-26.91629795509032
 30
0.0
 11
50.92913406214751
 21
-28.15628406088498
 31
0.0
  0
LINE
  5
7FBC
330
1F
100
AcDbEntity
  8
AM_0
100
AcDbLine
 10
54.80318814670643
 20
0.4132861176995207
 30
0.0
 11
51.29463366600479
 21
0.2294105688723675
 31
0.0
  0
LINE
  5
7FC8
330
1F
100
AcDbEntity
  8
AM_0
100
AcDbLine
 10
-41.98755808274237
 20
68.75801146366197
 30
0.0
 11
-43.63391097461547
 21
75.50142539306739
 31
0.0
  0
LINE
  5
7FC9
330
1F
100
AcDbEntity
  8
AM_0
100
AcDbLine
 10
-40.15159437500415
 20
68.82225089497035
 30
0.0
 11
-41.98755808274241
 21
68.758011463662
 31
0.0
  0
DIMENSION
  5
7FF5
330
1F
100
AcDbEntity
  8
AM_5
100
AcDbDimension
  2
*D13
 10
-169.9999999999999
 20
36.04193999282742
 30
0.0
 11
-84.99999999999998
 21
39.14193999282742
 31
0.0
 70
    32
  3
AM_JIS
100
AcDbAlignedDimension
 13
0.0
 23
0.0
 33
0.0
 14
-169.9999999999999
 24
-6.999999999999992
 34
0.0
100
AcDbRotatedDimension
  0
LINE
  5
8004
330
1F
100
AcDbEntity
  8
AM_0
100
AcDbLine
 10
-175.2723560689277
 20
68.60254681740181
 30
0.0
 11
-176.9471066687019
 21
100.5586919295481
 31
0.0
  0
VIEWPORT
  5
110
330
101
100
AcDbEntity
 67
     1
  8
0
100
AcDbViewport
 10
420.5
 20
297.0
 30
0.0
 40
948.9782706766916
 41
628.452
 68
     1
 69
     1
1001
ACAD
1000
MVIEW
1002
{
1070
    16
1010
0.0
1020
0.0
1030
0.0
1010
0.0
1020
0.0
1030
1.0
1040
0.0
1040
628.452
1040
420.5
1040
297.0
1040
50.0
1040
0.0
1040
0.0
1070
     0
1070
   100
1070
     1
1070
     1
1070
     0
1070
     0
1070
     0
1070
     0
1040
0.0
1040
0.0
1040
0.0
1040
10.0
1040
10.0
1040
10.0
1040
10.0
1070
     0
1002
{
1002
}
1002
}
  0
ENDSEC
  0
SECTION
  2
OBJECTS
  0
DICTIONARY
  5
C
330
0
100
AcDbDictionary
  3
ACAD_GROUP
350
D
  3
ACAD_LAYOUT
350
1A
  3
ACAD_MLINESTYLE
350
17
  3
ACAD_PLOTSETTINGS
350
19
  3
ACAD_PLOTSTYLENAME
350
E
  3
ACDBVARIABLEDICTIONARY
350
34
  3
ACMDICTIONARY
350
43
  3
AMG
350
2B
  3
AMGSNAPSETTINGS
350
6E
  3
DWGPROPS
350
81C6
  3
ACDBHEADERROUNDTRIPXREC
350
81D2
  0
DICTIONARY
  5
74
330
1F
100
AcDbDictionary
280
     1
  3
ACAD_INDEX
360
81C8
  3
ACAD_LAYOUTSELFREF
360
81F5
  0
DICTIONARY
  5
81FA
330
101
100
AcDbDictionary
280
     1
  3
ACAD_LAYOUTSELFREF
360
81FB
  0
DICTIONARY
  5
D
102
{ACAD_REACTORS
330
C
102
}
330
C
100
AcDbDictionary
  0
DICTIONARY
  5
1A
102
{ACAD_REACTORS
330
C
102
}
330
C
100
AcDbDictionary
  0
DICTIONARY
  5
17
102
{ACAD_REACTORS
330
C
102
}
330
C
100
AcDbDictionary
  3
STANDARD
350
18
  0
DICTIONARY
  5
19
102
{ACAD_REACTORS
330
C
102
}
330
C
100
AcDbDictionary
  0
ACDBDICTIONARYWDFLT
  5
E
102
{ACAD_REACTORS
330
C
102
}
330
C
100
AcDbDictionary
281
     1
  3
Normal
350
F
100
AcDbDictionaryWithDefault
340
F
  0
DICTIONARY
  5
34
102
{ACAD_REACTORS
330
C
102
}
330
C
100
AcDbDictionary
  3
INDEXCTL
350
35
  3
SORTENTS
350
B5E
  0
DICTIONARY
  5
43
102
{ACAD_REACTORS
330
C
102
}
330
C
100
AcDbDictionary
  3
ACMSTDDICTIONARY
350
260
  0
DICTIONARY
  5
2B
102
{ACAD_REACTORS
330
C
102
}
330
C
100
AcDbDictionary
  3
ACMGSETTINGS
350
2C
  0
DICTIONARY
  5
6E
102
{ACAD_REACTORS
330
C
102
}
330
C
100
AcDbDictionary
  0
XRECORD
  5
81C6
102
{ACAD_REACTORS
330
C
102
}
330
C
100
AcDbXrecord
  1
DWGPROPS COOKIE
  2

  3

  4

  6

  7

  8

  9

300
AmdtFileType=82
301
=
302
=
303
=
304
=
305
=
306
=
307
=
308
=
309
=
 40
1.415364930555555
 41
2452838.620506898
 42
2452909.627049676
  1

 90
        1
  0
DICTIONARY
  5
81D2
102
{ACAD_REACTORS
330
C
102
}
330
C
100
AcDbDictionary
  3
TSTACKALIGN
350
81D3
  3
TSTACKSIZE
350
81D4
  3
HYPERLINKBASE
350
81D5
  3
STYLESHEET
350
81D6
  3
LAYOUTDICT
350
81D7
  3
PLOTSETDICT
350
81D8
  3
PLOTSTYLNAMDICT
350
81D9
  3
LWETCUNION
350
81DA
  3
INSUNITS
350
81DB
  3
CEPSNTYPE
350
81DC
  3
FINGERPRINTGUID
350
81DD
  3
VERSIONGUID
350
81DE
  3
PSVPSCALE
350
81DF
  3
DIMSTYLEDATA
350
81E0
  3
PUCSORTHOREF
350
81E1
  3
PUCSORTHOVIEW
350
81E2
  3
PUCSBASE
350
81E3
  3
PUCSORGTOP
350
81E4
  3
PUCSORGBOTTOM
350
81E5
  3
PUCSORGLEFT
350
81E6
  3
PUCSORGRIGHT
350
81E7
  3
PUCSORGFRONT
350
81E8
  3
PUCSORGBACK
350
81E9
  3
UCSORTHOREF
350
81EA
  3
UCSORTHOVIEW
350
81EB
  3
UCSBASE
350
81EC
  3
UCSORGTOP
350
81ED
  3
UCSORGBOTTOM
350
81EE
  3
UCSORGLEFT
350
81EF
  3
UCSORGRIGHT
350
81F0
  3
UCSORGFRONT
350
81F1
  3
UCSORGBACK
350
81F2
  0
DICTIONARY
  5
81C8
102
{ACAD_REACTORS
330
74
102
}
330
74
100
AcDbDictionary
  3
*A1
350
81C9
  0
XRECORD
  5
81F5
102
{ACAD_REACTORS
330
74
102
}
330
74
100
AcDbXrecord
340
1F
  0
XRECORD
  5
81FB
102
{ACAD_REACTORS
330
81FA
102
}
330
81FA
100
AcDbXrecord
340
101
  0
MLINESTYLE
  5
18
102
{ACAD_REACTORS
330
17
102
}
330
17
100
AcDbMlineStyle
  2
STANDARD
 70
     0
  3

 62
   256
 51
90.0
 52
90.0
 71
     2
 49
0.5
 62
   256
  6
BYLAYER
 49
-0.5
 62
   256
  6
BYLAYER
  0
ACDBPLACEHOLDER
  5
F
102
{ACAD_REACTORS
330
E
102
}
330
E
100
AcDbPlaceHolder
280
     0
  0
DICTIONARYVAR
  5
35
102
{ACAD_REACTORS
330
34
102
}
330
34
100
DictionaryVariables
280
     0
  1
1
  0
DICTIONARYVAR
  5
B5E
102
{ACAD_REACTORS
330
34
102
}
330
34
100
DictionaryVariables
280
     0
  1
96
  0
DICTIONARY
  5
260
102
{ACAD_REACTORS
330
43
102
}
330
43
100
AcDbDictionary
  0
DICTIONARY
  5
2C
102
{ACAD_REACTORS
330
2B
102
}
330
2B
100
AcDbDictionary
  3
DWGSETTINGS
350
2D
  0
XRECORD
  5
81D3
102
{ACAD_REACTORS
330
81D2
102
}
330
81D2
100
AcDbXrecord
 90
        1
  0
XRECORD
  5
81D4
102
{ACAD_REACTORS
330
81D2
102
}
330
81D2
100
AcDbXrecord
 90
       70
  0
XRECORD
  5
81D5
102
{ACAD_REACTORS
330
81D2
102
}
330
81D2
100
AcDbXrecord
  1

  0
XRECORD
  5
81D6
102
{ACAD_REACTORS
330
81D2
102
}
330
81D2
100
AcDbXrecord
  1
ASAMI.ctb
  0
XRECORD
  5
81D7
102
{ACAD_REACTORS
330
81D2
102
}
330
81D2
100
AcDbXrecord
340
1A
  0
XRECORD
  5
81D8
102
{ACAD_REACTORS
330
81D2
102
}
330
81D2
100
AcDbXrecord
340
19
  0
XRECORD
  5
81D9
102
{ACAD_REACTORS
330
81D2
102
}
330
81D2
100
AcDbXrecord
340
E
  0
XRECORD
  5
81DA
102
{ACAD_REACTORS
330
81D2
102
}
330
81D2
100
AcDbXrecord
 90
    10781
  0
XRECORD
  5
81DB
102
{ACAD_REACTORS
330
81D2
102
}
330
81D2
100
AcDbXrecord
 90
        4
  0
XRECORD
  5
81DC
102
{ACAD_REACTORS
330
81D2
102
}
330
81D2
100
AcDbXrecord
 90
        0
  0
XRECORD
  5
81DD
102
{ACAD_REACTORS
330
81D2
102
}
330
81D2
100
AcDbXrecord
  1
{AFB28963-8C59-40AE-9337-C84526B81ACE}
  0
XRECORD
  5
81DE
102
{ACAD_REACTORS
330
81D2
102
}
330
81D2
100
AcDbXrecord
  1
{74871B8B-3F35-4116-A9C9-A081555DA696}
  0
XRECORD
  5
81DF
102
{ACAD_REACTORS
330
81D2
102
}
330
81D2
100
AcDbXrecord
 40
0.0
  0
XRECORD
  5
81E0
102
{ACAD_REACTORS
330
81D2
102
}
330
81D2
100
AcDbXrecord
1000
DSTYLE
1002
{
1070
    79
 70
     2
1070
   341
340
59
1070
   342
340
59
1070
   371
 70
    -1
1070
   372
 70
    -1
1002
}
  0
XRECORD
  5
81E1
102
{ACAD_REACTORS
330
81D2
102
}
330
81D2
100
AcDbXrecord
340
0
  0
XRECORD
  5
81E2
102
{ACAD_REACTORS
330
81D2
102
}
330
81D2
100
AcDbXrecord
 70
     0
  0
XRECORD
  5
81E3
102
{ACAD_REACTORS
330
81D2
102
}
330
81D2
100
AcDbXrecord
340
0
  0
XRECORD
  5
81E4
102
{ACAD_REACTORS
330
81D2
102
}
330
81D2
100
AcDbXrecord
 10
0.0
 20
0.0
 30
0.0
  0
XRECORD
  5
81E5
102
{ACAD_REACTORS
330
81D2
102
}
330
81D2
100
AcDbXrecord
 10
0.0
 20
0.0
 30
0.0
  0
XRECORD
  5
81E6
102
{ACAD_REACTORS
330
81D2
102
}
330
81D2
100
AcDbXrecord
 10
0.0
 20
0.0
 30
0.0
  0
XRECORD
  5
81E7
102
{ACAD_REACTORS
330
81D2
102
}
330
81D2
100
AcDbXrecord
 10
0.0
 20
0.0
 30
0.0
  0
XRECORD
  5
81E8
102
{ACAD_REACTORS
330
81D2
102
}
330
81D2
100
AcDbXrecord
 10
0.0
 20
0.0
 30
0.0
  0
XRECORD
  5
81E9
102
{ACAD_REACTORS
330
81D2
102
}
330
81D2
100
AcDbXrecord
 10
0.0
 20
0.0
 30
0.0
  0
XRECORD
  5
81EA
102
{ACAD_REACTORS
330
81D2
102
}
330
81D2
100
AcDbXrecord
340
0
  0
XRECORD
  5
81EB
102
{ACAD_REACTORS
330
81D2
102
}
330
81D2
100
AcDbXrecord
 70
     0
  0
XRECORD
  5
81EC
102
{ACAD_REACTORS
330
81D2
102
}
330
81D2
100
AcDbXrecord
340
0
  0
XRECORD
  5
81ED
102
{ACAD_REACTORS
330
81D2
102
}
330
81D2
100
AcDbXrecord
 10
0.0
 20
0.0
 30
0.0
  0
XRECORD
  5
81EE
102
{ACAD_REACTORS
330
81D2
102
}
330
81D2
100
AcDbXrecord
 10
0.0
 20
0.0
 30
0.0
  0
XRECORD
  5
81EF
102
{ACAD_REACTORS
330
81D2
102
}
330
81D2
100
AcDbXrecord
 10
0.0
 20
0.0
 30
0.0
  0
XRECORD
  5
81F0
102
{ACAD_REACTORS
330
81D2
102
}
330
81D2
100
AcDbXrecord
 10
0.0
 20
0.0
 30
0.0
  0
XRECORD
  5
81F1
102
{ACAD_REACTORS
330
81D2
102
}
330
81D2
100
AcDbXrecord
 10
0.0
 20
0.0
 30
0.0
  0
XRECORD
  5
81F2
102
{ACAD_REACTORS
330
81D2
102
}
330
81D2
100
AcDbXrecord
 10
0.0
 20
0.0
 30
0.0
  0
LAYER_INDEX
  5
81C9
102
{ACAD_REACTORS
330
81C8
102
}
330
81C8
100
AcDbIndex
 40
2452941.610922118
100
AcDbLayerIndex
  8
0
360
81CA
 90
        4
  8
AM_0
360
81CB
 90
      111
  8
AM_11
360
81CC
 90
        2
  8
AM_7
360
81CD
 90
        7
  8
AM_5
360
81CE
 90
       11
  8
Defpoints
360
81CF
 90
        0
  8
AM_6
360
81D0
 90
        1
  0
XRECORD
  5
2D
102
{ACAD_REACTORS
330
2C
102
}
330
2C
100
AcDbXrecord
  1
VERSION
140
15.0
  1
PRODUCT
  2
AutoCAD Mechanical 2000
  0
IDBUFFER
  5
81CA
330
0
100
AcDbIdBuffer
330
68EE
330
68F2
330
7C29
330
7C2A
  0
IDBUFFER
  5
81CB
330
0
100
AcDbIdBuffer
330
6ED5
330
6ED6
330
6EE1
330
6EE2
330
6EE4
330
6EE6
330
6FBA
330
6FBF
330
6FCC
330
6FCD
330
7885
330
7955
330
7B02
330
7B23
330
7B2F
330
7B37
330
7B3F
330
7B43
330
7B4B
330
7B4F
330
7B50
330
7B5A
330
7B5F
330
7C2E
330
7C30
330
7C31
330
7C32
330
7C34
330
7C35
330
7C36
330
7C46
330
7C47
330
7C5A
330
7C5E
330
7C60
330
7C61
330
7C71
330
7C8D
330
7CB9
330
7CC2
330
7CEC
330
7CF0
330
7CF9
330
7D18
330
7D19
330
7D2B
330
7D91
330
7D95
330
7DFE
330
7E1F
330
7E20
330
7E7C
330
7F24
330
7F25
330
7F26
330
7F27
330
7F28
330
7FBA
330
7FBB
330
7FBC
330
7FC8
330
7FC9
330
8004
330
5F9C
330
5FA5
330
5FAD
330
5FB6
330
5FBF
330
603E
330
60F9
330
60FA
330
6103
330
6111
330
6131
330
6171
330
6187
330
61B2
330
6286
330
6993
330
69A2
330
69B2
330
69B4
330
69F7
330
6A07
330
6A10
330
6A2A
330
6A2B
330
6A2D
330
6A35
330
6A41
330
6A46
330
6A5E
330
6A5F
330
6A7A
330
6A8B
330
6AB5
330
6B26
330
6B29
330
6B2B
330
6B3E
330
6C0F
330
6C82
330
6D36
330
6D42
330
6D63
330
6D9B
330
6DAF
330
6DB7
330
6DC8
330
6DC9
330
6DCC
  0
IDBUFFER
  5
81CC
330
0
100
AcDbIdBuffer
330
7B24
330
7B25
  0
IDBUFFER
  5
81CD
330
0
100
AcDbIdBuffer
330
628D
330
6A81
330
6D59
330
6EDC
330
7B00
330
7B01
330
7C1D
  0
IDBUFFER
  5
81CE
330
0
100
AcDbIdBuffer
330
6EEF
330
6FED
330
7139
330
71C5
330
7251
330
72EC
330
7439
330
76A6
330
7F29
330
7F56
330
7FF5
  0
IDBUFFER
  5
81CF
330
0
100
AcDbIdBuffer
  0
IDBUFFER
  5
81D0
330
0
100
AcDbIdBuffer
330
C58
  0
ENDSEC
  0
EOF
