  0
SECTION
  2
HEADER
  9
$ACADVER
  1
AC1014
  9
$ACADMAINTVER
 70
     9
  9
$DWGCODEPAGE
  3
ANSI_932
  9
$INSBASE
 10
0.0
 20
0.0
 30
0.0
  9
$EXTMIN
 10
-198.6999999999903
 20
-78.50000000000008
 30
0.0
  9
$EXTMAX
 10
31.17307944014687
 20
59.21739676336645
 30
0.0
  9
$LIMMIN
 10
-239.0731506360754
 20
-104.3196573457043
  9
$LIMMAX
 10
81.6879617091239
 20
97.58965940950355
  9
$ORTHOMODE
 70
     0
  9
$REGENMODE
 70
     1
  9
$FILLMODE
 70
     1
  9
$QTEXTMODE
 70
     0
  9
$MIRRTEXT
 70
     0
  9
$DRAGMODE
 70
     2
  9
$LTSCALE
 40
1.0
  9
$OSMODE
 70
  2103
  9
$ATTMODE
 70
     1
  9
$TEXTSIZE
 40
2.5
  9
$TRACEWID
 40
1.0
  9
$TEXTSTYLE
  7
STANDARD
  9
$CLAYER
  8
AM_0
  9
$CELTYPE
  6
BYLAYER
  9
$CECOLOR
 62
   256
  9
$CELTSCALE
 40
1.0
  9
$DELOBJ
 70
     1
  9
$DISPSILH
 70
     0
  9
$DIMSCALE
 40
0.5
  9
$DIMASZ
 40
2.5
  9
$DIMEXO
 40
1.0
  9
$DIMDLI
 40
12.0
  9
$DIMRND
 40
0.0
  9
$DIMDLE
 40
0.0
  9
$DIMEXE
 40
1.0
  9
$DIMTP
 40
0.1
  9
$DIMTM
 40
0.1
  9
$DIMTXT
 40
3.2
  9
$DIMCEN
 40
0.0
  9
$DIMTSZ
 40
0.0
  9
$DIMTOL
 70
     0
  9
$DIMLIM
 70
     0
  9
$DIMTIH
 70
     0
  9
$DIMTOH
 70
     0
  9
$DIMSE1
 70
     0
  9
$DIMSE2
 70
     0
  9
$DIMTAD
 70
     3
  9
$DIMZIN
 70
     8
  9
$DIMBLK
  1
OPEN30
  9
$DIMASO
 70
     1
  9
$DIMSHO
 70
     1
  9
$DIMPOST
  1

  9
$DIMAPOST
  1
"
  9
$DIMALT
 70
     0
  9
$DIMALTD
 70
     2
  9
$DIMALTF
 40
0.0393701
  9
$DIMLFAC
 40
1.0
  9
$DIMTOFL
 70
     1
  9
$DIMTVP
 40
0.0
  9
$DIMTIX
 70
     0
  9
$DIMSOXD
 70
     0
  9
$DIMSAH
 70
     0
  9
$DIMBLK1
  1

  9
$DIMBLK2
  1

  9
$DIMSTYLE
  2
AM_JIS
  9
$DIMCLRD
 70
   256
  9
$DIMCLRE
 70
   256
  9
$DIMCLRT
 70
     2
  9
$DIMTFAC
 40
0.71
  9
$DIMGAP
 40
1.5
  9
$DIMJUST
 70
     0
  9
$DIMSD1
 70
     0
  9
$DIMSD2
 70
     0
  9
$DIMTOLJ
 70
     0
  9
$DIMTZIN
 70
     0
  9
$DIMALTZ
 70
     0
  9
$DIMALTTZ
 70
     0
  9
$DIMFIT
 70
     3
  9
$DIMUPT
 70
     0
  9
$DIMUNIT
 70
     2
  9
$DIMDEC
 70
     3
  9
$DIMTDEC
 70
     3
  9
$DIMALTU
 70
     2
  9
$DIMALTTD
 70
     2
  9
$DIMTXSTY
  7
ASAMI
  9
$DIMAUNIT
 70
     0
  9
$LUNITS
 70
     2
  9
$LUPREC
 70
     2
  9
$SKETCHINC
 40
1.0
  9
$FILLETRAD
 40
2.0
  9
$AUNITS
 70
     0
  9
$AUPREC
 70
     0
  9
$MENU
  1
.
  9
$ELEVATION
 40
0.0
  9
$PELEVATION
 40
0.0
  9
$THICKNESS
 40
0.0
  9
$LIMCHECK
 70
     1
  9
$BLIPMODE
 70
     0
  9
$CHAMFERA
 40
1.0
  9
$CHAMFERB
 40
1.0
  9
$CHAMFERC
 40
20.0
  9
$CHAMFERD
 40
0.0
  9
$SKPOLY
 70
     0
  9
$TDCREATE
 40
2452802.716478761
  9
$TDUPDATE
 40
2452941.599045498
  9
$TDINDWG
 40
1.0227939468
  9
$TDUSRTIMER
 40
1.0227939468
  9
$USRTIMER
 70
     1
  9
$ANGBASE
 50
0.0
  9
$ANGDIR
 70
     0
  9
$PDMODE
 70
     0
  9
$PDSIZE
 40
0.0
  9
$PLINEWID
 40
0.0
  9
$COORDS
 70
     0
  9
$SPLFRAME
 70
     0
  9
$SPLINETYPE
 70
     6
  9
$SPLINESEGS
 70
     8
  9
$ATTDIA
 70
     1
  9
$ATTREQ
 70
     1
  9
$HANDLING
 70
 12289
  9
$HANDSEED
  5
8AFC
  9
$SURFTAB1
 70
     6
  9
$SURFTAB2
 70
     6
  9
$SURFTYPE
 70
     6
  9
$SURFU
 70
     6
  9
$SURFV
 70
     6
  9
$UCSNAME
  2

  9
$UCSORG
 10
-0.0000000000002682
 20
0.000000000000161
 30
0.0
  9
$UCSXDIR
 10
1.0
 20
0.000000000000002
 30
0.0
  9
$UCSYDIR
 10
-0.000000000000002
 20
1.0
 30
0.0
  9
$PUCSNAME
  2

  9
$PUCSORG
 10
0.0
 20
0.0
 30
0.0
  9
$PUCSXDIR
 10
1.0
 20
0.0
 30
0.0
  9
$PUCSYDIR
 10
0.0
 20
1.0
 30
0.0
  9
$USERI1
 70
     0
  9
$USERI2
 70
     0
  9
$USERI3
 70
     0
  9
$USERI4
 70
     0
  9
$USERI5
 70
     0
  9
$USERR1
 40
0.0
  9
$USERR2
 40
0.0
  9
$USERR3
 40
0.0
  9
$USERR4
 40
0.0
  9
$USERR5
 40
0.0
  9
$WORLDVIEW
 70
     1
  9
$SHADEDGE
 70
     3
  9
$SHADEDIF
 70
    70
  9
$TILEMODE
 70
     1
  9
$MAXACTVP
 70
    64
  9
$PINSBASE
 10
0.0
 20
0.0
 30
0.0
  9
$PLIMCHECK
 70
     0
  9
$PEXTMIN
 10
1.000000000000000E+20
 20
1.000000000000000E+20
 30
1.000000000000000E+20
  9
$PEXTMAX
 10
-1.000000000000000E+20
 20
-1.000000000000000E+20
 30
-1.000000000000000E+20
  9
$PLIMMIN
 10
0.0
 20
0.0
  9
$PLIMMAX
 10
841.0
 20
594.0
  9
$UNITMODE
 70
     0
  9
$VISRETAIN
 70
     1
  9
$PLINEGEN
 70
     0
  9
$PSLTSCALE
 70
     0
  9
$TREEDEPTH
 70
  3020
  9
$PICKSTYLE
 70
     0
  9
$CMLSTYLE
  2
STANDARD
  9
$CMLJUST
 70
     0
  9
$CMLSCALE
 40
20.0
  9
$PROXYGRAPHICS
 70
     1
  9
$MEASUREMENT
 70
     1
  0
ENDSEC
  0
SECTION
  2
CLASSES
  0
CLASS
  1
ACDBDICTIONARYWDFLT
  2
AcDbDictionaryWithDefault
  3
AutoCAD 2000
 90
        0
280
     0
281
     0
  0
CLASS
  1
ACDBPLACEHOLDER
  2
AcDbPlaceHolder
  3
AutoCAD 2000
 90
        0
280
     0
281
     0
  0
CLASS
  1
LAYOUT
  2
AcDbLayout
  3
AutoCAD 2000
 90
        0
280
     0
281
     0
  0
CLASS
  1
AMGSETTINGSOBJ
  2
AmgSettingsObj
  3
"AcadM|Product Description: AutoCAD Mechanical 2000|Company: Autodesk"
 90
        0
280
     0
281
     0
  0
CLASS
  1
ACME_DOCUMENT
  2
AcMeDbDoc
  3
AcMeServices
 90
        0
280
     0
281
     0
  0
CLASS
  1
ACMESCOPE
  2
AcMeScope
  3
AcMeServices
 90
        0
280
     0
281
     0
  0
CLASS
  1
ACMECOMMANDHISTORY
  2
AcMeCommandHistory
  3
AcMeServices
 90
        0
280
     0
281
     0
  0
CLASS
  1
DICTIONARYVAR
  2
AcDbDictionaryVar
  3
AutoCAD 2000
 90
        0
280
     0
281
     0
  0
CLASS
  1
ACIMSYSVARMAN
  2
AcImSysVarManager
  3
AcMeServices
 90
        0
280
     0
281
     0
  0
CLASS
  1
ACIMREALSYSVAR
  2
AcImRealSysVar
  3
AcMeServices
 90
        0
280
     0
281
     0
  0
CLASS
  1
ACIMINTSYSVAR
  2
AcImIntSysVar
  3
AcMeServices
 90
        0
280
     0
281
     0
  0
CLASS
  1
ACMEDRAWINGMAN
  2
AcMeDrawingMan
  3
AcMeServices
 90
        0
280
     0
281
     0
  0
CLASS
  1
ACMEVIEW
  2
AcMeView
  3
AcMeServices
 90
        0
280
     0
281
     0
  0
CLASS
  1
ACDBENTITYCACHE
  2
AcMeEntityCache
  3
AcMeServices
 90
        0
280
     0
281
     0
  0
CLASS
  1
GSMANAGER
  2
AcMeGSManager
  3
AcMeServices
 90
        0
280
     0
281
     0
  0
CLASS
  1
AmdtInternalReactor
  2
AmdtInternalReactor
  3
AcMeServices
 90
        0
280
     0
281
     0
  0
CLASS
  1
ACMESTATEMGR
  2
AcMeStateMgr
  3
AcMeServices
 90
        0
280
     0
281
     0
  0
CLASS
  1
ACME_DATABASE
  2
AcMeDbDatabase
  3
AcMeServices
 90
        0
280
     0
281
     0
  0
CLASS
  1
ACRFINSADJUSTERMGR
  2
AcRfInsAdjusterMgr
  3
AcMeServices
 90
        0
280
     0
281
     0
  0
CLASS
  1
ACMDATADICTIONARY
  2
AcmDataDictionary
  3
"AcmSymBB|Product Description: AutoCAD Mechanical 2000|Company: Autodesk"
 90
        0
280
     0
281
     0
  0
CLASS
  1
ACMDATAENTRYBLOCK
  2
AcmDataEntryBlock
  3
"AcmSymBB|Product Description: AutoCAD Mechanical 2000|Company: Autodesk"
 90
        0
280
     0
281
     0
  0
CLASS
  1
AMGOBJPROPCFG
  2
AmgObjPropCfg
  3
"AmgLay|Product Description: AutoCAD Mechanical 2000|Company: Autodesk"
 90
        1
280
     0
281
     0
  0
CLASS
  1
ACAMGFILTERDAT
  2
AcAmgFilterDat
  3
"AcadM|Product Description: AutoCAD Mechanical 2000|Company: Autodesk"
 90
        0
280
     0
281
     0
  0
CLASS
  1
LAYER_INDEX
  2
AcDbLayerIndex
  3
AutoCAD 2000
 90
        0
280
     0
281
     0
  0
CLASS
  1
IDBUFFER
  2
AcDbIdBuffer
  3
AutoCAD 2000
 90
        0
280
     0
281
     0
  0
CLASS
  1
ACIMSTRSYSVAR
  2
AcImStrSysVar
  3
AcMeServices
 90
        0
280
     0
281
     0
  0
CLASS
  1
ACMSTANDARDJIS
  2
AcmStandardJIS
  3
"AcmSymBB|Product Description: AutoCAD Mechanical 2000|Company: Autodesk"
 90
        0
280
     0
281
     0
  0
CLASS
  1
ACMSURFSTANDARDJIS
  2
AcmSurfTextStdJIS
  3
"AcmSymBB|Product Description: AutoCAD Mechanical 2000|Company: Autodesk"
 90
        0
280
     0
281
     0
  0
CLASS
  1
ACMFCFSTANDARDJIS
  2
AcmFCFStdJIS
  3
"AcmSymBB|Product Description: AutoCAD Mechanical 2000|Company: Autodesk"
 90
        0
280
     0
281
     0
  0
CLASS
  1
ACMWELDSTANDARDJIS
  2
AcmWeldingStdJIS
  3
"AcmSymBB|Product Description: AutoCAD Mechanical 2000|Company: Autodesk"
 90
        0
280
     0
281
     0
  0
CLASS
  1
ACMIDSTANDARDJIS
  2
AcmIdStdJIS
  3
"AcmSymBB|Product Description: AutoCAD Mechanical 2000|Company: Autodesk"
 90
        0
280
     0
281
     0
  0
CLASS
  1
ACMDATUMSTANDARDJIS
  2
AcmDatumStdJIS
  3
"AcmSymBB|Product Description: AutoCAD Mechanical 2000|Company: Autodesk"
 90
        0
280
     0
281
     0
  0
CLASS
  1
ACMBOMSTANDARDJIS
  2
AcmBOMStdJIS
  3
"AcmSymBB|Product Description: AutoCAD Mechanical 2000|Company: Autodesk"
 90
        0
280
     0
281
     0
  0
CLASS
  1
ACMSTANDARDANSI
  2
AcmStandardANSI
  3
"AcmSymBB|Product Description: AutoCAD Mechanical 2000|Company: Autodesk"
 90
        0
280
     0
281
     0
  0
CLASS
  1
ACMSURFSTANDARDANSI
  2
AcmSurfTextStdANSI
  3
"AcmSymBB|Product Description: AutoCAD Mechanical 2000|Company: Autodesk"
 90
        0
280
     0
281
     0
  0
CLASS
  1
ACMFCFSTANDARDANSI
  2
AcmFCFStdANSI
  3
"AcmSymBB|Product Description: AutoCAD Mechanical 2000|Company: Autodesk"
 90
        0
280
     0
281
     0
  0
CLASS
  1
ACMWELDSTANDARDANSI
  2
AcmWeldingStdANSI
  3
"AcmSymBB|Product Description: AutoCAD Mechanical 2000|Company: Autodesk"
 90
        0
280
     0
281
     0
  0
CLASS
  1
ACMIDSTANDARDANSI
  2
AcmIdStdANSI
  3
"AcmSymBB|Product Description: AutoCAD Mechanical 2000|Company: Autodesk"
 90
        0
280
     0
281
     0
  0
CLASS
  1
ACMDATUMSTANDARDANSI
  2
AcmDatumStdANSI
  3
"AcmSymBB|Product Description: AutoCAD Mechanical 2000|Company: Autodesk"
 90
        0
280
     0
281
     0
  0
CLASS
  1
ACMBOMSTANDARDANSI
  2
AcmBOMStdANSI
  3
"AcmSymBB|Product Description: AutoCAD Mechanical 2000|Company: Autodesk"
 90
        0
280
     0
281
     0
  0
CLASS
  1
ACMSTANDARDBSI
  2
AcmStandardBSI
  3
"AcmSymBB|Product Description: AutoCAD Mechanical 2000|Company: Autodesk"
 90
        0
280
     0
281
     0
  0
CLASS
  1
ACMSURFSTANDARDBSI
  2
AcmSurfTextStdBSI
  3
"AcmSymBB|Product Description: AutoCAD Mechanical 2000|Company: Autodesk"
 90
        0
280
     0
281
     0
  0
CLASS
  1
ACMFCFSTANDARDBSI
  2
AcmFCFStdBSI
  3
"AcmSymBB|Product Description: AutoCAD Mechanical 2000|Company: Autodesk"
 90
        0
280
     0
281
     0
  0
CLASS
  1
ACMWELDSTANDARDBSI
  2
AcmWeldingStdBSI
  3
"AcmSymBB|Product Description: AutoCAD Mechanical 2000|Company: Autodesk"
 90
        0
280
     0
281
     0
  0
CLASS
  1
ACMIDSTANDARDBSI
  2
AcmIdStdBSI
  3
"AcmSymBB|Product Description: AutoCAD Mechanical 2000|Company: Autodesk"
 90
        0
280
     0
281
     0
  0
CLASS
  1
ACMDATUMSTANDARDBSI
  2
AcmDatumStdBSI
  3
"AcmSymBB|Product Description: AutoCAD Mechanical 2000|Company: Autodesk"
 90
        0
280
     0
281
     0
  0
CLASS
  1
ACMBOMSTANDARDBSI
  2
AcmBOMStdBSI
  3
"AcmSymBB|Product Description: AutoCAD Mechanical 2000|Company: Autodesk"
 90
        0
280
     0
281
     0
  0
CLASS
  1
STDPART2D
  2
AmgStdPart
  3
"AmgStdPart|Product Description: AutoCAD Mechanical 2000|Company: Autodesk"
 90
     1023
280
     0
281
     1
  0
CLASS
  1
PLOTSETTINGS
  2
AcDbPlotSettings
  3
AutoCAD 2000
 90
        0
280
     0
281
     0
  0
CLASS
  1
LONG_TRANSACTION
  2
AcDbLongTransaction
  3
AutoCAD 2000
 90
        0
280
     0
281
     0
  0
CLASS
  1
LWPOLYLINE
  2
AcDbPolyline
  3
AutoCAD 2000
 90
        0
280
     0
281
     1
  0
CLASS
  1
HATCH
  2
AcDbHatch
  3
AutoCAD 2000
 90
        0
280
     0
281
     1
  0
CLASS
  1
XRECORD
  2
AcDbXrecord
  3
AutoCAD 2000
 90
        0
280
     0
281
     0
  0
ENDSEC
  0
SECTION
  2
TABLES
  0
TABLE
  2
VPORT
  5
8
330
0
100
AcDbSymbolTable
 70
     3
  0
VPORT
  5
8A91
330
8
100
AcDbSymbolTableRecord
100
AcDbViewportTableRecord
  2
*ACTIVE
 70
     0
 10
0.0
 20
0.0
 11
1.0
 21
1.0
 12
-78.63151411946467
 22
1.945274951476193
 13
0.0
 23
0.0
 14
2.5
 24
2.5
 15
10.0
 25
10.0
 16
0.0
 26
0.0
 36
1.0
 17
0.0
 27
0.0
 37
0.0
 40
227.8861923718148
 41
1.609042553191489
 42
50.0
 43
0.0
 44
0.0
 50
0.0
 51
0.0
 71
     0
 72
   100
 73
     1
 74
     3
 75
     0
 76
     0
 77
     0
 78
     0
  0
ENDTAB
  0
TABLE
  2
LTYPE
  5
5
330
0
100
AcDbSymbolTable
 70
    10
  0
LTYPE
  5
14
330
5
100
AcDbSymbolTableRecord
100
AcDbLinetypeTableRecord
  2
BYBLOCK
 70
     0
  3

 72
    65
 73
     0
 40
0.0
  0
LTYPE
  5
15
330
5
100
AcDbSymbolTableRecord
100
AcDbLinetypeTableRecord
  2
BYLAYER
 70
     0
  3

 72
    65
 73
     0
 40
0.0
  0
LTYPE
  5
16
330
5
100
AcDbSymbolTableRecord
100
AcDbLinetypeTableRecord
  2
CONTINUOUS
 70
     0
  3
Solid line
 72
    65
 73
     0
 40
0.0
  0
LTYPE
  5
4B
330
5
100
AcDbSymbolTableRecord
100
AcDbLinetypeTableRecord
  2
AM_ISO02W050
 70
     0
  3
__ __ __ __ __ __ __ __ __ __ __ __ __ __ __
 72
    65
 73
     2
 40
7.5
 49
6.0
 74
     0
 49
-1.5
 74
     0
  0
LTYPE
  5
4C
330
5
100
AcDbSymbolTableRecord
100
AcDbLinetypeTableRecord
  2
AM_ISO08W050
 70
     0
  3
____ . ____ . ____ . ____ . ____ . ____ . ____
 72
    65
 73
     4
 40
18.0
 49
12.0
 74
     0
 49
-1.5
 74
     0
 49
3.0
 74
     0
 49
-1.5
 74
     0
  0
LTYPE
  5
4D
330
5
100
AcDbSymbolTableRecord
100
AcDbLinetypeTableRecord
  2
AM_ISO09W050
 70
     0
  3
_____ . . _____ . . _____ . . ____ .. ____
 72
    65
 73
     6
 40
22.5
 49
12.0
 74
     0
 49
-1.5
 74
     0
 49
3.0
 74
     0
 49
-1.5
 74
     0
 49
3.0
 74
     0
 49
-1.5
 74
     0
  0
LTYPE
  5
4E
330
5
100
AcDbSymbolTableRecord
100
AcDbLinetypeTableRecord
  2
AMCONSTR
 70
     0
  3
_______________________
 72
    65
 73
     2
 40
9999.0
 49
9999.0
 74
     0
 49
0.0
 74
     0
  0
LTYPE
  5
4F
330
5
100
AcDbSymbolTableRecord
100
AcDbLinetypeTableRecord
  2
AM_ISO02W050X2
 70
     0
  3
 _ _ _ _ _ _ _ _ _ _ _ _
 72
    65
 73
     2
 40
3.75
 49
3.0
 74
     0
 49
-0.75
 74
     0
  0
LTYPE
  5
50
330
5
100
AcDbSymbolTableRecord
100
AcDbLinetypeTableRecord
  2
AM_ISO08W050X2
 70
     0
  3
__ . __ . __ . __ . __ . __
 72
    65
 73
     4
 40
9.0
 49
6.0
 74
     0
 49
-0.75
 74
     0
 49
1.5
 74
     0
 49
-0.75
 74
     0
  0
LTYPE
  5
53
330
5
100
AcDbSymbolTableRecord
100
AcDbLinetypeTableRecord
  2
AMZIGZAG
 70
     0
  3
/\/-/\/-/\/-/\/-/\/-/\/
 72
    65
 73
     2
 40
11.00009999999999
 49
0.0001
 74
     4
 75
   135
340
52
 46
0.04
 50
0.0
 44
0.0
 45
0.0
 49
-11.0
 74
     0
  0
LTYPE
  5
166
330
5
100
AcDbSymbolTableRecord
100
AcDbLinetypeTableRecord
  2
ACJISTGL
 70
     0
  3
_ _ _ _ _
 72
    65
 73
     2
 40
3.0
 49
2.0
 74
     0
 49
-1.0
 74
     0
  0
LTYPE
  5
26A
330
5
100
AcDbSymbolTableRecord
100
AcDbLinetypeTableRecord
  2
ACJISTGB
 70
     0
  3
__ . . __ . .
 72
    65
 73
     6
 40
9.0
 49
4.0
 74
     0
 49
-1.0
 74
     0
 49
1.0
 74
     0
 49
-1.0
 74
     0
 49
1.0
 74
     0
 49
-1.0
 74
     0
  0
ENDTAB
  0
TABLE
  2
LAYER
  5
2
330
0
100
AcDbSymbolTable
 70
     8
  0
LAYER
  5
10
330
2
100
AcDbSymbolTableRecord
100
AcDbLayerTableRecord
  2
0
 70
     0
 62
     7
  6
CONTINUOUS
  0
LAYER
  5
3F9
330
2
100
AcDbSymbolTableRecord
100
AcDbLayerTableRecord
  2
AM_0
 70
     0
 62
     7
  6
CONTINUOUS
  0
LAYER
  5
BA4
330
2
100
AcDbSymbolTableRecord
100
AcDbLayerTableRecord
  2
AM_5
 70
     0
 62
     3
  6
CONTINUOUS
  0
LAYER
  5
BA6
330
2
100
AcDbSymbolTableRecord
100
AcDbLayerTableRecord
  2
AM_7
 70
     0
 62
     4
  6
AM_ISO08W050
  0
LAYER
  5
E64
330
2
100
AcDbSymbolTableRecord
100
AcDbLayerTableRecord
  2
AM_6
 70
     0
 62
     2
  6
CONTINUOUS
  0
LAYER
  5
F4D
330
2
100
AcDbSymbolTableRecord
100
AcDbLayerTableRecord
  2
DEFPOINTS
 70
     0
 62
     7
  6
CONTINUOUS
  0
LAYER
  5
2382
330
2
100
AcDbSymbolTableRecord
100
AcDbLayerTableRecord
  2
AM_3
 70
     0
 62
     6
  6
ACJISTGL
  0
LAYER
  5
4E80
330
2
100
AcDbSymbolTableRecord
100
AcDbLayerTableRecord
  2
AM_11
 70
     0
 62
     3
  6
AM_ISO09W050
  0
ENDTAB
  0
TABLE
  2
STYLE
  5
3
330
0
100
AcDbSymbolTable
 70
     5
  0
STYLE
  5
11
330
3
100
AcDbSymbolTableRecord
100
AcDbTextStyleTableRecord
  2
STANDARD
 70
     0
 40
0.0
 41
1.0
 50
0.0
 71
     0
 42
2.5
  3
simplex.shx
  4
EXTFONT.SHX
  0
STYLE
  5
52
330
3
100
AcDbSymbolTableRecord
100
AcDbTextStyleTableRecord
  2

 70
     1
 40
0.0
 41
1.0
 50
0.0
 71
     0
 42
2.5
  3
ltypeshp.shx
  4

  0
STYLE
  5
6B
330
3
100
AcDbSymbolTableRecord
100
AcDbTextStyleTableRecord
  2
ASAMI
 70
     0
 40
0.0
 41
1.0
 50
0.0
 71
     0
 42
2.5
  3
simplex.shx
  4
EXTFONT.SHX
  0
STYLE
  5
262
330
3
100
AcDbSymbolTableRecord
100
AcDbTextStyleTableRecord
  2
ACJISTS
 70
     0
 40
1.0
 41
1.0
 50
0.0
 71
     0
 42
2.5
  3
simplex.shx
  4
bigfont.shx
  0
STYLE
  5
269
330
3
100
AcDbSymbolTableRecord
100
AcDbTextStyleTableRecord
  2
ACJISGDT
 70
     0
 40
0.0
 41
1.0
 50
0.0
 71
     0
 42
2.5
  3
amgdtans.shx
  4

  0
ENDTAB
  0
TABLE
  2
VIEW
  5
6
330
0
100
AcDbSymbolTable
 70
     0
  0
ENDTAB
  0
TABLE
  2
UCS
  5
7
330
0
100
AcDbSymbolTable
 70
     0
  0
ENDTAB
  0
TABLE
  2
APPID
  5
9
330
0
100
AcDbSymbolTable
 70
    24
  0
APPID
  5
12
330
9
100
AcDbSymbolTableRecord
100
AcDbRegAppTableRecord
  2
ACAD
 70
     0
  0
APPID
  5
30
330
9
100
AcDbSymbolTableRecord
100
AcDbRegAppTableRecord
  2
MCAD_NO_VIS
 70
     0
  0
APPID
  5
31
330
9
100
AcDbSymbolTableRecord
100
AcDbRegAppTableRecord
  2
ACAD_TEMP_GRAPHIC
 70
     0
  0
APPID
  5
2C2
330
9
100
AcDbSymbolTableRecord
100
AcDbRegAppTableRecord
  2
GENIUS_GENDTOL_13
 70
     0
  0
APPID
  5
339
330
9
100
AcDbSymbolTableRecord
100
AcDbRegAppTableRecord
  2
GENIUS_GENODEF_13
 70
     0
  0
APPID
  5
33A
330
9
100
AcDbSymbolTableRecord
100
AcDbRegAppTableRecord
  2
GENIUS_GENOBJ-N-RSBK_13
 70
     0
  0
APPID
  5
33B
330
9
100
AcDbSymbolTableRecord
100
AcDbRegAppTableRecord
  2
GENIUS_GENOBJ-N-LIB_13
 70
     0
  0
APPID
  5
33C
330
9
100
AcDbSymbolTableRecord
100
AcDbRegAppTableRecord
  2
GENIUS_GENSCALE_13
 70
     0
  0
APPID
  5
378
330
9
100
AcDbSymbolTableRecord
100
AcDbRegAppTableRecord
  2
GENIUS_GENDIMSH_14
 70
     0
  0
APPID
  5
BB0
330
9
100
AcDbSymbolTableRecord
100
AcDbRegAppTableRecord
  2
GENIUS_GENOBJ-N-CEN_13
 70
     0
  0
APPID
  5
BB1
330
9
100
AcDbSymbolTableRecord
100
AcDbRegAppTableRecord
  2
GENIUS_GENFIL_13
 70
     0
  0
APPID
  5
BB2
330
9
100
AcDbSymbolTableRecord
100
AcDbRegAppTableRecord
  2
GENIUS_GENOBJ-N-CHA_13
 70
     0
  0
APPID
  5
1FAF
330
9
100
AcDbSymbolTableRecord
100
AcDbRegAppTableRecord
  2
GENIUS_GENOBJ-N-CRS_13
 70
     0
  0
APPID
  5
1FB0
330
9
100
AcDbSymbolTableRecord
100
AcDbRegAppTableRecord
  2
GENIUS_GENOENT_13
 70
     0
  0
APPID
  5
1FB1
330
9
100
AcDbSymbolTableRecord
100
AcDbRegAppTableRecord
  2
GENIUS_GENOREF_13
 70
     0
  0
APPID
  5
1FB2
330
9
100
AcDbSymbolTableRecord
100
AcDbRegAppTableRecord
  2
GENIUS_GENOLIS_13
 70
     0
  0
APPID
  5
1FB7
330
9
100
AcDbSymbolTableRecord
100
AcDbRegAppTableRecord
  2
GENIUS_GENOBJ-N-FIL_13
 70
     0
  0
APPID
  5
22A8
330
9
100
AcDbSymbolTableRecord
100
AcDbRegAppTableRecord
  2
GEVID1056506048
 70
     0
  0
APPID
  5
22A9
330
9
100
AcDbSymbolTableRecord
100
AcDbRegAppTableRecord
  2
GEVDC
 70
     0
  0
APPID
  5
22AC
330
9
100
AcDbSymbolTableRecord
100
AcDbRegAppTableRecord
  2
GENIUS_GENBH_13
 70
     0
  0
APPID
  5
22B8
330
9
100
AcDbSymbolTableRecord
100
AcDbRegAppTableRecord
  2
GENIUS_GENOBJ-NBEHI-BHF_13
 70
     0
  0
APPID
  5
22BA
330
9
100
AcDbSymbolTableRecord
100
AcDbRegAppTableRecord
  2
GENIUS_GENOBJ-NBEHI-BHB_13
 70
     0
  0
APPID
  5
35C9
330
9
100
AcDbSymbolTableRecord
100
AcDbRegAppTableRecord
  2
GENIUS_GENREC_14
 70
     0
  0
APPID
  5
35CA
330
9
100
AcDbSymbolTableRecord
100
AcDbRegAppTableRecord
  2
GENIUS_GENOBJ-N-REC_13
 70
     0
  0
ENDTAB
  0
TABLE
  2
DIMSTYLE
  5
A
330
0
100
AcDbSymbolTable
 70
     9
  0
DIMSTYLE
105
58
330
A
100
AcDbSymbolTableRecord
100
AcDbDimStyleTableRecord
  2
AM_JIS
 70
     0
  3

  4
"
  5
OPEN30
  6

  7

 40
1.0
 41
2.5
 42
1.0
 43
12.0
 44
1.0
 45
0.0
 46
0.0
 47
0.1
 48
0.1
140
3.2
141
0.0
142
0.0
143
0.0393701
144
1.0
145
0.0
146
0.71
147
1.5
 71
     0
 72
     0
 73
     0
 74
     0
 75
     0
 76
     0
 77
     3
 78
     8
170
     0
171
     2
172
     1
173
     0
174
     0
175
     0
176
   256
177
   256
178
     2
270
     2
271
     3
272
     3
273
     2
274
     2
340
6B
275
     0
280
     0
281
     0
282
     0
283
     0
284
     0
285
     0
286
     0
287
     3
288
     0
  0
DIMSTYLE
105
5F
330
A
100
AcDbSymbolTableRecord
100
AcDbDimStyleTableRecord
  2
AM_JIS$3
 70
     0
  3

  4
"
  5
OPEN30
  6

  7

 40
1.0
 41
2.5
 42
1.0
 43
10.0
 44
1.0
 45
0.0
 46
0.0
 47
0.1
 48
0.1
140
3.2
141
0.0
142
0.0
143
0.0393701
144
1.0
145
0.0
146
0.71
147
1.5
 71
     0
 72
     0
 73
     0
 74
     1
 75
     0
 76
     0
 77
     3
 78
     8
170
     0
171
     2
172
     0
173
     0
174
     0
175
     0
176
   256
177
   256
178
     2
270
     2
271
     2
272
     3
273
     2
274
     2
340
6B
275
     0
280
     0
281
     0
282
     0
283
     0
284
     0
285
     0
286
     0
287
     0
288
     1
  0
DIMSTYLE
105
60
330
A
100
AcDbSymbolTableRecord
100
AcDbDimStyleTableRecord
  2
AM_JIS$4
 70
     0
  3

  4
"
  5
OPEN30
  6

  7

 40
1.0
 41
2.5
 42
1.0
 43
10.0
 44
1.0
 45
0.0
 46
0.0
 47
0.1
 48
0.1
140
3.2
141
0.0
142
0.0
143
0.0393701
144
1.0
145
0.0
146
0.71
147
1.5
 71
     0
 72
     0
 73
     0
 74
     1
 75
     0
 76
     0
 77
     3
 78
     8
170
     0
171
     2
172
     0
173
     0
174
     0
175
     0
176
   256
177
   256
178
     2
270
     2
271
     2
272
     3
273
     2
274
     2
340
6B
275
     0
280
     0
281
     0
282
     0
283
     0
284
     0
285
     0
286
     0
287
     0
288
     1
  0
DIMSTYLE
105
61
330
A
100
AcDbSymbolTableRecord
100
AcDbDimStyleTableRecord
  2
AM_JIS$6
 70
     0
  3

  4
"
  5
OPEN30
  6

  7

 40
1.0
 41
2.5
 42
1.0
 43
10.0
 44
1.0
 45
0.0
 46
0.0
 47
0.1
 48
0.1
140
3.2
141
0.0
142
0.0
143
0.0393701
144
1.0
145
0.0
146
0.71
147
1.5
 71
     0
 72
     0
 73
     0
 74
     0
 75
     0
 76
     0
 77
     0
 78
     8
170
     0
171
     2
172
     1
173
     0
174
     0
175
     0
176
   256
177
   256
178
     2
270
     2
271
     2
272
     2
273
     2
274
     2
340
6B
275
     0
280
     0
281
     0
282
     0
283
     0
284
     0
285
     0
286
     0
287
     3
288
     0
  0
DIMSTYLE
105
62
330
A
100
AcDbSymbolTableRecord
100
AcDbDimStyleTableRecord
  2
AM_JIS$7
 70
     0
  3

  4
"
  5
OPEN30
  6

  7

 40
1.0
 41
2.5
 42
1.0
 43
10.0
 44
1.0
 45
0.0
 46
0.0
 47
0.1
 48
0.1
140
3.2
141
0.0
142
0.0
143
0.0393701
144
1.0
145
0.0
146
0.71
147
1.5
 71
     0
 72
     0
 73
     0
 74
     0
 75
     0
 76
     0
 77
     3
 78
     8
170
     0
171
     2
172
     1
173
     0
174
     0
175
     0
176
   256
177
   256
178
     2
270
     2
271
     2
272
     3
273
     2
274
     2
340
6B
275
     0
280
     0
281
     0
282
     0
283
     0
284
     0
285
     0
286
     0
287
     3
288
     0
  0
DIMSTYLE
105
63
330
A
100
AcDbSymbolTableRecord
100
AcDbDimStyleTableRecord
  2
AM_JIS$SF
 70
     0
  3

  4
"
  5
OPEN30
  6

  7

 40
1.0
 41
2.5
 42
1.0
 43
10.0
 44
1.0
 45
0.0
 46
0.0
 47
0.1
 48
0.1
140
3.2
141
0.0
142
0.0
143
0.0393701
144
1.0
145
0.0
146
0.71
147
1.5
 71
     0
 72
     0
 73
     0
 74
     0
 75
     1
 76
     1
 77
     3
 78
     8
170
     0
171
     2
172
     1
173
     0
174
     0
175
     0
176
   256
177
   256
178
     2
270
     2
271
     2
272
     2
273
     2
274
     2
340
6B
275
     0
280
     0
281
     0
282
     0
283
     0
284
     0
285
     0
286
     0
287
     3
288
     0
  0
DIMSTYLE
105
68
330
A
100
AcDbSymbolTableRecord
100
AcDbDimStyleTableRecord
  2
AM_JIS$SH
 70
     0
  3

  4
"
  5

  6
GENAXEH
  7
OPEN30
 40
1.0
 41
2.5
 42
1.0
 43
10.0
 44
1.0
 45
0.0
 46
0.0
 47
0.1
 48
0.1
140
3.2
141
0.0
142
0.0
143
0.0393701
144
2.0
145
0.0
146
0.71
147
1.5
 71
     0
 72
     0
 73
     0
 74
     0
 75
     1
 76
     1
 77
     3
 78
     8
170
     0
171
     2
172
     1
173
     1
174
     0
175
     0
176
   256
177
   256
178
     2
270
     2
271
     2
272
     2
273
     2
274
     2
340
6B
275
     0
280
     0
281
     0
282
     0
283
     0
284
     0
285
     0
286
     0
287
     3
288
     0
  0
DIMSTYLE
105
B34
102
{ACAD_REACTORS
330
874F
102
}
330
A
100
AcDbSymbolTableRecord
100
AcDbDimStyleTableRecord
  2
AM_JIS$2
 70
     0
  3

  4
"
  5
OPEN30
  6

  7

 40
1.0
 41
2.5
 42
1.0
 43
12.0
 44
1.0
 45
0.0
 46
0.0
 47
0.1
 48
0.1
140
3.2
141
0.0
142
0.0
143
0.0393701
144
1.0
145
0.0
146
0.71
147
1.5
 71
     0
 72
     0
 73
     0
 74
     0
 75
     0
 76
     0
 77
     3
 78
     8
170
     0
171
     2
172
     1
173
     0
174
     0
175
     0
176
   256
177
   256
178
     2
270
     2
271
     3
272
     3
273
     2
274
     2
340
6B
275
     0
280
     0
281
     0
282
     0
283
     0
284
     0
285
     0
286
     0
287
     3
288
     0
  0
DIMSTYLE
105
3B48
102
{ACAD_REACTORS
330
82A0
330
8335
330
83D8
330
846D
330
858E
330
8502
330
863E
102
}
330
A
100
AcDbSymbolTableRecord
100
AcDbDimStyleTableRecord
  2
AM_JIS$0
 70
     0
  3

  4
"
  5
OPEN30
  6

  7

 40
1.0
 41
2.5
 42
0.0
 43
10.0
 44
1.0
 45
0.0
 46
0.0
 47
0.1
 48
0.1000000001
140
3.799999999999999
141
0.0
142
0.0
143
0.0393701
144
1.0
145
0.0
146
0.71
147
1.5
 71
     0
 72
     0
 73
     0
 74
     0
 75
     0
 76
     0
 77
     3
 78
     1
170
     0
171
     2
172
     1
173
     0
174
     0
175
     0
176
     3
177
     3
178
     2
270
     2
271
     2
272
     2
273
     2
274
     2
340
11
275
     1
280
     0
281
     0
282
     0
283
     0
284
     8
285
     0
286
     0
287
     0
288
     0
  0
ENDTAB
  0
TABLE
  2
BLOCK_RECORD
  5
1
330
0
100
AcDbSymbolTable
 70
    13
  0
BLOCK_RECORD
  5
1F
102
{ACAD_XDICTIONARY
360
74
102
}
330
1
100
AcDbSymbolTableRecord
100
AcDbBlockTableRecord
  2
*MODEL_SPACE
  0
BLOCK_RECORD
  5
101
102
{ACAD_XDICTIONARY
360
8ABA
102
}
330
1
100
AcDbSymbolTableRecord
100
AcDbBlockTableRecord
  2
*PAPER_SPACE
  0
BLOCK_RECORD
  5
59
330
1
100
AcDbSymbolTableRecord
100
AcDbBlockTableRecord
  2
_OPEN30
  0
BLOCK_RECORD
  5
64
330
1
100
AcDbSymbolTableRecord
100
AcDbBlockTableRecord
  2
GENAXEH
  0
BLOCK_RECORD
  5
82A1
330
1
100
AcDbSymbolTableRecord
100
AcDbBlockTableRecord
  2
*D5
  0
BLOCK_RECORD
  5
8336
330
1
100
AcDbSymbolTableRecord
100
AcDbBlockTableRecord
  2
*D6
  0
BLOCK_RECORD
  5
83D9
330
1
100
AcDbSymbolTableRecord
100
AcDbBlockTableRecord
  2
*D7
  0
BLOCK_RECORD
  5
846E
330
1
100
AcDbSymbolTableRecord
100
AcDbBlockTableRecord
  2
*D8
  0
BLOCK_RECORD
  5
8503
330
1
100
AcDbSymbolTableRecord
100
AcDbBlockTableRecord
  2
*D9
  0
BLOCK_RECORD
  5
858F
330
1
100
AcDbSymbolTableRecord
100
AcDbBlockTableRecord
  2
*D10
  0
BLOCK_RECORD
  5
863F
330
1
100
AcDbSymbolTableRecord
100
AcDbBlockTableRecord
  2
*D11
  0
BLOCK_RECORD
  5
8750
330
1
100
AcDbSymbolTableRecord
100
AcDbBlockTableRecord
  2
*D12
  0
ENDTAB
  0
ENDSEC
  0
SECTION
  2
BLOCKS
  0
BLOCK
  5
20
330
1F
100
AcDbEntity
  8
0
100
AcDbBlockBegin
  2
*MODEL_SPACE
 70
     0
 10
0.0
 20
0.0
 30
0.0
  3
*MODEL_SPACE
  1

  0
ENDBLK
  5
21
330
1F
100
AcDbEntity
  8
0
100
AcDbBlockEnd
  0
BLOCK
  5
103
330
101
100
AcDbEntity
 67
     1
  8
0
100
AcDbBlockBegin
  2
*PAPER_SPACE
 70
     0
 10
0.0
 20
0.0
 30
0.0
  3
*PAPER_SPACE
  1

  0
ENDBLK
  5
104
330
101
100
AcDbEntity
 67
     1
  8
0
100
AcDbBlockEnd
  0
BLOCK
  5
5D
330
59
100
AcDbEntity
  8
0
100
AcDbBlockBegin
  2
_OPEN30
 70
     0
 10
0.0
 20
0.0
 30
0.0
  3
_OPEN30
  1

  0
LINE
  5
5A
330
59
100
AcDbEntity
  8
0
 62
     0
100
AcDbLine
 10
-1.0
 20
0.26794919
 30
0.0
 11
0.0
 21
0.0
 31
0.0
  0
LINE
  5
5B
330
59
100
AcDbEntity
  8
0
 62
     0
100
AcDbLine
 10
0.0
 20
0.0
 30
0.0
 11
-1.0
 21
-0.26794919
 31
0.0
  0
LINE
  5
5C
330
59
100
AcDbEntity
  8
0
 62
     0
100
AcDbLine
 10
0.0
 20
0.0
 30
0.0
 11
-1.0
 21
0.0
 31
0.0
  0
ENDBLK
  5
5E
330
59
100
AcDbEntity
  8
0
100
AcDbBlockEnd
  0
BLOCK
  5
66
330
64
100
AcDbEntity
  8
0
100
AcDbBlockBegin
  2
GENAXEH
 70
     0
 10
0.0
 20
0.0
 30
0.0
  3
GENAXEH
  1

  0
LINE
  5
65
330
64
100
AcDbEntity
  8
0
100
AcDbLine
 10
-1.0
 20
0.0
 30
0.0
 11
1.0
 21
0.0
 31
0.0
  0
ENDBLK
  5
67
330
64
100
AcDbEntity
  8
0
100
AcDbBlockEnd
  0
BLOCK
  5
82AB
330
82A1
100
AcDbEntity
  8
0
100
AcDbBlockBegin
  2
*D5
 70
     1
 10
0.0
 20
0.0
 30
0.0
  3
*D5
  1

  0
LINE
  5
8ABC
330
82A1
100
AcDbEntity
  8
AM_5
100
AcDbLine
 10
-180.9999847412104
 20
59.21739676336597
 30
0.0
 11
-194.9999999999903
 21
59.21739676336594
 31
0.0
  0
LINE
  5
8ABD
330
82A1
100
AcDbEntity
  8
AM_5
100
AcDbLine
 10
-180.9999999999903
 20
34.21739676336597
 30
0.0
 11
-194.9999999999903
 21
34.21739676336594
 31
0.0
  0
LINE
  5
8ABE
330
82A1
100
AcDbEntity
  8
AM_5
100
AcDbLine
 10
-193.9999999999903
 20
56.71739676336594
 30
0.0
 11
-193.9999999999903
 21
36.71739676336594
 31
0.0
  0
INSERT
  5
8ABF
330
82A1
100
AcDbEntity
  8
AM_5
100
AcDbBlockReference
  2
_OPEN30
 10
-193.9999999999903
 20
59.21739676336594
 30
0.0
 41
2.5
 42
2.5
 43
2.5
 50
90.0000000000001
  0
INSERT
  5
8AC0
330
82A1
100
AcDbEntity
  8
AM_5
100
AcDbBlockReference
  2
_OPEN30
 10
-193.9999999999903
 20
34.21739676336594
 30
0.0
 41
2.5
 42
2.5
 43
2.5
 50
270.0000000000001
  0
MTEXT
  5
8AC1
330
82A1
100
AcDbEntity
  8
AM_5
 62
     2
100
AcDbMText
 10
-197.0999999999903
 20
46.71739676336595
 30
0.0
 40
3.2
 41
0.0
 71
     5
 72
     1
  1
25
  7
ASAMI
 11
-0.000000000000002
 21
1.0
 31
0.0
  0
POINT
  5
8AC2
330
82A1
100
AcDbEntity
  8
DEFPOINTS
 62
     0
100
AcDbPoint
 10
-179.9999847412102
 20
59.21739676336637
 30
0.0
  0
POINT
  5
8AC3
330
82A1
100
AcDbEntity
  8
DEFPOINTS
 62
     0
100
AcDbPoint
 10
-179.9999999999903
 20
34.21739676336637
 30
0.0
  0
POINT
  5
8AC4
330
82A1
100
AcDbEntity
  8
DEFPOINTS
 62
     0
100
AcDbPoint
 10
-193.9999999999902
 20
34.21739676336637
 30
0.0
  0
ENDBLK
  5
82AC
330
82A1
100
AcDbEntity
  8
0
100
AcDbBlockEnd
  0
BLOCK
  5
8340
330
8336
100
AcDbEntity
  8
0
100
AcDbBlockBegin
  2
*D6
 70
     1
 10
0.0
 20
0.0
 30
0.0
  3
*D6
  1

  0
LINE
  5
8AC5
330
8336
100
AcDbEntity
  8
AM_5
100
AcDbLine
 10
-180.9999999999902
 20
-7.000000000000344
 30
0.0
 11
-194.9999999999903
 21
-7.000000000000372
 31
0.0
  0
LINE
  5
8AC6
330
8336
100
AcDbEntity
  8
AM_5
100
AcDbLine
 10
-180.9999999999902
 20
-32.00000000000031
 30
0.0
 11
-194.9999999999902
 21
-32.00000000000034
 31
0.0
  0
LINE
  5
8AC7
330
8336
100
AcDbEntity
  8
AM_5
100
AcDbLine
 10
-193.9999999999902
 20
-9.500000000000369
 30
0.0
 11
-193.9999999999902
 21
-29.50000000000034
 31
0.0
  0
INSERT
  5
8AC8
330
8336
100
AcDbEntity
  8
AM_5
100
AcDbBlockReference
  2
_OPEN30
 10
-193.9999999999902
 20
-7.000000000000369
 30
0.0
 41
2.5
 42
2.5
 43
2.5
 50
90.0000000000001
  0
INSERT
  5
8AC9
330
8336
100
AcDbEntity
  8
AM_5
100
AcDbBlockReference
  2
_OPEN30
 10
-193.9999999999902
 20
-32.00000000000034
 30
0.0
 41
2.5
 42
2.5
 43
2.5
 50
270.0000000000001
  0
MTEXT
  5
8ACA
330
8336
100
AcDbEntity
  8
AM_5
 62
     2
100
AcDbMText
 10
-197.0999999999902
 20
-19.50000000000035
 30
0.0
 40
3.2
 41
0.0
 71
     5
 72
     1
  1
25
  7
ASAMI
 11
-0.000000000000002
 21
1.0
 31
0.0
  0
POINT
  5
8ACB
330
8336
100
AcDbEntity
  8
DEFPOINTS
 62
     0
100
AcDbPoint
 10
-179.9999999999903
 20
-6.999999999999943
 30
0.0
  0
POINT
  5
8ACC
330
8336
100
AcDbEntity
  8
DEFPOINTS
 62
     0
100
AcDbPoint
 10
-179.9999999999902
 20
-31.99999999999991
 30
0.0
  0
POINT
  5
8ACD
330
8336
100
AcDbEntity
  8
DEFPOINTS
 62
     0
100
AcDbPoint
 10
-193.9999999999902
 20
-31.99999999999991
 30
0.0
  0
ENDBLK
  5
8341
330
8336
100
AcDbEntity
  8
0
100
AcDbBlockEnd
  0
BLOCK
  5
83E3
330
83D9
100
AcDbEntity
  8
0
100
AcDbBlockBegin
  2
*D7
 70
     1
 10
0.0
 20
0.0
 30
0.0
  3
*D7
  1

  0
LINE
  5
8ACE
330
83D9
100
AcDbEntity
  8
AM_5
100
AcDbLine
 10
-0.000000000000264
 20
-2.999999999999829
 30
0.0
 11
-0.0000000000001582
 21
-56.99999999999987
 31
0.0
  0
LINE
  5
8ACF
330
83D9
100
AcDbEntity
  8
AM_5
100
AcDbLine
 10
-179.9999999999902
 20
-33.00000000000027
 30
0.0
 11
-179.9999999999901
 21
-57.00000000000024
 31
0.0
  0
LINE
  5
8AD0
330
83D9
100
AcDbEntity
  8
AM_5
100
AcDbLine
 10
-2.500000000000159
 20
-55.99999999999988
 30
0.0
 11
-177.4999999999901
 21
-56.00000000000022
 31
0.0
  0
INSERT
  5
8AD1
330
83D9
100
AcDbEntity
  8
AM_5
100
AcDbBlockReference
  2
_OPEN30
 10
-0.0000000000001601
 20
-55.99999999999987
 30
0.0
 41
2.5
 42
2.5
 43
2.5
 50
0.0000000000001018
  0
INSERT
  5
8AD2
330
83D9
100
AcDbEntity
  8
AM_5
100
AcDbBlockReference
  2
_OPEN30
 10
-179.9999999999901
 20
-56.00000000000023
 30
0.0
 41
2.5
 42
2.5
 43
2.5
 50
180.0000000000001
  0
MTEXT
  5
8AD3
330
83D9
100
AcDbEntity
  8
AM_5
 62
     2
100
AcDbMText
 10
-89.99999999999516
 20
-52.90000000000006
 30
0.0
 40
3.2
 41
0.0
 71
     5
 72
     1
  1
180
  7
ASAMI
  0
POINT
  5
8AD4
330
83D9
100
AcDbEntity
  8
DEFPOINTS
 62
     0
100
AcDbPoint
 10
-0.00000000000027
 20
-1.999999999999829
 30
0.0
  0
POINT
  5
8AD5
330
83D9
100
AcDbEntity
  8
DEFPOINTS
 62
     0
100
AcDbPoint
 10
-179.9999999999902
 20
-31.99999999999991
 30
0.0
  0
POINT
  5
8AD6
330
83D9
100
AcDbEntity
  8
DEFPOINTS
 62
     0
100
AcDbPoint
 10
-179.9999999999902
 20
-55.99999999999987
 30
0.0
  0
ENDBLK
  5
83E4
330
83D9
100
AcDbEntity
  8
0
100
AcDbBlockEnd
  0
BLOCK
  5
8478
330
846E
100
AcDbEntity
  8
0
100
AcDbBlockBegin
  2
*D8
 70
     1
 10
0.0
 20
0.0
 30
0.0
  3
*D8
  1

  0
LINE
  5
8AD7
330
846E
100
AcDbEntity
  8
AM_5
100
AcDbLine
 10
-0.000000000000264
 20
-2.999999999999829
 30
0.0
 11
-0.0000000000001778
 21
-46.99999999999987
 31
0.0
  0
LINE
  5
8AD8
330
846E
100
AcDbEntity
  8
AM_5
100
AcDbLine
 10
-41.00000000000018
 20
-32.99999999999994
 30
0.0
 11
-41.00000000000014
 21
-46.99999999999995
 31
0.0
  0
LINE
  5
8AD9
330
846E
100
AcDbEntity
  8
AM_5
100
AcDbLine
 10
-2.500000000000179
 20
-45.99999999999988
 30
0.0
 11
-38.50000000000015
 21
-45.99999999999995
 31
0.0
  0
INSERT
  5
8ADA
330
846E
100
AcDbEntity
  8
AM_5
100
AcDbBlockReference
  2
_OPEN30
 10
-0.0000000000001797
 20
-45.99999999999987
 30
0.0
 41
2.5
 42
2.5
 43
2.5
 50
0.0000000000001018
  0
INSERT
  5
8ADB
330
846E
100
AcDbEntity
  8
AM_5
100
AcDbBlockReference
  2
_OPEN30
 10
-41.00000000000014
 20
-45.99999999999996
 30
0.0
 41
2.5
 42
2.5
 43
2.5
 50
180.0000000000001
  0
MTEXT
  5
8ADC
330
846E
100
AcDbEntity
  8
AM_5
 62
     2
100
AcDbMText
 10
-20.50000000000017
 20
-42.89999999999991
 30
0.0
 40
3.2
 41
0.0
 71
     5
 72
     1
  1
41
  7
ASAMI
  0
POINT
  5
8ADD
330
846E
100
AcDbEntity
  8
DEFPOINTS
 62
     0
100
AcDbPoint
 10
-0.00000000000027
 20
-1.999999999999829
 30
0.0
  0
POINT
  5
8ADE
330
846E
100
AcDbEntity
  8
DEFPOINTS
 62
     0
100
AcDbPoint
 10
-41.00000000000024
 20
-31.99999999999985
 30
0.0
  0
POINT
  5
8ADF
330
846E
100
AcDbEntity
  8
DEFPOINTS
 62
     0
100
AcDbPoint
 10
-41.00000000000024
 20
-45.99999999999987
 30
0.0
  0
ENDBLK
  5
8479
330
846E
100
AcDbEntity
  8
0
100
AcDbBlockEnd
  0
BLOCK
  5
850D
330
8503
100
AcDbEntity
  8
0
100
AcDbBlockBegin
  2
*D9
 70
     1
 10
0.0
 20
0.0
 30
0.0
  3
*D9
  1

  0
LINE
  5
8AE0
330
8503
100
AcDbEntity
  8
AM_5
100
AcDbLine
 10
-1.351501464844407
 20
59.21739676336643
 30
0.0
 11
14.99999999999966
 21
59.21739676336645
 31
0.0
  0
LINE
  5
8AE1
330
8503
100
AcDbEntity
  8
AM_5
100
AcDbLine
 10
1.000015258788716
 20
34.2173967633664
 30
0.0
 11
14.99999999999971
 21
34.21739676336643
 31
0.0
  0
LINE
  5
8AE2
330
8503
100
AcDbEntity
  8
AM_5
100
AcDbLine
 10
13.99999999999966
 20
56.71739676336645
 30
0.0
 11
13.9999999999997
 21
36.71739676336643
 31
0.0
  0
INSERT
  5
8AE3
330
8503
100
AcDbEntity
  8
AM_5
100
AcDbBlockReference
  2
_OPEN30
 10
13.99999999999966
 20
59.21739676336645
 30
0.0
 41
2.5
 42
2.5
 43
2.5
 50
90.0000000000001
  0
INSERT
  5
8AE4
330
8503
100
AcDbEntity
  8
AM_5
100
AcDbBlockReference
  2
_OPEN30
 10
13.99999999999971
 20
34.21739676336643
 30
0.0
 41
2.5
 42
2.5
 43
2.5
 50
270.0000000000001
  0
MTEXT
  5
8AE5
330
8503
100
AcDbEntity
  8
AM_5
 62
     2
100
AcDbMText
 10
10.89999999999968
 20
46.71739676336644
 30
0.0
 40
3.2
 41
0.0
 71
     5
 72
     1
  1
25
  7
ASAMI
 11
-0.000000000000002
 21
1.0
 31
0.0
  0
POINT
  5
8AE6
330
8503
100
AcDbEntity
  8
DEFPOINTS
 62
     0
100
AcDbPoint
 10
-2.351501464844275
 20
59.21739676336643
 30
0.0
  0
POINT
  5
8AE7
330
8503
100
AcDbEntity
  8
DEFPOINTS
 62
     0
100
AcDbPoint
 10
0.0000152587887925
 20
34.2173967633664
 30
0.0
  0
POINT
  5
8AE8
330
8503
100
AcDbEntity
  8
DEFPOINTS
 62
     0
100
AcDbPoint
 10
13.99999999999978
 20
34.2173967633664
 30
0.0
  0
ENDBLK
  5
850E
330
8503
100
AcDbEntity
  8
0
100
AcDbBlockEnd
  0
BLOCK
  5
8599
330
858F
100
AcDbEntity
  8
0
100
AcDbBlockBegin
  2
*D10
 70
     1
 10
0.0
 20
0.0
 30
0.0
  3
*D10
  1

  0
LINE
  5
8AE9
330
858F
100
AcDbEntity
  8
AM_5
100
AcDbLine
 10
-15.48963165283217
 20
-31.99999999999988
 30
0.0
 11
14.99999999999982
 21
-31.99999999999982
 31
0.0
  0
LINE
  5
8AEA
330
858F
100
AcDbEntity
  8
AM_5
100
AcDbLine
 10
0.9999999999997299
 20
-0.000041961668982
 30
0.0
 11
14.99999999999975
 21
-0.0000419616689549
 31
0.0
  0
LINE
  5
8AEB
330
858F
100
AcDbEntity
  8
AM_5
100
AcDbLine
 10
13.99999999999981
 20
-29.49999999999982
 30
0.0
 11
13.99999999999976
 21
-2.500041961668956
 31
0.0
  0
INSERT
  5
8AEC
330
858F
100
AcDbEntity
  8
AM_5
100
AcDbBlockReference
  2
_OPEN30
 10
13.99999999999982
 20
-31.99999999999982
 30
0.0
 41
2.5
 42
2.5
 43
2.5
 50
270.0000000000001
  0
INSERT
  5
8AED
330
858F
100
AcDbEntity
  8
AM_5
100
AcDbBlockReference
  2
_OPEN30
 10
13.99999999999975
 20
-0.0000419616689568
 30
0.0
 41
2.5
 42
2.5
 43
2.5
 50
90.0000000000001
  0
MTEXT
  5
8AEE
330
858F
100
AcDbEntity
  8
AM_5
 62
     2
100
AcDbMText
 10
10.89999999999978
 20
-16.00002098083439
 30
0.0
 40
3.2
 41
0.0
 71
     5
 72
     1
  1
32
  7
ASAMI
 11
-0.000000000000002
 21
1.0
 31
0.0
  0
POINT
  5
8AEF
330
858F
100
AcDbEntity
  8
DEFPOINTS
 62
     0
100
AcDbPoint
 10
-16.48963165283224
 20
-31.99999999999984
 30
0.0
  0
POINT
  5
8AF0
330
858F
100
AcDbEntity
  8
DEFPOINTS
 62
     0
100
AcDbPoint
 10
-0.00000000000027
 20
-0.000041961668984
 30
0.0
  0
POINT
  5
8AF1
330
858F
100
AcDbEntity
  8
DEFPOINTS
 62
     0
100
AcDbPoint
 10
13.99999999999975
 20
-0.0000419616689879
 30
0.0
  0
ENDBLK
  5
859A
330
858F
100
AcDbEntity
  8
0
100
AcDbBlockEnd
  0
BLOCK
  5
8649
330
863F
100
AcDbEntity
  8
0
100
AcDbBlockBegin
  2
*D11
 70
     1
 10
0.0
 20
0.0
 30
0.0
  3
*D11
  1

  0
LINE
  5
8AF2
330
863F
100
AcDbEntity
  8
AM_5
100
AcDbLine
 10
-3.00000000000027
 20
0.0000000000001642
 30
0.0
 11
-56.00000000000027
 21
0.0000000000000615
 31
0.0
  0
LINE
  5
8AF3
330
863F
100
AcDbEntity
  8
AM_5
100
AcDbLine
 10
-55.00000000000028
 20
2.500000000000063
 30
0.0
 11
-55.00000000000028
 21
5.000000000000063
 31
0.0
  0
LINE
  5
8AF4
330
863F
100
AcDbEntity
  8
AM_5
100
AcDbLine
 10
-55.00000000000024
 20
-9.499999999999975
 30
0.0
 11
-55.00000000000024
 21
-11.99999999999997
 31
0.0
  0
LINE
  5
8AF5
330
863F
100
AcDbEntity
  8
AM_5
100
AcDbLine
 10
-55.00000000000027
 20
0.0000000000000634
 30
0.0
 11
-55.00000000000025
 21
-6.999999999999976
 31
0.0
  0
INSERT
  5
8AF6
330
863F
100
AcDbEntity
  8
AM_5
100
AcDbBlockReference
  2
_OPEN30
 10
-55.00000000000027
 20
0.0000000000000634
 30
0.0
 41
2.5
 42
2.5
 43
2.5
 50
270.0000000000001
  0
INSERT
  5
8AF7
330
863F
100
AcDbEntity
  8
AM_5
100
AcDbBlockReference
  2
_OPEN30
 10
-55.00000000000025
 20
-6.999999999999976
 30
0.0
 41
2.5
 42
2.5
 43
2.5
 50
90.0000000000001
  0
MTEXT
  5
8AF8
330
863F
100
AcDbEntity
  8
AM_5
 62
     2
100
AcDbMText
 10
-58.10000000000027
 20
-3.49999999999996
 30
0.0
 40
3.2
 41
0.0
 71
     5
 72
     1
  1
7
  7
ASAMI
 11
-0.000000000000002
 21
1.0
 31
0.0
  0
POINT
  5
8AF9
330
863F
100
AcDbEntity
  8
DEFPOINTS
 62
     0
100
AcDbPoint
 10
-2.00000000000027
 20
0.0000000000001705
 30
0.0
  0
POINT
  5
8AFA
330
863F
100
AcDbEntity
  8
DEFPOINTS
 62
     0
100
AcDbPoint
 10
-41.00000000000027
 20
-6.999999999999857
 30
0.0
  0
POINT
  5
8AFB
330
863F
100
AcDbEntity
  8
DEFPOINTS
 62
     0
100
AcDbPoint
 10
-55.00000000000027
 20
-6.999999999999853
 30
0.0
  0
ENDBLK
  5
864A
330
863F
100
AcDbEntity
  8
0
100
AcDbBlockEnd
  0
BLOCK
  5
8760
330
8750
100
AcDbEntity
  8
0
100
AcDbBlockBegin
  2
*D12
 70
     1
 10
0.0
 20
0.0
 30
0.0
  3
*D12
  1

  0
LINE
  5
8A13
330
8750
100
AcDbEntity
  8
AM_5
100
AcDbLine
 10
-0.0000000000002751
 20
2.295863847861447
 30
0.0
 11
-0.0000000000003073
 21
16.29586384786144
 31
0.0
  0
ARC
  5
8A14
330
8750
100
AcDbEntity
  8
AM_5
100
AcDbCircle
 10
-0.0000000000002729
 20
1.295863847861447
 30
0.0
 40
13.99999999999999
100
AcDbArc
 50
100.2450321995619
 51
197.254958306589
  0
INSERT
  5
8A15
330
8750
100
AcDbEntity
  8
AM_5
100
AcDbBlockReference
  2
_OPEN30
 10
-0.0000000000003046
 20
15.29586384786144
 30
0.0
 41
2.5
 42
2.5
 43
2.5
 50
5.122516099781035
  0
INSERT
  5
8A16
330
8750
100
AcDbEntity
  8
AM_5
100
AcDbBlockReference
  2
_OPEN30
 10
-12.41815273565269
 20
-5.168614679754546
 30
0.0
 41
2.5
 42
2.5
 43
2.5
 50
292.3774744063699
  0
MTEXT
  5
8A17
330
8750
100
AcDbEntity
  8
AM_5
 62
     2
100
AcDbMText
 10
-14.8795368105593
 20
10.32499012146456
 30
0.0
 40
3.2
 41
0.0
 71
     5
 72
     1
  1
117%%d30'
  7
ASAMI
 11
0.518773328989509
 21
0.8549118276928579
 31
0.0
1001
ACAD
1000
MTEXTBEGIN
1070
    73
1070
     1
1070
    44
1040
1.0
1070
    74
1070
     0
1000
MTEXTEND
  0
POINT
  5
8A18
330
8750
100
AcDbEntity
  8
DEFPOINTS
 62
     0
100
AcDbPoint
 10
-8.842096318716127
 20
12.15023313817728
 30
0.0
  0
POINT
  5
8A19
330
8750
100
AcDbEntity
  8
DEFPOINTS
 62
     0
100
AcDbPoint
 10
-2.923492431641264
 20
-0.2260093688958593
 30
0.0
  0
POINT
  5
8A1A
330
8750
100
AcDbEntity
  8
DEFPOINTS
 62
     0
100
AcDbPoint
 10
-0.00000000000027
 20
-1.999999999999829
 30
0.0
  0
POINT
  5
8A1B
330
8750
100
AcDbEntity
  8
DEFPOINTS
 62
     0
100
AcDbPoint
 10
-0.00000000000027
 20
0.0000000000001705
 30
0.0
  0
POINT
  5
8A1C
330
8750
100
AcDbEntity
  8
DEFPOINTS
 62
     0
100
AcDbPoint
 10
-16.93700790405326
 20
-7.520980834960823
 30
0.0
  0
ENDBLK
  5
8761
330
8750
100
AcDbEntity
  8
0
100
AcDbBlockEnd
  0
ENDSEC
  0
SECTION
  2
ENTITIES
  0
TEXT
  5
388D
330
1F
100
AcDbEntity
  8
AM_6
100
AcDbText
 10
-124.1666666666618
 20
-78.50000000000005
 30
0.0
 40
5.0
  1
MVPCR2525-2220
 51
359.9999999999998
 72
     4
 11
-89.99999999999515
 21
-76.00000000000005
 31
0.0
100
AcDbText
  0
LINE
  5
7F08
330
1F
100
AcDbEntity
  8
AM_0
100
AcDbLine
 10
-15.93624877929725
 20
-6.999999999999829
 30
0.0
 11
-179.9999999999902
 21
-6.999999999999943
 31
0.0
  0
LINE
  5
7F09
330
1F
100
AcDbEntity
  8
AM_0
100
AcDbLine
 10
-16.48963165283224
 20
-31.99999999999983
 30
0.0
 11
-179.9999999999902
 21
-31.99999999999991
 31
0.0
  0
LINE
  5
7F0A
330
1F
100
AcDbEntity
  8
AM_0
100
AcDbLine
 10
-41.00000000000024
 20
34.21739676336643
 30
0.0
 11
-179.9999847412102
 21
34.21739676336637
 31
0.0
  0
LINE
  5
7F0B
330
1F
100
AcDbEntity
  8
AM_0
100
AcDbLine
 10
-2.35150146484429
 20
59.21739676336643
 30
0.0
 11
-179.9999847412102
 21
59.21739676336637
 31
0.0
  0
LINE
  5
7F10
330
1F
100
AcDbEntity
  8
AM_0
100
AcDbLine
 10
-0.6949462890632106
 20
39.87739661077842
 30
0.0
 11
-19.04983520507822
 21
39.87739661077837
 31
0.0
  0
LINE
  5
7F11
330
1F
100
AcDbEntity
  8
AM_0
100
AcDbLine
 10
0.0000152587888067
 20
34.21739676336643
 30
0.0
 11
-24.17606353759824
 21
34.21739676336637
 31
0.0
  0
LINE
  5
7F12
330
1F
100
AcDbEntity
  8
AM_0
100
AcDbLine
 10
-0.6949615478522162
 20
39.87739088873241
 30
0.0
 11
-0.000000000000199
 21
34.21739294866939
 31
0.0
  0
LINE
  5
7F13
330
1F
100
AcDbEntity
  8
AM_0
100
AcDbLine
 10
-2.351501464844233
 20
39.87739661077842
 30
0.0
 11
-2.35150146484429
 21
59.21739676336643
 31
0.0
  0
LINE
  5
7F14
330
1F
100
AcDbEntity
  8
AM_0
100
AcDbLine
 10
-41.00000000000024
 20
34.21739676336643
 30
0.0
 11
-41.00000000000024
 21
35.87739661077843
 31
0.0
  0
LINE
  5
7F15
330
1F
100
AcDbEntity
  8
AM_0
100
AcDbLine
 10
-19.04985046386723
 20
39.8773985181274
 30
0.0
 11
-19.24834442138721
 21
35.8774004254754
 31
0.0
  0
LINE
  5
7F16
330
1F
100
AcDbEntity
  8
AM_0
100
AcDbLine
 10
-17.63191223144524
 20
39.87740042547541
 30
0.0
 11
-17.91278076171924
 21
34.21740057806341
 31
0.0
  0
LINE
  5
7F17
330
1F
100
AcDbEntity
  8
AM_0
100
AcDbLine
 10
-13.77053070068426
 20
39.87739661077842
 30
0.0
 11
-13.77053070068426
 21
59.21739676336643
 31
0.0
  0
ARC
  5
7F18
330
1F
100
AcDbEntity
  8
AM_0
100
AcDbCircle
 10
-27.16397094726623
 20
34.21739676336637
 30
0.0
 40
2.0
100
AcDbArc
 50
179.9999999999998
 51
269.9999820139092
  0
ARC
  5
7F19
330
1F
100
AcDbEntity
  8
AM_0
100
AcDbCircle
 10
-28.47378921508824
 20
34.21739676336637
 30
0.0
 40
2.0
100
AcDbArc
 50
179.9999999999998
 51
269.9999820139092
  0
LINE
  5
7F1A
330
1F
100
AcDbEntity
  8
AM_0
100
AcDbLine
 10
-29.16397094726623
 20
34.21739676336637
 30
0.0
 11
-30.47378921508824
 21
34.21739676336643
 31
0.0
  0
LINE
  5
7F1B
330
1F
100
AcDbEntity
  8
AM_0
100
AcDbLine
 10
-20.71737670898524
 20
26.21739676336637
 30
0.0
 11
-39.60877990722723
 21
26.21739676336648
 31
0.0
  0
LINE
  5
7F1C
330
1F
100
AcDbEntity
  8
AM_0
100
AcDbLine
 10
-19.24832916259821
 20
35.87739661077836
 30
0.0
 11
-41.00000000000024
 21
35.87739661077842
 31
0.0
  0
ARC
  5
7F1D
330
1F
100
AcDbEntity
  8
AM_0
100
AcDbCircle
 10
-20.71737670898524
 20
31.21739676336637
 30
0.0
 40
5.0
100
AcDbArc
 50
269.9999820139092
 51
359.9999640278194
  0
ARC
  5
7F1E
330
1F
100
AcDbEntity
  8
AM_0
100
AcDbCircle
 10
-21.54904937744227
 20
31.21739676336637
 30
0.0
 40
5.0
100
AcDbArc
 50
269.9999820139092
 51
359.9999640278194
  0
ARC
  5
7F1F
330
1F
100
AcDbEntity
  8
AM_0
100
AcDbCircle
 10
-22.55212402343822
 20
34.21739676336637
 30
0.0
 40
2.0
100
AcDbArc
 50
269.9999820139092
 51
359.9999640278194
  0
LINE
  5
7F20
330
1F
100
AcDbEntity
  8
AM_0
100
AcDbLine
 10
-15.71737670898524
 20
31.21739676336643
 30
0.0
 11
-15.71737670898521
 21
34.21739676336643
 31
0.0
  0
LINE
  5
7F21
330
1F
100
AcDbEntity
  8
AM_0
100
AcDbLine
 10
-16.54904937744227
 20
31.21739676336643
 30
0.0
 11
-16.54904937744224
 21
34.21739676336643
 31
0.0
  0
LINE
  5
7F22
330
1F
100
AcDbEntity
  8
AM_0
100
AcDbLine
 10
-20.55212402343822
 20
34.21739676336637
 30
0.0
 11
-20.55212402343822
 21
34.21739676336637
 31
0.0
  0
LINE
  5
7F23
330
1F
100
AcDbEntity
  8
AM_0
100
AcDbLine
 10
-15.71737670898524
 20
32.21739676336643
 30
0.0
 11
-16.54904937744227
 21
32.21739676336643
 31
0.0
  0
LINE
  5
7F24
330
1F
100
AcDbEntity
  8
AM_0
100
AcDbLine
 10
-23.97224044799823
 20
35.8774004254754
 30
0.0
 11
-24.17606353759824
 21
34.21739867071546
 31
0.0
  0
LINE
  5
7F25
330
1F
100
AcDbEntity
  8
AM_0
100
AcDbLine
 10
-24.67342376709023
 20
34.21739676336637
 30
0.0
 11
-24.67342376709023
 21
34.21739676336637
 31
0.0
  0
LINE
  5
7F26
330
1F
100
AcDbEntity
  8
AM_0
100
AcDbLine
 10
-29.16397094726623
 20
34.21739676336637
 30
0.0
 11
-29.16397094726623
 21
35.87739661077836
 31
0.0
  0
LINE
  5
7F27
330
1F
100
AcDbEntity
  8
AM_0
100
AcDbLine
 10
-22.55212402343825
 20
32.21739676336637
 30
0.0
 11
-28.47378921508824
 21
32.21739676336637
 31
0.0
  0
LINE
  5
7F28
330
1F
100
AcDbEntity
  8
AM_0
100
AcDbLine
 10
-39.60877990722723
 20
26.21739676336648
 30
0.0
 11
-39.60877990722723
 21
35.87739661077848
 31
0.0
  0
LINE
  5
7F29
330
1F
100
AcDbEntity
  8
AM_0
100
AcDbLine
 10
-30.47378921508824
 20
34.21739676336643
 30
0.0
 11
-30.47378921508824
 21
35.87739661077842
 31
0.0
  0
CIRCLE
  5
7F4C
330
1F
100
AcDbEntity
  8
AM_0
100
AcDbCircle
 10
-12.22897338867228
 20
-12.22898864746082
 30
0.0
 40
3.5
  0
LINE
  5
7F4E
330
1F
100
AcDbEntity
  8
AM_0
100
AcDbLine
 10
-9.067405700684233
 20
-17.74205017089781
 30
0.0
 11
-16.48962783813523
 21
-32.00000762939382
 31
0.0
  0
LINE
  5
7F50
330
1F
100
AcDbEntity
  8
AM_0
100
AcDbLine
 10
-2.923492431641264
 20
-0.2260093688958591
 30
0.0
 11
-16.93700790405326
 21
-7.520980834960823
 31
0.0
  0
LINE
  5
7F51
330
1F
100
AcDbEntity
  8
AM_7
100
AcDbLine
 10
-3.834442138672258
 20
-20.62351226806583
 30
0.0
 11
-20.16833496093822
 21
-4.289623260497876
 31
0.0
  0
LINE
  5
7F52
330
1F
100
AcDbEntity
  8
AM_7
100
AcDbLine
 10
2.472244262694729
 20
2.472202301026129
 30
0.0
 11
-29.57259750366223
 21
-29.5726394653318
 31
0.0
  0
LINE
  5
7F53
330
1F
100
AcDbEntity
  8
AM_0
100
AcDbLine
 10
-7.520935058594247
 20
-16.93703460693285
 30
0.0
 11
-17.89251708984424
 21
-22.33613586425792
 31
0.0
  0
LINE
  5
7F5E
330
1F
100
AcDbEntity
  8
AM_0
100
AcDbLine
 10
-0.2259674072272588
 20
-2.923500061034872
 30
0.0
 11
-7.520942687988238
 21
-16.93702697753889
 31
0.0
  0
ARC
  5
7F61
330
1F
100
AcDbEntity
  8
AM_0
100
AcDbCircle
 10
-2.00000000000027
 20
-1.999999999999829
 30
0.0
 40
2.0
100
AcDbArc
 50
332.5000924669741
 51
117.4999268856036
  0
LINE
  5
7F63
330
1F
100
AcDbEntity
  8
AM_0
100
AcDbLine
 10
-41.00000000000024
 20
-31.99999999999985
 30
0.0
 11
-41.00000000000027
 21
-6.999999999999886
 31
0.0
  0
LINE
  5
7F64
330
1F
100
AcDbEntity
  8
AM_0
100
AcDbLine
 10
-16.66582870483425
 20
-6.999999999999829
 30
0.0
 11
-20.51368713378927
 21
-14.39166259765585
 31
0.0
  0
ARC
  5
7F66
330
1F
100
AcDbEntity
  8
AM_0
100
AcDbCircle
 10
-34.22896575927727
 20
-20.22898864746082
 30
0.0
 40
5.5
100
AcDbArc
 50
169.4999980002632
 51
337.0593666813655
  0
LINE
  5
7F67
330
1F
100
AcDbEntity
  8
AM_7
100
AcDbLine
 10
-14.61095428466824
 20
-16.05905914306578
 30
0.0
 11
-41.73569488525425
 21
-21.82460021972588
 31
0.0
  0
LINE
  5
7F68
330
1F
100
AcDbEntity
  8
AM_0
100
AcDbLine
 10
-30.47380447387725
 20
-16.21046447753883
 30
0.0
 11
-21.86212539672927
 21
-14.37999725341785
 31
0.0
  0
LINE
  5
7F69
330
1F
100
AcDbEntity
  8
AM_0
100
AcDbLine
 10
-24.10908126831127
 20
-21.29834747314384
 30
0.0
 11
-24.23199462890626
 21
-21.53446960449184
 31
0.0
  0
LINE
  5
7F6A
330
1F
100
AcDbEntity
  8
AM_0
100
AcDbLine
 10
-29.16395950317427
 20
-22.37280273437488
 30
0.0
 11
-20.55225753784226
 21
-20.54232788085891
 31
0.0
  0
LINE
  5
7F6C
330
1F
100
AcDbEntity
  8
AM_0
100
AcDbLine
 10
-16.54906463623127
 20
-14.42626190185484
 30
0.0
 11
-21.86214828491226
 21
-14.37989807128889
 31
0.0
  0
LINE
  5
7F6D
330
1F
100
AcDbEntity
  8
AM_0
100
AcDbLine
 10
-15.71739196777424
 20
-18.33892059326183
 30
0.0
 11
-16.54903411865227
 21
-14.42633819580083
 31
0.0
  0
LINE
  5
7F70
330
1F
100
AcDbEntity
  8
AM_0
100
AcDbLine
 10
-15.71738815307624
 20
-18.33897399902281
 30
0.0
 11
-20.55223464965827
 21
-20.54234313964787
 31
0.0
  0
LINE
  5
7F71
330
1F
100
AcDbEntity
  8
AM_0
100
AcDbLine
 10
-19.78647994995127
 20
-23.32207489013689
 30
0.0
 11
-23.54265594482423
 21
-27.07825469970686
 31
0.0
  0
LINE
  5
7F72
330
1F
100
AcDbEntity
  8
AM_0
100
AcDbLine
 10
-17.89251708984424
 20
-22.33613586425792
 30
0.0
 11
-21.53446578979524
 21
-24.23201751708984
 31
0.0
  0
ARC
  5
7F73
330
1F
100
AcDbEntity
  8
AM_0
100
AcDbCircle
 10
-25.31043624877922
 20
-25.31047058105485
 30
0.0
 40
2.5
100
AcDbArc
 50
134.9999987477635
 51
315.000014002003
  0
LINE
  5
7F74
330
1F
100
AcDbEntity
  8
AM_0
100
AcDbLine
 10
-25.02947235107426
 20
-21.49398803710886
 30
0.0
 11
-27.07818984985427
 21
-23.54270935058582
 31
0.0
  0
ARC
  5
7F75
330
1F
100
AcDbEntity
  8
AM_0
100
AcDbCircle
 10
-22.45797348022527
 20
-22.45796966552688
 30
0.0
 40
2.0
100
AcDbArc
 50
152.5000174485785
 51
297.4999355370264
  0
CIRCLE
  5
7F76
330
1F
100
AcDbEntity
  8
AM_0
100
AcDbCircle
 10
-34.22896575927727
 20
-20.22898864746082
 30
0.0
 40
3.5
  0
CIRCLE
  5
7F77
330
1F
100
AcDbEntity
  8
AM_0
100
AcDbCircle
 10
-34.22896575927727
 20
-20.22898864746082
 30
0.0
 40
4.0
  0
LINE
  5
7F78
330
1F
100
AcDbEntity
  8
AM_7
100
AcDbLine
 10
-32.53722763061524
 20
-28.18796539306584
 30
0.0
 11
-35.66043090820325
 21
-13.49444580078085
 31
0.0
  0
LINE
  5
7F79
330
1F
100
AcDbEntity
  8
AM_0
100
AcDbLine
 10
-32.68362808227625
 20
-21.94522094726483
 30
0.0
 11
-31.96999359130926
 21
-19.74884033203079
 31
0.0
  0
LINE
  5
7F7A
330
1F
100
AcDbEntity
  8
AM_0
100
AcDbLine
 10
-34.94260406494227
 20
-22.42536163330083
 30
0.0
 11
-36.48789596557627
 21
-20.7091522216798
 31
0.0
  0
ARC
  5
7F7B
330
1F
100
AcDbEntity
  8
AM_0
100
AcDbCircle
 10
-34.22896575927727
 20
-20.22898864746082
 30
0.0
 40
5.5
100
AcDbArc
 50
46.94063398649507
 51
169.4999980002632
  0
LINE
  5
7F7D
330
1F
100
AcDbEntity
  8
AM_0
100
AcDbLine
 10
-31.97003173828126
 20
-19.74882507324184
 30
0.0
 11
-33.51532745361323
 21
-18.03261566162086
 31
0.0
  0
LINE
  5
7F7E
330
1F
100
AcDbEntity
  8
AM_0
100
AcDbLine
 10
-36.48785400390626
 20
-20.7091522216798
 30
0.0
 11
-35.77421569824223
 21
-18.51276397705083
 31
0.0
  0
LINE
  5
7F7F
330
1F
100
AcDbEntity
  8
AM_0
100
AcDbLine
 10
-33.51533126831124
 20
-18.03261566162086
 30
0.0
 11
-35.77425765991224
 21
-18.51276397705083
 31
0.0
  0
LINE
  5
7F80
330
1F
100
AcDbEntity
  8
AM_0
100
AcDbLine
 10
-32.68367004394526
 20
-21.94524383544887
 30
0.0
 11
-34.94260025024427
 21
-22.42539978027286
 31
0.0
  0
LINE
  5
7F83
330
1F
100
AcDbEntity
  8
AM_0
100
AcDbLine
 10
-179.9999999999903
 20
34.21739676336637
 30
0.0
 11
-179.9999999999902
 21
59.21739676336637
 31
0.0
  0
LINE
  5
7F85
330
1F
100
AcDbEntity
  8
AM_0
100
AcDbLine
 10
-179.9999999999902
 20
-31.99999999999991
 30
0.0
 11
-179.9999999999902
 21
-6.999999999999943
 31
0.0
  0
DIMENSION
  5
82A0
330
1F
100
AcDbEntity
  8
AM_5
100
AcDbDimension
  2
*D5
 10
-193.9999999999902
 20
34.21739676336637
 30
0.0
 11
-197.0999999999902
 21
46.71739676336634
 31
0.0
 70
    32
  1
<>
 51
359.9999999999998
  3
AM_JIS$0
100
AcDbAlignedDimension
 13
-179.9999847412102
 23
59.21739676336637
 33
0.0
 14
-179.9999999999903
 24
34.21739676336637
 34
0.0
 50
270.0
100
AcDbRotatedDimension
1001
GENIUS_GENDTOL_13
1000

1000
h7
1000

1040
0.0
1001
ACAD
1000
DSTYLE
1002
{
1070
   287
1070
     3
1070
    40
1040
1.0
1070
    42
1040
1.0
1070
    43
1040
12.0
1070
    48
1040
0.1
1070
    78
1070
     8
1070
   140
1040
3.2
1070
   176
1070
   256
1070
   177
1070
   256
1070
   271
1070
     0
1070
   272
1070
     3
1070
   275
1070
     0
1070
   284
1070
     0
1070
   289
1070
     3
1070
   340
1005
6B
1070
   371
1070
    -1
1070
   372
1070
    -1
1002
}
  0
DIMENSION
  5
8335
330
1F
100
AcDbEntity
  8
AM_5
100
AcDbDimension
  2
*D6
 10
-193.9999999999902
 20
-31.99999999999991
 30
0.0
 11
-197.0999999999902
 21
-19.49999999999995
 31
0.0
 70
    32
  1
<>
 51
359.9999999999998
  3
AM_JIS$0
100
AcDbAlignedDimension
 13
-179.9999999999903
 23
-6.999999999999943
 33
0.0
 14
-179.9999999999902
 24
-31.99999999999991
 34
0.0
 50
270.0
100
AcDbRotatedDimension
1001
GENIUS_GENDTOL_13
1000

1000
h7
1000

1040
0.0
1001
ACAD
1000
DSTYLE
1002
{
1070
   287
1070
     3
1070
    40
1040
1.0
1070
    42
1040
1.0
1070
    43
1040
12.0
1070
    48
1040
0.1
1070
    78
1070
     8
1070
   140
1040
3.2
1070
   176
1070
   256
1070
   177
1070
   256
1070
   271
1070
     0
1070
   272
1070
     3
1070
   275
1070
     0
1070
   284
1070
     0
1070
   289
1070
     3
1070
   340
1005
6B
1070
   371
1070
    -1
1070
   372
1070
    -1
1002
}
  0
LINE
  5
83CE
330
1F
100
AcDbEntity
  8
AM_11
100
AcDbLine
 10
-2.00000000000027
 20
0.0000000000001705
 30
0.0
 11
-0.00000000000027
 21
0.0000000000001705
 31
0.0
  0
LINE
  5
83CF
330
1F
100
AcDbEntity
  8
AM_11
100
AcDbLine
 10
-0.00000000000027
 20
-1.999999999999829
 30
0.0
 11
-0.00000000000027
 21
0.0000000000001705
 31
0.0
  0
DIMENSION
  5
83D8
330
1F
100
AcDbEntity
  8
AM_5
100
AcDbDimension
  2
*D7
 10
-179.9999999999902
 20
-55.99999999999987
 30
0.0
 11
-89.99999999999529
 21
-52.89999999999987
 31
0.0
 70
    32
  1
<>
 51
359.9999999999998
  3
AM_JIS$0
100
AcDbAlignedDimension
 13
-0.00000000000027
 23
-1.999999999999829
 33
0.0
 14
-179.9999999999902
 24
-31.99999999999991
 34
0.0
100
AcDbRotatedDimension
1001
GENIUS_GENDTOL_13
1000

1000
h7
1000

1040
0.0
1001
ACAD
1000
DSTYLE
1002
{
1070
   287
1070
     3
1070
    40
1040
1.0
1070
    42
1040
1.0
1070
    43
1040
12.0
1070
    48
1040
0.1
1070
    78
1070
     8
1070
   140
1040
3.2
1070
   176
1070
   256
1070
   177
1070
   256
1070
   271
1070
     0
1070
   272
1070
     3
1070
   275
1070
     0
1070
   284
1070
     0
1070
   289
1070
     3
1070
   340
1005
6B
1070
   371
1070
    -1
1070
   372
1070
    -1
1002
}
  0
DIMENSION
  5
846D
330
1F
100
AcDbEntity
  8
AM_5
100
AcDbDimension
  2
*D8
 10
-41.00000000000024
 20
-45.99999999999987
 30
0.0
 11
-20.50000000000025
 21
-42.89999999999987
 31
0.0
 70
    32
  1
<>
 51
359.9999999999998
  3
AM_JIS$0
100
AcDbAlignedDimension
 13
-0.00000000000027
 23
-1.999999999999829
 33
0.0
 14
-41.00000000000024
 24
-31.99999999999985
 34
0.0
100
AcDbRotatedDimension
1001
GENIUS_GENDTOL_13
1000

1000
h7
1000

1040
0.0
1001
ACAD
1000
DSTYLE
1002
{
1070
   287
1070
     3
1070
    40
1040
1.0
1070
    42
1040
1.0
1070
    43
1040
12.0
1070
    48
1040
0.1
1070
    78
1070
     8
1070
   140
1040
3.2
1070
   176
1070
   256
1070
   177
1070
   256
1070
   271
1070
     0
1070
   272
1070
     3
1070
   275
1070
     0
1070
   284
1070
     0
1070
   289
1070
     3
1070
   340
1005
6B
1070
   371
1070
    -1
1070
   372
1070
    -1
1002
}
  0
DIMENSION
  5
8502
330
1F
100
AcDbEntity
  8
AM_5
100
AcDbDimension
  2
*D9
 10
13.99999999999978
 20
34.2173967633664
 30
0.0
 11
10.89999999999978
 21
46.71739676336641
 31
0.0
 70
    32
  1
<>
 51
359.9999999999998
  3
AM_JIS$0
100
AcDbAlignedDimension
 13
-2.351501464844275
 23
59.21739676336643
 33
0.0
 14
0.0000152587887925
 24
34.2173967633664
 34
0.0
 50
90.0
100
AcDbRotatedDimension
1001
GENIUS_GENDTOL_13
1000

1000
h7
1000

1040
0.0
1001
ACAD
1000
DSTYLE
1002
{
1070
   287
1070
     3
1070
    40
1040
1.0
1070
    42
1040
1.0
1070
    43
1040
12.0
1070
    48
1040
0.1
1070
    78
1070
     8
1070
   140
1040
3.2
1070
   176
1070
   256
1070
   177
1070
   256
1070
   271
1070
     0
1070
   272
1070
     3
1070
   275
1070
     0
1070
   284
1070
     0
1070
   289
1070
     3
1070
   340
1005
6B
1070
   371
1070
    -1
1070
   372
1070
    -1
1002
}
  0
DIMENSION
  5
858E
330
1F
100
AcDbEntity
  8
AM_5
100
AcDbDimension
  2
*D10
 10
13.99999999999975
 20
-0.0000419616689879
 30
0.0
 11
10.89999999999975
 21
-16.00002098083441
 31
0.0
 70
    32
  1
<>
 51
359.9999999999998
  3
AM_JIS$0
100
AcDbAlignedDimension
 13
-16.48963165283224
 23
-31.99999999999984
 33
0.0
 14
-0.00000000000027
 24
-0.000041961668984
 34
0.0
 50
90.0
100
AcDbRotatedDimension
1001
GENIUS_GENDTOL_13
1000

1000
h7
1000

1040
0.0
1001
ACAD
1000
DSTYLE
1002
{
1070
   287
1070
     3
1070
    40
1040
1.0
1070
    42
1040
1.0
1070
    43
1040
12.0
1070
    48
1040
0.1
1070
    78
1070
     8
1070
   140
1040
3.2
1070
   176
1070
   256
1070
   177
1070
   256
1070
   271
1070
     0
1070
   272
1070
     3
1070
   275
1070
     0
1070
   284
1070
     0
1070
   289
1070
     3
1070
   340
1005
6B
1070
   371
1070
    -1
1070
   372
1070
    -1
1002
}
  0
DIMENSION
  5
863E
330
1F
100
AcDbEntity
  8
AM_5
100
AcDbDimension
  2
*D11
 10
-55.00000000000027
 20
-6.999999999999853
 30
0.0
 11
-58.10000000000027
 21
-3.499999999999842
 31
0.0
 70
    32
  1
<>
 51
359.9999999999998
  3
AM_JIS$0
100
AcDbAlignedDimension
 13
-2.00000000000027
 23
0.0000000000001705
 33
0.0
 14
-41.00000000000027
 24
-6.999999999999857
 34
0.0
 50
270.0
100
AcDbRotatedDimension
1001
GENIUS_GENDTOL_13
1000

1000
h7
1000

1040
0.0
1001
ACAD
1000
DSTYLE
1002
{
1070
   287
1070
     3
1070
    76
1070
     1
1070
    40
1040
1.0
1070
    42
1040
1.0
1070
    43
1040
12.0
1070
    48
1040
0.1
1070
    78
1070
     8
1070
   140
1040
3.2
1070
   176
1070
   256
1070
   177
1070
   256
1070
   271
1070
     0
1070
   272
1070
     3
1070
   275
1070
     0
1070
   284
1070
     0
1070
   289
1070
     3
1070
   340
1005
6B
1070
   371
1070
    -1
1070
   372
1070
    -1
1002
}
  0
DIMENSION
  5
874F
330
1F
100
AcDbEntity
  8
AM_5
100
AcDbDimension
  2
*D12
 10
-16.93700790405326
 20
-7.520980834960823
 30
0.0
 11
-14.87953681055928
 21
10.32499012146459
 31
0.0
 70
    34
  1
117%%d30'
 51
359.9999999999998
  3
AM_JIS$2
100
AcDb2LineAngularDimension
 13
-0.00000000000027
 23
-1.999999999999829
 33
0.0
 14
-0.00000000000027
 24
0.0000000000001705
 34
0.0
 15
-2.923492431641264
 25
-0.2260093688958591
 35
0.0
 16
-8.842096318716127
 26
12.15023313817728
 36
0.0
1001
ACAD
1000
DSTYLE
1002
{
1070
   179
1070
     3
1002
}
1001
GENIUS_GENDTOL_13
1000

1000
h7
1000

1040
0.0
  0
MTEXT
  5
8A37
330
1F
100
AcDbEntity
  8
AM_6
100
AcDbMText
 10
14.87797904372443
 20
17.75665900094185
 30
0.0
 40
5.0
 41
0.0
 71
     5
 72
     5
  1
\T1.40;\W0.59;０°
  7
ASAMI
1001
ACAD
1000
MTEXTBEGIN
1070
    73
1070
     1
1070
    44
1040
1.0
1070
    74
1070
     0
1000
MTEXTEND
  0
LEADER
  5
8A38
330
1F
100
AcDbEntity
  8
AM_5
  6
CONTINUOUS
 48
0.5
100
AcDbLeader
  3
AM_JIS$7
 76
     2
 10
26.87797904372449
 20
7.756659000941901
 30
0.0
 10
26.87797904372443
 20
17.7566590009419
 30
0.0
211
-1.0
221
-0.0000000000000058
231
0.0
1001
ACAD
1000
DSTYLE
1002
{
1070
     6
1000
OPEN30
1070
   173
1070
     1
1070
   176
1070
     0
1070
   341
1005
59
1002
}
  0
MTEXT
  5
8A39
330
1F
100
AcDbEntity
  8
AM_6
100
AcDbMText
 10
29.42555563062306
 20
3.75665900094191
 30
0.0
 40
5.0
 41
0.0
 71
     5
 72
     5
  1
\T1.40;\W0.59;０°
  7
ASAMI
1001
ACAD
1000
MTEXTBEGIN
1070
    73
1070
     1
1070
    44
1040
1.0
1070
    74
1070
     0
1000
MTEXTEND
  0
LEADER
  5
8A3A
330
1F
100
AcDbEntity
  8
AM_5
  6
CONTINUOUS
 48
0.5
100
AcDbLeader
  3
AM_JIS$7
 76
     2
 10
16.87797904372443
 20
17.75665900094184
 30
0.0
 10
26.87797904372443
 20
17.7566590009419
 30
0.0
211
-1.0
221
-0.0000000000000058
231
0.0
1001
ACAD
1000
DSTYLE
1002
{
1070
     6
1000
OPEN30
1070
   173
1070
     1
1070
   176
1070
     0
1070
   341
1005
59
1002
}
  0
VIEWPORT
  5
110
330
101
100
AcDbEntity
 67
     1
  8
0
100
AcDbViewport
 10
420.5
 20
297.0
 30
0.0
 40
948.9782706766916
 41
628.452
 68
     1
 69
     1
1001
ACAD
1000
MVIEW
1002
{
1070
    16
1010
0.0
1020
0.0
1030
0.0
1010
0.0
1020
0.0
1030
1.0
1040
0.0
1040
628.452
1040
420.5
1040
297.0
1040
50.0
1040
0.0
1040
0.0
1070
     0
1070
   100
1070
     1
1070
     1
1070
     0
1070
     0
1070
     0
1070
     0
1040
0.0
1040
0.0
1040
0.0
1040
10.0
1040
10.0
1040
10.0
1040
10.0
1070
     0
1002
{
1002
}
1002
}
  0
ENDSEC
  0
SECTION
  2
OBJECTS
  0
DICTIONARY
  5
C
330
0
100
AcDbDictionary
  3
ACAD_GROUP
350
D
  3
ACAD_LAYOUT
350
1A
  3
ACAD_MLINESTYLE
350
17
  3
ACAD_PLOTSETTINGS
350
19
  3
ACAD_PLOTSTYLENAME
350
E
  3
ACDBVARIABLEDICTIONARY
350
34
  3
ACMDICTIONARY
350
43
  3
AMG
350
2B
  3
AMGSNAPSETTINGS
350
6E
  3
DWGPROPS
350
8A85
  3
ACDBHEADERROUNDTRIPXREC
350
8A92
  0
DICTIONARY
  5
74
330
1F
100
AcDbDictionary
280
     1
  3
ACAD_INDEX
360
8A87
  3
ACAD_LAYOUTSELFREF
360
8AB5
  0
DICTIONARY
  5
8ABA
330
101
100
AcDbDictionary
280
     1
  3
ACAD_LAYOUTSELFREF
360
8ABB
  0
DICTIONARY
  5
D
102
{ACAD_REACTORS
330
C
102
}
330
C
100
AcDbDictionary
  0
DICTIONARY
  5
1A
102
{ACAD_REACTORS
330
C
102
}
330
C
100
AcDbDictionary
  0
DICTIONARY
  5
17
102
{ACAD_REACTORS
330
C
102
}
330
C
100
AcDbDictionary
  3
STANDARD
350
18
  0
DICTIONARY
  5
19
102
{ACAD_REACTORS
330
C
102
}
330
C
100
AcDbDictionary
  3
ASAMI
350
399D
  0
ACDBDICTIONARYWDFLT
  5
E
102
{ACAD_REACTORS
330
C
102
}
330
C
100
AcDbDictionary
281
     1
  3
Normal
350
F
100
AcDbDictionaryWithDefault
340
F
  0
DICTIONARY
  5
34
102
{ACAD_REACTORS
330
C
102
}
330
C
100
AcDbDictionary
  3
INDEXCTL
350
35
  3
SORTENTS
350
B5E
  0
DICTIONARY
  5
43
102
{ACAD_REACTORS
330
C
102
}
330
C
100
AcDbDictionary
  3
ACMSTDDICTIONARY
350
260
  0
DICTIONARY
  5
2B
102
{ACAD_REACTORS
330
C
102
}
330
C
100
AcDbDictionary
  3
ACMGSETTINGS
350
2C
  0
DICTIONARY
  5
6E
102
{ACAD_REACTORS
330
C
102
}
330
C
100
AcDbDictionary
  0
XRECORD
  5
8A85
102
{ACAD_REACTORS
330
C
102
}
330
C
100
AcDbXrecord
  1
DWGPROPS COOKIE
  2

  3

  4

  6

  7

  8

  9

300
AmdtFileType=82
301
=
302
=
303
=
304
=
305
=
306
=
307
=
308
=
309
=
 40
1.022742048611111
 41
2452802.716478761
 42
2452937.969363958
  1

 90
        1
  0
DICTIONARY
  5
8A92
102
{ACAD_REACTORS
330
C
102
}
330
C
100
AcDbDictionary
  3
TSTACKALIGN
350
8A93
  3
TSTACKSIZE
350
8A94
  3
HYPERLINKBASE
350
8A95
  3
STYLESHEET
350
8A96
  3
LAYOUTDICT
350
8A97
  3
PLOTSETDICT
350
8A98
  3
PLOTSTYLNAMDICT
350
8A99
  3
LWETCUNION
350
8A9A
  3
INSUNITS
350
8A9B
  3
CEPSNTYPE
350
8A9C
  3
FINGERPRINTGUID
350
8A9D
  3
VERSIONGUID
350
8A9E
  3
PSVPSCALE
350
8A9F
  3
DIMSTYLEDATA
350
8AA0
  3
PUCSORTHOREF
350
8AA1
  3
PUCSORTHOVIEW
350
8AA2
  3
PUCSBASE
350
8AA3
  3
PUCSORGTOP
350
8AA4
  3
PUCSORGBOTTOM
350
8AA5
  3
PUCSORGLEFT
350
8AA6
  3
PUCSORGRIGHT
350
8AA7
  3
PUCSORGFRONT
350
8AA8
  3
PUCSORGBACK
350
8AA9
  3
UCSORTHOREF
350
8AAA
  3
UCSORTHOVIEW
350
8AAB
  3
UCSBASE
350
8AAC
  3
UCSORGTOP
350
8AAD
  3
UCSORGBOTTOM
350
8AAE
  3
UCSORGLEFT
350
8AAF
  3
UCSORGRIGHT
350
8AB0
  3
UCSORGFRONT
350
8AB1
  3
UCSORGBACK
350
8AB2
  0
DICTIONARY
  5
8A87
102
{ACAD_REACTORS
330
74
102
}
330
74
100
AcDbDictionary
  3
*A1
350
8A88
  0
XRECORD
  5
8AB5
102
{ACAD_REACTORS
330
74
102
}
330
74
100
AcDbXrecord
340
1F
  0
XRECORD
  5
8ABB
102
{ACAD_REACTORS
330
8ABA
102
}
330
8ABA
100
AcDbXrecord
340
101
  0
MLINESTYLE
  5
18
102
{ACAD_REACTORS
330
17
102
}
330
17
100
AcDbMlineStyle
  2
STANDARD
 70
     0
  3

 62
   256
 51
90.0
 52
90.0
 71
     2
 49
0.5
 62
   256
  6
BYLAYER
 49
-0.5
 62
   256
  6
BYLAYER
  0
PLOTSETTINGS
  5
399D
102
{ACAD_REACTORS
330
19
102
}
330
19
100
AcDbPlotSettings
  1
asami
  2
RICOH imagio MF1540
  4
A4
  6

 40
5.831416606903076
 41
7.651742935180664
 42
4.90008544921875
 43
5.789077758789062
 44
296.9683227539062
 45
209.9733276367187
 46
0.0
 47
0.0
 48
-156.6707931774246
 49
-74.57609991074048
140
58.59973180214831
141
60.61068161925596
142
1.0
143
1.095343097833084
 70
  1712
 72
     1
 73
     1
 74
     4
  7
asami.ctb
 75
     0
147
0.9129559514076438
148
156.6707931774246
149
74.57609991074048
  0
ACDBPLACEHOLDER
  5
F
102
{ACAD_REACTORS
330
E
102
}
330
E
100
AcDbPlaceHolder
280
     0
  0
DICTIONARYVAR
  5
35
102
{ACAD_REACTORS
330
34
102
}
330
34
100
DictionaryVariables
280
     0
  1
1
  0
DICTIONARYVAR
  5
B5E
102
{ACAD_REACTORS
330
34
102
}
330
34
100
DictionaryVariables
280
     0
  1
96
  0
DICTIONARY
  5
260
102
{ACAD_REACTORS
330
43
102
}
330
43
100
AcDbDictionary
  0
DICTIONARY
  5
2C
102
{ACAD_REACTORS
330
2B
102
}
330
2B
100
AcDbDictionary
  3
DWGSETTINGS
350
2D
  0
XRECORD
  5
8A93
102
{ACAD_REACTORS
330
8A92
102
}
330
8A92
100
AcDbXrecord
 90
        1
  0
XRECORD
  5
8A94
102
{ACAD_REACTORS
330
8A92
102
}
330
8A92
100
AcDbXrecord
 90
       70
  0
XRECORD
  5
8A95
102
{ACAD_REACTORS
330
8A92
102
}
330
8A92
100
AcDbXrecord
  1

  0
XRECORD
  5
8A96
102
{ACAD_REACTORS
330
8A92
102
}
330
8A92
100
AcDbXrecord
  1
ASAMI.ctb
  0
XRECORD
  5
8A97
102
{ACAD_REACTORS
330
8A92
102
}
330
8A92
100
AcDbXrecord
340
1A
  0
XRECORD
  5
8A98
102
{ACAD_REACTORS
330
8A92
102
}
330
8A92
100
AcDbXrecord
340
19
  0
XRECORD
  5
8A99
102
{ACAD_REACTORS
330
8A92
102
}
330
8A92
100
AcDbXrecord
340
E
  0
XRECORD
  5
8A9A
102
{ACAD_REACTORS
330
8A92
102
}
330
8A92
100
AcDbXrecord
 90
    10781
  0
XRECORD
  5
8A9B
102
{ACAD_REACTORS
330
8A92
102
}
330
8A92
100
AcDbXrecord
 90
        4
  0
XRECORD
  5
8A9C
102
{ACAD_REACTORS
330
8A92
102
}
330
8A92
100
AcDbXrecord
 90
        0
  0
XRECORD
  5
8A9D
102
{ACAD_REACTORS
330
8A92
102
}
330
8A92
100
AcDbXrecord
  1
{AFB28963-8C59-40AE-9337-C84526B81ACE}
  0
XRECORD
  5
8A9E
102
{ACAD_REACTORS
330
8A92
102
}
330
8A92
100
AcDbXrecord
  1
{20DE106C-38DB-4E08-9FC1-641B78723E11}
  0
XRECORD
  5
8A9F
102
{ACAD_REACTORS
330
8A92
102
}
330
8A92
100
AcDbXrecord
 40
0.0
  0
XRECORD
  5
8AA0
102
{ACAD_REACTORS
330
8A92
102
}
330
8A92
100
AcDbXrecord
1000
DSTYLE
1002
{
1070
    79
 70
     2
1070
   341
340
59
1070
   342
340
59
1070
   371
 70
    -1
1070
   372
 70
    -1
1002
}
  0
XRECORD
  5
8AA1
102
{ACAD_REACTORS
330
8A92
102
}
330
8A92
100
AcDbXrecord
340
0
  0
XRECORD
  5
8AA2
102
{ACAD_REACTORS
330
8A92
102
}
330
8A92
100
AcDbXrecord
 70
     0
  0
XRECORD
  5
8AA3
102
{ACAD_REACTORS
330
8A92
102
}
330
8A92
100
AcDbXrecord
340
0
  0
XRECORD
  5
8AA4
102
{ACAD_REACTORS
330
8A92
102
}
330
8A92
100
AcDbXrecord
 10
0.0
 20
0.0
 30
0.0
  0
XRECORD
  5
8AA5
102
{ACAD_REACTORS
330
8A92
102
}
330
8A92
100
AcDbXrecord
 10
0.0
 20
0.0
 30
0.0
  0
XRECORD
  5
8AA6
102
{ACAD_REACTORS
330
8A92
102
}
330
8A92
100
AcDbXrecord
 10
0.0
 20
0.0
 30
0.0
  0
XRECORD
  5
8AA7
102
{ACAD_REACTORS
330
8A92
102
}
330
8A92
100
AcDbXrecord
 10
0.0
 20
0.0
 30
0.0
  0
XRECORD
  5
8AA8
102
{ACAD_REACTORS
330
8A92
102
}
330
8A92
100
AcDbXrecord
 10
0.0
 20
0.0
 30
0.0
  0
XRECORD
  5
8AA9
102
{ACAD_REACTORS
330
8A92
102
}
330
8A92
100
AcDbXrecord
 10
0.0
 20
0.0
 30
0.0
  0
XRECORD
  5
8AAA
102
{ACAD_REACTORS
330
8A92
102
}
330
8A92
100
AcDbXrecord
340
0
  0
XRECORD
  5
8AAB
102
{ACAD_REACTORS
330
8A92
102
}
330
8A92
100
AcDbXrecord
 70
     0
  0
XRECORD
  5
8AAC
102
{ACAD_REACTORS
330
8A92
102
}
330
8A92
100
AcDbXrecord
340
0
  0
XRECORD
  5
8AAD
102
{ACAD_REACTORS
330
8A92
102
}
330
8A92
100
AcDbXrecord
 10
0.0
 20
0.0
 30
0.0
  0
XRECORD
  5
8AAE
102
{ACAD_REACTORS
330
8A92
102
}
330
8A92
100
AcDbXrecord
 10
0.0
 20
0.0
 30
0.0
  0
XRECORD
  5
8AAF
102
{ACAD_REACTORS
330
8A92
102
}
330
8A92
100
AcDbXrecord
 10
0.0
 20
0.0
 30
0.0
  0
XRECORD
  5
8AB0
102
{ACAD_REACTORS
330
8A92
102
}
330
8A92
100
AcDbXrecord
 10
0.0
 20
0.0
 30
0.0
  0
XRECORD
  5
8AB1
102
{ACAD_REACTORS
330
8A92
102
}
330
8A92
100
AcDbXrecord
 10
0.0
 20
0.0
 30
0.0
  0
XRECORD
  5
8AB2
102
{ACAD_REACTORS
330
8A92
102
}
330
8A92
100
AcDbXrecord
 10
0.0
 20
0.0
 30
0.0
  0
LAYER_INDEX
  5
8A88
102
{ACAD_REACTORS
330
8A87
102
}
330
8A87
100
AcDbIndex
 40
2452941.599045498
100
AcDbLayerIndex
  8
0
360
8A89
 90
        0
  8
AM_0
360
8A8A
 90
       61
  8
AM_5
360
8A8B
 90
       10
  8
AM_7
360
8A8C
 90
        4
  8
AM_6
360
8A8D
 90
        3
  8
Defpoints
360
8A8E
 90
        0
  8
AM_3
360
8A8F
 90
        0
  8
AM_11
360
8A90
 90
        2
  0
XRECORD
  5
2D
102
{ACAD_REACTORS
330
2C
102
}
330
2C
100
AcDbXrecord
  1
VERSION
140
15.0
  1
PRODUCT
  2
AutoCAD Mechanical 2000
  0
IDBUFFER
  5
8A89
330
0
100
AcDbIdBuffer
  0
IDBUFFER
  5
8A8A
330
0
100
AcDbIdBuffer
330
7F74
330
7F75
330
7F76
330
7F77
330
7F79
330
7F7A
330
7F7B
330
7F7D
330
7F7E
330
7F7F
330
7F80
330
7F83
330
7F85
330
7F08
330
7F09
330
7F0A
330
7F0B
330
7F10
330
7F11
330
7F12
330
7F13
330
7F14
330
7F15
330
7F16
330
7F17
330
7F18
330
7F19
330
7F1A
330
7F1B
330
7F1C
330
7F1D
330
7F1E
330
7F1F
330
7F20
330
7F21
330
7F22
330
7F23
330
7F24
330
7F25
330
7F26
330
7F27
330
7F28
330
7F29
330
7F4C
330
7F4E
330
7F50
330
7F53
330
7F5E
330
7F61
330
7F63
330
7F64
330
7F66
330
7F68
330
7F69
330
7F6A
330
7F6C
330
7F6D
330
7F70
330
7F71
330
7F72
330
7F73
  0
IDBUFFER
  5
8A8B
330
0
100
AcDbIdBuffer
330
82A0
330
8335
330
83D8
330
846D
330
8502
330
858E
330
863E
330
874F
330
8A38
330
8A3A
  0
IDBUFFER
  5
8A8C
330
0
100
AcDbIdBuffer
330
7F51
330
7F52
330
7F67
330
7F78
  0
IDBUFFER
  5
8A8D
330
0
100
AcDbIdBuffer
330
388D
330
8A37
330
8A39
  0
IDBUFFER
  5
8A8E
330
0
100
AcDbIdBuffer
  0
IDBUFFER
  5
8A8F
330
0
100
AcDbIdBuffer
  0
IDBUFFER
  5
8A90
330
0
100
AcDbIdBuffer
330
83CE
330
83CF
  0
ENDSEC
  0
EOF
