  0
SECTION
  2
HEADER
  9
$ACADVER
  1
AC1014
  9
$ACADMAINTVER
 70
     9
  9
$DWGCODEPAGE
  3
ANSI_932
  9
$INSBASE
 10
0.0
 20
0.0
 30
0.0
  9
$EXTMIN
 10
-198.7000391469633
 20
-78.50000762939507
 30
0.0
  9
$EXTMAX
 10
35.01704720533831
 20
59.60964779671783
 30
0.0
  9
$LIMMIN
 10
-209.7958706476759
 20
-81.24520739157082
  9
$LIMMAX
 10
47.99521095237355
 20
83.26255330772346
  9
$ORTHOMODE
 70
     0
  9
$REGENMODE
 70
     1
  9
$FILLMODE
 70
     1
  9
$QTEXTMODE
 70
     0
  9
$MIRRTEXT
 70
     0
  9
$DRAGMODE
 70
     2
  9
$LTSCALE
 40
1.0
  9
$OSMODE
 70
  2103
  9
$ATTMODE
 70
     1
  9
$TEXTSIZE
 40
2.5
  9
$TRACEWID
 40
1.0
  9
$TEXTSTYLE
  7
STANDARD
  9
$CLAYER
  8
AM_0
  9
$CELTYPE
  6
BYLAYER
  9
$CECOLOR
 62
   256
  9
$CELTSCALE
 40
1.0
  9
$DELOBJ
 70
     1
  9
$DISPSILH
 70
     0
  9
$DIMSCALE
 40
0.5
  9
$DIMASZ
 40
2.5
  9
$DIMEXO
 40
1.0
  9
$DIMDLI
 40
12.0
  9
$DIMRND
 40
0.0
  9
$DIMDLE
 40
0.0
  9
$DIMEXE
 40
1.0
  9
$DIMTP
 40
0.1
  9
$DIMTM
 40
0.1
  9
$DIMTXT
 40
3.2
  9
$DIMCEN
 40
0.0
  9
$DIMTSZ
 40
0.0
  9
$DIMTOL
 70
     0
  9
$DIMLIM
 70
     0
  9
$DIMTIH
 70
     0
  9
$DIMTOH
 70
     0
  9
$DIMSE1
 70
     0
  9
$DIMSE2
 70
     0
  9
$DIMTAD
 70
     3
  9
$DIMZIN
 70
     8
  9
$DIMBLK
  1
OPEN30
  9
$DIMASO
 70
     1
  9
$DIMSHO
 70
     1
  9
$DIMPOST
  1

  9
$DIMAPOST
  1
"
  9
$DIMALT
 70
     0
  9
$DIMALTD
 70
     2
  9
$DIMALTF
 40
0.0393701
  9
$DIMLFAC
 40
1.0
  9
$DIMTOFL
 70
     1
  9
$DIMTVP
 40
0.0
  9
$DIMTIX
 70
     0
  9
$DIMSOXD
 70
     0
  9
$DIMSAH
 70
     0
  9
$DIMBLK1
  1

  9
$DIMBLK2
  1

  9
$DIMSTYLE
  2
AM_JIS
  9
$DIMCLRD
 70
   256
  9
$DIMCLRE
 70
   256
  9
$DIMCLRT
 70
     2
  9
$DIMTFAC
 40
0.71
  9
$DIMGAP
 40
1.5
  9
$DIMJUST
 70
     0
  9
$DIMSD1
 70
     0
  9
$DIMSD2
 70
     0
  9
$DIMTOLJ
 70
     0
  9
$DIMTZIN
 70
     0
  9
$DIMALTZ
 70
     0
  9
$DIMALTTZ
 70
     0
  9
$DIMFIT
 70
     3
  9
$DIMUPT
 70
     0
  9
$DIMUNIT
 70
     2
  9
$DIMDEC
 70
     3
  9
$DIMTDEC
 70
     3
  9
$DIMALTU
 70
     2
  9
$DIMALTTD
 70
     2
  9
$DIMTXSTY
  7
ASAMI
  9
$DIMAUNIT
 70
     0
  9
$LUNITS
 70
     2
  9
$LUPREC
 70
     2
  9
$SKETCHINC
 40
1.0
  9
$FILLETRAD
 40
2.0
  9
$AUNITS
 70
     0
  9
$AUPREC
 70
     0
  9
$MENU
  1
.
  9
$ELEVATION
 40
0.0
  9
$PELEVATION
 40
0.0
  9
$THICKNESS
 40
0.0
  9
$LIMCHECK
 70
     1
  9
$BLIPMODE
 70
     0
  9
$CHAMFERA
 40
1.0
  9
$CHAMFERB
 40
1.0
  9
$CHAMFERC
 40
20.0
  9
$CHAMFERD
 40
0.0
  9
$SKPOLY
 70
     0
  9
$TDCREATE
 40
2452802.716478761
  9
$TDUPDATE
 40
2452941.599298854
  9
$TDINDWG
 40
0.8506358912
  9
$TDUSRTIMER
 40
0.8506358912
  9
$USRTIMER
 70
     1
  9
$ANGBASE
 50
0.0
  9
$ANGDIR
 70
     0
  9
$PDMODE
 70
     0
  9
$PDSIZE
 40
0.0
  9
$PLINEWID
 40
0.0
  9
$COORDS
 70
     0
  9
$SPLFRAME
 70
     0
  9
$SPLINETYPE
 70
     6
  9
$SPLINESEGS
 70
     8
  9
$ATTDIA
 70
     1
  9
$ATTREQ
 70
     1
  9
$HANDLING
 70
 12289
  9
$HANDSEED
  5
889A
  9
$SURFTAB1
 70
     6
  9
$SURFTAB2
 70
     6
  9
$SURFTYPE
 70
     6
  9
$SURFU
 70
     6
  9
$SURFV
 70
     6
  9
$UCSNAME
  2

  9
$UCSORG
 10
-0.0000000000002682
 20
0.000000000000161
 30
0.0
  9
$UCSXDIR
 10
1.0
 20
0.000000000000002
 30
0.0
  9
$UCSYDIR
 10
-0.000000000000002
 20
1.0
 30
0.0
  9
$PUCSNAME
  2

  9
$PUCSORG
 10
0.0
 20
0.0
 30
0.0
  9
$PUCSXDIR
 10
1.0
 20
0.0
 30
0.0
  9
$PUCSYDIR
 10
0.0
 20
1.0
 30
0.0
  9
$USERI1
 70
     0
  9
$USERI2
 70
     0
  9
$USERI3
 70
     0
  9
$USERI4
 70
     0
  9
$USERI5
 70
     0
  9
$USERR1
 40
0.0
  9
$USERR2
 40
0.0
  9
$USERR3
 40
0.0
  9
$USERR4
 40
0.0
  9
$USERR5
 40
0.0
  9
$WORLDVIEW
 70
     1
  9
$SHADEDGE
 70
     3
  9
$SHADEDIF
 70
    70
  9
$TILEMODE
 70
     1
  9
$MAXACTVP
 70
    64
  9
$PINSBASE
 10
0.0
 20
0.0
 30
0.0
  9
$PLIMCHECK
 70
     0
  9
$PEXTMIN
 10
1.000000000000000E+20
 20
1.000000000000000E+20
 30
1.000000000000000E+20
  9
$PEXTMAX
 10
-1.000000000000000E+20
 20
-1.000000000000000E+20
 30
-1.000000000000000E+20
  9
$PLIMMIN
 10
0.0
 20
0.0
  9
$PLIMMAX
 10
841.0
 20
594.0
  9
$UNITMODE
 70
     0
  9
$VISRETAIN
 70
     1
  9
$PLINEGEN
 70
     0
  9
$PSLTSCALE
 70
     0
  9
$TREEDEPTH
 70
  3020
  9
$PICKSTYLE
 70
     0
  9
$CMLSTYLE
  2
STANDARD
  9
$CMLJUST
 70
     0
  9
$CMLSCALE
 40
20.0
  9
$PROXYGRAPHICS
 70
     1
  9
$MEASUREMENT
 70
     1
  0
ENDSEC
  0
SECTION
  2
CLASSES
  0
CLASS
  1
ACDBDICTIONARYWDFLT
  2
AcDbDictionaryWithDefault
  3
AutoCAD 2000
 90
        0
280
     0
281
     0
  0
CLASS
  1
ACDBPLACEHOLDER
  2
AcDbPlaceHolder
  3
AutoCAD 2000
 90
        0
280
     0
281
     0
  0
CLASS
  1
LAYOUT
  2
AcDbLayout
  3
AutoCAD 2000
 90
        0
280
     0
281
     0
  0
CLASS
  1
AMGSETTINGSOBJ
  2
AmgSettingsObj
  3
"AcadM|Product Description: AutoCAD Mechanical 2000|Company: Autodesk"
 90
        0
280
     0
281
     0
  0
CLASS
  1
ACME_DOCUMENT
  2
AcMeDbDoc
  3
AcMeServices
 90
        0
280
     0
281
     0
  0
CLASS
  1
ACMESCOPE
  2
AcMeScope
  3
AcMeServices
 90
        0
280
     0
281
     0
  0
CLASS
  1
ACMECOMMANDHISTORY
  2
AcMeCommandHistory
  3
AcMeServices
 90
        0
280
     0
281
     0
  0
CLASS
  1
DICTIONARYVAR
  2
AcDbDictionaryVar
  3
AutoCAD 2000
 90
        0
280
     0
281
     0
  0
CLASS
  1
ACIMSYSVARMAN
  2
AcImSysVarManager
  3
AcMeServices
 90
        0
280
     0
281
     0
  0
CLASS
  1
ACIMREALSYSVAR
  2
AcImRealSysVar
  3
AcMeServices
 90
        0
280
     0
281
     0
  0
CLASS
  1
ACIMINTSYSVAR
  2
AcImIntSysVar
  3
AcMeServices
 90
        0
280
     0
281
     0
  0
CLASS
  1
ACMEDRAWINGMAN
  2
AcMeDrawingMan
  3
AcMeServices
 90
        0
280
     0
281
     0
  0
CLASS
  1
ACMEVIEW
  2
AcMeView
  3
AcMeServices
 90
        0
280
     0
281
     0
  0
CLASS
  1
ACDBENTITYCACHE
  2
AcMeEntityCache
  3
AcMeServices
 90
        0
280
     0
281
     0
  0
CLASS
  1
GSMANAGER
  2
AcMeGSManager
  3
AcMeServices
 90
        0
280
     0
281
     0
  0
CLASS
  1
AmdtInternalReactor
  2
AmdtInternalReactor
  3
AcMeServices
 90
        0
280
     0
281
     0
  0
CLASS
  1
ACMESTATEMGR
  2
AcMeStateMgr
  3
AcMeServices
 90
        0
280
     0
281
     0
  0
CLASS
  1
ACME_DATABASE
  2
AcMeDbDatabase
  3
AcMeServices
 90
        0
280
     0
281
     0
  0
CLASS
  1
ACRFINSADJUSTERMGR
  2
AcRfInsAdjusterMgr
  3
AcMeServices
 90
        0
280
     0
281
     0
  0
CLASS
  1
ACMDATADICTIONARY
  2
AcmDataDictionary
  3
"AcmSymBB|Product Description: AutoCAD Mechanical 2000|Company: Autodesk"
 90
        0
280
     0
281
     0
  0
CLASS
  1
ACMDATAENTRYBLOCK
  2
AcmDataEntryBlock
  3
"AcmSymBB|Product Description: AutoCAD Mechanical 2000|Company: Autodesk"
 90
        0
280
     0
281
     0
  0
CLASS
  1
AMGOBJPROPCFG
  2
AmgObjPropCfg
  3
"AmgLay|Product Description: AutoCAD Mechanical 2000|Company: Autodesk"
 90
        1
280
     0
281
     0
  0
CLASS
  1
ACAMGFILTERDAT
  2
AcAmgFilterDat
  3
"AcadM|Product Description: AutoCAD Mechanical 2000|Company: Autodesk"
 90
        0
280
     0
281
     0
  0
CLASS
  1
LAYER_INDEX
  2
AcDbLayerIndex
  3
AutoCAD 2000
 90
        0
280
     0
281
     0
  0
CLASS
  1
IDBUFFER
  2
AcDbIdBuffer
  3
AutoCAD 2000
 90
        0
280
     0
281
     0
  0
CLASS
  1
ACIMSTRSYSVAR
  2
AcImStrSysVar
  3
AcMeServices
 90
        0
280
     0
281
     0
  0
CLASS
  1
ACMSTANDARDJIS
  2
AcmStandardJIS
  3
"AcmSymBB|Product Description: AutoCAD Mechanical 2000|Company: Autodesk"
 90
        0
280
     0
281
     0
  0
CLASS
  1
ACMSURFSTANDARDJIS
  2
AcmSurfTextStdJIS
  3
"AcmSymBB|Product Description: AutoCAD Mechanical 2000|Company: Autodesk"
 90
        0
280
     0
281
     0
  0
CLASS
  1
ACMFCFSTANDARDJIS
  2
AcmFCFStdJIS
  3
"AcmSymBB|Product Description: AutoCAD Mechanical 2000|Company: Autodesk"
 90
        0
280
     0
281
     0
  0
CLASS
  1
ACMWELDSTANDARDJIS
  2
AcmWeldingStdJIS
  3
"AcmSymBB|Product Description: AutoCAD Mechanical 2000|Company: Autodesk"
 90
        0
280
     0
281
     0
  0
CLASS
  1
ACMIDSTANDARDJIS
  2
AcmIdStdJIS
  3
"AcmSymBB|Product Description: AutoCAD Mechanical 2000|Company: Autodesk"
 90
        0
280
     0
281
     0
  0
CLASS
  1
ACMDATUMSTANDARDJIS
  2
AcmDatumStdJIS
  3
"AcmSymBB|Product Description: AutoCAD Mechanical 2000|Company: Autodesk"
 90
        0
280
     0
281
     0
  0
CLASS
  1
ACMBOMSTANDARDJIS
  2
AcmBOMStdJIS
  3
"AcmSymBB|Product Description: AutoCAD Mechanical 2000|Company: Autodesk"
 90
        0
280
     0
281
     0
  0
CLASS
  1
ACMSTANDARDANSI
  2
AcmStandardANSI
  3
"AcmSymBB|Product Description: AutoCAD Mechanical 2000|Company: Autodesk"
 90
        0
280
     0
281
     0
  0
CLASS
  1
ACMSURFSTANDARDANSI
  2
AcmSurfTextStdANSI
  3
"AcmSymBB|Product Description: AutoCAD Mechanical 2000|Company: Autodesk"
 90
        0
280
     0
281
     0
  0
CLASS
  1
ACMFCFSTANDARDANSI
  2
AcmFCFStdANSI
  3
"AcmSymBB|Product Description: AutoCAD Mechanical 2000|Company: Autodesk"
 90
        0
280
     0
281
     0
  0
CLASS
  1
ACMWELDSTANDARDANSI
  2
AcmWeldingStdANSI
  3
"AcmSymBB|Product Description: AutoCAD Mechanical 2000|Company: Autodesk"
 90
        0
280
     0
281
     0
  0
CLASS
  1
ACMIDSTANDARDANSI
  2
AcmIdStdANSI
  3
"AcmSymBB|Product Description: AutoCAD Mechanical 2000|Company: Autodesk"
 90
        0
280
     0
281
     0
  0
CLASS
  1
ACMDATUMSTANDARDANSI
  2
AcmDatumStdANSI
  3
"AcmSymBB|Product Description: AutoCAD Mechanical 2000|Company: Autodesk"
 90
        0
280
     0
281
     0
  0
CLASS
  1
ACMBOMSTANDARDANSI
  2
AcmBOMStdANSI
  3
"AcmSymBB|Product Description: AutoCAD Mechanical 2000|Company: Autodesk"
 90
        0
280
     0
281
     0
  0
CLASS
  1
ACMSTANDARDBSI
  2
AcmStandardBSI
  3
"AcmSymBB|Product Description: AutoCAD Mechanical 2000|Company: Autodesk"
 90
        0
280
     0
281
     0
  0
CLASS
  1
ACMSURFSTANDARDBSI
  2
AcmSurfTextStdBSI
  3
"AcmSymBB|Product Description: AutoCAD Mechanical 2000|Company: Autodesk"
 90
        0
280
     0
281
     0
  0
CLASS
  1
ACMFCFSTANDARDBSI
  2
AcmFCFStdBSI
  3
"AcmSymBB|Product Description: AutoCAD Mechanical 2000|Company: Autodesk"
 90
        0
280
     0
281
     0
  0
CLASS
  1
ACMWELDSTANDARDBSI
  2
AcmWeldingStdBSI
  3
"AcmSymBB|Product Description: AutoCAD Mechanical 2000|Company: Autodesk"
 90
        0
280
     0
281
     0
  0
CLASS
  1
ACMIDSTANDARDBSI
  2
AcmIdStdBSI
  3
"AcmSymBB|Product Description: AutoCAD Mechanical 2000|Company: Autodesk"
 90
        0
280
     0
281
     0
  0
CLASS
  1
ACMDATUMSTANDARDBSI
  2
AcmDatumStdBSI
  3
"AcmSymBB|Product Description: AutoCAD Mechanical 2000|Company: Autodesk"
 90
        0
280
     0
281
     0
  0
CLASS
  1
ACMBOMSTANDARDBSI
  2
AcmBOMStdBSI
  3
"AcmSymBB|Product Description: AutoCAD Mechanical 2000|Company: Autodesk"
 90
        0
280
     0
281
     0
  0
CLASS
  1
STDPART2D
  2
AmgStdPart
  3
"AmgStdPart|Product Description: AutoCAD Mechanical 2000|Company: Autodesk"
 90
     1023
280
     0
281
     1
  0
CLASS
  1
PLOTSETTINGS
  2
AcDbPlotSettings
  3
AutoCAD 2000
 90
        0
280
     0
281
     0
  0
CLASS
  1
LONG_TRANSACTION
  2
AcDbLongTransaction
  3
AutoCAD 2000
 90
        0
280
     0
281
     0
  0
CLASS
  1
LWPOLYLINE
  2
AcDbPolyline
  3
AutoCAD 2000
 90
        0
280
     0
281
     1
  0
CLASS
  1
HATCH
  2
AcDbHatch
  3
AutoCAD 2000
 90
        0
280
     0
281
     1
  0
CLASS
  1
XRECORD
  2
AcDbXrecord
  3
AutoCAD 2000
 90
        0
280
     0
281
     0
  0
ENDSEC
  0
SECTION
  2
TABLES
  0
TABLE
  2
VPORT
  5
8
330
0
100
AcDbSymbolTable
 70
     3
  0
VPORT
  5
8825
330
8
100
AcDbSymbolTableRecord
100
AcDbViewportTableRecord
  2
*ACTIVE
 70
     0
 10
0.0
 20
0.0
 11
1.0
 21
1.0
 12
-74.27896034324658
 22
5.236217450198978
 13
0.0
 23
0.0
 14
2.5
 24
2.5
 15
10.0
 25
10.0
 16
0.0
 26
0.0
 36
1.0
 17
0.0
 27
0.0
 37
0.0
 40
225.2751214691647
 41
1.609042553191489
 42
50.0
 43
0.0
 44
0.0
 50
0.0
 51
0.0
 71
     0
 72
   100
 73
     1
 74
     3
 75
     0
 76
     0
 77
     0
 78
     0
  0
ENDTAB
  0
TABLE
  2
LTYPE
  5
5
330
0
100
AcDbSymbolTable
 70
    10
  0
LTYPE
  5
14
330
5
100
AcDbSymbolTableRecord
100
AcDbLinetypeTableRecord
  2
BYBLOCK
 70
     0
  3

 72
    65
 73
     0
 40
0.0
  0
LTYPE
  5
15
330
5
100
AcDbSymbolTableRecord
100
AcDbLinetypeTableRecord
  2
BYLAYER
 70
     0
  3

 72
    65
 73
     0
 40
0.0
  0
LTYPE
  5
16
330
5
100
AcDbSymbolTableRecord
100
AcDbLinetypeTableRecord
  2
CONTINUOUS
 70
     0
  3
Solid line
 72
    65
 73
     0
 40
0.0
  0
LTYPE
  5
4B
330
5
100
AcDbSymbolTableRecord
100
AcDbLinetypeTableRecord
  2
AM_ISO02W050
 70
     0
  3
__ __ __ __ __ __ __ __ __ __ __ __ __ __ __
 72
    65
 73
     2
 40
7.5
 49
6.0
 74
     0
 49
-1.5
 74
     0
  0
LTYPE
  5
4C
330
5
100
AcDbSymbolTableRecord
100
AcDbLinetypeTableRecord
  2
AM_ISO08W050
 70
     0
  3
____ . ____ . ____ . ____ . ____ . ____ . ____
 72
    65
 73
     4
 40
18.0
 49
12.0
 74
     0
 49
-1.5
 74
     0
 49
3.0
 74
     0
 49
-1.5
 74
     0
  0
LTYPE
  5
4D
330
5
100
AcDbSymbolTableRecord
100
AcDbLinetypeTableRecord
  2
AM_ISO09W050
 70
     0
  3
_____ . . _____ . . _____ . . ____ .. ____
 72
    65
 73
     6
 40
22.5
 49
12.0
 74
     0
 49
-1.5
 74
     0
 49
3.0
 74
     0
 49
-1.5
 74
     0
 49
3.0
 74
     0
 49
-1.5
 74
     0
  0
LTYPE
  5
4E
330
5
100
AcDbSymbolTableRecord
100
AcDbLinetypeTableRecord
  2
AMCONSTR
 70
     0
  3
_______________________
 72
    65
 73
     2
 40
9999.0
 49
9999.0
 74
     0
 49
0.0
 74
     0
  0
LTYPE
  5
4F
330
5
100
AcDbSymbolTableRecord
100
AcDbLinetypeTableRecord
  2
AM_ISO02W050X2
 70
     0
  3
 _ _ _ _ _ _ _ _ _ _ _ _
 72
    65
 73
     2
 40
3.75
 49
3.0
 74
     0
 49
-0.75
 74
     0
  0
LTYPE
  5
50
330
5
100
AcDbSymbolTableRecord
100
AcDbLinetypeTableRecord
  2
AM_ISO08W050X2
 70
     0
  3
__ . __ . __ . __ . __ . __
 72
    65
 73
     4
 40
9.0
 49
6.0
 74
     0
 49
-0.75
 74
     0
 49
1.5
 74
     0
 49
-0.75
 74
     0
  0
LTYPE
  5
53
330
5
100
AcDbSymbolTableRecord
100
AcDbLinetypeTableRecord
  2
AMZIGZAG
 70
     0
  3
/\/-/\/-/\/-/\/-/\/-/\/
 72
    65
 73
     2
 40
11.00009999999999
 49
0.0001
 74
     4
 75
   135
340
52
 46
0.04
 50
0.0
 44
0.0
 45
0.0
 49
-11.0
 74
     0
  0
LTYPE
  5
166
330
5
100
AcDbSymbolTableRecord
100
AcDbLinetypeTableRecord
  2
ACJISTGL
 70
     0
  3
_ _ _ _ _
 72
    65
 73
     2
 40
3.0
 49
2.0
 74
     0
 49
-1.0
 74
     0
  0
LTYPE
  5
26A
330
5
100
AcDbSymbolTableRecord
100
AcDbLinetypeTableRecord
  2
ACJISTGB
 70
     0
  3
__ . . __ . .
 72
    65
 73
     6
 40
9.0
 49
4.0
 74
     0
 49
-1.0
 74
     0
 49
1.0
 74
     0
 49
-1.0
 74
     0
 49
1.0
 74
     0
 49
-1.0
 74
     0
  0
ENDTAB
  0
TABLE
  2
LAYER
  5
2
330
0
100
AcDbSymbolTable
 70
     8
  0
LAYER
  5
10
330
2
100
AcDbSymbolTableRecord
100
AcDbLayerTableRecord
  2
0
 70
     0
 62
     7
  6
CONTINUOUS
  0
LAYER
  5
3F9
330
2
100
AcDbSymbolTableRecord
100
AcDbLayerTableRecord
  2
AM_0
 70
     0
 62
     7
  6
CONTINUOUS
  0
LAYER
  5
BA4
330
2
100
AcDbSymbolTableRecord
100
AcDbLayerTableRecord
  2
AM_5
 70
     0
 62
     3
  6
CONTINUOUS
  0
LAYER
  5
BA6
330
2
100
AcDbSymbolTableRecord
100
AcDbLayerTableRecord
  2
AM_7
 70
     0
 62
     4
  6
AM_ISO08W050
  0
LAYER
  5
E64
330
2
100
AcDbSymbolTableRecord
100
AcDbLayerTableRecord
  2
AM_6
 70
     0
 62
     2
  6
CONTINUOUS
  0
LAYER
  5
F4D
330
2
100
AcDbSymbolTableRecord
100
AcDbLayerTableRecord
  2
DEFPOINTS
 70
     0
 62
     7
  6
CONTINUOUS
  0
LAYER
  5
2382
330
2
100
AcDbSymbolTableRecord
100
AcDbLayerTableRecord
  2
AM_3
 70
     0
 62
     6
  6
ACJISTGL
  0
LAYER
  5
4E80
330
2
100
AcDbSymbolTableRecord
100
AcDbLayerTableRecord
  2
AM_11
 70
     0
 62
     3
  6
AM_ISO09W050
  0
ENDTAB
  0
TABLE
  2
STYLE
  5
3
330
0
100
AcDbSymbolTable
 70
     5
  0
STYLE
  5
11
330
3
100
AcDbSymbolTableRecord
100
AcDbTextStyleTableRecord
  2
STANDARD
 70
     0
 40
0.0
 41
1.0
 50
0.0
 71
     0
 42
2.5
  3
simplex.shx
  4
EXTFONT.SHX
  0
STYLE
  5
52
330
3
100
AcDbSymbolTableRecord
100
AcDbTextStyleTableRecord
  2

 70
     1
 40
0.0
 41
1.0
 50
0.0
 71
     0
 42
2.5
  3
ltypeshp.shx
  4

  0
STYLE
  5
6B
330
3
100
AcDbSymbolTableRecord
100
AcDbTextStyleTableRecord
  2
ASAMI
 70
     0
 40
0.0
 41
1.0
 50
0.0
 71
     0
 42
2.5
  3
simplex.shx
  4
EXTFONT.SHX
  0
STYLE
  5
262
330
3
100
AcDbSymbolTableRecord
100
AcDbTextStyleTableRecord
  2
ACJISTS
 70
     0
 40
1.0
 41
1.0
 50
0.0
 71
     0
 42
2.5
  3
simplex.shx
  4
bigfont.shx
  0
STYLE
  5
269
330
3
100
AcDbSymbolTableRecord
100
AcDbTextStyleTableRecord
  2
ACJISGDT
 70
     0
 40
0.0
 41
1.0
 50
0.0
 71
     0
 42
2.5
  3
amgdtans.shx
  4

  0
ENDTAB
  0
TABLE
  2
VIEW
  5
6
330
0
100
AcDbSymbolTable
 70
     0
  0
ENDTAB
  0
TABLE
  2
UCS
  5
7
330
0
100
AcDbSymbolTable
 70
     0
  0
ENDTAB
  0
TABLE
  2
APPID
  5
9
330
0
100
AcDbSymbolTable
 70
    24
  0
APPID
  5
12
330
9
100
AcDbSymbolTableRecord
100
AcDbRegAppTableRecord
  2
ACAD
 70
     0
  0
APPID
  5
30
330
9
100
AcDbSymbolTableRecord
100
AcDbRegAppTableRecord
  2
MCAD_NO_VIS
 70
     0
  0
APPID
  5
31
330
9
100
AcDbSymbolTableRecord
100
AcDbRegAppTableRecord
  2
ACAD_TEMP_GRAPHIC
 70
     0
  0
APPID
  5
2C2
330
9
100
AcDbSymbolTableRecord
100
AcDbRegAppTableRecord
  2
GENIUS_GENDTOL_13
 70
     0
  0
APPID
  5
339
330
9
100
AcDbSymbolTableRecord
100
AcDbRegAppTableRecord
  2
GENIUS_GENODEF_13
 70
     0
  0
APPID
  5
33A
330
9
100
AcDbSymbolTableRecord
100
AcDbRegAppTableRecord
  2
GENIUS_GENOBJ-N-RSBK_13
 70
     0
  0
APPID
  5
33B
330
9
100
AcDbSymbolTableRecord
100
AcDbRegAppTableRecord
  2
GENIUS_GENOBJ-N-LIB_13
 70
     0
  0
APPID
  5
33C
330
9
100
AcDbSymbolTableRecord
100
AcDbRegAppTableRecord
  2
GENIUS_GENSCALE_13
 70
     0
  0
APPID
  5
378
330
9
100
AcDbSymbolTableRecord
100
AcDbRegAppTableRecord
  2
GENIUS_GENDIMSH_14
 70
     0
  0
APPID
  5
BB0
330
9
100
AcDbSymbolTableRecord
100
AcDbRegAppTableRecord
  2
GENIUS_GENOBJ-N-CEN_13
 70
     0
  0
APPID
  5
BB1
330
9
100
AcDbSymbolTableRecord
100
AcDbRegAppTableRecord
  2
GENIUS_GENFIL_13
 70
     0
  0
APPID
  5
BB2
330
9
100
AcDbSymbolTableRecord
100
AcDbRegAppTableRecord
  2
GENIUS_GENOBJ-N-CHA_13
 70
     0
  0
APPID
  5
1FAF
330
9
100
AcDbSymbolTableRecord
100
AcDbRegAppTableRecord
  2
GENIUS_GENOBJ-N-CRS_13
 70
     0
  0
APPID
  5
1FB0
330
9
100
AcDbSymbolTableRecord
100
AcDbRegAppTableRecord
  2
GENIUS_GENOENT_13
 70
     0
  0
APPID
  5
1FB1
330
9
100
AcDbSymbolTableRecord
100
AcDbRegAppTableRecord
  2
GENIUS_GENOREF_13
 70
     0
  0
APPID
  5
1FB2
330
9
100
AcDbSymbolTableRecord
100
AcDbRegAppTableRecord
  2
GENIUS_GENOLIS_13
 70
     0
  0
APPID
  5
1FB7
330
9
100
AcDbSymbolTableRecord
100
AcDbRegAppTableRecord
  2
GENIUS_GENOBJ-N-FIL_13
 70
     0
  0
APPID
  5
22A8
330
9
100
AcDbSymbolTableRecord
100
AcDbRegAppTableRecord
  2
GEVID1056506048
 70
     0
  0
APPID
  5
22A9
330
9
100
AcDbSymbolTableRecord
100
AcDbRegAppTableRecord
  2
GEVDC
 70
     0
  0
APPID
  5
22AC
330
9
100
AcDbSymbolTableRecord
100
AcDbRegAppTableRecord
  2
GENIUS_GENBH_13
 70
     0
  0
APPID
  5
22B8
330
9
100
AcDbSymbolTableRecord
100
AcDbRegAppTableRecord
  2
GENIUS_GENOBJ-NBEHI-BHF_13
 70
     0
  0
APPID
  5
22BA
330
9
100
AcDbSymbolTableRecord
100
AcDbRegAppTableRecord
  2
GENIUS_GENOBJ-NBEHI-BHB_13
 70
     0
  0
APPID
  5
35C9
330
9
100
AcDbSymbolTableRecord
100
AcDbRegAppTableRecord
  2
GENIUS_GENREC_14
 70
     0
  0
APPID
  5
35CA
330
9
100
AcDbSymbolTableRecord
100
AcDbRegAppTableRecord
  2
GENIUS_GENOBJ-N-REC_13
 70
     0
  0
ENDTAB
  0
TABLE
  2
DIMSTYLE
  5
A
330
0
100
AcDbSymbolTable
 70
     9
  0
DIMSTYLE
105
58
330
A
100
AcDbSymbolTableRecord
100
AcDbDimStyleTableRecord
  2
AM_JIS
 70
     0
  3

  4
"
  5
OPEN30
  6

  7

 40
1.0
 41
2.5
 42
1.0
 43
12.0
 44
1.0
 45
0.0
 46
0.0
 47
0.1
 48
0.1
140
3.2
141
0.0
142
0.0
143
0.0393701
144
1.0
145
0.0
146
0.71
147
1.5
 71
     0
 72
     0
 73
     0
 74
     0
 75
     0
 76
     0
 77
     3
 78
     8
170
     0
171
     2
172
     1
173
     0
174
     0
175
     0
176
   256
177
   256
178
     2
270
     2
271
     3
272
     3
273
     2
274
     2
340
6B
275
     0
280
     0
281
     0
282
     0
283
     0
284
     0
285
     0
286
     0
287
     3
288
     0
  0
DIMSTYLE
105
5F
330
A
100
AcDbSymbolTableRecord
100
AcDbDimStyleTableRecord
  2
AM_JIS$3
 70
     0
  3

  4
"
  5
OPEN30
  6

  7

 40
1.0
 41
2.5
 42
1.0
 43
10.0
 44
1.0
 45
0.0
 46
0.0
 47
0.1
 48
0.1
140
3.2
141
0.0
142
0.0
143
0.0393701
144
1.0
145
0.0
146
0.71
147
1.5
 71
     0
 72
     0
 73
     0
 74
     1
 75
     0
 76
     0
 77
     3
 78
     8
170
     0
171
     2
172
     0
173
     0
174
     0
175
     0
176
   256
177
   256
178
     2
270
     2
271
     2
272
     3
273
     2
274
     2
340
6B
275
     0
280
     0
281
     0
282
     0
283
     0
284
     0
285
     0
286
     0
287
     0
288
     1
  0
DIMSTYLE
105
60
330
A
100
AcDbSymbolTableRecord
100
AcDbDimStyleTableRecord
  2
AM_JIS$4
 70
     0
  3

  4
"
  5
OPEN30
  6

  7

 40
1.0
 41
2.5
 42
1.0
 43
10.0
 44
1.0
 45
0.0
 46
0.0
 47
0.1
 48
0.1
140
3.2
141
0.0
142
0.0
143
0.0393701
144
1.0
145
0.0
146
0.71
147
1.5
 71
     0
 72
     0
 73
     0
 74
     1
 75
     0
 76
     0
 77
     3
 78
     8
170
     0
171
     2
172
     0
173
     0
174
     0
175
     0
176
   256
177
   256
178
     2
270
     2
271
     2
272
     3
273
     2
274
     2
340
6B
275
     0
280
     0
281
     0
282
     0
283
     0
284
     0
285
     0
286
     0
287
     0
288
     1
  0
DIMSTYLE
105
61
330
A
100
AcDbSymbolTableRecord
100
AcDbDimStyleTableRecord
  2
AM_JIS$6
 70
     0
  3

  4
"
  5
OPEN30
  6

  7

 40
1.0
 41
2.5
 42
1.0
 43
10.0
 44
1.0
 45
0.0
 46
0.0
 47
0.1
 48
0.1
140
3.2
141
0.0
142
0.0
143
0.0393701
144
1.0
145
0.0
146
0.71
147
1.5
 71
     0
 72
     0
 73
     0
 74
     0
 75
     0
 76
     0
 77
     0
 78
     8
170
     0
171
     2
172
     1
173
     0
174
     0
175
     0
176
   256
177
   256
178
     2
270
     2
271
     2
272
     2
273
     2
274
     2
340
6B
275
     0
280
     0
281
     0
282
     0
283
     0
284
     0
285
     0
286
     0
287
     3
288
     0
  0
DIMSTYLE
105
62
330
A
100
AcDbSymbolTableRecord
100
AcDbDimStyleTableRecord
  2
AM_JIS$7
 70
     0
  3

  4
"
  5
OPEN30
  6

  7

 40
1.0
 41
2.5
 42
1.0
 43
10.0
 44
1.0
 45
0.0
 46
0.0
 47
0.1
 48
0.1
140
3.2
141
0.0
142
0.0
143
0.0393701
144
1.0
145
0.0
146
0.71
147
1.5
 71
     0
 72
     0
 73
     0
 74
     0
 75
     0
 76
     0
 77
     3
 78
     8
170
     0
171
     2
172
     1
173
     0
174
     0
175
     0
176
   256
177
   256
178
     2
270
     2
271
     2
272
     3
273
     2
274
     2
340
6B
275
     0
280
     0
281
     0
282
     0
283
     0
284
     0
285
     0
286
     0
287
     3
288
     0
  0
DIMSTYLE
105
63
330
A
100
AcDbSymbolTableRecord
100
AcDbDimStyleTableRecord
  2
AM_JIS$SF
 70
     0
  3

  4
"
  5
OPEN30
  6

  7

 40
1.0
 41
2.5
 42
1.0
 43
10.0
 44
1.0
 45
0.0
 46
0.0
 47
0.1
 48
0.1
140
3.2
141
0.0
142
0.0
143
0.0393701
144
1.0
145
0.0
146
0.71
147
1.5
 71
     0
 72
     0
 73
     0
 74
     0
 75
     1
 76
     1
 77
     3
 78
     8
170
     0
171
     2
172
     1
173
     0
174
     0
175
     0
176
   256
177
   256
178
     2
270
     2
271
     2
272
     2
273
     2
274
     2
340
6B
275
     0
280
     0
281
     0
282
     0
283
     0
284
     0
285
     0
286
     0
287
     3
288
     0
  0
DIMSTYLE
105
68
330
A
100
AcDbSymbolTableRecord
100
AcDbDimStyleTableRecord
  2
AM_JIS$SH
 70
     0
  3

  4
"
  5

  6
GENAXEH
  7
OPEN30
 40
1.0
 41
2.5
 42
1.0
 43
10.0
 44
1.0
 45
0.0
 46
0.0
 47
0.1
 48
0.1
140
3.2
141
0.0
142
0.0
143
0.0393701
144
2.0
145
0.0
146
0.71
147
1.5
 71
     0
 72
     0
 73
     0
 74
     0
 75
     1
 76
     1
 77
     3
 78
     8
170
     0
171
     2
172
     1
173
     1
174
     0
175
     0
176
   256
177
   256
178
     2
270
     2
271
     2
272
     2
273
     2
274
     2
340
6B
275
     0
280
     0
281
     0
282
     0
283
     0
284
     0
285
     0
286
     0
287
     3
288
     0
  0
DIMSTYLE
105
B34
102
{ACAD_REACTORS
330
76F2
102
}
330
A
100
AcDbSymbolTableRecord
100
AcDbDimStyleTableRecord
  2
AM_JIS$2
 70
     0
  3

  4
"
  5
OPEN30
  6

  7

 40
1.0
 41
2.5
 42
1.0
 43
12.0
 44
1.0
 45
0.0
 46
0.0
 47
0.1
 48
0.1
140
3.2
141
0.0
142
0.0
143
0.0393701
144
1.0
145
0.0
146
0.71
147
1.5
 71
     0
 72
     0
 73
     0
 74
     0
 75
     0
 76
     0
 77
     3
 78
     8
170
     0
171
     2
172
     1
173
     0
174
     0
175
     0
176
   256
177
   256
178
     2
270
     2
271
     3
272
     3
273
     2
274
     2
340
6B
275
     0
280
     0
281
     0
282
     0
283
     0
284
     0
285
     0
286
     0
287
     3
288
     0
  0
DIMSTYLE
105
3B48
102
{ACAD_REACTORS
330
7068
330
7121
330
7383
330
71B6
330
74EF
330
7463
330
75F9
102
}
330
A
100
AcDbSymbolTableRecord
100
AcDbDimStyleTableRecord
  2
AM_JIS$0
 70
     0
  3

  4
"
  5
OPEN30
  6

  7

 40
1.0
 41
2.5
 42
0.0
 43
10.0
 44
1.0
 45
0.0
 46
0.0
 47
0.1
 48
0.1000000001
140
3.799999999999999
141
0.0
142
0.0
143
0.0393701
144
1.0
145
0.0
146
0.71
147
1.5
 71
     0
 72
     0
 73
     0
 74
     0
 75
     0
 76
     0
 77
     3
 78
     1
170
     0
171
     2
172
     1
173
     0
174
     0
175
     0
176
     3
177
     3
178
     2
270
     2
271
     2
272
     2
273
     2
274
     2
340
11
275
     1
280
     0
281
     0
282
     0
283
     0
284
     8
285
     0
286
     0
287
     0
288
     0
  0
ENDTAB
  0
TABLE
  2
BLOCK_RECORD
  5
1
330
0
100
AcDbSymbolTable
 70
    13
  0
BLOCK_RECORD
  5
1F
102
{ACAD_XDICTIONARY
360
74
102
}
330
1
100
AcDbSymbolTableRecord
100
AcDbBlockTableRecord
  2
*MODEL_SPACE
  0
BLOCK_RECORD
  5
101
102
{ACAD_XDICTIONARY
360
884E
102
}
330
1
100
AcDbSymbolTableRecord
100
AcDbBlockTableRecord
  2
*PAPER_SPACE
  0
BLOCK_RECORD
  5
59
330
1
100
AcDbSymbolTableRecord
100
AcDbBlockTableRecord
  2
_OPEN30
  0
BLOCK_RECORD
  5
64
330
1
100
AcDbSymbolTableRecord
100
AcDbBlockTableRecord
  2
GENAXEH
  0
BLOCK_RECORD
  5
7069
330
1
100
AcDbSymbolTableRecord
100
AcDbBlockTableRecord
  2
*D5
  0
BLOCK_RECORD
  5
7122
330
1
100
AcDbSymbolTableRecord
100
AcDbBlockTableRecord
  2
*D6
  0
BLOCK_RECORD
  5
71B7
330
1
100
AcDbSymbolTableRecord
100
AcDbBlockTableRecord
  2
*D7
  0
BLOCK_RECORD
  5
7384
330
1
100
AcDbSymbolTableRecord
100
AcDbBlockTableRecord
  2
*D8
  0
BLOCK_RECORD
  5
7464
330
1
100
AcDbSymbolTableRecord
100
AcDbBlockTableRecord
  2
*D9
  0
BLOCK_RECORD
  5
74F0
330
1
100
AcDbSymbolTableRecord
100
AcDbBlockTableRecord
  2
*D10
  0
BLOCK_RECORD
  5
75FA
330
1
100
AcDbSymbolTableRecord
100
AcDbBlockTableRecord
  2
*D11
  0
BLOCK_RECORD
  5
76F3
330
1
100
AcDbSymbolTableRecord
100
AcDbBlockTableRecord
  2
*D12
  0
ENDTAB
  0
ENDSEC
  0
SECTION
  2
BLOCKS
  0
BLOCK
  5
20
330
1F
100
AcDbEntity
  8
0
100
AcDbBlockBegin
  2
*MODEL_SPACE
 70
     0
 10
0.0
 20
0.0
 30
0.0
  3
*MODEL_SPACE
  1

  0
ENDBLK
  5
21
330
1F
100
AcDbEntity
  8
0
100
AcDbBlockEnd
  0
BLOCK
  5
103
330
101
100
AcDbEntity
 67
     1
  8
0
100
AcDbBlockBegin
  2
*PAPER_SPACE
 70
     0
 10
0.0
 20
0.0
 30
0.0
  3
*PAPER_SPACE
  1

  0
ENDBLK
  5
104
330
101
100
AcDbEntity
 67
     1
  8
0
100
AcDbBlockEnd
  0
BLOCK
  5
5D
330
59
100
AcDbEntity
  8
0
100
AcDbBlockBegin
  2
_OPEN30
 70
     0
 10
0.0
 20
0.0
 30
0.0
  3
_OPEN30
  1

  0
LINE
  5
5A
330
59
100
AcDbEntity
  8
0
 62
     0
100
AcDbLine
 10
-1.0
 20
0.26794919
 30
0.0
 11
0.0
 21
0.0
 31
0.0
  0
LINE
  5
5B
330
59
100
AcDbEntity
  8
0
 62
     0
100
AcDbLine
 10
0.0
 20
0.0
 30
0.0
 11
-1.0
 21
-0.26794919
 31
0.0
  0
LINE
  5
5C
330
59
100
AcDbEntity
  8
0
 62
     0
100
AcDbLine
 10
0.0
 20
0.0
 30
0.0
 11
-1.0
 21
0.0
 31
0.0
  0
ENDBLK
  5
5E
330
59
100
AcDbEntity
  8
0
100
AcDbBlockEnd
  0
BLOCK
  5
66
330
64
100
AcDbEntity
  8
0
100
AcDbBlockBegin
  2
GENAXEH
 70
     0
 10
0.0
 20
0.0
 30
0.0
  3
GENAXEH
  1

  0
LINE
  5
65
330
64
100
AcDbEntity
  8
0
100
AcDbLine
 10
-1.0
 20
0.0
 30
0.0
 11
1.0
 21
0.0
 31
0.0
  0
ENDBLK
  5
67
330
64
100
AcDbEntity
  8
0
100
AcDbBlockEnd
  0
BLOCK
  5
7073
330
7069
100
AcDbEntity
  8
0
100
AcDbBlockBegin
  2
*D5
 70
     1
 10
0.0
 20
0.0
 30
0.0
  3
*D5
  1

  0
LINE
  5
8850
330
7069
100
AcDbEntity
  8
AM_5
100
AcDbLine
 10
-181.0000381469632
 20
-7.00000762939533
 30
0.0
 11
-195.0000391469633
 21
-7.000007629395358
 31
0.0
  0
LINE
  5
8851
330
7069
100
AcDbEntity
  8
AM_5
100
AcDbLine
 10
-181.0000381469633
 20
-32.00000762939533
 30
0.0
 11
-195.0000391469632
 21
-32.00000762939536
 31
0.0
  0
LINE
  5
8852
330
7069
100
AcDbEntity
  8
AM_5
100
AcDbLine
 10
-194.0000391469633
 20
-9.500007629395355
 30
0.0
 11
-194.0000391469632
 21
-29.50000762939536
 31
0.0
  0
INSERT
  5
8853
330
7069
100
AcDbEntity
  8
AM_5
100
AcDbBlockReference
  2
_OPEN30
 10
-194.0000391469633
 20
-7.000007629395356
 30
0.0
 41
2.5
 42
2.5
 43
2.5
 50
90.0000000000001
  0
INSERT
  5
8854
330
7069
100
AcDbEntity
  8
AM_5
100
AcDbBlockReference
  2
_OPEN30
 10
-194.0000391469632
 20
-32.00000762939536
 30
0.0
 41
2.5
 42
2.5
 43
2.5
 50
270.0000000000001
  0
MTEXT
  5
8855
330
7069
100
AcDbEntity
  8
AM_5
 62
     2
100
AcDbMText
 10
-197.1000391469632
 20
-19.50000762939535
 30
0.0
 40
3.2
 41
0.0
 71
     5
 72
     1
  1
25
  7
ASAMI
 11
-0.000000000000002
 21
1.0
 31
0.0
  0
POINT
  5
8856
330
7069
100
AcDbEntity
  8
DEFPOINTS
 62
     0
100
AcDbPoint
 10
-180.0000381469632
 20
-7.000007629394929
 30
0.0
  0
POINT
  5
8857
330
7069
100
AcDbEntity
  8
DEFPOINTS
 62
     0
100
AcDbPoint
 10
-180.0000381469633
 20
-32.00000762939493
 30
0.0
  0
POINT
  5
8858
330
7069
100
AcDbEntity
  8
DEFPOINTS
 62
     0
100
AcDbPoint
 10
-194.0000391469633
 20
-32.00000762939493
 30
0.0
  0
ENDBLK
  5
7074
330
7069
100
AcDbEntity
  8
0
100
AcDbBlockEnd
  0
BLOCK
  5
712C
330
7122
100
AcDbEntity
  8
0
100
AcDbBlockBegin
  2
*D6
 70
     1
 10
0.0
 20
0.0
 30
0.0
  3
*D6
  1

  0
LINE
  5
8859
330
7122
100
AcDbEntity
  8
AM_5
100
AcDbLine
 10
-181.0000228881832
 20
59.60342694876191
 30
0.0
 11
-195.0000381469634
 21
59.60342694876189
 31
0.0
  0
LINE
  5
885A
330
7122
100
AcDbEntity
  8
AM_5
100
AcDbLine
 10
-181.0000381469633
 20
34.60342694876191
 30
0.0
 11
-195.0000381469633
 21
34.60342694876188
 31
0.0
  0
LINE
  5
885B
330
7122
100
AcDbEntity
  8
AM_5
100
AcDbLine
 10
-194.0000381469634
 20
57.10342694876189
 30
0.0
 11
-194.0000381469633
 21
37.10342694876188
 31
0.0
  0
INSERT
  5
885C
330
7122
100
AcDbEntity
  8
AM_5
100
AcDbBlockReference
  2
_OPEN30
 10
-194.0000381469634
 20
59.60342694876189
 30
0.0
 41
2.5
 42
2.5
 43
2.5
 50
90.0000000000001
  0
INSERT
  5
885D
330
7122
100
AcDbEntity
  8
AM_5
100
AcDbBlockReference
  2
_OPEN30
 10
-194.0000381469633
 20
34.60342694876188
 30
0.0
 41
2.5
 42
2.5
 43
2.5
 50
270.0000000000001
  0
MTEXT
  5
885E
330
7122
100
AcDbEntity
  8
AM_5
 62
     2
100
AcDbMText
 10
-197.1000381469633
 20
47.10342694876189
 30
0.0
 40
3.2
 41
0.0
 71
     5
 72
     1
  1
25
  7
ASAMI
 11
-0.000000000000002
 21
1.0
 31
0.0
  0
POINT
  5
885F
330
7122
100
AcDbEntity
  8
DEFPOINTS
 62
     0
100
AcDbPoint
 10
-180.0000228881831
 20
59.60342694876231
 30
0.0
  0
POINT
  5
8860
330
7122
100
AcDbEntity
  8
DEFPOINTS
 62
     0
100
AcDbPoint
 10
-180.0000381469632
 20
34.60342694876231
 30
0.0
  0
POINT
  5
8861
330
7122
100
AcDbEntity
  8
DEFPOINTS
 62
     0
100
AcDbPoint
 10
-194.0000381469632
 20
34.60342694876231
 30
0.0
  0
ENDBLK
  5
712D
330
7122
100
AcDbEntity
  8
0
100
AcDbBlockEnd
  0
BLOCK
  5
71C1
330
71B7
100
AcDbEntity
  8
0
100
AcDbBlockBegin
  2
*D7
 70
     1
 10
0.0
 20
0.0
 30
0.0
  3
*D7
  1

  0
LINE
  5
8862
330
71B7
100
AcDbEntity
  8
AM_5
100
AcDbLine
 10
0.9999999999997299
 20
0.0000000000001725
 30
0.0
 11
16.40312991905732
 21
0.0000000000002023
 31
0.0
  0
LINE
  5
8863
330
71B7
100
AcDbEntity
  8
AM_5
100
AcDbLine
 10
-37.27401351928809
 20
-32.00002288818404
 30
0.0
 11
16.40312991905738
 21
-32.00002288818393
 31
0.0
  0
LINE
  5
8864
330
71B7
100
AcDbEntity
  8
AM_5
100
AcDbLine
 10
15.40312991905732
 20
-2.499999999999799
 30
0.0
 11
15.40312991905737
 21
-29.50002288818394
 31
0.0
  0
INSERT
  5
8865
330
71B7
100
AcDbEntity
  8
AM_5
100
AcDbBlockReference
  2
_OPEN30
 10
15.40312991905731
 20
0.0000000000002004
 30
0.0
 41
2.5
 42
2.5
 43
2.5
 50
90.0000000000001
  0
INSERT
  5
8866
330
71B7
100
AcDbEntity
  8
AM_5
100
AcDbBlockReference
  2
_OPEN30
 10
15.40312991905738
 20
-32.00002288818394
 30
0.0
 41
2.5
 42
2.5
 43
2.5
 50
270.0000000000001
  0
MTEXT
  5
8867
330
71B7
100
AcDbEntity
  8
AM_5
 62
     2
100
AcDbMText
 10
12.30312991905734
 20
-16.00001144409187
 30
0.0
 40
3.2
 41
0.0
 71
     5
 72
     1
  1
32
  7
ASAMI
 11
-0.000000000000002
 21
1.0
 31
0.0
  0
POINT
  5
8868
330
71B7
100
AcDbEntity
  8
DEFPOINTS
 62
     0
100
AcDbPoint
 10
-0.00000000000027
 20
0.0000000000001705
 30
0.0
  0
POINT
  5
8869
330
71B7
100
AcDbEntity
  8
DEFPOINTS
 62
     0
100
AcDbPoint
 10
-38.27401351928816
 20
-32.00002288818396
 30
0.0
  0
POINT
  5
886A
330
71B7
100
AcDbEntity
  8
DEFPOINTS
 62
     0
100
AcDbPoint
 10
15.40312991905731
 20
-32.00002288818397
 30
0.0
  0
ENDBLK
  5
71C2
330
71B7
100
AcDbEntity
  8
0
100
AcDbBlockEnd
  0
BLOCK
  5
738F
330
7384
100
AcDbEntity
  8
0
100
AcDbBlockBegin
  2
*D8
 70
     1
 10
0.0
 20
0.0
 30
0.0
  3
*D8
  1

  0
LINE
  5
886B
330
7384
100
AcDbEntity
  8
AM_5
100
AcDbLine
 10
-3.104675153453044
 20
-0.0027411003452537
 30
0.0
 11
-60.00003051757932
 21
-0.0027411003453639
 31
0.0
  0
LINE
  5
886C
330
7384
100
AcDbEntity
  8
AM_5
100
AcDbLine
 10
-59.00003051757932
 20
2.497258899654637
 30
0.0
 11
-59.00003051757932
 21
4.997258899654637
 31
0.0
  0
LINE
  5
886D
330
7384
100
AcDbEntity
  8
AM_5
100
AcDbLine
 10
-59.0000305175793
 20
-9.500007629394998
 30
0.0
 11
-59.0000305175793
 21
-12.00000762939499
 31
0.0
  0
LINE
  5
886E
330
7384
100
AcDbEntity
  8
AM_5
100
AcDbLine
 10
-59.00003051757932
 20
-0.002741100345362
 30
0.0
 11
-59.00003051757931
 21
-7.000007629394999
 31
0.0
  0
INSERT
  5
886F
330
7384
100
AcDbEntity
  8
AM_5
100
AcDbBlockReference
  2
_OPEN30
 10
-59.00003051757932
 20
-0.002741100345362
 30
0.0
 41
2.5
 42
2.5
 43
2.5
 50
270.0000000000001
  0
INSERT
  5
8870
330
7384
100
AcDbEntity
  8
AM_5
100
AcDbBlockReference
  2
_OPEN30
 10
-59.00003051757931
 20
-7.000007629394999
 30
0.0
 41
2.5
 42
2.5
 43
2.5
 50
90.0000000000001
  0
MTEXT
  5
8871
330
7384
100
AcDbEntity
  8
AM_5
 62
     2
100
AcDbMText
 10
-62.10003051757931
 20
-3.501374364870184
 30
0.0
 40
3.2
 41
0.0
 71
     5
 72
     1
  1
7
  7
ASAMI
 11
-0.000000000000002
 21
1.0
 31
0.0
  0
POINT
  5
8872
330
7384
100
AcDbEntity
  8
DEFPOINTS
 62
     0
100
AcDbPoint
 10
-2.104675153453044
 20
-0.0027411003452471
 30
0.0
  0
POINT
  5
8873
330
7384
100
AcDbEntity
  8
DEFPOINTS
 62
     0
100
AcDbPoint
 10
-45.00003814697329
 20
-7.000007629394872
 30
0.0
  0
POINT
  5
8874
330
7384
100
AcDbEntity
  8
DEFPOINTS
 62
     0
100
AcDbPoint
 10
-59.00003051757932
 20
-7.000007629394867
 30
0.0
  0
ENDBLK
  5
7390
330
7384
100
AcDbEntity
  8
0
100
AcDbBlockEnd
  0
BLOCK
  5
746E
330
7464
100
AcDbEntity
  8
0
100
AcDbBlockBegin
  2
*D9
 70
     1
 10
0.0
 20
0.0
 30
0.0
  3
*D9
  1

  0
LINE
  5
8875
330
7464
100
AcDbEntity
  8
AM_5
100
AcDbLine
 10
-0.0000000000002782
 20
-2.999999999999914
 30
0.0
 11
-0.0000000000001724
 21
-57.00000762939487
 31
0.0
  0
LINE
  5
8876
330
7464
100
AcDbEntity
  8
AM_5
100
AcDbLine
 10
-180.0000381469632
 20
-33.00000762939529
 30
0.0
 11
-180.0000381469632
 21
-57.00000762939524
 31
0.0
  0
LINE
  5
8877
330
7464
100
AcDbEntity
  8
AM_5
100
AcDbLine
 10
-2.500000000000174
 20
-56.00000762939488
 30
0.0
 11
-177.5000381469632
 21
-56.00000762939522
 31
0.0
  0
INSERT
  5
8878
330
7464
100
AcDbEntity
  8
AM_5
100
AcDbBlockReference
  2
_OPEN30
 10
-0.0000000000001743
 20
-56.00000762939487
 30
0.0
 41
2.5
 42
2.5
 43
2.5
 50
0.0000000000001018
  0
INSERT
  5
8879
330
7464
100
AcDbEntity
  8
AM_5
100
AcDbBlockReference
  2
_OPEN30
 10
-180.0000381469632
 20
-56.00000762939523
 30
0.0
 41
2.5
 42
2.5
 43
2.5
 50
180.0000000000001
  0
MTEXT
  5
887A
330
7464
100
AcDbEntity
  8
AM_5
 62
     2
100
AcDbMText
 10
-90.00001907348169
 20
-52.90000762939506
 30
0.0
 40
3.2
 41
0.0
 71
     5
 72
     1
  1
180
  7
ASAMI
  0
POINT
  5
887B
330
7464
100
AcDbEntity
  8
DEFPOINTS
 62
     0
100
AcDbPoint
 10
-0.0000000000002842
 20
-1.999999999999914
 30
0.0
  0
POINT
  5
887C
330
7464
100
AcDbEntity
  8
DEFPOINTS
 62
     0
100
AcDbPoint
 10
-180.0000381469633
 20
-32.00000762939493
 30
0.0
  0
POINT
  5
887D
330
7464
100
AcDbEntity
  8
DEFPOINTS
 62
     0
100
AcDbPoint
 10
-180.0000381469633
 20
-56.00000762939487
 30
0.0
  0
ENDBLK
  5
746F
330
7464
100
AcDbEntity
  8
0
100
AcDbBlockEnd
  0
BLOCK
  5
74FA
330
74F0
100
AcDbEntity
  8
0
100
AcDbBlockBegin
  2
*D10
 70
     1
 10
0.0
 20
0.0
 30
0.0
  3
*D10
  1

  0
LINE
  5
887E
330
74F0
100
AcDbEntity
  8
AM_5
100
AcDbLine
 10
-0.000000000000268
 20
-0.9999999999998294
 30
0.0
 11
-0.0000000000001779
 21
-47.00000762939487
 31
0.0
  0
LINE
  5
887F
330
74F0
100
AcDbEntity
  8
AM_5
100
AcDbLine
 10
-45.00003814697318
 20
-33.00000762939496
 30
0.0
 11
-45.00003814697314
 21
-47.00000762939496
 31
0.0
  0
LINE
  5
8880
330
74F0
100
AcDbEntity
  8
AM_5
100
AcDbLine
 10
-2.500000000000179
 20
-46.00000762939488
 30
0.0
 11
-42.50003814697314
 21
-46.00000762939496
 31
0.0
  0
INSERT
  5
8881
330
74F0
100
AcDbEntity
  8
AM_5
100
AcDbBlockReference
  2
_OPEN30
 10
-0.0000000000001798
 20
-46.00000762939487
 30
0.0
 41
2.5
 42
2.5
 43
2.5
 50
0.0000000000001018
  0
INSERT
  5
8882
330
74F0
100
AcDbEntity
  8
AM_5
100
AcDbBlockReference
  2
_OPEN30
 10
-45.00003814697314
 20
-46.00000762939497
 30
0.0
 41
2.5
 42
2.5
 43
2.5
 50
180.0000000000001
  0
MTEXT
  5
8883
330
74F0
100
AcDbEntity
  8
AM_5
 62
     2
100
AcDbMText
 10
-22.50001907348667
 20
-42.90000762939491
 30
0.0
 40
3.2
 41
0.0
 71
     5
 72
     1
  1
45
  7
ASAMI
  0
POINT
  5
8884
330
74F0
100
AcDbEntity
  8
DEFPOINTS
 62
     0
100
AcDbPoint
 10
-0.00000000000027
 20
0.0000000000001705
 30
0.0
  0
POINT
  5
8885
330
74F0
100
AcDbEntity
  8
DEFPOINTS
 62
     0
100
AcDbPoint
 10
-45.00003814697324
 20
-32.00000762939487
 30
0.0
  0
POINT
  5
8886
330
74F0
100
AcDbEntity
  8
DEFPOINTS
 62
     0
100
AcDbPoint
 10
-45.00003814697324
 20
-46.00000762939487
 30
0.0
  0
ENDBLK
  5
74FB
330
74F0
100
AcDbEntity
  8
0
100
AcDbBlockEnd
  0
BLOCK
  5
7604
330
75FA
100
AcDbEntity
  8
0
100
AcDbBlockBegin
  2
*D11
 70
     1
 10
0.0
 20
0.0
 30
0.0
  3
*D11
  1

  0
LINE
  5
8887
330
75FA
100
AcDbEntity
  8
AM_5
100
AcDbLine
 10
-1.180334053991949
 20
59.60342694876235
 30
0.0
 11
15.99996138463988
 21
59.60342694876238
 31
0.0
  0
LINE
  5
8888
330
75FA
100
AcDbEntity
  8
AM_5
100
AcDbLine
 10
0.9999613846400251
 20
34.60342694876229
 30
0.0
 11
15.99996138463993
 21
34.60342694876231
 31
0.0
  0
LINE
  5
8889
330
75FA
100
AcDbEntity
  8
AM_5
100
AcDbLine
 10
14.99996138463989
 20
57.10342694876238
 30
0.0
 11
14.99996138463992
 21
37.10342694876231
 31
0.0
  0
INSERT
  5
888A
330
75FA
100
AcDbEntity
  8
AM_5
100
AcDbBlockReference
  2
_OPEN30
 10
14.99996138463988
 20
59.60342694876238
 30
0.0
 41
2.5
 42
2.5
 43
2.5
 50
90.0000000000001
  0
INSERT
  5
888B
330
75FA
100
AcDbEntity
  8
AM_5
100
AcDbBlockReference
  2
_OPEN30
 10
14.99996138463993
 20
34.60342694876231
 30
0.0
 41
2.5
 42
2.5
 43
2.5
 50
270.0000000000001
  0
MTEXT
  5
888C
330
75FA
100
AcDbEntity
  8
AM_5
 62
     2
100
AcDbMText
 10
11.89996138463991
 20
47.10342694876234
 30
0.0
 40
3.2
 41
0.0
 71
     5
 72
     1
  1
25
  7
ASAMI
 11
-0.000000000000002
 21
1.0
 31
0.0
  0
POINT
  5
888D
330
75FA
100
AcDbEntity
  8
DEFPOINTS
 62
     0
100
AcDbPoint
 10
-2.180334053991817
 20
59.60342694876235
 30
0.0
  0
POINT
  5
888E
330
75FA
100
AcDbEntity
  8
DEFPOINTS
 62
     0
100
AcDbPoint
 10
-0.0000386153598981
 20
34.60342694876229
 30
0.0
  0
POINT
  5
888F
330
75FA
100
AcDbEntity
  8
DEFPOINTS
 62
     0
100
AcDbPoint
 10
14.99996138464001
 20
34.60342694876229
 30
0.0
  0
ENDBLK
  5
7605
330
75FA
100
AcDbEntity
  8
0
100
AcDbBlockEnd
  0
BLOCK
  5
7703
330
76F3
100
AcDbEntity
  8
0
100
AcDbBlockBegin
  2
*D12
 70
     1
 10
0.0
 20
0.0
 30
0.0
  3
*D12
  1

  0
LINE
  5
8890
330
76F3
100
AcDbEntity
  8
AM_5
100
AcDbLine
 10
-0.0000000000002729
 20
1.107563246721678
 30
0.0
 11
-0.0000000000003064
 21
15.10756324672167
 31
0.0
  0
ARC
  5
8891
330
76F3
100
AcDbEntity
  8
AM_5
100
AcDbCircle
 10
-0.0000000000002705
 20
0.1075632467216787
 30
0.0
 40
13.99999999999999
100
AcDbArc
 50
100.2450321995619
 51
172.7549906362126
  0
INSERT
  5
8892
330
76F3
100
AcDbEntity
  8
AM_5
100
AcDbBlockReference
  2
_OPEN30
 10
-0.0000000000003046
 20
14.10756324672167
 30
0.0
 41
2.5
 42
2.5
 43
2.5
 50
5.122516099781035
  0
INSERT
  5
8893
330
76F3
100
AcDbEntity
  8
AM_5
100
AcDbBlockReference
  2
_OPEN30
 10
-13.98081319453733
 20
-0.6251457128648461
 30
0.0
 41
2.5
 42
2.5
 43
2.5
 50
267.8775067359935
  0
MTEXT
  5
8894
330
76F3
100
AcDbEntity
  8
AM_5
 62
     2
100
AcDbMText
 10
-12.40390409000455
 20
11.87842401923848
 30
0.0
 40
3.2
 41
0.0
 71
     5
 72
     1
  1
95%%d
  7
ASAMI
 11
0.6883544311413336
 21
0.7253745081873855
 31
0.0
  0
POINT
  5
8895
330
76F3
100
AcDbEntity
  8
DEFPOINTS
 62
     0
100
AcDbPoint
 10
-7.210534643024227
 20
12.10790449860911
 30
0.0
  0
POINT
  5
8896
330
76F3
100
AcDbEntity
  8
DEFPOINTS
 62
     0
100
AcDbPoint
 10
-2.104675292969275
 20
-0.0027389526368893
 30
0.0
  0
POINT
  5
8897
330
76F3
100
AcDbEntity
  8
DEFPOINTS
 62
     0
100
AcDbPoint
 10
-0.00000000000027
 20
-1.999999999999886
 30
0.0
  0
POINT
  5
8898
330
76F3
100
AcDbEntity
  8
DEFPOINTS
 62
     0
100
AcDbPoint
 10
-0.00000000000027
 20
0.0000000000001705
 30
0.0
  0
POINT
  5
8899
330
76F3
100
AcDbEntity
  8
DEFPOINTS
 62
     0
100
AcDbPoint
 10
-17.88166427612428
 20
-0.829582214355895
 30
0.0
  0
ENDBLK
  5
7704
330
76F3
100
AcDbEntity
  8
0
100
AcDbBlockEnd
  0
ENDSEC
  0
SECTION
  2
ENTITIES
  0
TEXT
  5
388D
330
1F
100
AcDbEntity
  8
AM_6
100
AcDbText
 10
-124.0476381211006
 20
-78.50000762939505
 30
0.0
 40
5.0
  1
MVXCR2525-2230
 51
359.9999999999998
 72
     4
 11
-90.00001907348162
 21
-76.00000762939505
 31
0.0
100
AcDbText
  0
MTEXT
  5
5EBB
330
1F
100
AcDbEntity
  8
AM_6
100
AcDbMText
 10
33.26952339581452
 20
6.231026842781364
 30
0.0
 40
5.0
 41
0.0
 71
     5
 72
     5
  1
\T1.40;\W0.59;０°
  7
ASAMI
1001
ACAD
1000
MTEXTBEGIN
1070
    73
1070
     1
1070
    44
1040
1.0
1070
    74
1070
     0
1000
MTEXTEND
  0
MTEXT
  5
5EBE
330
1F
100
AcDbEntity
  8
AM_6
100
AcDbMText
 10
18.72194680891591
 20
20.23102684278133
 30
0.0
 40
5.0
 41
0.0
 71
     5
 72
     5
  1
\T1.40;\W0.59;０°
  7
ASAMI
1001
ACAD
1000
MTEXTBEGIN
1070
    73
1070
     1
1070
    44
1040
1.0
1070
    74
1070
     0
1000
MTEXTEND
  0
LINE
  5
6EFE
330
1F
100
AcDbEntity
  8
AM_0
100
AcDbLine
 10
-45.00003814697329
 20
-7.000007629394872
 30
0.0
 11
-180.0000381469632
 21
-7.000007629394929
 31
0.0
  0
LINE
  5
6EFF
330
1F
100
AcDbEntity
  8
AM_0
100
AcDbLine
 10
-38.28655731728631
 20
-32.00000762939487
 30
0.0
 11
-180.0000381469633
 21
-32.00000762939493
 31
0.0
  0
LINE
  5
6F00
330
1F
100
AcDbEntity
  8
AM_0
100
AcDbLine
 10
-45.00003814696064
 20
34.60342694876231
 30
0.0
 11
-180.0000228881831
 21
34.60342694876231
 31
0.0
  0
LINE
  5
6F01
330
1F
100
AcDbEntity
  8
AM_0
100
AcDbLine
 10
-2.180334053991813
 20
59.60342694876231
 30
0.0
 11
-180.0000228881831
 21
59.60342694876231
 31
0.0
  0
LINE
  5
6F04
330
1F
100
AcDbEntity
  8
AM_0
100
AcDbLine
 10
-0.6949844360361937
 20
40.26342679617431
 30
0.0
 11
-19.04987335205119
 21
40.26342679617431
 31
0.0
  0
LINE
  5
6F05
330
1F
100
AcDbEntity
  8
AM_0
100
AcDbLine
 10
-0.0000228881841764
 20
34.60342694876231
 30
0.0
 11
-30.39096069336018
 21
34.60342694876231
 31
0.0
  0
LINE
  5
6F06
330
1F
100
AcDbEntity
  8
AM_0
100
AcDbLine
 10
-0.6949996948251993
 20
40.26342107412841
 30
0.0
 11
-0.0000381469731821
 21
34.60342313406539
 31
0.0
  0
LINE
  5
6F07
330
1F
100
AcDbEntity
  8
AM_0
100
AcDbLine
 10
-2.180334053991785
 20
40.26342679617431
 30
0.0
 11
-2.180334053991785
 21
59.60342694876231
 31
0.0
  0
LINE
  5
6F08
330
1F
100
AcDbEntity
  8
AM_0
100
AcDbLine
 10
-41.04492187500018
 20
36.26342679617431
 30
0.0
 11
-41.04492187500023
 21
59.60342694876231
 31
0.0
  0
LINE
  5
6F09
330
1F
100
AcDbEntity
  8
AM_0
100
AcDbLine
 10
-19.04988861084019
 20
40.26342679617431
 30
0.0
 11
-19.24838256836018
 21
36.26342870352329
 31
0.0
  0
LINE
  5
6F0B
330
1F
100
AcDbEntity
  8
AM_0
100
AcDbLine
 10
-17.63194656372117
 20
40.26342870352329
 30
0.0
 11
-17.91281509399517
 21
34.60342885611129
 31
0.0
  0
LINE
  5
6F0C
330
1F
100
AcDbEntity
  8
AM_0
100
AcDbLine
 10
-26.67346191406319
 20
32.60342694876232
 30
0.0
 11
-33.03991699218819
 21
32.60342694876232
 31
0.0
  0
LINE
  5
6F0D
330
1F
100
AcDbEntity
  8
AM_0
100
AcDbLine
 10
-25.14273834228619
 20
26.60342694876232
 30
0.0
 11
-43.4998703002932
 21
26.60342694876232
 31
0.0
  0
LINE
  5
6F0E
330
1F
100
AcDbEntity
  8
AM_0
100
AcDbLine
 10
-19.24836730957117
 20
36.26342679617431
 30
0.0
 11
-45.00003743200797
 21
36.26342679617432
 31
0.0
  0
ARC
  5
6F0F
330
1F
100
AcDbEntity
  8
AM_0
100
AcDbCircle
 10
-25.14273834228619
 20
31.60342694876232
 30
0.0
 40
5.0
100
AcDbArc
 50
269.9999820139092
 51
359.9999640278193
  0
ARC
  5
6F10
330
1F
100
AcDbEntity
  8
AM_0
100
AcDbCircle
 10
-26.67346191406319
 20
31.60342694876232
 30
0.0
 40
5.0
100
AcDbArc
 50
269.9999820139092
 51
359.9999640278193
  0
LINE
  5
6F11
330
1F
100
AcDbEntity
  8
AM_0
100
AcDbLine
 10
-20.14273834228619
 20
31.60342694876232
 30
0.0
 11
-20.14273834228619
 21
34.60342694876231
 31
0.0
  0
ARC
  5
6F12
330
1F
100
AcDbEntity
  8
AM_0
100
AcDbCircle
 10
-26.67346191406319
 20
34.60342694876231
 30
0.0
 40
2.0
100
AcDbArc
 50
269.9999820139092
 51
359.9999640278193
  0
LINE
  5
6F13
330
1F
100
AcDbEntity
  8
AM_0
100
AcDbLine
 10
-21.67346191406319
 20
31.60342694876232
 30
0.0
 11
-21.67346191406319
 21
34.60342694876231
 31
0.0
  0
LINE
  5
6F14
330
1F
100
AcDbEntity
  8
AM_0
100
AcDbLine
 10
-24.67346191406319
 20
34.60342694876231
 30
0.0
 11
-24.67346191406319
 21
34.60342694876231
 31
0.0
  0
LINE
  5
6F15
330
1F
100
AcDbEntity
  8
AM_0
100
AcDbLine
 10
-43.4998703002932
 20
26.60342694876232
 30
0.0
 11
-43.4998703002932
 21
36.26342679617431
 31
0.0
  0
ARC
  5
6F16
330
1F
100
AcDbEntity
  8
AM_0
100
AcDbCircle
 10
-30.62901306152419
 20
34.60342694876231
 30
0.0
 40
2.0
100
AcDbArc
 50
179.9999999999998
 51
269.9999820139092
  0
ARC
  5
6F17
330
1F
100
AcDbEntity
  8
AM_0
100
AcDbCircle
 10
-33.03991699218819
 20
34.60342694876231
 30
0.0
 40
2.0
100
AcDbArc
 50
179.9999999999998
 51
269.9999820139092
  0
LINE
  5
6F18
330
1F
100
AcDbEntity
  8
AM_0
100
AcDbLine
 10
-32.62901306152419
 20
34.60342694876231
 30
0.0
 11
-35.03991699218819
 21
34.60342694876231
 31
0.0
  0
LINE
  5
6F19
330
1F
100
AcDbEntity
  8
AM_0
100
AcDbLine
 10
-32.62901306152419
 20
34.60342694876231
 30
0.0
 11
-32.62901306152419
 21
36.26342679617431
 31
0.0
  0
LINE
  5
6F1A
330
1F
100
AcDbEntity
  8
AM_0
100
AcDbLine
 10
-30.18714141845818
 20
36.26342679617431
 30
0.0
 11
-30.39096450805722
 21
34.60342694876231
 31
0.0
  0
LINE
  5
6F1B
330
1F
100
AcDbEntity
  8
AM_0
100
AcDbLine
 10
-35.03991699218819
 20
34.60342694876231
 30
0.0
 11
-35.03991699218819
 21
36.26342679617431
 31
0.0
  0
LINE
  5
6F38
330
1F
100
AcDbEntity
  8
AM_0
100
AcDbLine
 10
-45.00003814697324
 20
-32.00000762939487
 30
0.0
 11
-45.00003814697329
 21
-7.000007629394872
 31
0.0
  0
CIRCLE
  5
6F3D
330
1F
100
AcDbEntity
  8
AM_0
100
AcDbCircle
 10
-15.54990386962929
 20
-7.066093444824872
 30
0.0
 40
3.5
  0
LINE
  5
6F40
330
1F
100
AcDbEntity
  8
AM_0
100
AcDbLine
 10
-19.25547377887765
 20
-1.90294465653946
 30
0.0
 11
-19.25550842285228
 21
-1.902946472167883
 31
0.0
  0
LINE
  5
6F41
330
1F
100
AcDbEntity
  8
AM_0
100
AcDbLine
 10
-2.104675292969275
 20
-0.0027389526368893
 30
0.0
 11
-17.88166427612428
 21
-0.829582214355895
 31
0.0
  0
LINE
  5
6F42
330
1F
100
AcDbEntity
  8
AM_0
100
AcDbLine
 10
-0.7686767578132816
 20
-3.576026916503906
 30
0.0
 11
-13.2181625366223
 21
-13.30263519287086
 31
0.0
  0
LINE
  5
6F43
330
1F
100
AcDbEntity
  8
AM_7
100
AcDbLine
 10
-12.26422764563021
 20
-15.85405128168682
 30
0.0
 11
-18.6558815252179
 21
1.241212322194456
 31
0.0
  0
LINE
  5
6F44
330
1F
100
AcDbEntity
  8
AM_7
100
AcDbLine
 10
1.403128919056413
 20
-0.7276425319231521
 30
0.0
 11
-45.66417728535895
 21
-18.32538642373222
 31
0.0
  0
ARC
  5
6F4D
330
1F
100
AcDbEntity
  8
AM_0
100
AcDbCircle
 10
-2.00000000000027
 20
-1.999999999999886
 30
0.0
 40
2.0
100
AcDbArc
 50
307.9999307065731
 51
93.0000929742839
  0
LINE
  5
6F50
330
1F
100
AcDbEntity
  8
AM_0
100
AcDbLine
 10
-40.72791872524873
 20
-2.72790758690158
 30
0.0
 11
-45.0000305175793
 21
-7.000015258788863
 31
0.0
  0
LINE
  5
6F51
330
1F
100
AcDbEntity
  8
AM_0
100
AcDbLine
 10
-17.88162927489152
 20
-0.8295803800050123
 30
0.0
 11
-27.0956802368173
 21
-8.028381347656875
 31
0.0
  0
LINE
  5
6F57
330
1F
100
AcDbEntity
  8
AM_0
100
AcDbLine
 10
-35.37843322754027
 20
-11.11672973632789
 30
0.0
 11
-27.13190841674928
 21
-8.033477783202869
 31
0.0
  0
LINE
  5
6F58
330
1F
100
AcDbEntity
  8
AM_0
100
AcDbLine
 10
-33.17213058471726
 20
-17.0177688598639
 30
0.0
 11
-24.92558288574328
 21
-13.93450927734389
 31
0.0
  0
LINE
  5
6F59
330
1F
100
AcDbEntity
  8
AM_0
100
AcDbLine
 10
-20.46949386596723
 20
-11.0407409667969
 30
0.0
 11
-24.92555618286225
 21
-13.93453979492187
 31
0.0
  0
LINE
  5
6F5A
330
1F
100
AcDbEntity
  8
AM_0
100
AcDbLine
 10
-20.46950912475624
 20
-11.04069519042991
 30
0.0
 11
-21.8703384399423
 21
-7.294006347656903
 31
0.0
  0
LINE
  5
6F5B
330
1F
100
AcDbEntity
  8
AM_0
100
AcDbLine
 10
-13.21817016601626
 20
-13.30261993408188
 30
0.0
 11
-24.89487838745226
 21
-13.91456604003886
 31
0.0
  0
LINE
  5
6F5F
330
1F
100
AcDbEntity
  8
AM_0
100
AcDbLine
 10
-21.87033081054728
 20
-7.294036865234886
 30
0.0
 11
-27.13190841674928
 21
-8.03350067138686
 31
0.0
  0
CIRCLE
  5
6F61
330
1F
100
AcDbEntity
  8
AM_0
100
AcDbCircle
 10
-38.49836730957126
 20
-15.64617919921889
 30
0.0
 40
3.5
  0
CIRCLE
  5
6F62
330
1F
100
AcDbEntity
  8
AM_0
100
AcDbCircle
 10
-38.49836730957126
 20
-15.64617919921889
 30
0.0
 40
4.0
  0
ARC
  5
6F63
330
1F
100
AcDbEntity
  8
AM_0
100
AcDbCircle
 10
-38.49836730957126
 20
-15.64617919921889
 30
0.0
 40
5.5
100
AcDbArc
 50
178.0000004423801
 51
345.5593458581466
  0
LINE
  5
6F64
330
1F
100
AcDbEntity
  8
AM_7
100
AcDbLine
 10
-35.96836445921285
 20
-22.41296771185895
 30
0.0
 11
-40.90953063964927
 21
-9.197212219238906
 31
0.0
  0
LINE
  5
6F65
330
1F
100
AcDbEntity
  8
AM_0
100
AcDbLine
 10
-36.71634674072326
 20
-17.1151504516599
 30
0.0
 11
-36.33519363403427
 21
-14.83740234374988
 31
0.0
  0
LINE
  5
6F66
330
1F
100
AcDbEntity
  8
AM_0
100
AcDbLine
 10
-38.87953186035225
 20
-17.92392730712887
 30
0.0
 11
-40.66152191162227
 21
-16.45497894287089
 31
0.0
  0
ARC
  5
6F67
330
1F
100
AcDbEntity
  8
AM_0
100
AcDbCircle
 10
-38.49836730957126
 20
-15.64617919921889
 30
0.0
 40
5.5
100
AcDbArc
 50
55.44061316328286
 51
178.0000004423801
  0
LINE
  5
6F68
330
1F
100
AcDbEntity
  8
AM_0
100
AcDbLine
 10
-36.33521652221726
 20
-14.83741760253889
 30
0.0
 11
-38.11721420288127
 21
-13.36846160888686
 31
0.0
  0
LINE
  5
6F6A
330
1F
100
AcDbEntity
  8
AM_0
100
AcDbLine
 10
-40.66149139404326
 20
-16.4549713134769
 30
0.0
 11
-40.28033828735426
 21
-14.17722320556691
 31
0.0
  0
LINE
  5
6F6B
330
1F
100
AcDbEntity
  8
AM_0
100
AcDbLine
 10
-38.11721038818426
 20
-13.36846160888686
 30
0.0
 11
-40.28035736084025
 21
-14.17723083496088
 31
0.0
  0
LINE
  5
6F6C
330
1F
100
AcDbEntity
  8
AM_0
100
AcDbLine
 10
-36.71638107299925
 20
-17.11513519287089
 30
0.0
 11
-38.87952804565527
 21
-17.92390441894585
 31
0.0
  0
LINE
  5
6F6F
330
1F
100
AcDbEntity
  8
AM_0
100
AcDbLine
 10
-180.0000381469632
 20
34.60342694876231
 30
0.0
 11
-180.0000381469632
 21
59.60342694876231
 31
0.0
  0
LINE
  5
6F70
330
1F
100
AcDbEntity
  8
AM_0
100
AcDbLine
 10
-180.0000381469633
 20
-32.00000762939493
 30
0.0
 11
-180.0000381469632
 21
-7.000007629394929
 31
0.0
  0
LINE
  5
705C
330
1F
100
AcDbEntity
  8
AM_11
100
AcDbLine
 10
-2.00000000000027
 20
0.0000000000001137
 30
0.0
 11
-0.00000000000027
 21
0.0000000000001705
 31
0.0
  0
LINE
  5
705E
330
1F
100
AcDbEntity
  8
AM_11
100
AcDbLine
 10
-0.00000000000027
 20
-1.999999999999886
 30
0.0
 11
-0.00000000000027
 21
0.0000000000001705
 31
0.0
  0
DIMENSION
  5
7068
330
1F
100
AcDbEntity
  8
AM_5
100
AcDbDimension
  2
*D5
 10
-194.0000391469633
 20
-32.00000762939493
 30
0.0
 11
-197.1000391469633
 21
-19.50000762939496
 31
0.0
 70
    32
  1
<>
 51
359.9999999999998
  3
AM_JIS$0
100
AcDbAlignedDimension
 13
-180.0000381469632
 23
-7.000007629394929
 33
0.0
 14
-180.0000381469633
 24
-32.00000762939493
 34
0.0
 50
270.0
100
AcDbRotatedDimension
1001
GENIUS_GENDTOL_13
1000

1000
h7
1000

1040
0.0
1001
ACAD
1000
DSTYLE
1002
{
1070
   287
1070
     3
1070
    40
1040
1.0
1070
    42
1040
1.0
1070
    43
1040
12.0
1070
    48
1040
0.1
1070
    78
1070
     8
1070
   140
1040
3.2
1070
   176
1070
   256
1070
   177
1070
   256
1070
   271
1070
     0
1070
   272
1070
     3
1070
   275
1070
     0
1070
   284
1070
     0
1070
   289
1070
     3
1070
   340
1005
6B
1070
   371
1070
    -1
1070
   372
1070
    -1
1002
}
  0
DIMENSION
  5
7121
330
1F
100
AcDbEntity
  8
AM_5
100
AcDbDimension
  2
*D6
 10
-194.0000381469632
 20
34.60342694876231
 30
0.0
 11
-197.1000381469632
 21
47.10342694876229
 31
0.0
 70
    32
  1
<>
 51
359.9999999999998
  3
AM_JIS$0
100
AcDbAlignedDimension
 13
-180.0000228881831
 23
59.60342694876231
 33
0.0
 14
-180.0000381469632
 24
34.60342694876231
 34
0.0
 50
270.0
100
AcDbRotatedDimension
1001
GENIUS_GENDTOL_13
1000

1000
h7
1000

1040
0.0
1001
ACAD
1000
DSTYLE
1002
{
1070
   287
1070
     3
1070
    40
1040
1.0
1070
    42
1040
1.0
1070
    43
1040
12.0
1070
    48
1040
0.1
1070
    78
1070
     8
1070
   140
1040
3.2
1070
   176
1070
   256
1070
   177
1070
   256
1070
   271
1070
     0
1070
   272
1070
     3
1070
   275
1070
     0
1070
   284
1070
     0
1070
   289
1070
     3
1070
   340
1005
6B
1070
   371
1070
    -1
1070
   372
1070
    -1
1002
}
  0
DIMENSION
  5
71B6
330
1F
100
AcDbEntity
  8
AM_5
100
AcDbDimension
  2
*D7
 10
15.40312991905731
 20
-32.00002288818397
 30
0.0
 11
12.30312991905731
 21
-16.0000114440919
 31
0.0
 70
    32
  1
<>
 51
359.9999999999998
  3
AM_JIS$0
100
AcDbAlignedDimension
 13
-0.00000000000027
 23
0.0000000000001705
 33
0.0
 14
-38.27401351928816
 24
-32.00002288818396
 34
0.0
 50
90.00000000000161
100
AcDbRotatedDimension
1001
GENIUS_GENDTOL_13
1000

1000
h7
1000

1040
0.0
1001
ACAD
1000
DSTYLE
1002
{
1070
   287
1070
     3
1070
    40
1040
1.0
1070
    42
1040
1.0
1070
    43
1040
12.0
1070
    48
1040
0.1
1070
    78
1070
     8
1070
   140
1040
3.2
1070
   176
1070
   256
1070
   177
1070
   256
1070
   271
1070
     0
1070
   272
1070
     3
1070
   275
1070
     0
1070
   284
1070
     0
1070
   289
1070
     3
1070
   340
1005
6B
1070
   371
1070
    -1
1070
   372
1070
    -1
1002
}
  0
DIMENSION
  5
7383
330
1F
100
AcDbEntity
  8
AM_5
100
AcDbDimension
  2
*D8
 10
-59.00003051757932
 20
-7.000007629394867
 30
0.0
 11
-59.00003051757932
 21
-3.501374364870059
 31
0.0
 70
   160
  1
<>
 51
359.9999999999998
  3
AM_JIS$0
100
AcDbAlignedDimension
 13
-2.104675153453044
 23
-0.0027411003452471
 33
0.0
 14
-45.00003814697329
 24
-7.000007629394872
 34
0.0
 50
270.0
100
AcDbRotatedDimension
1001
GENIUS_GENDTOL_13
1000

1000
h7
1000

1040
0.0
1001
ACAD
1000
DSTYLE
1002
{
1070
   287
1070
     3
1070
    76
1070
     1
1070
    40
1040
1.0
1070
    42
1040
1.0
1070
    43
1040
12.0
1070
    48
1040
0.1
1070
    78
1070
     8
1070
   140
1040
3.2
1070
   176
1070
   256
1070
   177
1070
   256
1070
   271
1070
     0
1070
   272
1070
     3
1070
   275
1070
     0
1070
   284
1070
     0
1070
   289
1070
     3
1070
   340
1005
6B
1070
   371
1070
    -1
1070
   372
1070
    -1
1002
}
  0
DIMENSION
  5
7463
330
1F
100
AcDbEntity
  8
AM_5
100
AcDbDimension
  2
*D9
 10
-180.0000381469633
 20
-56.00000762939487
 30
0.0
 11
-90.00001907348181
 21
-52.90000762939487
 31
0.0
 70
    32
  1
<>
 51
359.9999999999998
  3
AM_JIS$0
100
AcDbAlignedDimension
 13
-0.0000000000002842
 23
-1.999999999999914
 33
0.0
 14
-180.0000381469633
 24
-32.00000762939493
 34
0.0
100
AcDbRotatedDimension
1001
GENIUS_GENDTOL_13
1000

1000
h7
1000

1040
0.0
1001
ACAD
1000
DSTYLE
1002
{
1070
   287
1070
     3
1070
    40
1040
1.0
1070
    42
1040
1.0
1070
    43
1040
12.0
1070
    48
1040
0.1
1070
    78
1070
     8
1070
   140
1040
3.2
1070
   176
1070
   256
1070
   177
1070
   256
1070
   271
1070
     0
1070
   272
1070
     3
1070
   275
1070
     0
1070
   284
1070
     0
1070
   289
1070
     3
1070
   340
1005
6B
1070
   371
1070
    -1
1070
   372
1070
    -1
1002
}
  0
DIMENSION
  5
74EF
330
1F
100
AcDbEntity
  8
AM_5
100
AcDbDimension
  2
*D10
 10
-45.00003814697324
 20
-46.00000762939487
 30
0.0
 11
-22.50001907348675
 21
-42.90000762939487
 31
0.0
 70
    32
  1
<>
 51
359.9999999999998
  3
AM_JIS$0
100
AcDbAlignedDimension
 13
-0.00000000000027
 23
0.0000000000001705
 33
0.0
 14
-45.00003814697324
 24
-32.00000762939487
 34
0.0
 50
0.0000000000016284
100
AcDbRotatedDimension
1001
GENIUS_GENDTOL_13
1000

1000
h7
1000

1040
0.0
1001
ACAD
1000
DSTYLE
1002
{
1070
   287
1070
     3
1070
    40
1040
1.0
1070
    42
1040
1.0
1070
    43
1040
12.0
1070
    48
1040
0.1
1070
    78
1070
     8
1070
   140
1040
3.2
1070
   176
1070
   256
1070
   177
1070
   256
1070
   271
1070
     0
1070
   272
1070
     3
1070
   275
1070
     0
1070
   284
1070
     0
1070
   289
1070
     3
1070
   340
1005
6B
1070
   371
1070
    -1
1070
   372
1070
    -1
1002
}
  0
DIMENSION
  5
75F9
330
1F
100
AcDbEntity
  8
AM_5
100
AcDbDimension
  2
*D11
 10
14.99996138464001
 20
34.60342694876229
 30
0.0
 11
11.89996138464
 21
47.10342694876231
 31
0.0
 70
    32
  1
<>
 51
359.9999999999998
  3
AM_JIS$0
100
AcDbAlignedDimension
 13
-2.180334053991817
 23
59.60342694876235
 33
0.0
 14
-0.0000386153598981
 24
34.60342694876229
 34
0.0
 50
90.0
100
AcDbRotatedDimension
1001
GENIUS_GENDTOL_13
1000

1000
h7
1000

1040
0.0
1001
ACAD
1000
DSTYLE
1002
{
1070
   287
1070
     3
1070
    40
1040
1.0
1070
    42
1040
1.0
1070
    43
1040
12.0
1070
    48
1040
0.1
1070
    78
1070
     8
1070
   140
1040
3.2
1070
   176
1070
   256
1070
   177
1070
   256
1070
   271
1070
     0
1070
   272
1070
     3
1070
   275
1070
     0
1070
   284
1070
     0
1070
   289
1070
     3
1070
   340
1005
6B
1070
   371
1070
    -1
1070
   372
1070
    -1
1002
}
  0
DIMENSION
  5
76F2
330
1F
100
AcDbEntity
  8
AM_5
100
AcDbDimension
  2
*D12
 10
-17.88166427612428
 20
-0.829582214355895
 30
0.0
 11
-12.40390409000453
 21
11.8784240192385
 31
0.0
 70
    34
  1
95%%d
 51
359.9999999999998
  3
AM_JIS$2
100
AcDb2LineAngularDimension
 13
-0.00000000000027
 23
-1.999999999999886
 33
0.0
 14
-0.00000000000027
 24
0.0000000000001705
 34
0.0
 15
-2.104675292969275
 25
-0.0027389526368893
 35
0.0
 16
-7.210534643024227
 26
12.10790449860911
 36
0.0
1001
GENIUS_GENDTOL_13
1000

1000
h7
1000

1040
0.0
1001
ACAD
1000
DSTYLE
1002
{
1070
   271
1070
     0
1002
}
  0
LINE
  5
7ED5
330
1F
100
AcDbEntity
  8
AM_0
100
AcDbLine
 10
-45.00003814698568
 20
34.60336880502109
 30
0.0
 11
-45.00002737692066
 21
59.60964779671783
 31
0.0
  0
LINE
  5
7ED6
330
1F
100
AcDbEntity
  8
AM_0
100
AcDbLine
 10
-41.044921160062
 20
36.26336313428947
 30
0.0
 11
-41.04491110765237
 21
59.60336710157233
 31
0.0
  0
LINE
  5
859E
330
1F
100
AcDbEntity
  8
AM_0
100
AcDbLine
 10
-14.43671036668022
 20
-13.36648047736235
 30
0.0
 11
-38.28655731728631
 21
-32.00000762939487
 31
0.0
  0
LINE
  5
85A1
330
1F
100
AcDbEntity
  8
AM_0
100
AcDbLine
 10
-18.84340215613983
 20
-1.580999226807721
 30
0.0
 11
-40.72791872524873
 21
-2.72790758690158
 31
0.0
  0
LEADER
  5
86DF
330
1F
100
AcDbEntity
  8
AM_5
  6
CONTINUOUS
 48
0.5
100
AcDbLeader
  3
AM_JIS$7
 76
     2
 10
30.72194680891596
 20
10.23102684278136
 30
0.0
 10
30.72194680891591
 20
20.23102684278136
 30
0.0
211
-1.0
221
-0.0000000000000039
231
0.0
1001
ACAD
1000
DSTYLE
1002
{
1070
     6
1000
OPEN30
1070
   173
1070
     1
1070
   176
1070
     0
1070
   341
1005
59
1002
}
  0
LEADER
  5
86E0
330
1F
100
AcDbEntity
  8
AM_5
  6
CONTINUOUS
 48
0.5
100
AcDbLeader
  3
AM_JIS$7
 76
     2
 10
20.72194680891592
 20
20.23102684278132
 30
0.0
 10
30.72194680891591
 20
20.23102684278136
 30
0.0
211
-1.0
221
-0.0000000000000039
231
0.0
1001
ACAD
1000
DSTYLE
1002
{
1070
     6
1000
OPEN30
1070
   173
1070
     1
1070
   176
1070
     0
1070
   341
1005
59
1002
}
  0
VIEWPORT
  5
110
330
101
100
AcDbEntity
 67
     1
  8
0
100
AcDbViewport
 10
420.5
 20
297.0
 30
0.0
 40
948.9782706766916
 41
628.452
 68
     1
 69
     1
1001
ACAD
1000
MVIEW
1002
{
1070
    16
1010
0.0
1020
0.0
1030
0.0
1010
0.0
1020
0.0
1030
1.0
1040
0.0
1040
628.452
1040
420.5
1040
297.0
1040
50.0
1040
0.0
1040
0.0
1070
     0
1070
   100
1070
     1
1070
     1
1070
     0
1070
     0
1070
     0
1070
     0
1040
0.0
1040
0.0
1040
0.0
1040
10.0
1040
10.0
1040
10.0
1040
10.0
1070
     0
1002
{
1002
}
1002
}
  0
ENDSEC
  0
SECTION
  2
OBJECTS
  0
DICTIONARY
  5
C
330
0
100
AcDbDictionary
  3
ACAD_GROUP
350
D
  3
ACAD_LAYOUT
350
1A
  3
ACAD_MLINESTYLE
350
17
  3
ACAD_PLOTSETTINGS
350
19
  3
ACAD_PLOTSTYLENAME
350
E
  3
ACDBVARIABLEDICTIONARY
350
34
  3
ACMDICTIONARY
350
43
  3
AMG
350
2B
  3
AMGSNAPSETTINGS
350
6E
  3
DWGPROPS
350
8819
  3
ACDBHEADERROUNDTRIPXREC
350
8826
  0
DICTIONARY
  5
74
330
1F
100
AcDbDictionary
280
     1
  3
ACAD_INDEX
360
881B
  3
ACAD_LAYOUTSELFREF
360
8849
  0
DICTIONARY
  5
884E
330
101
100
AcDbDictionary
280
     1
  3
ACAD_LAYOUTSELFREF
360
884F
  0
DICTIONARY
  5
D
102
{ACAD_REACTORS
330
C
102
}
330
C
100
AcDbDictionary
  0
DICTIONARY
  5
1A
102
{ACAD_REACTORS
330
C
102
}
330
C
100
AcDbDictionary
  0
DICTIONARY
  5
17
102
{ACAD_REACTORS
330
C
102
}
330
C
100
AcDbDictionary
  3
STANDARD
350
18
  0
DICTIONARY
  5
19
102
{ACAD_REACTORS
330
C
102
}
330
C
100
AcDbDictionary
  3
ASAMI
350
399D
  0
ACDBDICTIONARYWDFLT
  5
E
102
{ACAD_REACTORS
330
C
102
}
330
C
100
AcDbDictionary
281
     1
  3
Normal
350
F
100
AcDbDictionaryWithDefault
340
F
  0
DICTIONARY
  5
34
102
{ACAD_REACTORS
330
C
102
}
330
C
100
AcDbDictionary
  3
INDEXCTL
350
35
  3
SORTENTS
350
B5E
  0
DICTIONARY
  5
43
102
{ACAD_REACTORS
330
C
102
}
330
C
100
AcDbDictionary
  3
ACMSTDDICTIONARY
350
260
  0
DICTIONARY
  5
2B
102
{ACAD_REACTORS
330
C
102
}
330
C
100
AcDbDictionary
  3
ACMGSETTINGS
350
2C
  0
DICTIONARY
  5
6E
102
{ACAD_REACTORS
330
C
102
}
330
C
100
AcDbDictionary
  0
XRECORD
  5
8819
102
{ACAD_REACTORS
330
C
102
}
330
C
100
AcDbXrecord
  1
DWGPROPS COOKIE
  2

  3

  4

  6

  7

  8

  9

300
AmdtFileType=82
301
=
302
=
303
=
304
=
305
=
306
=
307
=
308
=
309
=
 40
0.8505856134259259
 41
2452802.716478761
 42
2452937.971464664
  1

 90
        1
  0
DICTIONARY
  5
8826
102
{ACAD_REACTORS
330
C
102
}
330
C
100
AcDbDictionary
  3
TSTACKALIGN
350
8827
  3
TSTACKSIZE
350
8828
  3
HYPERLINKBASE
350
8829
  3
STYLESHEET
350
882A
  3
LAYOUTDICT
350
882B
  3
PLOTSETDICT
350
882C
  3
PLOTSTYLNAMDICT
350
882D
  3
LWETCUNION
350
882E
  3
INSUNITS
350
882F
  3
CEPSNTYPE
350
8830
  3
FINGERPRINTGUID
350
8831
  3
VERSIONGUID
350
8832
  3
PSVPSCALE
350
8833
  3
DIMSTYLEDATA
350
8834
  3
PUCSORTHOREF
350
8835
  3
PUCSORTHOVIEW
350
8836
  3
PUCSBASE
350
8837
  3
PUCSORGTOP
350
8838
  3
PUCSORGBOTTOM
350
8839
  3
PUCSORGLEFT
350
883A
  3
PUCSORGRIGHT
350
883B
  3
PUCSORGFRONT
350
883C
  3
PUCSORGBACK
350
883D
  3
UCSORTHOREF
350
883E
  3
UCSORTHOVIEW
350
883F
  3
UCSBASE
350
8840
  3
UCSORGTOP
350
8841
  3
UCSORGBOTTOM
350
8842
  3
UCSORGLEFT
350
8843
  3
UCSORGRIGHT
350
8844
  3
UCSORGFRONT
350
8845
  3
UCSORGBACK
350
8846
  0
DICTIONARY
  5
881B
102
{ACAD_REACTORS
330
74
102
}
330
74
100
AcDbDictionary
  3
*A1
350
881C
  0
XRECORD
  5
8849
102
{ACAD_REACTORS
330
74
102
}
330
74
100
AcDbXrecord
340
1F
  0
XRECORD
  5
884F
102
{ACAD_REACTORS
330
884E
102
}
330
884E
100
AcDbXrecord
340
101
  0
MLINESTYLE
  5
18
102
{ACAD_REACTORS
330
17
102
}
330
17
100
AcDbMlineStyle
  2
STANDARD
 70
     0
  3

 62
   256
 51
90.0
 52
90.0
 71
     2
 49
0.5
 62
   256
  6
BYLAYER
 49
-0.5
 62
   256
  6
BYLAYER
  0
PLOTSETTINGS
  5
399D
102
{ACAD_REACTORS
330
19
102
}
330
19
100
AcDbPlotSettings
  1
asami
  2
RICOH imagio MF1540
  4
A4
  6

 40
5.831416606903076
 41
7.651742935180664
 42
4.90008544921875
 43
5.789077758789062
 44
296.9683227539062
 45
209.9733276367187
 46
0.0
 47
0.0
 48
-156.6707931774246
 49
-74.57609991074048
140
58.59973180214831
141
60.61068161925596
142
1.0
143
1.095343097833084
 70
  1712
 72
     1
 73
     1
 74
     4
  7
asami.ctb
 75
     0
147
0.9129559514076438
148
156.6707931774246
149
74.57609991074048
  0
ACDBPLACEHOLDER
  5
F
102
{ACAD_REACTORS
330
E
102
}
330
E
100
AcDbPlaceHolder
280
     0
  0
DICTIONARYVAR
  5
35
102
{ACAD_REACTORS
330
34
102
}
330
34
100
DictionaryVariables
280
     0
  1
1
  0
DICTIONARYVAR
  5
B5E
102
{ACAD_REACTORS
330
34
102
}
330
34
100
DictionaryVariables
280
     0
  1
96
  0
DICTIONARY
  5
260
102
{ACAD_REACTORS
330
43
102
}
330
43
100
AcDbDictionary
  0
DICTIONARY
  5
2C
102
{ACAD_REACTORS
330
2B
102
}
330
2B
100
AcDbDictionary
  3
DWGSETTINGS
350
2D
  0
XRECORD
  5
8827
102
{ACAD_REACTORS
330
8826
102
}
330
8826
100
AcDbXrecord
 90
        1
  0
XRECORD
  5
8828
102
{ACAD_REACTORS
330
8826
102
}
330
8826
100
AcDbXrecord
 90
       70
  0
XRECORD
  5
8829
102
{ACAD_REACTORS
330
8826
102
}
330
8826
100
AcDbXrecord
  1

  0
XRECORD
  5
882A
102
{ACAD_REACTORS
330
8826
102
}
330
8826
100
AcDbXrecord
  1
ASAMI.ctb
  0
XRECORD
  5
882B
102
{ACAD_REACTORS
330
8826
102
}
330
8826
100
AcDbXrecord
340
1A
  0
XRECORD
  5
882C
102
{ACAD_REACTORS
330
8826
102
}
330
8826
100
AcDbXrecord
340
19
  0
XRECORD
  5
882D
102
{ACAD_REACTORS
330
8826
102
}
330
8826
100
AcDbXrecord
340
E
  0
XRECORD
  5
882E
102
{ACAD_REACTORS
330
8826
102
}
330
8826
100
AcDbXrecord
 90
    10781
  0
XRECORD
  5
882F
102
{ACAD_REACTORS
330
8826
102
}
330
8826
100
AcDbXrecord
 90
        4
  0
XRECORD
  5
8830
102
{ACAD_REACTORS
330
8826
102
}
330
8826
100
AcDbXrecord
 90
        0
  0
XRECORD
  5
8831
102
{ACAD_REACTORS
330
8826
102
}
330
8826
100
AcDbXrecord
  1
{AFB28963-8C59-40AE-9337-C84526B81ACE}
  0
XRECORD
  5
8832
102
{ACAD_REACTORS
330
8826
102
}
330
8826
100
AcDbXrecord
  1
{D306A281-1FE1-4508-B7B1-033CAA5E58A1}
  0
XRECORD
  5
8833
102
{ACAD_REACTORS
330
8826
102
}
330
8826
100
AcDbXrecord
 40
0.0
  0
XRECORD
  5
8834
102
{ACAD_REACTORS
330
8826
102
}
330
8826
100
AcDbXrecord
1000
DSTYLE
1002
{
1070
    79
 70
     2
1070
   341
340
59
1070
   342
340
59
1070
   371
 70
    -1
1070
   372
 70
    -1
1002
}
  0
XRECORD
  5
8835
102
{ACAD_REACTORS
330
8826
102
}
330
8826
100
AcDbXrecord
340
0
  0
XRECORD
  5
8836
102
{ACAD_REACTORS
330
8826
102
}
330
8826
100
AcDbXrecord
 70
     0
  0
XRECORD
  5
8837
102
{ACAD_REACTORS
330
8826
102
}
330
8826
100
AcDbXrecord
340
0
  0
XRECORD
  5
8838
102
{ACAD_REACTORS
330
8826
102
}
330
8826
100
AcDbXrecord
 10
0.0
 20
0.0
 30
0.0
  0
XRECORD
  5
8839
102
{ACAD_REACTORS
330
8826
102
}
330
8826
100
AcDbXrecord
 10
0.0
 20
0.0
 30
0.0
  0
XRECORD
  5
883A
102
{ACAD_REACTORS
330
8826
102
}
330
8826
100
AcDbXrecord
 10
0.0
 20
0.0
 30
0.0
  0
XRECORD
  5
883B
102
{ACAD_REACTORS
330
8826
102
}
330
8826
100
AcDbXrecord
 10
0.0
 20
0.0
 30
0.0
  0
XRECORD
  5
883C
102
{ACAD_REACTORS
330
8826
102
}
330
8826
100
AcDbXrecord
 10
0.0
 20
0.0
 30
0.0
  0
XRECORD
  5
883D
102
{ACAD_REACTORS
330
8826
102
}
330
8826
100
AcDbXrecord
 10
0.0
 20
0.0
 30
0.0
  0
XRECORD
  5
883E
102
{ACAD_REACTORS
330
8826
102
}
330
8826
100
AcDbXrecord
340
0
  0
XRECORD
  5
883F
102
{ACAD_REACTORS
330
8826
102
}
330
8826
100
AcDbXrecord
 70
     0
  0
XRECORD
  5
8840
102
{ACAD_REACTORS
330
8826
102
}
330
8826
100
AcDbXrecord
340
0
  0
XRECORD
  5
8841
102
{ACAD_REACTORS
330
8826
102
}
330
8826
100
AcDbXrecord
 10
0.0
 20
0.0
 30
0.0
  0
XRECORD
  5
8842
102
{ACAD_REACTORS
330
8826
102
}
330
8826
100
AcDbXrecord
 10
0.0
 20
0.0
 30
0.0
  0
XRECORD
  5
8843
102
{ACAD_REACTORS
330
8826
102
}
330
8826
100
AcDbXrecord
 10
0.0
 20
0.0
 30
0.0
  0
XRECORD
  5
8844
102
{ACAD_REACTORS
330
8826
102
}
330
8826
100
AcDbXrecord
 10
0.0
 20
0.0
 30
0.0
  0
XRECORD
  5
8845
102
{ACAD_REACTORS
330
8826
102
}
330
8826
100
AcDbXrecord
 10
0.0
 20
0.0
 30
0.0
  0
XRECORD
  5
8846
102
{ACAD_REACTORS
330
8826
102
}
330
8826
100
AcDbXrecord
 10
0.0
 20
0.0
 30
0.0
  0
LAYER_INDEX
  5
881C
102
{ACAD_REACTORS
330
881B
102
}
330
881B
100
AcDbIndex
 40
2452941.599298854
100
AcDbLayerIndex
  8
0
360
881D
 90
        0
  8
AM_0
360
881E
 90
       57
  8
AM_5
360
881F
 90
       10
  8
AM_7
360
8820
 90
        3
  8
AM_6
360
8821
 90
        3
  8
Defpoints
360
8822
 90
        0
  8
AM_3
360
8823
 90
        0
  8
AM_11
360
8824
 90
        2
  0
XRECORD
  5
2D
102
{ACAD_REACTORS
330
2C
102
}
330
2C
100
AcDbXrecord
  1
VERSION
140
15.0
  1
PRODUCT
  2
AutoCAD Mechanical 2000
  0
IDBUFFER
  5
881D
330
0
100
AcDbIdBuffer
  0
IDBUFFER
  5
881E
330
0
100
AcDbIdBuffer
330
6F6A
330
6F6B
330
6F6C
330
6F6F
330
6F70
330
7ED5
330
7ED6
330
859E
330
85A1
330
6EFE
330
6EFF
330
6F00
330
6F01
330
6F04
330
6F05
330
6F06
330
6F07
330
6F08
330
6F09
330
6F0B
330
6F0C
330
6F0D
330
6F0E
330
6F0F
330
6F10
330
6F11
330
6F12
330
6F13
330
6F14
330
6F15
330
6F16
330
6F17
330
6F18
330
6F19
330
6F1A
330
6F1B
330
6F38
330
6F3D
330
6F40
330
6F41
330
6F42
330
6F4D
330
6F50
330
6F51
330
6F57
330
6F58
330
6F59
330
6F5A
330
6F5B
330
6F5F
330
6F61
330
6F62
330
6F63
330
6F65
330
6F66
330
6F67
330
6F68
  0
IDBUFFER
  5
881F
330
0
100
AcDbIdBuffer
330
7068
330
7121
330
71B6
330
7383
330
7463
330
74EF
330
75F9
330
76F2
330
86DF
330
86E0
  0
IDBUFFER
  5
8820
330
0
100
AcDbIdBuffer
330
6F43
330
6F44
330
6F64
  0
IDBUFFER
  5
8821
330
0
100
AcDbIdBuffer
330
388D
330
5EBB
330
5EBE
  0
IDBUFFER
  5
8822
330
0
100
AcDbIdBuffer
  0
IDBUFFER
  5
8823
330
0
100
AcDbIdBuffer
  0
IDBUFFER
  5
8824
330
0
100
AcDbIdBuffer
330
705C
330
705E
  0
ENDSEC
  0
EOF
