  0
SECTION
  2
HEADER
  9
$ACADVER
  1
AC1014
  9
$ACADMAINTVER
 70
     9
  9
$DWGCODEPAGE
  3
ANSI_932
  9
$INSBASE
 10
0.0
 20
0.0
 30
0.0
  9
$EXTMIN
 10
-188.4999999999999
 20
-54.50000000000015
 30
0.0
  9
$EXTMAX
 10
108.3892055262368
 20
100.7181240304147
 30
0.0
  9
$LIMMIN
 10
-205.9808747605827
 20
-73.13171079828214
  9
$LIMMAX
 10
118.4958180296771
 20
112.120651521649
  9
$ORTHOMODE
 70
     0
  9
$REGENMODE
 70
     1
  9
$FILLMODE
 70
     1
  9
$QTEXTMODE
 70
     0
  9
$MIRRTEXT
 70
     0
  9
$DRAGMODE
 70
     2
  9
$LTSCALE
 40
1.0
  9
$OSMODE
 70
  2103
  9
$ATTMODE
 70
     1
  9
$TEXTSIZE
 40
2.5
  9
$TRACEWID
 40
1.0
  9
$TEXTSTYLE
  7
STANDARD
  9
$CLAYER
  8
AM_0
  9
$CELTYPE
  6
BYLAYER
  9
$CECOLOR
 62
   256
  9
$CELTSCALE
 40
1.0
  9
$DELOBJ
 70
     1
  9
$DISPSILH
 70
     0
  9
$DIMSCALE
 40
1.0
  9
$DIMASZ
 40
2.5
  9
$DIMEXO
 40
1.0
  9
$DIMDLI
 40
12.0
  9
$DIMRND
 40
0.0
  9
$DIMDLE
 40
0.0
  9
$DIMEXE
 40
1.0
  9
$DIMTP
 40
0.1
  9
$DIMTM
 40
0.1
  9
$DIMTXT
 40
3.2
  9
$DIMCEN
 40
0.0
  9
$DIMTSZ
 40
0.0
  9
$DIMTOL
 70
     0
  9
$DIMLIM
 70
     0
  9
$DIMTIH
 70
     0
  9
$DIMTOH
 70
     0
  9
$DIMSE1
 70
     0
  9
$DIMSE2
 70
     0
  9
$DIMTAD
 70
     3
  9
$DIMZIN
 70
     8
  9
$DIMBLK
  1
OPEN30
  9
$DIMASO
 70
     1
  9
$DIMSHO
 70
     1
  9
$DIMPOST
  1

  9
$DIMAPOST
  1
"
  9
$DIMALT
 70
     0
  9
$DIMALTD
 70
     2
  9
$DIMALTF
 40
0.0393701
  9
$DIMLFAC
 40
1.0
  9
$DIMTOFL
 70
     1
  9
$DIMTVP
 40
0.0
  9
$DIMTIX
 70
     0
  9
$DIMSOXD
 70
     0
  9
$DIMSAH
 70
     0
  9
$DIMBLK1
  1

  9
$DIMBLK2
  1

  9
$DIMSTYLE
  2
AM_JIS
  9
$DIMCLRD
 70
     3
  9
$DIMCLRE
 70
     3
  9
$DIMCLRT
 70
     2
  9
$DIMTFAC
 40
0.71
  9
$DIMGAP
 40
1.5
  9
$DIMJUST
 70
     0
  9
$DIMSD1
 70
     0
  9
$DIMSD2
 70
     0
  9
$DIMTOLJ
 70
     0
  9
$DIMTZIN
 70
     0
  9
$DIMALTZ
 70
     0
  9
$DIMALTTZ
 70
     0
  9
$DIMFIT
 70
     3
  9
$DIMUPT
 70
     0
  9
$DIMUNIT
 70
     2
  9
$DIMDEC
 70
     3
  9
$DIMTDEC
 70
     3
  9
$DIMALTU
 70
     2
  9
$DIMALTTD
 70
     2
  9
$DIMTXSTY
  7
ASAMI
  9
$DIMAUNIT
 70
     0
  9
$LUNITS
 70
     2
  9
$LUPREC
 70
     2
  9
$SKETCHINC
 40
1.0
  9
$FILLETRAD
 40
1.199999999999999
  9
$AUNITS
 70
     0
  9
$AUPREC
 70
     0
  9
$MENU
  1
.
  9
$ELEVATION
 40
0.0
  9
$PELEVATION
 40
0.0
  9
$THICKNESS
 40
0.0
  9
$LIMCHECK
 70
     0
  9
$BLIPMODE
 70
     0
  9
$CHAMFERA
 40
2.5
  9
$CHAMFERB
 40
2.5
  9
$CHAMFERC
 40
20.0
  9
$CHAMFERD
 40
0.0
  9
$SKPOLY
 70
     0
  9
$TDCREATE
 40
2452838.620506898
  9
$TDUPDATE
 40
2452941.598964294
  9
$TDINDWG
 40
1.2703071875
  9
$TDUSRTIMER
 40
1.2703071875
  9
$USRTIMER
 70
     1
  9
$ANGBASE
 50
0.0
  9
$ANGDIR
 70
     0
  9
$PDMODE
 70
     0
  9
$PDSIZE
 40
0.0
  9
$PLINEWID
 40
0.0
  9
$COORDS
 70
     0
  9
$SPLFRAME
 70
     0
  9
$SPLINETYPE
 70
     6
  9
$SPLINESEGS
 70
     8
  9
$ATTDIA
 70
     1
  9
$ATTREQ
 70
     1
  9
$HANDLING
 70
 12289
  9
$HANDSEED
  5
76EF
  9
$SURFTAB1
 70
     6
  9
$SURFTAB2
 70
     6
  9
$SURFTYPE
 70
     6
  9
$SURFU
 70
     6
  9
$SURFV
 70
     6
  9
$UCSNAME
  2

  9
$UCSORG
 10
0.0
 20
0.0
 30
0.0
  9
$UCSXDIR
 10
1.0
 20
0.0
 30
0.0
  9
$UCSYDIR
 10
0.0
 20
1.0
 30
0.0
  9
$PUCSNAME
  2

  9
$PUCSORG
 10
0.0
 20
0.0
 30
0.0
  9
$PUCSXDIR
 10
1.0
 20
0.0
 30
0.0
  9
$PUCSYDIR
 10
0.0
 20
1.0
 30
0.0
  9
$USERI1
 70
     0
  9
$USERI2
 70
     0
  9
$USERI3
 70
     0
  9
$USERI4
 70
     0
  9
$USERI5
 70
     0
  9
$USERR1
 40
0.0
  9
$USERR2
 40
0.0
  9
$USERR3
 40
0.0
  9
$USERR4
 40
0.0
  9
$USERR5
 40
0.0
  9
$WORLDVIEW
 70
     1
  9
$SHADEDGE
 70
     3
  9
$SHADEDIF
 70
    70
  9
$TILEMODE
 70
     1
  9
$MAXACTVP
 70
    64
  9
$PINSBASE
 10
0.0
 20
0.0
 30
0.0
  9
$PLIMCHECK
 70
     0
  9
$PEXTMIN
 10
1.000000000000000E+20
 20
1.000000000000000E+20
 30
1.000000000000000E+20
  9
$PEXTMAX
 10
-1.000000000000000E+20
 20
-1.000000000000000E+20
 30
-1.000000000000000E+20
  9
$PLIMMIN
 10
0.0
 20
0.0
  9
$PLIMMAX
 10
841.0
 20
594.0
  9
$UNITMODE
 70
     0
  9
$VISRETAIN
 70
     1
  9
$PLINEGEN
 70
     0
  9
$PSLTSCALE
 70
     0
  9
$TREEDEPTH
 70
  3020
  9
$PICKSTYLE
 70
     0
  9
$CMLSTYLE
  2
STANDARD
  9
$CMLJUST
 70
     0
  9
$CMLSCALE
 40
20.0
  9
$PROXYGRAPHICS
 70
     1
  9
$MEASUREMENT
 70
     1
  0
ENDSEC
  0
SECTION
  2
CLASSES
  0
CLASS
  1
ACDBDICTIONARYWDFLT
  2
AcDbDictionaryWithDefault
  3
AutoCAD 2000
 90
        0
280
     0
281
     0
  0
CLASS
  1
ACDBPLACEHOLDER
  2
AcDbPlaceHolder
  3
AutoCAD 2000
 90
        0
280
     0
281
     0
  0
CLASS
  1
LAYOUT
  2
AcDbLayout
  3
AutoCAD 2000
 90
        0
280
     0
281
     0
  0
CLASS
  1
AMGSETTINGSOBJ
  2
AmgSettingsObj
  3
"AcadM|Product Description: AutoCAD Mechanical 2000|Company: Autodesk"
 90
        0
280
     0
281
     0
  0
CLASS
  1
ACME_DOCUMENT
  2
AcMeDbDoc
  3
AcMeServices
 90
        0
280
     0
281
     0
  0
CLASS
  1
ACMESCOPE
  2
AcMeScope
  3
AcMeServices
 90
        0
280
     0
281
     0
  0
CLASS
  1
ACMECOMMANDHISTORY
  2
AcMeCommandHistory
  3
AcMeServices
 90
        0
280
     0
281
     0
  0
CLASS
  1
DICTIONARYVAR
  2
AcDbDictionaryVar
  3
AutoCAD 2000
 90
        0
280
     0
281
     0
  0
CLASS
  1
ACIMSYSVARMAN
  2
AcImSysVarManager
  3
AcMeServices
 90
        0
280
     0
281
     0
  0
CLASS
  1
ACIMREALSYSVAR
  2
AcImRealSysVar
  3
AcMeServices
 90
        0
280
     0
281
     0
  0
CLASS
  1
ACIMINTSYSVAR
  2
AcImIntSysVar
  3
AcMeServices
 90
        0
280
     0
281
     0
  0
CLASS
  1
ACMEDRAWINGMAN
  2
AcMeDrawingMan
  3
AcMeServices
 90
        0
280
     0
281
     0
  0
CLASS
  1
ACMEVIEW
  2
AcMeView
  3
AcMeServices
 90
        0
280
     0
281
     0
  0
CLASS
  1
ACDBENTITYCACHE
  2
AcMeEntityCache
  3
AcMeServices
 90
        0
280
     0
281
     0
  0
CLASS
  1
GSMANAGER
  2
AcMeGSManager
  3
AcMeServices
 90
        0
280
     0
281
     0
  0
CLASS
  1
AmdtInternalReactor
  2
AmdtInternalReactor
  3
AcMeServices
 90
        0
280
     0
281
     0
  0
CLASS
  1
ACMESTATEMGR
  2
AcMeStateMgr
  3
AcMeServices
 90
        0
280
     0
281
     0
  0
CLASS
  1
ACME_DATABASE
  2
AcMeDbDatabase
  3
AcMeServices
 90
        0
280
     0
281
     0
  0
CLASS
  1
ACRFINSADJUSTERMGR
  2
AcRfInsAdjusterMgr
  3
AcMeServices
 90
        0
280
     0
281
     0
  0
CLASS
  1
ACMDATADICTIONARY
  2
AcmDataDictionary
  3
"AcmSymBB|Product Description: AutoCAD Mechanical 2000|Company: Autodesk"
 90
        0
280
     0
281
     0
  0
CLASS
  1
ACMDATAENTRYBLOCK
  2
AcmDataEntryBlock
  3
"AcmSymBB|Product Description: AutoCAD Mechanical 2000|Company: Autodesk"
 90
        0
280
     0
281
     0
  0
CLASS
  1
AMGOBJPROPCFG
  2
AmgObjPropCfg
  3
"AmgLay|Product Description: AutoCAD Mechanical 2000|Company: Autodesk"
 90
        1
280
     0
281
     0
  0
CLASS
  1
ACAMGFILTERDAT
  2
AcAmgFilterDat
  3
"AcadM|Product Description: AutoCAD Mechanical 2000|Company: Autodesk"
 90
        0
280
     0
281
     0
  0
CLASS
  1
LAYER_INDEX
  2
AcDbLayerIndex
  3
AutoCAD 2000
 90
        0
280
     0
281
     0
  0
CLASS
  1
IDBUFFER
  2
AcDbIdBuffer
  3
AutoCAD 2000
 90
        0
280
     0
281
     0
  0
CLASS
  1
ACIMSTRSYSVAR
  2
AcImStrSysVar
  3
AcMeServices
 90
        0
280
     0
281
     0
  0
CLASS
  1
ACMSTANDARDJIS
  2
AcmStandardJIS
  3
"AcmSymBB|Product Description: AutoCAD Mechanical 2000|Company: Autodesk"
 90
        0
280
     0
281
     0
  0
CLASS
  1
ACMSURFSTANDARDJIS
  2
AcmSurfTextStdJIS
  3
"AcmSymBB|Product Description: AutoCAD Mechanical 2000|Company: Autodesk"
 90
        0
280
     0
281
     0
  0
CLASS
  1
ACMFCFSTANDARDJIS
  2
AcmFCFStdJIS
  3
"AcmSymBB|Product Description: AutoCAD Mechanical 2000|Company: Autodesk"
 90
        0
280
     0
281
     0
  0
CLASS
  1
ACMWELDSTANDARDJIS
  2
AcmWeldingStdJIS
  3
"AcmSymBB|Product Description: AutoCAD Mechanical 2000|Company: Autodesk"
 90
        0
280
     0
281
     0
  0
CLASS
  1
ACMIDSTANDARDJIS
  2
AcmIdStdJIS
  3
"AcmSymBB|Product Description: AutoCAD Mechanical 2000|Company: Autodesk"
 90
        0
280
     0
281
     0
  0
CLASS
  1
ACMDATUMSTANDARDJIS
  2
AcmDatumStdJIS
  3
"AcmSymBB|Product Description: AutoCAD Mechanical 2000|Company: Autodesk"
 90
        0
280
     0
281
     0
  0
CLASS
  1
ACMBOMSTANDARDJIS
  2
AcmBOMStdJIS
  3
"AcmSymBB|Product Description: AutoCAD Mechanical 2000|Company: Autodesk"
 90
        0
280
     0
281
     0
  0
CLASS
  1
ACMSTANDARDANSI
  2
AcmStandardANSI
  3
"AcmSymBB|Product Description: AutoCAD Mechanical 2000|Company: Autodesk"
 90
        0
280
     0
281
     0
  0
CLASS
  1
ACMSURFSTANDARDANSI
  2
AcmSurfTextStdANSI
  3
"AcmSymBB|Product Description: AutoCAD Mechanical 2000|Company: Autodesk"
 90
        0
280
     0
281
     0
  0
CLASS
  1
ACMFCFSTANDARDANSI
  2
AcmFCFStdANSI
  3
"AcmSymBB|Product Description: AutoCAD Mechanical 2000|Company: Autodesk"
 90
        0
280
     0
281
     0
  0
CLASS
  1
ACMWELDSTANDARDANSI
  2
AcmWeldingStdANSI
  3
"AcmSymBB|Product Description: AutoCAD Mechanical 2000|Company: Autodesk"
 90
        0
280
     0
281
     0
  0
CLASS
  1
ACMIDSTANDARDANSI
  2
AcmIdStdANSI
  3
"AcmSymBB|Product Description: AutoCAD Mechanical 2000|Company: Autodesk"
 90
        0
280
     0
281
     0
  0
CLASS
  1
ACMDATUMSTANDARDANSI
  2
AcmDatumStdANSI
  3
"AcmSymBB|Product Description: AutoCAD Mechanical 2000|Company: Autodesk"
 90
        0
280
     0
281
     0
  0
CLASS
  1
ACMBOMSTANDARDANSI
  2
AcmBOMStdANSI
  3
"AcmSymBB|Product Description: AutoCAD Mechanical 2000|Company: Autodesk"
 90
        0
280
     0
281
     0
  0
CLASS
  1
ACMSTANDARDBSI
  2
AcmStandardBSI
  3
"AcmSymBB|Product Description: AutoCAD Mechanical 2000|Company: Autodesk"
 90
        0
280
     0
281
     0
  0
CLASS
  1
ACMSURFSTANDARDBSI
  2
AcmSurfTextStdBSI
  3
"AcmSymBB|Product Description: AutoCAD Mechanical 2000|Company: Autodesk"
 90
        0
280
     0
281
     0
  0
CLASS
  1
ACMFCFSTANDARDBSI
  2
AcmFCFStdBSI
  3
"AcmSymBB|Product Description: AutoCAD Mechanical 2000|Company: Autodesk"
 90
        0
280
     0
281
     0
  0
CLASS
  1
ACMWELDSTANDARDBSI
  2
AcmWeldingStdBSI
  3
"AcmSymBB|Product Description: AutoCAD Mechanical 2000|Company: Autodesk"
 90
        0
280
     0
281
     0
  0
CLASS
  1
ACMIDSTANDARDBSI
  2
AcmIdStdBSI
  3
"AcmSymBB|Product Description: AutoCAD Mechanical 2000|Company: Autodesk"
 90
        0
280
     0
281
     0
  0
CLASS
  1
ACMDATUMSTANDARDBSI
  2
AcmDatumStdBSI
  3
"AcmSymBB|Product Description: AutoCAD Mechanical 2000|Company: Autodesk"
 90
        0
280
     0
281
     0
  0
CLASS
  1
ACMBOMSTANDARDBSI
  2
AcmBOMStdBSI
  3
"AcmSymBB|Product Description: AutoCAD Mechanical 2000|Company: Autodesk"
 90
        0
280
     0
281
     0
  0
CLASS
  1
LONG_TRANSACTION
  2
AcDbLongTransaction
  3
AutoCAD 2000
 90
        0
280
     0
281
     0
  0
CLASS
  1
LWPOLYLINE
  2
AcDbPolyline
  3
AutoCAD 2000
 90
        0
280
     0
281
     1
  0
CLASS
  1
HATCH
  2
AcDbHatch
  3
AutoCAD 2000
 90
        0
280
     0
281
     1
  0
CLASS
  1
XRECORD
  2
AcDbXrecord
  3
AutoCAD 2000
 90
        0
280
     0
281
     0
  0
ENDSEC
  0
SECTION
  2
TABLES
  0
TABLE
  2
VPORT
  5
8
330
0
100
AcDbSymbolTable
 70
     3
  0
VPORT
  5
76B1
330
8
100
AcDbSymbolTableRecord
100
AcDbViewportTableRecord
  2
*ACTIVE
 70
     0
 10
0.0
 20
0.0
 11
1.0
 21
1.0
 12
-35.92818032407532
 22
23.11161263703599
 13
0.0
 23
0.0
 14
2.5
 24
2.5
 15
10.0
 25
10.0
 16
0.0
 26
0.0
 36
1.0
 17
0.0
 27
0.0
 37
0.0
 40
190.3872562296379
 41
1.609042553191489
 42
50.0
 43
0.0
 44
0.0
 50
0.0
 51
0.0
 71
     0
 72
   100
 73
     1
 74
     3
 75
     0
 76
     0
 77
     0
 78
     0
  0
ENDTAB
  0
TABLE
  2
LTYPE
  5
5
330
0
100
AcDbSymbolTable
 70
    10
  0
LTYPE
  5
14
330
5
100
AcDbSymbolTableRecord
100
AcDbLinetypeTableRecord
  2
BYBLOCK
 70
     0
  3

 72
    65
 73
     0
 40
0.0
  0
LTYPE
  5
15
330
5
100
AcDbSymbolTableRecord
100
AcDbLinetypeTableRecord
  2
BYLAYER
 70
     0
  3

 72
    65
 73
     0
 40
0.0
  0
LTYPE
  5
16
330
5
100
AcDbSymbolTableRecord
100
AcDbLinetypeTableRecord
  2
CONTINUOUS
 70
     0
  3
Solid line
 72
    65
 73
     0
 40
0.0
  0
LTYPE
  5
4B
330
5
100
AcDbSymbolTableRecord
100
AcDbLinetypeTableRecord
  2
AM_ISO02W050
 70
     0
  3
__ __ __ __ __ __ __ __ __ __ __ __ __ __ __
 72
    65
 73
     2
 40
7.5
 49
6.0
 74
     0
 49
-1.5
 74
     0
  0
LTYPE
  5
4C
330
5
100
AcDbSymbolTableRecord
100
AcDbLinetypeTableRecord
  2
AM_ISO08W050
 70
     0
  3
____ . ____ . ____ . ____ . ____ . ____ . ____
 72
    65
 73
     4
 40
18.0
 49
12.0
 74
     0
 49
-1.5
 74
     0
 49
3.0
 74
     0
 49
-1.5
 74
     0
  0
LTYPE
  5
4D
330
5
100
AcDbSymbolTableRecord
100
AcDbLinetypeTableRecord
  2
AM_ISO09W050
 70
     0
  3
_____ . . _____ . . _____ . . ____ .. ____
 72
    65
 73
     6
 40
22.5
 49
12.0
 74
     0
 49
-1.5
 74
     0
 49
3.0
 74
     0
 49
-1.5
 74
     0
 49
3.0
 74
     0
 49
-1.5
 74
     0
  0
LTYPE
  5
4E
330
5
100
AcDbSymbolTableRecord
100
AcDbLinetypeTableRecord
  2
AMCONSTR
 70
     0
  3
_______________________
 72
    65
 73
     2
 40
9999.0
 49
9999.0
 74
     0
 49
0.0
 74
     0
  0
LTYPE
  5
4F
330
5
100
AcDbSymbolTableRecord
100
AcDbLinetypeTableRecord
  2
AM_ISO02W050X2
 70
     0
  3
 _ _ _ _ _ _ _ _ _ _ _ _
 72
    65
 73
     2
 40
3.75
 49
3.0
 74
     0
 49
-0.75
 74
     0
  0
LTYPE
  5
50
330
5
100
AcDbSymbolTableRecord
100
AcDbLinetypeTableRecord
  2
AM_ISO08W050X2
 70
     0
  3
__ . __ . __ . __ . __ . __
 72
    65
 73
     4
 40
9.0
 49
6.0
 74
     0
 49
-0.75
 74
     0
 49
1.5
 74
     0
 49
-0.75
 74
     0
  0
LTYPE
  5
53
330
5
100
AcDbSymbolTableRecord
100
AcDbLinetypeTableRecord
  2
AMZIGZAG
 70
     0
  3
/\/-/\/-/\/-/\/-/\/-/\/
 72
    65
 73
     2
 40
11.00009999999999
 49
0.0001
 74
     4
 75
   135
340
52
 46
0.04
 50
0.0
 44
0.0
 45
0.0
 49
-11.0
 74
     0
  0
LTYPE
  5
166
330
5
100
AcDbSymbolTableRecord
100
AcDbLinetypeTableRecord
  2
ACJISTGL
 70
     0
  3
_ _ _ _ _
 72
    65
 73
     2
 40
3.0
 49
2.0
 74
     0
 49
-1.0
 74
     0
  0
LTYPE
  5
26A
330
5
100
AcDbSymbolTableRecord
100
AcDbLinetypeTableRecord
  2
ACJISTGB
 70
     0
  3
__ . . __ . .
 72
    65
 73
     6
 40
9.0
 49
4.0
 74
     0
 49
-1.0
 74
     0
 49
1.0
 74
     0
 49
-1.0
 74
     0
 49
1.0
 74
     0
 49
-1.0
 74
     0
  0
ENDTAB
  0
TABLE
  2
LAYER
  5
2
330
0
100
AcDbSymbolTable
 70
     7
  0
LAYER
  5
10
330
2
100
AcDbSymbolTableRecord
100
AcDbLayerTableRecord
  2
0
 70
     0
 62
     7
  6
CONTINUOUS
  0
LAYER
  5
3F9
330
2
100
AcDbSymbolTableRecord
100
AcDbLayerTableRecord
  2
AM_0
 70
     0
 62
     7
  6
CONTINUOUS
  0
LAYER
  5
BD6
330
2
100
AcDbSymbolTableRecord
100
AcDbLayerTableRecord
  2
AM_11
 70
     0
 62
     3
  6
AM_ISO09W050
  0
LAYER
  5
BD7
330
2
100
AcDbSymbolTableRecord
100
AcDbLayerTableRecord
  2
AM_7
 70
     0
 62
     4
  6
AM_ISO08W050
  0
LAYER
  5
BD8
330
2
100
AcDbSymbolTableRecord
100
AcDbLayerTableRecord
  2
AM_5
 70
     0
 62
     3
  6
CONTINUOUS
  0
LAYER
  5
BD9
330
2
100
AcDbSymbolTableRecord
100
AcDbLayerTableRecord
  2
DEFPOINTS
 70
     0
 62
     7
  6
CONTINUOUS
  0
LAYER
  5
BDA
330
2
100
AcDbSymbolTableRecord
100
AcDbLayerTableRecord
  2
AM_6
 70
     0
 62
     2
  6
CONTINUOUS
  0
ENDTAB
  0
TABLE
  2
STYLE
  5
3
330
0
100
AcDbSymbolTable
 70
     5
  0
STYLE
  5
11
330
3
100
AcDbSymbolTableRecord
100
AcDbTextStyleTableRecord
  2
STANDARD
 70
     0
 40
0.0
 41
1.0
 50
0.0
 71
     0
 42
2.5
  3
simplex.shx
  4
EXTFONT.SHX
  0
STYLE
  5
52
330
3
100
AcDbSymbolTableRecord
100
AcDbTextStyleTableRecord
  2

 70
     1
 40
0.0
 41
1.0
 50
0.0
 71
     0
 42
2.5
  3
ltypeshp.shx
  4

  0
STYLE
  5
6B
330
3
100
AcDbSymbolTableRecord
100
AcDbTextStyleTableRecord
  2
ASAMI
 70
     0
 40
0.0
 41
1.0
 50
0.0
 71
     0
 42
2.5
  3
simplex.shx
  4
EXTFONT.SHX
  0
STYLE
  5
262
330
3
100
AcDbSymbolTableRecord
100
AcDbTextStyleTableRecord
  2
ACJISTS
 70
     0
 40
1.0
 41
1.0
 50
0.0
 71
     0
 42
2.5
  3
simplex.shx
  4
bigfont.shx
  0
STYLE
  5
269
330
3
100
AcDbSymbolTableRecord
100
AcDbTextStyleTableRecord
  2
ACJISGDT
 70
     0
 40
0.0
 41
1.0
 50
0.0
 71
     0
 42
2.5
  3
amgdtans.shx
  4

  0
ENDTAB
  0
TABLE
  2
VIEW
  5
6
330
0
100
AcDbSymbolTable
 70
     0
  0
ENDTAB
  0
TABLE
  2
UCS
  5
7
330
0
100
AcDbSymbolTable
 70
     0
  0
ENDTAB
  0
TABLE
  2
APPID
  5
9
330
0
100
AcDbSymbolTable
 70
    14
  0
APPID
  5
12
330
9
100
AcDbSymbolTableRecord
100
AcDbRegAppTableRecord
  2
ACAD
 70
     0
  0
APPID
  5
30
330
9
100
AcDbSymbolTableRecord
100
AcDbRegAppTableRecord
  2
MCAD_NO_VIS
 70
     0
  0
APPID
  5
31
330
9
100
AcDbSymbolTableRecord
100
AcDbRegAppTableRecord
  2
ACAD_TEMP_GRAPHIC
 70
     0
  0
APPID
  5
2C2
330
9
100
AcDbSymbolTableRecord
100
AcDbRegAppTableRecord
  2
GENIUS_GENDTOL_13
 70
     0
  0
APPID
  5
339
330
9
100
AcDbSymbolTableRecord
100
AcDbRegAppTableRecord
  2
GENIUS_GENODEF_13
 70
     0
  0
APPID
  5
33A
330
9
100
AcDbSymbolTableRecord
100
AcDbRegAppTableRecord
  2
GENIUS_GENOBJ-N-RSBK_13
 70
     0
  0
APPID
  5
33B
330
9
100
AcDbSymbolTableRecord
100
AcDbRegAppTableRecord
  2
GENIUS_GENOBJ-N-LIB_13
 70
     0
  0
APPID
  5
33C
330
9
100
AcDbSymbolTableRecord
100
AcDbRegAppTableRecord
  2
GENIUS_GENSCALE_13
 70
     0
  0
APPID
  5
378
330
9
100
AcDbSymbolTableRecord
100
AcDbRegAppTableRecord
  2
GENIUS_GENDIMSH_14
 70
     0
  0
APPID
  5
BDB
330
9
100
AcDbSymbolTableRecord
100
AcDbRegAppTableRecord
  2
GENIUS_GENOBJ-N-CEN_13
 70
     0
  0
APPID
  5
BDC
330
9
100
AcDbSymbolTableRecord
100
AcDbRegAppTableRecord
  2
GENIUS_GENFIL_13
 70
     0
  0
APPID
  5
BDD
330
9
100
AcDbSymbolTableRecord
100
AcDbRegAppTableRecord
  2
GENIUS_GENOBJ-N-FIL_13
 70
     0
  0
APPID
  5
12AD
330
9
100
AcDbSymbolTableRecord
100
AcDbRegAppTableRecord
  2
GENIUS_GENOREF_13
 70
     0
  0
APPID
  5
65EE
330
9
100
AcDbSymbolTableRecord
100
AcDbRegAppTableRecord
  2
GENIUS_GENOBJ-N-CHA_13
 70
     0
  0
ENDTAB
  0
TABLE
  2
DIMSTYLE
  5
A
330
0
100
AcDbSymbolTable
 70
     8
  0
DIMSTYLE
105
58
102
{ACAD_REACTORS
330
66C8
330
6754
330
67FE
330
68AE
330
6E42
330
6F2E
102
}
330
A
100
AcDbSymbolTableRecord
100
AcDbDimStyleTableRecord
  2
AM_JIS
 70
     0
  3

  4
"
  5
OPEN30
  6

  7

 40
1.0
 41
2.5
 42
1.0
 43
12.0
 44
1.0
 45
0.0
 46
0.0
 47
0.1
 48
0.1
140
3.2
141
0.0
142
0.0
143
0.0393701
144
1.0
145
0.0
146
0.71
147
1.5
 71
     0
 72
     0
 73
     0
 74
     0
 75
     0
 76
     0
 77
     3
 78
     8
170
     0
171
     2
172
     1
173
     0
174
     0
175
     0
176
     3
177
     3
178
     2
270
     2
271
     3
272
     3
273
     2
274
     2
340
6B
275
     0
280
     0
281
     0
282
     0
283
     0
284
     0
285
     0
286
     0
287
     3
288
     0
  0
DIMSTYLE
105
5F
330
A
100
AcDbSymbolTableRecord
100
AcDbDimStyleTableRecord
  2
AM_JIS$3
 70
     0
  3

  4
"
  5
OPEN30
  6

  7

 40
1.0
 41
2.5
 42
1.0
 43
10.0
 44
1.0
 45
0.0
 46
0.0
 47
0.1
 48
0.1
140
3.2
141
0.0
142
0.0
143
0.0393701
144
1.0
145
0.0
146
0.71
147
1.5
 71
     0
 72
     0
 73
     0
 74
     1
 75
     0
 76
     0
 77
     3
 78
     8
170
     0
171
     2
172
     0
173
     0
174
     0
175
     0
176
     3
177
     3
178
     2
270
     2
271
     2
272
     3
273
     2
274
     2
340
6B
275
     0
280
     0
281
     0
282
     0
283
     0
284
     0
285
     0
286
     0
287
     0
288
     1
  0
DIMSTYLE
105
60
330
A
100
AcDbSymbolTableRecord
100
AcDbDimStyleTableRecord
  2
AM_JIS$4
 70
     0
  3

  4
"
  5
OPEN30
  6

  7

 40
1.0
 41
2.5
 42
1.0
 43
10.0
 44
1.0
 45
0.0
 46
0.0
 47
0.1
 48
0.1
140
3.2
141
0.0
142
0.0
143
0.0393701
144
1.0
145
0.0
146
0.71
147
1.5
 71
     0
 72
     0
 73
     0
 74
     1
 75
     0
 76
     0
 77
     3
 78
     8
170
     0
171
     2
172
     0
173
     0
174
     0
175
     0
176
     3
177
     3
178
     2
270
     2
271
     2
272
     3
273
     2
274
     2
340
6B
275
     0
280
     0
281
     0
282
     0
283
     0
284
     0
285
     0
286
     0
287
     0
288
     1
  0
DIMSTYLE
105
61
330
A
100
AcDbSymbolTableRecord
100
AcDbDimStyleTableRecord
  2
AM_JIS$6
 70
     0
  3

  4
"
  5
OPEN30
  6

  7

 40
1.0
 41
2.5
 42
1.0
 43
10.0
 44
1.0
 45
0.0
 46
0.0
 47
0.1
 48
0.1
140
3.2
141
0.0
142
0.0
143
0.0393701
144
1.0
145
0.0
146
0.71
147
1.5
 71
     0
 72
     0
 73
     0
 74
     0
 75
     0
 76
     0
 77
     0
 78
     8
170
     0
171
     2
172
     1
173
     0
174
     0
175
     0
176
     3
177
     3
178
     2
270
     2
271
     2
272
     2
273
     2
274
     2
340
6B
275
     0
280
     0
281
     0
282
     0
283
     0
284
     0
285
     0
286
     0
287
     3
288
     0
  0
DIMSTYLE
105
62
330
A
100
AcDbSymbolTableRecord
100
AcDbDimStyleTableRecord
  2
AM_JIS$7
 70
     0
  3

  4
"
  5
OPEN30
  6

  7

 40
1.0
 41
2.5
 42
1.0
 43
10.0
 44
1.0
 45
0.0
 46
0.0
 47
0.1
 48
0.1
140
3.2
141
0.0
142
0.0
143
0.0393701
144
1.0
145
0.0
146
0.71
147
1.5
 71
     0
 72
     0
 73
     0
 74
     0
 75
     0
 76
     0
 77
     3
 78
     8
170
     0
171
     2
172
     1
173
     0
174
     0
175
     0
176
     3
177
     3
178
     2
270
     2
271
     2
272
     3
273
     2
274
     2
340
6B
275
     0
280
     0
281
     0
282
     0
283
     0
284
     0
285
     0
286
     0
287
     3
288
     0
  0
DIMSTYLE
105
63
330
A
100
AcDbSymbolTableRecord
100
AcDbDimStyleTableRecord
  2
AM_JIS$SF
 70
     0
  3

  4
"
  5
OPEN30
  6

  7

 40
1.0
 41
2.5
 42
1.0
 43
10.0
 44
1.0
 45
0.0
 46
0.0
 47
0.1
 48
0.1
140
3.2
141
0.0
142
0.0
143
0.0393701
144
1.0
145
0.0
146
0.71
147
1.5
 71
     0
 72
     0
 73
     0
 74
     0
 75
     1
 76
     1
 77
     3
 78
     8
170
     0
171
     2
172
     1
173
     0
174
     0
175
     0
176
   256
177
   256
178
     2
270
     2
271
     2
272
     2
273
     2
274
     2
340
6B
275
     0
280
     0
281
     0
282
     0
283
     0
284
     0
285
     0
286
     0
287
     3
288
     0
  0
DIMSTYLE
105
68
330
A
100
AcDbSymbolTableRecord
100
AcDbDimStyleTableRecord
  2
AM_JIS$SH
 70
     0
  3

  4
"
  5

  6
GENAXEH
  7
OPEN30
 40
1.0
 41
2.5
 42
1.0
 43
10.0
 44
1.0
 45
0.0
 46
0.0
 47
0.1
 48
0.1
140
3.2
141
0.0
142
0.0
143
0.0393701
144
2.0
145
0.0
146
0.71
147
1.5
 71
     0
 72
     0
 73
     0
 74
     0
 75
     1
 76
     1
 77
     3
 78
     8
170
     0
171
     2
172
     1
173
     1
174
     0
175
     0
176
   256
177
   256
178
     2
270
     2
271
     2
272
     2
273
     2
274
     2
340
6B
275
     0
280
     0
281
     0
282
     0
283
     0
284
     0
285
     0
286
     0
287
     3
288
     0
  0
DIMSTYLE
105
B34
102
{ACAD_REACTORS
330
6965
330
718B
330
753F
330
6CF0
330
6A41
102
}
330
A
100
AcDbSymbolTableRecord
100
AcDbDimStyleTableRecord
  2
AM_JIS$2
 70
     0
  3

  4
"
  5
OPEN30
  6

  7

 40
1.0
 41
2.5
 42
1.0
 43
12.0
 44
1.0
 45
0.0
 46
0.0
 47
0.1
 48
0.1
140
3.2
141
0.0
142
0.0
143
0.0393701
144
1.0
145
0.0
146
0.71
147
1.5
 71
     0
 72
     0
 73
     0
 74
     0
 75
     0
 76
     0
 77
     3
 78
     8
170
     0
171
     2
172
     1
173
     0
174
     0
175
     0
176
     3
177
     3
178
     2
270
     2
271
     3
272
     3
273
     2
274
     2
340
6B
275
     0
280
     0
281
     0
282
     0
283
     0
284
     0
285
     0
286
     0
287
     3
288
     0
  0
ENDTAB
  0
TABLE
  2
BLOCK_RECORD
  5
1
330
0
100
AcDbSymbolTable
 70
    16
  0
BLOCK_RECORD
  5
1F
102
{ACAD_XDICTIONARY
360
74
102
}
330
1
100
AcDbSymbolTableRecord
100
AcDbBlockTableRecord
  2
*MODEL_SPACE
  0
BLOCK_RECORD
  5
101
102
{ACAD_XDICTIONARY
360
76DA
102
}
330
1
100
AcDbSymbolTableRecord
100
AcDbBlockTableRecord
  2
*PAPER_SPACE
  0
BLOCK_RECORD
  5
59
330
1
100
AcDbSymbolTableRecord
100
AcDbBlockTableRecord
  2
_OPEN30
  0
BLOCK_RECORD
  5
64
330
1
100
AcDbSymbolTableRecord
100
AcDbBlockTableRecord
  2
GENAXEH
  0
BLOCK_RECORD
  5
66C9
330
1
100
AcDbSymbolTableRecord
100
AcDbBlockTableRecord
  2
*D5
  0
BLOCK_RECORD
  5
6755
330
1
100
AcDbSymbolTableRecord
100
AcDbBlockTableRecord
  2
*D6
  0
BLOCK_RECORD
  5
67FF
330
1
100
AcDbSymbolTableRecord
100
AcDbBlockTableRecord
  2
*D7
  0
BLOCK_RECORD
  5
68AF
330
1
100
AcDbSymbolTableRecord
100
AcDbBlockTableRecord
  2
*D8
  0
BLOCK_RECORD
  5
6966
330
1
100
AcDbSymbolTableRecord
100
AcDbBlockTableRecord
  2
*D9
  0
BLOCK_RECORD
  5
6A42
330
1
100
AcDbSymbolTableRecord
100
AcDbBlockTableRecord
  2
*D10
  0
BLOCK_RECORD
  5
6CF1
330
1
100
AcDbSymbolTableRecord
100
AcDbBlockTableRecord
  2
*D11
  0
BLOCK_RECORD
  5
6E43
330
1
100
AcDbSymbolTableRecord
100
AcDbBlockTableRecord
  2
*D12
  0
BLOCK_RECORD
  5
6F2F
330
1
100
AcDbSymbolTableRecord
100
AcDbBlockTableRecord
  2
*D13
  0
BLOCK_RECORD
  5
718C
330
1
100
AcDbSymbolTableRecord
100
AcDbBlockTableRecord
  2
*D14
  0
BLOCK_RECORD
  5
7540
330
1
100
AcDbSymbolTableRecord
100
AcDbBlockTableRecord
  2
*D15
  0
ENDTAB
  0
ENDSEC
  0
SECTION
  2
BLOCKS
  0
BLOCK
  5
20
330
1F
100
AcDbEntity
  8
0
100
AcDbBlockBegin
  2
*MODEL_SPACE
 70
     0
 10
0.0
 20
0.0
 30
0.0
  3
*MODEL_SPACE
  1

  0
ENDBLK
  5
21
330
1F
100
AcDbEntity
  8
0
100
AcDbBlockEnd
  0
BLOCK
  5
103
330
101
100
AcDbEntity
 67
     1
  8
0
100
AcDbBlockBegin
  2
*PAPER_SPACE
 70
     0
 10
0.0
 20
0.0
 30
0.0
  3
*PAPER_SPACE
  1

  0
ENDBLK
  5
104
330
101
100
AcDbEntity
 67
     1
  8
0
100
AcDbBlockEnd
  0
BLOCK
  5
5D
330
59
100
AcDbEntity
  8
0
100
AcDbBlockBegin
  2
_OPEN30
 70
     0
 10
0.0
 20
0.0
 30
0.0
  3
_OPEN30
  1

  0
LINE
  5
5A
330
59
100
AcDbEntity
  8
0
 62
     0
100
AcDbLine
 10
-1.0
 20
0.26794919
 30
0.0
 11
0.0
 21
0.0
 31
0.0
  0
LINE
  5
5B
330
59
100
AcDbEntity
  8
0
 62
     0
100
AcDbLine
 10
0.0
 20
0.0
 30
0.0
 11
-1.0
 21
-0.26794919
 31
0.0
  0
LINE
  5
5C
330
59
100
AcDbEntity
  8
0
 62
     0
100
AcDbLine
 10
0.0
 20
0.0
 30
0.0
 11
-1.0
 21
0.0
 31
0.0
  0
ENDBLK
  5
5E
330
59
100
AcDbEntity
  8
0
100
AcDbBlockEnd
  0
BLOCK
  5
66
330
64
100
AcDbEntity
  8
0
100
AcDbBlockBegin
  2
GENAXEH
 70
     0
 10
0.0
 20
0.0
 30
0.0
  3
GENAXEH
  1

  0
LINE
  5
65
330
64
100
AcDbEntity
  8
0
100
AcDbLine
 10
-1.0
 20
0.0
 30
0.0
 11
1.0
 21
0.0
 31
0.0
  0
ENDBLK
  5
67
330
64
100
AcDbEntity
  8
0
100
AcDbBlockEnd
  0
BLOCK
  5
66D3
330
66C9
100
AcDbEntity
  8
0
100
AcDbBlockBegin
  2
*D5
 70
     1
 10
0.0
 20
0.0
 30
0.0
  3
*D5
  1

  0
LINE
  5
7677
330
66C9
100
AcDbEntity
  8
AM_5
 62
     3
100
AcDbLine
 10
0.1999999999999928
 20
0.1999999999999806
 30
0.0
 11
0.1999999999999937
 21
15.00000100999994
 31
0.0
  0
LINE
  5
7678
330
66C9
100
AcDbEntity
  8
AM_5
 62
     3
100
AcDbLine
 10
-31.79999999999999
 20
-11.42553502560841
 30
0.0
 11
-31.79999999999999
 21
15.00000100999994
 31
0.0
  0
LINE
  5
7679
330
66C9
100
AcDbEntity
  8
AM_5
 62
     3
100
AcDbLine
 10
-2.300000000000006
 20
14.00000100999994
 30
0.0
 11
-29.29999999999999
 21
14.00000100999994
 31
0.0
  0
INSERT
  5
767A
330
66C9
100
AcDbEntity
  8
AM_5
 62
     3
100
AcDbBlockReference
  2
_OPEN30
 10
0.1999999999999936
 20
14.00000100999994
 30
0.0
 41
2.5
 42
2.5
 43
2.5
  0
INSERT
  5
767B
330
66C9
100
AcDbEntity
  8
AM_5
 62
     3
100
AcDbBlockReference
  2
_OPEN30
 10
-31.79999999999999
 20
14.00000100999994
 30
0.0
 41
2.5
 42
2.5
 43
2.5
 50
180.0
  0
MTEXT
  5
767C
330
66C9
100
AcDbEntity
  8
AM_5
 62
     2
100
AcDbMText
 10
-15.8
 20
17.10000100999994
 30
0.0
 40
3.2
 41
0.0
 71
     5
 72
     1
  1
32
  7
ASAMI
1001
ACAD
1000
MTEXTBEGIN
1070
    73
1070
     1
1070
    44
1040
1.0
1070
    74
1070
     0
1000
MTEXTEND
  0
POINT
  5
767D
330
66C9
100
AcDbEntity
  8
DEFPOINTS
 62
     0
100
AcDbPoint
 10
0.1999999999999927
 20
-0.8000000000000193
 30
0.0
  0
POINT
  5
767E
330
66C9
100
AcDbEntity
  8
DEFPOINTS
 62
     0
100
AcDbPoint
 10
-31.79999999999999
 20
-12.42553502560842
 30
0.0
  0
POINT
  5
767F
330
66C9
100
AcDbEntity
  8
DEFPOINTS
 62
     0
100
AcDbPoint
 10
-31.79999999999999
 20
14.00000100999994
 30
0.0
  0
ENDBLK
  5
66D4
330
66C9
100
AcDbEntity
  8
0
100
AcDbBlockEnd
  0
BLOCK
  5
675F
330
6755
100
AcDbEntity
  8
0
100
AcDbBlockBegin
  2
*D6
 70
     1
 10
0.0
 20
0.0
 30
0.0
  3
*D6
  1

  0
LINE
  5
761F
330
6755
100
AcDbEntity
  8
AM_5
 62
     3
100
AcDbLine
 10
0.1999999999999928
 20
1.19999999999998
 30
0.0
 11
0.1999999999999944
 21
26.45368048092884
 31
0.0
  0
LINE
  5
7620
330
6755
100
AcDbEntity
  8
AM_5
 62
     3
100
AcDbLine
 10
-169.7999999999999
 20
-5.999906609379117
 30
0.0
 11
-169.7999999999999
 21
26.45368048092884
 31
0.0
  0
LINE
  5
7621
330
6755
100
AcDbEntity
  8
AM_5
 62
     3
100
AcDbLine
 10
-2.300000000000005
 20
25.45368048092884
 30
0.0
 11
-167.2999999999999
 21
25.45368048092884
 31
0.0
  0
INSERT
  5
7622
330
6755
100
AcDbEntity
  8
AM_5
 62
     3
100
AcDbBlockReference
  2
_OPEN30
 10
0.1999999999999943
 20
25.45368048092884
 30
0.0
 41
2.5
 42
2.5
 43
2.5
  0
INSERT
  5
7623
330
6755
100
AcDbEntity
  8
AM_5
 62
     3
100
AcDbBlockReference
  2
_OPEN30
 10
-169.7999999999999
 20
25.45368048092884
 30
0.0
 41
2.5
 42
2.5
 43
2.5
 50
180.0
  0
MTEXT
  5
7624
330
6755
100
AcDbEntity
  8
AM_5
 62
     2
100
AcDbMText
 10
-84.8
 20
28.55368048092884
 30
0.0
 40
3.2
 41
0.0
 71
     5
 72
     1
  1
170
  7
ASAMI
1001
ACAD
1000
MTEXTBEGIN
1070
    73
1070
     1
1070
    44
1040
1.0
1070
    74
1070
     0
1000
MTEXTEND
  0
POINT
  5
7625
330
6755
100
AcDbEntity
  8
DEFPOINTS
 62
     0
100
AcDbPoint
 10
0.1999999999999927
 20
0.1999999999999806
 30
0.0
  0
POINT
  5
7626
330
6755
100
AcDbEntity
  8
DEFPOINTS
 62
     0
100
AcDbPoint
 10
-169.7999999999999
 20
-6.999906609379117
 30
0.0
  0
POINT
  5
7627
330
6755
100
AcDbEntity
  8
DEFPOINTS
 62
     0
100
AcDbPoint
 10
-169.7999999999999
 20
25.45368048092884
 30
0.0
  0
ENDBLK
  5
6760
330
6755
100
AcDbEntity
  8
0
100
AcDbBlockEnd
  0
BLOCK
  5
6809
330
67FF
100
AcDbEntity
  8
0
100
AcDbBlockBegin
  2
*D7
 70
     1
 10
0.0
 20
0.0
 30
0.0
  3
*D7
  1

  0
LINE
  5
7631
330
67FF
100
AcDbEntity
  8
AM_5
 62
     3
100
AcDbLine
 10
-170.8
 20
-6.99990660937911
 30
0.0
 11
-184.8
 21
-6.999906609379106
 31
0.0
  0
LINE
  5
7632
330
67FF
100
AcDbEntity
  8
AM_5
 62
     3
100
AcDbLine
 10
-170.8
 20
-32.00000000000003
 30
0.0
 11
-184.8
 21
-32.00000000000002
 31
0.0
  0
LINE
  5
7633
330
67FF
100
AcDbEntity
  8
AM_5
 62
     3
100
AcDbLine
 10
-183.8
 20
-9.499906609379106
 30
0.0
 11
-183.8
 21
-29.50000000000003
 31
0.0
  0
INSERT
  5
7634
330
67FF
100
AcDbEntity
  8
AM_5
 62
     3
100
AcDbBlockReference
  2
_OPEN30
 10
-183.8
 20
-6.999906609379106
 30
0.0
 41
2.5
 42
2.5
 43
2.5
 50
90.0
  0
INSERT
  5
7635
330
67FF
100
AcDbEntity
  8
AM_5
 62
     3
100
AcDbBlockReference
  2
_OPEN30
 10
-183.8
 20
-32.00000000000002
 30
0.0
 41
2.5
 42
2.5
 43
2.5
 50
270.0
  0
MTEXT
  5
7636
330
67FF
100
AcDbEntity
  8
AM_5
 62
     2
100
AcDbMText
 10
-186.8999999999999
 20
-19.49995330468959
 30
0.0
 40
3.2
 41
0.0
 71
     5
 72
     1
  1
25
  7
ASAMI
 11
0.0000000000000001
 21
1.0
 31
0.0
1001
ACAD
1000
MTEXTBEGIN
1070
    73
1070
     1
1070
    44
1040
1.0
1070
    74
1070
     0
1000
MTEXTEND
  0
POINT
  5
7637
330
67FF
100
AcDbEntity
  8
DEFPOINTS
 62
     0
100
AcDbPoint
 10
-169.8
 20
-6.99990660937911
 30
0.0
  0
POINT
  5
7638
330
67FF
100
AcDbEntity
  8
DEFPOINTS
 62
     0
100
AcDbPoint
 10
-169.8
 20
-32.00000000000003
 30
0.0
  0
POINT
  5
7639
330
67FF
100
AcDbEntity
  8
DEFPOINTS
 62
     0
100
AcDbPoint
 10
-183.8
 20
-32.00000000000002
 30
0.0
  0
ENDBLK
  5
680A
330
67FF
100
AcDbEntity
  8
0
100
AcDbBlockEnd
  0
BLOCK
  5
68B9
330
68AF
100
AcDbEntity
  8
0
100
AcDbBlockBegin
  2
*D8
 70
     1
 10
0.0
 20
0.0
 30
0.0
  3
*D8
  1

  0
LINE
  5
7666
330
68AF
100
AcDbEntity
  8
AM_5
 62
     3
100
AcDbLine
 10
-16.54777173629188
 20
-32.00000000000007
 30
0.0
 11
26.66811648554262
 21
-32.00000000000008
 31
0.0
  0
LINE
  5
7667
330
68AF
100
AcDbEntity
  8
AM_5
 62
     3
100
AcDbLine
 10
0.3999999999999955
 20
-0.0000000000000083
 30
0.0
 11
26.66811648554263
 21
-0.0000000000000157
 31
0.0
  0
LINE
  5
7668
330
68AF
100
AcDbEntity
  8
AM_5
 62
     3
100
AcDbLine
 10
25.66811648554262
 20
-29.50000000000008
 30
0.0
 11
25.66811648554263
 21
-2.500000000000015
 31
0.0
  0
INSERT
  5
7669
330
68AF
100
AcDbEntity
  8
AM_5
 62
     3
100
AcDbBlockReference
  2
_OPEN30
 10
25.66811648554262
 20
-32.00000000000008
 30
0.0
 41
2.5
 42
2.5
 43
2.5
 50
270.0
  0
INSERT
  5
766A
330
68AF
100
AcDbEntity
  8
AM_5
 62
     3
100
AcDbBlockReference
  2
_OPEN30
 10
25.66811648554263
 20
-0.0000000000000154
 30
0.0
 41
2.5
 42
2.5
 43
2.5
 50
90.0
  0
MTEXT
  5
766B
330
68AF
100
AcDbEntity
  8
AM_5
 62
     2
100
AcDbMText
 10
22.56811648554263
 20
-16.00000000000004
 30
0.0
 40
3.2
 41
0.0
 71
     5
 72
     1
  1
32
  7
ASAMI
 11
0.0000000000000001
 21
1.0
 31
0.0
1001
ACAD
1000
MTEXTBEGIN
1070
    73
1070
     1
1070
    44
1040
1.0
1070
    74
1070
     0
1000
MTEXTEND
  0
POINT
  5
766C
330
68AF
100
AcDbEntity
  8
DEFPOINTS
 62
     0
100
AcDbPoint
 10
-17.54777173629189
 20
-32.00000000000007
 30
0.0
  0
POINT
  5
766D
330
68AF
100
AcDbEntity
  8
DEFPOINTS
 62
     0
100
AcDbPoint
 10
-0.6000000000000045
 20
-0.000000000000008
 30
0.0
  0
POINT
  5
766E
330
68AF
100
AcDbEntity
  8
DEFPOINTS
 62
     0
100
AcDbPoint
 10
25.66811648554263
 20
-0.0000000000000154
 30
0.0
  0
ENDBLK
  5
68BA
330
68AF
100
AcDbEntity
  8
0
100
AcDbBlockEnd
  0
BLOCK
  5
6974
330
6966
100
AcDbEntity
  8
0
100
AcDbBlockBegin
  2
*D9
 70
     1
 10
0.0
 20
0.0
 30
0.0
  3
*D9
  1

  0
LINE
  5
765B
330
6966
100
AcDbEntity
  8
AM_5
 62
     3
100
AcDbLine
 10
1.276244992192926
 20
0.1672060368488496
 30
0.0
 11
26.5710120322432
 21
2.380211399382471
 31
0.0
  0
LINE
  5
765C
330
6966
100
AcDbEntity
  8
AM_5
 62
     3
100
AcDbLine
 10
0.3672060368488434
 20
1.076244992192935
 30
0.0
 11
2.580211399382541
 21
26.3710120322432
 31
0.0
  0
ARC
  5
765D
330
6966
100
AcDbEntity
  8
AM_5
 62
     3
100
AcDbCircle
 10
0.2800502941011808
 20
0.0800502941011904
 30
0.0
 40
25.39138894084008
100
AcDbArc
 50
10.64354197602774
 51
79.35645802397205
  0
INSERT
  5
765E
330
6966
100
AcDbEntity
  8
AM_5
 62
     3
100
AcDbBlockReference
  2
_OPEN30
 10
25.57481733415145
 20
2.293055656634811
 30
0.0
 41
2.5
 42
2.5
 43
2.5
 50
277.8217709880138
  0
INSERT
  5
765F
330
6966
100
AcDbEntity
  8
AM_5
 62
     3
100
AcDbBlockReference
  2
_OPEN30
 10
2.493055656634879
 20
25.37481733415146
 30
0.0
 41
2.5
 42
2.5
 43
2.5
 50
172.1782290119859
  0
MTEXT
  5
7660
330
6966
100
AcDbEntity
  8
AM_5
 62
     2
100
AcDbMText
 10
20.42650461959265
 20
20.22650461959258
 30
0.0
 40
3.2
 41
0.0
 71
     5
 72
     1
  1
80°
  7
ASAMI
 11
0.7071067811865463
 21
-0.7071067811865488
 31
0.0
1001
ACAD
1000
MTEXTBEGIN
1070
    73
1070
     1
1070
    44
1040
1.0
1070
    74
1070
     0
1000
MTEXTEND
  0
POINT
  5
7661
330
6966
100
AcDbEntity
  8
DEFPOINTS
 62
     0
100
AcDbPoint
 10
21.89108475798264
 20
13.40993483020817
 30
0.0
  0
POINT
  5
7662
330
6966
100
AcDbEntity
  8
DEFPOINTS
 62
     0
100
AcDbPoint
 10
-0.6697245941981537
 20
-0.0030442415266032
 30
0.0
  0
POINT
  5
7663
330
6966
100
AcDbEntity
  8
DEFPOINTS
 62
     0
100
AcDbPoint
 10
0.1969557584733832
 20
-0.8697245941981543
 30
0.0
  0
POINT
  5
7664
330
6966
100
AcDbEntity
  8
DEFPOINTS
 62
     0
100
AcDbPoint
 10
-0.477098804404573
 20
-8.574203502807742
 30
0.0
  0
POINT
  5
7665
330
6966
100
AcDbEntity
  8
DEFPOINTS
 62
     0
100
AcDbPoint
 10
-8.374203502807699
 20
-0.677098804404531
 30
0.0
  0
ENDBLK
  5
6975
330
6966
100
AcDbEntity
  8
0
100
AcDbBlockEnd
  0
BLOCK
  5
6A50
330
6A42
100
AcDbEntity
  8
0
100
AcDbBlockBegin
  2
*D10
 70
     1
 10
0.0
 20
0.0
 30
0.0
  3
*D10
  1

  0
LINE
  5
76DC
330
6A42
100
AcDbEntity
  8
AM_5
 62
     3
100
AcDbLine
 10
0.2871557427476554
 20
0.161265943764973
 30
0.0
 11
2.578430791542853
 21
26.3506595915048
 31
0.0
  0
LINE
  5
76DD
330
6A42
100
AcDbEntity
  8
AM_5
 62
     3
100
AcDbLine
 10
0.199999999999993
 20
8.600000504999961
 30
0.0
 11
0.1999999999999944
 21
26.45450412250621
 31
0.0
  0
MTEXT
  5
76DE
330
6A42
100
AcDbEntity
  8
AM_5
 62
     2
100
AcDbMText
 10
2.554480134823733
 20
29.52775351477384
 30
0.0
 40
3.2
 41
0.0
 71
     5
 72
     1
  1
5°
  7
ASAMI
 11
0.9970068634525855
 21
-0.0773130922188306
 31
0.0
  0
POINT
  5
76DF
330
6A42
100
AcDbEntity
  8
DEFPOINTS
 62
     0
100
AcDbPoint
 10
0.9646207611386257
 20
25.44338238008867
 30
0.0
  0
POINT
  5
76E0
330
6A42
100
AcDbEntity
  8
DEFPOINTS
 62
     0
100
AcDbPoint
 10
0.1999999999999928
 20
7.600000504999961
 30
0.0
  0
POINT
  5
76E1
330
6A42
100
AcDbEntity
  8
DEFPOINTS
 62
     0
100
AcDbPoint
 10
0.1969557584733834
 20
-0.8697245941981543
 30
0.0
  0
POINT
  5
76E2
330
6A42
100
AcDbEntity
  8
DEFPOINTS
 62
     0
100
AcDbPoint
 10
-0.4770988044045726
 20
-8.574203502807744
 30
0.0
  0
POINT
  5
76E3
330
6A42
100
AcDbEntity
  8
DEFPOINTS
 62
     0
100
AcDbPoint
 10
0.1999999999999931
 20
-23.01775565150161
 30
0.0
  0
ENDBLK
  5
6A51
330
6A42
100
AcDbEntity
  8
0
100
AcDbBlockEnd
  0
BLOCK
  5
6CFF
330
6CF1
100
AcDbEntity
  8
0
100
AcDbBlockBegin
  2
*D11
 70
     1
 10
0.0
 20
0.0
 30
0.0
  3
*D11
  1

  0
LINE
  5
76E4
330
6CF1
100
AcDbEntity
  8
AM_5
 62
     3
100
AcDbLine
 10
8.399999999999989
 20
-0.000000000000008
 30
0.0
 11
26.66811648554259
 21
-0.000000000000008
 31
0.0
  0
LINE
  5
76E5
330
6CF1
100
AcDbEntity
  8
AM_5
 62
     3
100
AcDbLine
 10
0.3612659437648
 20
0.0871557427476512
 30
0.0
 11
26.56422015539016
 21
2.379617187153762
 31
0.0
  0
ARC
  5
76E6
330
6CF1
100
AcDbEntity
  8
AM_5
 62
     3
100
AcDbCircle
 10
-0.6349287543269454
 20
-0.000000000000008
 30
0.0
 40
26.30304523986954
100
AcDbArc
 50
10.44778821441287
 51
15.89557642882569
  0
ARC
  5
76E7
330
6CF1
100
AcDbEntity
  8
AM_5
 62
     3
100
AcDbCircle
 10
-0.6349287543269454
 20
-0.000000000000008
 30
0.0
 40
26.30304523986954
100
AcDbArc
 50
0.0
 51
5.000000000000057
  0
INSERT
  5
76E8
330
6CF1
100
AcDbEntity
  8
AM_5
 62
     3
100
AcDbBlockReference
  2
_OPEN30
 10
25.56802545729842
 20
2.292461444406103
 30
0.0
 41
2.5
 42
2.5
 43
2.5
 50
277.7238941072064
  0
MTEXT
  5
76E9
330
6CF1
100
AcDbEntity
  8
AM_5
 62
     2
100
AcDbMText
 10
29.57362133593777
 20
0.2722866279891524
 30
0.0
 40
3.2
 41
0.0
 71
     5
 72
     1
  1
5°
  7
ASAMI
 11
0.0090131955020084
 21
-0.9999593803284424
 31
0.0
  0
POINT
  5
76EA
330
6CF1
100
AcDbEntity
  8
DEFPOINTS
 62
     0
100
AcDbPoint
 10
25.62361589601306
 20
1.529386065296729
 30
0.0
  0
POINT
  5
76EB
330
6CF1
100
AcDbEntity
  8
DEFPOINTS
 62
     0
100
AcDbPoint
 10
7.399999999999988
 20
-0.000000000000008
 30
0.0
  0
POINT
  5
76EC
330
6CF1
100
AcDbEntity
  8
DEFPOINTS
 62
     0
100
AcDbPoint
 10
-0.6697245941981668
 20
-0.0030442415266032
 30
0.0
  0
POINT
  5
76ED
330
6CF1
100
AcDbEntity
  8
DEFPOINTS
 62
     0
100
AcDbPoint
 10
-8.374203502807709
 20
-0.6770988044045305
 30
0.0
  0
POINT
  5
76EE
330
6CF1
100
AcDbEntity
  8
DEFPOINTS
 62
     0
100
AcDbPoint
 10
-20.061695029804
 20
-0.000000000000008
 30
0.0
  0
ENDBLK
  5
6D00
330
6CF1
100
AcDbEntity
  8
0
100
AcDbBlockEnd
  0
BLOCK
  5
6E4D
330
6E43
100
AcDbEntity
  8
0
100
AcDbBlockBegin
  2
*D12
 70
     1
 10
0.0
 20
0.0
 30
0.0
  3
*D12
  1

  0
LINE
  5
7628
330
6E43
100
AcDbEntity
  8
AM_5
 62
     3
100
AcDbLine
 10
-170.8
 20
65.91296268268696
 30
0.0
 11
-184.7999999999999
 21
65.91296268268696
 31
0.0
  0
LINE
  5
7629
330
6E43
100
AcDbEntity
  8
AM_5
 62
     3
100
AcDbLine
 10
-170.8
 20
97.91296268268698
 30
0.0
 11
-184.7999999999999
 21
97.91296268268698
 31
0.0
  0
LINE
  5
762A
330
6E43
100
AcDbEntity
  8
AM_5
 62
     3
100
AcDbLine
 10
-183.7999999999999
 20
68.41296268268696
 30
0.0
 11
-183.7999999999999
 21
95.41296268268698
 31
0.0
  0
INSERT
  5
762B
330
6E43
100
AcDbEntity
  8
AM_5
 62
     3
100
AcDbBlockReference
  2
_OPEN30
 10
-183.7999999999999
 20
65.91296268268696
 30
0.0
 41
2.5
 42
2.5
 43
2.5
 50
270.0
  0
INSERT
  5
762C
330
6E43
100
AcDbEntity
  8
AM_5
 62
     3
100
AcDbBlockReference
  2
_OPEN30
 10
-183.7999999999999
 20
97.91296268268698
 30
0.0
 41
2.5
 42
2.5
 43
2.5
 50
90.0
  0
MTEXT
  5
762D
330
6E43
100
AcDbEntity
  8
AM_5
 62
     2
100
AcDbMText
 10
-186.8999999999999
 20
81.91296268268693
 30
0.0
 40
3.2
 41
0.0
 71
     5
 72
     1
  1
32
  7
ASAMI
 11
0.0000000000000001
 21
1.0
 31
0.0
1001
ACAD
1000
MTEXTBEGIN
1070
    73
1070
     1
1070
    44
1040
1.0
1070
    74
1070
     0
1000
MTEXTEND
  0
POINT
  5
762E
330
6E43
100
AcDbEntity
  8
DEFPOINTS
 62
     0
100
AcDbPoint
 10
-169.7999999999999
 20
65.91296268268696
 30
0.0
  0
POINT
  5
762F
330
6E43
100
AcDbEntity
  8
DEFPOINTS
 62
     0
100
AcDbPoint
 10
-169.8
 20
97.91296268268698
 30
0.0
  0
POINT
  5
7630
330
6E43
100
AcDbEntity
  8
DEFPOINTS
 62
     0
100
AcDbPoint
 10
-183.7999999999999
 20
97.91296268268698
 30
0.0
  0
ENDBLK
  5
6E4E
330
6E43
100
AcDbEntity
  8
0
100
AcDbBlockEnd
  0
BLOCK
  5
6F39
330
6F2F
100
AcDbEntity
  8
0
100
AcDbBlockBegin
  2
*D13
 70
     1
 10
0.0
 20
0.0
 30
0.0
  3
*D13
  1

  0
LINE
  5
763A
330
6F2F
100
AcDbEntity
  8
AM_5
 62
     3
100
AcDbLine
 10
-2.148902362469885
 20
97.91296268268697
 30
0.0
 11
27.96880300080149
 21
97.91296268268697
 31
0.0
  0
LINE
  5
763B
330
6F2F
100
AcDbEntity
  8
AM_5
 62
     3
100
AcDbLine
 10
1.148526557067374
 20
65.91296268268696
 30
0.0
 11
27.96880300080148
 21
65.91296268268696
 31
0.0
  0
LINE
  5
763C
330
6F2F
100
AcDbEntity
  8
AM_5
 62
     3
100
AcDbLine
 10
26.96880300080149
 20
95.41296268268697
 30
0.0
 11
26.96880300080149
 21
68.41296268268696
 31
0.0
  0
INSERT
  5
763D
330
6F2F
100
AcDbEntity
  8
AM_5
 62
     3
100
AcDbBlockReference
  2
_OPEN30
 10
26.96880300080149
 20
97.91296268268697
 30
0.0
 41
2.5
 42
2.5
 43
2.5
 50
90.0
  0
INSERT
  5
763E
330
6F2F
100
AcDbEntity
  8
AM_5
 62
     3
100
AcDbBlockReference
  2
_OPEN30
 10
26.96880300080149
 20
65.91296268268696
 30
0.0
 41
2.5
 42
2.5
 43
2.5
 50
270.0
  0
MTEXT
  5
763F
330
6F2F
100
AcDbEntity
  8
AM_5
 62
     2
100
AcDbMText
 10
23.86880300080147
 20
81.91296268268697
 30
0.0
 40
3.2
 41
0.0
 71
     5
 72
     1
  1
32
  7
ASAMI
 11
0.0000000000000001
 21
1.0
 31
0.0
1001
ACAD
1000
MTEXTBEGIN
1070
    73
1070
     1
1070
    44
1040
1.0
1070
    74
1070
     0
1000
MTEXTEND
  0
POINT
  5
7640
330
6F2F
100
AcDbEntity
  8
DEFPOINTS
 62
     0
100
AcDbPoint
 10
-3.148902362469885
 20
97.91296268268697
 30
0.0
  0
POINT
  5
7641
330
6F2F
100
AcDbEntity
  8
DEFPOINTS
 62
     0
100
AcDbPoint
 10
0.1485265570673745
 20
65.91296268268696
 30
0.0
  0
POINT
  5
7642
330
6F2F
100
AcDbEntity
  8
DEFPOINTS
 62
     0
100
AcDbPoint
 10
26.96880300080149
 20
65.91296268268696
 30
0.0
  0
ENDBLK
  5
6F3A
330
6F2F
100
AcDbEntity
  8
0
100
AcDbBlockEnd
  0
BLOCK
  5
719B
330
718C
100
AcDbEntity
  8
0
100
AcDbBlockBegin
  2
*D14
 70
     1
 10
0.0
 20
0.0
 30
0.0
  3
*D14
  1

  0
LINE
  5
7680
330
718C
100
AcDbEntity
  8
AM_5
 62
     3
100
AcDbLine
 10
71.87611395134091
 20
0.9945218953682335
 30
0.0
 11
73.6528321731112
 21
17.89886658974926
 31
0.0
  0
LINE
  5
7681
330
718C
100
AcDbEntity
  8
AM_5
 62
     3
100
AcDbLine
 10
71.77158548807326
 20
0.9999999999999609
 30
0.0
 11
71.77158548807323
 21
17.99745855079569
 31
0.0
  0
ARC
  5
7682
330
718C
100
AcDbEntity
  8
AM_5
 62
     3
100
AcDbCircle
 10
71.77158548807326
 20
-0.0000000000000391
 30
0.0
 40
16.99745855079572
100
AcDbArc
 50
67.13055158900989
 51
75.56527579450495
  0
ARC
  5
7683
330
718C
100
AcDbEntity
  8
AM_5
 62
     3
100
AcDbCircle
 10
71.77158548807326
 20
-0.0000000000000391
 30
0.0
 40
16.99745855079572
100
AcDbArc
 50
98.43472420549517
 51
106.8694484109902
  0
ARC
  5
7684
330
718C
100
AcDbEntity
  8
AM_5
 62
     3
100
AcDbCircle
 10
71.77158548807326
 20
-0.0000000000000391
 30
0.0
 40
16.99745855079572
100
AcDbArc
 50
84.00000000000003
 51
90.00000000000007
  0
INSERT
  5
7685
330
718C
100
AcDbEntity
  8
AM_5
 62
     3
100
AcDbBlockReference
  2
_OPEN30
 10
73.54830370984355
 20
16.90434469438099
 30
0.0
 41
2.5
 42
2.5
 43
2.5
 50
169.7826378972524
  0
INSERT
  5
7686
330
718C
100
AcDbEntity
  8
AM_5
 62
     3
100
AcDbBlockReference
  2
_OPEN30
 10
71.77158548807323
 20
16.99745855079568
 30
0.0
 41
2.5
 42
2.5
 43
2.5
 50
4.217362102747621
  0
MTEXT
  5
7687
330
718C
100
AcDbEntity
  8
AM_5
 62
     2
100
AcDbMText
 10
65.93946470898862
 20
19.23263391787822
 30
0.0
 40
3.2
 41
0.0
 71
     5
 72
     1
  1
-6°
  7
ASAMI
 11
0.9569684579405082
 21
0.2901919545869004
 31
0.0
1001
ACAD
1000
MTEXTBEGIN
1070
    73
1070
     1
1070
    44
1040
1.0
1070
    74
1070
     0
1000
MTEXTEND
  0
POINT
  5
7688
330
718C
100
AcDbEntity
  8
DEFPOINTS
 62
     0
100
AcDbPoint
 10
72.95726825918868
 20
16.95605359605522
 30
0.0
  0
POINT
  5
7689
330
718C
100
AcDbEntity
  8
DEFPOINTS
 62
     0
100
AcDbPoint
 10
70.08514487400678
 20
-16.04541063263139
 30
0.0
  0
POINT
  5
768A
330
718C
100
AcDbEntity
  8
DEFPOINTS
 62
     0
100
AcDbPoint
 10
71.77158548807326
 20
-0.0000000000000391
 30
0.0
  0
POINT
  5
768B
330
718C
100
AcDbEntity
  8
DEFPOINTS
 62
     0
100
AcDbPoint
 10
71.77158548807328
 20
-21.81233934634156
 30
0.0
  0
POINT
  5
768C
330
718C
100
AcDbEntity
  8
DEFPOINTS
 62
     0
100
AcDbPoint
 10
71.77158548807326
 20
-0.0000000000000391
 30
0.0
  0
ENDBLK
  5
719C
330
718C
100
AcDbEntity
  8
0
100
AcDbBlockEnd
  0
BLOCK
  5
754E
330
7540
100
AcDbEntity
  8
0
100
AcDbBlockBegin
  2
*D15
 70
     1
 10
0.0
 20
0.0
 30
0.0
  3
*D15
  1

  0
LINE
  5
7643
330
7540
100
AcDbEntity
  8
AM_5
 62
     3
100
AcDbLine
 10
15.55866477893441
 20
65.91296268268695
 30
0.0
 11
16.79608647949043
 21
65.91296268268695
 31
0.0
  0
LINE
  5
7644
330
7540
100
AcDbEntity
  8
AM_5
 62
     3
100
AcDbLine
 10
1.143048452435628
 20
66.0174911459546
 30
0.0
 11
16.70488940437246
 21
67.65310653853403
 31
0.0
  0
ARC
  5
7645
330
7540
100
AcDbEntity
  8
AM_5
 62
     3
100
AcDbCircle
 10
0.1485265570673526
 20
65.91296268268696
 30
0.0
 40
15.64755992242308
100
AcDbArc
 50
341.6722559737481
 51
350.836127986874
  0
ARC
  5
7646
330
7540
100
AcDbEntity
  8
AM_5
 62
     3
100
AcDbCircle
 10
0.1485265570673526
 20
65.91296268268696
 30
0.0
 40
15.64755992242308
100
AcDbArc
 50
15.16387201312593
 51
24.32774402625183
  0
ARC
  5
7647
330
7540
100
AcDbEntity
  8
AM_5
 62
     3
100
AcDbCircle
 10
0.1485265570673526
 20
65.91296268268696
 30
0.0
 40
15.64755992242308
100
AcDbArc
 50
0.0
 51
6.000000000000046
  0
INSERT
  5
7648
330
7540
100
AcDbEntity
  8
AM_5
 62
     3
100
AcDbBlockReference
  2
_OPEN30
 10
15.79608647949043
 20
65.91296268268695
 30
0.0
 41
2.5
 42
2.5
 43
2.5
 50
85.41806399343702
  0
INSERT
  5
7649
330
7540
100
AcDbEntity
  8
AM_5
 62
     3
100
AcDbBlockReference
  2
_OPEN30
 10
15.71036750900418
 20
67.54857807526637
 30
0.0
 41
2.5
 42
2.5
 43
2.5
 50
280.581936006563
  0
MTEXT
  5
764A
330
7540
100
AcDbEntity
  8
AM_5
 62
     2
100
AcDbMText
 10
17.1339142765954
 20
73.84817579023174
 30
0.0
 40
3.2
 41
0.0
 71
     5
 72
     1
  1
-6°
  7
ASAMI
 11
0.423266448560798
 21
-0.9060052502732693
 31
0.0
1001
ACAD
1000
MTEXTBEGIN
1070
    73
1070
     1
1070
    44
1040
1.0
1070
    74
1070
     0
1000
MTEXTEND
  0
POINT
  5
764B
330
7540
100
AcDbEntity
  8
DEFPOINTS
 62
     0
100
AcDbPoint
 10
15.78655440876861
 20
66.45905464860176
 30
0.0
  0
POINT
  5
764C
330
7540
100
AcDbEntity
  8
DEFPOINTS
 62
     0
100
AcDbPoint
 10
-15.81815129366268
 20
64.23479721745255
 30
0.0
  0
POINT
  5
764D
330
7540
100
AcDbEntity
  8
DEFPOINTS
 62
     0
100
AcDbPoint
 10
14.55866477893441
 20
65.91296268268696
 30
0.0
  0
POINT
  5
764E
330
7540
100
AcDbEntity
  8
DEFPOINTS
 62
     0
100
AcDbPoint
 10
-11.11756347641494
 20
65.91296268268696
 30
0.0
  0
POINT
  5
764F
330
7540
100
AcDbEntity
  8
DEFPOINTS
 62
     0
100
AcDbPoint
 10
0.1485265570673526
 20
65.91296268268696
 30
0.0
  0
ENDBLK
  5
754F
330
7540
100
AcDbEntity
  8
0
100
AcDbBlockEnd
  0
ENDSEC
  0
SECTION
  2
ENTITIES
  0
TEXT
  5
C58
330
1F
100
AcDbEntity
  8
AM_6
100
AcDbText
 10
-114.3238095238094
 20
-54.50000000000015
 30
0.0
 40
5.0
  1
MWLNR3225-43
 50
0.0000000000002036
 72
     4
 11
-84.79999999999998
 21
-52.00000000000004
 31
0.0
100
AcDbText
  0
LINE
  5
5ECF
330
1F
100
AcDbEntity
  8
AM_0
100
AcDbLine
 10
-24.8306040309261
 20
-6.999906609379118
 30
0.0
 11
-169.8
 21
-6.999906609379117
 31
0.0
  0
LINE
  5
5ED7
330
1F
100
AcDbEntity
  8
AM_0
100
AcDbLine
 10
-169.7999999999999
 20
65.91296268268696
 30
0.0
 11
-169.8
 21
97.91296268268698
 31
0.0
  0
LINE
  5
5EE2
330
1F
100
AcDbEntity
  8
AM_0
100
AcDbLine
 10
-3.738949926607773
 20
-15.58660150487529
 30
0.0
 11
-6.148037561203156
 21
-20.7529066093791
 31
0.0
  0
LINE
  5
5EEB
330
1F
100
AcDbEntity
  8
AM_0
100
AcDbLine
 10
79.16205115693053
 20
-20.7529066093791
 30
0.0
 11
103.7715854880732
 21
-20.7529066093791
 31
0.0
  0
LINE
  5
5EF5
330
1F
100
AcDbEntity
  8
AM_0
100
AcDbLine
 10
-8.375208409392215
 20
-0.6749437752795667
 30
0.0
 11
-21.72515252187315
 21
-6.900124950870606
 31
0.0
  0
ARC
  5
5EFE
330
1F
100
AcDbEntity
  8
AM_0
100
AcDbCircle
 10
-23.40707938962249
 20
-2.206830603764205
 30
0.0
 40
5.0
100
AcDbArc
 50
253.458788457453
 51
283.7241989194637
  0
LINE
  5
5F18
330
1F
100
AcDbEntity
  8
AM_0
100
AcDbLine
 10
-169.8
 20
97.91296268268698
 30
0.0
 11
-3.140942273339287
 21
97.91296268268697
 31
0.0
  0
LINE
  5
5F21
330
1F
100
AcDbEntity
  8
AM_0
100
AcDbLine
 10
-169.8
 20
65.91296268268696
 30
0.0
 11
-32.54858800378935
 21
65.91296268268696
 31
0.0
  0
LINE
  5
5F22
330
1F
100
AcDbEntity
  8
AM_0
100
AcDbLine
 10
-169.7999999999999
 20
-6.99990660937911
 30
0.0
 11
-169.7999999999999
 21
-32.00000000000003
 31
0.0
  0
LINE
  5
5F24
330
1F
100
AcDbEntity
  8
AM_0
100
AcDbLine
 10
-13.59290117471002
 20
97.91296268268698
 30
0.0
 11
-7.739104128129194
 21
74.65375744534512
 31
0.0
  0
LINE
  5
5F25
330
1F
100
AcDbEntity
  8
AM_0
100
AcDbLine
 10
-31.58266217750029
 20
65.17178172778949
 30
0.0
 11
-30.33491014243754
 21
60.51510773768782
 31
0.0
  0
LINE
  5
5F28
330
1F
100
AcDbEntity
  8
AM_0
100
AcDbLine
 10
-31.79999999999999
 20
-12.42553502560844
 30
0.0
 11
-31.79999999999998
 21
-32.00000000000005
 31
0.0
  0
ARC
  5
5F2D
330
1F
100
AcDbEntity
  8
AM_0
100
AcDbCircle
 10
-32.54858800378935
 20
64.91296268268697
 30
0.0
 40
1.0
100
AcDbArc
 50
14.99999999999999
 51
90.00000000000003
1001
GENIUS_GENODEF_13
1002
{
1000
HIER
1070
     0
1002
}
1002
{
1000
MANEDIT
1070
     0
1002
}
1002
{
1000
NOSEL
1070
     0
1002
}
1002
{
1000
BEHIND
1070
     0
1002
}
1002
{
1000
REACTOR
1002
}
1001
GENIUS_GENOBJ-N-FIL_13
1002
{
1000
OWNER
1000
GEN
1002
}
  0
LINE
  5
5F38
330
1F
100
AcDbEntity
  8
AM_0
100
AcDbLine
 10
-22.22083709213566
 20
72.12692759059857
 30
0.0
 11
-22.22083709213566
 21
97.91296268268697
 31
0.0
  0
LINE
  5
5F43
330
1F
100
AcDbEntity
  8
AM_0
100
AcDbLine
 10
-29.51135928872192
 20
-14.71417573688655
 30
0.0
 11
-29.51135928872192
 21
-32.00000000000006
 31
0.0
  0
LINE
  5
5F51
330
1F
100
AcDbEntity
  8
AM_0
100
AcDbLine
 10
103.7715854880732
 20
-32.00000000000006
 30
0.0
 11
103.7715854880732
 21
-2.621863932357958
 31
0.0
  0
LINE
  5
5F7C
330
1F
100
AcDbEntity
  8
AM_0
100
AcDbLine
 10
80.11115699360683
 20
-9.545446159337169
 30
0.0
 11
103.7715854880732
 21
-14.15038367119917
 31
0.0
  0
CIRCLE
  5
60D6
330
1F
100
AcDbEntity
  8
AM_0
100
AcDbCircle
 10
-6.705348915326935
 20
-6.905348915326933
 30
0.0
 40
2.5
  0
LINE
  5
6104
330
1F
100
AcDbEntity
  8
AM_0
100
AcDbLine
 10
-13.52748613856562
 20
-30.69804888704285
 30
0.0
 11
-37.22562841622929
 21
-6.999906609379118
 31
0.0
  0
LINE
  5
6105
330
1F
100
AcDbEntity
  8
AM_7
100
AcDbLine
 10
-3.410755585882831
 20
-3.610755585882835
 30
0.0
 11
-24.01204949966183
 21
-24.21204949966182
 31
0.0
  0
LINE
  5
6106
330
1F
100
AcDbEntity
  8
AM_0
100
AcDbLine
 10
-19.94443576129808
 20
-13.10881212156295
 30
0.0
 11
-24.91190531566909
 21
-8.14134256719195
 31
0.0
  0
LINE
  5
6107
330
1F
100
AcDbEntity
  8
AM_0
100
AcDbLine
 10
-5.367537135034331
 20
-17.38741634389874
 30
0.0
 11
-17.18741634389866
 21
-5.56753713503435
 31
0.0
  0
LINE
  5
6108
330
1F
100
AcDbEntity
  8
AM_7
100
AcDbLine
 10
-7.015911486166749
 20
-25.33022961550773
 30
0.0
 11
-26.04001413247732
 21
-6.306126969197131
 31
0.0
  0
CIRCLE
  5
6109
330
1F
100
AcDbEntity
  8
AM_0
100
AcDbCircle
 10
-16.07307055083722
 20
-16.27307055083731
 30
0.0
 40
3.75
1001
GENIUS_GENOREF_13
1005
0
  0
LINE
  5
610A
330
1F
100
AcDbEntity
  8
AM_0
100
AcDbLine
 10
-16.96512577526968
 20
-19.0185342293251
 30
0.0
 11
-14.14145687231593
 21
-18.4183448760187
 31
0.0
1001
GENIUS_GENOREF_13
1005
0
  0
LINE
  5
610B
330
1F
100
AcDbEntity
  8
AM_0
100
AcDbLine
 10
-15.18101532640449
 20
-13.52760687234946
 30
0.0
 11
-18.00468422935874
 21
-14.12779622565603
 31
0.0
1001
GENIUS_GENOREF_13
1005
0
  0
CIRCLE
  5
610C
330
1F
100
AcDbEntity
  8
AM_0
100
AcDbCircle
 10
-16.07307055083722
 20
-16.27307055083731
 30
0.0
 40
5.0
1001
GENIUS_GENOREF_13
1005
0
  0
LINE
  5
610D
330
1F
100
AcDbEntity
  8
AM_0
100
AcDbLine
 10
-14.14145687231593
 20
-18.4183448760187
 30
0.0
 11
-13.24940164788298
 21
-15.67288119753073
 31
0.0
1001
GENIUS_GENOREF_13
1005
0
  0
LINE
  5
610E
330
1F
100
AcDbEntity
  8
AM_0
100
AcDbLine
 10
-13.24940164788298
 20
-15.67288119753073
 30
0.0
 11
-15.18101532640449
 21
-13.52760687234946
 31
0.0
1001
GENIUS_GENOREF_13
1005
0
  0
LINE
  5
610F
330
1F
100
AcDbEntity
  8
AM_0
100
AcDbLine
 10
-7.234235786005402
 20
-24.40479853448255
 30
0.0
 11
-12.20170534037639
 21
-19.43732898011155
 31
0.0
  0
LINE
  5
6110
330
1F
100
AcDbEntity
  8
AM_0
100
AcDbLine
 10
-7.941342567191951
 20
-25.11190531566905
 30
0.0
 11
-12.90881212156294
 21
-20.14443576129804
 31
0.0
  0
LINE
  5
6111
330
1F
100
AcDbEntity
  8
AM_0
100
AcDbLine
 10
-18.89673945379147
 20
-16.87325990414382
 30
0.0
 11
-16.96512577526968
 21
-19.0185342293251
 31
0.0
1001
GENIUS_GENOREF_13
1005
0
  0
LINE
  5
6112
330
1F
100
AcDbEntity
  8
AM_0
100
AcDbLine
 10
-18.00468422935874
 20
-14.12779622565603
 30
0.0
 11
-18.89673945379147
 21
-16.87325990414382
 31
0.0
1001
GENIUS_GENOREF_13
1005
0
  0
LINE
  5
6113
330
1F
100
AcDbEntity
  8
AM_0
100
AcDbLine
 10
-4.405808661259206
 20
-13.79819681668437
 30
0.0
 11
-7.252818157386943
 21
-24.42338090586412
 31
0.0
  0
LINE
  5
6114
330
1F
100
AcDbEntity
  8
AM_0
100
AcDbLine
 10
-4.405808661259206
 20
-13.79819681668437
 30
0.0
 11
-13.59819681668432
 21
-4.605808661259183
 31
0.0
  0
LINE
  5
6115
330
1F
100
AcDbEntity
  8
AM_0
100
AcDbLine
 10
-13.59819681668434
 20
-4.605808661259183
 30
0.0
 11
-24.22338090586407
 21
-7.452818157386965
 31
0.0
  0
LINE
  5
6116
330
1F
100
AcDbEntity
  8
AM_0
100
AcDbLine
 10
-19.23732898011153
 20
-12.4017053403764
 30
0.0
 11
-24.20479853448254
 21
-7.434235786005396
 31
0.0
  0
LINE
  5
6117
330
1F
100
AcDbEntity
  8
AM_0
100
AcDbLine
 10
-24.22338090586408
 20
-7.452818157386965
 30
0.0
 11
-30.49804888704281
 21
-13.72748613856567
 31
0.0
  0
LINE
  5
6118
330
1F
100
AcDbEntity
  8
AM_0
100
AcDbLine
 10
-7.252818157386957
 20
-24.42338090586412
 30
0.0
 11
-13.52748613856561
 21
-30.69804888704285
 31
0.0
  0
LINE
  5
611A
330
1F
100
AcDbEntity
  8
AM_0
100
AcDbLine
 10
-29.43738871526299
 20
-12.6668259667859
 30
0.0
 11
-35.10430807266961
 21
-6.999906609379118
 31
0.0
  0
ARC
  5
6390
330
1F
100
AcDbEntity
  8
AM_0
100
AcDbCircle
 10
-23.540976917188
 20
-2.241500500951974
 30
0.0
 40
5.0
100
AcDbArc
 50
285.3092023275513
 51
291.2946897836738
  0
LINE
  5
6393
330
1F
100
AcDbEntity
  8
AM_0
100
AcDbLine
 10
-17.54777173629189
 20
-32.00000000000006
 30
0.0
 11
-169.7999999999999
 21
-32.00000000000002
 31
0.0
  0
ARC
  5
6394
330
1F
100
AcDbEntity
  8
AM_0
100
AcDbCircle
 10
-0.6000000000000045
 20
-0.8000000000000193
 30
0.0
 40
0.8
100
AcDbArc
 50
355.0000000000002
 51
94.99999999999976
1001
GENIUS_GENODEF_13
1002
{
1000
HIER
1070
     0
1002
}
1002
{
1000
MANEDIT
1070
     0
1002
}
1002
{
1000
NOSEL
1070
     0
1002
}
1002
{
1000
BEHIND
1070
     0
1002
}
1002
{
1000
REACTOR
1002
}
1001
GENIUS_GENOBJ-N-FIL_13
1002
{
1000
OWNER
1000
GEN
1002
}
  0
LINE
  5
6395
330
1F
100
AcDbEntity
  8
AM_0
100
AcDbLine
 10
-0.6697245941981537
 20
-0.0030442415266032
 30
0.0
 11
-8.374203502807699
 21
-0.6770988044045306
 31
0.0
  0
LINE
  5
6396
330
1F
100
AcDbEntity
  8
AM_0
100
AcDbLine
 10
0.1969557584733833
 20
-0.8697245941981543
 30
0.0
 11
-0.4770988044045725
 21
-8.574203502807742
 31
0.0
  0
LINE
  5
6397
330
1F
100
AcDbEntity
  8
AM_0
100
AcDbLine
 10
-3.745589883720267
 20
-15.58350524202394
 30
0.0
 11
-0.4770988044045583
 21
-8.574203502807714
 31
0.0
  0
ARC
  5
6398
330
1F
100
AcDbEntity
  8
AM_0
100
AcDbCircle
 10
-4.470636113349551
 20
-15.24541063263138
 30
0.0
 40
0.8
100
AcDbArc
 50
234.9999999999995
 51
335.0000000000002
1001
GENIUS_GENODEF_13
1002
{
1000
HIER
1070
     0
1002
}
1002
{
1000
MANEDIT
1070
     0
1002
}
1002
{
1000
NOSEL
1070
     0
1002
}
1002
{
1000
BEHIND
1070
     0
1002
}
1002
{
1000
REACTOR
1002
}
1001
GENIUS_GENOBJ-N-FIL_13
1002
{
1000
OWNER
1000
GEN
1002
}
  0
LINE
  5
639A
330
1F
100
AcDbEntity
  8
AM_0
100
AcDbLine
 10
-16.23243529984949
 20
-4.370146637405192
 30
0.0
 11
-15.70073226806292
 21
-5.129497262429915
 31
0.0
  0
ARC
  5
639B
330
1F
100
AcDbEntity
  8
AM_0
100
AcDbCircle
 10
-15.04541063263141
 20
-4.67063611334951
 30
0.0
 40
0.8
100
AcDbArc
 50
115.0000000000001
 51
214.999999999999
1001
GENIUS_GENODEF_13
1002
{
1000
HIER
1070
     0
1002
}
1002
{
1000
MANEDIT
1070
     0
1002
}
1002
{
1000
NOSEL
1070
     0
1002
}
1002
{
1000
BEHIND
1070
     0
1002
}
1002
{
1000
REACTOR
1002
}
1001
GENIUS_GENOBJ-N-FIL_13
1002
{
1000
OWNER
1000
GEN
1002
}
  0
LINE
  5
639C
330
1F
100
AcDbEntity
  8
AM_0
100
AcDbLine
 10
-15.38350524202399
 20
-3.94558988372021
 30
0.0
 11
-8.374203502807713
 21
-0.6770988044045306
 31
0.0
  0
LINE
  5
639E
330
1F
100
AcDbEntity
  8
AM_7
100
AcDbLine
 10
-3.39511975987666
 20
-10.21557807077722
 30
0.0
 11
-10.16041944191034
 21
-3.450278388743506
 31
0.0
  0
LINE
  5
63A5
330
1F
100
AcDbEntity
  8
AM_0
100
AcDbLine
 10
0.199718023093841
 20
65.91834312257583
 30
0.0
 11
-0.7777840065702537
 21
75.21865368754238
 31
0.0
  0
LINE
  5
63B1
330
1F
100
AcDbEntity
  8
AM_0
100
AcDbLine
 10
-15.81815129366266
 20
64.23479721745256
 30
0.0
 11
0.1485265570673745
 21
65.91296268268696
 31
0.0
  0
LINE
  5
6527
330
1F
100
AcDbEntity
  8
AM_0
100
AcDbLine
 10
-0.7777832936661854
 20
75.21864686423684
 30
0.0
 11
-3.148902362469885
 21
97.91296268268697
 31
0.0
  0
LINE
  5
652D
330
1F
100
AcDbEntity
  8
AM_0
100
AcDbLine
 10
-16.81326226397073
 20
73.70264566135851
 30
0.0
 11
-15.81815129366266
 21
64.23479721745256
 31
0.0
  0
LINE
  5
6538
330
1F
100
AcDbEntity
  8
AM_0
100
AcDbLine
 10
-9.370319379700287
 20
74.48493048133586
 30
0.0
 11
-8.375208409392211
 21
65.01708203742992
 31
0.0
  0
LINE
  5
6544
330
1F
100
AcDbEntity
  8
AM_0
100
AcDbLine
 10
-16.3157067788167
 20
68.96872143940554
 30
0.0
 11
-0.3490289280866635
 21
70.64688690463994
 31
0.0
  0
LINE
  5
6548
330
1F
100
AcDbEntity
  8
AM_0
100
AcDbLine
 10
-16.81326226397071
 20
73.70264566135851
 30
0.0
 11
-0.8465844132406731
 21
75.38081112659291
 31
0.0
  0
LINE
  5
656A
330
1F
100
AcDbEntity
  8
AM_0
100
AcDbLine
 10
-35.12867928809645
 20
70.77210948190227
 30
0.0
 11
-16.70873380070308
 21
72.70812376599024
 31
0.0
  0
LINE
  5
6572
330
1F
100
AcDbEntity
  8
AM_0
100
AcDbLine
 10
-13.64635693435626
 20
63.96030786296003
 30
0.0
 11
-4.405808661259196
 21
64.93152862263944
 31
0.0
  0
LINE
  5
657A
330
1F
100
AcDbEntity
  8
AM_0
100
AcDbLine
 10
-30.47363918524526
 20
59.17516439169009
 30
0.0
 11
-5.367537135034335
 21
61.81392204817956
 31
0.0
  0
LINE
  5
657B
330
1F
100
AcDbEntity
  8
AM_0
100
AcDbLine
 10
-5.367537135034335
 20
61.81392204817954
 30
0.0
 11
-4.405808661259196
 21
64.93152862263944
 31
0.0
  0
LINE
  5
657C
330
1F
100
AcDbEntity
  8
AM_0
100
AcDbLine
 10
-4.405808661259196
 20
64.93152862263944
 30
0.0
 11
-4.458072892893038
 21
65.42878957032359
 31
0.0
  0
LINE
  5
657D
330
1F
100
AcDbEntity
  8
AM_0
100
AcDbLine
 10
-17.16845813460964
 20
60.57359527108853
 30
0.0
 11
-13.59819681668433
 21
63.96536969529822
 31
0.0
  0
LINE
  5
657E
330
1F
100
AcDbEntity
  8
AM_0
100
AcDbLine
 10
-13.59819681668433
 20
63.96536969529822
 30
0.0
 11
-13.65046104831814
 21
64.46263064298236
 31
0.0
  0
LINE
  5
65A0
330
1F
100
AcDbEntity
  8
AM_0
100
AcDbLine
 10
-29.31589901788122
 20
70.35743886181592
 30
0.0
 11
-18.0700979604381
 21
71.53942018190843
 31
0.0
  0
LINE
  5
65B2
330
1F
100
AcDbEntity
  8
AM_0
100
AcDbLine
 10
-35.10430807266961
 20
70.77467099986221
 30
0.0
 11
-37.22562841622929
 21
65.91296268268696
 31
0.0
  0
LINE
  5
65B3
330
1F
100
AcDbEntity
  8
AM_0
100
AcDbLine
 10
-30.47363918524526
 20
59.17516439169009
 30
0.0
 11
-29.31589901788122
 21
70.35743886181592
 31
0.0
  0
ARC
  5
65BA
330
1F
100
AcDbEntity
  8
AM_0
100
AcDbCircle
 10
-15.83893405105602
 20
64.43253194565663
 30
0.0
 40
0.5
100
AcDbArc
 50
95.69336708299053
 51
342.5687859873742
  0
LINE
  5
65BB
330
1F
100
AcDbEntity
  8
AM_0
100
AcDbLine
 10
-15.93401107430649
 20
65.46738415201634
 30
0.0
 11
-18.005744597303
 21
71.56129824217512
 31
0.0
  0
LINE
  5
65C1
330
1F
100
AcDbEntity
  8
AM_0
100
AcDbLine
 10
-24.20479853448254
 20
70.89463716948957
 30
0.0
 11
-24.20479853448254
 21
59.8340460942909
 31
0.0
  0
LINE
  5
65C6
330
1F
100
AcDbEntity
  8
AM_0
100
AcDbLine
 10
-24.9119053156691
 20
65.01078824129696
 30
0.0
 11
-24.9119053156691
 21
59.75972617680312
 31
0.0
  0
ARC
  5
65D3
330
1F
100
AcDbEntity
  8
AM_0
100
AcDbCircle
 10
-24.55641512260923
 20
65.01078824129696
 30
0.0
 40
0.3535533905932748
100
AcDbArc
 50
5.999999999997196
 51
180.0
  0
LINE
  5
65DE
330
1F
100
AcDbEntity
  8
AM_7
100
AcDbLine
 10
-20.28032990879137
 20
100.7181240304147
 30
0.0
 11
-15.08909451278132
 21
51.32681850511453
 31
0.0
  0
LINE
  5
65F9
330
1F
100
AcDbEntity
  8
AM_0
100
AcDbLine
 10
-10.48655359657574
 20
57.76212103876804
 30
0.0
 11
-20.92903349794262
 21
56.66457217445768
 31
0.0
  0
LINE
  5
65FA
330
1F
100
AcDbEntity
  8
AM_0
100
AcDbLine
 10
-10.48655359657577
 20
57.76212103876804
 30
0.0
 11
-10.85183060015377
 21
61.23749957755562
 31
0.0
  0
LINE
  5
65FB
330
1F
100
AcDbEntity
  8
AM_0
100
AcDbLine
 10
-11.82154374472666
 20
56.11354550081415
 30
0.0
 11
-10.48655359657574
 21
57.76212103876804
 31
0.0
1001
GENIUS_GENFIL_13
1070
     0
1040
1.5
1040
1.5
1040
20.0
1040
0.0
1002
{
1002
}
1001
GENIUS_GENODEF_13
1002
{
1000
HIER
1070
     0
1002
}
1002
{
1000
MANEDIT
1070
     0
1002
}
1002
{
1000
NOSEL
1070
     0
1002
}
1002
{
1000
BEHIND
1070
     0
1002
}
1002
{
1000
REACTOR
1002
}
1001
GENIUS_GENOBJ-N-CHA_13
1002
{
1000
OWNER
1000
GEN
1002
}
  0
LINE
  5
65FC
330
1F
100
AcDbEntity
  8
AM_0
100
AcDbLine
 10
-20.92903349794262
 20
56.66457217445768
 30
0.0
 11
-21.29431050152068
 21
60.13995071324526
 31
0.0
  0
LINE
  5
65FD
330
1F
100
AcDbEntity
  8
AM_0
100
AcDbLine
 10
-19.28045795998873
 20
55.32958202630674
 30
0.0
 11
-11.82154374472666
 21
56.11354550081413
 31
0.0
  0
LINE
  5
65FE
330
1F
100
AcDbEntity
  8
AM_0
100
AcDbLine
 10
-19.28045795998873
 20
55.32958202630673
 30
0.0
 11
-20.92903349794262
 21
56.66457217445765
 31
0.0
1001
GENIUS_GENFIL_13
1070
     0
1040
1.5
1040
1.5
1040
20.0
1040
0.0
1002
{
1002
}
1001
GENIUS_GENODEF_13
1002
{
1000
HIER
1070
     0
1002
}
1002
{
1000
MANEDIT
1070
     0
1002
}
1002
{
1000
NOSEL
1070
     0
1002
}
1002
{
1000
BEHIND
1070
     0
1002
}
1002
{
1000
REACTOR
1002
}
1001
GENIUS_GENOBJ-N-CHA_13
1002
{
1000
OWNER
1000
GEN
1002
}
  0
LINE
  5
6609
330
1F
100
AcDbEntity
  8
AM_7
100
AcDbLine
 10
-10.56529515993624
 20
100.7181240304147
 30
0.0
 11
-5.793793562837588
 21
55.3203188417132
 31
0.0
  0
LINE
  5
660F
330
1F
100
AcDbEntity
  8
AM_0
100
AcDbLine
 10
103.7715854880732
 20
-3.363335528501673
 30
0.0
 11
71.77158548807326
 21
-0.0000000000000364
 31
0.0
  0
LINE
  5
6614
330
1F
100
AcDbEntity
  8
AM_0
100
AcDbLine
 10
70.8704003858984
 20
-8.574203502807714
 30
0.0
 11
80.26992433604435
 21
-9.562133279449207
 31
0.0
  0
LINE
  5
6625
330
1F
100
AcDbEntity
  8
AM_0
100
AcDbLine
 10
70.08514487400678
 20
-16.04541063263139
 30
0.0
 11
71.77158548807326
 21
-0.0000000000000364
 31
0.0
  0
LINE
  5
662B
330
1F
100
AcDbEntity
  8
AM_0
100
AcDbLine
 10
79.55299331791273
 20
-17.04052160293946
 30
0.0
 11
70.08514487400678
 21
-16.04541063263139
 31
0.0
  0
LINE
  5
6660
330
1F
100
AcDbEntity
  8
AM_0
100
AcDbLine
 10
69.81345655314256
 20
-13.84696621853661
 30
0.0
 11
70.78563789629832
 21
-4.597278604157033
 31
0.0
  0
LINE
  5
6668
330
1F
100
AcDbEntity
  8
AM_0
100
AcDbLine
 10
66.4267766952705
 20
-17.36875597558916
 30
0.0
 11
67.67394861787751
 21
-5.502707766832778
 31
0.0
  0
LINE
  5
6669
330
1F
100
AcDbEntity
  8
AM_0
100
AcDbLine
 10
69.8185824238286
 20
-13.79819681668437
 30
0.0
 11
66.4267766952705
 21
-17.36875597558916
 31
0.0
  0
LINE
  5
666A
330
1F
100
AcDbEntity
  8
AM_0
100
AcDbLine
 10
70.78474135116981
 20
-4.605808661259183
 30
0.0
 11
67.66713477670994
 21
-5.56753713503435
 31
0.0
  0
LINE
  5
666B
330
1F
100
AcDbEntity
  8
AM_0
100
AcDbLine
 10
69.8185824238286
 20
-13.79819681668437
 30
0.0
 11
70.31584337151277
 21
-13.85046104831821
 31
0.0
  0
LINE
  5
666C
330
1F
100
AcDbEntity
  8
AM_0
100
AcDbLine
 10
70.78563789629832
 20
-4.597278604157033
 30
0.0
 11
71.28289884398246
 21
-4.649542835790847
 31
0.0
  0
LINE
  5
6673
330
1F
100
AcDbEntity
  8
AM_0
100
AcDbLine
 10
65.68797312803527
 20
-24.39800237434526
 30
0.0
 11
76.6277139770862
 21
-25.54781547028944
 31
0.0
  0
LINE
  5
6678
330
1F
100
AcDbEntity
  8
AM_0
100
AcDbLine
 10
65.61293890533351
 20
-25.11190531566908
 30
0.0
 11
70.72781327670175
 21
-25.64950027495175
 31
0.0
  0
LINE
  5
6682
330
1F
100
AcDbEntity
  8
AM_0
100
AcDbLine
 10
65.02581155717995
 20
-30.69804888704285
 30
0.0
 11
75.96555240623086
 21
-31.84786198298704
 31
0.0
  0
LINE
  5
6687
330
1F
100
AcDbEntity
  8
AM_0
100
AcDbLine
 10
66.4267766952705
 20
-17.36875597558916
 30
0.0
 11
64.88895796694038
 21
-32.00012382145084
 31
0.0
  0
LINE
  5
6699
330
1F
100
AcDbEntity
  8
AM_0
100
AcDbLine
 10
77.44647384488526
 20
-17.75468854671306
 30
0.0
 11
71.6079699649337
 21
-16.19026614707406
 31
0.0
  0
ARC
  5
669A
330
1F
100
AcDbEntity
  8
AM_0
100
AcDbCircle
 10
70.12813480074497
 20
-15.96825785412014
 30
0.0
 40
0.5
100
AcDbArc
 50
89.9512604394779
 51
344.9999999999988
  0
LINE
  5
66A5
330
1F
100
AcDbEntity
  8
AM_0
100
AcDbLine
 10
77.44680100857245
 20
-17.7547229330022
 30
0.0
 11
75.96555240623094
 21
-31.84786198298704
 31
0.0
  0
ARC
  5
66AE
330
1F
100
AcDbEntity
  8
AM_0
100
AcDbCircle
 10
70.76533038805265
 20
-25.29254880428982
 30
0.0
 40
0.3589176591529259
100
AcDbArc
 50
263.9999999999973
 51
83.99999999999712
  0
LINE
  5
66AF
330
1F
100
AcDbEntity
  8
AM_0
100
AcDbLine
 10
64.88777988453037
 20
-32.00000000000006
 30
0.0
 11
103.7715854880732
 21
-32.00000000000006
 31
0.0
  0
LINE
  5
66B5
330
1F
100
AcDbEntity
  8
AM_7
100
AcDbLine
 10
108.3892055262368
 20
-20.67139561539093
 30
0.0
 11
58.68838279192479
 21
-15.44762864982613
 31
0.0
  0
LINE
  5
66BA
330
1F
100
AcDbEntity
  8
AM_0
100
AcDbLine
 10
61.9667582293446
 20
-12.02154374472665
 30
0.0
 11
61.18279475483705
 21
-19.48045795998869
 31
0.0
  0
LINE
  5
66BB
330
1F
100
AcDbEntity
  8
AM_0
100
AcDbLine
 10
62.51778490298797
 20
-21.12903349794258
 30
0.0
 11
63.61533376729852
 21
-10.68655359657575
 31
0.0
  0
LINE
  5
66BC
330
1F
100
AcDbEntity
  8
AM_0
100
AcDbLine
 10
61.18279475483708
 20
-19.48045795998869
 30
0.0
 11
62.51778490298797
 21
-21.12903349794258
 31
0.0
1001
GENIUS_GENFIL_13
1070
     0
1040
1.5
1040
1.5
1040
20.0
1040
0.0
1002
{
1002
}
1001
GENIUS_GENODEF_13
1002
{
1000
HIER
1070
     0
1002
}
1002
{
1000
MANEDIT
1070
     0
1002
}
1002
{
1000
NOSEL
1070
     0
1002
}
1002
{
1000
BEHIND
1070
     0
1002
}
1002
{
1000
REACTOR
1002
}
1001
GENIUS_GENOBJ-N-CHA_13
1002
{
1000
OWNER
1000
GEN
1002
}
  0
LINE
  5
66BD
330
1F
100
AcDbEntity
  8
AM_0
100
AcDbLine
 10
62.517784902988
 20
-21.12903349794258
 30
0.0
 11
65.99316344177553
 21
-21.49431050152063
 31
0.0
  0
LINE
  5
66BE
330
1F
100
AcDbEntity
  8
AM_0
100
AcDbLine
 10
63.61533376729852
 20
-10.68655359657575
 30
0.0
 11
67.09071230608607
 21
-11.05183060015375
 31
0.0
  0
LINE
  5
66BF
330
1F
100
AcDbEntity
  8
AM_0
100
AcDbLine
 10
61.96675822934457
 20
-12.02154374472662
 30
0.0
 11
63.61533376729848
 21
-10.68655359657575
 31
0.0
1001
GENIUS_GENFIL_13
1070
     0
1040
1.5
1040
1.5
1040
20.0
1040
0.0
1002
{
1002
}
1001
GENIUS_GENODEF_13
1002
{
1000
HIER
1070
     0
1002
}
1002
{
1000
MANEDIT
1070
     0
1002
}
1002
{
1000
NOSEL
1070
     0
1002
}
1002
{
1000
BEHIND
1070
     0
1002
}
1002
{
1000
REACTOR
1002
}
1001
GENIUS_GENOBJ-N-CHA_13
1002
{
1000
OWNER
1000
GEN
1002
}
  0
DIMENSION
  5
66C8
330
1F
100
AcDbEntity
  8
AM_5
100
AcDbDimension
  2
*D5
 10
-31.79999999999999
 20
14.00000100999994
 30
0.0
 11
-15.8
 21
17.10000100999994
 31
0.0
 70
    32
  1
<>
  3
AM_JIS
100
AcDbAlignedDimension
 13
0.1999999999999927
 23
-0.8000000000000193
 33
0.0
 14
-31.79999999999999
 24
-12.42553502560842
 34
0.0
 50
180.0
100
AcDbRotatedDimension
1001
GENIUS_GENDTOL_13
1000

1000
h7
1000

1040
0.0
  0
DIMENSION
  5
6754
330
1F
100
AcDbEntity
  8
AM_5
100
AcDbDimension
  2
*D6
 10
-169.7999999999999
 20
25.45368048092884
 30
0.0
 11
-84.8
 21
28.55368048092884
 31
0.0
 70
    32
  1
<>
  3
AM_JIS
100
AcDbAlignedDimension
 13
0.1999999999999927
 23
0.1999999999999806
 33
0.0
 14
-169.7999999999999
 24
-6.999906609379117
 34
0.0
 50
180.0
100
AcDbRotatedDimension
1001
GENIUS_GENDTOL_13
1000

1000
h7
1000

1040
0.0
  0
DIMENSION
  5
67FE
330
1F
100
AcDbEntity
  8
AM_5
100
AcDbDimension
  2
*D7
 10
-183.8
 20
-32.00000000000002
 30
0.0
 11
-186.8999999999999
 21
-19.49995330468959
 31
0.0
 70
    32
  1
<>
  3
AM_JIS
100
AcDbAlignedDimension
 13
-169.8
 23
-6.99990660937911
 33
0.0
 14
-169.8
 24
-32.00000000000003
 34
0.0
 50
270.0
100
AcDbRotatedDimension
1001
GENIUS_GENDTOL_13
1000

1000
h7
1000

1040
0.0
  0
DIMENSION
  5
68AE
330
1F
100
AcDbEntity
  8
AM_5
100
AcDbDimension
  2
*D8
 10
25.66811648554263
 20
-0.0000000000000154
 30
0.0
 11
22.56811648554263
 21
-16.00000000000004
 31
0.0
 70
    32
  1
<>
  3
AM_JIS
100
AcDbAlignedDimension
 13
-17.54777173629189
 23
-32.00000000000007
 33
0.0
 14
-0.6000000000000045
 24
-0.000000000000008
 34
0.0
 50
90.00000000000003
100
AcDbRotatedDimension
1001
GENIUS_GENDTOL_13
1000

1000
h7
1000

1040
0.0
  0
DIMENSION
  5
6965
330
1F
100
AcDbEntity
  8
AM_5
100
AcDbDimension
  2
*D9
 10
-8.374203502807699
 20
-0.6770988044045306
 30
0.0
 11
20.42650461959264
 21
20.22650461959258
 31
0.0
 70
    34
  1
<>
  3
AM_JIS$2
100
AcDb2LineAngularDimension
 13
0.1969557584733833
 23
-0.8697245941981543
 33
0.0
 14
-0.4770988044045725
 24
-8.574203502807742
 34
0.0
 15
-0.6697245941981537
 25
-0.0030442415266032
 35
0.0
 16
21.89108475798264
 26
13.40993483020817
 36
0.0
1001
ACAD
1000
DSTYLE
1002
{
1070
   179
1070
     3
1002
}
1001
GENIUS_GENDTOL_13
1000

1000
h7
1000

1040
0.0
  0
DIMENSION
  5
6A41
330
1F
100
AcDbEntity
  8
AM_5
100
AcDbDimension
  2
*D10
 10
0.1999999999999927
 20
-23.01775565150161
 30
0.0
 11
2.554480134823733
 21
29.52775351477384
 31
0.0
 70
   162
  1
<>
  3
AM_JIS$2
100
AcDb2LineAngularDimension
 13
0.1969557584733833
 23
-0.8697245941981543
 33
0.0
 14
-0.4770988044045725
 24
-8.574203502807742
 34
0.0
 15
0.1999999999999927
 25
7.60000050499996
 35
0.0
 16
0.9646207611386257
 26
25.44338238008867
 36
0.0
1001
GENIUS_GENDTOL_13
1000

1000
h7
1000

1040
0.0
1001
ACAD
1000
DSTYLE
1002
{
1070
   287
1070
     5
1070
   179
1070
     3
1070
   279
1070
     2
1070
   281
1070
     1
1070
   282
1070
     1
1002
}
  0
DIMENSION
  5
6CF0
330
1F
100
AcDbEntity
  8
AM_5
100
AcDbDimension
  2
*D11
 10
-20.06169502980401
 20
-0.000000000000008
 30
0.0
 11
29.57362133593776
 21
0.2722866279891523
 31
0.0
 70
   162
  1
<>
  3
AM_JIS$2
100
AcDb2LineAngularDimension
 13
-0.6697245941981671
 23
-0.0030442415266032
 33
0.0
 14
-8.374203502807711
 24
-0.6770988044045306
 34
0.0
 15
7.399999999999989
 25
-0.000000000000008
 35
0.0
 16
25.62361589601306
 26
1.529386065296729
 36
0.0
1001
GENIUS_GENDTOL_13
1000

1000
h7
1000

1040
0.0
1001
ACAD
1000
DSTYLE
1002
{
1070
   287
1070
     5
1070
   179
1070
     3
1070
   279
1070
     2
1070
   281
1070
     1
1002
}
  0
DIMENSION
  5
6E42
330
1F
100
AcDbEntity
  8
AM_5
100
AcDbDimension
  2
*D12
 10
-183.7999999999999
 20
97.91296268268698
 30
0.0
 11
-186.8999999999999
 21
81.91296268268693
 31
0.0
 70
    32
  1
<>
  3
AM_JIS
100
AcDbAlignedDimension
 13
-169.7999999999999
 23
65.91296268268696
 33
0.0
 14
-169.8
 24
97.91296268268698
 34
0.0
 50
270.0
100
AcDbRotatedDimension
1001
GENIUS_GENDTOL_13
1000

1000
h7
1000

1040
0.0
  0
DIMENSION
  5
6F2E
330
1F
100
AcDbEntity
  8
AM_5
100
AcDbDimension
  2
*D13
 10
26.96880300080149
 20
65.91296268268696
 30
0.0
 11
23.86880300080147
 21
81.91296268268697
 31
0.0
 70
    32
  1
<>
  3
AM_JIS
100
AcDbAlignedDimension
 13
-3.148902362469885
 23
97.91296268268697
 33
0.0
 14
0.1485265570673745
 24
65.91296268268696
 34
0.0
 50
90.00000000000003
100
AcDbRotatedDimension
1001
GENIUS_GENDTOL_13
1000

1000
h7
1000

1040
0.0
  0
DIMENSION
  5
718B
330
1F
100
AcDbEntity
  8
AM_5
100
AcDbDimension
  2
*D14
 10
71.77158548807326
 20
-0.0000000000000364
 30
0.0
 11
66.83905976820802
 21
16.26603169826265
 31
0.0
 70
   162
  1
-<>
  3
AM_JIS$2
100
AcDb2LineAngularDimension
 13
71.77158548807326
 23
-0.0000000000000364
 33
0.0
 14
71.77158548807328
 24
-21.81233934634156
 34
0.0
 15
70.08514487400678
 25
-16.04541063263139
 35
0.0
 16
72.95726825918868
 26
16.95605359605522
 36
0.0
1001
GENIUS_GENDTOL_13
1000

1000
h7
1000

1040
0.0
1001
ACAD
1000
DSTYLE
1002
{
1070
   179
1070
     3
1070
    76
1070
     0
1070
    75
1070
     0
1002
}
  0
LINE
  5
7398
330
1F
100
AcDbEntity
  8
AM_0
100
AcDbLine
 10
74.81906909595976
 20
-16.54296611778542
 30
0.0
 11
76.50550971002623
 21
-0.497555485154066
 31
0.0
  0
LINE
  5
739C
330
1F
100
AcDbEntity
  8
AM_0
100
AcDbLine
 10
77.98910804099225
 20
-31.91989609215375
 30
0.0
 11
81.23943393197921
 21
-0.9951109703080954
 31
0.0
  0
LINE
  5
73AC
330
1F
100
AcDbEntity
  8
DEFPOINTS
100
AcDbLine
 10
-6.148037561203156
 20
-20.7529066093791
 30
0.0
 11
-14.81033298871629
 21
-29.41520203689218
 31
0.0
  0
LINE
  5
73B5
330
1F
100
AcDbEntity
  8
AM_0
100
AcDbLine
 10
-14.81033298871629
 20
-29.41520203689218
 30
0.0
 11
-17.47145134405804
 21
-32.07632039223391
 31
0.0
  0
LINE
  5
7416
330
1F
100
AcDbEntity
  8
AM_7
100
AcDbLine
 10
107.3422716256364
 20
-10.64704067083598
 30
0.0
 11
68.16702209169301
 21
-6.529556027228829
 31
0.0
  0
DIMENSION
  5
753F
330
1F
100
AcDbEntity
  8
AM_5
100
AcDbDimension
  2
*D15
 10
0.148526557067354
 20
65.91296268268696
 30
0.0
 11
14.32529800074825
 21
72.53604979969326
 31
0.0
 70
   162
  1
-<>
  3
AM_JIS$2
100
AcDb2LineAngularDimension
 13
14.55866477893441
 23
65.91296268268696
 33
0.0
 14
-11.11756347641494
 24
65.91296268268696
 34
0.0
 15
-15.81815129366269
 25
64.23479721745256
 35
0.0
 16
15.78655440876861
 26
66.45905464860176
 36
0.0
1001
GENIUS_GENDTOL_13
1000

1000
h7
1000

1040
0.0
1001
ACAD
1000
DSTYLE
1002
{
1070
   179
1070
     3
1070
    76
1070
     0
1070
    75
1070
     0
1002
}
  0
LINE
  5
75C0
330
1F
100
AcDbEntity
  8
AM_11
100
AcDbLine
 10
0.1999999999999927
 20
-0.0000000000000077
 30
0.0
 11
-0.6000000000000046
 21
-0.0000000000000077
 31
0.0
  0
LINE
  5
75C1
330
1F
100
AcDbEntity
  8
AM_11
100
AcDbLine
 10
0.1999999999999927
 20
-0.0000000000000077
 30
0.0
 11
0.1999999999999927
 21
-0.8000000000000193
 31
0.0
  0
VIEWPORT
  5
110
330
101
100
AcDbEntity
 67
     1
  8
0
100
AcDbViewport
 10
420.5
 20
297.0
 30
0.0
 40
948.9782706766916
 41
628.452
 68
     1
 69
     1
1001
ACAD
1000
MVIEW
1002
{
1070
    16
1010
0.0
1020
0.0
1030
0.0
1010
0.0
1020
0.0
1030
1.0
1040
0.0
1040
628.452
1040
420.5
1040
297.0
1040
50.0
1040
0.0
1040
0.0
1070
     0
1070
   100
1070
     1
1070
     1
1070
     0
1070
     0
1070
     0
1070
     0
1040
0.0
1040
0.0
1040
0.0
1040
10.0
1040
10.0
1040
10.0
1040
10.0
1070
     0
1002
{
1002
}
1002
}
  0
ENDSEC
  0
SECTION
  2
OBJECTS
  0
DICTIONARY
  5
C
330
0
100
AcDbDictionary
  3
ACAD_GROUP
350
D
  3
ACAD_LAYOUT
350
1A
  3
ACAD_MLINESTYLE
350
17
  3
ACAD_PLOTSETTINGS
350
19
  3
ACAD_PLOTSTYLENAME
350
E
  3
ACDBVARIABLEDICTIONARY
350
34
  3
ACMDICTIONARY
350
43
  3
AMG
350
2B
  3
AMGSNAPSETTINGS
350
6E
  3
DWGPROPS
350
76A6
  3
ACDBHEADERROUNDTRIPXREC
350
76B2
  0
DICTIONARY
  5
74
330
1F
100
AcDbDictionary
280
     1
  3
ACAD_INDEX
360
76A8
  3
ACAD_LAYOUTSELFREF
360
76D5
  0
DICTIONARY
  5
76DA
330
101
100
AcDbDictionary
280
     1
  3
ACAD_LAYOUTSELFREF
360
76DB
  0
DICTIONARY
  5
D
102
{ACAD_REACTORS
330
C
102
}
330
C
100
AcDbDictionary
  0
DICTIONARY
  5
1A
102
{ACAD_REACTORS
330
C
102
}
330
C
100
AcDbDictionary
  0
DICTIONARY
  5
17
102
{ACAD_REACTORS
330
C
102
}
330
C
100
AcDbDictionary
  3
STANDARD
350
18
  0
DICTIONARY
  5
19
102
{ACAD_REACTORS
330
C
102
}
330
C
100
AcDbDictionary
  0
ACDBDICTIONARYWDFLT
  5
E
102
{ACAD_REACTORS
330
C
102
}
330
C
100
AcDbDictionary
281
     1
  3
Normal
350
F
100
AcDbDictionaryWithDefault
340
F
  0
DICTIONARY
  5
34
102
{ACAD_REACTORS
330
C
102
}
330
C
100
AcDbDictionary
  3
INDEXCTL
350
35
  3
SORTENTS
350
B5E
  0
DICTIONARY
  5
43
102
{ACAD_REACTORS
330
C
102
}
330
C
100
AcDbDictionary
  3
ACMSTDDICTIONARY
350
260
  0
DICTIONARY
  5
2B
102
{ACAD_REACTORS
330
C
102
}
330
C
100
AcDbDictionary
  3
ACMGSETTINGS
350
2C
  0
DICTIONARY
  5
6E
102
{ACAD_REACTORS
330
C
102
}
330
C
100
AcDbDictionary
  0
XRECORD
  5
76A6
102
{ACAD_REACTORS
330
C
102
}
330
C
100
AcDbXrecord
  1
DWGPROPS COOKIE
  2

  3

  4

  6

  7

  8

  9

300
AmdtFileType=82
301
=
302
=
303
=
304
=
305
=
306
=
307
=
308
=
309
=
 40
1.270255289351851
 41
2452838.620506898
 42
2452909.655835312
  1

 90
        1
  0
DICTIONARY
  5
76B2
102
{ACAD_REACTORS
330
C
102
}
330
C
100
AcDbDictionary
  3
TSTACKALIGN
350
76B3
  3
TSTACKSIZE
350
76B4
  3
HYPERLINKBASE
350
76B5
  3
STYLESHEET
350
76B6
  3
LAYOUTDICT
350
76B7
  3
PLOTSETDICT
350
76B8
  3
PLOTSTYLNAMDICT
350
76B9
  3
LWETCUNION
350
76BA
  3
INSUNITS
350
76BB
  3
CEPSNTYPE
350
76BC
  3
FINGERPRINTGUID
350
76BD
  3
VERSIONGUID
350
76BE
  3
PSVPSCALE
350
76BF
  3
DIMSTYLEDATA
350
76C0
  3
PUCSORTHOREF
350
76C1
  3
PUCSORTHOVIEW
350
76C2
  3
PUCSBASE
350
76C3
  3
PUCSORGTOP
350
76C4
  3
PUCSORGBOTTOM
350
76C5
  3
PUCSORGLEFT
350
76C6
  3
PUCSORGRIGHT
350
76C7
  3
PUCSORGFRONT
350
76C8
  3
PUCSORGBACK
350
76C9
  3
UCSORTHOREF
350
76CA
  3
UCSORTHOVIEW
350
76CB
  3
UCSBASE
350
76CC
  3
UCSORGTOP
350
76CD
  3
UCSORGBOTTOM
350
76CE
  3
UCSORGLEFT
350
76CF
  3
UCSORGRIGHT
350
76D0
  3
UCSORGFRONT
350
76D1
  3
UCSORGBACK
350
76D2
  0
DICTIONARY
  5
76A8
102
{ACAD_REACTORS
330
74
102
}
330
74
100
AcDbDictionary
  3
*A1
350
76A9
  0
XRECORD
  5
76D5
102
{ACAD_REACTORS
330
74
102
}
330
74
100
AcDbXrecord
340
1F
  0
XRECORD
  5
76DB
102
{ACAD_REACTORS
330
76DA
102
}
330
76DA
100
AcDbXrecord
340
101
  0
MLINESTYLE
  5
18
102
{ACAD_REACTORS
330
17
102
}
330
17
100
AcDbMlineStyle
  2
STANDARD
 70
     0
  3

 62
   256
 51
90.0
 52
90.0
 71
     2
 49
0.5
 62
   256
  6
BYLAYER
 49
-0.5
 62
   256
  6
BYLAYER
  0
ACDBPLACEHOLDER
  5
F
102
{ACAD_REACTORS
330
E
102
}
330
E
100
AcDbPlaceHolder
280
     0
  0
DICTIONARYVAR
  5
35
102
{ACAD_REACTORS
330
34
102
}
330
34
100
DictionaryVariables
280
     0
  1
1
  0
DICTIONARYVAR
  5
B5E
102
{ACAD_REACTORS
330
34
102
}
330
34
100
DictionaryVariables
280
     0
  1
96
  0
DICTIONARY
  5
260
102
{ACAD_REACTORS
330
43
102
}
330
43
100
AcDbDictionary
  0
DICTIONARY
  5
2C
102
{ACAD_REACTORS
330
2B
102
}
330
2B
100
AcDbDictionary
  3
DWGSETTINGS
350
2D
  0
XRECORD
  5
76B3
102
{ACAD_REACTORS
330
76B2
102
}
330
76B2
100
AcDbXrecord
 90
        1
  0
XRECORD
  5
76B4
102
{ACAD_REACTORS
330
76B2
102
}
330
76B2
100
AcDbXrecord
 90
       70
  0
XRECORD
  5
76B5
102
{ACAD_REACTORS
330
76B2
102
}
330
76B2
100
AcDbXrecord
  1

  0
XRECORD
  5
76B6
102
{ACAD_REACTORS
330
76B2
102
}
330
76B2
100
AcDbXrecord
  1
ASAMI.ctb
  0
XRECORD
  5
76B7
102
{ACAD_REACTORS
330
76B2
102
}
330
76B2
100
AcDbXrecord
340
1A
  0
XRECORD
  5
76B8
102
{ACAD_REACTORS
330
76B2
102
}
330
76B2
100
AcDbXrecord
340
19
  0
XRECORD
  5
76B9
102
{ACAD_REACTORS
330
76B2
102
}
330
76B2
100
AcDbXrecord
340
E
  0
XRECORD
  5
76BA
102
{ACAD_REACTORS
330
76B2
102
}
330
76B2
100
AcDbXrecord
 90
    10781
  0
XRECORD
  5
76BB
102
{ACAD_REACTORS
330
76B2
102
}
330
76B2
100
AcDbXrecord
 90
        4
  0
XRECORD
  5
76BC
102
{ACAD_REACTORS
330
76B2
102
}
330
76B2
100
AcDbXrecord
 90
        0
  0
XRECORD
  5
76BD
102
{ACAD_REACTORS
330
76B2
102
}
330
76B2
100
AcDbXrecord
  1
{AFB28963-8C59-40AE-9337-C84526B81ACE}
  0
XRECORD
  5
76BE
102
{ACAD_REACTORS
330
76B2
102
}
330
76B2
100
AcDbXrecord
  1
{C1701F10-E184-4885-8577-9B0F6E513175}
  0
XRECORD
  5
76BF
102
{ACAD_REACTORS
330
76B2
102
}
330
76B2
100
AcDbXrecord
 40
0.0
  0
XRECORD
  5
76C0
102
{ACAD_REACTORS
330
76B2
102
}
330
76B2
100
AcDbXrecord
1000
DSTYLE
1002
{
1070
    79
 70
     2
1070
   341
340
59
1070
   342
340
59
1070
   371
 70
    -1
1070
   372
 70
    -1
1002
}
  0
XRECORD
  5
76C1
102
{ACAD_REACTORS
330
76B2
102
}
330
76B2
100
AcDbXrecord
340
0
  0
XRECORD
  5
76C2
102
{ACAD_REACTORS
330
76B2
102
}
330
76B2
100
AcDbXrecord
 70
     0
  0
XRECORD
  5
76C3
102
{ACAD_REACTORS
330
76B2
102
}
330
76B2
100
AcDbXrecord
340
0
  0
XRECORD
  5
76C4
102
{ACAD_REACTORS
330
76B2
102
}
330
76B2
100
AcDbXrecord
 10
0.0
 20
0.0
 30
0.0
  0
XRECORD
  5
76C5
102
{ACAD_REACTORS
330
76B2
102
}
330
76B2
100
AcDbXrecord
 10
0.0
 20
0.0
 30
0.0
  0
XRECORD
  5
76C6
102
{ACAD_REACTORS
330
76B2
102
}
330
76B2
100
AcDbXrecord
 10
0.0
 20
0.0
 30
0.0
  0
XRECORD
  5
76C7
102
{ACAD_REACTORS
330
76B2
102
}
330
76B2
100
AcDbXrecord
 10
0.0
 20
0.0
 30
0.0
  0
XRECORD
  5
76C8
102
{ACAD_REACTORS
330
76B2
102
}
330
76B2
100
AcDbXrecord
 10
0.0
 20
0.0
 30
0.0
  0
XRECORD
  5
76C9
102
{ACAD_REACTORS
330
76B2
102
}
330
76B2
100
AcDbXrecord
 10
0.0
 20
0.0
 30
0.0
  0
XRECORD
  5
76CA
102
{ACAD_REACTORS
330
76B2
102
}
330
76B2
100
AcDbXrecord
340
0
  0
XRECORD
  5
76CB
102
{ACAD_REACTORS
330
76B2
102
}
330
76B2
100
AcDbXrecord
 70
     0
  0
XRECORD
  5
76CC
102
{ACAD_REACTORS
330
76B2
102
}
330
76B2
100
AcDbXrecord
340
0
  0
XRECORD
  5
76CD
102
{ACAD_REACTORS
330
76B2
102
}
330
76B2
100
AcDbXrecord
 10
0.0
 20
0.0
 30
0.0
  0
XRECORD
  5
76CE
102
{ACAD_REACTORS
330
76B2
102
}
330
76B2
100
AcDbXrecord
 10
0.0
 20
0.0
 30
0.0
  0
XRECORD
  5
76CF
102
{ACAD_REACTORS
330
76B2
102
}
330
76B2
100
AcDbXrecord
 10
0.0
 20
0.0
 30
0.0
  0
XRECORD
  5
76D0
102
{ACAD_REACTORS
330
76B2
102
}
330
76B2
100
AcDbXrecord
 10
0.0
 20
0.0
 30
0.0
  0
XRECORD
  5
76D1
102
{ACAD_REACTORS
330
76B2
102
}
330
76B2
100
AcDbXrecord
 10
0.0
 20
0.0
 30
0.0
  0
XRECORD
  5
76D2
102
{ACAD_REACTORS
330
76B2
102
}
330
76B2
100
AcDbXrecord
 10
0.0
 20
0.0
 30
0.0
  0
LAYER_INDEX
  5
76A9
102
{ACAD_REACTORS
330
76A8
102
}
330
76A8
100
AcDbIndex
 40
2452941.598964294
100
AcDbLayerIndex
  8
0
360
76AA
 90
        0
  8
AM_0
360
76AB
 90
      104
  8
AM_11
360
76AC
 90
        2
  8
AM_7
360
76AD
 90
        7
  8
AM_5
360
76AE
 90
       11
  8
Defpoints
360
76AF
 90
        1
  8
AM_6
360
76B0
 90
        1
  0
XRECORD
  5
2D
102
{ACAD_REACTORS
330
2C
102
}
330
2C
100
AcDbXrecord
  1
VERSION
140
15.0
  1
PRODUCT
  2
AutoCAD Mechanical 2000
  0
IDBUFFER
  5
76AA
330
0
100
AcDbIdBuffer
  0
IDBUFFER
  5
76AB
330
0
100
AcDbIdBuffer
330
63A5
330
63B1
330
6527
330
652D
330
6538
330
6544
330
6548
330
656A
330
6572
330
657A
330
657B
330
657C
330
657D
330
657E
330
65A0
330
65B2
330
65B3
330
65BA
330
65BB
330
65C1
330
65C6
330
65D3
330
65F9
330
65FA
330
65FB
330
65FC
330
65FD
330
65FE
330
660F
330
6614
330
6625
330
662B
330
6660
330
6668
330
6669
330
666A
330
666B
330
666C
330
6673
330
6678
330
6682
330
6687
330
6699
330
669A
330
66A5
330
66AE
330
66AF
330
66BA
330
66BB
330
66BC
330
66BD
330
66BE
330
66BF
330
7398
330
739C
330
73B5
330
5ECF
330
5ED7
330
5EE2
330
5EEB
330
5EF5
330
5EFE
330
5F18
330
5F21
330
5F22
330
5F24
330
5F25
330
5F28
330
5F2D
330
5F38
330
5F43
330
5F51
330
5F7C
330
60D6
330
6104
330
6106
330
6107
330
6109
330
610A
330
610B
330
610C
330
610D
330
610E
330
610F
330
6110
330
6111
330
6112
330
6113
330
6114
330
6115
330
6116
330
6117
330
6118
330
611A
330
6390
330
6393
330
6394
330
6395
330
6396
330
6397
330
6398
330
639A
330
639B
330
639C
  0
IDBUFFER
  5
76AC
330
0
100
AcDbIdBuffer
330
75C0
330
75C1
  0
IDBUFFER
  5
76AD
330
0
100
AcDbIdBuffer
330
6105
330
6108
330
639E
330
65DE
330
6609
330
66B5
330
7416
  0
IDBUFFER
  5
76AE
330
0
100
AcDbIdBuffer
330
66C8
330
6754
330
67FE
330
68AE
330
6965
330
6A41
330
6CF0
330
6E42
330
6F2E
330
718B
330
753F
  0
IDBUFFER
  5
76AF
330
0
100
AcDbIdBuffer
330
73AC
  0
IDBUFFER
  5
76B0
330
0
100
AcDbIdBuffer
330
C58
  0
ENDSEC
  0
EOF
