  0
SECTION
  2
HEADER
  9
$ACADVER
  1
AC1014
  9
$ACADMAINTVER
 70
     0
  9
$DWGCODEPAGE
  3
ANSI_932
  9
$INSBASE
 10
-587.250952
 20
747.890188
 30
0.0
  9
$EXTMIN
 10
-553.349239
 20
775.2839
 30
0.0
  9
$EXTMAX
 10
-342.949642
 20
909.193777
 30
0.0
  9
$LIMMIN
 10
-587.250952
 20
327.890188
  9
$LIMMAX
 10
600.749048
 20
957.890188
  9
$ORTHOMODE
 70
     1
  9
$REGENMODE
 70
     1
  9
$FILLMODE
 70
     1
  9
$QTEXTMODE
 70
     0
  9
$MIRRTEXT
 70
     1
  9
$DRAGMODE
 70
     2
  9
$LTSCALE
 40
5.0
  9
$OSMODE
 70
    45
  9
$ATTMODE
 70
     1
  9
$TEXTSIZE
 40
4.0
  9
$TRACEWID
 40
0.05
  9
$TEXTSTYLE
  7
STANDARD
  9
$CLAYER
  8
外形
  9
$CELTYPE
  6
CONTINUOUS
  9
$CECOLOR
 62
   256
  9
$CELTSCALE
 40
1.0
  9
$DELOBJ
 70
     1
  9
$DISPSILH
 70
     0
  9
$DIMSCALE
 40
0.0
  9
$DIMASZ
 40
2.0
  9
$DIMEXO
 40
1.0
  9
$DIMDLI
 40
8.0
  9
$DIMRND
 40
0.0
  9
$DIMDLE
 40
0.0
  9
$DIMEXE
 40
2.0
  9
$DIMTP
 40
0.0
  9
$DIMTM
 40
0.0
  9
$DIMTXT
 40
3.0
  9
$DIMCEN
 40
-1.0
  9
$DIMTSZ
 40
0.0
  9
$DIMTOL
 70
     0
  9
$DIMLIM
 70
     0
  9
$DIMTIH
 70
     0
  9
$DIMTOH
 70
     0
  9
$DIMSE1
 70
     0
  9
$DIMSE2
 70
     0
  9
$DIMTAD
 70
     1
  9
$DIMZIN
 70
     8
  9
$DIMBLK
  1

  9
$DIMASO
 70
     1
  9
$DIMSHO
 70
     1
  9
$DIMPOST
  1

  9
$DIMAPOST
  1

  9
$DIMALT
 70
     0
  9
$DIMALTD
 70
     2
  9
$DIMALTF
 40
25.4
  9
$DIMLFAC
 40
1.0
  9
$DIMTOFL
 70
     1
  9
$DIMTVP
 40
0.0
  9
$DIMTIX
 70
     0
  9
$DIMSOXD
 70
     0
  9
$DIMSAH
 70
     1
  9
$DIMBLK1
  1
_OPEN30
  9
$DIMBLK2
  1
_OPEN30
  9
$DIMSTYLE
  2
STANDARD
  9
$DIMCLRD
 70
     1
  9
$DIMCLRE
 70
     1
  9
$DIMCLRT
 70
     3
  9
$DIMTFAC
 40
1.0
  9
$DIMGAP
 40
1.0
  9
$DIMJUST
 70
     0
  9
$DIMSD1
 70
     0
  9
$DIMSD2
 70
     0
  9
$DIMTOLJ
 70
     1
  9
$DIMTZIN
 70
     8
  9
$DIMALTZ
 70
     0
  9
$DIMALTTZ
 70
     0
  9
$DIMFIT
 70
     3
  9
$DIMUPT
 70
     0
  9
$DIMUNIT
 70
     2
  9
$DIMDEC
 70
     2
  9
$DIMTDEC
 70
     2
  9
$DIMALTU
 70
     2
  9
$DIMALTTD
 70
     2
  9
$DIMTXSTY
  7
STANDARD
  9
$DIMAUNIT
 70
     0
  9
$LUNITS
 70
     2
  9
$LUPREC
 70
     0
  9
$SKETCHINC
 40
0.1
  9
$FILLETRAD
 40
0.8
  9
$AUNITS
 70
     0
  9
$AUPREC
 70
     0
  9
$MENU
  1
acad
  9
$ELEVATION
 40
0.0
  9
$PELEVATION
 40
0.0
  9
$THICKNESS
 40
0.0
  9
$LIMCHECK
 70
     0
  9
$BLIPMODE
 70
     0
  9
$CHAMFERA
 40
0.0
  9
$CHAMFERB
 40
0.0
  9
$CHAMFERC
 40
0.0
  9
$CHAMFERD
 40
0.0
  9
$SKPOLY
 70
     0
  9
$TDCREATE
 40
2450751.535399305
  9
$TDUPDATE
 40
2451927.815069444
  9
$TDINDWG
 40
0.8650082176
  9
$TDUSRTIMER
 40
0.8650082176
  9
$USRTIMER
 70
     1
  9
$ANGBASE
 50
0.0
  9
$ANGDIR
 70
     0
  9
$PDMODE
 70
     0
  9
$PDSIZE
 40
0.0
  9
$PLINEWID
 40
0.0
  9
$COORDS
 70
     1
  9
$SPLFRAME
 70
     0
  9
$SPLINETYPE
 70
     5
  9
$SPLINESEGS
 70
     8
  9
$ATTDIA
 70
     0
  9
$ATTREQ
 70
     1
  9
$HANDLING
 70
     1
  9
$HANDSEED
  5
673
  9
$SURFTAB1
 70
     6
  9
$SURFTAB2
 70
     6
  9
$SURFTYPE
 70
     6
  9
$SURFU
 70
     6
  9
$SURFV
 70
     6
  9
$UCSNAME
  2

  9
$UCSORG
 10
0.0
 20
0.0
 30
0.0
  9
$UCSXDIR
 10
1.0
 20
0.0
 30
0.0
  9
$UCSYDIR
 10
0.0
 20
1.0
 30
0.0
  9
$PUCSNAME
  2

  9
$PUCSORG
 10
0.0
 20
0.0
 30
0.0
  9
$PUCSXDIR
 10
1.0
 20
0.0
 30
0.0
  9
$PUCSYDIR
 10
0.0
 20
1.0
 30
0.0
  9
$USERI1
 70
     0
  9
$USERI2
 70
     0
  9
$USERI3
 70
     0
  9
$USERI4
 70
     0
  9
$USERI5
 70
     0
  9
$USERR1
 40
0.0
  9
$USERR2
 40
0.0
  9
$USERR3
 40
0.0
  9
$USERR4
 40
0.0
  9
$USERR5
 40
0.0
  9
$WORLDVIEW
 70
     1
  9
$SHADEDGE
 70
     3
  9
$SHADEDIF
 70
    70
  9
$TILEMODE
 70
     1
  9
$MAXACTVP
 70
    16
  9
$PINSBASE
 10
0.0
 20
0.0
 30
0.0
  9
$PLIMCHECK
 70
     0
  9
$PEXTMIN
 10
1.000000E+20
 20
1.000000E+20
 30
1.000000E+20
  9
$PEXTMAX
 10
-1.000000E+20
 20
-1.000000E+20
 30
-1.000000E+20
  9
$PLIMMIN
 10
0.0
 20
0.0
  9
$PLIMMAX
 10
12.0
 20
9.0
  9
$UNITMODE
 70
     0
  9
$VISRETAIN
 70
     0
  9
$PLINEGEN
 70
     0
  9
$PSLTSCALE
 70
     1
  9
$TREEDEPTH
 70
  3020
  9
$PICKSTYLE
 70
     1
  9
$CMLSTYLE
  2
STANDARD
  9
$CMLJUST
 70
     0
  9
$CMLSCALE
 40
1.0
  9
$PROXYGRAPHICS
 70
     1
  9
$MEASUREMENT
 70
     0
  0
ENDSEC
  0
SECTION
  2
CLASSES
  0
CLASS
  1
LWPOLYLINE
  2
AcDbPolyline
  3
"AutoCAD"
 90
        0
280
     0
281
     1
  0
CLASS
  1
ACDBDICTIONARYWDFLT
  2
AcDbDictionaryWithDefault
  3
AutoCAD 2000
 90
        0
280
     1
281
     0
  0
CLASS
  1
ACDBPLACEHOLDER
  2
AcDbPlaceHolder
  3
AutoCAD 2000
 90
        0
280
     1
281
     0
  0
CLASS
  1
LAYOUT
  2
AcDbLayout
  3
AutoCAD 2000
 90
        0
280
     1
281
     0
  0
CLASS
  1
LONG_TRANSACTION
  2
AcDbLongTransaction
  3
AutoCAD 2000
 90
        0
280
     1
281
     0
  0
CLASS
  1
LWPOLYLINE
  2
AcDbPolyline
  3
"AutoCAD"
 90
        0
280
     0
281
     1
  0
CLASS
  1
HATCH
  2
AcDbHatch
  3
"ACAD_SEDONA"
 90
        0
280
     0
281
     1
  0
CLASS
  1
XRECORD
  2
AcDbXrecord
  3
"<Built In>"
 90
        0
280
     0
281
     0
  0
ENDSEC
  0
SECTION
  2
TABLES
  0
TABLE
  2
VPORT
  5
16
100
AcDbSymbolTable
 70
     1
  0
VPORT
  5
66E
100
AcDbSymbolTableRecord
100
AcDbViewportTableRecord
  2
*ACTIVE
 70
     0
 10
0.0
 20
0.0
 11
1.0
 21
1.0
 12
-433.725254
 22
849.08569
 13
0.0
 23
0.0
 14
0.05
 24
0.05
 15
10.0
 25
10.0
 16
0.0
 26
0.0
 36
1.0
 17
0.0
 27
0.0
 37
0.0
 40
193.153963
 41
1.710425
 42
50.0
 43
0.0
 44
0.0
 50
0.0
 51
0.0
 71
     0
 72
   100
 73
     1
 74
     1
 75
     0
 76
     0
 77
     0
 78
     0
  0
ENDTAB
  0
TABLE
  2
LTYPE
  5
11
100
AcDbSymbolTable
 70
     2
  0
LTYPE
  5
12
100
AcDbSymbolTableRecord
100
AcDbLinetypeTableRecord
  2
BYBLOCK
 70
     0
  3

 72
    65
 73
     0
 40
0.0
  0
LTYPE
  5
13
100
AcDbSymbolTableRecord
100
AcDbLinetypeTableRecord
  2
BYLAYER
 70
     0
  3

 72
    65
 73
     0
 40
0.0
  0
LTYPE
  5
7
100
AcDbSymbolTableRecord
100
AcDbLinetypeTableRecord
  2
CONTINUOUS
 70
     0
  3
Solid line
 72
    65
 73
     0
 40
0.0
  0
LTYPE
  5
AA
100
AcDbSymbolTableRecord
100
AcDbLinetypeTableRecord
  2
CENTER
 70
     0
  3
Center ____ _ ____ _ ____ _ ____ _ ____ _ ____
 72
    65
 73
     4
 40
2.0
 49
1.25
 74
     0
 49
-0.25
 74
     0
 49
0.25
 74
     0
 49
-0.25
 74
     0
  0
ENDTAB
  0
TABLE
  2
LAYER
  5
E
100
AcDbSymbolTable
 70
     4
  0
LAYER
  5
6
100
AcDbSymbolTableRecord
100
AcDbLayerTableRecord
  2
0
 70
     0
 62
     7
  6
CONTINUOUS
  0
LAYER
  5
2C
100
AcDbSymbolTableRecord
100
AcDbLayerTableRecord
  2
外形
 70
     0
 62
     3
  6
CONTINUOUS
  0
LAYER
  5
37
102
{ACAD_XDICTIONARY
360
38
102
}
100
AcDbSymbolTableRecord
100
AcDbLayerTableRecord
  2
DEFPOINTS
 70
     0
 62
     7
  6
CONTINUOUS
  0
LAYER
  5
1F
100
AcDbSymbolTableRecord
100
AcDbLayerTableRecord
  2
寸法
 70
     0
 62
     1
  6
CONTINUOUS
  0
ENDTAB
  0
TABLE
  2
STYLE
  5
F
100
AcDbSymbolTable
 70
     1
  0
STYLE
  5
10
100
AcDbSymbolTableRecord
100
AcDbTextStyleTableRecord
  2
STANDARD
 70
     0
 40
0.0
 41
1.0
 50
0.0
 71
     0
 42
4.0
  3
MONOTXT
  4
BIGFONT
  0
ENDTAB
  0
TABLE
  2
VIEW
  5
14
100
AcDbSymbolTable
 70
     0
  0
ENDTAB
  0
TABLE
  2
UCS
  5
15
100
AcDbSymbolTable
 70
     0
  0
ENDTAB
  0
TABLE
  2
APPID
  5
18
100
AcDbSymbolTable
 70
     1
  0
APPID
  5
19
100
AcDbSymbolTableRecord
100
AcDbRegAppTableRecord
  2
ACAD
 70
     0
  0
ENDTAB
  0
TABLE
  2
DIMSTYLE
  5
1A
100
AcDbSymbolTable
 70
     1
  0
DIMSTYLE
105
21
102
{ACAD_XDICTIONARY
360
22
102
}
102
{ACAD_REACTORS
330
89
330
7A
330
2E
330
D5
330
42
330
C7
330
52
330
69
330
98
330
317
102
}
100
AcDbSymbolTableRecord
100
AcDbDimStyleTableRecord
  2
STANDARD
 70
     0
  3

  4

  5

  6
_OPEN30
  7
_OPEN30
 40
0.0
 41
2.0
 42
1.0
 43
8.0
 44
2.0
 45
0.0
 46
0.0
 47
0.0
 48
0.0
140
3.0
141
-1.0
142
0.0
143
25.4
144
1.0
145
0.0
146
1.0
147
1.0
 71
     0
 72
     0
 73
     0
 74
     0
 75
     0
 76
     0
 77
     1
 78
     8
170
     0
171
     2
172
     1
173
     1
174
     0
175
     0
176
     1
177
     1
178
     3
270
     2
271
     2
272
     2
273
     2
274
     2
340
10
275
     0
280
     0
281
     0
282
     0
283
     1
284
     8
285
     0
286
     0
287
     3
288
     0
  0
ENDTAB
  0
TABLE
  2
BLOCK_RECORD
  5
1
100
AcDbSymbolTable
 70
    13
  0
BLOCK_RECORD
  5
2
102
{ACAD_XDICTIONARY
360
3
102
}
100
AcDbSymbolTableRecord
100
AcDbBlockTableRecord
  2
*MODEL_SPACE
  0
BLOCK_RECORD
  5
9
102
{ACAD_XDICTIONARY
360
A
102
}
100
AcDbSymbolTableRecord
100
AcDbBlockTableRecord
  2
*PAPER_SPACE
  0
BLOCK_RECORD
  5
24
100
AcDbSymbolTableRecord
100
AcDbBlockTableRecord
  2
_DOTSMALL
  0
BLOCK_RECORD
  5
13F
100
AcDbSymbolTableRecord
100
AcDbBlockTableRecord
  2
_OPEN
  0
BLOCK_RECORD
  5
145
100
AcDbSymbolTableRecord
100
AcDbBlockTableRecord
  2
*D2
  0
BLOCK_RECORD
  5
151
100
AcDbSymbolTableRecord
100
AcDbBlockTableRecord
  2
*D3
  0
BLOCK_RECORD
  5
15D
100
AcDbSymbolTableRecord
100
AcDbBlockTableRecord
  2
*D4
  0
BLOCK_RECORD
  5
169
100
AcDbSymbolTableRecord
100
AcDbBlockTableRecord
  2
*D5
  0
BLOCK_RECORD
  5
17B
100
AcDbSymbolTableRecord
100
AcDbBlockTableRecord
  2
*D6
  0
BLOCK_RECORD
  5
189
100
AcDbSymbolTableRecord
100
AcDbBlockTableRecord
  2
*D7
  0
BLOCK_RECORD
  5
196
100
AcDbSymbolTableRecord
100
AcDbBlockTableRecord
  2
*D8
  0
BLOCK_RECORD
  5
1A4
100
AcDbSymbolTableRecord
100
AcDbBlockTableRecord
  2
*D9
  0
BLOCK_RECORD
  5
1B0
100
AcDbSymbolTableRecord
100
AcDbBlockTableRecord
  2
*D10
  0
BLOCK_RECORD
  5
305
100
AcDbSymbolTableRecord
100
AcDbBlockTableRecord
  2
*D11
  0
BLOCK_RECORD
  5
470
100
AcDbSymbolTableRecord
100
AcDbBlockTableRecord
  2
_OPEN30
  0
ENDTAB
  0
ENDSEC
  0
SECTION
  2
BLOCKS
  0
BLOCK
  5
5
100
AcDbEntity
  8
0
100
AcDbBlockBegin
  2
*MODEL_SPACE
 70
     0
 10
0.0
 20
0.0
 30
0.0
  3
*MODEL_SPACE
  1

  0
ENDBLK
  5
8
100
AcDbEntity
  8
0
100
AcDbBlockEnd
  0
BLOCK
  5
C
100
AcDbEntity
 67
     1
  8
0
100
AcDbBlockBegin
  2
*PAPER_SPACE
 70
     0
 10
0.0
 20
0.0
 30
0.0
  3
*PAPER_SPACE
  1

  0
ENDBLK
  5
D
100
AcDbEntity
 67
     1
  8
0
100
AcDbBlockEnd
  0
BLOCK
  5
29
100
AcDbEntity
  8
0
100
AcDbBlockBegin
  2
_DOTSMALL
 70
     0
 10
0.0
 20
0.0
 30
0.0
  3
_DOTSMALL
  1

  0
POLYLINE
  5
25
100
AcDbEntity
  8
0
  6
BYBLOCK
 62
     0
100
AcDb2dPolyline
 66
     1
 10
0.0
 20
0.0
 30
0.0
 70
     1
 40
0.5
 41
0.5
  0
VERTEX
  5
26
100
AcDbEntity
  8
0
  6
BYBLOCK
 62
     0
100
AcDbVertex
100
AcDb2dVertex
 10
-0.0625
 20
0.0
 30
0.0
 42
1.0
  0
VERTEX
  5
27
100
AcDbEntity
  8
0
  6
BYBLOCK
 62
     0
100
AcDbVertex
100
AcDb2dVertex
 10
0.0625
 20
0.0
 30
0.0
 42
1.0
  0
SEQEND
  5
28
100
AcDbEntity
  8
0
  6
BYBLOCK
 62
     0
  0
ENDBLK
  5
2A
100
AcDbEntity
  8
0
100
AcDbBlockEnd
  0
BLOCK
  5
140
100
AcDbEntity
  8
0
100
AcDbBlockBegin
  2
_OPEN
 70
     0
 10
0.0
 20
0.0
 30
0.0
  3
_OPEN
  1

  0
LINE
  5
141
100
AcDbEntity
  8
0
  6
BYBLOCK
 62
     0
100
AcDbLine
 10
-1.0
 20
0.166667
 30
0.0
 11
0.0
 21
0.0
 31
0.0
  0
LINE
  5
142
100
AcDbEntity
  8
0
  6
BYBLOCK
 62
     0
100
AcDbLine
 10
0.0
 20
0.0
 30
0.0
 11
-1.0
 21
-0.166667
 31
0.0
  0
LINE
  5
143
100
AcDbEntity
  8
0
  6
BYBLOCK
 62
     0
100
AcDbLine
 10
0.0
 20
0.0
 30
0.0
 11
-1.0
 21
0.0
 31
0.0
  0
ENDBLK
  5
144
100
AcDbEntity
  8
0
100
AcDbBlockEnd
  0
BLOCK
  5
5F0
100
AcDbEntity
  8
0
100
AcDbBlockBegin
  2
*D2
 70
     1
 10
0.0
 20
0.0
 30
0.0
  3
*D2
  1

  0
LINE
  5
5F1
100
AcDbEntity
  8
0
  6
BYBLOCK
 62
     1
100
AcDbLine
 10
-484.056221
 20
886.536704
 30
0.0
 11
-484.056221
 21
861.254589
 31
0.0
  0
LINE
  5
5F2
100
AcDbEntity
  8
0
  6
BYBLOCK
 62
     1
100
AcDbLine
 10
-359.056221
 20
883.534729
 30
0.0
 11
-359.056221
 21
861.254589
 31
0.0
  0
LINE
  5
5F3
100
AcDbEntity
  8
0
  6
BYBLOCK
 62
     1
100
AcDbLine
 10
-482.056221
 20
863.254589
 30
0.0
 11
-361.056221
 21
863.254589
 31
0.0
  0
INSERT
  5
5F4
100
AcDbEntity
  8
0
  6
BYBLOCK
 62
     1
100
AcDbBlockReference
  2
_OPEN30
 10
-484.056221
 20
863.254589
 30
0.0
 41
2.0
 42
2.0
 43
2.0
 50
180.0
  0
INSERT
  5
5F5
100
AcDbEntity
  8
0
  6
BYBLOCK
 62
     1
100
AcDbBlockReference
  2
_OPEN30
 10
-359.056221
 20
863.254589
 30
0.0
 41
2.0
 42
2.0
 43
2.0
  0
MTEXT
  5
5F6
100
AcDbEntity
  8
0
  6
BYBLOCK
 62
     3
100
AcDbMText
 10
-421.556221
 20
865.754589
 30
0.0
 40
3.0
 41
0.0
 71
     5
 72
     1
  1
\A1;125
  0
POINT
  5
5F7
100
AcDbEntity
  8
DEFPOINTS
  6
BYBLOCK
 62
     0
100
AcDbPoint
 10
-484.056221
 20
887.536704
 30
0.0
  0
POINT
  5
5F8
100
AcDbEntity
  8
DEFPOINTS
  6
BYBLOCK
 62
     0
100
AcDbPoint
 10
-359.056221
 20
884.534729
 30
0.0
  0
POINT
  5
5F9
100
AcDbEntity
  8
DEFPOINTS
  6
BYBLOCK
 62
     0
100
AcDbPoint
 10
-359.056221
 20
863.254589
 30
0.0
  0
ENDBLK
  5
5FA
100
AcDbEntity
  8
0
100
AcDbBlockEnd
  0
BLOCK
  5
5FB
100
AcDbEntity
  8
0
100
AcDbBlockBegin
  2
*D3
 70
     1
 10
0.0
 20
0.0
 30
0.0
  3
*D3
  1

  0
LINE
  5
5FC
100
AcDbEntity
  8
0
  6
BYBLOCK
 62
     1
100
AcDbLine
 10
-484.056221
 20
822.096404
 30
0.0
 11
-484.056221
 21
843.191966
 31
0.0
  0
LINE
  5
5FD
100
AcDbEntity
  8
0
  6
BYBLOCK
 62
     1
100
AcDbLine
 10
-457.056221
 20
822.096404
 30
0.0
 11
-457.056221
 21
843.191966
 31
0.0
  0
LINE
  5
5FE
100
AcDbEntity
  8
0
  6
BYBLOCK
 62
     1
100
AcDbLine
 10
-482.056221
 20
841.191966
 30
0.0
 11
-459.056221
 21
841.191966
 31
0.0
  0
INSERT
  5
5FF
100
AcDbEntity
  8
0
  6
BYBLOCK
 62
     1
100
AcDbBlockReference
  2
_OPEN30
 10
-484.056221
 20
841.191966
 30
0.0
 41
2.0
 42
2.0
 43
2.0
 50
180.0
  0
INSERT
  5
600
100
AcDbEntity
  8
0
  6
BYBLOCK
 62
     1
100
AcDbBlockReference
  2
_OPEN30
 10
-457.056221
 20
841.191966
 30
0.0
 41
2.0
 42
2.0
 43
2.0
  0
MTEXT
  5
601
100
AcDbEntity
  8
0
  6
BYBLOCK
 62
     3
100
AcDbMText
 10
-470.556221
 20
843.691966
 30
0.0
 40
3.0
 41
0.0
 71
     5
 72
     1
  1
\A1;27
  0
POINT
  5
602
100
AcDbEntity
  8
DEFPOINTS
  6
BYBLOCK
 62
     0
100
AcDbPoint
 10
-484.056221
 20
821.096404
 30
0.0
  0
POINT
  5
603
100
AcDbEntity
  8
DEFPOINTS
  6
BYBLOCK
 62
     0
100
AcDbPoint
 10
-457.056221
 20
821.096404
 30
0.0
  0
POINT
  5
604
100
AcDbEntity
  8
DEFPOINTS
  6
BYBLOCK
 62
     0
100
AcDbPoint
 10
-457.056221
 20
841.191966
 30
0.0
  0
ENDBLK
  5
605
100
AcDbEntity
  8
0
100
AcDbBlockEnd
  0
BLOCK
  5
606
100
AcDbEntity
  8
0
100
AcDbBlockBegin
  2
*D4
 70
     1
 10
0.0
 20
0.0
 30
0.0
  3
*D4
  1

  0
LINE
  5
607
100
AcDbEntity
  8
0
  6
BYBLOCK
 62
     1
100
AcDbLine
 10
-483.88668
 20
801.096404
 30
0.0
 11
-495.658386
 21
801.096404
 31
0.0
  0
LINE
  5
608
100
AcDbEntity
  8
0
  6
BYBLOCK
 62
     1
100
AcDbLine
 10
-485.056221
 20
821.096404
 30
0.0
 11
-495.658386
 21
821.096404
 31
0.0
  0
LINE
  5
609
100
AcDbEntity
  8
0
  6
BYBLOCK
 62
     1
100
AcDbLine
 10
-493.658386
 20
803.096404
 30
0.0
 11
-493.658386
 21
819.096404
 31
0.0
  0
INSERT
  5
60A
100
AcDbEntity
  8
0
  6
BYBLOCK
 62
     1
100
AcDbBlockReference
  2
_OPEN30
 10
-493.658386
 20
801.096404
 30
0.0
 41
2.0
 42
2.0
 43
2.0
 50
270.0
  0
INSERT
  5
60B
100
AcDbEntity
  8
0
  6
BYBLOCK
 62
     1
100
AcDbBlockReference
  2
_OPEN30
 10
-493.658386
 20
821.096404
 30
0.0
 41
2.0
 42
2.0
 43
2.0
 50
90.0
  0
MTEXT
  5
60C
100
AcDbEntity
  8
0
  6
BYBLOCK
 62
     3
100
AcDbMText
 10
-496.158386
 20
811.096404
 30
0.0
 40
3.0
 41
0.0
 71
     5
 72
     1
  1
\A1;20
 11
0.0
 21
1.0
 31
0.0
  0
POINT
  5
60D
100
AcDbEntity
  8
DEFPOINTS
  6
BYBLOCK
 62
     0
100
AcDbPoint
 10
-482.88668
 20
801.096404
 30
0.0
  0
POINT
  5
60E
100
AcDbEntity
  8
DEFPOINTS
  6
BYBLOCK
 62
     0
100
AcDbPoint
 10
-484.056221
 20
821.096404
 30
0.0
  0
POINT
  5
60F
100
AcDbEntity
  8
DEFPOINTS
  6
BYBLOCK
 62
     0
100
AcDbPoint
 10
-493.658386
 20
821.096404
 30
0.0
  0
ENDBLK
  5
610
100
AcDbEntity
  8
0
100
AcDbBlockEnd
  0
BLOCK
  5
611
100
AcDbEntity
  8
0
100
AcDbBlockBegin
  2
*D5
 70
     1
 10
0.0
 20
0.0
 30
0.0
  3
*D5
  1

  0
LINE
  5
612
100
AcDbEntity
  8
0
  6
BYBLOCK
 62
     1
100
AcDbLine
 10
-516.468152
 20
889.37406
 30
0.0
 11
-519.235142
 21
875.139127
 31
0.0
  0
LINE
  5
613
100
AcDbEntity
  8
0
  6
BYBLOCK
 62
     1
100
AcDbLine
 10
-516.87022
 20
883.579065
 30
0.0
 11
-517.628375
 21
874.91331
 31
0.0
  0
ARC
  5
614
100
AcDbEntity
  8
0
  6
BYBLOCK
 62
     1
100
AcDbCircle
 10
-516.277343
 20
890.355687
 30
0.0
 40
13.501364
100
AcDbArc
 50
241.962485
 51
259.0
  0
LINE
  5
615
100
AcDbEntity
  8
0
  6
BYBLOCK
 62
     1
100
AcDbLine
 10
-522.623653
 20
878.438843
 30
0.0
 11
-530.214357
 21
882.481269
 31
0.0
  0
ARC
  5
616
100
AcDbEntity
  8
0
  6
BYBLOCK
 62
     1
100
AcDbCircle
 10
-516.277343
 20
890.355687
 30
0.0
 40
13.501364
100
AcDbArc
 50
242.009629
 51
250.504814
  0
ARC
  5
617
100
AcDbEntity
  8
0
  6
BYBLOCK
 62
     1
100
AcDbCircle
 10
-516.277343
 20
890.355687
 30
0.0
 40
13.501364
100
AcDbArc
 50
273.495186
 51
281.990371
  0
ARC
  5
618
100
AcDbEntity
  8
0
  6
BYBLOCK
 62
     1
100
AcDbCircle
 10
-516.277343
 20
890.355687
 30
0.0
 40
13.501364
100
AcDbArc
 50
259.0
 51
265.0
  0
INSERT
  5
619
100
AcDbEntity
  8
0
  6
BYBLOCK
 62
     1
100
AcDbBlockReference
  2
_OPEN30
 10
-518.853524
 20
877.102381
 30
0.0
 41
2.0
 42
2.0
 43
2.0
 50
344.752407
  0
INSERT
  5
61A
100
AcDbEntity
  8
0
  6
BYBLOCK
 62
     1
100
AcDbBlockReference
  2
_OPEN30
 10
-517.454064
 20
876.9057
 30
0.0
 41
2.0
 42
2.0
 43
2.0
 50
179.247593
  0
MTEXT
  5
61B
100
AcDbEntity
  8
0
  6
BYBLOCK
 62
     3
100
AcDbMText
 10
-525.243881
 20
882.666656
 30
0.0
 40
3.0
 41
0.0
 71
     5
 72
     1
  1
\A1;6°
 11
0.88264
 21
-0.47005
 31
0.0
  0
POINT
  5
61C
100
AcDbEntity
  8
DEFPOINTS
  6
BYBLOCK
 62
     0
100
AcDbPoint
 10
-517.922745
 20
876.95496
 30
0.0
 50
95.0
  0
POINT
  5
61D
100
AcDbEntity
  8
DEFPOINTS
  6
BYBLOCK
 62
     0
100
AcDbPoint
 10
-516.277343
 20
890.355687
 30
0.0
 50
95.0
  0
POINT
  5
61E
100
AcDbEntity
  8
DEFPOINTS
  6
BYBLOCK
 62
     0
100
AcDbPoint
 10
-512.984972
 20
907.293467
 30
0.0
 50
95.0
  0
POINT
  5
61F
100
AcDbEntity
  8
DEFPOINTS
  6
BYBLOCK
 62
     0
100
AcDbPoint
 10
-516.277343
 20
890.355687
 30
0.0
 50
95.0
  0
POINT
  5
620
100
AcDbEntity
  8
DEFPOINTS
  6
BYBLOCK
 62
     0
100
AcDbPoint
 10
-516.783064
 20
884.57526
 30
0.0
 50
95.0
  0
ENDBLK
  5
621
100
AcDbEntity
  8
0
100
AcDbBlockEnd
  0
BLOCK
  5
622
100
AcDbEntity
  8
0
100
AcDbBlockBegin
  2
*D6
 70
     1
 10
0.0
 20
0.0
 30
0.0
  3
*D6
  1

  0
LINE
  5
623
100
AcDbEntity
  8
0
  6
BYBLOCK
 62
     1
100
AcDbLine
 10
-485.080653
 20
887.8112
 30
0.0
 11
-502.77492
 21
892.552364
 31
0.0
  0
LINE
  5
624
100
AcDbEntity
  8
0
  6
BYBLOCK
 62
     1
100
AcDbLine
 10
-484.201883
 20
886.556186
 30
0.0
 11
-485.798441
 21
868.30744
 31
0.0
  0
ARC
  5
625
100
AcDbEntity
  8
0
  6
BYBLOCK
 62
     1
100
AcDbCircle
 10
-484.114727
 20
887.552381
 30
0.0
 40
17.318453
100
AcDbArc
 50
171.620414
 51
258.379586
  0
INSERT
  5
626
100
AcDbEntity
  8
0
  6
BYBLOCK
 62
     1
100
AcDbBlockReference
  2
_OPEN30
 10
-500.843068
 20
892.034726
 30
0.0
 41
2.0
 42
2.0
 43
2.0
 50
78.310207
  0
INSERT
  5
627
100
AcDbEntity
  8
0
  6
BYBLOCK
 62
     1
100
AcDbBlockReference
  2
_OPEN30
 10
-485.62413
 20
870.29983
 30
0.0
 41
2.0
 42
2.0
 43
2.0
 50
351.689793
  0
MTEXT
  5
628
100
AcDbEntity
  8
0
  6
BYBLOCK
 62
     3
100
AcDbMText
 10
-496.253293
 20
879.052865
 30
0.0
 40
3.0
 41
0.0
 71
     5
 72
     1
  1
\A1;100°
 11
0.573576
 21
-0.819152
 31
0.0
  0
POINT
  5
629
100
AcDbEntity
  8
DEFPOINTS
  6
BYBLOCK
 62
     0
100
AcDbPoint
 10
-500.554141
 20
882.104952
 30
0.0
  0
POINT
  5
62A
100
AcDbEntity
  8
DEFPOINTS
  6
BYBLOCK
 62
     0
100
AcDbPoint
 10
-484.056221
 20
888.221106
 30
0.0
  0
POINT
  5
62B
100
AcDbEntity
  8
DEFPOINTS
  6
BYBLOCK
 62
     0
100
AcDbPoint
 10
-472.579143
 20
884.46143
 30
0.0
  0
POINT
  5
62C
100
AcDbEntity
  8
DEFPOINTS
  6
BYBLOCK
 62
     0
100
AcDbPoint
 10
-483.466321
 20
887.378641
 30
0.0
  0
POINT
  5
62D
100
AcDbEntity
  8
DEFPOINTS
  6
BYBLOCK
 62
     0
100
AcDbPoint
 10
-483.073868
 20
899.449451
 30
0.0
  0
ENDBLK
  5
62E
100
AcDbEntity
  8
0
100
AcDbBlockEnd
  0
BLOCK
  5
62F
100
AcDbEntity
  8
0
100
AcDbBlockBegin
  2
*D7
 70
     1
 10
0.0
 20
0.0
 30
0.0
  3
*D7
  1

  0
LINE
  5
630
100
AcDbEntity
  8
0
  6
BYBLOCK
 62
     1
100
AcDbLine
 10
-485.056221
 20
887.536704
 30
0.0
 11
-496.093985
 21
887.536704
 31
0.0
  0
LINE
  5
631
100
AcDbEntity
  8
0
  6
BYBLOCK
 62
     1
100
AcDbLine
 10
-482.452454
 20
904.534729
 30
0.0
 11
-496.093985
 21
904.534729
 31
0.0
  0
LINE
  5
632
100
AcDbEntity
  8
0
  6
BYBLOCK
 62
     1
100
AcDbLine
 10
-494.093985
 20
889.536704
 30
0.0
 11
-494.093985
 21
902.534729
 31
0.0
  0
INSERT
  5
633
100
AcDbEntity
  8
0
  6
BYBLOCK
 62
     1
100
AcDbBlockReference
  2
_OPEN30
 10
-494.093985
 20
887.536704
 30
0.0
 41
2.0
 42
2.0
 43
2.0
 50
270.0
  0
INSERT
  5
634
100
AcDbEntity
  8
0
  6
BYBLOCK
 62
     1
100
AcDbBlockReference
  2
_OPEN30
 10
-494.093985
 20
904.534729
 30
0.0
 41
2.0
 42
2.0
 43
2.0
 50
90.0
  0
MTEXT
  5
635
100
AcDbEntity
  8
0
  6
BYBLOCK
 62
     3
100
AcDbMText
 10
-496.593985
 20
896.035716
 30
0.0
 40
3.0
 41
0.0
 71
     5
 72
     1
  1
\A1;17
 11
0.0
 21
1.0
 31
0.0
  0
POINT
  5
636
100
AcDbEntity
  8
DEFPOINTS
  6
BYBLOCK
 62
     0
100
AcDbPoint
 10
-484.056221
 20
887.536704
 30
0.0
  0
POINT
  5
637
100
AcDbEntity
  8
DEFPOINTS
  6
BYBLOCK
 62
     0
100
AcDbPoint
 10
-481.452454
 20
904.534729
 30
0.0
  0
POINT
  5
638
100
AcDbEntity
  8
DEFPOINTS
  6
BYBLOCK
 62
     0
100
AcDbPoint
 10
-494.093985
 20
904.534729
 30
0.0
  0
ENDBLK
  5
639
100
AcDbEntity
  8
0
100
AcDbBlockEnd
  0
BLOCK
  5
63A
100
AcDbEntity
  8
0
100
AcDbBlockBegin
  2
*D8
 70
     1
 10
0.0
 20
0.0
 30
0.0
  3
*D8
  1

  0
LINE
  5
63B
100
AcDbEntity
  8
0
  6
BYBLOCK
 62
     1
100
AcDbLine
 10
-484.056221
 20
885.536704
 30
0.0
 11
-484.056221
 21
868.220996
 31
0.0
  0
LINE
  5
63C
100
AcDbEntity
  8
0
  6
BYBLOCK
 62
     1
100
AcDbLine
 10
-471.613217
 20
884.202611
 30
0.0
 11
-465.398679
 21
882.537431
 31
0.0
  0
ARC
  5
63D
100
AcDbEntity
  8
0
  6
BYBLOCK
 62
     1
100
AcDbCircle
 10
-484.056221
 20
887.536704
 30
0.0
 40
17.315708
100
AcDbArc
 50
276.621465
 51
338.378535
  0
INSERT
  5
63E
100
AcDbEntity
  8
0
  6
BYBLOCK
 62
     1
100
AcDbBlockReference
  2
_OPEN30
 10
-484.056221
 20
870.220996
 30
0.0
 41
2.0
 42
2.0
 43
2.0
 50
183.310732
  0
INSERT
  5
63F
100
AcDbEntity
  8
0
  6
BYBLOCK
 62
     1
100
AcDbBlockReference
  2
_OPEN30
 10
-467.330531
 20
883.055069
 30
0.0
 41
2.0
 42
2.0
 43
2.0
 50
71.689268
  0
MTEXT
  5
640
100
AcDbEntity
  8
0
  6
BYBLOCK
 62
     3
100
AcDbMText
 10
-475.036989
 20
875.782612
 30
0.0
 40
3.0
 41
0.0
 71
     5
 72
     1
  1
\A1;75°
 11
0.793353
 21
0.608761
 31
0.0
  0
POINT
  5
641
100
AcDbEntity
  8
DEFPOINTS
  6
BYBLOCK
 62
     0
100
AcDbPoint
 10
-476.738286
 20
871.843343
 30
0.0
  0
POINT
  5
642
100
AcDbEntity
  8
DEFPOINTS
  6
BYBLOCK
 62
     0
100
AcDbPoint
 10
-472.579143
 20
884.46143
 30
0.0
  0
POINT
  5
643
100
AcDbEntity
  8
DEFPOINTS
  6
BYBLOCK
 62
     0
100
AcDbPoint
 10
-484.056221
 20
887.536704
 30
0.0
  0
POINT
  5
644
100
AcDbEntity
  8
DEFPOINTS
  6
BYBLOCK
 62
     0
100
AcDbPoint
 10
-484.056221
 20
886.536704
 30
0.0
  0
POINT
  5
645
100
AcDbEntity
  8
DEFPOINTS
  6
BYBLOCK
 62
     0
100
AcDbPoint
 10
-483.466321
 20
887.378641
 30
0.0
  0
ENDBLK
  5
646
100
AcDbEntity
  8
0
100
AcDbBlockEnd
  0
BLOCK
  5
647
100
AcDbEntity
  8
0
100
AcDbBlockBegin
  2
*D9
 70
     1
 10
0.0
 20
0.0
 30
0.0
  3
*D9
  1

  0
LINE
  5
648
100
AcDbEntity
  8
0
  6
BYBLOCK
 62
     1
100
AcDbLine
 10
-358.056221
 20
821.096404
 30
0.0
 11
-342.949642
 21
821.096404
 31
0.0
  0
LINE
  5
649
100
AcDbEntity
  8
0
  6
BYBLOCK
 62
     1
100
AcDbLine
 10
-358.056221
 20
801.096404
 30
0.0
 11
-342.949642
 21
801.096404
 31
0.0
  0
LINE
  5
64A
100
AcDbEntity
  8
0
  6
BYBLOCK
 62
     1
100
AcDbLine
 10
-344.949642
 20
819.096404
 30
0.0
 11
-344.949642
 21
803.096404
 31
0.0
  0
INSERT
  5
64B
100
AcDbEntity
  8
0
  6
BYBLOCK
 62
     1
100
AcDbBlockReference
  2
_OPEN30
 10
-344.949642
 20
821.096404
 30
0.0
 41
2.0
 42
2.0
 43
2.0
 50
90.0
  0
INSERT
  5
64C
100
AcDbEntity
  8
0
  6
BYBLOCK
 62
     1
100
AcDbBlockReference
  2
_OPEN30
 10
-344.949642
 20
801.096404
 30
0.0
 41
2.0
 42
2.0
 43
2.0
 50
270.0
  0
MTEXT
  5
64D
100
AcDbEntity
  8
0
  6
BYBLOCK
 62
     3
100
AcDbMText
 10
-347.449642
 20
811.096404
 30
0.0
 40
3.0
 41
0.0
 71
     5
 72
     1
  1
\A1;20
 11
0.0
 21
1.0
 31
0.0
  0
POINT
  5
64E
100
AcDbEntity
  8
DEFPOINTS
  6
BYBLOCK
 62
     0
100
AcDbPoint
 10
-359.056221
 20
821.096404
 30
0.0
  0
POINT
  5
64F
100
AcDbEntity
  8
DEFPOINTS
  6
BYBLOCK
 62
     0
100
AcDbPoint
 10
-359.056221
 20
801.096404
 30
0.0
  0
POINT
  5
650
100
AcDbEntity
  8
DEFPOINTS
  6
BYBLOCK
 62
     0
100
AcDbPoint
 10
-344.949642
 20
801.096404
 30
0.0
  0
ENDBLK
  5
651
100
AcDbEntity
  8
0
100
AcDbBlockEnd
  0
BLOCK
  5
652
100
AcDbEntity
  8
0
100
AcDbBlockBegin
  2
*D10
 70
     1
 10
0.0
 20
0.0
 30
0.0
  3
*D10
  1

  0
LINE
  5
653
100
AcDbEntity
  8
0
  6
BYBLOCK
 62
     1
100
AcDbLine
 10
-358.056221
 20
904.534729
 30
0.0
 11
-344.05114
 21
904.534729
 31
0.0
  0
LINE
  5
654
100
AcDbEntity
  8
0
  6
BYBLOCK
 62
     1
100
AcDbLine
 10
-358.056221
 20
884.534729
 30
0.0
 11
-344.05114
 21
884.534729
 31
0.0
  0
LINE
  5
655
100
AcDbEntity
  8
0
  6
BYBLOCK
 62
     1
100
AcDbLine
 10
-346.05114
 20
902.534729
 30
0.0
 11
-346.05114
 21
886.534729
 31
0.0
  0
INSERT
  5
656
100
AcDbEntity
  8
0
  6
BYBLOCK
 62
     1
100
AcDbBlockReference
  2
_OPEN30
 10
-346.05114
 20
904.534729
 30
0.0
 41
2.0
 42
2.0
 43
2.0
 50
90.0
  0
INSERT
  5
657
100
AcDbEntity
  8
0
  6
BYBLOCK
 62
     1
100
AcDbBlockReference
  2
_OPEN30
 10
-346.05114
 20
884.534729
 30
0.0
 41
2.0
 42
2.0
 43
2.0
 50
270.0
  0
MTEXT
  5
658
100
AcDbEntity
  8
0
  6
BYBLOCK
 62
     3
100
AcDbMText
 10
-348.55114
 20
894.534729
 30
0.0
 40
3.0
 41
0.0
 71
     5
 72
     1
  1
\A1;20
 11
0.0
 21
1.0
 31
0.0
  0
POINT
  5
659
100
AcDbEntity
  8
DEFPOINTS
  6
BYBLOCK
 62
     0
100
AcDbPoint
 10
-359.056221
 20
904.534729
 30
0.0
  0
POINT
  5
65A
100
AcDbEntity
  8
DEFPOINTS
  6
BYBLOCK
 62
     0
100
AcDbPoint
 10
-359.056221
 20
884.534729
 30
0.0
  0
POINT
  5
65B
100
AcDbEntity
  8
DEFPOINTS
  6
BYBLOCK
 62
     0
100
AcDbPoint
 10
-346.05114
 20
884.534729
 30
0.0
  0
ENDBLK
  5
65C
100
AcDbEntity
  8
0
100
AcDbBlockEnd
  0
BLOCK
  5
65D
100
AcDbEntity
  8
0
100
AcDbBlockBegin
  2
*D11
 70
     1
 10
0.0
 20
0.0
 30
0.0
  3
*D11
  1

  0
LINE
  5
65E
100
AcDbEntity
  8
0
  6
BYBLOCK
 62
     1
100
AcDbLine
 10
-538.020174
 20
824.403111
 30
0.0
 11
-553.036812
 21
828.426807
 31
0.0
  0
LINE
  5
65F
100
AcDbEntity
  8
0
  6
BYBLOCK
 62
     1
100
AcDbLine
 10
-538.05116
 20
824.320074
 30
0.0
 11
-553.349239
 21
827.017538
 31
0.0
  0
ARC
  5
660
100
AcDbEntity
  8
0
  6
BYBLOCK
 62
     1
100
AcDbCircle
 10
-537.054248
 20
824.144292
 30
0.0
 40
14.546368
100
AcDbArc
 50
149.194583
 51
165.0
  0
LINE
  5
661
100
AcDbEntity
  8
0
  6
BYBLOCK
 62
     1
100
AcDbLine
 10
-549.54829
 20
831.593837
 30
0.0
 11
-545.144023
 21
838.980476
 31
0.0
  0
ARC
  5
662
100
AcDbEntity
  8
0
  6
BYBLOCK
 62
     1
100
AcDbCircle
 10
-537.054248
 20
824.144292
 30
0.0
 40
14.546368
100
AcDbArc
 50
149.232214
 51
157.116107
  0
ARC
  5
663
100
AcDbEntity
  8
0
  6
BYBLOCK
 62
     1
100
AcDbCircle
 10
-537.054248
 20
824.144292
 30
0.0
 40
14.546368
100
AcDbArc
 50
177.883893
 51
185.767786
  0
ARC
  5
664
100
AcDbEntity
  8
0
  6
BYBLOCK
 62
     1
100
AcDbCircle
 10
-537.054248
 20
824.144292
 30
0.0
 40
14.546368
100
AcDbArc
 50
165.0
 51
170.0
  0
INSERT
  5
665
100
AcDbEntity
  8
0
  6
BYBLOCK
 62
     1
100
AcDbBlockReference
  2
_OPEN30
 10
-551.10496
 20
827.909169
 30
0.0
 41
2.0
 42
2.0
 43
2.0
 50
251.058053
  0
INSERT
  5
666
100
AcDbEntity
  8
0
  6
BYBLOCK
 62
     1
100
AcDbBlockReference
  2
_OPEN30
 10
-551.379624
 20
826.670242
 30
0.0
 41
2.0
 42
2.0
 43
2.0
 50
83.941947
  0
MTEXT
  5
667
100
AcDbEntity
  8
0
  6
BYBLOCK
 62
     3
100
AcDbMText
 10
-549.493435
 20
836.567466
 30
0.0
 40
3.0
 41
0.0
 71
     5
 72
     1
  1
\A1;5°
 11
0.512124
 21
0.858911
 31
0.0
  0
POINT
  5
668
100
AcDbEntity
  8
DEFPOINTS
  6
BYBLOCK
 62
     0
100
AcDbPoint
 10
-551.300097
 20
827.085823
 30
0.0
  0
POINT
  5
669
100
AcDbEntity
  8
DEFPOINTS
  6
BYBLOCK
 62
     0
100
AcDbPoint
 10
-510.456496
 20
819.454391
 30
0.0
  0
POINT
  5
66A
100
AcDbEntity
  8
DEFPOINTS
  6
BYBLOCK
 62
     0
100
AcDbPoint
 10
-537.054248
 20
824.144292
 30
0.0
  0
POINT
  5
66B
100
AcDbEntity
  8
DEFPOINTS
  6
BYBLOCK
 62
     0
100
AcDbPoint
 10
-511.065733
 20
817.18069
 30
0.0
  0
POINT
  5
66C
100
AcDbEntity
  8
DEFPOINTS
  6
BYBLOCK
 62
     0
100
AcDbPoint
 10
-537.066352
 20
824.146426
 30
0.0
  0
ENDBLK
  5
66D
100
AcDbEntity
  8
0
100
AcDbBlockEnd
  0
BLOCK
  5
471
100
AcDbEntity
  8
0
100
AcDbBlockBegin
  2
_OPEN30
 70
     0
 10
0.0
 20
0.0
 30
0.0
  3
_OPEN30
  1

  0
LINE
  5
472
100
AcDbEntity
  8
0
  6
BYBLOCK
 62
     0
100
AcDbLine
 10
-1.0
 20
0.267949
 30
0.0
 11
0.0
 21
0.0
 31
0.0
  0
LINE
  5
473
100
AcDbEntity
  8
0
  6
BYBLOCK
 62
     0
100
AcDbLine
 10
0.0
 20
0.0
 30
0.0
 11
-1.0
 21
-0.267949
 31
0.0
  0
LINE
  5
474
100
AcDbEntity
  8
0
  6
BYBLOCK
 62
     0
100
AcDbLine
 10
0.0
 20
0.0
 30
0.0
 11
-1.0
 21
0.0
 31
0.0
  0
ENDBLK
  5
475
100
AcDbEntity
  8
0
100
AcDbBlockEnd
  0
ENDSEC
  0
SECTION
  2
ENTITIES
  0
LINE
  5
2B
100
AcDbEntity
  8
外形
  6
CONTINUOUS
100
AcDbLine
 10
-457.056221
 20
821.096404
 30
0.0
 11
-359.056221
 21
821.096404
 31
0.0
  0
LINE
  5
2D
100
AcDbEntity
  8
外形
  6
CONTINUOUS
100
AcDbLine
 10
-482.88668
 20
801.096404
 30
0.0
 11
-359.056221
 21
801.096404
 31
0.0
  0
DIMENSION
  5
2E
100
AcDbEntity
  8
寸法
  6
CONTINUOUS
100
AcDbDimension
  2
*D2
 10
-359.056221
 20
863.254589
 30
0.0
 11
-421.556221
 21
865.754589
 31
0.0
 70
    32
  3
STANDARD
100
AcDbAlignedDimension
 13
-484.056221
 23
887.536704
 33
0.0
 14
-359.056221
 24
884.534729
 34
0.0
100
AcDbRotatedDimension
1001
ACAD
1000
DSTYLE
1002
{
1070
    40
1040
1.0
1002
}
  0
LINE
  5
3E
100
AcDbEntity
  8
外形
  6
CONTINUOUS
100
AcDbLine
 10
-359.056221
 20
884.534729
 30
0.0
 11
-468.467774
 21
884.534729
 31
0.0
  0
LINE
  5
3F
100
AcDbEntity
  8
外形
  6
CONTINUOUS
100
AcDbLine
 10
-359.056221
 20
904.534729
 30
0.0
 11
-481.452454
 21
904.534729
 31
0.0
  0
DIMENSION
  5
42
100
AcDbEntity
  8
寸法
  6
CONTINUOUS
100
AcDbDimension
  2
*D3
 10
-457.056221
 20
841.191966
 30
0.0
 11
-470.556221
 21
843.691966
 31
0.0
 70
    32
  3
STANDARD
100
AcDbAlignedDimension
 13
-484.056221
 23
821.096404
 33
0.0
 14
-457.056221
 24
821.096404
 34
0.0
100
AcDbRotatedDimension
1001
ACAD
1000
DSTYLE
1002
{
1070
    40
1040
1.0
1002
}
  0
LINE
  5
50
100
AcDbEntity
  8
外形
  6
CONTINUOUS
100
AcDbLine
 10
-457.82197
 20
823.954217
 30
0.0
 11
-457.056221
 21
821.096404
 31
0.0
  0
TEXT
  5
51
100
AcDbEntity
  8
外形
  6
CONTINUOUS
 62
     2
100
AcDbText
 10
-488.124021
 20
774.8839
 30
0.0
 40
6.0
  1
ＰＣＢＮ　Ｒ２０２０－４３
100
AcDbText
  0
DIMENSION
  5
52
100
AcDbEntity
  8
寸法
  6
CONTINUOUS
100
AcDbDimension
  2
*D4
 10
-493.658386
 20
821.096404
 30
0.0
 11
-496.158386
 21
811.096404
 31
0.0
 70
    32
  3
STANDARD
100
AcDbAlignedDimension
 13
-482.88668
 23
801.096404
 33
0.0
 14
-484.056221
 24
821.096404
 34
0.0
 50
90.0
100
AcDbRotatedDimension
1001
ACAD
1000
DSTYLE
1002
{
1070
    40
1040
1.0
1002
}
  0
LINE
  5
5F
100
AcDbEntity
  8
外形
  6
CONTINUOUS
100
AcDbLine
 10
-471.513112
 20
822.462781
 30
0.0
 11
-470.997634
 21
817.730774
 31
0.0
  0
LINE
  5
61
100
AcDbEntity
  8
外形
  6
CONTINUOUS
100
AcDbLine
 10
-484.056221
 20
821.096404
 30
0.0
 11
-483.540743
 21
816.364398
 31
0.0
  0
LINE
  5
62
100
AcDbEntity
  8
外形
  6
CONTINUOUS
100
AcDbLine
 10
-483.171515
 20
813.205807
 30
0.0
 11
-470.678112
 21
814.566769
 31
0.0
  0
LINE
  5
63
100
AcDbEntity
  8
外形
  6
CONTINUOUS
100
AcDbLine
 10
-482.88668
 20
813.243009
 30
0.0
 11
-482.88668
 21
801.096404
 31
0.0
  0
LINE
  5
64
100
AcDbEntity
  8
外形
  6
CONTINUOUS
100
AcDbLine
 10
-483.540743
 20
816.364398
 30
0.0
 11
-470.997634
 21
817.730774
 31
0.0
  0
LINE
  5
65
100
AcDbEntity
  8
外形
  6
CONTINUOUS
100
AcDbLine
 10
-484.056221
 20
821.096404
 30
0.0
 11
-457.82197
 21
823.954217
 31
0.0
  0
LINE
  5
68
100
AcDbEntity
  8
寸法
  6
CONTINUOUS
100
AcDbLine
 10
-516.277343
 20
890.355687
 30
0.0
 11
-516.87022
 21
883.579065
 31
0.0
  0
DIMENSION
  5
69
100
AcDbEntity
  8
寸法
  6
CONTINUOUS
100
AcDbDimension
  2
*D5
 10
-516.783064
 20
884.57526
 30
0.0
 11
-525.243881
 21
882.666656
 31
0.0
 70
    34
 51
95.0
  3
STANDARD
100
AcDb2LineAngularDimension
 13
-512.984972
 23
907.293467
 33
0.0
 14
-516.277343
 24
890.355687
 34
0.0
 15
-516.277343
 25
890.355687
 35
0.0
 16
-517.922745
 26
876.95496
 36
0.0
1001
ACAD
1000
DSTYLE
1002
{
1070
   271
1070
     2
1070
    40
1040
1.0
1070
    79
1070
     2
1070
   179
1070
     2
1002
}
  0
DIMENSION
  5
7A
100
AcDbEntity
  8
寸法
  6
CONTINUOUS
100
AcDbDimension
  2
*D6
 10
-483.073868
 20
899.449451
 30
0.0
 11
-496.253293
 21
879.052865
 31
0.0
 70
    34
  3
STANDARD
100
AcDb2LineAngularDimension
 13
-472.579143
 23
884.46143
 33
0.0
 14
-483.466321
 24
887.378641
 34
0.0
 15
-484.056221
 25
888.221106
 35
0.0
 16
-500.554141
 26
882.104952
 36
0.0
1001
ACAD
1000
DSTYLE
1002
{
1070
   271
1070
     2
1070
    40
1040
1.0
1070
    79
1070
     2
1070
   179
1070
     2
1002
}
  0
DIMENSION
  5
89
100
AcDbEntity
  8
寸法
  6
CONTINUOUS
100
AcDbDimension
  2
*D7
 10
-494.093985
 20
904.534729
 30
0.0
 11
-496.593985
 21
896.035716
 31
0.0
 70
    32
  3
STANDARD
100
AcDbAlignedDimension
 13
-484.056221
 23
887.536704
 33
0.0
 14
-481.452454
 24
904.534729
 34
0.0
 50
90.0
100
AcDbRotatedDimension
1001
ACAD
1000
DSTYLE
1002
{
1070
    40
1040
1.0
1002
}
  0
LINE
  5
96
100
AcDbEntity
  8
外形
  6
CONTINUOUS
100
AcDbLine
 10
-484.056221
 20
888.221106
 30
0.0
 11
-483.073868
 21
899.449451
 31
0.0
  0
LINE
  5
97
100
AcDbEntity
  8
外形
  6
CONTINUOUS
100
AcDbLine
 10
-471.575132
 20
885.164446
 30
0.0
 11
-470.495854
 21
897.500657
 31
0.0
  0
DIMENSION
  5
98
100
AcDbEntity
  8
寸法
  6
CONTINUOUS
100
AcDbDimension
  2
*D8
 10
-483.466321
 20
887.378641
 30
0.0
 11
-475.036989
 21
875.782612
 31
0.0
 70
    34
  3
STANDARD
100
AcDb2LineAngularDimension
 13
-484.056221
 23
887.536704
 33
0.0
 14
-484.056221
 24
886.536704
 34
0.0
 15
-472.579143
 25
884.46143
 35
0.0
 16
-476.738286
 26
871.843343
 36
0.0
1001
ACAD
1000
DSTYLE
1002
{
1070
   271
1070
     2
1070
    40
1040
1.0
1070
    79
1070
     2
1070
   179
1070
     2
1002
}
  0
LINE
  5
A7
100
AcDbEntity
  8
外形
  6
CONTINUOUS
100
AcDbLine
 10
-472.579143
 20
884.46143
 30
0.0
 11
-483.466321
 21
887.378641
 31
0.0
  0
LINE
  5
A8
100
AcDbEntity
  8
寸法
  6
CONTINUOUS
100
AcDbLine
 10
-484.056221
 20
887.536704
 30
0.0
 11
-484.056221
 21
886.536704
 31
0.0
  0
LINE
  5
AD
100
AcDbEntity
  8
外形
  6
CONTINUOUS
100
AcDbLine
 10
-468.467774
 20
884.534729
 30
0.0
 11
-471.557788
 21
885.362695
 31
0.0
  0
LINE
  5
B1
100
AcDbEntity
  8
外形
  6
CONTINUOUS
100
AcDbLine
 10
-534.70562
 20
909.193777
 30
0.0
 11
-536.117892
 21
893.051429
 31
0.0
  0
LINE
  5
B2
100
AcDbEntity
  8
外形
  6
CONTINUOUS
100
AcDbLine
 10
-521.135605
 20
904.32541
 30
0.0
 11
-523.57053
 21
891.798807
 31
0.0
  0
LINE
  5
B3
100
AcDbEntity
  8
外形
  6
CONTINUOUS
100
AcDbLine
 10
-520.470826
 20
891.170818
 30
0.0
 11
-518.026361
 21
903.746502
 31
0.0
  0
LINE
  5
B4
100
AcDbEntity
  8
外形
  6
CONTINUOUS
100
AcDbLine
 10
-512.984972
 20
907.293467
 30
0.0
 11
-516.277343
 21
890.355687
 31
0.0
  0
LINE
  5
B5
100
AcDbEntity
  8
外形
  6
CONTINUOUS
100
AcDbLine
 10
-516.277343
 20
890.355687
 30
0.0
 11
-520.470826
 21
891.170818
 31
0.0
  0
LINE
  5
B6
100
AcDbEntity
  8
外形
  6
CONTINUOUS
100
AcDbLine
 10
-513.832877
 20
902.931371
 30
0.0
 11
-518.026361
 21
903.746502
 31
0.0
  0
LINE
  5
B7
100
AcDbEntity
  8
外形
  6
CONTINUOUS
100
AcDbLine
 10
-471.18268
 20
897.235257
 30
0.0
 11
-482.069857
 21
900.152467
 31
0.0
  0
LINE
  5
B8
100
AcDbEntity
  8
外形
  6
CONTINUOUS
100
AcDbLine
 10
-481.841213
 20
900.091202
 30
0.0
 11
-481.452454
 21
904.534729
 31
0.0
  0
ARC
  5
B9
100
AcDbEntity
  8
外形
  6
CONTINUOUS
100
AcDbCircle
 10
-482.276912
 20
899.379726
 30
0.0
 40
0.8
100
AcDbArc
 50
75.0
 51
175.0
  0
ARC
  5
BA
100
AcDbEntity
  8
外形
  6
CONTINUOUS
100
AcDbCircle
 10
-472.98634
 20
897.718546
 30
0.0
 40
2.5
100
AcDbArc
 50
355.0
 51
165.0
  0
ARC
  5
BB
100
AcDbEntity
  8
外形
  6
CONTINUOUS
100
AcDbCircle
 10
-471.389735
 20
896.462516
 30
0.0
 40
0.8
100
AcDbArc
 50
355.0
 51
75.0
  0
CIRCLE
  5
BC
100
AcDbEntity
  8
外形
  6
CONTINUOUS
100
AcDbCircle
 10
-477.3245
 20
892.306949
 30
0.0
 40
2.58
  0
LINE
  5
BD
100
AcDbEntity
  8
外形
  6
CONTINUOUS
100
AcDbLine
 10
-462.935495
 20
894.430419
 30
0.0
 11
-462.06947
 21
895.930419
 31
0.0
  0
LINE
  5
BE
100
AcDbEntity
  8
外形
  6
CONTINUOUS
100
AcDbLine
 10
-462.06947
 20
895.930419
 30
0.0
 11
-462.935495
 21
897.430418
 31
0.0
  0
LINE
  5
BF
100
AcDbEntity
  8
外形
  6
CONTINUOUS
100
AcDbLine
 10
-465.53357
 20
895.930419
 30
0.0
 11
-464.667545
 21
894.430419
 31
0.0
  0
LINE
  5
C0
100
AcDbEntity
  8
外形
  6
CONTINUOUS
100
AcDbLine
 10
-464.667545
 20
897.430418
 30
0.0
 11
-465.53357
 21
895.930419
 31
0.0
  0
LINE
  5
C1
100
AcDbEntity
  8
外形
  6
CONTINUOUS
100
AcDbLine
 10
-462.935495
 20
897.430418
 30
0.0
 11
-464.667545
 21
897.430418
 31
0.0
  0
LINE
  5
C2
100
AcDbEntity
  8
外形
  6
CONTINUOUS
100
AcDbLine
 10
-464.667545
 20
894.430419
 30
0.0
 11
-462.935495
 21
894.430419
 31
0.0
  0
CIRCLE
  5
C3
100
AcDbEntity
  8
外形
  6
CONTINUOUS
100
AcDbCircle
 10
-463.801539
 20
895.930415
 30
0.0
 40
3.3235
  0
CIRCLE
  5
C4
100
AcDbEntity
  8
外形
  6
CONTINUOUS
100
AcDbCircle
 10
-463.801539
 20
895.930415
 30
0.0
 40
4.0
  0
DIMENSION
  5
C7
100
AcDbEntity
  8
寸法
  6
CONTINUOUS
100
AcDbDimension
  2
*D9
 10
-344.949642
 20
801.096404
 30
0.0
 11
-347.449642
 21
811.096404
 31
0.0
 70
    32
  3
STANDARD
100
AcDbAlignedDimension
 13
-359.056221
 23
821.096404
 33
0.0
 14
-359.056221
 24
801.096404
 34
0.0
 50
90.0
100
AcDbRotatedDimension
1001
ACAD
1000
DSTYLE
1002
{
1070
    40
1040
1.0
1002
}
  0
LINE
  5
D4
100
AcDbEntity
  8
外形
  6
CONTINUOUS
100
AcDbLine
 10
-359.056221
 20
821.096404
 30
0.0
 11
-359.056221
 21
801.096404
 31
0.0
  0
DIMENSION
  5
D5
100
AcDbEntity
  8
寸法
  6
CONTINUOUS
100
AcDbDimension
  2
*D10
 10
-346.05114
 20
884.534729
 30
0.0
 11
-348.55114
 21
894.534729
 31
0.0
 70
    32
  3
STANDARD
100
AcDbAlignedDimension
 13
-359.056221
 23
904.534729
 33
0.0
 14
-359.056221
 24
884.534729
 34
0.0
 50
90.0
100
AcDbRotatedDimension
1001
ACAD
1000
DSTYLE
1002
{
1070
    40
1040
1.0
1002
}
  0
LINE
  5
E2
100
AcDbEntity
  8
外形
  6
CONTINUOUS
100
AcDbLine
 10
-359.056221
 20
904.534729
 30
0.0
 11
-359.056221
 21
884.534729
 31
0.0
  0
LINE
  5
293
100
AcDbEntity
  8
寸法
  6
CONTINUOUS
100
AcDbLine
 10
-495.776349
 20
888.57264
 30
0.0
 11
-516.275325
 21
890.366068
 31
0.0
  0
LINE
  5
294
100
AcDbEntity
  8
外形
  6
CONTINUOUS
100
AcDbLine
 10
-523.54093
 20
891.951087
 30
0.0
 11
-536.117892
 21
893.051429
 31
0.0
  0
LINE
  5
295
100
AcDbEntity
  8
外形
  6
CONTINUOUS
100
AcDbLine
 10
-512.984972
 20
907.293467
 30
0.0
 11
-534.70562
 21
909.193777
 31
0.0
  0
LINE
  5
2C4
100
AcDbEntity
  8
外形
  6
CONTINUOUS
100
AcDbLine
 10
-520.466056
 20
891.195358
 30
0.0
 11
-523.57053
 21
891.798807
 31
0.0
  0
LINE
  5
2C5
100
AcDbEntity
  8
外形
  6
CONTINUOUS
100
AcDbLine
 10
-518.031131
 20
903.721961
 30
0.0
 11
-521.135605
 21
904.32541
 31
0.0
  0
LINE
  5
2C8
100
AcDbEntity
  8
外形
  6
CONTINUOUS
100
AcDbLine
 10
-468.467774
 20
822.794523
 30
0.0
 11
-468.467774
 21
801.096404
 31
0.0
  0
LINE
  5
2EB
100
AcDbEntity
  8
外形
  6
CONTINUOUS
100
AcDbLine
 10
-483.51589
 20
816.367105
 30
0.0
 11
-483.171515
 21
813.205807
 31
0.0
  0
LINE
  5
2EC
100
AcDbEntity
  8
外形
  6
CONTINUOUS
100
AcDbLine
 10
-471.022487
 20
817.728067
 30
0.0
 11
-470.678112
 21
814.566769
 31
0.0
  0
LINE
  5
2F0
100
AcDbEntity
  8
寸法
  6
CONTINUOUS
100
AcDbLine
 10
-484.056221
 20
887.536704
 30
0.0
 11
-493.345782
 21
852.952293
 31
0.0
  0
LINE
  5
2F6
100
AcDbEntity
  8
外形
  6
CONTINUOUS
100
AcDbLine
 10
-510.456496
 20
819.454391
 30
0.0
 11
-516.242391
 21
797.861139
 31
0.0
  0
LINE
  5
2F7
100
AcDbEntity
  8
外形
  6
CONTINUOUS
100
AcDbLine
 10
-521.353215
 20
821.375776
 30
0.0
 11
-526.889514
 21
800.714027
 31
0.0
  0
LINE
  5
2F8
100
AcDbEntity
  8
外形
  6
CONTINUOUS
100
AcDbLine
 10
-516.242391
 20
797.861139
 30
0.0
 11
-541.286468
 21
804.571679
 31
0.0
  0
LINE
  5
2F9
100
AcDbEntity
  8
外形
  6
CONTINUOUS
100
AcDbLine
 10
-538.150542
 20
816.275111
 30
0.0
 11
-541.286468
 21
804.571679
 31
0.0
  0
LINE
  5
2FA
100
AcDbEntity
  8
寸法
  6
CONTINUOUS
100
AcDbLine
 10
-529.316262
 20
852.952293
 30
0.0
 11
-537.054248
 21
824.144292
 31
0.0
  0
LINE
  5
2FB
100
AcDbEntity
  8
寸法
  6
CONTINUOUS
100
AcDbLine
 10
-529.316262
 20
852.952293
 30
0.0
 11
-493.345782
 21
852.952293
 31
0.0
  0
LINE
  5
2FD
100
AcDbEntity
  8
外形
  6
CONTINUOUS
100
AcDbLine
 10
-510.456496
 20
819.454391
 30
0.0
 11
-537.066352
 21
824.146426
 31
0.0
  0
LINE
  5
2FE
100
AcDbEntity
  8
外形
  6
CONTINUOUS
100
AcDbLine
 10
-525.110446
 20
817.204847
 30
0.0
 11
-537.892918
 21
819.458741
 31
0.0
  0
LINE
  5
2FF
100
AcDbEntity
  8
外形
  6
CONTINUOUS
100
AcDbLine
 10
-525.687267
 20
814.077499
 30
0.0
 11
-538.420499
 21
816.322711
 31
0.0
  0
LINE
  5
300
100
AcDbEntity
  8
外形
  6
CONTINUOUS
100
AcDbLine
 10
-537.066352
 20
824.146426
 30
0.0
 11
-537.892918
 21
819.458741
 31
0.0
  0
LINE
  5
301
100
AcDbEntity
  8
外形
  6
CONTINUOUS
100
AcDbLine
 10
-524.283881
 20
821.892532
 30
0.0
 11
-525.110446
 21
817.204847
 31
0.0
  0
LINE
  5
302
100
AcDbEntity
  8
外形
  6
CONTINUOUS
100
AcDbLine
 10
-537.868298
 20
819.4544
 30
0.0
 11
-538.420499
 21
816.322711
 31
0.0
  0
LINE
  5
303
100
AcDbEntity
  8
外形
  6
CONTINUOUS
100
AcDbLine
 10
-525.135066
 20
817.209188
 30
0.0
 11
-525.687267
 21
814.077499
 31
0.0
  0
DIMENSION
  5
317
100
AcDbEntity
  8
寸法
  6
CONTINUOUS
100
AcDbDimension
  2
*D11
 10
-537.066352
 20
824.146426
 30
0.0
 11
-549.493435
 21
836.567466
 31
0.0
 70
    34
  3
STANDARD
100
AcDb2LineAngularDimension
 13
-537.054248
 23
824.144292
 33
0.0
 14
-511.065733
 24
817.18069
 34
0.0
 15
-510.456496
 25
819.454391
 35
0.0
 16
-551.300097
 26
827.085823
 36
0.0
1001
ACAD
1000
DSTYLE
1002
{
1070
    40
1040
1.0
1002
}
  0
LINE
  5
33A
100
AcDbEntity
  8
外形
  6
CONTINUOUS
100
AcDbLine
 10
-457.056221
 20
821.096404
 30
0.0
 11
-457.056221
 21
801.096404
 31
0.0
  0
LINE
  5
33B
100
AcDbEntity
  8
外形
  6
CONTINUOUS
100
AcDbLine
 10
-457.82197
 20
823.954217
 30
0.0
 11
-457.82197
 21
801.096404
 31
0.0
  0
LINE
  5
33D
100
AcDbEntity
  8
外形
  6
CONTINUOUS
100
AcDbLine
 10
-457.056221
 20
884.534729
 30
0.0
 11
-457.056221
 21
904.534729
 31
0.0
  0
LINE
  5
33E
100
AcDbEntity
  8
外形
  6
CONTINUOUS
100
AcDbLine
 10
-457.056221
 20
884.534729
 30
0.0
 11
-457.82197
 21
904.534729
 31
0.0
  0
ARC
  5
358
100
AcDbEntity
  8
外形
  6
CONTINUOUS
100
AcDbCircle
 10
-483.259265
 20
888.151381
 30
0.0
 40
0.8
100
AcDbArc
 50
175.0
 51
255.0
  0
ARC
  5
35C
100
AcDbEntity
  8
外形
  6
CONTINUOUS
100
AcDbCircle
 10
-472.372088
 20
885.234171
 30
0.0
 40
0.8
100
AcDbArc
 50
255.0
 51
355.0
  0
ENDSEC
  0
SECTION
  2
OBJECTS
  0
DICTIONARY
  5
1E
100
AcDbDictionary
  3
ACAD_GROUP
350
1C
  3
ACAD_MLINESTYLE
350
1D
  0
DICTIONARY
  5
38
100
AcDbDictionary
280
     1
  3
ACAD_XREC_ROUNDTRIP
360
39
  0
DICTIONARY
  5
22
100
AcDbDictionary
280
     1
  3
ACAD_XREC_ROUNDTRIP
360
23
  0
DICTIONARY
  5
3
100
AcDbDictionary
280
     1
  3
ACAD_LAYOUTSELFREF
360
4
  0
DICTIONARY
  5
A
100
AcDbDictionary
280
     1
  3
ACAD_LAYOUTSELFREF
360
B
  0
DICTIONARY
  5
1C
102
{ACAD_REACTORS
330
1E
102
}
100
AcDbDictionary
  0
DICTIONARY
  5
1D
102
{ACAD_REACTORS
330
1E
102
}
100
AcDbDictionary
  3
STANDARD
350
20
  0
XRECORD
  5
39
102
{ACAD_REACTORS
330
38
102
}
100
AcDbXrecord
102
PLOTBIT
280
     0
  0
XRECORD
  5
23
102
{ACAD_REACTORS
330
22
102
}
100
AcDbXrecord
102
ACADR14ROUNDTRIP
1000
DSTYLE
1002
{
1070
   341
340
0
1070
   343
340
0
1070
   344
340
0
1002
}
  0
XRECORD
  5
4
102
{ACAD_REACTORS
330
3
102
}
100
AcDbXrecord
340
2
  0
XRECORD
  5
B
102
{ACAD_REACTORS
330
A
102
}
100
AcDbXrecord
340
9
  0
MLINESTYLE
  5
20
102
{ACAD_REACTORS
330
1D
102
}
100
AcDbMlineStyle
  2
STANDARD
 70
     0
  3

 62
     0
 51
90.0
 52
90.0
 71
     2
 49
0.5
 62
   256
  6
BYLAYER
 49
-0.5
 62
   256
  6
BYLAYER
  0
ENDSEC
  0
EOF
