  0
SECTION
  2
HEADER
  9
$ACADVER
  1
AC1014
  9
$ACADMAINTVER
 70
     0
  9
$DWGCODEPAGE
  3
ANSI_932
  9
$INSBASE
 10
-587.250952
 20
537.890188
 30
0.0
  9
$EXTMIN
 10
-564.009379
 20
565.2839
 30
0.0
  9
$EXTMAX
 10
-329.661227
 20
706.697637
 30
0.0
  9
$LIMMIN
 10
-587.250952
 20
327.890188
  9
$LIMMAX
 10
600.749048
 20
957.890188
  9
$ORTHOMODE
 70
     1
  9
$REGENMODE
 70
     1
  9
$FILLMODE
 70
     1
  9
$QTEXTMODE
 70
     0
  9
$MIRRTEXT
 70
     1
  9
$DRAGMODE
 70
     2
  9
$LTSCALE
 40
5.0
  9
$OSMODE
 70
    41
  9
$ATTMODE
 70
     1
  9
$TEXTSIZE
 40
4.0
  9
$TRACEWID
 40
0.05
  9
$TEXTSTYLE
  7
STANDARD
  9
$CLAYER
  8
外形
  9
$CELTYPE
  6
CONTINUOUS
  9
$CECOLOR
 62
   256
  9
$CELTSCALE
 40
1.0
  9
$DELOBJ
 70
     1
  9
$DISPSILH
 70
     0
  9
$DIMSCALE
 40
1.0
  9
$DIMASZ
 40
2.0
  9
$DIMEXO
 40
1.0
  9
$DIMDLI
 40
8.0
  9
$DIMRND
 40
0.0
  9
$DIMDLE
 40
0.0
  9
$DIMEXE
 40
2.0
  9
$DIMTP
 40
0.0
  9
$DIMTM
 40
0.0
  9
$DIMTXT
 40
3.0
  9
$DIMCEN
 40
-1.0
  9
$DIMTSZ
 40
0.0
  9
$DIMTOL
 70
     0
  9
$DIMLIM
 70
     0
  9
$DIMTIH
 70
     0
  9
$DIMTOH
 70
     0
  9
$DIMSE1
 70
     0
  9
$DIMSE2
 70
     0
  9
$DIMTAD
 70
     1
  9
$DIMZIN
 70
     8
  9
$DIMBLK
  1

  9
$DIMASO
 70
     1
  9
$DIMSHO
 70
     1
  9
$DIMPOST
  1

  9
$DIMAPOST
  1

  9
$DIMALT
 70
     0
  9
$DIMALTD
 70
     2
  9
$DIMALTF
 40
25.4
  9
$DIMLFAC
 40
1.0
  9
$DIMTOFL
 70
     1
  9
$DIMTVP
 40
0.0
  9
$DIMTIX
 70
     0
  9
$DIMSOXD
 70
     0
  9
$DIMSAH
 70
     1
  9
$DIMBLK1
  1
_OPEN30
  9
$DIMBLK2
  1
_OPEN30
  9
$DIMSTYLE
  2
STANDARD
  9
$DIMCLRD
 70
     1
  9
$DIMCLRE
 70
     1
  9
$DIMCLRT
 70
     3
  9
$DIMTFAC
 40
1.0
  9
$DIMGAP
 40
1.0
  9
$DIMJUST
 70
     0
  9
$DIMSD1
 70
     0
  9
$DIMSD2
 70
     0
  9
$DIMTOLJ
 70
     1
  9
$DIMTZIN
 70
     8
  9
$DIMALTZ
 70
     0
  9
$DIMALTTZ
 70
     0
  9
$DIMFIT
 70
     3
  9
$DIMUPT
 70
     0
  9
$DIMUNIT
 70
     2
  9
$DIMDEC
 70
     2
  9
$DIMTDEC
 70
     2
  9
$DIMALTU
 70
     2
  9
$DIMALTTD
 70
     2
  9
$DIMTXSTY
  7
STANDARD
  9
$DIMAUNIT
 70
     0
  9
$LUNITS
 70
     2
  9
$LUPREC
 70
     0
  9
$SKETCHINC
 40
0.1
  9
$FILLETRAD
 40
1.2
  9
$AUNITS
 70
     0
  9
$AUPREC
 70
     0
  9
$MENU
  1
acad
  9
$ELEVATION
 40
0.0
  9
$PELEVATION
 40
0.0
  9
$THICKNESS
 40
0.0
  9
$LIMCHECK
 70
     0
  9
$BLIPMODE
 70
     0
  9
$CHAMFERA
 40
0.0
  9
$CHAMFERB
 40
0.0
  9
$CHAMFERC
 40
0.0
  9
$CHAMFERD
 40
0.0
  9
$SKPOLY
 70
     0
  9
$TDCREATE
 40
2450751.535399305
  9
$TDUPDATE
 40
2451927.815405092
  9
$TDINDWG
 40
0.8697328704
  9
$TDUSRTIMER
 40
0.8697328704
  9
$USRTIMER
 70
     1
  9
$ANGBASE
 50
0.0
  9
$ANGDIR
 70
     0
  9
$PDMODE
 70
     0
  9
$PDSIZE
 40
0.0
  9
$PLINEWID
 40
0.0
  9
$COORDS
 70
     1
  9
$SPLFRAME
 70
     0
  9
$SPLINETYPE
 70
     5
  9
$SPLINESEGS
 70
     8
  9
$ATTDIA
 70
     0
  9
$ATTREQ
 70
     1
  9
$HANDLING
 70
     1
  9
$HANDSEED
  5
858
  9
$SURFTAB1
 70
     6
  9
$SURFTAB2
 70
     6
  9
$SURFTYPE
 70
     6
  9
$SURFU
 70
     6
  9
$SURFV
 70
     6
  9
$UCSNAME
  2

  9
$UCSORG
 10
0.0
 20
0.0
 30
0.0
  9
$UCSXDIR
 10
1.0
 20
0.0
 30
0.0
  9
$UCSYDIR
 10
0.0
 20
1.0
 30
0.0
  9
$PUCSNAME
  2

  9
$PUCSORG
 10
0.0
 20
0.0
 30
0.0
  9
$PUCSXDIR
 10
1.0
 20
0.0
 30
0.0
  9
$PUCSYDIR
 10
0.0
 20
1.0
 30
0.0
  9
$USERI1
 70
     0
  9
$USERI2
 70
     0
  9
$USERI3
 70
     0
  9
$USERI4
 70
     0
  9
$USERI5
 70
     0
  9
$USERR1
 40
0.0
  9
$USERR2
 40
0.0
  9
$USERR3
 40
0.0
  9
$USERR4
 40
0.0
  9
$USERR5
 40
0.0
  9
$WORLDVIEW
 70
     1
  9
$SHADEDGE
 70
     3
  9
$SHADEDIF
 70
    70
  9
$TILEMODE
 70
     1
  9
$MAXACTVP
 70
    16
  9
$PINSBASE
 10
0.0
 20
0.0
 30
0.0
  9
$PLIMCHECK
 70
     0
  9
$PEXTMIN
 10
1.000000E+20
 20
1.000000E+20
 30
1.000000E+20
  9
$PEXTMAX
 10
-1.000000E+20
 20
-1.000000E+20
 30
-1.000000E+20
  9
$PLIMMIN
 10
0.0
 20
0.0
  9
$PLIMMAX
 10
12.0
 20
9.0
  9
$UNITMODE
 70
     0
  9
$VISRETAIN
 70
     0
  9
$PLINEGEN
 70
     0
  9
$PSLTSCALE
 70
     1
  9
$TREEDEPTH
 70
  3020
  9
$PICKSTYLE
 70
     1
  9
$CMLSTYLE
  2
STANDARD
  9
$CMLJUST
 70
     0
  9
$CMLSCALE
 40
1.0
  9
$PROXYGRAPHICS
 70
     1
  9
$MEASUREMENT
 70
     0
  0
ENDSEC
  0
SECTION
  2
CLASSES
  0
CLASS
  1
LWPOLYLINE
  2
AcDbPolyline
  3
"AutoCAD"
 90
        0
280
     0
281
     1
  0
CLASS
  1
ACDBDICTIONARYWDFLT
  2
AcDbDictionaryWithDefault
  3
AutoCAD 2000
 90
        0
280
     1
281
     0
  0
CLASS
  1
ACDBPLACEHOLDER
  2
AcDbPlaceHolder
  3
AutoCAD 2000
 90
        0
280
     1
281
     0
  0
CLASS
  1
LAYOUT
  2
AcDbLayout
  3
AutoCAD 2000
 90
        0
280
     1
281
     0
  0
CLASS
  1
LONG_TRANSACTION
  2
AcDbLongTransaction
  3
AutoCAD 2000
 90
        0
280
     1
281
     0
  0
CLASS
  1
LWPOLYLINE
  2
AcDbPolyline
  3
"AutoCAD"
 90
        0
280
     0
281
     1
  0
CLASS
  1
HATCH
  2
AcDbHatch
  3
"ACAD_SEDONA"
 90
        0
280
     0
281
     1
  0
CLASS
  1
XRECORD
  2
AcDbXrecord
  3
"<Built In>"
 90
        0
280
     0
281
     0
  0
ENDSEC
  0
SECTION
  2
TABLES
  0
TABLE
  2
VPORT
  5
16
100
AcDbSymbolTable
 70
     1
  0
VPORT
  5
853
100
AcDbSymbolTableRecord
100
AcDbViewportTableRecord
  2
*ACTIVE
 70
     0
 10
0.0
 20
0.0
 11
1.0
 21
1.0
 12
-446.835303
 22
639.403409
 13
0.0
 23
0.0
 14
0.05
 24
0.05
 15
10.0
 25
10.0
 16
0.0
 26
0.0
 36
1.0
 17
0.0
 27
0.0
 37
0.0
 40
224.929145
 41
1.710425
 42
50.0
 43
0.0
 44
0.0
 50
0.0
 51
0.0
 71
     0
 72
   100
 73
     1
 74
     1
 75
     0
 76
     0
 77
     0
 78
     0
  0
ENDTAB
  0
TABLE
  2
LTYPE
  5
11
100
AcDbSymbolTable
 70
     2
  0
LTYPE
  5
12
100
AcDbSymbolTableRecord
100
AcDbLinetypeTableRecord
  2
BYBLOCK
 70
     0
  3

 72
    65
 73
     0
 40
0.0
  0
LTYPE
  5
13
100
AcDbSymbolTableRecord
100
AcDbLinetypeTableRecord
  2
BYLAYER
 70
     0
  3

 72
    65
 73
     0
 40
0.0
  0
LTYPE
  5
7
100
AcDbSymbolTableRecord
100
AcDbLinetypeTableRecord
  2
CONTINUOUS
 70
     0
  3
Solid line
 72
    65
 73
     0
 40
0.0
  0
LTYPE
  5
C6
100
AcDbSymbolTableRecord
100
AcDbLinetypeTableRecord
  2
CENTER
 70
     0
  3
Center ____ _ ____ _ ____ _ ____ _ ____ _ ____
 72
    65
 73
     4
 40
2.0
 49
1.25
 74
     0
 49
-0.25
 74
     0
 49
0.25
 74
     0
 49
-0.25
 74
     0
  0
ENDTAB
  0
TABLE
  2
LAYER
  5
E
100
AcDbSymbolTable
 70
     5
  0
LAYER
  5
6
100
AcDbSymbolTableRecord
100
AcDbLayerTableRecord
  2
0
 70
     0
 62
     7
  6
CONTINUOUS
  0
LAYER
  5
31
100
AcDbSymbolTableRecord
100
AcDbLayerTableRecord
  2
外形
 70
     0
 62
     3
  6
CONTINUOUS
  0
LAYER
  5
2C
102
{ACAD_XDICTIONARY
360
2D
102
}
100
AcDbSymbolTableRecord
100
AcDbLayerTableRecord
  2
DEFPOINTS
 70
     0
 62
     7
  6
CONTINUOUS
  0
LAYER
  5
1F
100
AcDbSymbolTableRecord
100
AcDbLayerTableRecord
  2
寸法
 70
     0
 62
     1
  6
CONTINUOUS
  0
LAYER
  5
3A1
100
AcDbSymbolTableRecord
100
AcDbLayerTableRecord
  2
画層1
 70
     0
 62
     7
  6
CONTINUOUS
  0
ENDTAB
  0
TABLE
  2
STYLE
  5
F
100
AcDbSymbolTable
 70
     1
  0
STYLE
  5
10
100
AcDbSymbolTableRecord
100
AcDbTextStyleTableRecord
  2
STANDARD
 70
     0
 40
0.0
 41
1.0
 50
0.0
 71
     0
 42
4.0
  3
MONOTXT
  4
BIGFONT
  0
ENDTAB
  0
TABLE
  2
VIEW
  5
14
100
AcDbSymbolTable
 70
     0
  0
ENDTAB
  0
TABLE
  2
UCS
  5
15
100
AcDbSymbolTable
 70
     0
  0
ENDTAB
  0
TABLE
  2
APPID
  5
18
100
AcDbSymbolTable
 70
     1
  0
APPID
  5
19
100
AcDbSymbolTableRecord
100
AcDbRegAppTableRecord
  2
ACAD
 70
     0
  0
ENDTAB
  0
TABLE
  2
DIMSTYLE
  5
1A
100
AcDbSymbolTable
 70
     1
  0
DIMSTYLE
105
21
102
{ACAD_XDICTIONARY
360
22
102
}
102
{ACAD_REACTORS
330
48
330
83
330
B3
330
92
330
D5
330
57
330
65
330
35
330
3F5
330
602
102
}
100
AcDbSymbolTableRecord
100
AcDbDimStyleTableRecord
  2
STANDARD
 70
     0
  3

  4

  5

  6
_OPEN30
  7
_OPEN30
 40
1.0
 41
2.0
 42
1.0
 43
8.0
 44
2.0
 45
0.0
 46
0.0
 47
0.0
 48
0.0
140
3.0
141
-1.0
142
0.0
143
25.4
144
1.0
145
0.0
146
1.0
147
1.0
 71
     0
 72
     0
 73
     0
 74
     0
 75
     0
 76
     0
 77
     1
 78
     8
170
     0
171
     2
172
     1
173
     1
174
     0
175
     0
176
     1
177
     1
178
     3
270
     2
271
     2
272
     2
273
     2
274
     2
340
10
275
     0
280
     0
281
     0
282
     0
283
     1
284
     8
285
     0
286
     0
287
     3
288
     0
  0
ENDTAB
  0
TABLE
  2
BLOCK_RECORD
  5
1
100
AcDbSymbolTable
 70
    12
  0
BLOCK_RECORD
  5
2
102
{ACAD_XDICTIONARY
360
3
102
}
100
AcDbSymbolTableRecord
100
AcDbBlockTableRecord
  2
*MODEL_SPACE
  0
BLOCK_RECORD
  5
9
102
{ACAD_XDICTIONARY
360
A
102
}
100
AcDbSymbolTableRecord
100
AcDbBlockTableRecord
  2
*PAPER_SPACE
  0
BLOCK_RECORD
  5
24
100
AcDbSymbolTableRecord
100
AcDbBlockTableRecord
  2
_DOTSMALL
  0
BLOCK_RECORD
  5
38F
100
AcDbSymbolTableRecord
100
AcDbBlockTableRecord
  2
*D1
  0
BLOCK_RECORD
  5
4BE
100
AcDbSymbolTableRecord
100
AcDbBlockTableRecord
  2
*D2
  0
BLOCK_RECORD
  5
4CA
100
AcDbSymbolTableRecord
100
AcDbBlockTableRecord
  2
*D3
  0
BLOCK_RECORD
  5
4D6
100
AcDbSymbolTableRecord
100
AcDbBlockTableRecord
  2
*D4
  0
BLOCK_RECORD
  5
4E2
100
AcDbSymbolTableRecord
100
AcDbBlockTableRecord
  2
*D5
  0
BLOCK_RECORD
  5
4EE
100
AcDbSymbolTableRecord
100
AcDbBlockTableRecord
  2
*D6
  0
BLOCK_RECORD
  5
4FC
100
AcDbSymbolTableRecord
100
AcDbBlockTableRecord
  2
*D7
  0
BLOCK_RECORD
  5
51A
100
AcDbSymbolTableRecord
100
AcDbBlockTableRecord
  2
*D8
  0
BLOCK_RECORD
  5
528
100
AcDbSymbolTableRecord
100
AcDbBlockTableRecord
  2
*D9
  0
BLOCK_RECORD
  5
60E
100
AcDbSymbolTableRecord
100
AcDbBlockTableRecord
  2
*D10
  0
BLOCK_RECORD
  5
7CE
100
AcDbSymbolTableRecord
100
AcDbBlockTableRecord
  2
_OPEN30
  0
ENDTAB
  0
ENDSEC
  0
SECTION
  2
BLOCKS
  0
BLOCK
  5
5
100
AcDbEntity
  8
0
100
AcDbBlockBegin
  2
*MODEL_SPACE
 70
     0
 10
0.0
 20
0.0
 30
0.0
  3
*MODEL_SPACE
  1

  0
ENDBLK
  5
8
100
AcDbEntity
  8
0
100
AcDbBlockEnd
  0
BLOCK
  5
C
100
AcDbEntity
 67
     1
  8
0
100
AcDbBlockBegin
  2
*PAPER_SPACE
 70
     0
 10
0.0
 20
0.0
 30
0.0
  3
*PAPER_SPACE
  1

  0
ENDBLK
  5
D
100
AcDbEntity
 67
     1
  8
0
100
AcDbBlockEnd
  0
BLOCK
  5
29
100
AcDbEntity
  8
0
100
AcDbBlockBegin
  2
_DOTSMALL
 70
     0
 10
0.0
 20
0.0
 30
0.0
  3
_DOTSMALL
  1

  0
POLYLINE
  5
25
100
AcDbEntity
  8
0
  6
BYBLOCK
 62
     0
100
AcDb2dPolyline
 66
     1
 10
0.0
 20
0.0
 30
0.0
 70
     1
 40
0.5
 41
0.5
  0
VERTEX
  5
26
100
AcDbEntity
  8
0
  6
BYBLOCK
 62
     0
100
AcDbVertex
100
AcDb2dVertex
 10
-0.0625
 20
0.0
 30
0.0
 42
1.0
  0
VERTEX
  5
27
100
AcDbEntity
  8
0
  6
BYBLOCK
 62
     0
100
AcDbVertex
100
AcDb2dVertex
 10
0.0625
 20
0.0
 30
0.0
 42
1.0
  0
SEQEND
  5
28
100
AcDbEntity
  8
0
  6
BYBLOCK
 62
     0
  0
ENDBLK
  5
2A
100
AcDbEntity
  8
0
100
AcDbBlockEnd
  0
BLOCK
  5
830
100
AcDbEntity
  8
0
100
AcDbBlockBegin
  2
*D1
 70
     1
 10
0.0
 20
0.0
 30
0.0
  3
*D1
  1

  0
LINE
  5
831
100
AcDbEntity
  8
0
  6
BYBLOCK
 62
     1
100
AcDbLine
 10
-548.680314
 20
621.906971
 30
0.0
 11
-563.696952
 21
625.930667
 31
0.0
  0
LINE
  5
832
100
AcDbEntity
  8
0
  6
BYBLOCK
 62
     1
100
AcDbLine
 10
-548.7113
 20
621.823934
 30
0.0
 11
-564.009379
 21
624.521399
 31
0.0
  0
ARC
  5
833
100
AcDbEntity
  8
0
  6
BYBLOCK
 62
     1
100
AcDbCircle
 10
-547.714388
 20
621.648152
 30
0.0
 40
14.546368
100
AcDbArc
 50
149.194583
 51
165.0
  0
LINE
  5
834
100
AcDbEntity
  8
0
  6
BYBLOCK
 62
     1
100
AcDbLine
 10
-560.208431
 20
629.097697
 30
0.0
 11
-555.804164
 21
636.484336
 31
0.0
  0
ARC
  5
835
100
AcDbEntity
  8
0
  6
BYBLOCK
 62
     1
100
AcDbCircle
 10
-547.714388
 20
621.648152
 30
0.0
 40
14.546368
100
AcDbArc
 50
149.232214
 51
157.116107
  0
ARC
  5
836
100
AcDbEntity
  8
0
  6
BYBLOCK
 62
     1
100
AcDbCircle
 10
-547.714388
 20
621.648152
 30
0.0
 40
14.546368
100
AcDbArc
 50
177.883893
 51
185.767786
  0
ARC
  5
837
100
AcDbEntity
  8
0
  6
BYBLOCK
 62
     1
100
AcDbCircle
 10
-547.714388
 20
621.648152
 30
0.0
 40
14.546368
100
AcDbArc
 50
165.0
 51
170.0
  0
INSERT
  5
838
100
AcDbEntity
  8
0
  6
BYBLOCK
 62
     1
100
AcDbBlockReference
  2
_OPEN30
 10
-561.7651
 20
625.413029
 30
0.0
 41
2.0
 42
2.0
 43
2.0
 50
251.058053
  0
INSERT
  5
839
100
AcDbEntity
  8
0
  6
BYBLOCK
 62
     1
100
AcDbBlockReference
  2
_OPEN30
 10
-562.039764
 20
624.174102
 30
0.0
 41
2.0
 42
2.0
 43
2.0
 50
83.941947
  0
MTEXT
  5
83A
100
AcDbEntity
  8
0
  6
BYBLOCK
 62
     3
100
AcDbMText
 10
-560.153576
 20
634.071327
 30
0.0
 40
3.0
 41
0.0
 71
     5
 72
     1
  1
\A1;5°
 11
0.512124
 21
0.858911
 31
0.0
  0
POINT
  5
83B
100
AcDbEntity
  8
DEFPOINTS
  6
BYBLOCK
 62
     0
100
AcDbPoint
 10
-561.960237
 20
624.589683
 30
0.0
  0
POINT
  5
83C
100
AcDbEntity
  8
DEFPOINTS
  6
BYBLOCK
 62
     0
100
AcDbPoint
 10
-521.116637
 20
616.958251
 30
0.0
  0
POINT
  5
83D
100
AcDbEntity
  8
DEFPOINTS
  6
BYBLOCK
 62
     0
100
AcDbPoint
 10
-547.714388
 20
621.648152
 30
0.0
  0
POINT
  5
83E
100
AcDbEntity
  8
DEFPOINTS
  6
BYBLOCK
 62
     0
100
AcDbPoint
 10
-521.725873
 20
614.68455
 30
0.0
  0
POINT
  5
83F
100
AcDbEntity
  8
DEFPOINTS
  6
BYBLOCK
 62
     0
100
AcDbPoint
 10
-547.726493
 20
621.650286
 30
0.0
  0
ENDBLK
  5
840
100
AcDbEntity
  8
0
100
AcDbBlockEnd
  0
BLOCK
  5
7D4
100
AcDbEntity
  8
0
100
AcDbBlockBegin
  2
*D2
 70
     1
 10
0.0
 20
0.0
 30
0.0
  3
*D2
  1

  0
LINE
  5
7D5
100
AcDbEntity
  8
0
  6
BYBLOCK
 62
     1
100
AcDbLine
 10
-494.546821
 20
593.599875
 30
0.0
 11
-506.754125
 21
593.599875
 31
0.0
  0
LINE
  5
7D6
100
AcDbEntity
  8
0
  6
BYBLOCK
 62
     1
100
AcDbLine
 10
-495.716361
 20
618.600264
 30
0.0
 11
-506.754125
 21
618.600264
 31
0.0
  0
LINE
  5
7D7
100
AcDbEntity
  8
0
  6
BYBLOCK
 62
     1
100
AcDbLine
 10
-504.754125
 20
595.599875
 30
0.0
 11
-504.754125
 21
616.600264
 31
0.0
  0
INSERT
  5
7D8
100
AcDbEntity
  8
0
  6
BYBLOCK
 62
     1
100
AcDbBlockReference
  2
_OPEN30
 10
-504.754125
 20
593.599875
 30
0.0
 41
2.0
 42
2.0
 43
2.0
 50
270.0
  0
INSERT
  5
7D9
100
AcDbEntity
  8
0
  6
BYBLOCK
 62
     1
100
AcDbBlockReference
  2
_OPEN30
 10
-504.754125
 20
618.600264
 30
0.0
 41
2.0
 42
2.0
 43
2.0
 50
90.0
  0
MTEXT
  5
7DA
100
AcDbEntity
  8
0
  6
BYBLOCK
 62
     3
100
AcDbMText
 10
-507.254125
 20
606.10007
 30
0.0
 40
3.0
 41
0.0
 71
     5
 72
     1
  1
\A1;25
 11
0.0
 21
1.0
 31
0.0
  0
POINT
  5
7DB
100
AcDbEntity
  8
DEFPOINTS
  6
BYBLOCK
 62
     0
100
AcDbPoint
 10
-493.546821
 20
593.599875
 30
0.0
  0
POINT
  5
7DC
100
AcDbEntity
  8
DEFPOINTS
  6
BYBLOCK
 62
     0
100
AcDbPoint
 10
-494.716361
 20
618.600264
 30
0.0
  0
POINT
  5
7DD
100
AcDbEntity
  8
DEFPOINTS
  6
BYBLOCK
 62
     0
100
AcDbPoint
 10
-504.754125
 20
618.600264
 30
0.0
  0
ENDBLK
  5
7DE
100
AcDbEntity
  8
0
100
AcDbBlockEnd
  0
BLOCK
  5
7DF
100
AcDbEntity
  8
0
100
AcDbBlockBegin
  2
*D3
 70
     1
 10
0.0
 20
0.0
 30
0.0
  3
*D3
  1

  0
LINE
  5
7E0
100
AcDbEntity
  8
0
  6
BYBLOCK
 62
     1
100
AcDbLine
 10
-494.716361
 20
619.600264
 30
0.0
 11
-494.716361
 21
640.695826
 31
0.0
  0
LINE
  5
7E1
100
AcDbEntity
  8
0
  6
BYBLOCK
 62
     1
100
AcDbLine
 10
-467.716361
 20
619.600264
 30
0.0
 11
-467.716361
 21
640.695826
 31
0.0
  0
LINE
  5
7E2
100
AcDbEntity
  8
0
  6
BYBLOCK
 62
     1
100
AcDbLine
 10
-492.716361
 20
638.695826
 30
0.0
 11
-469.716361
 21
638.695826
 31
0.0
  0
INSERT
  5
7E3
100
AcDbEntity
  8
0
  6
BYBLOCK
 62
     1
100
AcDbBlockReference
  2
_OPEN30
 10
-494.716361
 20
638.695826
 30
0.0
 41
2.0
 42
2.0
 43
2.0
 50
180.0
  0
INSERT
  5
7E4
100
AcDbEntity
  8
0
  6
BYBLOCK
 62
     1
100
AcDbBlockReference
  2
_OPEN30
 10
-467.716361
 20
638.695826
 30
0.0
 41
2.0
 42
2.0
 43
2.0
  0
MTEXT
  5
7E5
100
AcDbEntity
  8
0
  6
BYBLOCK
 62
     3
100
AcDbMText
 10
-481.216361
 20
641.195826
 30
0.0
 40
3.0
 41
0.0
 71
     5
 72
     1
  1
\A1;27
  0
POINT
  5
7E6
100
AcDbEntity
  8
DEFPOINTS
  6
BYBLOCK
 62
     0
100
AcDbPoint
 10
-494.716361
 20
618.600264
 30
0.0
  0
POINT
  5
7E7
100
AcDbEntity
  8
DEFPOINTS
  6
BYBLOCK
 62
     0
100
AcDbPoint
 10
-467.716361
 20
618.600264
 30
0.0
  0
POINT
  5
7E8
100
AcDbEntity
  8
DEFPOINTS
  6
BYBLOCK
 62
     0
100
AcDbPoint
 10
-467.716361
 20
638.695826
 30
0.0
  0
ENDBLK
  5
7E9
100
AcDbEntity
  8
0
100
AcDbBlockEnd
  0
BLOCK
  5
7EA
100
AcDbEntity
  8
0
100
AcDbBlockBegin
  2
*D4
 70
     1
 10
0.0
 20
0.0
 30
0.0
  3
*D4
  1

  0
LINE
  5
7EB
100
AcDbEntity
  8
0
  6
BYBLOCK
 62
     1
100
AcDbLine
 10
-343.716361
 20
618.600264
 30
0.0
 11
-329.661227
 21
618.600264
 31
0.0
  0
LINE
  5
7EC
100
AcDbEntity
  8
0
  6
BYBLOCK
 62
     1
100
AcDbLine
 10
-343.716361
 20
593.599875
 30
0.0
 11
-329.661227
 21
593.599875
 31
0.0
  0
LINE
  5
7ED
100
AcDbEntity
  8
0
  6
BYBLOCK
 62
     1
100
AcDbLine
 10
-331.661227
 20
616.600264
 30
0.0
 11
-331.661227
 21
595.599875
 31
0.0
  0
INSERT
  5
7EE
100
AcDbEntity
  8
0
  6
BYBLOCK
 62
     1
100
AcDbBlockReference
  2
_OPEN30
 10
-331.661227
 20
618.600264
 30
0.0
 41
2.0
 42
2.0
 43
2.0
 50
90.0
  0
INSERT
  5
7EF
100
AcDbEntity
  8
0
  6
BYBLOCK
 62
     1
100
AcDbBlockReference
  2
_OPEN30
 10
-331.661227
 20
593.599875
 30
0.0
 41
2.0
 42
2.0
 43
2.0
 50
270.0
  0
MTEXT
  5
7F0
100
AcDbEntity
  8
0
  6
BYBLOCK
 62
     3
100
AcDbMText
 10
-334.161227
 20
606.10007
 30
0.0
 40
3.0
 41
0.0
 71
     5
 72
     1
  1
\A1;25
 11
0.0
 21
1.0
 31
0.0
  0
POINT
  5
7F1
100
AcDbEntity
  8
DEFPOINTS
  6
BYBLOCK
 62
     0
100
AcDbPoint
 10
-344.716361
 20
618.600264
 30
0.0
  0
POINT
  5
7F2
100
AcDbEntity
  8
DEFPOINTS
  6
BYBLOCK
 62
     0
100
AcDbPoint
 10
-344.716361
 20
593.599875
 30
0.0
  0
POINT
  5
7F3
100
AcDbEntity
  8
DEFPOINTS
  6
BYBLOCK
 62
     0
100
AcDbPoint
 10
-331.661227
 20
593.599875
 30
0.0
  0
ENDBLK
  5
7F4
100
AcDbEntity
  8
0
100
AcDbBlockEnd
  0
BLOCK
  5
7F5
100
AcDbEntity
  8
0
100
AcDbBlockBegin
  2
*D5
 70
     1
 10
0.0
 20
0.0
 30
0.0
  3
*D5
  1

  0
LINE
  5
7F6
100
AcDbEntity
  8
0
  6
BYBLOCK
 62
     1
100
AcDbLine
 10
-494.716361
 20
684.040564
 30
0.0
 11
-494.716361
 21
655.397052
 31
0.0
  0
LINE
  5
7F7
100
AcDbEntity
  8
0
  6
BYBLOCK
 62
     1
100
AcDbLine
 10
-344.716361
 20
681.038589
 30
0.0
 11
-344.716361
 21
655.397052
 31
0.0
  0
LINE
  5
7F8
100
AcDbEntity
  8
0
  6
BYBLOCK
 62
     1
100
AcDbLine
 10
-492.716361
 20
657.397052
 30
0.0
 11
-346.716361
 21
657.397052
 31
0.0
  0
INSERT
  5
7F9
100
AcDbEntity
  8
0
  6
BYBLOCK
 62
     1
100
AcDbBlockReference
  2
_OPEN30
 10
-494.716361
 20
657.397052
 30
0.0
 41
2.0
 42
2.0
 43
2.0
 50
180.0
  0
INSERT
  5
7FA
100
AcDbEntity
  8
0
  6
BYBLOCK
 62
     1
100
AcDbBlockReference
  2
_OPEN30
 10
-344.716361
 20
657.397052
 30
0.0
 41
2.0
 42
2.0
 43
2.0
  0
MTEXT
  5
7FB
100
AcDbEntity
  8
0
  6
BYBLOCK
 62
     3
100
AcDbMText
 10
-419.716361
 20
659.897052
 30
0.0
 40
3.0
 41
0.0
 71
     5
 72
     1
  1
\A1;150
  0
POINT
  5
7FC
100
AcDbEntity
  8
DEFPOINTS
  6
BYBLOCK
 62
     0
100
AcDbPoint
 10
-494.716361
 20
685.040564
 30
0.0
  0
POINT
  5
7FD
100
AcDbEntity
  8
DEFPOINTS
  6
BYBLOCK
 62
     0
100
AcDbPoint
 10
-344.716361
 20
682.038589
 30
0.0
  0
POINT
  5
7FE
100
AcDbEntity
  8
DEFPOINTS
  6
BYBLOCK
 62
     0
100
AcDbPoint
 10
-344.716361
 20
657.397052
 30
0.0
  0
ENDBLK
  5
7FF
100
AcDbEntity
  8
0
100
AcDbBlockEnd
  0
BLOCK
  5
800
100
AcDbEntity
  8
0
100
AcDbBlockBegin
  2
*D6
 70
     1
 10
0.0
 20
0.0
 30
0.0
  3
*D6
  1

  0
LINE
  5
801
100
AcDbEntity
  8
0
  6
BYBLOCK
 62
     1
100
AcDbLine
 10
-495.740793
 20
685.31506
 30
0.0
 11
-513.43506
 21
690.056224
 31
0.0
  0
LINE
  5
802
100
AcDbEntity
  8
0
  6
BYBLOCK
 62
     1
100
AcDbLine
 10
-494.862023
 20
684.060046
 30
0.0
 11
-496.458581
 21
665.8113
 31
0.0
  0
ARC
  5
803
100
AcDbEntity
  8
0
  6
BYBLOCK
 62
     1
100
AcDbCircle
 10
-494.774867
 20
685.056241
 30
0.0
 40
17.318453
100
AcDbArc
 50
171.620414
 51
258.379586
  0
INSERT
  5
804
100
AcDbEntity
  8
0
  6
BYBLOCK
 62
     1
100
AcDbBlockReference
  2
_OPEN30
 10
-511.503208
 20
689.538586
 30
0.0
 41
2.0
 42
2.0
 43
2.0
 50
78.310207
  0
INSERT
  5
805
100
AcDbEntity
  8
0
  6
BYBLOCK
 62
     1
100
AcDbBlockReference
  2
_OPEN30
 10
-496.28427
 20
667.80369
 30
0.0
 41
2.0
 42
2.0
 43
2.0
 50
351.689793
  0
MTEXT
  5
806
100
AcDbEntity
  8
0
  6
BYBLOCK
 62
     3
100
AcDbMText
 10
-506.913433
 20
676.556725
 30
0.0
 40
3.0
 41
0.0
 71
     5
 72
     1
  1
\A1;100°
 11
0.573576
 21
-0.819152
 31
0.0
  0
POINT
  5
807
100
AcDbEntity
  8
DEFPOINTS
  6
BYBLOCK
 62
     0
100
AcDbPoint
 10
-511.214281
 20
679.608812
 30
0.0
  0
POINT
  5
808
100
AcDbEntity
  8
DEFPOINTS
  6
BYBLOCK
 62
     0
100
AcDbPoint
 10
-494.716361
 20
685.724966
 30
0.0
  0
POINT
  5
809
100
AcDbEntity
  8
DEFPOINTS
  6
BYBLOCK
 62
     0
100
AcDbPoint
 10
-483.239283
 20
681.96529
 30
0.0
  0
POINT
  5
80A
100
AcDbEntity
  8
DEFPOINTS
  6
BYBLOCK
 62
     0
100
AcDbPoint
 10
-494.126461
 20
684.882501
 30
0.0
  0
POINT
  5
80B
100
AcDbEntity
  8
DEFPOINTS
  6
BYBLOCK
 62
     0
100
AcDbPoint
 10
-493.734008
 20
696.953311
 30
0.0
  0
ENDBLK
  5
80C
100
AcDbEntity
  8
0
100
AcDbBlockEnd
  0
BLOCK
  5
80D
100
AcDbEntity
  8
0
100
AcDbBlockBegin
  2
*D7
 70
     1
 10
0.0
 20
0.0
 30
0.0
  3
*D7
  1

  0
LINE
  5
80E
100
AcDbEntity
  8
0
  6
BYBLOCK
 62
     1
100
AcDbLine
 10
-495.716361
 20
685.040564
 30
0.0
 11
-506.754125
 21
685.040564
 31
0.0
  0
LINE
  5
80F
100
AcDbEntity
  8
0
  6
BYBLOCK
 62
     1
100
AcDbLine
 10
-493.112595
 20
702.038589
 30
0.0
 11
-506.754125
 21
702.038589
 31
0.0
  0
LINE
  5
810
100
AcDbEntity
  8
0
  6
BYBLOCK
 62
     1
100
AcDbLine
 10
-504.754125
 20
687.040564
 30
0.0
 11
-504.754125
 21
700.038589
 31
0.0
  0
INSERT
  5
811
100
AcDbEntity
  8
0
  6
BYBLOCK
 62
     1
100
AcDbBlockReference
  2
_OPEN30
 10
-504.754125
 20
685.040564
 30
0.0
 41
2.0
 42
2.0
 43
2.0
 50
270.0
  0
INSERT
  5
812
100
AcDbEntity
  8
0
  6
BYBLOCK
 62
     1
100
AcDbBlockReference
  2
_OPEN30
 10
-504.754125
 20
702.038589
 30
0.0
 41
2.0
 42
2.0
 43
2.0
 50
90.0
  0
MTEXT
  5
813
100
AcDbEntity
  8
0
  6
BYBLOCK
 62
     3
100
AcDbMText
 10
-507.254125
 20
693.539576
 30
0.0
 40
3.0
 41
0.0
 71
     5
 72
     1
  1
\A1;17
 11
0.0
 21
1.0
 31
0.0
  0
POINT
  5
814
100
AcDbEntity
  8
DEFPOINTS
  6
BYBLOCK
 62
     0
100
AcDbPoint
 10
-494.716361
 20
685.040564
 30
0.0
  0
POINT
  5
815
100
AcDbEntity
  8
DEFPOINTS
  6
BYBLOCK
 62
     0
100
AcDbPoint
 10
-492.112595
 20
702.038589
 30
0.0
  0
POINT
  5
816
100
AcDbEntity
  8
DEFPOINTS
  6
BYBLOCK
 62
     0
100
AcDbPoint
 10
-504.754125
 20
702.038589
 30
0.0
  0
ENDBLK
  5
817
100
AcDbEntity
  8
0
100
AcDbBlockEnd
  0
BLOCK
  5
818
100
AcDbEntity
  8
0
100
AcDbBlockBegin
  2
*D8
 70
     1
 10
0.0
 20
0.0
 30
0.0
  3
*D8
  1

  0
LINE
  5
819
100
AcDbEntity
  8
0
  6
BYBLOCK
 62
     1
100
AcDbLine
 10
-494.716361
 20
683.040564
 30
0.0
 11
-494.716361
 21
665.724856
 31
0.0
  0
LINE
  5
81A
100
AcDbEntity
  8
0
  6
BYBLOCK
 62
     1
100
AcDbLine
 10
-482.273358
 20
681.706471
 30
0.0
 11
-476.05882
 21
680.041291
 31
0.0
  0
ARC
  5
81B
100
AcDbEntity
  8
0
  6
BYBLOCK
 62
     1
100
AcDbCircle
 10
-494.716361
 20
685.040564
 30
0.0
 40
17.315708
100
AcDbArc
 50
276.621465
 51
338.378535
  0
INSERT
  5
81C
100
AcDbEntity
  8
0
  6
BYBLOCK
 62
     1
100
AcDbBlockReference
  2
_OPEN30
 10
-494.716361
 20
667.724856
 30
0.0
 41
2.0
 42
2.0
 43
2.0
 50
183.310732
  0
INSERT
  5
81D
100
AcDbEntity
  8
0
  6
BYBLOCK
 62
     1
100
AcDbBlockReference
  2
_OPEN30
 10
-477.990671
 20
680.558929
 30
0.0
 41
2.0
 42
2.0
 43
2.0
 50
71.689268
  0
MTEXT
  5
81E
100
AcDbEntity
  8
0
  6
BYBLOCK
 62
     3
100
AcDbMText
 10
-485.69713
 20
673.286472
 30
0.0
 40
3.0
 41
0.0
 71
     5
 72
     1
  1
\A1;75°
 11
0.793353
 21
0.608761
 31
0.0
  0
POINT
  5
81F
100
AcDbEntity
  8
DEFPOINTS
  6
BYBLOCK
 62
     0
100
AcDbPoint
 10
-487.398427
 20
669.347203
 30
0.0
  0
POINT
  5
820
100
AcDbEntity
  8
DEFPOINTS
  6
BYBLOCK
 62
     0
100
AcDbPoint
 10
-483.239283
 20
681.96529
 30
0.0
  0
POINT
  5
821
100
AcDbEntity
  8
DEFPOINTS
  6
BYBLOCK
 62
     0
100
AcDbPoint
 10
-494.716361
 20
685.040564
 30
0.0
  0
POINT
  5
822
100
AcDbEntity
  8
DEFPOINTS
  6
BYBLOCK
 62
     0
100
AcDbPoint
 10
-494.716361
 20
684.040564
 30
0.0
  0
POINT
  5
823
100
AcDbEntity
  8
DEFPOINTS
  6
BYBLOCK
 62
     0
100
AcDbPoint
 10
-494.126461
 20
684.882501
 30
0.0
  0
ENDBLK
  5
824
100
AcDbEntity
  8
0
100
AcDbBlockEnd
  0
BLOCK
  5
825
100
AcDbEntity
  8
0
100
AcDbBlockBegin
  2
*D9
 70
     1
 10
0.0
 20
0.0
 30
0.0
  3
*D9
  1

  0
LINE
  5
826
100
AcDbEntity
  8
0
  6
BYBLOCK
 62
     1
100
AcDbLine
 10
-343.716361
 20
702.038589
 30
0.0
 11
-329.71128
 21
702.038589
 31
0.0
  0
LINE
  5
827
100
AcDbEntity
  8
0
  6
BYBLOCK
 62
     1
100
AcDbLine
 10
-343.716361
 20
682.038589
 30
0.0
 11
-329.71128
 21
682.038589
 31
0.0
  0
LINE
  5
828
100
AcDbEntity
  8
0
  6
BYBLOCK
 62
     1
100
AcDbLine
 10
-331.71128
 20
700.038589
 30
0.0
 11
-331.71128
 21
684.038589
 31
0.0
  0
INSERT
  5
829
100
AcDbEntity
  8
0
  6
BYBLOCK
 62
     1
100
AcDbBlockReference
  2
_OPEN30
 10
-331.71128
 20
702.038589
 30
0.0
 41
2.0
 42
2.0
 43
2.0
 50
90.0
  0
INSERT
  5
82A
100
AcDbEntity
  8
0
  6
BYBLOCK
 62
     1
100
AcDbBlockReference
  2
_OPEN30
 10
-331.71128
 20
682.038589
 30
0.0
 41
2.0
 42
2.0
 43
2.0
 50
270.0
  0
MTEXT
  5
82B
100
AcDbEntity
  8
0
  6
BYBLOCK
 62
     3
100
AcDbMText
 10
-334.21128
 20
692.038589
 30
0.0
 40
3.0
 41
0.0
 71
     5
 72
     1
  1
\A1;20
 11
0.0
 21
1.0
 31
0.0
  0
POINT
  5
82C
100
AcDbEntity
  8
DEFPOINTS
  6
BYBLOCK
 62
     0
100
AcDbPoint
 10
-344.716361
 20
702.038589
 30
0.0
  0
POINT
  5
82D
100
AcDbEntity
  8
DEFPOINTS
  6
BYBLOCK
 62
     0
100
AcDbPoint
 10
-344.716361
 20
682.038589
 30
0.0
  0
POINT
  5
82E
100
AcDbEntity
  8
DEFPOINTS
  6
BYBLOCK
 62
     0
100
AcDbPoint
 10
-331.71128
 20
682.038589
 30
0.0
  0
ENDBLK
  5
82F
100
AcDbEntity
  8
0
100
AcDbBlockEnd
  0
BLOCK
  5
841
100
AcDbEntity
  8
0
100
AcDbBlockBegin
  2
*D10
 70
     1
 10
0.0
 20
0.0
 30
0.0
  3
*D10
  1

  0
LINE
  5
842
100
AcDbEntity
  8
0
  6
BYBLOCK
 62
     1
100
AcDbLine
 10
-527.128292
 20
686.87792
 30
0.0
 11
-529.895282
 21
672.642987
 31
0.0
  0
LINE
  5
843
100
AcDbEntity
  8
0
  6
BYBLOCK
 62
     1
100
AcDbLine
 10
-527.53036
 20
681.082926
 30
0.0
 11
-528.288516
 21
672.417171
 31
0.0
  0
ARC
  5
844
100
AcDbEntity
  8
0
  6
BYBLOCK
 62
     1
100
AcDbCircle
 10
-526.937483
 20
687.859547
 30
0.0
 40
13.501364
100
AcDbArc
 50
241.962485
 51
259.0
  0
LINE
  5
845
100
AcDbEntity
  8
0
  6
BYBLOCK
 62
     1
100
AcDbLine
 10
-533.283793
 20
675.942703
 30
0.0
 11
-540.874497
 21
679.985129
 31
0.0
  0
ARC
  5
846
100
AcDbEntity
  8
0
  6
BYBLOCK
 62
     1
100
AcDbCircle
 10
-526.937483
 20
687.859547
 30
0.0
 40
13.501364
100
AcDbArc
 50
242.009629
 51
250.504814
  0
ARC
  5
847
100
AcDbEntity
  8
0
  6
BYBLOCK
 62
     1
100
AcDbCircle
 10
-526.937483
 20
687.859547
 30
0.0
 40
13.501364
100
AcDbArc
 50
273.495186
 51
281.990371
  0
ARC
  5
848
100
AcDbEntity
  8
0
  6
BYBLOCK
 62
     1
100
AcDbCircle
 10
-526.937483
 20
687.859547
 30
0.0
 40
13.501364
100
AcDbArc
 50
259.0
 51
265.0
  0
INSERT
  5
849
100
AcDbEntity
  8
0
  6
BYBLOCK
 62
     1
100
AcDbBlockReference
  2
_OPEN30
 10
-529.513664
 20
674.606241
 30
0.0
 41
2.0
 42
2.0
 43
2.0
 50
344.752407
  0
INSERT
  5
84A
100
AcDbEntity
  8
0
  6
BYBLOCK
 62
     1
100
AcDbBlockReference
  2
_OPEN30
 10
-528.114204
 20
674.40956
 30
0.0
 41
2.0
 42
2.0
 43
2.0
 50
179.247593
  0
MTEXT
  5
84B
100
AcDbEntity
  8
0
  6
BYBLOCK
 62
     3
100
AcDbMText
 10
-535.904021
 20
680.170516
 30
0.0
 40
3.0
 41
0.0
 71
     5
 72
     1
  1
\A1;6°
 11
0.88264
 21
-0.47005
 31
0.0
  0
POINT
  5
84C
100
AcDbEntity
  8
DEFPOINTS
  6
BYBLOCK
 62
     0
100
AcDbPoint
 10
-528.582885
 20
674.45882
 30
0.0
 50
95.0
  0
POINT
  5
84D
100
AcDbEntity
  8
DEFPOINTS
  6
BYBLOCK
 62
     0
100
AcDbPoint
 10
-526.937483
 20
687.859547
 30
0.0
 50
95.0
  0
POINT
  5
84E
100
AcDbEntity
  8
DEFPOINTS
  6
BYBLOCK
 62
     0
100
AcDbPoint
 10
-523.645112
 20
704.797327
 30
0.0
 50
95.0
  0
POINT
  5
84F
100
AcDbEntity
  8
DEFPOINTS
  6
BYBLOCK
 62
     0
100
AcDbPoint
 10
-526.937483
 20
687.859547
 30
0.0
 50
95.0
  0
POINT
  5
850
100
AcDbEntity
  8
DEFPOINTS
  6
BYBLOCK
 62
     0
100
AcDbPoint
 10
-527.443205
 20
682.07912
 30
0.0
 50
95.0
  0
ENDBLK
  5
851
100
AcDbEntity
  8
0
100
AcDbBlockEnd
  0
BLOCK
  5
7CF
100
AcDbEntity
  8
0
100
AcDbBlockBegin
  2
_OPEN30
 70
     0
 10
0.0
 20
0.0
 30
0.0
  3
_OPEN30
  1

  0
LINE
  5
7D0
100
AcDbEntity
  8
0
  6
BYBLOCK
 62
     0
100
AcDbLine
 10
-1.0
 20
0.267949
 30
0.0
 11
0.0
 21
0.0
 31
0.0
  0
LINE
  5
7D1
100
AcDbEntity
  8
0
  6
BYBLOCK
 62
     0
100
AcDbLine
 10
0.0
 20
0.0
 30
0.0
 11
-1.0
 21
-0.267949
 31
0.0
  0
LINE
  5
7D2
100
AcDbEntity
  8
0
  6
BYBLOCK
 62
     0
100
AcDbLine
 10
0.0
 20
0.0
 30
0.0
 11
-1.0
 21
0.0
 31
0.0
  0
ENDBLK
  5
7D3
100
AcDbEntity
  8
0
100
AcDbBlockEnd
  0
ENDSEC
  0
SECTION
  2
ENTITIES
  0
LINE
  5
30
100
AcDbEntity
  8
外形
  6
CONTINUOUS
100
AcDbLine
 10
-467.716361
 20
618.600264
 30
0.0
 11
-344.716361
 21
618.600264
 31
0.0
  0
LINE
  5
32
100
AcDbEntity
  8
外形
  6
CONTINUOUS
100
AcDbLine
 10
-493.546821
 20
593.599875
 30
0.0
 11
-344.716361
 21
593.599875
 31
0.0
  0
TEXT
  5
34
100
AcDbEntity
  8
外形
  6
CONTINUOUS
 62
     2
100
AcDbText
 10
-488.124021
 20
564.8839
 30
0.0
 40
6.0
  1
ＰＣＢＮ　Ｒ２５２０－４３
100
AcDbText
  0
DIMENSION
  5
35
100
AcDbEntity
  8
寸法
  6
CONTINUOUS
100
AcDbDimension
  2
*D2
 10
-504.754125
 20
618.600264
 30
0.0
 11
-507.254125
 21
606.10007
 31
0.0
 70
    32
  3
STANDARD
100
AcDbAlignedDimension
 13
-493.546821
 23
593.599875
 33
0.0
 14
-494.716361
 24
618.600264
 34
0.0
 50
90.0
100
AcDbRotatedDimension
1001
ACAD
1000
DSTYLE
1002
{
1070
    40
1040
1.0
1002
}
  0
LINE
  5
45
100
AcDbEntity
  8
外形
  6
CONTINUOUS
100
AcDbLine
 10
-493.546821
 20
610.746869
 30
0.0
 11
-493.546821
 21
593.599875
 31
0.0
  0
DIMENSION
  5
48
100
AcDbEntity
  8
寸法
  6
CONTINUOUS
100
AcDbDimension
  2
*D3
 10
-467.716361
 20
638.695826
 30
0.0
 11
-481.216361
 21
641.195826
 31
0.0
 70
    32
  3
STANDARD
100
AcDbAlignedDimension
 13
-494.716361
 23
618.600264
 33
0.0
 14
-467.716361
 24
618.600264
 34
0.0
100
AcDbRotatedDimension
1001
ACAD
1000
DSTYLE
1002
{
1070
    40
1040
1.0
1002
}
  0
DIMENSION
  5
57
100
AcDbEntity
  8
寸法
  6
CONTINUOUS
100
AcDbDimension
  2
*D4
 10
-331.661227
 20
593.599875
 30
0.0
 11
-334.161227
 21
606.10007
 31
0.0
 70
    32
  3
STANDARD
100
AcDbAlignedDimension
 13
-344.716361
 23
618.600264
 33
0.0
 14
-344.716361
 24
593.599875
 34
0.0
 50
90.0
100
AcDbRotatedDimension
1001
ACAD
1000
DSTYLE
1002
{
1070
    40
1040
1.0
1002
}
  0
LINE
  5
64
100
AcDbEntity
  8
外形
  6
CONTINUOUS
100
AcDbLine
 10
-344.716361
 20
618.600264
 30
0.0
 11
-344.716361
 21
593.599875
 31
0.0
  0
DIMENSION
  5
65
100
AcDbEntity
  8
寸法
  6
CONTINUOUS
100
AcDbDimension
  2
*D5
 10
-344.716361
 20
657.397052
 30
0.0
 11
-419.716361
 21
659.897052
 31
0.0
 70
    32
  3
STANDARD
100
AcDbAlignedDimension
 13
-494.716361
 23
685.040564
 33
0.0
 14
-344.716361
 24
682.038589
 34
0.0
100
AcDbRotatedDimension
1001
ACAD
1000
DSTYLE
1002
{
1070
    40
1040
1.0
1002
}
  0
LINE
  5
72
100
AcDbEntity
  8
外形
  6
CONTINUOUS
100
AcDbLine
 10
-344.716361
 20
682.038589
 30
0.0
 11
-479.127914
 21
682.038589
 31
0.0
  0
LINE
  5
73
100
AcDbEntity
  8
外形
  6
CONTINUOUS
100
AcDbLine
 10
-344.716361
 20
702.038589
 30
0.0
 11
-492.112595
 21
702.038589
 31
0.0
  0
LINE
  5
78
100
AcDbEntity
  8
外形
  6
CONTINUOUS
100
AcDbLine
 10
-473.595635
 20
691.934279
 30
0.0
 11
-472.72961
 21
693.434279
 31
0.0
  0
LINE
  5
79
100
AcDbEntity
  8
外形
  6
CONTINUOUS
100
AcDbLine
 10
-468.747236
 20
702.038589
 30
0.0
 11
-467.716361
 21
682.038589
 31
0.0
  0
LINE
  5
7A
100
AcDbEntity
  8
外形
  6
CONTINUOUS
100
AcDbLine
 10
-467.716361
 20
702.038589
 30
0.0
 11
-467.716361
 21
682.038589
 31
0.0
  0
LINE
  5
7B
100
AcDbEntity
  8
外形
  6
CONTINUOUS
100
AcDbLine
 10
-476.19371
 20
693.434279
 30
0.0
 11
-475.327685
 21
691.934279
 31
0.0
  0
LINE
  5
7C
100
AcDbEntity
  8
外形
  6
CONTINUOUS
100
AcDbLine
 10
-494.716361
 20
685.724966
 30
0.0
 11
-493.734008
 21
696.953311
 31
0.0
  0
CIRCLE
  5
7D
100
AcDbEntity
  8
外形
  6
CONTINUOUS
100
AcDbCircle
 10
-487.98464
 20
689.810809
 30
0.0
 40
2.58
  0
LINE
  5
7E
100
AcDbEntity
  8
外形
  6
CONTINUOUS
100
AcDbLine
 10
-482.235272
 20
682.668306
 30
0.0
 11
-481.155994
 21
695.004517
 31
0.0
  0
CIRCLE
  5
7F
100
AcDbEntity
  8
外形
  6
CONTINUOUS
100
AcDbCircle
 10
-474.461679
 20
693.434275
 30
0.0
 40
4.0
  0
CIRCLE
  5
80
100
AcDbEntity
  8
外形
  6
CONTINUOUS
100
AcDbCircle
 10
-474.461679
 20
693.434275
 30
0.0
 40
3.3235
  0
DIMENSION
  5
83
100
AcDbEntity
  8
寸法
  6
CONTINUOUS
100
AcDbDimension
  2
*D6
 10
-493.734008
 20
696.953311
 30
0.0
 11
-506.913433
 21
676.556725
 31
0.0
 70
    34
  3
STANDARD
100
AcDb2LineAngularDimension
 13
-483.239283
 23
681.96529
 33
0.0
 14
-494.126461
 24
684.882501
 34
0.0
 15
-494.716361
 25
685.724966
 35
0.0
 16
-511.214281
 26
679.608812
 36
0.0
1001
ACAD
1000
DSTYLE
1002
{
1070
   271
1070
     2
1070
    40
1040
1.0
1070
    79
1070
     2
1070
   179
1070
     2
1002
}
  0
DIMENSION
  5
92
100
AcDbEntity
  8
寸法
  6
CONTINUOUS
100
AcDbDimension
  2
*D7
 10
-504.754125
 20
702.038589
 30
0.0
 11
-507.254125
 21
693.539576
 31
0.0
 70
    32
  3
STANDARD
100
AcDbAlignedDimension
 13
-494.716361
 23
685.040564
 33
0.0
 14
-492.112595
 24
702.038589
 34
0.0
 50
90.0
100
AcDbRotatedDimension
1001
ACAD
1000
DSTYLE
1002
{
1070
    40
1040
1.0
1002
}
  0
DIMENSION
  5
B3
100
AcDbEntity
  8
寸法
  6
CONTINUOUS
100
AcDbDimension
  2
*D8
 10
-494.126461
 20
684.882501
 30
0.0
 11
-485.69713
 21
673.286472
 31
0.0
 70
    34
  3
STANDARD
100
AcDb2LineAngularDimension
 13
-494.716361
 23
685.040564
 33
0.0
 14
-494.716361
 24
684.040564
 34
0.0
 15
-483.239283
 25
681.96529
 35
0.0
 16
-487.398427
 26
669.347203
 36
0.0
1001
ACAD
1000
DSTYLE
1002
{
1070
   271
1070
     2
1070
    40
1040
1.0
1070
    79
1070
     2
1070
   179
1070
     2
1002
}
  0
LINE
  5
C3
100
AcDbEntity
  8
外形
  6
CONTINUOUS
100
AcDbLine
 10
-483.239283
 20
681.96529
 30
0.0
 11
-494.126461
 21
684.882501
 31
0.0
  0
LINE
  5
C4
100
AcDbEntity
  8
寸法
  6
CONTINUOUS
100
AcDbLine
 10
-494.716361
 20
685.040564
 30
0.0
 11
-494.716361
 21
684.040564
 31
0.0
  0
LINE
  5
C5
100
AcDbEntity
  8
外形
  6
CENTER
 62
     2
100
AcDbLine
 10
-494.716361
 20
685.724966
 30
0.0
 11
-494.716361
 21
685.040564
 31
0.0
  0
ARC
  5
C8
100
AcDbEntity
  8
外形
  6
CONTINUOUS
100
AcDbCircle
 10
-493.919406
 20
685.655241
 30
0.0
 40
0.8
100
AcDbArc
 50
175.0
 51
255.0
  0
ARC
  5
C9
100
AcDbEntity
  8
外形
  6
CONTINUOUS
100
AcDbCircle
 10
-483.032228
 20
682.738031
 30
0.0
 40
0.8
100
AcDbArc
 50
255.0
 51
355.0
  0
LINE
  5
CA
100
AcDbEntity
  8
外形
  6
CONTINUOUS
100
AcDbLine
 10
-475.327685
 20
691.934279
 30
0.0
 11
-473.595635
 21
691.934279
 31
0.0
  0
LINE
  5
CC
100
AcDbEntity
  8
外形
  6
CONTINUOUS
100
AcDbLine
 10
-492.501353
 20
697.595062
 30
0.0
 11
-492.112595
 21
702.038589
 31
0.0
  0
LINE
  5
CD
100
AcDbEntity
  8
外形
  6
CONTINUOUS
100
AcDbLine
 10
-481.84282
 20
694.739117
 30
0.0
 11
-492.729997
 21
697.656327
 31
0.0
  0
ARC
  5
CE
100
AcDbEntity
  8
外形
  6
CONTINUOUS
100
AcDbCircle
 10
-492.937053
 20
696.883586
 30
0.0
 40
0.8
100
AcDbArc
 50
75.0
 51
175.0
  0
ARC
  5
CF
100
AcDbEntity
  8
外形
  6
CONTINUOUS
100
AcDbCircle
 10
-483.646481
 20
695.222406
 30
0.0
 40
2.5
100
AcDbArc
 50
355.0
 51
165.0
  0
ARC
  5
D0
100
AcDbEntity
  8
外形
  6
CONTINUOUS
100
AcDbCircle
 10
-482.049875
 20
693.966376
 30
0.0
 40
0.8
100
AcDbArc
 50
355.0
 51
75.0
  0
LINE
  5
D1
100
AcDbEntity
  8
外形
  6
CONTINUOUS
100
AcDbLine
 10
-472.72961
 20
693.434279
 30
0.0
 11
-473.595635
 21
694.934278
 31
0.0
  0
LINE
  5
D2
100
AcDbEntity
  8
外形
  6
CONTINUOUS
100
AcDbLine
 10
-475.327685
 20
694.934278
 30
0.0
 11
-476.19371
 21
693.434279
 31
0.0
  0
LINE
  5
D3
100
AcDbEntity
  8
外形
  6
CONTINUOUS
100
AcDbLine
 10
-473.595635
 20
694.934278
 30
0.0
 11
-475.327685
 21
694.934278
 31
0.0
  0
LINE
  5
D4
100
AcDbEntity
  8
外形
  6
CONTINUOUS
100
AcDbLine
 10
-344.716361
 20
702.038589
 30
0.0
 11
-344.716361
 21
682.038589
 31
0.0
  0
DIMENSION
  5
D5
100
AcDbEntity
  8
寸法
  6
CONTINUOUS
100
AcDbDimension
  2
*D9
 10
-331.71128
 20
682.038589
 30
0.0
 11
-334.21128
 21
692.038589
 31
0.0
 70
    32
  3
STANDARD
100
AcDbAlignedDimension
 13
-344.716361
 23
702.038589
 33
0.0
 14
-344.716361
 24
682.038589
 34
0.0
 50
90.0
100
AcDbRotatedDimension
1001
ACAD
1000
DSTYLE
1002
{
1070
    40
1040
1.0
1002
}
  0
LINE
  5
3A8
100
AcDbEntity
  8
外形
  6
CONTINUOUS
100
AcDbLine
 10
-468.48211
 20
621.458077
 30
0.0
 11
-467.716361
 21
618.600264
 31
0.0
  0
LINE
  5
3AB
100
AcDbEntity
  8
外形
  6
CONTINUOUS
100
AcDbLine
 10
-482.173252
 20
619.966641
 30
0.0
 11
-481.657774
 21
615.234634
 31
0.0
  0
LINE
  5
3AC
100
AcDbEntity
  8
外形
  6
CONTINUOUS
100
AcDbLine
 10
-494.716361
 20
618.600264
 30
0.0
 11
-494.200883
 21
613.868258
 31
0.0
  0
LINE
  5
3AD
100
AcDbEntity
  8
外形
  6
CONTINUOUS
100
AcDbLine
 10
-493.831656
 20
610.709667
 30
0.0
 11
-481.338253
 21
612.070629
 31
0.0
  0
LINE
  5
3AF
100
AcDbEntity
  8
外形
  6
CONTINUOUS
100
AcDbLine
 10
-494.200883
 20
613.868258
 30
0.0
 11
-481.657774
 21
615.234634
 31
0.0
  0
LINE
  5
3B0
100
AcDbEntity
  8
外形
  6
CONTINUOUS
100
AcDbLine
 10
-494.716361
 20
618.600264
 30
0.0
 11
-468.48211
 21
621.458077
 31
0.0
  0
LINE
  5
3BC
100
AcDbEntity
  8
外形
  6
CONTINUOUS
100
AcDbLine
 10
-479.127914
 20
682.038589
 30
0.0
 11
-482.217928
 21
682.866555
 31
0.0
  0
LINE
  5
3C5
100
AcDbEntity
  8
外形
  6
CONTINUOUS
100
AcDbLine
 10
-492.501353
 20
697.595062
 30
0.0
 11
-492.112595
 21
702.038589
 31
0.0
  0
LINE
  5
3DC
100
AcDbEntity
  8
寸法
  6
CONTINUOUS
100
AcDbLine
 10
-507.910217
 20
686.205435
 30
0.0
 11
-526.935465
 21
687.869928
 31
0.0
  0
LINE
  5
3E3
100
AcDbEntity
  8
外形
  6
CONTINUOUS
100
AcDbLine
 10
-494.17603
 20
613.870965
 30
0.0
 11
-493.831656
 21
610.709667
 31
0.0
  0
LINE
  5
3E4
100
AcDbEntity
  8
外形
  6
CONTINUOUS
100
AcDbLine
 10
-481.682627
 20
615.231927
 30
0.0
 11
-481.338253
 21
612.070629
 31
0.0
  0
LINE
  5
3E7
100
AcDbEntity
  8
寸法
  6
CONTINUOUS
100
AcDbLine
 10
-494.716361
 20
685.040564
 30
0.0
 11
-504.005923
 21
650.456153
 31
0.0
  0
LINE
  5
3E8
100
AcDbEntity
  8
外形
  6
CONTINUOUS
100
AcDbLine
 10
-521.116637
 20
616.958251
 30
0.0
 11
-526.902531
 21
595.364999
 31
0.0
  0
LINE
  5
3E9
100
AcDbEntity
  8
外形
  6
CONTINUOUS
100
AcDbLine
 10
-532.013356
 20
618.879636
 30
0.0
 11
-537.549655
 21
598.217887
 31
0.0
  0
LINE
  5
3EA
100
AcDbEntity
  8
外形
  6
CONTINUOUS
100
AcDbLine
 10
-526.902531
 20
595.364999
 30
0.0
 11
-551.946608
 21
602.075539
 31
0.0
  0
LINE
  5
3EB
100
AcDbEntity
  8
外形
  6
CONTINUOUS
100
AcDbLine
 10
-548.810683
 20
613.778971
 30
0.0
 11
-551.946608
 21
602.075539
 31
0.0
  0
LINE
  5
3EC
100
AcDbEntity
  8
寸法
  6
CONTINUOUS
100
AcDbLine
 10
-539.976402
 20
650.456153
 30
0.0
 11
-547.714388
 21
621.648152
 31
0.0
  0
LINE
  5
3ED
100
AcDbEntity
  8
寸法
  6
CONTINUOUS
100
AcDbLine
 10
-539.976402
 20
650.456153
 30
0.0
 11
-504.005923
 21
650.456153
 31
0.0
  0
LINE
  5
3EE
100
AcDbEntity
  8
外形
  6
CONTINUOUS
100
AcDbLine
 10
-521.116637
 20
616.958251
 30
0.0
 11
-547.726493
 21
621.650286
 31
0.0
  0
LINE
  5
3EF
100
AcDbEntity
  8
外形
  6
CONTINUOUS
100
AcDbLine
 10
-535.770586
 20
614.708707
 30
0.0
 11
-548.553058
 21
616.962601
 31
0.0
  0
LINE
  5
3F0
100
AcDbEntity
  8
外形
  6
CONTINUOUS
100
AcDbLine
 10
-536.347408
 20
611.581359
 30
0.0
 11
-549.080639
 21
613.826571
 31
0.0
  0
LINE
  5
3F1
100
AcDbEntity
  8
外形
  6
CONTINUOUS
100
AcDbLine
 10
-547.726493
 20
621.650286
 30
0.0
 11
-548.553058
 21
616.962601
 31
0.0
  0
LINE
  5
3F2
100
AcDbEntity
  8
外形
  6
CONTINUOUS
100
AcDbLine
 10
-534.944021
 20
619.396392
 30
0.0
 11
-535.770586
 21
614.708707
 31
0.0
  0
LINE
  5
3F3
100
AcDbEntity
  8
外形
  6
CONTINUOUS
100
AcDbLine
 10
-548.528438
 20
616.95826
 30
0.0
 11
-549.080639
 21
613.826571
 31
0.0
  0
LINE
  5
3F4
100
AcDbEntity
  8
外形
  6
CONTINUOUS
100
AcDbLine
 10
-535.795206
 20
614.713048
 30
0.0
 11
-536.347408
 21
611.581359
 31
0.0
  0
DIMENSION
  5
3F5
100
AcDbEntity
  8
寸法
  6
CONTINUOUS
100
AcDbDimension
  2
*D1
 10
-547.726493
 20
621.650286
 30
0.0
 11
-560.153576
 21
634.071327
 31
0.0
 70
    34
  3
STANDARD
100
AcDb2LineAngularDimension
 13
-547.714388
 23
621.648152
 33
0.0
 14
-521.725873
 24
614.68455
 34
0.0
 15
-521.116637
 25
616.958251
 35
0.0
 16
-561.960237
 26
624.589683
 36
0.0
1001
ACAD
1000
DSTYLE
1002
{
1070
    40
1040
1.0
1002
}
  0
LINE
  5
601
100
AcDbEntity
  8
外形
  6
CONTINUOUS
100
AcDbLine
 10
-479.127914
 20
620.298383
 30
0.0
 11
-479.127914
 21
593.599875
 31
0.0
  0
DIMENSION
  5
602
100
AcDbEntity
  8
寸法
  6
CONTINUOUS
100
AcDbDimension
  2
*D10
 10
-527.443205
 20
682.07912
 30
0.0
 11
-535.904021
 21
680.170516
 31
0.0
 70
    34
 51
95.0
  3
STANDARD
100
AcDb2LineAngularDimension
 13
-523.645112
 23
704.797327
 33
0.0
 14
-526.937483
 24
687.859547
 34
0.0
 15
-526.937483
 25
687.859547
 35
0.0
 16
-528.582885
 26
674.45882
 36
0.0
1001
ACAD
1000
DSTYLE
1002
{
1070
   271
1070
     2
1070
    40
1040
1.0
1070
    79
1070
     2
1070
   179
1070
     2
1002
}
  0
LINE
  5
603
100
AcDbEntity
  8
外形
  6
CONTINUOUS
100
AcDbLine
 10
-523.645112
 20
704.797327
 30
0.0
 11
-526.937483
 21
687.859547
 31
0.0
  0
LINE
  5
604
100
AcDbEntity
  8
外形
  6
CONTINUOUS
100
AcDbLine
 10
-531.130966
 20
688.674678
 30
0.0
 11
-528.686501
 21
701.250362
 31
0.0
  0
LINE
  5
605
100
AcDbEntity
  8
外形
  6
CONTINUOUS
100
AcDbLine
 10
-531.795745
 20
701.82927
 30
0.0
 11
-534.23067
 21
689.302667
 31
0.0
  0
LINE
  5
606
100
AcDbEntity
  8
外形
  6
CONTINUOUS
100
AcDbLine
 10
-545.36576
 20
706.697637
 30
0.0
 11
-546.778033
 21
690.555289
 31
0.0
  0
LINE
  5
607
100
AcDbEntity
  8
外形
  6
CONTINUOUS
100
AcDbLine
 10
-526.937483
 20
687.859547
 30
0.0
 11
-531.130966
 21
688.674678
 31
0.0
  0
LINE
  5
608
100
AcDbEntity
  8
外形
  6
CONTINUOUS
100
AcDbLine
 10
-534.20107
 20
689.454947
 30
0.0
 11
-546.778033
 21
690.555289
 31
0.0
  0
LINE
  5
609
100
AcDbEntity
  8
外形
  6
CONTINUOUS
100
AcDbLine
 10
-531.126196
 20
688.699218
 30
0.0
 11
-534.23067
 21
689.302667
 31
0.0
  0
LINE
  5
60A
100
AcDbEntity
  8
寸法
  6
CONTINUOUS
100
AcDbLine
 10
-526.937483
 20
687.859547
 30
0.0
 11
-527.53036
 21
681.082926
 31
0.0
  0
LINE
  5
60B
100
AcDbEntity
  8
外形
  6
CONTINUOUS
100
AcDbLine
 10
-523.645112
 20
704.797327
 30
0.0
 11
-545.36576
 21
706.697637
 31
0.0
  0
LINE
  5
60C
100
AcDbEntity
  8
外形
  6
CONTINUOUS
100
AcDbLine
 10
-524.493017
 20
700.435231
 30
0.0
 11
-528.686501
 21
701.250362
 31
0.0
  0
LINE
  5
60D
100
AcDbEntity
  8
外形
  6
CONTINUOUS
100
AcDbLine
 10
-528.691271
 20
701.225821
 30
0.0
 11
-531.795745
 21
701.82927
 31
0.0
  0
ENDSEC
  0
SECTION
  2
OBJECTS
  0
DICTIONARY
  5
1E
100
AcDbDictionary
  3
ACAD_GROUP
350
1C
  3
ACAD_MLINESTYLE
350
1D
  0
DICTIONARY
  5
2D
100
AcDbDictionary
280
     1
  3
ACAD_XREC_ROUNDTRIP
360
2E
  0
DICTIONARY
  5
22
100
AcDbDictionary
280
     1
  3
ACAD_XREC_ROUNDTRIP
360
23
  0
DICTIONARY
  5
3
100
AcDbDictionary
280
     1
  3
ACAD_LAYOUTSELFREF
360
4
  0
DICTIONARY
  5
A
100
AcDbDictionary
280
     1
  3
ACAD_LAYOUTSELFREF
360
B
  0
DICTIONARY
  5
1C
102
{ACAD_REACTORS
330
1E
102
}
100
AcDbDictionary
  0
DICTIONARY
  5
1D
102
{ACAD_REACTORS
330
1E
102
}
100
AcDbDictionary
  3
STANDARD
350
20
  0
XRECORD
  5
2E
102
{ACAD_REACTORS
330
2D
102
}
100
AcDbXrecord
102
PLOTBIT
280
     0
  0
XRECORD
  5
23
102
{ACAD_REACTORS
330
22
102
}
100
AcDbXrecord
102
ACADR14ROUNDTRIP
1000
DSTYLE
1002
{
1070
   341
340
0
1070
   343
340
0
1070
   344
340
0
1002
}
  0
XRECORD
  5
4
102
{ACAD_REACTORS
330
3
102
}
100
AcDbXrecord
340
2
  0
XRECORD
  5
B
102
{ACAD_REACTORS
330
A
102
}
100
AcDbXrecord
340
9
  0
MLINESTYLE
  5
20
102
{ACAD_REACTORS
330
1D
102
}
100
AcDbMlineStyle
  2
STANDARD
 70
     0
  3

 62
     0
 51
90.0
 52
90.0
 71
     2
 49
0.5
 62
   256
  6
BYLAYER
 49
-0.5
 62
   256
  6
BYLAYER
  0
ENDSEC
  0
EOF
