  0
SECTION
  2
HEADER
  9
$ACADVER
  1
AC1014
  9
$ACADMAINTVER
 70
     0
  9
$DWGCODEPAGE
  3
ANSI_932
  9
$INSBASE
 10
-290.250952
 20
747.890188
 30
0.0
  9
$EXTMIN
 10
-256.349239
 20
775.2839
 30
0.0
  9
$EXTMAX
 10
3.27551
 20
917.124563
 30
0.0
  9
$LIMMIN
 10
-587.250952
 20
327.890188
  9
$LIMMAX
 10
600.749048
 20
957.890188
  9
$ORTHOMODE
 70
     1
  9
$REGENMODE
 70
     1
  9
$FILLMODE
 70
     1
  9
$QTEXTMODE
 70
     0
  9
$MIRRTEXT
 70
     1
  9
$DRAGMODE
 70
     2
  9
$LTSCALE
 40
5.0
  9
$OSMODE
 70
   100
  9
$ATTMODE
 70
     1
  9
$TEXTSIZE
 40
4.0
  9
$TRACEWID
 40
0.05
  9
$TEXTSTYLE
  7
STANDARD
  9
$CLAYER
  8
外形
  9
$CELTYPE
  6
CONTINUOUS
  9
$CECOLOR
 62
   256
  9
$CELTSCALE
 40
1.0
  9
$DELOBJ
 70
     1
  9
$DISPSILH
 70
     0
  9
$DIMSCALE
 40
1.0
  9
$DIMASZ
 40
2.0
  9
$DIMEXO
 40
1.0
  9
$DIMDLI
 40
8.0
  9
$DIMRND
 40
0.0
  9
$DIMDLE
 40
0.0
  9
$DIMEXE
 40
2.0
  9
$DIMTP
 40
0.0
  9
$DIMTM
 40
0.0
  9
$DIMTXT
 40
3.0
  9
$DIMCEN
 40
-1.0
  9
$DIMTSZ
 40
0.0
  9
$DIMTOL
 70
     0
  9
$DIMLIM
 70
     0
  9
$DIMTIH
 70
     0
  9
$DIMTOH
 70
     0
  9
$DIMSE1
 70
     0
  9
$DIMSE2
 70
     0
  9
$DIMTAD
 70
     1
  9
$DIMZIN
 70
     8
  9
$DIMBLK
  1

  9
$DIMASO
 70
     1
  9
$DIMSHO
 70
     1
  9
$DIMPOST
  1

  9
$DIMAPOST
  1

  9
$DIMALT
 70
     0
  9
$DIMALTD
 70
     2
  9
$DIMALTF
 40
25.4
  9
$DIMLFAC
 40
1.0
  9
$DIMTOFL
 70
     1
  9
$DIMTVP
 40
0.0
  9
$DIMTIX
 70
     0
  9
$DIMSOXD
 70
     0
  9
$DIMSAH
 70
     1
  9
$DIMBLK1
  1
_OPEN30
  9
$DIMBLK2
  1
_OPEN30
  9
$DIMSTYLE
  2
STANDARD
  9
$DIMCLRD
 70
     1
  9
$DIMCLRE
 70
     1
  9
$DIMCLRT
 70
     3
  9
$DIMTFAC
 40
1.0
  9
$DIMGAP
 40
1.0
  9
$DIMJUST
 70
     0
  9
$DIMSD1
 70
     0
  9
$DIMSD2
 70
     0
  9
$DIMTOLJ
 70
     1
  9
$DIMTZIN
 70
     8
  9
$DIMALTZ
 70
     0
  9
$DIMALTTZ
 70
     0
  9
$DIMFIT
 70
     3
  9
$DIMUPT
 70
     0
  9
$DIMUNIT
 70
     2
  9
$DIMDEC
 70
     2
  9
$DIMTDEC
 70
     2
  9
$DIMALTU
 70
     2
  9
$DIMALTTD
 70
     2
  9
$DIMTXSTY
  7
STANDARD
  9
$DIMAUNIT
 70
     0
  9
$LUNITS
 70
     2
  9
$LUPREC
 70
     0
  9
$SKETCHINC
 40
0.1
  9
$FILLETRAD
 40
1.2
  9
$AUNITS
 70
     0
  9
$AUPREC
 70
     0
  9
$MENU
  1
acad
  9
$ELEVATION
 40
0.0
  9
$PELEVATION
 40
0.0
  9
$THICKNESS
 40
0.0
  9
$LIMCHECK
 70
     0
  9
$BLIPMODE
 70
     0
  9
$CHAMFERA
 40
0.0
  9
$CHAMFERB
 40
0.0
  9
$CHAMFERC
 40
0.0
  9
$CHAMFERD
 40
0.0
  9
$SKPOLY
 70
     0
  9
$TDCREATE
 40
2450751.535399305
  9
$TDUPDATE
 40
2451927.816770833
  9
$TDINDWG
 40
0.8184114583
  9
$TDUSRTIMER
 40
0.8184114583
  9
$USRTIMER
 70
     1
  9
$ANGBASE
 50
0.0
  9
$ANGDIR
 70
     0
  9
$PDMODE
 70
     0
  9
$PDSIZE
 40
0.0
  9
$PLINEWID
 40
0.0
  9
$COORDS
 70
     1
  9
$SPLFRAME
 70
     0
  9
$SPLINETYPE
 70
     5
  9
$SPLINESEGS
 70
     8
  9
$ATTDIA
 70
     0
  9
$ATTREQ
 70
     1
  9
$HANDLING
 70
     1
  9
$HANDSEED
  5
8BE
  9
$SURFTAB1
 70
     6
  9
$SURFTAB2
 70
     6
  9
$SURFTYPE
 70
     6
  9
$SURFU
 70
     6
  9
$SURFV
 70
     6
  9
$UCSNAME
  2

  9
$UCSORG
 10
0.0
 20
0.0
 30
0.0
  9
$UCSXDIR
 10
1.0
 20
0.0
 30
0.0
  9
$UCSYDIR
 10
0.0
 20
1.0
 30
0.0
  9
$PUCSNAME
  2

  9
$PUCSORG
 10
0.0
 20
0.0
 30
0.0
  9
$PUCSXDIR
 10
1.0
 20
0.0
 30
0.0
  9
$PUCSYDIR
 10
0.0
 20
1.0
 30
0.0
  9
$USERI1
 70
     0
  9
$USERI2
 70
     0
  9
$USERI3
 70
     0
  9
$USERI4
 70
     0
  9
$USERI5
 70
     0
  9
$USERR1
 40
0.0
  9
$USERR2
 40
0.0
  9
$USERR3
 40
0.0
  9
$USERR4
 40
0.0
  9
$USERR5
 40
0.0
  9
$WORLDVIEW
 70
     1
  9
$SHADEDGE
 70
     3
  9
$SHADEDIF
 70
    70
  9
$TILEMODE
 70
     1
  9
$MAXACTVP
 70
    16
  9
$PINSBASE
 10
0.0
 20
0.0
 30
0.0
  9
$PLIMCHECK
 70
     0
  9
$PEXTMIN
 10
1.000000E+20
 20
1.000000E+20
 30
1.000000E+20
  9
$PEXTMAX
 10
-1.000000E+20
 20
-1.000000E+20
 30
-1.000000E+20
  9
$PLIMMIN
 10
0.0
 20
0.0
  9
$PLIMMAX
 10
12.0
 20
9.0
  9
$UNITMODE
 70
     0
  9
$VISRETAIN
 70
     0
  9
$PLINEGEN
 70
     0
  9
$PSLTSCALE
 70
     1
  9
$TREEDEPTH
 70
  3020
  9
$PICKSTYLE
 70
     1
  9
$CMLSTYLE
  2
STANDARD
  9
$CMLJUST
 70
     0
  9
$CMLSCALE
 40
1.0
  9
$PROXYGRAPHICS
 70
     1
  9
$MEASUREMENT
 70
     0
  0
ENDSEC
  0
SECTION
  2
CLASSES
  0
CLASS
  1
LWPOLYLINE
  2
AcDbPolyline
  3
"AutoCAD"
 90
        0
280
     0
281
     1
  0
CLASS
  1
ACDBDICTIONARYWDFLT
  2
AcDbDictionaryWithDefault
  3
AutoCAD 2000
 90
        0
280
     1
281
     0
  0
CLASS
  1
ACDBPLACEHOLDER
  2
AcDbPlaceHolder
  3
AutoCAD 2000
 90
        0
280
     1
281
     0
  0
CLASS
  1
LAYOUT
  2
AcDbLayout
  3
AutoCAD 2000
 90
        0
280
     1
281
     0
  0
CLASS
  1
LONG_TRANSACTION
  2
AcDbLongTransaction
  3
AutoCAD 2000
 90
        0
280
     1
281
     0
  0
CLASS
  1
LWPOLYLINE
  2
AcDbPolyline
  3
"AutoCAD"
 90
        0
280
     0
281
     1
  0
CLASS
  1
HATCH
  2
AcDbHatch
  3
"ACAD_SEDONA"
 90
        0
280
     0
281
     1
  0
CLASS
  1
XRECORD
  2
AcDbXrecord
  3
"<Built In>"
 90
        0
280
     0
281
     0
  0
ENDSEC
  0
SECTION
  2
TABLES
  0
TABLE
  2
VPORT
  5
16
100
AcDbSymbolTable
 70
     1
  0
VPORT
  5
8B9
100
AcDbSymbolTableRecord
100
AcDbViewportTableRecord
  2
*ACTIVE
 70
     0
 10
0.0
 20
0.0
 11
1.0
 21
1.0
 12
-126.23367
 22
846.139605
 13
0.0
 23
0.0
 14
0.05
 24
0.05
 15
10.0
 25
10.0
 16
0.0
 26
0.0
 36
1.0
 17
0.0
 27
0.0
 37
0.0
 40
186.441177
 41
1.710425
 42
50.0
 43
0.0
 44
0.0
 50
0.0
 51
0.0
 71
     0
 72
   100
 73
     1
 74
     1
 75
     0
 76
     0
 77
     0
 78
     0
  0
ENDTAB
  0
TABLE
  2
LTYPE
  5
11
100
AcDbSymbolTable
 70
     2
  0
LTYPE
  5
12
100
AcDbSymbolTableRecord
100
AcDbLinetypeTableRecord
  2
BYBLOCK
 70
     0
  3

 72
    65
 73
     0
 40
0.0
  0
LTYPE
  5
13
100
AcDbSymbolTableRecord
100
AcDbLinetypeTableRecord
  2
BYLAYER
 70
     0
  3

 72
    65
 73
     0
 40
0.0
  0
LTYPE
  5
7
100
AcDbSymbolTableRecord
100
AcDbLinetypeTableRecord
  2
CONTINUOUS
 70
     0
  3
Solid line
 72
    65
 73
     0
 40
0.0
  0
LTYPE
  5
C0
100
AcDbSymbolTableRecord
100
AcDbLinetypeTableRecord
  2
CENTER
 70
     0
  3
Center ____ _ ____ _ ____ _ ____ _ ____ _ ____
 72
    65
 73
     4
 40
2.0
 49
1.25
 74
     0
 49
-0.25
 74
     0
 49
0.25
 74
     0
 49
-0.25
 74
     0
  0
ENDTAB
  0
TABLE
  2
LAYER
  5
E
100
AcDbSymbolTable
 70
     5
  0
LAYER
  5
6
100
AcDbSymbolTableRecord
100
AcDbLayerTableRecord
  2
0
 70
     0
 62
     7
  6
CONTINUOUS
  0
LAYER
  5
3E
100
AcDbSymbolTableRecord
100
AcDbLayerTableRecord
  2
外形
 70
     0
 62
     3
  6
CONTINUOUS
  0
LAYER
  5
34
102
{ACAD_XDICTIONARY
360
35
102
}
100
AcDbSymbolTableRecord
100
AcDbLayerTableRecord
  2
DEFPOINTS
 70
     0
 62
     7
  6
CONTINUOUS
  0
LAYER
  5
1F
100
AcDbSymbolTableRecord
100
AcDbLayerTableRecord
  2
寸法
 70
     0
 62
     1
  6
CONTINUOUS
  0
LAYER
  5
587
100
AcDbSymbolTableRecord
100
AcDbLayerTableRecord
  2
画層1
 70
     0
 62
     7
  6
CONTINUOUS
  0
ENDTAB
  0
TABLE
  2
STYLE
  5
F
100
AcDbSymbolTable
 70
     1
  0
STYLE
  5
10
100
AcDbSymbolTableRecord
100
AcDbTextStyleTableRecord
  2
STANDARD
 70
     0
 40
0.0
 41
1.0
 50
0.0
 71
     0
 42
4.0
  3
MONOTXT
  4
BIGFONT
  0
ENDTAB
  0
TABLE
  2
VIEW
  5
14
100
AcDbSymbolTable
 70
     0
  0
ENDTAB
  0
TABLE
  2
UCS
  5
15
100
AcDbSymbolTable
 70
     0
  0
ENDTAB
  0
TABLE
  2
APPID
  5
18
100
AcDbSymbolTable
 70
     1
  0
APPID
  5
19
100
AcDbSymbolTableRecord
100
AcDbRegAppTableRecord
  2
ACAD
 70
     0
  0
ENDTAB
  0
TABLE
  2
DIMSTYLE
  5
1A
100
AcDbSymbolTable
 70
     1
  0
DIMSTYLE
105
21
102
{ACAD_XDICTIONARY
360
22
102
}
102
{ACAD_REACTORS
330
588
330
58D
330
58F
330
592
330
594
330
59A
330
59E
330
5B3
330
5B5
330
5C6
102
}
100
AcDbSymbolTableRecord
100
AcDbDimStyleTableRecord
  2
STANDARD
 70
     0
  3

  4

  5

  6
_OPEN30
  7
_OPEN30
 40
1.0
 41
2.0
 42
1.0
 43
8.0
 44
2.0
 45
0.0
 46
0.0
 47
0.0
 48
0.0
140
3.0
141
-1.0
142
0.0
143
25.4
144
1.0
145
0.0
146
1.0
147
1.0
 71
     0
 72
     0
 73
     0
 74
     0
 75
     0
 76
     0
 77
     1
 78
     8
170
     0
171
     2
172
     1
173
     1
174
     0
175
     0
176
     1
177
     1
178
     3
270
     2
271
     2
272
     2
273
     2
274
     2
340
10
275
     0
280
     0
281
     0
282
     0
283
     1
284
     8
285
     0
286
     0
287
     3
288
     0
  0
ENDTAB
  0
TABLE
  2
BLOCK_RECORD
  5
1
100
AcDbSymbolTable
 70
    13
  0
BLOCK_RECORD
  5
2
102
{ACAD_XDICTIONARY
360
3
102
}
100
AcDbSymbolTableRecord
100
AcDbBlockTableRecord
  2
*MODEL_SPACE
  0
BLOCK_RECORD
  5
9
102
{ACAD_XDICTIONARY
360
A
102
}
100
AcDbSymbolTableRecord
100
AcDbBlockTableRecord
  2
*PAPER_SPACE
  0
BLOCK_RECORD
  5
24
100
AcDbSymbolTableRecord
100
AcDbBlockTableRecord
  2
_DOTSMALL
  0
BLOCK_RECORD
  5
42E
100
AcDbSymbolTableRecord
100
AcDbBlockTableRecord
  2
_OPEN
  0
BLOCK_RECORD
  5
4AA
100
AcDbSymbolTableRecord
100
AcDbBlockTableRecord
  2
*D2
  0
BLOCK_RECORD
  5
4B6
100
AcDbSymbolTableRecord
100
AcDbBlockTableRecord
  2
*D3
  0
BLOCK_RECORD
  5
4C2
100
AcDbSymbolTableRecord
100
AcDbBlockTableRecord
  2
*D4
  0
BLOCK_RECORD
  5
4CE
100
AcDbSymbolTableRecord
100
AcDbBlockTableRecord
  2
*D5
  0
BLOCK_RECORD
  5
4DC
100
AcDbSymbolTableRecord
100
AcDbBlockTableRecord
  2
*D6
  0
BLOCK_RECORD
  5
4EE
100
AcDbSymbolTableRecord
100
AcDbBlockTableRecord
  2
*D7
  0
BLOCK_RECORD
  5
4FA
100
AcDbSymbolTableRecord
100
AcDbBlockTableRecord
  2
*D8
  0
BLOCK_RECORD
  5
508
100
AcDbSymbolTableRecord
100
AcDbBlockTableRecord
  2
*D9
  0
BLOCK_RECORD
  5
514
100
AcDbSymbolTableRecord
100
AcDbBlockTableRecord
  2
*D10
  0
BLOCK_RECORD
  5
54D
100
AcDbSymbolTableRecord
100
AcDbBlockTableRecord
  2
*D11
  0
BLOCK_RECORD
  5
835
100
AcDbSymbolTableRecord
100
AcDbBlockTableRecord
  2
_OPEN30
  0
ENDTAB
  0
ENDSEC
  0
SECTION
  2
BLOCKS
  0
BLOCK
  5
5
100
AcDbEntity
  8
0
100
AcDbBlockBegin
  2
*MODEL_SPACE
 70
     0
 10
0.0
 20
0.0
 30
0.0
  3
*MODEL_SPACE
  1

  0
ENDBLK
  5
8
100
AcDbEntity
  8
0
100
AcDbBlockEnd
  0
BLOCK
  5
C
100
AcDbEntity
 67
     1
  8
0
100
AcDbBlockBegin
  2
*PAPER_SPACE
 70
     0
 10
0.0
 20
0.0
 30
0.0
  3
*PAPER_SPACE
  1

  0
ENDBLK
  5
D
100
AcDbEntity
 67
     1
  8
0
100
AcDbBlockEnd
  0
BLOCK
  5
29
100
AcDbEntity
  8
0
100
AcDbBlockBegin
  2
_DOTSMALL
 70
     0
 10
0.0
 20
0.0
 30
0.0
  3
_DOTSMALL
  1

  0
POLYLINE
  5
25
100
AcDbEntity
  8
0
  6
BYBLOCK
 62
     0
100
AcDb2dPolyline
 66
     1
 10
0.0
 20
0.0
 30
0.0
 70
     1
 40
0.5
 41
0.5
  0
VERTEX
  5
26
100
AcDbEntity
  8
0
  6
BYBLOCK
 62
     0
100
AcDbVertex
100
AcDb2dVertex
 10
-0.0625
 20
0.0
 30
0.0
 42
1.0
  0
VERTEX
  5
27
100
AcDbEntity
  8
0
  6
BYBLOCK
 62
     0
100
AcDbVertex
100
AcDb2dVertex
 10
0.0625
 20
0.0
 30
0.0
 42
1.0
  0
SEQEND
  5
28
100
AcDbEntity
  8
0
  6
BYBLOCK
 62
     0
  0
ENDBLK
  5
2A
100
AcDbEntity
  8
0
100
AcDbBlockEnd
  0
BLOCK
  5
42F
100
AcDbEntity
  8
0
100
AcDbBlockBegin
  2
_OPEN
 70
     0
 10
0.0
 20
0.0
 30
0.0
  3
_OPEN
  1

  0
LINE
  5
430
100
AcDbEntity
  8
0
  6
BYBLOCK
 62
     0
100
AcDbLine
 10
-1.0
 20
0.166667
 30
0.0
 11
0.0
 21
0.0
 31
0.0
  0
LINE
  5
431
100
AcDbEntity
  8
0
  6
BYBLOCK
 62
     0
100
AcDbLine
 10
0.0
 20
0.0
 30
0.0
 11
-1.0
 21
-0.166667
 31
0.0
  0
LINE
  5
432
100
AcDbEntity
  8
0
  6
BYBLOCK
 62
     0
100
AcDbLine
 10
0.0
 20
0.0
 30
0.0
 11
-1.0
 21
0.0
 31
0.0
  0
ENDBLK
  5
433
100
AcDbEntity
  8
0
100
AcDbBlockEnd
  0
BLOCK
  5
83B
100
AcDbEntity
  8
0
100
AcDbBlockBegin
  2
*D2
 70
     1
 10
0.0
 20
0.0
 30
0.0
  3
*D2
  1

  0
LINE
  5
83C
100
AcDbEntity
  8
0
  6
BYBLOCK
 62
     1
100
AcDbLine
 10
-17.056221
 20
885.419646
 30
0.0
 11
-17.056221
 21
857.808376
 31
0.0
  0
LINE
  5
83D
100
AcDbEntity
  8
0
  6
BYBLOCK
 62
     1
100
AcDbLine
 10
-187.056221
 20
888.421621
 30
0.0
 11
-187.056221
 21
857.808376
 31
0.0
  0
LINE
  5
83E
100
AcDbEntity
  8
0
  6
BYBLOCK
 62
     1
100
AcDbLine
 10
-19.056221
 20
859.808376
 30
0.0
 11
-185.056221
 21
859.808376
 31
0.0
  0
INSERT
  5
83F
100
AcDbEntity
  8
0
  6
BYBLOCK
 62
     1
100
AcDbBlockReference
  2
_OPEN30
 10
-17.056221
 20
859.808376
 30
0.0
 41
2.0
 42
2.0
 43
2.0
  0
INSERT
  5
840
100
AcDbEntity
  8
0
  6
BYBLOCK
 62
     1
100
AcDbBlockReference
  2
_OPEN30
 10
-187.056221
 20
859.808376
 30
0.0
 41
2.0
 42
2.0
 43
2.0
 50
180.0
  0
MTEXT
  5
841
100
AcDbEntity
  8
0
  6
BYBLOCK
 62
     3
100
AcDbMText
 10
-102.056221
 20
862.308376
 30
0.0
 40
3.0
 41
0.0
 71
     5
 72
     1
  1
\A1;170
  0
POINT
  5
842
100
AcDbEntity
  8
DEFPOINTS
  6
BYBLOCK
 62
     0
100
AcDbPoint
 10
-17.056221
 20
886.419646
 30
0.0
  0
POINT
  5
843
100
AcDbEntity
  8
DEFPOINTS
  6
BYBLOCK
 62
     0
100
AcDbPoint
 10
-187.056221
 20
889.421621
 30
0.0
  0
POINT
  5
844
100
AcDbEntity
  8
DEFPOINTS
  6
BYBLOCK
 62
     0
100
AcDbPoint
 10
-187.056221
 20
859.808376
 30
0.0
  0
ENDBLK
  5
845
100
AcDbEntity
  8
0
100
AcDbBlockEnd
  0
BLOCK
  5
846
100
AcDbEntity
  8
0
100
AcDbBlockBegin
  2
*D3
 70
     1
 10
0.0
 20
0.0
 30
0.0
  3
*D3
  1

  0
LINE
  5
847
100
AcDbEntity
  8
0
  6
BYBLOCK
 62
     1
100
AcDbLine
 10
-187.056221
 20
823.981321
 30
0.0
 11
-187.056221
 21
845.076883
 31
0.0
  0
LINE
  5
848
100
AcDbEntity
  8
0
  6
BYBLOCK
 62
     1
100
AcDbLine
 10
-160.056221
 20
823.981321
 30
0.0
 11
-160.056221
 21
845.076883
 31
0.0
  0
LINE
  5
849
100
AcDbEntity
  8
0
  6
BYBLOCK
 62
     1
100
AcDbLine
 10
-185.056221
 20
843.076883
 30
0.0
 11
-162.056221
 21
843.076883
 31
0.0
  0
INSERT
  5
84A
100
AcDbEntity
  8
0
  6
BYBLOCK
 62
     1
100
AcDbBlockReference
  2
_OPEN30
 10
-187.056221
 20
843.076883
 30
0.0
 41
2.0
 42
2.0
 43
2.0
 50
180.0
  0
INSERT
  5
84B
100
AcDbEntity
  8
0
  6
BYBLOCK
 62
     1
100
AcDbBlockReference
  2
_OPEN30
 10
-160.056221
 20
843.076883
 30
0.0
 41
2.0
 42
2.0
 43
2.0
  0
MTEXT
  5
84C
100
AcDbEntity
  8
0
  6
BYBLOCK
 62
     3
100
AcDbMText
 10
-173.556221
 20
845.576883
 30
0.0
 40
3.0
 41
0.0
 71
     5
 72
     1
  1
\A1;27
  0
POINT
  5
84D
100
AcDbEntity
  8
DEFPOINTS
  6
BYBLOCK
 62
     0
100
AcDbPoint
 10
-187.056221
 20
822.981321
 30
0.0
  0
POINT
  5
84E
100
AcDbEntity
  8
DEFPOINTS
  6
BYBLOCK
 62
     0
100
AcDbPoint
 10
-160.056221
 20
822.981321
 30
0.0
  0
POINT
  5
84F
100
AcDbEntity
  8
DEFPOINTS
  6
BYBLOCK
 62
     0
100
AcDbPoint
 10
-160.056221
 20
843.076883
 30
0.0
  0
ENDBLK
  5
850
100
AcDbEntity
  8
0
100
AcDbBlockEnd
  0
BLOCK
  5
851
100
AcDbEntity
  8
0
100
AcDbBlockBegin
  2
*D4
 70
     1
 10
0.0
 20
0.0
 30
0.0
  3
*D4
  1

  0
LINE
  5
852
100
AcDbEntity
  8
0
  6
BYBLOCK
 62
     1
100
AcDbLine
 10
-188.056221
 20
822.981321
 30
0.0
 11
-198.121531
 21
822.981321
 31
0.0
  0
LINE
  5
853
100
AcDbEntity
  8
0
  6
BYBLOCK
 62
     1
100
AcDbLine
 10
-186.88668
 20
790.981321
 30
0.0
 11
-198.121531
 21
790.981321
 31
0.0
  0
LINE
  5
854
100
AcDbEntity
  8
0
  6
BYBLOCK
 62
     1
100
AcDbLine
 10
-196.121531
 20
820.981321
 30
0.0
 11
-196.121531
 21
792.981321
 31
0.0
  0
INSERT
  5
855
100
AcDbEntity
  8
0
  6
BYBLOCK
 62
     1
100
AcDbBlockReference
  2
_OPEN30
 10
-196.121531
 20
822.981321
 30
0.0
 41
2.0
 42
2.0
 43
2.0
 50
90.0
  0
INSERT
  5
856
100
AcDbEntity
  8
0
  6
BYBLOCK
 62
     1
100
AcDbBlockReference
  2
_OPEN30
 10
-196.121531
 20
790.981321
 30
0.0
 41
2.0
 42
2.0
 43
2.0
 50
270.0
  0
MTEXT
  5
857
100
AcDbEntity
  8
0
  6
BYBLOCK
 62
     3
100
AcDbMText
 10
-198.621531
 20
806.981321
 30
0.0
 40
3.0
 41
0.0
 71
     5
 72
     1
  1
\A1;32
 11
0.0
 21
1.0
 31
0.0
  0
POINT
  5
858
100
AcDbEntity
  8
DEFPOINTS
  6
BYBLOCK
 62
     0
100
AcDbPoint
 10
-187.056221
 20
822.981321
 30
0.0
  0
POINT
  5
859
100
AcDbEntity
  8
DEFPOINTS
  6
BYBLOCK
 62
     0
100
AcDbPoint
 10
-185.88668
 20
790.981321
 30
0.0
  0
POINT
  5
85A
100
AcDbEntity
  8
DEFPOINTS
  6
BYBLOCK
 62
     0
100
AcDbPoint
 10
-196.121531
 20
790.981321
 30
0.0
  0
ENDBLK
  5
85B
100
AcDbEntity
  8
0
100
AcDbBlockEnd
  0
BLOCK
  5
85C
100
AcDbEntity
  8
0
100
AcDbBlockBegin
  2
*D5
 70
     1
 10
0.0
 20
0.0
 30
0.0
  3
*D5
  1

  0
LINE
  5
85D
100
AcDbEntity
  8
0
  6
BYBLOCK
 62
     1
100
AcDbLine
 10
-188.080653
 20
889.696117
 30
0.0
 11
-205.77492
 21
894.437281
 31
0.0
  0
LINE
  5
85E
100
AcDbEntity
  8
0
  6
BYBLOCK
 62
     1
100
AcDbLine
 10
-187.201883
 20
888.441103
 30
0.0
 11
-188.798441
 21
870.192357
 31
0.0
  0
ARC
  5
85F
100
AcDbEntity
  8
0
  6
BYBLOCK
 62
     1
100
AcDbCircle
 10
-187.114727
 20
889.437298
 30
0.0
 40
17.318453
100
AcDbArc
 50
171.620414
 51
258.379586
  0
INSERT
  5
860
100
AcDbEntity
  8
0
  6
BYBLOCK
 62
     1
100
AcDbBlockReference
  2
_OPEN30
 10
-203.843068
 20
893.919643
 30
0.0
 41
2.0
 42
2.0
 43
2.0
 50
78.310207
  0
INSERT
  5
861
100
AcDbEntity
  8
0
  6
BYBLOCK
 62
     1
100
AcDbBlockReference
  2
_OPEN30
 10
-188.62413
 20
872.184746
 30
0.0
 41
2.0
 42
2.0
 43
2.0
 50
351.689793
  0
MTEXT
  5
862
100
AcDbEntity
  8
0
  6
BYBLOCK
 62
     3
100
AcDbMText
 10
-199.253293
 20
880.937782
 30
0.0
 40
3.0
 41
0.0
 71
     5
 72
     1
  1
\A1;100°
 11
0.573576
 21
-0.819152
 31
0.0
  0
POINT
  5
863
100
AcDbEntity
  8
DEFPOINTS
  6
BYBLOCK
 62
     0
100
AcDbPoint
 10
-203.554141
 20
883.989869
 30
0.0
  0
POINT
  5
864
100
AcDbEntity
  8
DEFPOINTS
  6
BYBLOCK
 62
     0
100
AcDbPoint
 10
-187.056221
 20
890.106023
 30
0.0
  0
POINT
  5
865
100
AcDbEntity
  8
DEFPOINTS
  6
BYBLOCK
 62
     0
100
AcDbPoint
 10
-175.579143
 20
886.346347
 30
0.0
  0
POINT
  5
866
100
AcDbEntity
  8
DEFPOINTS
  6
BYBLOCK
 62
     0
100
AcDbPoint
 10
-186.466321
 20
889.263558
 30
0.0
  0
POINT
  5
867
100
AcDbEntity
  8
DEFPOINTS
  6
BYBLOCK
 62
     0
100
AcDbPoint
 10
-186.073868
 20
901.334368
 30
0.0
  0
ENDBLK
  5
868
100
AcDbEntity
  8
0
100
AcDbBlockEnd
  0
BLOCK
  5
869
100
AcDbEntity
  8
0
100
AcDbBlockBegin
  2
*D6
 70
     1
 10
0.0
 20
0.0
 30
0.0
  3
*D6
  1

  0
LINE
  5
86A
100
AcDbEntity
  8
0
  6
BYBLOCK
 62
     1
100
AcDbLine
 10
-219.468152
 20
891.258977
 30
0.0
 11
-222.235142
 21
877.024044
 31
0.0
  0
LINE
  5
86B
100
AcDbEntity
  8
0
  6
BYBLOCK
 62
     1
100
AcDbLine
 10
-219.87022
 20
885.463982
 30
0.0
 11
-220.628375
 21
876.798227
 31
0.0
  0
ARC
  5
86C
100
AcDbEntity
  8
0
  6
BYBLOCK
 62
     1
100
AcDbCircle
 10
-219.277343
 20
892.240604
 30
0.0
 40
13.501364
100
AcDbArc
 50
241.962485
 51
259.0
  0
LINE
  5
86D
100
AcDbEntity
  8
0
  6
BYBLOCK
 62
     1
100
AcDbLine
 10
-225.623653
 20
880.32376
 30
0.0
 11
-233.214357
 21
884.366186
 31
0.0
  0
ARC
  5
86E
100
AcDbEntity
  8
0
  6
BYBLOCK
 62
     1
100
AcDbCircle
 10
-219.277343
 20
892.240604
 30
0.0
 40
13.501364
100
AcDbArc
 50
242.009629
 51
250.504814
  0
ARC
  5
86F
100
AcDbEntity
  8
0
  6
BYBLOCK
 62
     1
100
AcDbCircle
 10
-219.277343
 20
892.240604
 30
0.0
 40
13.501364
100
AcDbArc
 50
273.495186
 51
281.990371
  0
ARC
  5
870
100
AcDbEntity
  8
0
  6
BYBLOCK
 62
     1
100
AcDbCircle
 10
-219.277343
 20
892.240604
 30
0.0
 40
13.501364
100
AcDbArc
 50
259.0
 51
265.0
  0
INSERT
  5
871
100
AcDbEntity
  8
0
  6
BYBLOCK
 62
     1
100
AcDbBlockReference
  2
_OPEN30
 10
-221.853524
 20
878.987298
 30
0.0
 41
2.0
 42
2.0
 43
2.0
 50
344.752407
  0
INSERT
  5
872
100
AcDbEntity
  8
0
  6
BYBLOCK
 62
     1
100
AcDbBlockReference
  2
_OPEN30
 10
-220.454064
 20
878.790617
 30
0.0
 41
2.0
 42
2.0
 43
2.0
 50
179.247593
  0
MTEXT
  5
873
100
AcDbEntity
  8
0
  6
BYBLOCK
 62
     3
100
AcDbMText
 10
-228.243881
 20
884.551573
 30
0.0
 40
3.0
 41
0.0
 71
     5
 72
     1
  1
\A1;6°
 11
0.88264
 21
-0.47005
 31
0.0
  0
POINT
  5
874
100
AcDbEntity
  8
DEFPOINTS
  6
BYBLOCK
 62
     0
100
AcDbPoint
 10
-220.922745
 20
878.839877
 30
0.0
 50
95.0
  0
POINT
  5
875
100
AcDbEntity
  8
DEFPOINTS
  6
BYBLOCK
 62
     0
100
AcDbPoint
 10
-219.277343
 20
892.240604
 30
0.0
 50
95.0
  0
POINT
  5
876
100
AcDbEntity
  8
DEFPOINTS
  6
BYBLOCK
 62
     0
100
AcDbPoint
 10
-215.984972
 20
909.178383
 30
0.0
 50
95.0
  0
POINT
  5
877
100
AcDbEntity
  8
DEFPOINTS
  6
BYBLOCK
 62
     0
100
AcDbPoint
 10
-219.277343
 20
892.240604
 30
0.0
 50
95.0
  0
POINT
  5
878
100
AcDbEntity
  8
DEFPOINTS
  6
BYBLOCK
 62
     0
100
AcDbPoint
 10
-219.783064
 20
886.460177
 30
0.0
 50
95.0
  0
ENDBLK
  5
879
100
AcDbEntity
  8
0
100
AcDbBlockEnd
  0
BLOCK
  5
87A
100
AcDbEntity
  8
0
100
AcDbBlockBegin
  2
*D7
 70
     1
 10
0.0
 20
0.0
 30
0.0
  3
*D7
  1

  0
LINE
  5
87B
100
AcDbEntity
  8
0
  6
BYBLOCK
 62
     1
100
AcDbLine
 10
-185.015011
 20
911.419646
 30
0.0
 11
-198.121531
 21
911.419646
 31
0.0
  0
LINE
  5
87C
100
AcDbEntity
  8
0
  6
BYBLOCK
 62
     1
100
AcDbLine
 10
-188.056221
 20
889.421621
 30
0.0
 11
-198.121531
 21
889.421621
 31
0.0
  0
LINE
  5
87D
100
AcDbEntity
  8
0
  6
BYBLOCK
 62
     1
100
AcDbLine
 10
-196.121531
 20
909.419646
 30
0.0
 11
-196.121531
 21
891.421621
 31
0.0
  0
INSERT
  5
87E
100
AcDbEntity
  8
0
  6
BYBLOCK
 62
     1
100
AcDbBlockReference
  2
_OPEN30
 10
-196.121531
 20
911.419646
 30
0.0
 41
2.0
 42
2.0
 43
2.0
 50
90.0
  0
INSERT
  5
87F
100
AcDbEntity
  8
0
  6
BYBLOCK
 62
     1
100
AcDbBlockReference
  2
_OPEN30
 10
-196.121531
 20
889.421621
 30
0.0
 41
2.0
 42
2.0
 43
2.0
 50
270.0
  0
MTEXT
  5
880
100
AcDbEntity
  8
0
  6
BYBLOCK
 62
     3
100
AcDbMText
 10
-198.621531
 20
900.420633
 30
0.0
 40
3.0
 41
0.0
 71
     5
 72
     1
  1
\A1;22
 11
0.0
 21
1.0
 31
0.0
  0
POINT
  5
881
100
AcDbEntity
  8
DEFPOINTS
  6
BYBLOCK
 62
     0
100
AcDbPoint
 10
-184.015011
 20
911.419646
 30
0.0
  0
POINT
  5
882
100
AcDbEntity
  8
DEFPOINTS
  6
BYBLOCK
 62
     0
100
AcDbPoint
 10
-187.056221
 20
889.421621
 30
0.0
  0
POINT
  5
883
100
AcDbEntity
  8
DEFPOINTS
  6
BYBLOCK
 62
     0
100
AcDbPoint
 10
-196.121531
 20
889.421621
 30
0.0
  0
ENDBLK
  5
884
100
AcDbEntity
  8
0
100
AcDbBlockEnd
  0
BLOCK
  5
885
100
AcDbEntity
  8
0
100
AcDbBlockBegin
  2
*D8
 70
     1
 10
0.0
 20
0.0
 30
0.0
  3
*D8
  1

  0
LINE
  5
886
100
AcDbEntity
  8
0
  6
BYBLOCK
 62
     1
100
AcDbLine
 10
-187.056221
 20
887.421621
 30
0.0
 11
-187.056221
 21
870.105913
 31
0.0
  0
LINE
  5
887
100
AcDbEntity
  8
0
  6
BYBLOCK
 62
     1
100
AcDbLine
 10
-174.613217
 20
886.087528
 30
0.0
 11
-168.398679
 21
884.422348
 31
0.0
  0
ARC
  5
888
100
AcDbEntity
  8
0
  6
BYBLOCK
 62
     1
100
AcDbCircle
 10
-187.056221
 20
889.421621
 30
0.0
 40
17.315708
100
AcDbArc
 50
276.621465
 51
338.378535
  0
INSERT
  5
889
100
AcDbEntity
  8
0
  6
BYBLOCK
 62
     1
100
AcDbBlockReference
  2
_OPEN30
 10
-187.056221
 20
872.105913
 30
0.0
 41
2.0
 42
2.0
 43
2.0
 50
183.310732
  0
INSERT
  5
88A
100
AcDbEntity
  8
0
  6
BYBLOCK
 62
     1
100
AcDbBlockReference
  2
_OPEN30
 10
-170.330531
 20
884.939986
 30
0.0
 41
2.0
 42
2.0
 43
2.0
 50
71.689268
  0
MTEXT
  5
88B
100
AcDbEntity
  8
0
  6
BYBLOCK
 62
     3
100
AcDbMText
 10
-178.036989
 20
877.667529
 30
0.0
 40
3.0
 41
0.0
 71
     5
 72
     1
  1
\A1;75°
 11
0.793353
 21
0.608761
 31
0.0
  0
POINT
  5
88C
100
AcDbEntity
  8
DEFPOINTS
  6
BYBLOCK
 62
     0
100
AcDbPoint
 10
-179.738286
 20
873.72826
 30
0.0
  0
POINT
  5
88D
100
AcDbEntity
  8
DEFPOINTS
  6
BYBLOCK
 62
     0
100
AcDbPoint
 10
-175.579143
 20
886.346347
 30
0.0
  0
POINT
  5
88E
100
AcDbEntity
  8
DEFPOINTS
  6
BYBLOCK
 62
     0
100
AcDbPoint
 10
-187.056221
 20
889.421621
 30
0.0
  0
POINT
  5
88F
100
AcDbEntity
  8
DEFPOINTS
  6
BYBLOCK
 62
     0
100
AcDbPoint
 10
-187.056221
 20
888.421621
 30
0.0
  0
POINT
  5
890
100
AcDbEntity
  8
DEFPOINTS
  6
BYBLOCK
 62
     0
100
AcDbPoint
 10
-186.466321
 20
889.263558
 30
0.0
  0
ENDBLK
  5
891
100
AcDbEntity
  8
0
100
AcDbBlockEnd
  0
BLOCK
  5
892
100
AcDbEntity
  8
0
100
AcDbBlockBegin
  2
*D9
 70
     1
 10
0.0
 20
0.0
 30
0.0
  3
*D9
  1

  0
LINE
  5
893
100
AcDbEntity
  8
0
  6
BYBLOCK
 62
     1
100
AcDbLine
 10
-16.056221
 20
790.981321
 30
0.0
 11
3.27551
 21
790.981321
 31
0.0
  0
LINE
  5
894
100
AcDbEntity
  8
0
  6
BYBLOCK
 62
     1
100
AcDbLine
 10
-16.056221
 20
822.981321
 30
0.0
 11
3.27551
 21
822.981321
 31
0.0
  0
LINE
  5
895
100
AcDbEntity
  8
0
  6
BYBLOCK
 62
     1
100
AcDbLine
 10
1.27551
 20
792.981321
 30
0.0
 11
1.27551
 21
820.981321
 31
0.0
  0
INSERT
  5
896
100
AcDbEntity
  8
0
  6
BYBLOCK
 62
     1
100
AcDbBlockReference
  2
_OPEN30
 10
1.27551
 20
790.981321
 30
0.0
 41
2.0
 42
2.0
 43
2.0
 50
270.0
  0
INSERT
  5
897
100
AcDbEntity
  8
0
  6
BYBLOCK
 62
     1
100
AcDbBlockReference
  2
_OPEN30
 10
1.27551
 20
822.981321
 30
0.0
 41
2.0
 42
2.0
 43
2.0
 50
90.0
  0
MTEXT
  5
898
100
AcDbEntity
  8
0
  6
BYBLOCK
 62
     3
100
AcDbMText
 10
-1.22449
 20
806.981321
 30
0.0
 40
3.0
 41
0.0
 71
     5
 72
     1
  1
\A1;32
 11
0.0
 21
1.0
 31
0.0
  0
POINT
  5
899
100
AcDbEntity
  8
DEFPOINTS
  6
BYBLOCK
 62
     0
100
AcDbPoint
 10
-17.056221
 20
790.981321
 30
0.0
  0
POINT
  5
89A
100
AcDbEntity
  8
DEFPOINTS
  6
BYBLOCK
 62
     0
100
AcDbPoint
 10
-17.056221
 20
822.981321
 30
0.0
  0
POINT
  5
89B
100
AcDbEntity
  8
DEFPOINTS
  6
BYBLOCK
 62
     0
100
AcDbPoint
 10
1.27551
 20
822.981321
 30
0.0
  0
ENDBLK
  5
89C
100
AcDbEntity
  8
0
100
AcDbBlockEnd
  0
BLOCK
  5
89D
100
AcDbEntity
  8
0
100
AcDbBlockBegin
  2
*D10
 70
     1
 10
0.0
 20
0.0
 30
0.0
  3
*D10
  1

  0
LINE
  5
89E
100
AcDbEntity
  8
0
  6
BYBLOCK
 62
     1
100
AcDbLine
 10
-16.056221
 20
886.419646
 30
0.0
 11
3.27551
 21
886.419646
 31
0.0
  0
LINE
  5
89F
100
AcDbEntity
  8
0
  6
BYBLOCK
 62
     1
100
AcDbLine
 10
-16.056221
 20
911.419646
 30
0.0
 11
3.27551
 21
911.419646
 31
0.0
  0
LINE
  5
8A0
100
AcDbEntity
  8
0
  6
BYBLOCK
 62
     1
100
AcDbLine
 10
1.27551
 20
888.419646
 30
0.0
 11
1.27551
 21
909.419646
 31
0.0
  0
INSERT
  5
8A1
100
AcDbEntity
  8
0
  6
BYBLOCK
 62
     1
100
AcDbBlockReference
  2
_OPEN30
 10
1.27551
 20
886.419646
 30
0.0
 41
2.0
 42
2.0
 43
2.0
 50
270.0
  0
INSERT
  5
8A2
100
AcDbEntity
  8
0
  6
BYBLOCK
 62
     1
100
AcDbBlockReference
  2
_OPEN30
 10
1.27551
 20
911.419646
 30
0.0
 41
2.0
 42
2.0
 43
2.0
 50
90.0
  0
MTEXT
  5
8A3
100
AcDbEntity
  8
0
  6
BYBLOCK
 62
     3
100
AcDbMText
 10
-1.22449
 20
898.919646
 30
0.0
 40
3.0
 41
0.0
 71
     5
 72
     1
  1
\A1;25
 11
0.0
 21
1.0
 31
0.0
  0
POINT
  5
8A4
100
AcDbEntity
  8
DEFPOINTS
  6
BYBLOCK
 62
     0
100
AcDbPoint
 10
-17.056221
 20
886.419646
 30
0.0
  0
POINT
  5
8A5
100
AcDbEntity
  8
DEFPOINTS
  6
BYBLOCK
 62
     0
100
AcDbPoint
 10
-17.056221
 20
911.419646
 30
0.0
  0
POINT
  5
8A6
100
AcDbEntity
  8
DEFPOINTS
  6
BYBLOCK
 62
     0
100
AcDbPoint
 10
1.27551
 20
911.419646
 30
0.0
  0
ENDBLK
  5
8A7
100
AcDbEntity
  8
0
100
AcDbBlockEnd
  0
BLOCK
  5
8A8
100
AcDbEntity
  8
0
100
AcDbBlockBegin
  2
*D11
 70
     1
 10
0.0
 20
0.0
 30
0.0
  3
*D11
  1

  0
LINE
  5
8A9
100
AcDbEntity
  8
0
  6
BYBLOCK
 62
     1
100
AcDbLine
 10
-241.020174
 20
826.288028
 30
0.0
 11
-256.036812
 21
830.311724
 31
0.0
  0
LINE
  5
8AA
100
AcDbEntity
  8
0
  6
BYBLOCK
 62
     1
100
AcDbLine
 10
-241.05116
 20
826.204991
 30
0.0
 11
-256.349239
 21
828.902455
 31
0.0
  0
ARC
  5
8AB
100
AcDbEntity
  8
0
  6
BYBLOCK
 62
     1
100
AcDbCircle
 10
-240.054248
 20
826.029209
 30
0.0
 40
14.546368
100
AcDbArc
 50
149.194583
 51
165.0
  0
LINE
  5
8AC
100
AcDbEntity
  8
0
  6
BYBLOCK
 62
     1
100
AcDbLine
 10
-252.54829
 20
833.478754
 30
0.0
 11
-248.144023
 21
840.865393
 31
0.0
  0
ARC
  5
8AD
100
AcDbEntity
  8
0
  6
BYBLOCK
 62
     1
100
AcDbCircle
 10
-240.054248
 20
826.029209
 30
0.0
 40
14.546368
100
AcDbArc
 50
149.232214
 51
157.116107
  0
ARC
  5
8AE
100
AcDbEntity
  8
0
  6
BYBLOCK
 62
     1
100
AcDbCircle
 10
-240.054248
 20
826.029209
 30
0.0
 40
14.546368
100
AcDbArc
 50
177.883893
 51
185.767786
  0
ARC
  5
8AF
100
AcDbEntity
  8
0
  6
BYBLOCK
 62
     1
100
AcDbCircle
 10
-240.054248
 20
826.029209
 30
0.0
 40
14.546368
100
AcDbArc
 50
165.0
 51
170.0
  0
INSERT
  5
8B0
100
AcDbEntity
  8
0
  6
BYBLOCK
 62
     1
100
AcDbBlockReference
  2
_OPEN30
 10
-254.10496
 20
829.794086
 30
0.0
 41
2.0
 42
2.0
 43
2.0
 50
251.058053
  0
INSERT
  5
8B1
100
AcDbEntity
  8
0
  6
BYBLOCK
 62
     1
100
AcDbBlockReference
  2
_OPEN30
 10
-254.379624
 20
828.555159
 30
0.0
 41
2.0
 42
2.0
 43
2.0
 50
83.941947
  0
MTEXT
  5
8B2
100
AcDbEntity
  8
0
  6
BYBLOCK
 62
     3
100
AcDbMText
 10
-252.493435
 20
838.452383
 30
0.0
 40
3.0
 41
0.0
 71
     5
 72
     1
  1
\A1;5°
 11
0.512124
 21
0.858911
 31
0.0
  0
POINT
  5
8B3
100
AcDbEntity
  8
DEFPOINTS
  6
BYBLOCK
 62
     0
100
AcDbPoint
 10
-254.300097
 20
828.97074
 30
0.0
  0
POINT
  5
8B4
100
AcDbEntity
  8
DEFPOINTS
  6
BYBLOCK
 62
     0
100
AcDbPoint
 10
-213.456496
 20
821.339307
 30
0.0
  0
POINT
  5
8B5
100
AcDbEntity
  8
DEFPOINTS
  6
BYBLOCK
 62
     0
100
AcDbPoint
 10
-240.054248
 20
826.029209
 30
0.0
  0
POINT
  5
8B6
100
AcDbEntity
  8
DEFPOINTS
  6
BYBLOCK
 62
     0
100
AcDbPoint
 10
-214.065733
 20
819.065607
 30
0.0
  0
POINT
  5
8B7
100
AcDbEntity
  8
DEFPOINTS
  6
BYBLOCK
 62
     0
100
AcDbPoint
 10
-240.066352
 20
826.031343
 30
0.0
  0
ENDBLK
  5
8B8
100
AcDbEntity
  8
0
100
AcDbBlockEnd
  0
BLOCK
  5
836
100
AcDbEntity
  8
0
100
AcDbBlockBegin
  2
_OPEN30
 70
     0
 10
0.0
 20
0.0
 30
0.0
  3
_OPEN30
  1

  0
LINE
  5
837
100
AcDbEntity
  8
0
  6
BYBLOCK
 62
     0
100
AcDbLine
 10
-1.0
 20
0.267949
 30
0.0
 11
0.0
 21
0.0
 31
0.0
  0
LINE
  5
838
100
AcDbEntity
  8
0
  6
BYBLOCK
 62
     0
100
AcDbLine
 10
0.0
 20
0.0
 30
0.0
 11
-1.0
 21
-0.267949
 31
0.0
  0
LINE
  5
839
100
AcDbEntity
  8
0
  6
BYBLOCK
 62
     0
100
AcDbLine
 10
0.0
 20
0.0
 30
0.0
 11
-1.0
 21
0.0
 31
0.0
  0
ENDBLK
  5
83A
100
AcDbEntity
  8
0
100
AcDbBlockEnd
  0
ENDSEC
  0
SECTION
  2
ENTITIES
  0
TEXT
  5
40
100
AcDbEntity
  8
外形
  6
CONTINUOUS
 62
     2
100
AcDbText
 10
-191.124021
 20
774.8839
 30
0.0
 40
6.0
  1
ＰＣＢＮ　Ｒ３２２５－４３
100
AcDbText
  0
DIMENSION
  5
588
100
AcDbEntity
  8
寸法
  6
CONTINUOUS
100
AcDbDimension
  2
*D2
 10
-187.056221
 20
859.808376
 30
0.0
 11
-102.056221
 21
862.308376
 31
0.0
 70
    32
  3
STANDARD
100
AcDbAlignedDimension
 13
-17.056221
 23
886.419646
 33
0.0
 14
-187.056221
 24
889.421621
 34
0.0
100
AcDbRotatedDimension
1001
ACAD
1000
DSTYLE
1002
{
1070
    40
1040
1.0
1002
}
  0
LINE
  5
589
100
AcDbEntity
  8
外形
  6
CONTINUOUS
100
AcDbLine
 10
-185.88668
 20
790.981321
 30
0.0
 11
-17.056221
 21
790.981321
 31
0.0
  0
LINE
  5
58A
100
AcDbEntity
  8
外形
  6
CONTINUOUS
100
AcDbLine
 10
-17.056221
 20
911.419646
 30
0.0
 11
-184.015011
 21
911.419646
 31
0.0
  0
LINE
  5
58B
100
AcDbEntity
  8
外形
  6
CONTINUOUS
100
AcDbLine
 10
-17.056221
 20
886.419646
 30
0.0
 11
-171.40653
 21
886.419646
 31
0.0
  0
LINE
  5
58C
100
AcDbEntity
  8
外形
  6
CONTINUOUS
100
AcDbLine
 10
-160.056221
 20
822.981321
 30
0.0
 11
-17.056221
 21
822.981321
 31
0.0
  0
DIMENSION
  5
58D
100
AcDbEntity
  8
寸法
  6
CONTINUOUS
100
AcDbDimension
  2
*D3
 10
-160.056221
 20
843.076883
 30
0.0
 11
-173.556221
 21
845.576883
 31
0.0
 70
    32
  3
STANDARD
100
AcDbAlignedDimension
 13
-187.056221
 23
822.981321
 33
0.0
 14
-160.056221
 24
822.981321
 34
0.0
100
AcDbRotatedDimension
1001
ACAD
1000
DSTYLE
1002
{
1070
    40
1040
1.0
1002
}
  0
DIMENSION
  5
58F
100
AcDbEntity
  8
寸法
  6
CONTINUOUS
100
AcDbDimension
  2
*D4
 10
-196.121531
 20
790.981321
 30
0.0
 11
-198.621531
 21
806.981321
 31
0.0
 70
    32
  3
STANDARD
100
AcDbAlignedDimension
 13
-187.056221
 23
822.981321
 33
0.0
 14
-185.88668
 24
790.981321
 34
0.0
 50
90.0
100
AcDbRotatedDimension
1001
ACAD
1000
DSTYLE
1002
{
1070
    40
1040
1.0
1002
}
  0
LINE
  5
590
100
AcDbEntity
  8
外形
  6
CONTINUOUS
100
AcDbLine
 10
-185.88668
 20
815.127926
 30
0.0
 11
-185.88668
 21
790.981321
 31
0.0
  0
LINE
  5
591
100
AcDbEntity
  8
外形
  6
CONTINUOUS
100
AcDbLine
 10
-160.82197
 20
911.419646
 30
0.0
 11
-160.056221
 21
886.419646
 31
0.0
  0
DIMENSION
  5
592
100
AcDbEntity
  8
寸法
  6
CONTINUOUS
100
AcDbDimension
  2
*D5
 10
-186.073868
 20
901.334368
 30
0.0
 11
-199.253293
 21
880.937782
 31
0.0
 70
    34
  3
STANDARD
100
AcDb2LineAngularDimension
 13
-175.579143
 23
886.346347
 33
0.0
 14
-186.466321
 24
889.263558
 34
0.0
 15
-187.056221
 25
890.106023
 35
0.0
 16
-203.554141
 26
883.989869
 36
0.0
1001
ACAD
1000
DSTYLE
1002
{
1070
   271
1070
     2
1070
    40
1040
1.0
1070
    79
1070
     2
1070
   179
1070
     2
1002
}
  0
LINE
  5
593
100
AcDbEntity
  8
寸法
  6
CONTINUOUS
100
AcDbLine
 10
-219.277343
 20
892.240604
 30
0.0
 11
-219.87022
 21
885.463982
 31
0.0
  0
DIMENSION
  5
594
100
AcDbEntity
  8
寸法
  6
CONTINUOUS
100
AcDbDimension
  2
*D6
 10
-219.783064
 20
886.460177
 30
0.0
 11
-228.243881
 21
884.551573
 31
0.0
 70
    34
 51
95.0
  3
STANDARD
100
AcDb2LineAngularDimension
 13
-215.984972
 23
909.178383
 33
0.0
 14
-219.277343
 24
892.240604
 34
0.0
 15
-219.277343
 25
892.240604
 35
0.0
 16
-220.922745
 26
878.839877
 36
0.0
1001
ACAD
1000
DSTYLE
1002
{
1070
   271
1070
     2
1070
    40
1040
1.0
1070
    79
1070
     2
1070
   179
1070
     2
1002
}
  0
LINE
  5
595
100
AcDbEntity
  8
外形
  6
CONTINUOUS
100
AcDbLine
 10
-223.949888
 20
893.148855
 30
0.0
 11
-221.505423
 21
905.724539
 31
0.0
  0
LINE
  5
596
100
AcDbEntity
  8
外形
  6
CONTINUOUS
100
AcDbLine
 10
-224.614667
 20
906.303447
 30
0.0
 11
-227.049592
 21
893.776844
 31
0.0
  0
LINE
  5
597
100
AcDbEntity
  8
外形
  6
CONTINUOUS
100
AcDbLine
 10
-215.022007
 20
914.132406
 30
0.0
 11
-219.277343
 21
892.240604
 31
0.0
  0
LINE
  5
598
100
AcDbEntity
  8
外形
  6
CONTINUOUS
100
AcDbLine
 10
-219.277343
 20
892.240604
 30
0.0
 11
-223.949888
 21
893.148855
 31
0.0
  0
LINE
  5
599
100
AcDbEntity
  8
外形
  6
CONTINUOUS
100
AcDbLine
 10
-216.832877
 20
904.816288
 30
0.0
 11
-221.505423
 21
905.724539
 31
0.0
  0
DIMENSION
  5
59A
100
AcDbEntity
  8
寸法
  6
CONTINUOUS
100
AcDbDimension
  2
*D7
 10
-196.121531
 20
889.421621
 30
0.0
 11
-198.621531
 21
900.420633
 31
0.0
 70
    32
  3
STANDARD
100
AcDbAlignedDimension
 13
-184.015011
 23
911.419646
 33
0.0
 14
-187.056221
 24
889.421621
 34
0.0
 50
90.0
100
AcDbRotatedDimension
1001
ACAD
1000
DSTYLE
1002
{
1070
    40
1040
1.0
1002
}
  0
LINE
  5
59B
100
AcDbEntity
  8
外形
  6
CONTINUOUS
100
AcDbLine
 10
-174.575132
 20
887.049363
 30
0.0
 11
-173.495854
 21
899.385574
 31
0.0
  0
LINE
  5
59C
100
AcDbEntity
  8
外形
  6
CONTINUOUS
100
AcDbLine
 10
-187.056221
 20
890.106023
 30
0.0
 11
-186.073868
 21
901.334368
 31
0.0
  0
LINE
  5
59D
100
AcDbEntity
  8
外形
  6
CONTINUOUS
100
AcDbLine
 10
-175.579143
 20
886.346347
 30
0.0
 11
-186.466321
 21
889.263558
 31
0.0
  0
DIMENSION
  5
59E
100
AcDbEntity
  8
寸法
  6
CONTINUOUS
100
AcDbDimension
  2
*D8
 10
-186.466321
 20
889.263558
 30
0.0
 11
-178.036989
 21
877.667529
 31
0.0
 70
    34
  3
STANDARD
100
AcDb2LineAngularDimension
 13
-187.056221
 23
889.421621
 33
0.0
 14
-187.056221
 24
888.421621
 34
0.0
 15
-175.579143
 25
886.346347
 35
0.0
 16
-179.738286
 26
873.72826
 36
0.0
1001
ACAD
1000
DSTYLE
1002
{
1070
   271
1070
     2
1070
    40
1040
1.0
1070
    79
1070
     2
1070
   179
1070
     2
1002
}
  0
ARC
  5
59F
100
AcDbEntity
  8
外形
  6
CONTINUOUS
100
AcDbCircle
 10
-186.259265
 20
890.036298
 30
0.0
 40
0.8
100
AcDbArc
 50
175.0
 51
255.0
  0
LINE
  5
5A2
100
AcDbEntity
  8
寸法
  6
CONTINUOUS
100
AcDbLine
 10
-187.056221
 20
889.421621
 30
0.0
 11
-187.056221
 21
888.421621
 31
0.0
  0
ARC
  5
5A3
100
AcDbEntity
  8
外形
  6
CONTINUOUS
100
AcDbCircle
 10
-175.372088
 20
887.119088
 30
0.0
 40
0.8
100
AcDbArc
 50
255.0
 51
355.0
  0
LINE
  5
5A4
100
AcDbEntity
  8
外形
  6
CONTINUOUS
100
AcDbLine
 10
-171.40653
 20
886.419646
 30
0.0
 11
-174.556385
 21
887.263647
 31
0.0
  0
LINE
  5
5A5
100
AcDbEntity
  8
外形
  6
CONTINUOUS
100
AcDbLine
 10
-174.18268
 20
899.120173
 30
0.0
 11
-185.069857
 21
902.037384
 31
0.0
  0
ARC
  5
5A6
100
AcDbEntity
  8
外形
  6
CONTINUOUS
100
AcDbCircle
 10
-185.276912
 20
901.264643
 30
0.0
 40
0.8
100
AcDbArc
 50
75.0
 51
175.0
  0
ARC
  5
5A7
100
AcDbEntity
  8
外形
  6
CONTINUOUS
100
AcDbCircle
 10
-174.389735
 20
898.347433
 30
0.0
 40
0.8
100
AcDbArc
 50
355.0
 51
75.0
  0
ARC
  5
5A8
100
AcDbEntity
  8
外形
  6
CONTINUOUS
100
AcDbCircle
 10
-175.98634
 20
899.603463
 30
0.0
 40
2.5
100
AcDbArc
 50
355.0
 51
165.0
  0
CIRCLE
  5
5A9
100
AcDbEntity
  8
外形
  6
CONTINUOUS
100
AcDbCircle
 10
-180.3245
 20
894.191866
 30
0.0
 40
2.58
  0
CIRCLE
  5
5AA
100
AcDbEntity
  8
外形
  6
CONTINUOUS
100
AcDbCircle
 10
-166.801539
 20
897.815332
 30
0.0
 40
3.3235
  0
LINE
  5
5AB
100
AcDbEntity
  8
外形
  6
CONTINUOUS
100
AcDbLine
 10
-167.667545
 20
896.315336
 30
0.0
 11
-165.935495
 21
896.315336
 31
0.0
  0
LINE
  5
5AC
100
AcDbEntity
  8
外形
  6
CONTINUOUS
100
AcDbLine
 10
-165.935495
 20
899.315335
 30
0.0
 11
-167.667545
 21
899.315335
 31
0.0
  0
LINE
  5
5AD
100
AcDbEntity
  8
外形
  6
CONTINUOUS
100
AcDbLine
 10
-167.667545
 20
899.315335
 30
0.0
 11
-168.53357
 21
897.815336
 31
0.0
  0
LINE
  5
5AE
100
AcDbEntity
  8
外形
  6
CONTINUOUS
100
AcDbLine
 10
-168.53357
 20
897.815336
 30
0.0
 11
-167.667545
 21
896.315336
 31
0.0
  0
LINE
  5
5AF
100
AcDbEntity
  8
外形
  6
CONTINUOUS
100
AcDbLine
 10
-165.06947
 20
897.815336
 30
0.0
 11
-165.935495
 21
899.315335
 31
0.0
  0
LINE
  5
5B0
100
AcDbEntity
  8
外形
  6
CONTINUOUS
100
AcDbLine
 10
-165.935495
 20
896.315336
 30
0.0
 11
-165.06947
 21
897.815336
 31
0.0
  0
CIRCLE
  5
5B1
100
AcDbEntity
  8
外形
  6
CONTINUOUS
100
AcDbCircle
 10
-166.801539
 20
897.815332
 30
0.0
 40
4.0
  0
LINE
  5
5B2
100
AcDbEntity
  8
外形
  6
CONTINUOUS
100
AcDbLine
 10
-160.056221
 20
911.419646
 30
0.0
 11
-160.056221
 21
886.419646
 31
0.0
  0
DIMENSION
  5
5B3
100
AcDbEntity
  8
寸法
  6
CONTINUOUS
100
AcDbDimension
  2
*D9
 10
1.27551
 20
822.981321
 30
0.0
 11
-1.22449
 21
806.981321
 31
0.0
 70
    32
  3
STANDARD
100
AcDbAlignedDimension
 13
-17.056221
 23
790.981321
 33
0.0
 14
-17.056221
 24
822.981321
 34
0.0
 50
90.0
100
AcDbRotatedDimension
1001
ACAD
1000
DSTYLE
1002
{
1070
    40
1040
1.0
1002
}
  0
LINE
  5
5B4
100
AcDbEntity
  8
外形
  6
CONTINUOUS
100
AcDbLine
 10
-17.056221
 20
822.981321
 30
0.0
 11
-17.056221
 21
790.981321
 31
0.0
  0
DIMENSION
  5
5B5
100
AcDbEntity
  8
寸法
  6
CONTINUOUS
100
AcDbDimension
  2
*D10
 10
1.27551
 20
911.419646
 30
0.0
 11
-1.22449
 21
898.919646
 31
0.0
 70
    32
  3
STANDARD
100
AcDbAlignedDimension
 13
-17.056221
 23
886.419646
 33
0.0
 14
-17.056221
 24
911.419646
 34
0.0
 50
90.0
100
AcDbRotatedDimension
1001
ACAD
1000
DSTYLE
1002
{
1070
    40
1040
1.0
1002
}
  0
LINE
  5
5B6
100
AcDbEntity
  8
外形
  6
CONTINUOUS
100
AcDbLine
 10
-17.056221
 20
911.419646
 30
0.0
 11
-17.056221
 21
886.419646
 31
0.0
  0
LINE
  5
5B9
100
AcDbEntity
  8
外形
  6
CONTINUOUS
100
AcDbLine
 10
-187.056221
 20
822.981321
 30
0.0
 11
-160.82197
 21
825.839134
 31
0.0
  0
LINE
  5
5BA
100
AcDbEntity
  8
外形
  6
CONTINUOUS
100
AcDbLine
 10
-186.540743
 20
818.249315
 30
0.0
 11
-173.997634
 21
819.615691
 31
0.0
  0
LINE
  5
5BB
100
AcDbEntity
  8
外形
  6
CONTINUOUS
100
AcDbLine
 10
-186.171515
 20
815.090724
 30
0.0
 11
-173.678112
 21
816.451686
 31
0.0
  0
LINE
  5
5BC
100
AcDbEntity
  8
外形
  6
CONTINUOUS
100
AcDbLine
 10
-186.51589
 20
818.252022
 30
0.0
 11
-186.171515
 21
815.090724
 31
0.0
  0
LINE
  5
5BD
100
AcDbEntity
  8
外形
  6
CONTINUOUS
100
AcDbLine
 10
-187.056221
 20
822.981321
 30
0.0
 11
-186.540743
 21
818.249315
 31
0.0
  0
LINE
  5
5BE
100
AcDbEntity
  8
外形
  6
CONTINUOUS
100
AcDbLine
 10
-174.513112
 20
824.347697
 30
0.0
 11
-173.997634
 21
819.615691
 31
0.0
  0
LINE
  5
5BF
100
AcDbEntity
  8
外形
  6
CONTINUOUS
100
AcDbLine
 10
-174.022487
 20
819.612984
 30
0.0
 11
-173.678112
 21
816.451686
 31
0.0
  0
LINE
  5
5C0
100
AcDbEntity
  8
外形
  6
CONTINUOUS
100
AcDbLine
 10
-160.82197
 20
825.839134
 30
0.0
 11
-160.056221
 21
822.981321
 31
0.0
  0
LINE
  5
5C2
100
AcDbEntity
  8
外形
  6
CONTINUOUS
100
AcDbLine
 10
-171.40653
 20
824.686111
 30
0.0
 11
-171.40653
 21
790.981321
 31
0.0
  0
LINE
  5
5C3
100
AcDbEntity
  8
寸法
  6
CONTINUOUS
100
AcDbLine
 10
-232.316262
 20
854.83721
 30
0.0
 11
-240.054248
 21
826.029209
 31
0.0
  0
LINE
  5
5C4
100
AcDbEntity
  8
外形
  6
CONTINUOUS
100
AcDbLine
 10
-241.150542
 20
818.160028
 30
0.0
 11
-247.392296
 21
794.865486
 31
0.0
  0
LINE
  5
5C5
100
AcDbEntity
  8
外形
  6
CONTINUOUS
100
AcDbLine
 10
-224.353215
 20
823.260693
 30
0.0
 11
-232.995343
 21
791.007834
 31
0.0
  0
DIMENSION
  5
5C6
100
AcDbEntity
  8
寸法
  6
CONTINUOUS
100
AcDbDimension
  2
*D11
 10
-240.066352
 20
826.031343
 30
0.0
 11
-252.493435
 21
838.452383
 31
0.0
 70
    34
  3
STANDARD
100
AcDb2LineAngularDimension
 13
-240.054248
 23
826.029209
 33
0.0
 14
-214.065733
 24
819.065607
 34
0.0
 15
-213.456496
 25
821.339307
 35
0.0
 16
-254.300097
 26
828.97074
 36
0.0
1001
ACAD
1000
DSTYLE
1002
{
1070
    40
1040
1.0
1002
}
  0
LINE
  5
5C7
100
AcDbEntity
  8
外形
  6
CONTINUOUS
100
AcDbLine
 10
-228.687267
 20
815.962416
 30
0.0
 11
-241.420499
 21
818.207628
 31
0.0
  0
LINE
  5
5C8
100
AcDbEntity
  8
外形
  6
CONTINUOUS
100
AcDbLine
 10
-228.110446
 20
819.089764
 30
0.0
 11
-240.892918
 21
821.343658
 31
0.0
  0
LINE
  5
5C9
100
AcDbEntity
  8
外形
  6
CONTINUOUS
100
AcDbLine
 10
-213.456496
 20
821.339307
 30
0.0
 11
-240.066352
 21
826.031343
 31
0.0
  0
LINE
  5
5CA
100
AcDbEntity
  8
外形
  6
CONTINUOUS
100
AcDbLine
 10
-240.868298
 20
821.339317
 30
0.0
 11
-241.420499
 21
818.207628
 31
0.0
  0
LINE
  5
5CB
100
AcDbEntity
  8
外形
  6
CONTINUOUS
100
AcDbLine
 10
-240.066352
 20
826.031343
 30
0.0
 11
-240.892918
 21
821.343658
 31
0.0
  0
LINE
  5
5CC
100
AcDbEntity
  8
外形
  6
CONTINUOUS
100
AcDbLine
 10
-228.135066
 20
819.094105
 30
0.0
 11
-228.687267
 21
815.962416
 31
0.0
  0
LINE
  5
5CD
100
AcDbEntity
  8
外形
  6
CONTINUOUS
100
AcDbLine
 10
-227.283881
 20
823.777448
 30
0.0
 11
-228.110446
 21
819.089764
 31
0.0
  0
LINE
  5
5CE
100
AcDbEntity
  8
外形
  6
CONTINUOUS
100
AcDbLine
 10
-213.456496
 20
821.339307
 30
0.0
 11
-222.348219
 21
788.154946
 31
0.0
  0
LINE
  5
5CF
100
AcDbEntity
  8
寸法
  6
CONTINUOUS
100
AcDbLine
 10
-232.316262
 20
854.83721
 30
0.0
 11
-196.345782
 21
854.83721
 31
0.0
  0
LINE
  5
5D0
100
AcDbEntity
  8
寸法
  6
CONTINUOUS
100
AcDbLine
 10
-187.056221
 20
889.421621
 30
0.0
 11
-196.345782
 21
854.83721
 31
0.0
  0
LINE
  5
5D1
100
AcDbEntity
  8
寸法
  6
CONTINUOUS
100
AcDbLine
 10
-200.551595
 20
890.602313
 30
0.0
 11
-219.277343
 21
892.240604
 31
0.0
  0
LINE
  5
5D2
100
AcDbEntity
  8
外形
  6
CONTINUOUS
100
AcDbLine
 10
-227.021762
 20
893.920016
 30
0.0
 11
-251.068587
 21
896.02384
 31
0.0
  0
LINE
  5
5D3
100
AcDbEntity
  8
外形
  6
CONTINUOUS
100
AcDbLine
 10
-215.022007
 20
914.132406
 30
0.0
 11
-249.222513
 21
917.124563
 31
0.0
  0
LINE
  5
5D6
100
AcDbEntity
  8
外形
  6
CONTINUOUS
100
AcDbLine
 10
-223.945118
 20
893.173395
 30
0.0
 11
-227.049592
 21
893.776844
 31
0.0
  0
LINE
  5
5D7
100
AcDbEntity
  8
外形
  6
CONTINUOUS
100
AcDbLine
 10
-221.510193
 20
905.699998
 30
0.0
 11
-224.614667
 21
906.303447
 31
0.0
  0
LINE
  5
5DB
100
AcDbEntity
  8
外形
  6
CONTINUOUS
100
AcDbLine
 10
-184.841213
 20
901.976119
 30
0.0
 11
-184.015011
 21
911.419646
 31
0.0
  0
LINE
  5
5DC
100
AcDbEntity
  8
外形
  6
CONTINUOUS
100
AcDbLine
 10
-171.467774
 20
886.419646
 30
0.0
 11
-174.557788
 21
887.247612
 31
0.0
  0
LINE
  5
5DF
100
AcDbEntity
  8
外形
  6
CONTINUOUS
100
AcDbLine
 10
-160.056221
 20
822.981321
 30
0.0
 11
-160.056221
 21
790.981321
 31
0.0
  0
LINE
  5
5E0
100
AcDbEntity
  8
外形
  6
CONTINUOUS
100
AcDbLine
 10
-160.82197
 20
825.839134
 30
0.0
 11
-160.82197
 21
790.981321
 31
0.0
  0
LINE
  5
701
100
AcDbEntity
  8
外形
  6
CONTINUOUS
100
AcDbLine
 10
-249.222513
 20
917.124563
 30
0.0
 11
-251.068587
 21
896.02384
 31
0.0
  0
LINE
  5
702
100
AcDbEntity
  8
外形
  6
CONTINUOUS
100
AcDbLine
 10
-222.348219
 20
788.154946
 30
0.0
 11
-247.392296
 21
794.865486
 31
0.0
  0
ENDSEC
  0
SECTION
  2
OBJECTS
  0
DICTIONARY
  5
1E
100
AcDbDictionary
  3
ACAD_GROUP
350
1C
  3
ACAD_MLINESTYLE
350
1D
  0
DICTIONARY
  5
35
100
AcDbDictionary
280
     1
  3
ACAD_XREC_ROUNDTRIP
360
36
  0
DICTIONARY
  5
22
100
AcDbDictionary
280
     1
  3
ACAD_XREC_ROUNDTRIP
360
23
  0
DICTIONARY
  5
3
100
AcDbDictionary
280
     1
  3
ACAD_LAYOUTSELFREF
360
4
  0
DICTIONARY
  5
A
100
AcDbDictionary
280
     1
  3
ACAD_LAYOUTSELFREF
360
B
  0
DICTIONARY
  5
1C
102
{ACAD_REACTORS
330
1E
102
}
100
AcDbDictionary
  0
DICTIONARY
  5
1D
102
{ACAD_REACTORS
330
1E
102
}
100
AcDbDictionary
  3
STANDARD
350
20
  0
XRECORD
  5
36
102
{ACAD_REACTORS
330
35
102
}
100
AcDbXrecord
102
PLOTBIT
280
     0
  0
XRECORD
  5
23
102
{ACAD_REACTORS
330
22
102
}
100
AcDbXrecord
102
ACADR14ROUNDTRIP
1000
DSTYLE
1002
{
1070
   341
340
0
1070
   343
340
0
1070
   344
340
0
1002
}
  0
XRECORD
  5
4
102
{ACAD_REACTORS
330
3
102
}
100
AcDbXrecord
340
2
  0
XRECORD
  5
B
102
{ACAD_REACTORS
330
A
102
}
100
AcDbXrecord
340
9
  0
MLINESTYLE
  5
20
102
{ACAD_REACTORS
330
1D
102
}
100
AcDbMlineStyle
  2
STANDARD
 70
     0
  3

 62
     0
 51
90.0
 52
90.0
 71
     2
 49
0.5
 62
   256
  6
BYLAYER
 49
-0.5
 62
   256
  6
BYLAYER
  0
ENDSEC
  0
EOF
