  0
SECTION
  2
HEADER
  9
$ACADVER
  1
AC1014
  9
$ACADMAINTVER
 70
     0
  9
$DWGCODEPAGE
  3
ANSI_932
  9
$INSBASE
 10
-290.250952
 20
327.890188
 30
0.0
  9
$EXTMIN
 10
-275.303646
 20
355.2839
 30
0.0
  9
$EXTMAX
 10
-14.842696
 20
492.55321
 30
0.0
  9
$LIMMIN
 10
-587.250952
 20
327.890188
  9
$LIMMAX
 10
600.749048
 20
957.890188
  9
$ORTHOMODE
 70
     1
  9
$REGENMODE
 70
     1
  9
$FILLMODE
 70
     1
  9
$QTEXTMODE
 70
     0
  9
$MIRRTEXT
 70
     1
  9
$DRAGMODE
 70
     2
  9
$LTSCALE
 40
5.0
  9
$OSMODE
 70
   100
  9
$ATTMODE
 70
     1
  9
$TEXTSIZE
 40
4.0
  9
$TRACEWID
 40
0.05
  9
$TEXTSTYLE
  7
STANDARD
  9
$CLAYER
  8
外形
  9
$CELTYPE
  6
CONTINUOUS
  9
$CECOLOR
 62
   256
  9
$CELTSCALE
 40
1.0
  9
$DELOBJ
 70
     1
  9
$DISPSILH
 70
     0
  9
$DIMSCALE
 40
1.0
  9
$DIMASZ
 40
2.0
  9
$DIMEXO
 40
1.0
  9
$DIMDLI
 40
8.0
  9
$DIMRND
 40
0.0
  9
$DIMDLE
 40
0.0
  9
$DIMEXE
 40
2.0
  9
$DIMTP
 40
0.0
  9
$DIMTM
 40
0.0
  9
$DIMTXT
 40
3.0
  9
$DIMCEN
 40
-1.0
  9
$DIMTSZ
 40
0.0
  9
$DIMTOL
 70
     0
  9
$DIMLIM
 70
     0
  9
$DIMTIH
 70
     0
  9
$DIMTOH
 70
     0
  9
$DIMSE1
 70
     0
  9
$DIMSE2
 70
     0
  9
$DIMTAD
 70
     1
  9
$DIMZIN
 70
     8
  9
$DIMBLK
  1

  9
$DIMASO
 70
     1
  9
$DIMSHO
 70
     1
  9
$DIMPOST
  1

  9
$DIMAPOST
  1

  9
$DIMALT
 70
     0
  9
$DIMALTD
 70
     2
  9
$DIMALTF
 40
25.4
  9
$DIMLFAC
 40
1.0
  9
$DIMTOFL
 70
     1
  9
$DIMTVP
 40
0.0
  9
$DIMTIX
 70
     0
  9
$DIMSOXD
 70
     0
  9
$DIMSAH
 70
     1
  9
$DIMBLK1
  1
_OPEN30
  9
$DIMBLK2
  1
_OPEN30
  9
$DIMSTYLE
  2
STANDARD
  9
$DIMCLRD
 70
     1
  9
$DIMCLRE
 70
     1
  9
$DIMCLRT
 70
     3
  9
$DIMTFAC
 40
1.0
  9
$DIMGAP
 40
1.0
  9
$DIMJUST
 70
     0
  9
$DIMSD1
 70
     0
  9
$DIMSD2
 70
     0
  9
$DIMTOLJ
 70
     1
  9
$DIMTZIN
 70
     8
  9
$DIMALTZ
 70
     0
  9
$DIMALTTZ
 70
     0
  9
$DIMFIT
 70
     3
  9
$DIMUPT
 70
     0
  9
$DIMUNIT
 70
     2
  9
$DIMDEC
 70
     3
  9
$DIMTDEC
 70
     2
  9
$DIMALTU
 70
     2
  9
$DIMALTTD
 70
     2
  9
$DIMTXSTY
  7
STANDARD
  9
$DIMAUNIT
 70
     0
  9
$LUNITS
 70
     2
  9
$LUPREC
 70
     0
  9
$SKETCHINC
 40
0.1
  9
$FILLETRAD
 40
1.2
  9
$AUNITS
 70
     0
  9
$AUPREC
 70
     0
  9
$MENU
  1
acad
  9
$ELEVATION
 40
0.0
  9
$PELEVATION
 40
0.0
  9
$THICKNESS
 40
0.0
  9
$LIMCHECK
 70
     0
  9
$BLIPMODE
 70
     0
  9
$CHAMFERA
 40
0.0
  9
$CHAMFERB
 40
0.0
  9
$CHAMFERC
 40
0.0
  9
$CHAMFERD
 40
0.0
  9
$SKPOLY
 70
     0
  9
$TDCREATE
 40
2450751.535399305
  9
$TDUPDATE
 40
2451927.817106481
  9
$TDINDWG
 40
0.8161111111
  9
$TDUSRTIMER
 40
0.8161111111
  9
$USRTIMER
 70
     1
  9
$ANGBASE
 50
0.0
  9
$ANGDIR
 70
     0
  9
$PDMODE
 70
     0
  9
$PDSIZE
 40
0.0
  9
$PLINEWID
 40
0.0
  9
$COORDS
 70
     1
  9
$SPLFRAME
 70
     0
  9
$SPLINETYPE
 70
     5
  9
$SPLINESEGS
 70
     8
  9
$ATTDIA
 70
     0
  9
$ATTREQ
 70
     1
  9
$HANDLING
 70
     1
  9
$HANDSEED
  5
626
  9
$SURFTAB1
 70
     6
  9
$SURFTAB2
 70
     6
  9
$SURFTYPE
 70
     6
  9
$SURFU
 70
     6
  9
$SURFV
 70
     6
  9
$UCSNAME
  2

  9
$UCSORG
 10
0.0
 20
0.0
 30
0.0
  9
$UCSXDIR
 10
1.0
 20
0.0
 30
0.0
  9
$UCSYDIR
 10
0.0
 20
1.0
 30
0.0
  9
$PUCSNAME
  2

  9
$PUCSORG
 10
0.0
 20
0.0
 30
0.0
  9
$PUCSXDIR
 10
1.0
 20
0.0
 30
0.0
  9
$PUCSYDIR
 10
0.0
 20
1.0
 30
0.0
  9
$USERI1
 70
     0
  9
$USERI2
 70
     0
  9
$USERI3
 70
     0
  9
$USERI4
 70
     0
  9
$USERI5
 70
     0
  9
$USERR1
 40
0.0
  9
$USERR2
 40
0.0
  9
$USERR3
 40
0.0
  9
$USERR4
 40
0.0
  9
$USERR5
 40
0.0
  9
$WORLDVIEW
 70
     1
  9
$SHADEDGE
 70
     3
  9
$SHADEDIF
 70
    70
  9
$TILEMODE
 70
     1
  9
$MAXACTVP
 70
    16
  9
$PINSBASE
 10
0.0
 20
0.0
 30
0.0
  9
$PLIMCHECK
 70
     0
  9
$PEXTMIN
 10
1.000000E+20
 20
1.000000E+20
 30
1.000000E+20
  9
$PEXTMAX
 10
-1.000000E+20
 20
-1.000000E+20
 30
-1.000000E+20
  9
$PLIMMIN
 10
0.0
 20
0.0
  9
$PLIMMAX
 10
12.0
 20
9.0
  9
$UNITMODE
 70
     0
  9
$VISRETAIN
 70
     0
  9
$PLINEGEN
 70
     0
  9
$PSLTSCALE
 70
     1
  9
$TREEDEPTH
 70
  3020
  9
$PICKSTYLE
 70
     1
  9
$CMLSTYLE
  2
STANDARD
  9
$CMLJUST
 70
     0
  9
$CMLSCALE
 40
1.0
  9
$PROXYGRAPHICS
 70
     1
  9
$MEASUREMENT
 70
     0
  0
ENDSEC
  0
SECTION
  2
CLASSES
  0
CLASS
  1
LWPOLYLINE
  2
AcDbPolyline
  3
"AutoCAD"
 90
        0
280
     0
281
     1
  0
CLASS
  1
ACDBDICTIONARYWDFLT
  2
AcDbDictionaryWithDefault
  3
AutoCAD 2000
 90
        0
280
     1
281
     0
  0
CLASS
  1
ACDBPLACEHOLDER
  2
AcDbPlaceHolder
  3
AutoCAD 2000
 90
        0
280
     1
281
     0
  0
CLASS
  1
LAYOUT
  2
AcDbLayout
  3
AutoCAD 2000
 90
        0
280
     1
281
     0
  0
CLASS
  1
LONG_TRANSACTION
  2
AcDbLongTransaction
  3
AutoCAD 2000
 90
        0
280
     1
281
     0
  0
CLASS
  1
LWPOLYLINE
  2
AcDbPolyline
  3
"AutoCAD"
 90
        0
280
     0
281
     1
  0
CLASS
  1
HATCH
  2
AcDbHatch
  3
"ACAD_SEDONA"
 90
        0
280
     0
281
     1
  0
CLASS
  1
XRECORD
  2
AcDbXrecord
  3
"<Built In>"
 90
        0
280
     0
281
     0
  0
ENDSEC
  0
SECTION
  2
TABLES
  0
TABLE
  2
VPORT
  5
16
100
AcDbSymbolTable
 70
     1
  0
VPORT
  5
621
100
AcDbSymbolTableRecord
100
AcDbViewportTableRecord
  2
*ACTIVE
 70
     0
 10
0.0
 20
0.0
 11
1.0
 21
1.0
 12
-147.643437
 22
423.982197
 13
0.0
 23
0.0
 14
0.05
 24
0.05
 15
10.0
 25
10.0
 16
0.0
 26
0.0
 36
1.0
 17
0.0
 27
0.0
 37
0.0
 40
174.15823
 41
1.710425
 42
50.0
 43
0.0
 44
0.0
 50
0.0
 51
0.0
 71
     0
 72
   100
 73
     1
 74
     1
 75
     0
 76
     0
 77
     0
 78
     0
  0
ENDTAB
  0
TABLE
  2
LTYPE
  5
11
100
AcDbSymbolTable
 70
     2
  0
LTYPE
  5
12
100
AcDbSymbolTableRecord
100
AcDbLinetypeTableRecord
  2
BYBLOCK
 70
     0
  3

 72
    65
 73
     0
 40
0.0
  0
LTYPE
  5
13
100
AcDbSymbolTableRecord
100
AcDbLinetypeTableRecord
  2
BYLAYER
 70
     0
  3

 72
    65
 73
     0
 40
0.0
  0
LTYPE
  5
7
100
AcDbSymbolTableRecord
100
AcDbLinetypeTableRecord
  2
CONTINUOUS
 70
     0
  3
Solid line
 72
    65
 73
     0
 40
0.0
  0
LTYPE
  5
C1
100
AcDbSymbolTableRecord
100
AcDbLinetypeTableRecord
  2
CENTER
 70
     0
  3
Center ____ _ ____ _ ____ _ ____ _ ____ _ ____
 72
    65
 73
     4
 40
2.0
 49
1.25
 74
     0
 49
-0.25
 74
     0
 49
0.25
 74
     0
 49
-0.25
 74
     0
  0
ENDTAB
  0
TABLE
  2
LAYER
  5
E
100
AcDbSymbolTable
 70
     4
  0
LAYER
  5
6
100
AcDbSymbolTableRecord
100
AcDbLayerTableRecord
  2
0
 70
     0
 62
     7
  6
CONTINUOUS
  0
LAYER
  5
3E
100
AcDbSymbolTableRecord
100
AcDbLayerTableRecord
  2
外形
 70
     0
 62
     3
  6
CONTINUOUS
  0
LAYER
  5
34
102
{ACAD_XDICTIONARY
360
35
102
}
100
AcDbSymbolTableRecord
100
AcDbLayerTableRecord
  2
DEFPOINTS
 70
     0
 62
     7
  6
CONTINUOUS
  0
LAYER
  5
1F
100
AcDbSymbolTableRecord
100
AcDbLayerTableRecord
  2
寸法
 70
     0
 62
     1
  6
CONTINUOUS
  0
ENDTAB
  0
TABLE
  2
STYLE
  5
F
100
AcDbSymbolTable
 70
     1
  0
STYLE
  5
10
100
AcDbSymbolTableRecord
100
AcDbTextStyleTableRecord
  2
STANDARD
 70
     0
 40
0.0
 41
1.0
 50
0.0
 71
     0
 42
4.0
  3
MONOTXT
  4
BIGFONT
  0
ENDTAB
  0
TABLE
  2
VIEW
  5
14
100
AcDbSymbolTable
 70
     0
  0
ENDTAB
  0
TABLE
  2
UCS
  5
15
100
AcDbSymbolTable
 70
     0
  0
ENDTAB
  0
TABLE
  2
APPID
  5
18
100
AcDbSymbolTable
 70
     1
  0
APPID
  5
19
100
AcDbSymbolTableRecord
100
AcDbRegAppTableRecord
  2
ACAD
 70
     0
  0
ENDTAB
  0
TABLE
  2
DIMSTYLE
  5
1A
100
AcDbSymbolTable
 70
     1
  0
DIMSTYLE
105
21
102
{ACAD_XDICTIONARY
360
22
102
}
102
{ACAD_REACTORS
330
1CA
330
1CE
330
1D8
330
1DD
330
1E1
330
1E2
330
1E3
330
1E7
330
1FB
330
206
102
}
100
AcDbSymbolTableRecord
100
AcDbDimStyleTableRecord
  2
STANDARD
 70
     0
  3

  4

  5

  6
_OPEN30
  7
_OPEN30
 40
1.0
 41
2.0
 42
1.0
 43
8.0
 44
2.0
 45
0.0
 46
0.0
 47
0.0
 48
0.0
140
3.0
141
-1.0
142
0.0
143
25.4
144
1.0
145
0.0
146
1.0
147
1.0
 71
     0
 72
     0
 73
     0
 74
     0
 75
     0
 76
     0
 77
     1
 78
     8
170
     0
171
     2
172
     1
173
     1
174
     0
175
     0
176
     1
177
     1
178
     3
270
     2
271
     3
272
     2
273
     2
274
     2
340
10
275
     0
280
     0
281
     0
282
     0
283
     1
284
     8
285
     0
286
     0
287
     3
288
     0
  0
ENDTAB
  0
TABLE
  2
BLOCK_RECORD
  5
1
100
AcDbSymbolTable
 70
    13
  0
BLOCK_RECORD
  5
2
102
{ACAD_XDICTIONARY
360
3
102
}
100
AcDbSymbolTableRecord
100
AcDbBlockTableRecord
  2
*MODEL_SPACE
  0
BLOCK_RECORD
  5
9
102
{ACAD_XDICTIONARY
360
A
102
}
100
AcDbSymbolTableRecord
100
AcDbBlockTableRecord
  2
*PAPER_SPACE
  0
BLOCK_RECORD
  5
24
100
AcDbSymbolTableRecord
100
AcDbBlockTableRecord
  2
_DOTSMALL
  0
BLOCK_RECORD
  5
E6
100
AcDbSymbolTableRecord
100
AcDbBlockTableRecord
  2
_OPEN
  0
BLOCK_RECORD
  5
EC
100
AcDbSymbolTableRecord
100
AcDbBlockTableRecord
  2
*D2
  0
BLOCK_RECORD
  5
F8
100
AcDbSymbolTableRecord
100
AcDbBlockTableRecord
  2
*D3
  0
BLOCK_RECORD
  5
104
100
AcDbSymbolTableRecord
100
AcDbBlockTableRecord
  2
*D4
  0
BLOCK_RECORD
  5
110
100
AcDbSymbolTableRecord
100
AcDbBlockTableRecord
  2
*D5
  0
BLOCK_RECORD
  5
11C
100
AcDbSymbolTableRecord
100
AcDbBlockTableRecord
  2
*D6
  0
BLOCK_RECORD
  5
128
100
AcDbSymbolTableRecord
100
AcDbBlockTableRecord
  2
*D7
  0
BLOCK_RECORD
  5
13A
100
AcDbSymbolTableRecord
100
AcDbBlockTableRecord
  2
*D8
  0
BLOCK_RECORD
  5
148
100
AcDbSymbolTableRecord
100
AcDbBlockTableRecord
  2
*D9
  0
BLOCK_RECORD
  5
156
100
AcDbSymbolTableRecord
100
AcDbBlockTableRecord
  2
*D10
  0
BLOCK_RECORD
  5
17E
100
AcDbSymbolTableRecord
100
AcDbBlockTableRecord
  2
*D11
  0
BLOCK_RECORD
  5
59C
100
AcDbSymbolTableRecord
100
AcDbBlockTableRecord
  2
_OPEN30
  0
ENDTAB
  0
ENDSEC
  0
SECTION
  2
BLOCKS
  0
BLOCK
  5
5
100
AcDbEntity
  8
0
100
AcDbBlockBegin
  2
*MODEL_SPACE
 70
     0
 10
0.0
 20
0.0
 30
0.0
  3
*MODEL_SPACE
  1

  0
ENDBLK
  5
8
100
AcDbEntity
  8
0
100
AcDbBlockEnd
  0
BLOCK
  5
C
100
AcDbEntity
 67
     1
  8
0
100
AcDbBlockBegin
  2
*PAPER_SPACE
 70
     0
 10
0.0
 20
0.0
 30
0.0
  3
*PAPER_SPACE
  1

  0
ENDBLK
  5
D
100
AcDbEntity
 67
     1
  8
0
100
AcDbBlockEnd
  0
BLOCK
  5
29
100
AcDbEntity
  8
0
100
AcDbBlockBegin
  2
_DOTSMALL
 70
     0
 10
0.0
 20
0.0
 30
0.0
  3
_DOTSMALL
  1

  0
POLYLINE
  5
25
100
AcDbEntity
  8
0
  6
BYBLOCK
 62
     0
100
AcDb2dPolyline
 66
     1
 10
0.0
 20
0.0
 30
0.0
 70
     1
 40
0.5
 41
0.5
  0
VERTEX
  5
26
100
AcDbEntity
  8
0
  6
BYBLOCK
 62
     0
100
AcDbVertex
100
AcDb2dVertex
 10
-0.0625
 20
0.0
 30
0.0
 42
1.0
  0
VERTEX
  5
27
100
AcDbEntity
  8
0
  6
BYBLOCK
 62
     0
100
AcDbVertex
100
AcDb2dVertex
 10
0.0625
 20
0.0
 30
0.0
 42
1.0
  0
SEQEND
  5
28
100
AcDbEntity
  8
0
  6
BYBLOCK
 62
     0
  0
ENDBLK
  5
2A
100
AcDbEntity
  8
0
100
AcDbBlockEnd
  0
BLOCK
  5
EA
100
AcDbEntity
  8
0
100
AcDbBlockBegin
  2
_OPEN
 70
     0
 10
0.0
 20
0.0
 30
0.0
  3
_OPEN
  1

  0
LINE
  5
E7
100
AcDbEntity
  8
0
  6
BYBLOCK
 62
     0
100
AcDbLine
 10
-1.0
 20
0.166667
 30
0.0
 11
0.0
 21
0.0
 31
0.0
  0
LINE
  5
E8
100
AcDbEntity
  8
0
  6
BYBLOCK
 62
     0
100
AcDbLine
 10
0.0
 20
0.0
 30
0.0
 11
-1.0
 21
-0.166667
 31
0.0
  0
LINE
  5
E9
100
AcDbEntity
  8
0
  6
BYBLOCK
 62
     0
100
AcDbLine
 10
0.0
 20
0.0
 30
0.0
 11
-1.0
 21
0.0
 31
0.0
  0
ENDBLK
  5
EB
100
AcDbEntity
  8
0
100
AcDbBlockEnd
  0
BLOCK
  5
5A2
100
AcDbEntity
  8
0
100
AcDbBlockBegin
  2
*D2
 70
     1
 10
0.0
 20
0.0
 30
0.0
  3
*D2
  1

  0
LINE
  5
5A3
100
AcDbEntity
  8
0
  6
BYBLOCK
 62
     1
100
AcDbLine
 10
-171.510628
 20
399.603306
 30
0.0
 11
-171.510628
 21
415.93911
 31
0.0
  0
LINE
  5
5A4
100
AcDbEntity
  8
0
  6
BYBLOCK
 62
     1
100
AcDbLine
 10
-206.010628
 20
399.603306
 30
0.0
 11
-206.010628
 21
415.93911
 31
0.0
  0
LINE
  5
5A5
100
AcDbEntity
  8
0
  6
BYBLOCK
 62
     1
100
AcDbLine
 10
-173.510628
 20
413.93911
 30
0.0
 11
-204.010628
 21
413.93911
 31
0.0
  0
INSERT
  5
5A6
100
AcDbEntity
  8
0
  6
BYBLOCK
 62
     1
100
AcDbBlockReference
  2
_OPEN30
 10
-171.510628
 20
413.93911
 30
0.0
 41
2.0
 42
2.0
 43
2.0
  0
INSERT
  5
5A7
100
AcDbEntity
  8
0
  6
BYBLOCK
 62
     1
100
AcDbBlockReference
  2
_OPEN30
 10
-206.010628
 20
413.93911
 30
0.0
 41
2.0
 42
2.0
 43
2.0
 50
180.0
  0
MTEXT
  5
5A8
100
AcDbEntity
  8
0
  6
BYBLOCK
 62
     3
100
AcDbMText
 10
-188.760628
 20
416.43911
 30
0.0
 40
3.0
 41
0.0
 71
     5
 72
     1
  1
\A1;34.5
  0
POINT
  5
5A9
100
AcDbEntity
  8
DEFPOINTS
  6
BYBLOCK
 62
     0
100
AcDbPoint
 10
-171.510628
 20
398.603306
 30
0.0
  0
POINT
  5
5AA
100
AcDbEntity
  8
DEFPOINTS
  6
BYBLOCK
 62
     0
100
AcDbPoint
 10
-206.010628
 20
398.603306
 30
0.0
  0
POINT
  5
5AB
100
AcDbEntity
  8
DEFPOINTS
  6
BYBLOCK
 62
     0
100
AcDbPoint
 10
-206.010628
 20
413.93911
 30
0.0
  0
ENDBLK
  5
5AC
100
AcDbEntity
  8
0
100
AcDbBlockEnd
  0
BLOCK
  5
5AD
100
AcDbEntity
  8
0
100
AcDbBlockBegin
  2
*D3
 70
     1
 10
0.0
 20
0.0
 30
0.0
  3
*D3
  1

  0
LINE
  5
5AE
100
AcDbEntity
  8
0
  6
BYBLOCK
 62
     1
100
AcDbLine
 10
-205.382472
 20
366.603306
 30
0.0
 11
-217.075938
 21
366.603306
 31
0.0
  0
LINE
  5
5AF
100
AcDbEntity
  8
0
  6
BYBLOCK
 62
     1
100
AcDbLine
 10
-207.010628
 20
398.603306
 30
0.0
 11
-217.075938
 21
398.603306
 31
0.0
  0
LINE
  5
5B0
100
AcDbEntity
  8
0
  6
BYBLOCK
 62
     1
100
AcDbLine
 10
-215.075938
 20
368.603306
 30
0.0
 11
-215.075938
 21
396.603306
 31
0.0
  0
INSERT
  5
5B1
100
AcDbEntity
  8
0
  6
BYBLOCK
 62
     1
100
AcDbBlockReference
  2
_OPEN30
 10
-215.075938
 20
366.603306
 30
0.0
 41
2.0
 42
2.0
 43
2.0
 50
270.0
  0
INSERT
  5
5B2
100
AcDbEntity
  8
0
  6
BYBLOCK
 62
     1
100
AcDbBlockReference
  2
_OPEN30
 10
-215.075938
 20
398.603306
 30
0.0
 41
2.0
 42
2.0
 43
2.0
 50
90.0
  0
MTEXT
  5
5B3
100
AcDbEntity
  8
0
  6
BYBLOCK
 62
     3
100
AcDbMText
 10
-217.575938
 20
382.603306
 30
0.0
 40
3.0
 41
0.0
 71
     5
 72
     1
  1
\A1;32
 11
0.0
 21
1.0
 31
0.0
  0
POINT
  5
5B4
100
AcDbEntity
  8
DEFPOINTS
  6
BYBLOCK
 62
     0
100
AcDbPoint
 10
-204.382472
 20
366.603306
 30
0.0
  0
POINT
  5
5B5
100
AcDbEntity
  8
DEFPOINTS
  6
BYBLOCK
 62
     0
100
AcDbPoint
 10
-206.010628
 20
398.603306
 30
0.0
  0
POINT
  5
5B6
100
AcDbEntity
  8
DEFPOINTS
  6
BYBLOCK
 62
     0
100
AcDbPoint
 10
-215.075938
 20
398.603306
 30
0.0
  0
ENDBLK
  5
5B7
100
AcDbEntity
  8
0
100
AcDbBlockEnd
  0
BLOCK
  5
5B8
100
AcDbEntity
  8
0
100
AcDbBlockBegin
  2
*D4
 70
     1
 10
0.0
 20
0.0
 30
0.0
  3
*D4
  1

  0
LINE
  5
5B9
100
AcDbEntity
  8
0
  6
BYBLOCK
 62
     1
100
AcDbLine
 10
-35.010628
 20
398.603306
 30
0.0
 11
-14.842696
 21
398.603306
 31
0.0
  0
LINE
  5
5BA
100
AcDbEntity
  8
0
  6
BYBLOCK
 62
     1
100
AcDbLine
 10
-35.010628
 20
366.603306
 30
0.0
 11
-14.842696
 21
366.603306
 31
0.0
  0
LINE
  5
5BB
100
AcDbEntity
  8
0
  6
BYBLOCK
 62
     1
100
AcDbLine
 10
-16.842696
 20
396.603306
 30
0.0
 11
-16.842696
 21
368.603306
 31
0.0
  0
INSERT
  5
5BC
100
AcDbEntity
  8
0
  6
BYBLOCK
 62
     1
100
AcDbBlockReference
  2
_OPEN30
 10
-16.842696
 20
398.603306
 30
0.0
 41
2.0
 42
2.0
 43
2.0
 50
90.0
  0
INSERT
  5
5BD
100
AcDbEntity
  8
0
  6
BYBLOCK
 62
     1
100
AcDbBlockReference
  2
_OPEN30
 10
-16.842696
 20
366.603306
 30
0.0
 41
2.0
 42
2.0
 43
2.0
 50
270.0
  0
MTEXT
  5
5BE
100
AcDbEntity
  8
0
  6
BYBLOCK
 62
     3
100
AcDbMText
 10
-19.342696
 20
382.603306
 30
0.0
 40
3.0
 41
0.0
 71
     5
 72
     1
  1
\A1;32
 11
0.0
 21
1.0
 31
0.0
  0
POINT
  5
5BF
100
AcDbEntity
  8
DEFPOINTS
  6
BYBLOCK
 62
     0
100
AcDbPoint
 10
-36.010628
 20
398.603306
 30
0.0
  0
POINT
  5
5C0
100
AcDbEntity
  8
DEFPOINTS
  6
BYBLOCK
 62
     0
100
AcDbPoint
 10
-36.010628
 20
366.603306
 30
0.0
  0
POINT
  5
5C1
100
AcDbEntity
  8
DEFPOINTS
  6
BYBLOCK
 62
     0
100
AcDbPoint
 10
-16.842696
 20
366.603306
 30
0.0
  0
ENDBLK
  5
5C2
100
AcDbEntity
  8
0
100
AcDbBlockEnd
  0
BLOCK
  5
5C3
100
AcDbEntity
  8
0
100
AcDbBlockBegin
  2
*D5
 70
     1
 10
0.0
 20
0.0
 30
0.0
  3
*D5
  1

  0
LINE
  5
5C4
100
AcDbEntity
  8
0
  6
BYBLOCK
 62
     1
100
AcDbLine
 10
-36.010628
 20
461.041631
 30
0.0
 11
-36.010628
 21
440.793784
 31
0.0
  0
LINE
  5
5C5
100
AcDbEntity
  8
0
  6
BYBLOCK
 62
     1
100
AcDbLine
 10
-206.010628
 20
464.043606
 30
0.0
 11
-206.010628
 21
440.793784
 31
0.0
  0
LINE
  5
5C6
100
AcDbEntity
  8
0
  6
BYBLOCK
 62
     1
100
AcDbLine
 10
-38.010628
 20
442.793784
 30
0.0
 11
-204.010628
 21
442.793784
 31
0.0
  0
INSERT
  5
5C7
100
AcDbEntity
  8
0
  6
BYBLOCK
 62
     1
100
AcDbBlockReference
  2
_OPEN30
 10
-36.010628
 20
442.793784
 30
0.0
 41
2.0
 42
2.0
 43
2.0
  0
INSERT
  5
5C8
100
AcDbEntity
  8
0
  6
BYBLOCK
 62
     1
100
AcDbBlockReference
  2
_OPEN30
 10
-206.010628
 20
442.793784
 30
0.0
 41
2.0
 42
2.0
 43
2.0
 50
180.0
  0
MTEXT
  5
5C9
100
AcDbEntity
  8
0
  6
BYBLOCK
 62
     3
100
AcDbMText
 10
-121.010628
 20
445.293784
 30
0.0
 40
3.0
 41
0.0
 71
     5
 72
     1
  1
\A1;170
  0
POINT
  5
5CA
100
AcDbEntity
  8
DEFPOINTS
  6
BYBLOCK
 62
     0
100
AcDbPoint
 10
-36.010628
 20
462.041631
 30
0.0
  0
POINT
  5
5CB
100
AcDbEntity
  8
DEFPOINTS
  6
BYBLOCK
 62
     0
100
AcDbPoint
 10
-206.010628
 20
465.043606
 30
0.0
  0
POINT
  5
5CC
100
AcDbEntity
  8
DEFPOINTS
  6
BYBLOCK
 62
     0
100
AcDbPoint
 10
-206.010628
 20
442.793784
 30
0.0
  0
ENDBLK
  5
5CD
100
AcDbEntity
  8
0
100
AcDbBlockEnd
  0
BLOCK
  5
5CE
100
AcDbEntity
  8
0
100
AcDbBlockBegin
  2
*D6
 70
     1
 10
0.0
 20
0.0
 30
0.0
  3
*D6
  1

  0
LINE
  5
5CF
100
AcDbEntity
  8
0
  6
BYBLOCK
 62
     1
100
AcDbLine
 10
-203.969418
 20
487.041631
 30
0.0
 11
-217.075938
 21
487.041631
 31
0.0
  0
LINE
  5
5D0
100
AcDbEntity
  8
0
  6
BYBLOCK
 62
     1
100
AcDbLine
 10
-207.010628
 20
465.043606
 30
0.0
 11
-217.075938
 21
465.043606
 31
0.0
  0
LINE
  5
5D1
100
AcDbEntity
  8
0
  6
BYBLOCK
 62
     1
100
AcDbLine
 10
-215.075938
 20
485.041631
 30
0.0
 11
-215.075938
 21
467.043606
 31
0.0
  0
INSERT
  5
5D2
100
AcDbEntity
  8
0
  6
BYBLOCK
 62
     1
100
AcDbBlockReference
  2
_OPEN30
 10
-215.075938
 20
487.041631
 30
0.0
 41
2.0
 42
2.0
 43
2.0
 50
90.0
  0
INSERT
  5
5D3
100
AcDbEntity
  8
0
  6
BYBLOCK
 62
     1
100
AcDbBlockReference
  2
_OPEN30
 10
-215.075938
 20
465.043606
 30
0.0
 41
2.0
 42
2.0
 43
2.0
 50
270.0
  0
MTEXT
  5
5D4
100
AcDbEntity
  8
0
  6
BYBLOCK
 62
     3
100
AcDbMText
 10
-217.575938
 20
476.042619
 30
0.0
 40
3.0
 41
0.0
 71
     5
 72
     1
  1
\A1;21.998
 11
0.0
 21
1.0
 31
0.0
  0
POINT
  5
5D5
100
AcDbEntity
  8
DEFPOINTS
  6
BYBLOCK
 62
     0
100
AcDbPoint
 10
-202.969418
 20
487.041631
 30
0.0
  0
POINT
  5
5D6
100
AcDbEntity
  8
DEFPOINTS
  6
BYBLOCK
 62
     0
100
AcDbPoint
 10
-206.010628
 20
465.043606
 30
0.0
  0
POINT
  5
5D7
100
AcDbEntity
  8
DEFPOINTS
  6
BYBLOCK
 62
     0
100
AcDbPoint
 10
-215.075938
 20
465.043606
 30
0.0
  0
ENDBLK
  5
5D8
100
AcDbEntity
  8
0
100
AcDbBlockEnd
  0
BLOCK
  5
5D9
100
AcDbEntity
  8
0
100
AcDbBlockBegin
  2
*D7
 70
     1
 10
0.0
 20
0.0
 30
0.0
  3
*D7
  1

  0
LINE
  5
5DA
100
AcDbEntity
  8
0
  6
BYBLOCK
 62
     1
100
AcDbLine
 10
-238.422558
 20
466.880962
 30
0.0
 11
-241.189549
 21
452.646029
 31
0.0
  0
LINE
  5
5DB
100
AcDbEntity
  8
0
  6
BYBLOCK
 62
     1
100
AcDbLine
 10
-238.824627
 20
461.085968
 30
0.0
 11
-239.582782
 21
452.420213
 31
0.0
  0
ARC
  5
5DC
100
AcDbEntity
  8
0
  6
BYBLOCK
 62
     1
100
AcDbCircle
 10
-238.231749
 20
467.862589
 30
0.0
 40
13.501364
100
AcDbArc
 50
241.962485
 51
259.0
  0
LINE
  5
5DD
100
AcDbEntity
  8
0
  6
BYBLOCK
 62
     1
100
AcDbLine
 10
-244.57806
 20
455.945745
 30
0.0
 11
-252.168764
 21
459.988171
 31
0.0
  0
ARC
  5
5DE
100
AcDbEntity
  8
0
  6
BYBLOCK
 62
     1
100
AcDbCircle
 10
-238.231749
 20
467.862589
 30
0.0
 40
13.501364
100
AcDbArc
 50
242.009629
 51
250.504814
  0
ARC
  5
5DF
100
AcDbEntity
  8
0
  6
BYBLOCK
 62
     1
100
AcDbCircle
 10
-238.231749
 20
467.862589
 30
0.0
 40
13.501364
100
AcDbArc
 50
273.495186
 51
281.990371
  0
ARC
  5
5E0
100
AcDbEntity
  8
0
  6
BYBLOCK
 62
     1
100
AcDbCircle
 10
-238.231749
 20
467.862589
 30
0.0
 40
13.501364
100
AcDbArc
 50
259.0
 51
265.0
  0
INSERT
  5
5E1
100
AcDbEntity
  8
0
  6
BYBLOCK
 62
     1
100
AcDbBlockReference
  2
_OPEN30
 10
-240.807931
 20
454.609283
 30
0.0
 41
2.0
 42
2.0
 43
2.0
 50
344.752407
  0
INSERT
  5
5E2
100
AcDbEntity
  8
0
  6
BYBLOCK
 62
     1
100
AcDbBlockReference
  2
_OPEN30
 10
-239.408471
 20
454.412602
 30
0.0
 41
2.0
 42
2.0
 43
2.0
 50
179.247593
  0
MTEXT
  5
5E3
100
AcDbEntity
  8
0
  6
BYBLOCK
 62
     3
100
AcDbMText
 10
-247.198288
 20
460.173558
 30
0.0
 40
3.0
 41
0.0
 71
     5
 72
     1
  1
\A1;6°
 11
0.88264
 21
-0.47005
 31
0.0
  0
POINT
  5
5E4
100
AcDbEntity
  8
DEFPOINTS
  6
BYBLOCK
 62
     0
100
AcDbPoint
 10
-239.877152
 20
454.461862
 30
0.0
 50
95.0
  0
POINT
  5
5E5
100
AcDbEntity
  8
DEFPOINTS
  6
BYBLOCK
 62
     0
100
AcDbPoint
 10
-238.231749
 20
467.862589
 30
0.0
 50
95.0
  0
POINT
  5
5E6
100
AcDbEntity
  8
DEFPOINTS
  6
BYBLOCK
 62
     0
100
AcDbPoint
 10
-234.939378
 20
484.800369
 30
0.0
 50
95.0
  0
POINT
  5
5E7
100
AcDbEntity
  8
DEFPOINTS
  6
BYBLOCK
 62
     0
100
AcDbPoint
 10
-238.231749
 20
467.862589
 30
0.0
 50
95.0
  0
POINT
  5
5E8
100
AcDbEntity
  8
DEFPOINTS
  6
BYBLOCK
 62
     0
100
AcDbPoint
 10
-238.737471
 20
462.082162
 30
0.0
 50
95.0
  0
ENDBLK
  5
5E9
100
AcDbEntity
  8
0
100
AcDbBlockEnd
  0
BLOCK
  5
5EA
100
AcDbEntity
  8
0
100
AcDbBlockBegin
  2
*D8
 70
     1
 10
0.0
 20
0.0
 30
0.0
  3
*D8
  1

  0
LINE
  5
5EB
100
AcDbEntity
  8
0
  6
BYBLOCK
 62
     1
100
AcDbLine
 10
-207.035059
 20
465.318102
 30
0.0
 11
-224.729326
 21
470.059266
 31
0.0
  0
LINE
  5
5EC
100
AcDbEntity
  8
0
  6
BYBLOCK
 62
     1
100
AcDbLine
 10
-206.156289
 20
464.063088
 30
0.0
 11
-207.752848
 21
445.814342
 31
0.0
  0
ARC
  5
5ED
100
AcDbEntity
  8
0
  6
BYBLOCK
 62
     1
100
AcDbCircle
 10
-206.069134
 20
465.059283
 30
0.0
 40
17.318453
100
AcDbArc
 50
171.620414
 51
258.379586
  0
INSERT
  5
5EE
100
AcDbEntity
  8
0
  6
BYBLOCK
 62
     1
100
AcDbBlockReference
  2
_OPEN30
 10
-222.797475
 20
469.541628
 30
0.0
 41
2.0
 42
2.0
 43
2.0
 50
78.310207
  0
INSERT
  5
5EF
100
AcDbEntity
  8
0
  6
BYBLOCK
 62
     1
100
AcDbBlockReference
  2
_OPEN30
 10
-207.578536
 20
447.806732
 30
0.0
 41
2.0
 42
2.0
 43
2.0
 50
351.689793
  0
MTEXT
  5
5F0
100
AcDbEntity
  8
0
  6
BYBLOCK
 62
     3
100
AcDbMText
 10
-218.2077
 20
456.559767
 30
0.0
 40
3.0
 41
0.0
 71
     5
 72
     1
  1
\A1;100°
 11
0.573576
 21
-0.819152
 31
0.0
  0
POINT
  5
5F1
100
AcDbEntity
  8
DEFPOINTS
  6
BYBLOCK
 62
     0
100
AcDbPoint
 10
-222.508548
 20
459.611854
 30
0.0
  0
POINT
  5
5F2
100
AcDbEntity
  8
DEFPOINTS
  6
BYBLOCK
 62
     0
100
AcDbPoint
 10
-206.010628
 20
465.728008
 30
0.0
  0
POINT
  5
5F3
100
AcDbEntity
  8
DEFPOINTS
  6
BYBLOCK
 62
     0
100
AcDbPoint
 10
-194.53355
 20
461.968333
 30
0.0
  0
POINT
  5
5F4
100
AcDbEntity
  8
DEFPOINTS
  6
BYBLOCK
 62
     0
100
AcDbPoint
 10
-205.420727
 20
464.885543
 30
0.0
  0
POINT
  5
5F5
100
AcDbEntity
  8
DEFPOINTS
  6
BYBLOCK
 62
     0
100
AcDbPoint
 10
-205.028275
 20
476.956353
 30
0.0
  0
ENDBLK
  5
5F6
100
AcDbEntity
  8
0
100
AcDbBlockEnd
  0
BLOCK
  5
5F7
100
AcDbEntity
  8
0
100
AcDbBlockBegin
  2
*D9
 70
     1
 10
0.0
 20
0.0
 30
0.0
  3
*D9
  1

  0
LINE
  5
5F8
100
AcDbEntity
  8
0
  6
BYBLOCK
 62
     1
100
AcDbLine
 10
-206.010628
 20
463.043606
 30
0.0
 11
-206.010628
 21
445.727898
 31
0.0
  0
LINE
  5
5F9
100
AcDbEntity
  8
0
  6
BYBLOCK
 62
     1
100
AcDbLine
 10
-193.567624
 20
461.709513
 30
0.0
 11
-187.353086
 21
460.044333
 31
0.0
  0
ARC
  5
5FA
100
AcDbEntity
  8
0
  6
BYBLOCK
 62
     1
100
AcDbCircle
 10
-206.010628
 20
465.043606
 30
0.0
 40
17.315708
100
AcDbArc
 50
276.621465
 51
338.378535
  0
INSERT
  5
5FB
100
AcDbEntity
  8
0
  6
BYBLOCK
 62
     1
100
AcDbBlockReference
  2
_OPEN30
 10
-206.010628
 20
447.727898
 30
0.0
 41
2.0
 42
2.0
 43
2.0
 50
183.310732
  0
INSERT
  5
5FC
100
AcDbEntity
  8
0
  6
BYBLOCK
 62
     1
100
AcDbBlockReference
  2
_OPEN30
 10
-189.284938
 20
460.561971
 30
0.0
 41
2.0
 42
2.0
 43
2.0
 50
71.689268
  0
MTEXT
  5
5FD
100
AcDbEntity
  8
0
  6
BYBLOCK
 62
     3
100
AcDbMText
 10
-196.991396
 20
453.289515
 30
0.0
 40
3.0
 41
0.0
 71
     5
 72
     1
  1
\A1;75°
 11
0.793353
 21
0.608761
 31
0.0
  0
POINT
  5
5FE
100
AcDbEntity
  8
DEFPOINTS
  6
BYBLOCK
 62
     0
100
AcDbPoint
 10
-198.692693
 20
449.350245
 30
0.0
  0
POINT
  5
5FF
100
AcDbEntity
  8
DEFPOINTS
  6
BYBLOCK
 62
     0
100
AcDbPoint
 10
-194.53355
 20
461.968333
 30
0.0
  0
POINT
  5
600
100
AcDbEntity
  8
DEFPOINTS
  6
BYBLOCK
 62
     0
100
AcDbPoint
 10
-206.010628
 20
465.043606
 30
0.0
  0
POINT
  5
601
100
AcDbEntity
  8
DEFPOINTS
  6
BYBLOCK
 62
     0
100
AcDbPoint
 10
-206.010628
 20
464.043606
 30
0.0
  0
POINT
  5
602
100
AcDbEntity
  8
DEFPOINTS
  6
BYBLOCK
 62
     0
100
AcDbPoint
 10
-205.420727
 20
464.885543
 30
0.0
  0
ENDBLK
  5
603
100
AcDbEntity
  8
0
100
AcDbBlockEnd
  0
BLOCK
  5
604
100
AcDbEntity
  8
0
100
AcDbBlockBegin
  2
*D10
 70
     1
 10
0.0
 20
0.0
 30
0.0
  3
*D10
  1

  0
LINE
  5
605
100
AcDbEntity
  8
0
  6
BYBLOCK
 62
     1
100
AcDbLine
 10
-35.010628
 20
462.041631
 30
0.0
 11
-15.678897
 21
462.041631
 31
0.0
  0
LINE
  5
606
100
AcDbEntity
  8
0
  6
BYBLOCK
 62
     1
100
AcDbLine
 10
-35.010628
 20
487.041631
 30
0.0
 11
-15.678897
 21
487.041631
 31
0.0
  0
LINE
  5
607
100
AcDbEntity
  8
0
  6
BYBLOCK
 62
     1
100
AcDbLine
 10
-17.678897
 20
464.041631
 30
0.0
 11
-17.678897
 21
485.041631
 31
0.0
  0
INSERT
  5
608
100
AcDbEntity
  8
0
  6
BYBLOCK
 62
     1
100
AcDbBlockReference
  2
_OPEN30
 10
-17.678897
 20
462.041631
 30
0.0
 41
2.0
 42
2.0
 43
2.0
 50
270.0
  0
INSERT
  5
609
100
AcDbEntity
  8
0
  6
BYBLOCK
 62
     1
100
AcDbBlockReference
  2
_OPEN30
 10
-17.678897
 20
487.041631
 30
0.0
 41
2.0
 42
2.0
 43
2.0
 50
90.0
  0
MTEXT
  5
60A
100
AcDbEntity
  8
0
  6
BYBLOCK
 62
     3
100
AcDbMText
 10
-20.178897
 20
474.541631
 30
0.0
 40
3.0
 41
0.0
 71
     5
 72
     1
  1
\A1;25
 11
0.0
 21
1.0
 31
0.0
  0
POINT
  5
60B
100
AcDbEntity
  8
DEFPOINTS
  6
BYBLOCK
 62
     0
100
AcDbPoint
 10
-36.010628
 20
462.041631
 30
0.0
  0
POINT
  5
60C
100
AcDbEntity
  8
DEFPOINTS
  6
BYBLOCK
 62
     0
100
AcDbPoint
 10
-36.010628
 20
487.041631
 30
0.0
  0
POINT
  5
60D
100
AcDbEntity
  8
DEFPOINTS
  6
BYBLOCK
 62
     0
100
AcDbPoint
 10
-17.678897
 20
487.041631
 30
0.0
  0
ENDBLK
  5
60E
100
AcDbEntity
  8
0
100
AcDbBlockEnd
  0
BLOCK
  5
60F
100
AcDbEntity
  8
0
100
AcDbBlockBegin
  2
*D11
 70
     1
 10
0.0
 20
0.0
 30
0.0
  3
*D11
  1

  0
LINE
  5
610
100
AcDbEntity
  8
0
  6
BYBLOCK
 62
     1
100
AcDbLine
 10
-259.97458
 20
401.910013
 30
0.0
 11
-274.991219
 21
405.933709
 31
0.0
  0
LINE
  5
611
100
AcDbEntity
  8
0
  6
BYBLOCK
 62
     1
100
AcDbLine
 10
-260.005567
 20
401.826977
 30
0.0
 11
-275.303646
 21
404.524441
 31
0.0
  0
ARC
  5
612
100
AcDbEntity
  8
0
  6
BYBLOCK
 62
     1
100
AcDbCircle
 10
-259.008655
 20
401.651194
 30
0.0
 40
14.546368
100
AcDbArc
 50
149.194583
 51
165.0
  0
LINE
  5
613
100
AcDbEntity
  8
0
  6
BYBLOCK
 62
     1
100
AcDbLine
 10
-271.502697
 20
409.100739
 30
0.0
 11
-267.09843
 21
416.487378
 31
0.0
  0
ARC
  5
614
100
AcDbEntity
  8
0
  6
BYBLOCK
 62
     1
100
AcDbCircle
 10
-259.008655
 20
401.651194
 30
0.0
 40
14.546368
100
AcDbArc
 50
149.232214
 51
157.116107
  0
ARC
  5
615
100
AcDbEntity
  8
0
  6
BYBLOCK
 62
     1
100
AcDbCircle
 10
-259.008655
 20
401.651194
 30
0.0
 40
14.546368
100
AcDbArc
 50
177.883893
 51
185.767786
  0
ARC
  5
616
100
AcDbEntity
  8
0
  6
BYBLOCK
 62
     1
100
AcDbCircle
 10
-259.008655
 20
401.651194
 30
0.0
 40
14.546368
100
AcDbArc
 50
165.0
 51
170.0
  0
INSERT
  5
617
100
AcDbEntity
  8
0
  6
BYBLOCK
 62
     1
100
AcDbBlockReference
  2
_OPEN30
 10
-273.059367
 20
405.416071
 30
0.0
 41
2.0
 42
2.0
 43
2.0
 50
251.058053
  0
INSERT
  5
618
100
AcDbEntity
  8
0
  6
BYBLOCK
 62
     1
100
AcDbBlockReference
  2
_OPEN30
 10
-273.33403
 20
404.177144
 30
0.0
 41
2.0
 42
2.0
 43
2.0
 50
83.941947
  0
MTEXT
  5
619
100
AcDbEntity
  8
0
  6
BYBLOCK
 62
     3
100
AcDbMText
 10
-271.447842
 20
414.074369
 30
0.0
 40
3.0
 41
0.0
 71
     5
 72
     1
  1
\A1;5°
 11
0.512124
 21
0.858911
 31
0.0
  0
POINT
  5
61A
100
AcDbEntity
  8
DEFPOINTS
  6
BYBLOCK
 62
     0
100
AcDbPoint
 10
-273.254503
 20
404.592725
 30
0.0
  0
POINT
  5
61B
100
AcDbEntity
  8
DEFPOINTS
  6
BYBLOCK
 62
     0
100
AcDbPoint
 10
-232.410903
 20
396.961293
 30
0.0
  0
POINT
  5
61C
100
AcDbEntity
  8
DEFPOINTS
  6
BYBLOCK
 62
     0
100
AcDbPoint
 10
-259.008655
 20
401.651194
 30
0.0
  0
POINT
  5
61D
100
AcDbEntity
  8
DEFPOINTS
  6
BYBLOCK
 62
     0
100
AcDbPoint
 10
-233.020139
 20
394.687592
 30
0.0
  0
POINT
  5
61E
100
AcDbEntity
  8
DEFPOINTS
  6
BYBLOCK
 62
     0
100
AcDbPoint
 10
-259.020759
 20
401.653328
 30
0.0
  0
ENDBLK
  5
61F
100
AcDbEntity
  8
0
100
AcDbBlockEnd
  0
BLOCK
  5
59D
100
AcDbEntity
  8
0
100
AcDbBlockBegin
  2
_OPEN30
 70
     0
 10
0.0
 20
0.0
 30
0.0
  3
_OPEN30
  1

  0
LINE
  5
59E
100
AcDbEntity
  8
0
  6
BYBLOCK
 62
     0
100
AcDbLine
 10
-1.0
 20
0.267949
 30
0.0
 11
0.0
 21
0.0
 31
0.0
  0
LINE
  5
59F
100
AcDbEntity
  8
0
  6
BYBLOCK
 62
     0
100
AcDbLine
 10
0.0
 20
0.0
 30
0.0
 11
-1.0
 21
-0.267949
 31
0.0
  0
LINE
  5
5A0
100
AcDbEntity
  8
0
  6
BYBLOCK
 62
     0
100
AcDbLine
 10
0.0
 20
0.0
 30
0.0
 11
-1.0
 21
0.0
 31
0.0
  0
ENDBLK
  5
5A1
100
AcDbEntity
  8
0
100
AcDbBlockEnd
  0
ENDSEC
  0
SECTION
  2
ENTITIES
  0
TEXT
  5
4D
100
AcDbEntity
  8
外形
  6
CONTINUOUS
 62
     2
100
AcDbText
 10
-191.124021
 20
354.8839
 30
0.0
 40
6.0
  1
ＰＣＢＮ　Ｒ３２２５－５４
100
AcDbText
  0
DIMENSION
  5
1CA
100
AcDbEntity
  8
寸法
  6
CONTINUOUS
100
AcDbDimension
  2
*D2
 10
-206.010628
 20
413.93911
 30
0.0
 11
-188.760628
 21
416.43911
 31
0.0
 70
    32
  3
STANDARD
100
AcDbAlignedDimension
 13
-171.510628
 23
398.603306
 33
0.0
 14
-206.010628
 24
398.603306
 34
0.0
100
AcDbRotatedDimension
1001
ACAD
1000
DSTYLE
1002
{
1070
    40
1040
1.0
1002
}
  0
LINE
  5
1CB
100
AcDbEntity
  8
外形
  6
CONTINUOUS
100
AcDbLine
 10
-206.010628
 20
398.603306
 30
0.0
 11
-172.446543
 21
402.096189
 31
0.0
  0
LINE
  5
1CC
100
AcDbEntity
  8
外形
  6
CONTINUOUS
100
AcDbLine
 10
-204.382472
 20
366.603306
 30
0.0
 11
-36.010628
 21
366.603306
 31
0.0
  0
DIMENSION
  5
1CE
100
AcDbEntity
  8
寸法
  6
CONTINUOUS
100
AcDbDimension
  2
*D3
 10
-215.075938
 20
398.603306
 30
0.0
 11
-217.575938
 21
382.603306
 31
0.0
 70
    32
  3
STANDARD
100
AcDbAlignedDimension
 13
-204.382472
 23
366.603306
 33
0.0
 14
-206.010628
 24
398.603306
 34
0.0
 50
90.0
100
AcDbRotatedDimension
1001
ACAD
1000
DSTYLE
1002
{
1070
    40
1040
1.0
1002
}
  0
LINE
  5
1CF
100
AcDbEntity
  8
外形
  6
CONTINUOUS
100
AcDbLine
 10
-189.977474
 20
389.174144
 30
0.0
 11
-189.977474
 21
366.603306
 31
0.0
  0
LINE
  5
1D0
100
AcDbEntity
  8
外形
  6
CONTINUOUS
100
AcDbLine
 10
-204.382472
 20
387.604943
 30
0.0
 11
-204.382472
 21
366.603306
 31
0.0
  0
LINE
  5
1D1
100
AcDbEntity
  8
外形
  6
CONTINUOUS
100
AcDbLine
 10
-204.807484
 20
387.558645
 30
0.0
 11
-188.901581
 21
389.291345
 31
0.0
  0
LINE
  5
1D2
100
AcDbEntity
  8
外形
  6
CONTINUOUS
100
AcDbLine
 10
-205.322962
 20
392.290651
 30
0.0
 11
-189.417059
 21
394.023352
 31
0.0
  0
LINE
  5
1D3
100
AcDbEntity
  8
外形
  6
CONTINUOUS
100
AcDbLine
 10
-206.010628
 20
398.603306
 30
0.0
 11
-205.322962
 21
392.290651
 31
0.0
  0
LINE
  5
1D4
100
AcDbEntity
  8
外形
  6
CONTINUOUS
100
AcDbLine
 10
-190.104725
 20
400.336007
 30
0.0
 11
-189.417059
 21
394.023352
 31
0.0
  0
LINE
  5
1D5
100
AcDbEntity
  8
外形
  6
CONTINUOUS
100
AcDbLine
 10
-171.510628
 20
398.603306
 30
0.0
 11
-36.010628
 21
398.603306
 31
0.0
  0
LINE
  5
1D6
100
AcDbEntity
  8
外形
  6
CONTINUOUS
100
AcDbLine
 10
-172.446543
 20
402.096189
 30
0.0
 11
-171.510628
 21
398.603306
 31
0.0
  0
LINE
  5
1D7
100
AcDbEntity
  8
外形
  6
CONTINUOUS
100
AcDbLine
 10
-36.010628
 20
398.603306
 30
0.0
 11
-36.010628
 21
366.603306
 31
0.0
  0
DIMENSION
  5
1D8
100
AcDbEntity
  8
寸法
  6
CONTINUOUS
100
AcDbDimension
  2
*D4
 10
-16.842696
 20
366.603306
 30
0.0
 11
-19.342696
 21
382.603306
 31
0.0
 70
    32
  3
STANDARD
100
AcDbAlignedDimension
 13
-36.010628
 23
398.603306
 33
0.0
 14
-36.010628
 24
366.603306
 34
0.0
 50
90.0
100
AcDbRotatedDimension
1001
ACAD
1000
DSTYLE
1002
{
1070
    40
1040
1.0
1002
}
  0
CIRCLE
  5
1D9
100
AcDbEntity
  8
外形
  6
CONTINUOUS
100
AcDbCircle
 10
-182.107074
 20
475.164489
 30
0.0
 40
3.3235
  0
CIRCLE
  5
1DA
100
AcDbEntity
  8
外形
  6
CONTINUOUS
100
AcDbCircle
 10
-182.107074
 20
475.164489
 30
0.0
 40
4.0
  0
LINE
  5
1DB
100
AcDbEntity
  8
外形
  6
CONTINUOUS
100
AcDbLine
 10
-36.010628
 20
462.041631
 30
0.0
 11
-190.360937
 21
462.041631
 31
0.0
  0
LINE
  5
1DC
100
AcDbEntity
  8
外形
  6
CONTINUOUS
100
AcDbLine
 10
-36.010628
 20
487.041631
 30
0.0
 11
-203.115665
 21
487.041631
 31
0.0
  0
DIMENSION
  5
1DD
100
AcDbEntity
  8
寸法
  6
CONTINUOUS
100
AcDbDimension
  2
*D5
 10
-206.010628
 20
442.793784
 30
0.0
 11
-121.010628
 21
445.293784
 31
0.0
 70
    32
  3
STANDARD
100
AcDbAlignedDimension
 13
-36.010628
 23
462.041631
 33
0.0
 14
-206.010628
 24
465.043606
 34
0.0
100
AcDbRotatedDimension
1001
ACAD
1000
DSTYLE
1002
{
1070
    40
1040
1.0
1002
}
  0
LINE
  5
1DE
100
AcDbEntity
  8
外形
  6
CONTINUOUS
100
AcDbLine
 10
-246.084683
 20
485.688512
 30
0.0
 11
-249.137627
 21
469.982477
 31
0.0
  0
LINE
  5
1DF
100
AcDbEntity
  8
外形
  6
CONTINUOUS
100
AcDbLine
 10
-241.412138
 20
484.780261
 30
0.0
 11
-244.465082
 21
469.074226
 31
0.0
  0
LINE
  5
1E0
100
AcDbEntity
  8
外形
  6
CONTINUOUS
100
AcDbLine
 10
-233.980078
 20
489.73554
 30
0.0
 11
-238.231749
 21
467.862589
 31
0.0
  0
DIMENSION
  5
1E1
100
AcDbEntity
  8
寸法
  6
CONTINUOUS
100
AcDbDimension
  2
*D6
 10
-215.075938
 20
465.043606
 30
0.0
 11
-217.575938
 21
476.042619
 31
0.0
 70
    32
  3
STANDARD
100
AcDbAlignedDimension
 13
-202.969418
 23
487.041631
 33
0.0
 14
-206.010628
 24
465.043606
 34
0.0
 50
90.0
100
AcDbRotatedDimension
1001
ACAD
1000
DSTYLE
1002
{
1070
    40
1040
1.0
1002
}
  0
DIMENSION
  5
1E2
100
AcDbEntity
  8
寸法
  6
CONTINUOUS
100
AcDbDimension
  2
*D7
 10
-238.737471
 20
462.082162
 30
0.0
 11
-247.198288
 21
460.173558
 31
0.0
 70
    34
 51
95.0
  3
STANDARD
100
AcDb2LineAngularDimension
 13
-234.939378
 23
484.800369
 33
0.0
 14
-238.231749
 24
467.862589
 34
0.0
 15
-238.231749
 25
467.862589
 35
0.0
 16
-239.877152
 26
454.461862
 36
0.0
1001
ACAD
1000
DSTYLE
1002
{
1070
   271
1070
     2
1070
    40
1040
1.0
1070
    79
1070
     2
1070
   179
1070
     2
1002
}
  0
DIMENSION
  5
1E3
100
AcDbEntity
  8
寸法
  6
CONTINUOUS
100
AcDbDimension
  2
*D8
 10
-205.028275
 20
476.956353
 30
0.0
 11
-218.2077
 21
456.559767
 31
0.0
 70
    34
  3
STANDARD
100
AcDb2LineAngularDimension
 13
-194.53355
 23
461.968333
 33
0.0
 14
-205.420727
 24
464.885543
 34
0.0
 15
-206.010628
 25
465.728008
 35
0.0
 16
-222.508548
 26
459.611854
 36
0.0
1001
ACAD
1000
DSTYLE
1002
{
1070
   271
1070
     2
1070
    40
1040
1.0
1070
    79
1070
     2
1070
   179
1070
     2
1002
}
  0
LINE
  5
1E4
100
AcDbEntity
  8
外形
  6
CONTINUOUS
100
AcDbLine
 10
-238.231749
 20
467.862589
 30
0.0
 11
-244.465082
 21
469.074226
 31
0.0
  0
LINE
  5
1E5
100
AcDbEntity
  8
外形
  6
CONTINUOUS
100
AcDbLine
 10
-249.137627
 20
469.982477
 30
0.0
 11
-268.016375
 21
471.634153
 31
0.0
  0
LINE
  5
1E6
100
AcDbEntity
  8
寸法
  6
CONTINUOUS
100
AcDbLine
 10
-238.231749
 20
467.862589
 30
0.0
 11
-238.824627
 21
461.085968
 31
0.0
  0
DIMENSION
  5
1E7
100
AcDbEntity
  8
寸法
  6
CONTINUOUS
100
AcDbDimension
  2
*D9
 10
-205.420727
 20
464.885543
 30
0.0
 11
-196.991396
 21
453.289515
 31
0.0
 70
    34
  3
STANDARD
100
AcDb2LineAngularDimension
 13
-206.010628
 23
465.043606
 33
0.0
 14
-206.010628
 24
464.043606
 34
0.0
 15
-194.53355
 25
461.968333
 35
0.0
 16
-198.692693
 26
449.350245
 36
0.0
1001
ACAD
1000
DSTYLE
1002
{
1070
   271
1070
     2
1070
    40
1040
1.0
1070
    79
1070
     2
1070
   179
1070
     2
1002
}
  0
LINE
  5
1E8
100
AcDbEntity
  8
外形
  6
CONTINUOUS
100
AcDbLine
 10
-190.095429
 20
477.214151
 30
0.0
 11
-203.31207
 21
480.755539
 31
0.0
  0
LINE
  5
1E9
100
AcDbEntity
  8
外形
  6
CONTINUOUS
100
AcDbLine
 10
-191.909136
 20
461.265123
 30
0.0
 11
-205.125777
 21
464.806511
 31
0.0
  0
LINE
  5
1EA
100
AcDbEntity
  8
外形
  6
CONTINUOUS
100
AcDbLine
 10
-206.010628
 20
466.070209
 30
0.0
 11
-204.818087
 21
479.701015
 31
0.0
  0
ARC
  5
1EB
100
AcDbEntity
  8
外形
  6
CONTINUOUS
100
AcDbCircle
 10
-204.815194
 20
465.965622
 30
0.0
 40
1.2
100
AcDbArc
 50
175.0
 51
255.0
  0
LINE
  5
1EC
100
AcDbEntity
  8
寸法
  6
CONTINUOUS
100
AcDbLine
 10
-206.010628
 20
465.043606
 30
0.0
 11
-206.010628
 21
464.043606
 31
0.0
  0
ARC
  5
1EF
100
AcDbEntity
  8
外形
  6
CONTINUOUS
100
AcDbCircle
 10
-203.622653
 20
479.596428
 30
0.0
 40
1.2
100
AcDbArc
 50
75.0
 51
175.0
  0
LINE
  5
1F0
100
AcDbEntity
  8
外形
  6
CONTINUOUS
100
AcDbLine
 10
-190.403119
 20
462.319647
 30
0.0
 11
-189.076716
 21
477.480509
 31
0.0
  0
CIRCLE
  5
1F1
100
AcDbEntity
  8
外形
  6
CONTINUOUS
100
AcDbCircle
 10
-197.610603
 20
471.010331
 30
0.0
 40
3.175
  0
ARC
  5
1F2
100
AcDbEntity
  8
外形
  6
CONTINUOUS
100
AcDbCircle
 10
-191.598553
 20
462.424234
 30
0.0
 40
1.2
100
AcDbArc
 50
255.0
 51
355.0
  0
ARC
  5
1F3
100
AcDbEntity
  8
外形
  6
CONTINUOUS
100
AcDbCircle
 10
-192.0653
 20
477.741976
 30
0.0
 40
3.0
100
AcDbArc
 50
355.0
 51
165.0
  0
LWPOLYLINE
  5
1F4
100
AcDbEntity
  8
外形
  6
CONTINUOUS
100
AcDbPolyline
 90
        6
 70
     1
 43
0.0
 10
-181.046414
 20
474.103829
 10
-180.658185
 20
475.552718
 10
-181.718846
 20
476.613378
 10
-183.167734
 20
476.225149
 10
-183.555963
 20
474.776261
 10
-182.495303
 20
473.7156
  0
ARC
  5
1F5
100
AcDbEntity
  8
外形
  6
CONTINUOUS
100
AcDbCircle
 10
-190.406012
 20
476.05504
 30
0.0
 40
1.2
100
AcDbArc
 50
355.0
 51
75.0
  0
LINE
  5
1F6
100
AcDbEntity
  8
外形
  6
CONTINUOUS
100
AcDbLine
 10
-233.980078
 20
489.73554
 30
0.0
 11
-266.186195
 21
492.55321
 31
0.0
  0
LINE
  5
1F7
100
AcDbEntity
  8
外形
  6
CONTINUOUS
100
AcDbLine
 10
-235.178805
 20
483.568624
 30
0.0
 11
-241.412138
 21
484.780261
 31
0.0
  0
LINE
  5
1F8
100
AcDbEntity
  8
外形
  6
CONTINUOUS
100
AcDbLine
 10
-172.446543
 20
487.041631
 30
0.0
 11
-171.510628
 21
462.041631
 31
0.0
  0
LINE
  5
1F9
100
AcDbEntity
  8
外形
  6
CONTINUOUS
100
AcDbLine
 10
-171.510628
 20
487.041631
 30
0.0
 11
-171.510628
 21
462.041631
 31
0.0
  0
LINE
  5
1FA
100
AcDbEntity
  8
外形
  6
CONTINUOUS
100
AcDbLine
 10
-36.010628
 20
487.041631
 30
0.0
 11
-36.010628
 21
462.041631
 31
0.0
  0
DIMENSION
  5
1FB
100
AcDbEntity
  8
寸法
  6
CONTINUOUS
100
AcDbDimension
  2
*D10
 10
-17.678897
 20
487.041631
 30
0.0
 11
-20.178897
 21
474.541631
 31
0.0
 70
    32
  3
STANDARD
100
AcDbAlignedDimension
 13
-36.010628
 23
462.041631
 33
0.0
 14
-36.010628
 24
487.041631
 34
0.0
 50
90.0
100
AcDbRotatedDimension
1001
ACAD
1000
DSTYLE
1002
{
1070
    40
1040
1.0
1002
}
  0
LINE
  5
1FD
100
AcDbEntity
  8
寸法
  6
CONTINUOUS
100
AcDbLine
 10
-218.980248
 20
466.178301
 30
0.0
 11
-238.231749
 21
467.862589
 31
0.0
  0
LINE
  5
1FE
100
AcDbEntity
  8
外形
  6
CONTINUOUS
100
AcDbLine
 10
-203.657528
 20
480.848104
 30
0.0
 11
-203.115665
 21
487.041631
 31
0.0
  0
LINE
  5
1FF
100
AcDbEntity
  8
外形
  6
CONTINUOUS
100
AcDbLine
 10
-190.360937
 20
462.041631
 30
0.0
 11
-190.425919
 21
462.059043
 31
0.0
  0
LINE
  5
201
100
AcDbEntity
  8
寸法
  6
CONTINUOUS
100
AcDbLine
 10
-206.010628
 20
465.043606
 30
0.0
 11
-215.300189
 21
430.459195
 31
0.0
  0
LINE
  5
202
100
AcDbEntity
  8
寸法
  6
CONTINUOUS
100
AcDbLine
 10
-251.270668
 20
430.459195
 30
0.0
 11
-215.300189
 21
430.459195
 31
0.0
  0
LINE
  5
203
100
AcDbEntity
  8
寸法
  6
CONTINUOUS
100
AcDbLine
 10
-251.270668
 20
430.459195
 30
0.0
 11
-259.008655
 21
401.651194
 31
0.0
  0
LINE
  5
204
100
AcDbEntity
  8
外形
  6
CONTINUOUS
100
AcDbLine
 10
-232.410903
 20
396.961293
 30
0.0
 11
-239.490893
 21
370.538412
 31
0.0
  0
LINE
  5
205
100
AcDbEntity
  8
外形
  6
CONTINUOUS
100
AcDbLine
 10
-246.194086
 20
388.11025
 30
0.0
 11
-250.138016
 21
373.3913
 31
0.0
  0
DIMENSION
  5
206
100
AcDbEntity
  8
寸法
  6
CONTINUOUS
100
AcDbDimension
  2
*D11
 10
-259.020759
 20
401.653328
 30
0.0
 11
-271.447842
 21
414.074369
 31
0.0
 70
    34
  3
STANDARD
100
AcDb2LineAngularDimension
 13
-259.008655
 23
401.651194
 33
0.0
 14
-233.020139
 24
394.687592
 34
0.0
 15
-232.410903
 25
396.961293
 35
0.0
 16
-273.254503
 26
404.592725
 36
0.0
1001
ACAD
1000
DSTYLE
1002
{
1070
    40
1040
1.0
1002
}
  0
LINE
  5
207
100
AcDbEntity
  8
外形
  6
CONTINUOUS
100
AcDbLine
 10
-232.410903
 20
396.961293
 30
0.0
 11
-259.020759
 21
401.653328
 31
0.0
  0
LINE
  5
20A
100
AcDbEntity
  8
外形
  6
CONTINUOUS
100
AcDbLine
 10
-244.247444
 20
392.600435
 30
0.0
 11
-260.11132
 21
395.397665
 31
0.0
  0
LINE
  5
20B
100
AcDbEntity
  8
外形
  6
CONTINUOUS
100
AcDbLine
 10
-245.086319
 20
387.914921
 30
0.0
 11
-261.107269
 21
390.739847
 31
0.0
  0
LINE
  5
20C
100
AcDbEntity
  8
外形
  6
CONTINUOUS
100
AcDbLine
 10
-259.008655
 20
401.651194
 30
0.0
 11
-260.11132
 21
395.397665
 31
0.0
  0
LINE
  5
20D
100
AcDbEntity
  8
外形
  6
CONTINUOUS
100
AcDbLine
 10
-260.09901
 20
395.395494
 30
0.0
 11
-260.925576
 21
390.707809
 31
0.0
  0
LINE
  5
20E
100
AcDbEntity
  8
外形
  6
CONTINUOUS
100
AcDbLine
 10
-243.144778
 20
398.853965
 30
0.0
 11
-244.247444
 21
392.600435
 31
0.0
  0
LINE
  5
20F
100
AcDbEntity
  8
外形
  6
CONTINUOUS
100
AcDbLine
 10
-244.259754
 20
392.602606
 30
0.0
 11
-245.086319
 21
387.914921
 31
0.0
  0
LINE
  5
211
100
AcDbEntity
  8
外形
  6
CONTINUOUS
100
AcDbLine
 10
-244.462697
 20
469.086497
 30
0.0
 11
-249.135242
 21
469.994747
 31
0.0
  0
LINE
  5
212
100
AcDbEntity
  8
外形
  6
CONTINUOUS
100
AcDbLine
 10
-241.414523
 20
484.767991
 30
0.0
 11
-246.087068
 21
485.676242
 31
0.0
  0
LINE
  5
215
100
AcDbEntity
  8
外形
  6
CONTINUOUS
100
AcDbLine
 10
-239.490893
 20
370.538412
 30
0.0
 11
-264.709606
 21
377.295746
 31
0.0
  0
LINE
  5
216
100
AcDbEntity
  8
外形
  6
CONTINUOUS
100
AcDbLine
 10
-266.186195
 20
492.55321
 30
0.0
 11
-268.016375
 21
471.634153
 31
0.0
  0
LINE
  5
217
100
AcDbEntity
  8
外形
  6
CONTINUOUS
100
AcDbLine
 10
-171.510628
 20
398.603306
 30
0.0
 11
-171.510628
 21
366.603306
 31
0.0
  0
LINE
  5
218
100
AcDbEntity
  8
外形
  6
CONTINUOUS
100
AcDbLine
 10
-172.446543
 20
402.096189
 30
0.0
 11
-172.446543
 21
366.603306
 31
0.0
  0
LINE
  5
219
100
AcDbEntity
  8
外形
  6
CONTINUOUS
100
AcDbLine
 10
-205.310536
 20
392.292005
 30
0.0
 11
-204.795057
 21
387.559999
 31
0.0
  0
LINE
  5
21A
100
AcDbEntity
  8
外形
  6
CONTINUOUS
100
AcDbLine
 10
-189.429486
 20
394.021998
 30
0.0
 11
-188.914007
 21
389.289992
 31
0.0
  0
LINE
  5
21B
100
AcDbEntity
  8
外形
  6
CONTINUOUS
100
AcDbLine
 10
-261.107269
 20
390.739847
 30
0.0
 11
-264.709606
 21
377.295746
 31
0.0
  0
ENDSEC
  0
SECTION
  2
OBJECTS
  0
DICTIONARY
  5
1E
100
AcDbDictionary
  3
ACAD_GROUP
350
1C
  3
ACAD_MLINESTYLE
350
1D
  0
DICTIONARY
  5
35
100
AcDbDictionary
280
     1
  3
ACAD_XREC_ROUNDTRIP
360
36
  0
DICTIONARY
  5
22
100
AcDbDictionary
280
     1
  3
ACAD_XREC_ROUNDTRIP
360
23
  0
DICTIONARY
  5
3
100
AcDbDictionary
280
     1
  3
ACAD_LAYOUTSELFREF
360
4
  0
DICTIONARY
  5
A
100
AcDbDictionary
280
     1
  3
ACAD_LAYOUTSELFREF
360
B
  0
DICTIONARY
  5
1C
102
{ACAD_REACTORS
330
1E
102
}
100
AcDbDictionary
  0
DICTIONARY
  5
1D
102
{ACAD_REACTORS
330
1E
102
}
100
AcDbDictionary
  3
STANDARD
350
20
  0
XRECORD
  5
36
102
{ACAD_REACTORS
330
35
102
}
100
AcDbXrecord
102
PLOTBIT
280
     0
  0
XRECORD
  5
23
102
{ACAD_REACTORS
330
22
102
}
100
AcDbXrecord
102
ACADR14ROUNDTRIP
1000
DSTYLE
1002
{
1070
   341
340
0
1070
   343
340
0
1070
   344
340
0
1002
}
  0
XRECORD
  5
4
102
{ACAD_REACTORS
330
3
102
}
100
AcDbXrecord
340
2
  0
XRECORD
  5
B
102
{ACAD_REACTORS
330
A
102
}
100
AcDbXrecord
340
9
  0
MLINESTYLE
  5
20
102
{ACAD_REACTORS
330
1D
102
}
100
AcDbMlineStyle
  2
STANDARD
 70
     0
  3

 62
     0
 51
90.0
 52
90.0
 71
     2
 49
0.5
 62
   256
  6
BYLAYER
 49
-0.5
 62
   256
  6
BYLAYER
  0
ENDSEC
  0
EOF
