  0
SECTION
  2
HEADER
  9
$ACADVER
  1
AC1014
  9
$ACADMAINTVER
 70
     0
  9
$DWGCODEPAGE
  3
ANSI_932
  9
$INSBASE
 10
451.503639
 20
-138.840623
 30
0.0
  9
$EXTMIN
 10
480.512407
 20
-111.846911
 30
0.0
  9
$EXTMAX
 10
729.551376
 20
44.274304
 30
0.0
  9
$LIMMIN
 10
-587.250952
 20
327.890188
  9
$LIMMAX
 10
600.749048
 20
957.890188
  9
$ORTHOMODE
 70
     1
  9
$REGENMODE
 70
     1
  9
$FILLMODE
 70
     1
  9
$QTEXTMODE
 70
     0
  9
$MIRRTEXT
 70
     1
  9
$DRAGMODE
 70
     2
  9
$LTSCALE
 40
5.0
  9
$OSMODE
 70
   105
  9
$ATTMODE
 70
     1
  9
$TEXTSIZE
 40
4.0
  9
$TRACEWID
 40
0.05
  9
$TEXTSTYLE
  7
STANDARD
  9
$CLAYER
  8
外形
  9
$CELTYPE
  6
CONTINUOUS
  9
$CECOLOR
 62
   256
  9
$CELTSCALE
 40
1.0
  9
$DELOBJ
 70
     1
  9
$DISPSILH
 70
     0
  9
$DIMSCALE
 40
1.0
  9
$DIMASZ
 40
2.5
  9
$DIMEXO
 40
1.0
  9
$DIMDLI
 40
8.0
  9
$DIMRND
 40
0.0
  9
$DIMDLE
 40
0.0
  9
$DIMEXE
 40
1.5
  9
$DIMTP
 40
0.0
  9
$DIMTM
 40
0.0
  9
$DIMTXT
 40
3.0
  9
$DIMCEN
 40
-1.0
  9
$DIMTSZ
 40
0.0
  9
$DIMTOL
 70
     0
  9
$DIMLIM
 70
     0
  9
$DIMTIH
 70
     0
  9
$DIMTOH
 70
     0
  9
$DIMSE1
 70
     0
  9
$DIMSE2
 70
     0
  9
$DIMTAD
 70
     1
  9
$DIMZIN
 70
     8
  9
$DIMBLK
  1

  9
$DIMASO
 70
     1
  9
$DIMSHO
 70
     1
  9
$DIMPOST
  1

  9
$DIMAPOST
  1

  9
$DIMALT
 70
     0
  9
$DIMALTD
 70
     2
  9
$DIMALTF
 40
25.4
  9
$DIMLFAC
 40
1.0
  9
$DIMTOFL
 70
     1
  9
$DIMTVP
 40
0.0
  9
$DIMTIX
 70
     0
  9
$DIMSOXD
 70
     0
  9
$DIMSAH
 70
     1
  9
$DIMBLK1
  1
_OPEN
  9
$DIMBLK2
  1
_OPEN
  9
$DIMSTYLE
  2
STANDARD
  9
$DIMCLRD
 70
     1
  9
$DIMCLRE
 70
     1
  9
$DIMCLRT
 70
     3
  9
$DIMTFAC
 40
1.0
  9
$DIMGAP
 40
1.0
  9
$DIMJUST
 70
     0
  9
$DIMSD1
 70
     0
  9
$DIMSD2
 70
     0
  9
$DIMTOLJ
 70
     1
  9
$DIMTZIN
 70
     8
  9
$DIMALTZ
 70
     0
  9
$DIMALTTZ
 70
     0
  9
$DIMFIT
 70
     3
  9
$DIMUPT
 70
     0
  9
$DIMUNIT
 70
     2
  9
$DIMDEC
 70
     3
  9
$DIMTDEC
 70
     4
  9
$DIMALTU
 70
     2
  9
$DIMALTTD
 70
     2
  9
$DIMTXSTY
  7
STANDARD
  9
$DIMAUNIT
 70
     0
  9
$LUNITS
 70
     2
  9
$LUPREC
 70
     4
  9
$SKETCHINC
 40
0.1
  9
$FILLETRAD
 40
0.8
  9
$AUNITS
 70
     0
  9
$AUPREC
 70
     0
  9
$MENU
  1
acad
  9
$ELEVATION
 40
0.0
  9
$PELEVATION
 40
0.0
  9
$THICKNESS
 40
0.0
  9
$LIMCHECK
 70
     0
  9
$BLIPMODE
 70
     0
  9
$CHAMFERA
 40
0.0
  9
$CHAMFERB
 40
0.0
  9
$CHAMFERC
 40
0.0
  9
$CHAMFERD
 40
0.0
  9
$SKPOLY
 70
     0
  9
$TDCREATE
 40
2450751.535399305
  9
$TDUPDATE
 40
2451928.755173610
  9
$TDINDWG
 40
1.0414366898
  9
$TDUSRTIMER
 40
1.0414366898
  9
$USRTIMER
 70
     1
  9
$ANGBASE
 50
0.0
  9
$ANGDIR
 70
     0
  9
$PDMODE
 70
     0
  9
$PDSIZE
 40
0.0
  9
$PLINEWID
 40
0.0
  9
$COORDS
 70
     1
  9
$SPLFRAME
 70
     0
  9
$SPLINETYPE
 70
     5
  9
$SPLINESEGS
 70
     8
  9
$ATTDIA
 70
     0
  9
$ATTREQ
 70
     1
  9
$HANDLING
 70
     1
  9
$HANDSEED
  5
439
  9
$SURFTAB1
 70
     6
  9
$SURFTAB2
 70
     6
  9
$SURFTYPE
 70
     6
  9
$SURFU
 70
     6
  9
$SURFV
 70
     6
  9
$UCSNAME
  2

  9
$UCSORG
 10
0.0
 20
0.0
 30
0.0
  9
$UCSXDIR
 10
1.0
 20
0.0
 30
0.0
  9
$UCSYDIR
 10
0.0
 20
1.0
 30
0.0
  9
$PUCSNAME
  2

  9
$PUCSORG
 10
0.0
 20
0.0
 30
0.0
  9
$PUCSXDIR
 10
1.0
 20
0.0
 30
0.0
  9
$PUCSYDIR
 10
0.0
 20
1.0
 30
0.0
  9
$USERI1
 70
     0
  9
$USERI2
 70
     0
  9
$USERI3
 70
     0
  9
$USERI4
 70
     0
  9
$USERI5
 70
     0
  9
$USERR1
 40
0.0
  9
$USERR2
 40
0.0
  9
$USERR3
 40
0.0
  9
$USERR4
 40
0.0
  9
$USERR5
 40
0.0
  9
$WORLDVIEW
 70
     1
  9
$SHADEDGE
 70
     3
  9
$SHADEDIF
 70
    70
  9
$TILEMODE
 70
     1
  9
$MAXACTVP
 70
    16
  9
$PINSBASE
 10
0.0
 20
0.0
 30
0.0
  9
$PLIMCHECK
 70
     0
  9
$PEXTMIN
 10
1.000000E+20
 20
1.000000E+20
 30
1.000000E+20
  9
$PEXTMAX
 10
-1.000000E+20
 20
-1.000000E+20
 30
-1.000000E+20
  9
$PLIMMIN
 10
0.0
 20
0.0
  9
$PLIMMAX
 10
12.0
 20
9.0
  9
$UNITMODE
 70
     0
  9
$VISRETAIN
 70
     0
  9
$PLINEGEN
 70
     0
  9
$PSLTSCALE
 70
     1
  9
$TREEDEPTH
 70
  3020
  9
$PICKSTYLE
 70
     1
  9
$CMLSTYLE
  2
STANDARD
  9
$CMLJUST
 70
     0
  9
$CMLSCALE
 40
1.0
  9
$PROXYGRAPHICS
 70
     1
  9
$MEASUREMENT
 70
     0
  0
ENDSEC
  0
SECTION
  2
CLASSES
  0
CLASS
  1
LWPOLYLINE
  2
AcDbPolyline
  3
"AutoCAD"
 90
        0
280
     0
281
     1
  0
ENDSEC
  0
SECTION
  2
TABLES
  0
TABLE
  2
VPORT
  5
12
100
AcDbSymbolTable
 70
     1
  0
VPORT
  5
434
100
AcDbSymbolTableRecord
100
AcDbViewportTableRecord
  2
*ACTIVE
 70
     0
 10
0.0
 20
0.0
 11
1.0
 21
1.0
 12
606.628215
 22
-30.490657
 13
0.0
 23
0.0
 14
0.05
 24
0.05
 15
10.0
 25
10.0
 16
0.0
 26
0.0
 36
1.0
 17
0.0
 27
0.0
 37
0.0
 40
170.707659
 41
1.710425
 42
50.0
 43
0.0
 44
0.0
 50
0.0
 51
0.0
 71
     0
 72
   100
 73
     1
 74
     1
 75
     0
 76
     0
 77
     0
 78
     0
  0
ENDTAB
  0
TABLE
  2
LTYPE
  5
D
100
AcDbSymbolTable
 70
     1
  0
LTYPE
  5
E
100
AcDbSymbolTableRecord
100
AcDbLinetypeTableRecord
  2
BYBLOCK
 70
     0
  3

 72
    65
 73
     0
 40
0.0
  0
LTYPE
  5
F
100
AcDbSymbolTableRecord
100
AcDbLinetypeTableRecord
  2
BYLAYER
 70
     0
  3

 72
    65
 73
     0
 40
0.0
  0
LTYPE
  5
5
100
AcDbSymbolTableRecord
100
AcDbLinetypeTableRecord
  2
CONTINUOUS
 70
     0
  3
Solid line
 72
    65
 73
     0
 40
0.0
  0
ENDTAB
  0
TABLE
  2
LAYER
  5
A
100
AcDbSymbolTable
 70
     4
  0
LAYER
  5
4
100
AcDbSymbolTableRecord
100
AcDbLayerTableRecord
  2
0
 70
     0
 62
     7
  6
CONTINUOUS
  0
LAYER
  5
26
100
AcDbSymbolTableRecord
100
AcDbLayerTableRecord
  2
外形
 70
     0
 62
     3
  6
CONTINUOUS
  0
LAYER
  5
30
100
AcDbSymbolTableRecord
100
AcDbLayerTableRecord
  2
DEFPOINTS
 70
     0
 62
     7
  6
CONTINUOUS
  0
LAYER
  5
1B
100
AcDbSymbolTableRecord
100
AcDbLayerTableRecord
  2
寸法
 70
     0
 62
     1
  6
CONTINUOUS
  0
ENDTAB
  0
TABLE
  2
STYLE
  5
B
100
AcDbSymbolTable
 70
     1
  0
STYLE
  5
C
100
AcDbSymbolTableRecord
100
AcDbTextStyleTableRecord
  2
STANDARD
 70
     0
 40
0.0
 41
1.0
 50
0.0
 71
     0
 42
4.0
  3
MONOTXT
  4
BIGFONT
  0
ENDTAB
  0
TABLE
  2
VIEW
  5
10
100
AcDbSymbolTable
 70
     0
  0
ENDTAB
  0
TABLE
  2
UCS
  5
11
100
AcDbSymbolTable
 70
     0
  0
ENDTAB
  0
TABLE
  2
APPID
  5
14
100
AcDbSymbolTable
 70
     1
  0
APPID
  5
15
100
AcDbSymbolTableRecord
100
AcDbRegAppTableRecord
  2
ACAD
 70
     0
  0
ENDTAB
  0
TABLE
  2
DIMSTYLE
  5
16
100
AcDbSymbolTable
 70
     1
  0
DIMSTYLE
105
1D
102
{ACAD_REACTORS
330
1D7
330
1DB
330
1DE
330
1E1
330
1E8
330
1E9
330
1EA
330
1EC
330
203
330
432
102
}
100
AcDbSymbolTableRecord
100
AcDbDimStyleTableRecord
  2
STANDARD
 70
     0
  3

  4

  5

  6
_OPEN
  7
_OPEN
 40
1.0
 41
2.5
 42
1.0
 43
8.0
 44
1.5
 45
0.0
 46
0.0
 47
0.0
 48
0.0
140
3.0
141
-1.0
142
0.0
143
25.4
144
1.0
145
0.0
146
1.0
147
1.0
 71
     0
 72
     0
 73
     0
 74
     0
 75
     0
 76
     0
 77
     1
 78
     8
170
     0
171
     2
172
     1
173
     1
174
     0
175
     0
176
     1
177
     1
178
     3
270
     2
271
     3
272
     4
273
     2
274
     2
340
C
275
     0
280
     0
281
     0
282
     0
283
     1
284
     8
285
     0
286
     0
287
     3
288
     0
  0
ENDTAB
  0
TABLE
  2
BLOCK_RECORD
  5
1
100
AcDbSymbolTable
 70
    19
  0
BLOCK_RECORD
  5
2
100
AcDbSymbolTableRecord
100
AcDbBlockTableRecord
  2
*MODEL_SPACE
  0
BLOCK_RECORD
  5
7
100
AcDbSymbolTableRecord
100
AcDbBlockTableRecord
  2
*PAPER_SPACE
  0
BLOCK_RECORD
  5
1E
100
AcDbSymbolTableRecord
100
AcDbBlockTableRecord
  2
_DOTSMALL
  0
BLOCK_RECORD
  5
102
100
AcDbSymbolTableRecord
100
AcDbBlockTableRecord
  2
_OPEN
  0
BLOCK_RECORD
  5
15B
100
AcDbSymbolTableRecord
100
AcDbBlockTableRecord
  2
*D8
  0
BLOCK_RECORD
  5
167
100
AcDbSymbolTableRecord
100
AcDbBlockTableRecord
  2
*D9
  0
BLOCK_RECORD
  5
173
100
AcDbSymbolTableRecord
100
AcDbBlockTableRecord
  2
*D10
  0
BLOCK_RECORD
  5
17F
100
AcDbSymbolTableRecord
100
AcDbBlockTableRecord
  2
*D11
  0
BLOCK_RECORD
  5
18B
100
AcDbSymbolTableRecord
100
AcDbBlockTableRecord
  2
*D12
  0
BLOCK_RECORD
  5
19B
100
AcDbSymbolTableRecord
100
AcDbBlockTableRecord
  2
*D13
  0
BLOCK_RECORD
  5
1AD
100
AcDbSymbolTableRecord
100
AcDbBlockTableRecord
  2
*D14
  0
BLOCK_RECORD
  5
1B9
100
AcDbSymbolTableRecord
100
AcDbBlockTableRecord
  2
*D15
  0
BLOCK_RECORD
  5
1C7
100
AcDbSymbolTableRecord
100
AcDbBlockTableRecord
  2
*D16
  0
BLOCK_RECORD
  5
423
100
AcDbSymbolTableRecord
100
AcDbBlockTableRecord
  2
*D18
  0
ENDTAB
  0
ENDSEC
  0
SECTION
  2
BLOCKS
  0
BLOCK
  5
3
100
AcDbEntity
  8
0
100
AcDbBlockBegin
  2
*MODEL_SPACE
 70
     0
 10
0.0
 20
0.0
 30
0.0
  3
*MODEL_SPACE
  1

  0
ENDBLK
  5
6
100
AcDbEntity
  8
0
100
AcDbBlockEnd
  0
BLOCK
  5
8
100
AcDbEntity
 67
     1
  8
0
100
AcDbBlockBegin
  2
*PAPER_SPACE
 70
     0
 10
0.0
 20
0.0
 30
0.0
  3
*PAPER_SPACE
  1

  0
ENDBLK
  5
9
100
AcDbEntity
 67
     1
  8
0
100
AcDbBlockEnd
  0
BLOCK
  5
23
100
AcDbEntity
  8
0
100
AcDbBlockBegin
  2
_DOTSMALL
 70
     0
 10
0.0
 20
0.0
 30
0.0
  3
_DOTSMALL
  1

  0
POLYLINE
  5
1F
100
AcDbEntity
  8
0
  6
BYBLOCK
 62
     0
100
AcDb2dPolyline
 66
     1
 10
0.0
 20
0.0
 30
0.0
 70
     1
 40
0.5
 41
0.5
  0
VERTEX
  5
20
100
AcDbEntity
  8
0
  6
BYBLOCK
 62
     0
100
AcDbVertex
100
AcDb2dVertex
 10
-0.0625
 20
0.0
 30
0.0
 42
1.0
  0
VERTEX
  5
21
100
AcDbEntity
  8
0
  6
BYBLOCK
 62
     0
100
AcDbVertex
100
AcDb2dVertex
 10
0.0625
 20
0.0
 30
0.0
 42
1.0
  0
SEQEND
  5
22
100
AcDbEntity
  8
0
  6
BYBLOCK
 62
     0
  0
ENDBLK
  5
24
100
AcDbEntity
  8
0
100
AcDbBlockEnd
  0
BLOCK
  5
106
100
AcDbEntity
  8
0
100
AcDbBlockBegin
  2
_OPEN
 70
     0
 10
0.0
 20
0.0
 30
0.0
  3
_OPEN
  1

  0
LINE
  5
103
100
AcDbEntity
  8
0
  6
BYBLOCK
 62
     0
100
AcDbLine
 10
-1.0
 20
0.166667
 30
0.0
 11
0.0
 21
0.0
 31
0.0
  0
LINE
  5
104
100
AcDbEntity
  8
0
  6
BYBLOCK
 62
     0
100
AcDbLine
 10
0.0
 20
0.0
 30
0.0
 11
-1.0
 21
-0.166667
 31
0.0
  0
LINE
  5
105
100
AcDbEntity
  8
0
  6
BYBLOCK
 62
     0
100
AcDbLine
 10
0.0
 20
0.0
 30
0.0
 11
-1.0
 21
0.0
 31
0.0
  0
ENDBLK
  5
107
100
AcDbEntity
  8
0
100
AcDbBlockEnd
  0
BLOCK
  5
316
100
AcDbEntity
  8
0
100
AcDbBlockBegin
  2
*D8
 70
     1
 10
0.0
 20
0.0
 30
0.0
  3
*D8
  1

  0
LINE
  5
317
100
AcDbEntity
  8
0
  6
BYBLOCK
 62
     1
100
AcDbLine
 10
539.905606
 20
-48.968162
 30
0.0
 11
528.103803
 21
-48.968162
 31
0.0
  0
LINE
  5
318
100
AcDbEntity
  8
0
  6
BYBLOCK
 62
     1
100
AcDbLine
 10
541.185606
 20
-80.968162
 30
0.0
 11
528.103803
 21
-80.968162
 31
0.0
  0
LINE
  5
319
100
AcDbEntity
  8
0
  6
BYBLOCK
 62
     1
100
AcDbLine
 10
529.603803
 20
-51.468162
 30
0.0
 11
529.603803
 21
-78.468162
 31
0.0
  0
INSERT
  5
31A
100
AcDbEntity
  8
0
  6
BYBLOCK
 62
     1
100
AcDbBlockReference
  2
_OPEN
 10
529.603803
 20
-48.968162
 30
0.0
 41
2.5
 42
2.5
 43
2.5
 50
90.0
  0
INSERT
  5
31B
100
AcDbEntity
  8
0
  6
BYBLOCK
 62
     1
100
AcDbBlockReference
  2
_OPEN
 10
529.603803
 20
-80.968162
 30
0.0
 41
2.5
 42
2.5
 43
2.5
 50
270.0
  0
MTEXT
  5
31C
100
AcDbEntity
  8
0
  6
BYBLOCK
 62
     3
100
AcDbMText
 10
527.103803
 20
-64.968162
 30
0.0
 40
3.0
 41
0.0
 71
     5
 72
     1
  1
\A1;32
 11
0.0
 21
1.0
 31
0.0
  0
POINT
  5
31D
100
AcDbEntity
  8
DEFPOINTS
  6
BYBLOCK
 62
     0
100
AcDbPoint
 10
540.905606
 20
-48.968162
 30
0.0
  0
POINT
  5
31E
100
AcDbEntity
  8
DEFPOINTS
  6
BYBLOCK
 62
     0
100
AcDbPoint
 10
542.185606
 20
-80.968162
 30
0.0
  0
POINT
  5
31F
100
AcDbEntity
  8
DEFPOINTS
  6
BYBLOCK
 62
     0
100
AcDbPoint
 10
529.603803
 20
-80.968162
 30
0.0
  0
ENDBLK
  5
320
100
AcDbEntity
  8
0
100
AcDbBlockEnd
  0
BLOCK
  5
418
100
AcDbEntity
  8
0
100
AcDbBlockBegin
  2
*D9
 70
     1
 10
0.0
 20
0.0
 30
0.0
  3
*D9
  1

  0
LINE
  5
419
100
AcDbEntity
  8
0
  6
BYBLOCK
 62
     1
100
AcDbLine
 10
540.905606
 20
-47.968162
 30
0.0
 11
540.905606
 21
-36.422339
 31
0.0
  0
LINE
  5
41A
100
AcDbEntity
  8
0
  6
BYBLOCK
 62
     1
100
AcDbLine
 10
576.505606
 20
-47.968162
 30
0.0
 11
576.505606
 21
-36.422339
 31
0.0
  0
LINE
  5
41B
100
AcDbEntity
  8
0
  6
BYBLOCK
 62
     1
100
AcDbLine
 10
543.405606
 20
-37.922339
 30
0.0
 11
574.005606
 21
-37.922339
 31
0.0
  0
INSERT
  5
41C
100
AcDbEntity
  8
0
  6
BYBLOCK
 62
     1
100
AcDbBlockReference
  2
_OPEN
 10
540.905606
 20
-37.922339
 30
0.0
 41
2.5
 42
2.5
 43
2.5
 50
180.0
  0
INSERT
  5
41D
100
AcDbEntity
  8
0
  6
BYBLOCK
 62
     1
100
AcDbBlockReference
  2
_OPEN
 10
576.505606
 20
-37.922339
 30
0.0
 41
2.5
 42
2.5
 43
2.5
  0
MTEXT
  5
41E
100
AcDbEntity
  8
0
  6
BYBLOCK
 62
     3
100
AcDbMText
 10
558.705606
 20
-35.422339
 30
0.0
 40
3.0
 41
0.0
 71
     5
 72
     1
  1
\A1;35.6
  0
POINT
  5
41F
100
AcDbEntity
  8
DEFPOINTS
  6
BYBLOCK
 62
     0
100
AcDbPoint
 10
540.905606
 20
-48.968162
 30
0.0
  0
POINT
  5
420
100
AcDbEntity
  8
DEFPOINTS
  6
BYBLOCK
 62
     0
100
AcDbPoint
 10
576.505606
 20
-48.968162
 30
0.0
  0
POINT
  5
421
100
AcDbEntity
  8
DEFPOINTS
  6
BYBLOCK
 62
     0
100
AcDbPoint
 10
576.505606
 20
-37.922339
 30
0.0
  0
ENDBLK
  5
422
100
AcDbEntity
  8
0
100
AcDbBlockEnd
  0
BLOCK
  5
32C
100
AcDbEntity
  8
0
100
AcDbBlockBegin
  2
*D10
 70
     1
 10
0.0
 20
0.0
 30
0.0
  3
*D10
  1

  0
LINE
  5
32D
100
AcDbEntity
  8
0
  6
BYBLOCK
 62
     1
100
AcDbLine
 10
691.905606
 20
-48.968162
 30
0.0
 11
709.551376
 21
-48.968162
 31
0.0
  0
LINE
  5
32E
100
AcDbEntity
  8
0
  6
BYBLOCK
 62
     1
100
AcDbLine
 10
691.905606
 20
-80.968162
 30
0.0
 11
709.551376
 21
-80.968162
 31
0.0
  0
LINE
  5
32F
100
AcDbEntity
  8
0
  6
BYBLOCK
 62
     1
100
AcDbLine
 10
708.051376
 20
-51.468162
 30
0.0
 11
708.051376
 21
-78.468162
 31
0.0
  0
INSERT
  5
330
100
AcDbEntity
  8
0
  6
BYBLOCK
 62
     1
100
AcDbBlockReference
  2
_OPEN
 10
708.051376
 20
-48.968162
 30
0.0
 41
2.5
 42
2.5
 43
2.5
 50
90.0
  0
INSERT
  5
331
100
AcDbEntity
  8
0
  6
BYBLOCK
 62
     1
100
AcDbBlockReference
  2
_OPEN
 10
708.051376
 20
-80.968162
 30
0.0
 41
2.5
 42
2.5
 43
2.5
 50
270.0
  0
MTEXT
  5
332
100
AcDbEntity
  8
0
  6
BYBLOCK
 62
     3
100
AcDbMText
 10
705.551376
 20
-64.968162
 30
0.0
 40
3.0
 41
0.0
 71
     5
 72
     1
  1
\A1;32
 11
0.0
 21
1.0
 31
0.0
  0
POINT
  5
333
100
AcDbEntity
  8
DEFPOINTS
  6
BYBLOCK
 62
     0
100
AcDbPoint
 10
690.905606
 20
-48.968162
 30
0.0
  0
POINT
  5
334
100
AcDbEntity
  8
DEFPOINTS
  6
BYBLOCK
 62
     0
100
AcDbPoint
 10
690.905606
 20
-80.968162
 30
0.0
  0
POINT
  5
335
100
AcDbEntity
  8
DEFPOINTS
  6
BYBLOCK
 62
     0
100
AcDbPoint
 10
708.051376
 20
-80.968162
 30
0.0
  0
ENDBLK
  5
336
100
AcDbEntity
  8
0
100
AcDbBlockEnd
  0
BLOCK
  5
3D8
100
AcDbEntity
  8
0
100
AcDbBlockBegin
  2
*D11
 70
     1
 10
0.0
 20
0.0
 30
0.0
  3
*D11
  1

  0
LINE
  5
3D9
100
AcDbEntity
  8
0
  6
BYBLOCK
 62
     1
100
AcDbLine
 10
540.905606
 20
3.23128
 30
0.0
 11
540.905606
 21
-20.814776
 31
0.0
  0
LINE
  5
3DA
100
AcDbEntity
  8
0
  6
BYBLOCK
 62
     1
100
AcDbLine
 10
710.905606
 20
11.27428
 30
0.0
 11
710.905606
 21
-20.814776
 31
0.0
  0
LINE
  5
3DB
100
AcDbEntity
  8
0
  6
BYBLOCK
 62
     1
100
AcDbLine
 10
543.405606
 20
-19.314776
 30
0.0
 11
708.405606
 21
-19.314776
 31
0.0
  0
INSERT
  5
3DC
100
AcDbEntity
  8
0
  6
BYBLOCK
 62
     1
100
AcDbBlockReference
  2
_OPEN
 10
540.905606
 20
-19.314776
 30
0.0
 41
2.5
 42
2.5
 43
2.5
 50
180.0
  0
INSERT
  5
3DD
100
AcDbEntity
  8
0
  6
BYBLOCK
 62
     1
100
AcDbBlockReference
  2
_OPEN
 10
710.905606
 20
-19.314776
 30
0.0
 41
2.5
 42
2.5
 43
2.5
  0
MTEXT
  5
3DE
100
AcDbEntity
  8
0
  6
BYBLOCK
 62
     3
100
AcDbMText
 10
625.905606
 20
-16.814776
 30
0.0
 40
3.0
 41
0.0
 71
     5
 72
     1
  1
\A1;170
  0
POINT
  5
3DF
100
AcDbEntity
  8
DEFPOINTS
  6
BYBLOCK
 62
     0
100
AcDbPoint
 10
540.905606
 20
4.23128
 30
0.0
  0
POINT
  5
3E0
100
AcDbEntity
  8
DEFPOINTS
  6
BYBLOCK
 62
     0
100
AcDbPoint
 10
710.905606
 20
12.27428
 30
0.0
  0
POINT
  5
3E1
100
AcDbEntity
  8
DEFPOINTS
  6
BYBLOCK
 62
     0
100
AcDbPoint
 10
710.905606
 20
-19.314776
 30
0.0
  0
ENDBLK
  5
3E2
100
AcDbEntity
  8
0
100
AcDbBlockEnd
  0
BLOCK
  5
342
100
AcDbEntity
  8
0
100
AcDbBlockBegin
  2
*D12
 70
     1
 10
0.0
 20
0.0
 30
0.0
  3
*D12
  1

  0
LINE
  5
343
100
AcDbEntity
  8
0
  6
BYBLOCK
 62
     1
100
AcDbLine
 10
539.214166
 20
4.142635
 30
0.0
 11
521.621432
 21
3.220639
 31
0.0
  0
LINE
  5
344
100
AcDbEntity
  8
0
  6
BYBLOCK
 62
     1
100
AcDbLine
 10
539.682876
 20
3.346923
 30
0.0
 11
530.347353
 21
-11.593036
 31
0.0
  0
ARC
  5
345
100
AcDbEntity
  8
0
  6
BYBLOCK
 62
     1
100
AcDbCircle
 10
540.212795
 20
4.194971
 30
0.0
 40
17.116877
100
AcDbArc
 50
166.248455
 51
174.624227
  0
ARC
  5
346
100
AcDbEntity
  8
0
  6
BYBLOCK
 62
     1
100
AcDbCircle
 10
540.212795
 20
4.194971
 30
0.0
 40
17.116877
100
AcDbArc
 50
246.375773
 51
254.751545
  0
ARC
  5
347
100
AcDbEntity
  8
0
  6
BYBLOCK
 62
     1
100
AcDbCircle
 10
540.212795
 20
4.194971
 30
0.0
 40
17.116877
100
AcDbArc
 50
183.0
 51
238.0
  0
INSERT
  5
348
100
AcDbEntity
  8
0
  6
BYBLOCK
 62
     1
100
AcDbBlockReference
  2
_OPEN
 10
523.119376
 20
3.299143
 30
0.0
 41
2.5
 42
2.5
 43
2.5
 50
268.812114
  0
INSERT
  5
349
100
AcDbEntity
  8
0
  6
BYBLOCK
 62
     1
100
AcDbBlockReference
  2
_OPEN
 10
531.142232
 20
-10.320964
 30
0.0
 41
2.5
 42
2.5
 43
2.5
 50
152.187886
  0
MTEXT
  5
34A
100
AcDbEntity
  8
0
  6
BYBLOCK
 62
     3
100
AcDbMText
 10
527.618468
 20
-3.223655
 30
0.0
 40
3.0
 41
0.0
 71
     5
 72
     1
  1
\A1;55°
 11
0.507538
 21
-0.861629
 31
0.0
  0
POINT
  5
34B
100
AcDbEntity
  8
DEFPOINTS
  6
BYBLOCK
 62
     0
100
AcDbPoint
 10
524.268771
 20
-2.032033
 30
0.0
  0
POINT
  5
34C
100
AcDbEntity
  8
DEFPOINTS
  6
BYBLOCK
 62
     0
100
AcDbPoint
 10
548.20789
 20
16.989798
 30
0.0
  0
POINT
  5
34D
100
AcDbEntity
  8
DEFPOINTS
  6
BYBLOCK
 62
     0
100
AcDbPoint
 10
541.725804
 20
4.274265
 30
0.0
  0
POINT
  5
34E
100
AcDbEntity
  8
DEFPOINTS
  6
BYBLOCK
 62
     0
100
AcDbPoint
 10
555.279502
 20
4.984584
 30
0.0
  0
POINT
  5
34F
100
AcDbEntity
  8
DEFPOINTS
  6
BYBLOCK
 62
     0
100
AcDbPoint
 10
541.027168
 20
5.498239
 30
0.0
  0
ENDBLK
  5
350
100
AcDbEntity
  8
0
100
AcDbBlockEnd
  0
BLOCK
  5
351
100
AcDbEntity
  8
0
100
AcDbBlockBegin
  2
*D13
 70
     1
 10
0.0
 20
0.0
 30
0.0
  3
*D13
  1

  0
LINE
  5
352
100
AcDbEntity
  8
0
  6
BYBLOCK
 62
     1
100
AcDbLine
 10
512.425251
 20
3.278109
 30
0.0
 11
511.002946
 21
-12.978909
 31
0.0
  0
LINE
  5
353
100
AcDbEntity
  8
0
  6
BYBLOCK
 62
     1
100
AcDbLine
 10
512.512407
 20
1.250518
 30
0.0
 11
512.512407
 21
-13.044814
 31
0.0
  0
ARC
  5
354
100
AcDbEntity
  8
0
  6
BYBLOCK
 62
     1
100
AcDbCircle
 10
512.512407
 20
4.274304
 30
0.0
 40
15.819117
100
AcDbArc
 50
246.814093
 51
265.0
  0
LINE
  5
355
100
AcDbEntity
  8
0
  6
BYBLOCK
 62
     1
100
AcDbLine
 10
506.28417
 20
-10.267138
 30
0.0
 11
498.378773
 21
-6.881182
 31
0.0
  0
ARC
  5
356
100
AcDbEntity
  8
0
  6
BYBLOCK
 62
     1
100
AcDbCircle
 10
512.512407
 20
4.274304
 30
0.0
 40
15.819117
100
AcDbArc
 50
246.871437
 51
255.935719
  0
ARC
  5
357
100
AcDbEntity
  8
0
  6
BYBLOCK
 62
     1
100
AcDbCircle
 10
512.512407
 20
4.274304
 30
0.0
 40
15.819117
100
AcDbArc
 50
279.064281
 51
288.128563
  0
ARC
  5
358
100
AcDbEntity
  8
0
  6
BYBLOCK
 62
     1
100
AcDbCircle
 10
512.512407
 20
4.274304
 30
0.0
 40
15.819117
100
AcDbArc
 50
265.0
 51
270.0
  0
INSERT
  5
359
100
AcDbEntity
  8
0
  6
BYBLOCK
 62
     1
100
AcDbBlockReference
  2
_OPEN
 10
511.13368
 20
-11.484617
 30
0.0
 41
2.5
 42
2.5
 43
2.5
 50
350.467859
  0
INSERT
  5
35A
100
AcDbEntity
  8
0
  6
BYBLOCK
 62
     1
100
AcDbBlockReference
  2
_OPEN
 10
512.512407
 20
-11.544814
 30
0.0
 41
2.5
 42
2.5
 43
2.5
 50
184.532141
  0
MTEXT
  5
35B
100
AcDbEntity
  8
0
  6
BYBLOCK
 62
     3
100
AcDbMText
 10
503.315761
 20
-6.27608
 30
0.0
 40
3.0
 41
0.0
 71
     5
 72
     1
  1
\A1;5°
 11
0.919232
 21
-0.393716
 31
0.0
  0
POINT
  5
35C
100
AcDbEntity
  8
DEFPOINTS
  6
BYBLOCK
 62
     0
100
AcDbPoint
 10
512.052312
 20
-11.538121
 30
0.0
  0
POINT
  5
35D
100
AcDbEntity
  8
DEFPOINTS
  6
BYBLOCK
 62
     0
100
AcDbPoint
 10
512.512407
 20
4.274304
 30
0.0
  0
POINT
  5
35E
100
AcDbEntity
  8
DEFPOINTS
  6
BYBLOCK
 62
     0
100
AcDbPoint
 10
512.512407
 20
4.274304
 30
0.0
  0
POINT
  5
35F
100
AcDbEntity
  8
DEFPOINTS
  6
BYBLOCK
 62
     0
100
AcDbPoint
 10
514.699624
 20
29.274304
 30
0.0
  0
POINT
  5
360
100
AcDbEntity
  8
DEFPOINTS
  6
BYBLOCK
 62
     0
100
AcDbPoint
 10
512.512407
 20
2.250518
 30
0.0
  0
ENDBLK
  5
361
100
AcDbEntity
  8
0
100
AcDbBlockEnd
  0
BLOCK
  5
362
100
AcDbEntity
  8
0
100
AcDbBlockBegin
  2
*D14
 70
     1
 10
0.0
 20
0.0
 30
0.0
  3
*D14
  1

  0
LINE
  5
363
100
AcDbEntity
  8
0
  6
BYBLOCK
 62
     1
100
AcDbLine
 10
539.905606
 20
4.27428
 30
0.0
 11
527.607874
 21
4.27428
 31
0.0
  0
LINE
  5
364
100
AcDbEntity
  8
0
  6
BYBLOCK
 62
     1
100
AcDbLine
 10
564.912258
 20
44.27428
 30
0.0
 11
527.607874
 21
44.27428
 31
0.0
  0
LINE
  5
365
100
AcDbEntity
  8
0
  6
BYBLOCK
 62
     1
100
AcDbLine
 10
529.107874
 20
6.77428
 30
0.0
 11
529.107874
 21
41.77428
 31
0.0
  0
INSERT
  5
366
100
AcDbEntity
  8
0
  6
BYBLOCK
 62
     1
100
AcDbBlockReference
  2
_OPEN
 10
529.107874
 20
4.27428
 30
0.0
 41
2.5
 42
2.5
 43
2.5
 50
270.0
  0
INSERT
  5
367
100
AcDbEntity
  8
0
  6
BYBLOCK
 62
     1
100
AcDbBlockReference
  2
_OPEN
 10
529.107874
 20
44.27428
 30
0.0
 41
2.5
 42
2.5
 43
2.5
 50
90.0
  0
MTEXT
  5
368
100
AcDbEntity
  8
0
  6
BYBLOCK
 62
     3
100
AcDbMText
 10
526.607874
 20
24.27428
 30
0.0
 40
3.0
 41
0.0
 71
     5
 72
     1
  1
\A1;40
 11
0.0
 21
1.0
 31
0.0
  0
POINT
  5
369
100
AcDbEntity
  8
DEFPOINTS
  6
BYBLOCK
 62
     0
100
AcDbPoint
 10
540.905606
 20
4.27428
 30
0.0
  0
POINT
  5
36A
100
AcDbEntity
  8
DEFPOINTS
  6
BYBLOCK
 62
     0
100
AcDbPoint
 10
565.912258
 20
44.27428
 30
0.0
  0
POINT
  5
36B
100
AcDbEntity
  8
DEFPOINTS
  6
BYBLOCK
 62
     0
100
AcDbPoint
 10
529.107874
 20
44.27428
 30
0.0
  0
ENDBLK
  5
36C
100
AcDbEntity
  8
0
100
AcDbBlockEnd
  0
BLOCK
  5
36D
100
AcDbEntity
  8
0
100
AcDbBlockBegin
  2
*D15
 70
     1
 10
0.0
 20
0.0
 30
0.0
  3
*D15
  1

  0
LINE
  5
36E
100
AcDbEntity
  8
0
  6
BYBLOCK
 62
     1
100
AcDbLine
 10
540.905606
 20
3.23128
 30
0.0
 11
540.905606
 21
-14.157885
 31
0.0
  0
LINE
  5
36F
100
AcDbEntity
  8
0
  6
BYBLOCK
 62
     1
100
AcDbLine
 10
556.278132
 20
5.03692
 30
0.0
 11
559.269569
 21
5.193694
 31
0.0
  0
ARC
  5
370
100
AcDbEntity
  8
0
  6
BYBLOCK
 62
     1
100
AcDbCircle
 10
540.905606
 20
4.23128
 30
0.0
 40
16.889165
100
AcDbArc
 50
278.488907
 51
354.511093
  0
INSERT
  5
371
100
AcDbEntity
  8
0
  6
BYBLOCK
 62
     1
100
AcDbBlockReference
  2
_OPEN
 10
540.905606
 20
-12.657885
 30
0.0
 41
2.5
 42
2.5
 43
2.5
 50
184.244453
  0
INSERT
  5
372
100
AcDbEntity
  8
0
  6
BYBLOCK
 62
     1
100
AcDbBlockReference
  2
_OPEN
 10
557.771625
 20
5.11519
 30
0.0
 41
2.5
 42
2.5
 43
2.5
 50
88.755547
  0
MTEXT
  5
373
100
AcDbEntity
  8
0
  6
BYBLOCK
 62
     3
100
AcDbMText
 10
551.343138
 20
-5.673568
 30
0.0
 40
3.0
 41
0.0
 71
     5
 72
     1
  1
\A1;93°
 11
0.688355
 21
0.725374
 31
0.0
  0
POINT
  5
374
100
AcDbEntity
  8
DEFPOINTS
  6
BYBLOCK
 62
     0
100
AcDbPoint
 10
549.604169
 20
-10.24556
 30
0.0
  0
POINT
  5
375
100
AcDbEntity
  8
DEFPOINTS
  6
BYBLOCK
 62
     0
100
AcDbPoint
 10
541.725804
 20
4.274265
 30
0.0
  0
POINT
  5
376
100
AcDbEntity
  8
DEFPOINTS
  6
BYBLOCK
 62
     0
100
AcDbPoint
 10
540.905606
 20
5.074304
 30
0.0
  0
POINT
  5
377
100
AcDbEntity
  8
DEFPOINTS
  6
BYBLOCK
 62
     0
100
AcDbPoint
 10
540.905606
 20
4.23128
 30
0.0
  0
POINT
  5
378
100
AcDbEntity
  8
DEFPOINTS
  6
BYBLOCK
 62
     0
100
AcDbPoint
 10
555.279502
 20
4.984584
 30
0.0
  0
ENDBLK
  5
379
100
AcDbEntity
  8
0
100
AcDbBlockEnd
  0
BLOCK
  5
37A
100
AcDbEntity
  8
0
100
AcDbBlockBegin
  2
*D16
 70
     1
 10
0.0
 20
0.0
 30
0.0
  3
*D16
  1

  0
LINE
  5
37B
100
AcDbEntity
  8
0
  6
BYBLOCK
 62
     1
100
AcDbLine
 10
691.905606
 20
44.27428
 30
0.0
 11
709.194499
 21
44.27428
 31
0.0
  0
LINE
  5
37C
100
AcDbEntity
  8
0
  6
BYBLOCK
 62
     1
100
AcDbLine
 10
691.905606
 20
12.27428
 30
0.0
 11
709.194499
 21
12.27428
 31
0.0
  0
LINE
  5
37D
100
AcDbEntity
  8
0
  6
BYBLOCK
 62
     1
100
AcDbLine
 10
707.694499
 20
41.77428
 30
0.0
 11
707.694499
 21
14.77428
 31
0.0
  0
INSERT
  5
37E
100
AcDbEntity
  8
0
  6
BYBLOCK
 62
     1
100
AcDbBlockReference
  2
_OPEN
 10
707.694499
 20
44.27428
 30
0.0
 41
2.5
 42
2.5
 43
2.5
 50
90.0
  0
INSERT
  5
37F
100
AcDbEntity
  8
0
  6
BYBLOCK
 62
     1
100
AcDbBlockReference
  2
_OPEN
 10
707.694499
 20
12.27428
 30
0.0
 41
2.5
 42
2.5
 43
2.5
 50
270.0
  0
MTEXT
  5
380
100
AcDbEntity
  8
0
  6
BYBLOCK
 62
     3
100
AcDbMText
 10
705.194499
 20
28.27428
 30
0.0
 40
3.0
 41
0.0
 71
     5
 72
     1
  1
\A1;32
 11
0.0
 21
1.0
 31
0.0
  0
POINT
  5
381
100
AcDbEntity
  8
DEFPOINTS
  6
BYBLOCK
 62
     0
100
AcDbPoint
 10
690.905606
 20
44.27428
 30
0.0
  0
POINT
  5
382
100
AcDbEntity
  8
DEFPOINTS
  6
BYBLOCK
 62
     0
100
AcDbPoint
 10
690.905606
 20
12.27428
 30
0.0
  0
POINT
  5
383
100
AcDbEntity
  8
DEFPOINTS
  6
BYBLOCK
 62
     0
100
AcDbPoint
 10
707.694499
 20
12.27428
 30
0.0
  0
ENDBLK
  5
384
100
AcDbEntity
  8
0
100
AcDbBlockEnd
  0
BLOCK
  5
424
100
AcDbEntity
  8
0
100
AcDbBlockBegin
  2
*D18
 70
     1
 10
0.0
 20
0.0
 30
0.0
  3
*D18
  1

  0
LINE
  5
425
100
AcDbEntity
  8
0
  6
BYBLOCK
 62
     1
100
AcDbLine
 10
576.364218
 20
-44.614392
 30
0.0
 11
596.068247
 21
-42.195041
 31
0.0
  0
ARC
  5
426
100
AcDbEntity
  8
0
  6
BYBLOCK
 62
     1
100
AcDbCircle
 10
540.905606
 20
-48.968162
 30
0.0
 40
54.076902
100
AcDbArc
 50
357.350954
 51
0.0
  0
LINE
  5
427
100
AcDbEntity
  8
0
  6
BYBLOCK
 62
     1
100
AcDbLine
 10
594.92472
 20
-51.467494
 30
0.0
 11
594.527245
 21
-60.058303
 31
0.0
  0
ARC
  5
428
100
AcDbEntity
  8
0
  6
BYBLOCK
 62
     1
100
AcDbCircle
 10
540.905606
 20
-48.968162
 30
0.0
 40
54.076902
100
AcDbArc
 50
2.649046
 51
4.350954
  0
INSERT
  5
429
100
AcDbEntity
  8
0
  6
BYBLOCK
 62
     1
100
AcDbBlockReference
  2
_OPEN
 10
594.982508
 20
-48.968162
 30
0.0
 41
2.5
 42
2.5
 43
2.5
 50
271.324523
  0
INSERT
  5
42A
100
AcDbEntity
  8
0
  6
BYBLOCK
 62
     1
100
AcDbBlockReference
  2
_OPEN
 10
594.579427
 20
-42.377845
 30
0.0
 41
2.5
 42
2.5
 43
2.5
 50
95.675477
  0
MTEXT
  5
42B
100
AcDbEntity
  8
0
  6
BYBLOCK
 62
     3
100
AcDbMText
 10
597.223311
 20
-55.878444
 30
0.0
 40
3.0
 41
0.0
 71
     5
 72
     1
  1
\A1;7°
 11
-0.046218
 21
-0.998931
 31
0.0
  0
POINT
  5
42C
100
AcDbEntity
  8
DEFPOINTS
  6
BYBLOCK
 62
     0
100
AcDbPoint
 10
594.803237
 20
-44.568537
 30
0.0
  0
POINT
  5
42D
100
AcDbEntity
  8
DEFPOINTS
  6
BYBLOCK
 62
     0
100
AcDbPoint
 10
540.905606
 20
-48.968162
 30
0.0
  0
POINT
  5
42E
100
AcDbEntity
  8
DEFPOINTS
  6
BYBLOCK
 62
     0
100
AcDbPoint
 10
710.905606
 20
-48.968162
 30
0.0
  0
POINT
  5
42F
100
AcDbEntity
  8
DEFPOINTS
  6
BYBLOCK
 62
     0
100
AcDbPoint
 10
576.505606
 20
-48.968162
 30
0.0
  0
POINT
  5
430
100
AcDbEntity
  8
DEFPOINTS
  6
BYBLOCK
 62
     0
100
AcDbPoint
 10
575.371672
 20
-44.736261
 30
0.0
  0
ENDBLK
  5
431
100
AcDbEntity
  8
0
100
AcDbBlockEnd
  0
ENDSEC
  0
SECTION
  2
ENTITIES
  0
TEXT
  5
4D
100
AcDbEntity
  8
外形
  6
CONTINUOUS
 62
     2
100
AcDbText
 10
550.63057
 20
-111.846911
 30
0.0
 40
6.0
  1
ＰDJN R3232-44
100
AcDbText
  0
LINE
  5
1D5
100
AcDbEntity
  8
外形
  6
CONTINUOUS
100
AcDbLine
 10
710.905606
 20
-48.968162
 30
0.0
 11
576.505606
 21
-48.968162
 31
0.0
  0
LINE
  5
1D6
100
AcDbEntity
  8
外形
  6
CONTINUOUS
100
AcDbLine
 10
710.905606
 20
-80.968162
 30
0.0
 11
541.492795
 21
-80.968162
 31
0.0
  0
DIMENSION
  5
1D7
100
AcDbEntity
  8
寸法
  6
CONTINUOUS
100
AcDbDimension
  2
*D8
 10
529.603803
 20
-80.968162
 30
0.0
 11
527.103803
 21
-64.968162
 31
0.0
 70
    32
  3
STANDARD
100
AcDbAlignedDimension
 13
540.905606
 23
-48.968162
 33
0.0
 14
542.185606
 24
-80.968162
 34
0.0
 50
90.0
100
AcDbRotatedDimension
1001
ACAD
1000
DSTYLE
1002
{
1070
    40
1040
1.0
1070
   271
1070
     3
1002
}
  0
LINE
  5
1D8
100
AcDbEntity
  8
外形
  6
CONTINUOUS
100
AcDbLine
 10
576.505606
 20
-48.968162
 30
0.0
 11
576.505606
 21
-80.968162
 31
0.0
  0
LINE
  5
1D9
100
AcDbEntity
  8
外形
  6
CONTINUOUS
100
AcDbLine
 10
575.390783
 20
-44.807585
 30
0.0
 11
575.390783
 21
-80.968162
 31
0.0
  0
LINE
  5
1DA
100
AcDbEntity
  8
外形
  6
CONTINUOUS
100
AcDbLine
 10
540.905606
 20
-48.968162
 30
0.0
 11
575.371672
 21
-44.736261
 31
0.0
  0
DIMENSION
  5
1DB
100
AcDbEntity
  8
寸法
  6
CONTINUOUS
100
AcDbDimension
  2
*D9
 10
576.505606
 20
-37.922339
 30
0.0
 11
558.705606
 21
-35.422339
 31
0.0
 70
    32
  3
STANDARD
100
AcDbAlignedDimension
 13
540.905606
 23
-48.968162
 33
0.0
 14
576.505606
 24
-48.968162
 34
0.0
100
AcDbRotatedDimension
1001
ACAD
1000
DSTYLE
1002
{
1070
    40
1040
1.0
1070
   271
1070
     3
1002
}
  0
LINE
  5
1DC
100
AcDbEntity
  8
外形
  6
CONTINUOUS
100
AcDbLine
 10
575.371672
 20
-44.736261
 30
0.0
 11
576.505606
 21
-48.968162
 31
0.0
  0
LINE
  5
1DD
100
AcDbEntity
  8
外形
  6
CONTINUOUS
100
AcDbLine
 10
710.905606
 20
-80.968162
 30
0.0
 11
710.905606
 21
-48.968162
 31
0.0
  0
DIMENSION
  5
1DE
100
AcDbEntity
  8
寸法
  6
CONTINUOUS
100
AcDbDimension
  2
*D10
 10
728.051376
 20
-80.968162
 30
0.0
 11
705.551376
 21
-64.968162
 31
0.0
 12
20.0
 22
0.0
 32
0.0
 70
    32
  3
STANDARD
100
AcDbAlignedDimension
 13
710.905606
 23
-48.968162
 33
0.0
 14
710.905606
 24
-80.968162
 34
0.0
 50
90.0
100
AcDbRotatedDimension
1001
ACAD
1000
DSTYLE
1002
{
1070
    40
1040
1.0
1070
   271
1070
     3
1002
}
  0
DIMENSION
  5
1E1
100
AcDbEntity
  8
寸法
  6
CONTINUOUS
100
AcDbDimension
  2
*D11
 10
710.905606
 20
-19.314776
 30
0.0
 11
625.905606
 21
-16.814776
 31
0.0
 70
    32
  3
STANDARD
100
AcDbAlignedDimension
 13
540.905606
 23
4.23128
 33
0.0
 14
710.905606
 24
12.27428
 34
0.0
100
AcDbRotatedDimension
1001
ACAD
1000
DSTYLE
1002
{
1070
    40
1040
1.0
1070
   271
1070
     3
1002
}
  0
LINE
  5
1E2
100
AcDbEntity
  8
外形
  6
CONTINUOUS
100
AcDbLine
 10
555.916072
 20
5.359552
 30
0.0
 11
563.911167
 21
18.154379
 31
0.0
  0
LINE
  5
1E3
100
AcDbEntity
  8
外形
  6
CONTINUOUS
100
AcDbLine
 10
548.20789
 20
16.989798
 30
0.0
 11
541.027168
 21
5.498239
 31
0.0
  0
LINE
  5
1E4
100
AcDbEntity
  8
外形
  6
CONTINUOUS
100
AcDbLine
 10
576.505606
 20
44.23128
 30
0.0
 11
576.505606
 21
12.23128
 31
0.0
  0
CIRCLE
  5
1E5
100
AcDbEntity
  8
外形
  6
CONTINUOUS
100
AcDbCircle
 10
566.042795
 20
11.907378
 30
0.0
 40
4.0
  0
LINE
  5
1E6
100
AcDbEntity
  8
外形
  6
CONTINUOUS
100
AcDbLine
 10
575.078632
 20
44.23128
 30
0.0
 11
576.505606
 21
12.23128
 31
0.0
  0
LINE
  5
1E7
100
AcDbEntity
  8
外形
  6
CONTINUOUS
100
AcDbLine
 10
512.512407
 20
4.274304
 30
0.0
 11
516.011954
 21
44.274304
 31
0.0
  0
DIMENSION
  5
1E8
100
AcDbEntity
  8
寸法
  6
CONTINUOUS
100
AcDbDimension
  2
*D12
 10
541.027168
 20
5.498239
 30
0.0
 11
527.618468
 21
-3.223655
 31
0.0
 70
    34
  3
STANDARD
100
AcDb2LineAngularDimension
 13
541.725804
 23
4.274265
 33
0.0
 14
555.279502
 24
4.984584
 34
0.0
 15
548.20789
 25
16.989798
 35
0.0
 16
524.268771
 26
-2.032033
 36
0.0
1001
ACAD
1000
DSTYLE
1002
{
1070
    40
1040
1.0
1070
   271
1070
     3
1002
}
  0
DIMENSION
  5
1E9
100
AcDbEntity
  8
寸法
  6
CONTINUOUS
100
AcDbDimension
  2
*D13
 10
512.512407
 20
2.250518
 30
0.0
 11
503.315761
 21
-6.27608
 31
0.0
 70
    34
  3
STANDARD
100
AcDb2LineAngularDimension
 13
512.512407
 23
4.274304
 33
0.0
 14
514.699624
 24
29.274304
 34
0.0
 15
512.512407
 25
4.274304
 35
0.0
 16
512.052312
 26
-11.538121
 36
0.0
1001
ACAD
1000
DSTYLE
1002
{
1070
    40
1040
1.0
1070
   271
1070
     3
1002
}
  0
DIMENSION
  5
1EA
100
AcDbEntity
  8
寸法
  6
CONTINUOUS
100
AcDbDimension
  2
*D14
 10
529.107874
 20
44.27428
 30
0.0
 11
526.607874
 21
24.27428
 31
0.0
 70
    32
  3
STANDARD
100
AcDbAlignedDimension
 13
540.905606
 23
4.27428
 33
0.0
 14
565.912258
 24
44.27428
 34
0.0
 50
90.0
100
AcDbRotatedDimension
1001
ACAD
1000
DSTYLE
1002
{
1070
    40
1040
1.0
1070
   271
1070
     3
1002
}
  0
LINE
  5
1EB
100
AcDbEntity
  8
寸法
  6
CONTINUOUS
100
AcDbLine
 10
512.512407
 20
3.274304
 30
0.0
 11
512.512407
 21
2.250518
 31
0.0
  0
DIMENSION
  5
1EC
100
AcDbEntity
  8
寸法
  6
CONTINUOUS
100
AcDbDimension
  2
*D15
 10
555.279502
 20
4.984584
 30
0.0
 11
551.343138
 21
-5.673568
 31
0.0
 70
    34
  3
STANDARD
100
AcDb2LineAngularDimension
 13
540.905606
 23
5.074304
 33
0.0
 14
540.905606
 24
4.23128
 34
0.0
 15
541.725804
 25
4.274265
 35
0.0
 16
549.604169
 26
-10.24556
 36
0.0
1001
ACAD
1000
DSTYLE
1002
{
1070
    40
1040
1.0
1070
   271
1070
     3
1002
}
  0
LINE
  5
1ED
100
AcDbEntity
  8
外形
  6
CONTINUOUS
100
AcDbLine
 10
556.298074
 20
5.970883
 30
0.0
 11
575.071823
 21
6.923329
 31
0.0
  0
LINE
  5
1EE
100
AcDbEntity
  8
外形
  6
CONTINUOUS
100
AcDbLine
 10
541.725804
 20
4.274265
 30
0.0
 11
555.279502
 21
4.984584
 31
0.0
  0
LINE
  5
1EF
100
AcDbEntity
  8
外形
  6
CONTINUOUS
 62
     2
100
AcDbLine
 10
540.905606
 20
4.23128
 30
0.0
 11
541.725804
 21
4.274265
 31
0.0
  0
LINE
  5
1F0
100
AcDbEntity
  8
外形
  6
CONTINUOUS
 62
     2
100
AcDbLine
 10
540.905606
 20
5.074304
 30
0.0
 11
540.905606
 21
4.23128
 31
0.0
  0
ARC
  5
1F1
100
AcDbEntity
  8
外形
  6
CONTINUOUS
100
AcDbCircle
 10
541.705606
 20
5.074304
 30
0.0
 40
0.8
100
AcDbArc
 50
148.0
 51
273.0
  0
ARC
  5
1F2
100
AcDbEntity
  8
外形
  6
CONTINUOUS
100
AcDbCircle
 10
555.237633
 20
5.783487
 30
0.0
 40
0.8
100
AcDbArc
 50
273.0
 51
328.0
  0
CIRCLE
  5
1F3
100
AcDbEntity
  8
外形
  6
CONTINUOUS
100
AcDbCircle
 10
552.061981
 20
11.174675
 30
0.0
 40
2.58
  0
LINE
  5
1F4
100
AcDbEntity
  8
外形
  6
CONTINUOUS
100
AcDbLine
 10
564.542795
 20
11.041353
 30
0.0
 11
564.542795
 21
12.773404
 31
0.0
  0
LINE
  5
1F5
100
AcDbEntity
  8
外形
  6
CONTINUOUS
100
AcDbLine
 10
567.542795
 20
11.041353
 30
0.0
 11
567.542795
 21
12.773404
 31
0.0
  0
LINE
  5
1F6
100
AcDbEntity
  8
外形
  6
CONTINUOUS
100
AcDbLine
 10
564.542795
 20
11.041353
 30
0.0
 11
566.042795
 21
10.175328
 31
0.0
  0
LINE
  5
1F7
100
AcDbEntity
  8
外形
  6
CONTINUOUS
100
AcDbLine
 10
567.542795
 20
11.041353
 30
0.0
 11
566.042795
 21
10.175328
 31
0.0
  0
CIRCLE
  5
1F8
100
AcDbEntity
  8
外形
  6
CONTINUOUS
100
AcDbCircle
 10
566.042795
 20
11.907378
 30
0.0
 40
3.3235
  0
LINE
  5
1F9
100
AcDbEntity
  8
外形
  6
CONTINUOUS
100
AcDbLine
 10
564.542795
 20
12.773404
 30
0.0
 11
566.042795
 21
13.639429
 31
0.0
  0
LINE
  5
1FA
100
AcDbEntity
  8
外形
  6
CONTINUOUS
100
AcDbLine
 10
566.042795
 20
13.639429
 30
0.0
 11
567.542795
 21
12.773404
 31
0.0
  0
LINE
  5
1FD
100
AcDbEntity
  8
外形
  6
CONTINUOUS
100
AcDbLine
 10
548.84446
 20
17.364766
 30
0.0
 11
562.376487
 21
18.07395
 31
0.0
  0
LINE
  5
1FE
100
AcDbEntity
  8
外形
  6
CONTINUOUS
100
AcDbLine
 10
557.815659
 20
17.834927
 30
0.0
 11
559.670927
 21
20.803975
 31
0.0
  0
ARC
  5
1FF
100
AcDbEntity
  8
外形
  6
CONTINUOUS
100
AcDbCircle
 10
548.886329
 20
16.565863
 30
0.0
 40
0.8
100
AcDbArc
 50
93.0
 51
148.0
  0
ARC
  5
200
100
AcDbEntity
  8
外形
  6
CONTINUOUS
100
AcDbCircle
 10
562.418356
 20
17.275046
 30
0.0
 40
0.8
100
AcDbArc
 50
328.0
 51
93.0
  0
ARC
  5
201
100
AcDbEntity
  8
外形
  6
CONTINUOUS
100
AcDbCircle
 10
561.791047
 20
19.479177
 30
0.0
 40
2.5
100
AcDbArc
 50
328.0
 51
148.0
  0
LINE
  5
202
100
AcDbEntity
  8
外形
  6
CONTINUOUS
100
AcDbLine
 10
710.905606
 20
44.27428
 30
0.0
 11
710.905606
 21
12.23128
 31
0.0
  0
DIMENSION
  5
203
100
AcDbEntity
  8
寸法
  6
CONTINUOUS
100
AcDbDimension
  2
*D16
 10
727.694499
 20
12.27428
 30
0.0
 11
705.194499
 21
28.27428
 31
0.0
 12
20.0
 22
0.0
 32
0.0
 70
    32
  3
STANDARD
100
AcDbAlignedDimension
 13
710.905606
 23
44.27428
 33
0.0
 14
710.905606
 24
12.27428
 34
0.0
 50
90.0
100
AcDbRotatedDimension
1001
ACAD
1000
DSTYLE
1002
{
1070
    40
1040
1.0
1070
   271
1070
     3
1002
}
  0
LINE
  5
204
100
AcDbEntity
  8
外形
  6
CONTINUOUS
100
AcDbLine
 10
556.298074
 20
-47.078204
 30
0.0
 11
557.071944
 21
-53.380872
 31
0.0
  0
LINE
  5
205
100
AcDbEntity
  8
外形
  6
CONTINUOUS
100
AcDbLine
 10
540.905606
 20
-48.968162
 30
0.0
 11
541.679476
 21
-55.27083
 31
0.0
  0
LINE
  5
206
100
AcDbEntity
  8
外形
  6
CONTINUOUS
100
AcDbLine
 10
557.071944
 20
-53.380872
 30
0.0
 11
541.679476
 21
-55.27083
 31
0.0
  0
LINE
  5
207
100
AcDbEntity
  8
外形
  6
CONTINUOUS
100
AcDbLine
 10
512.512407
 20
4.274304
 30
0.0
 11
506.186571
 21
4.827743
 31
0.0
  0
LINE
  5
208
100
AcDbEntity
  8
外形
  6
CONTINUOUS
100
AcDbLine
 10
513.655767
 20
17.342971
 30
0.0
 11
507.329931
 21
17.89641
 31
0.0
  0
LINE
  5
209
100
AcDbEntity
  8
外形
  6
CONTINUOUS
100
AcDbLine
 10
504.159853
 20
18.14866
 30
0.0
 11
503.02085
 21
5.129803
 31
0.0
  0
LINE
  5
20A
100
AcDbEntity
  8
外形
  6
CONTINUOUS
100
AcDbLine
 10
507.329931
 20
17.89641
 30
0.0
 11
506.186571
 21
4.827743
 31
0.0
  0
LINE
  5
20B
100
AcDbEntity
  8
外形
  6
CONTINUOUS
100
AcDbLine
 10
503.026552
 20
5.194971
 30
0.0
 11
480.512407
 21
5.194971
 31
0.0
  0
LINE
  5
20C
100
AcDbEntity
  8
外形
  6
CONTINUOUS
100
AcDbLine
 10
541.492795
 20
-58.497632
 30
0.0
 11
541.492795
 21
-80.968162
 31
0.0
  0
LINE
  5
20E
100
AcDbEntity
  8
外形
  6
CONTINUOUS
100
AcDbLine
 10
507.327752
 20
17.871505
 30
0.0
 11
504.159853
 21
18.14866
 31
0.0
  0
LINE
  5
20F
100
AcDbEntity
  8
外形
  6
CONTINUOUS
100
AcDbLine
 10
506.18875
 20
4.852648
 30
0.0
 11
503.02085
 21
5.129803
 31
0.0
  0
LINE
  5
210
100
AcDbEntity
  8
外形
  6
CONTINUOUS
100
AcDbLine
 10
541.70429
 20
-55.267783
 30
0.0
 11
542.091835
 21
-58.42408
 31
0.0
  0
LINE
  5
211
100
AcDbEntity
  8
外形
  6
CONTINUOUS
100
AcDbLine
 10
557.04713
 20
-53.383919
 30
0.0
 11
557.434675
 21
-56.540216
 31
0.0
  0
LINE
  5
214
100
AcDbEntity
  8
外形
  6
CONTINUOUS
100
AcDbLine
 10
480.512407
 20
5.194971
 30
0.0
 11
480.512407
 21
44.274304
 31
0.0
  0
LINE
  5
21A
100
AcDbEntity
  8
寸法
  6
CONTINUOUS
100
AcDbLine
 10
541.705606
 20
4.274304
 30
0.0
 11
512.512407
 21
4.274304
 31
0.0
  0
LINE
  5
21C
100
AcDbEntity
  8
外形
  6
CONTINUOUS
100
AcDbLine
 10
549.105889
 20
17.378467
 30
0.0
 11
565.912258
 21
44.27428
 31
0.0
  0
LINE
  5
21D
100
AcDbEntity
  8
外形
  6
CONTINUOUS
100
AcDbLine
 10
541.492795
 20
-58.497632
 30
0.0
 11
557.434675
 21
-56.540216
 31
0.0
  0
LINE
  5
2D9
100
AcDbEntity
  8
外形
  6
CONTINUOUS
100
AcDbLine
 10
710.905606
 20
44.27428
 30
0.0
 11
565.912258
 21
44.27428
 31
0.0
  0
LINE
  5
2DA
100
AcDbEntity
  8
外形
  6
CONTINUOUS
100
AcDbLine
 10
516.011954
 20
44.274304
 30
0.0
 11
480.512407
 21
44.274304
 31
0.0
  0
LINE
  5
2F2
100
AcDbEntity
  8
外形
  6
CONTINUOUS
100
AcDbLine
 10
576.505606
 20
12.23128
 30
0.0
 11
575.071823
 21
6.880329
 31
0.0
  0
LINE
  5
30A
100
AcDbEntity
  8
外形
  6
CONTINUOUS
100
AcDbLine
 10
710.905606
 20
12.23128
 30
0.0
 11
576.505606
 21
12.23128
 31
0.0
  0
DIMENSION
  5
432
100
AcDbEntity
  8
寸法
  6
CONTINUOUS
100
AcDbDimension
  2
*D18
 10
575.371672
 20
-44.736261
 30
0.0
 11
597.223311
 21
-55.878444
 31
0.0
 70
    34
  3
STANDARD
100
AcDb2LineAngularDimension
 13
710.905606
 23
-48.968162
 33
0.0
 14
576.505606
 24
-48.968162
 34
0.0
 15
540.905606
 25
-48.968162
 35
0.0
 16
594.803237
 26
-44.568537
 36
0.0
  0
ENDSEC
  0
SECTION
  2
OBJECTS
  0
DICTIONARY
  5
1A
100
AcDbDictionary
  3
ACAD_GROUP
350
18
  3
ACAD_MLINESTYLE
350
19
  0
DICTIONARY
  5
18
102
{ACAD_REACTORS
330
1A
102
}
100
AcDbDictionary
  0
DICTIONARY
  5
19
102
{ACAD_REACTORS
330
1A
102
}
100
AcDbDictionary
  3
STANDARD
350
1C
  0
MLINESTYLE
  5
1C
102
{ACAD_REACTORS
330
19
102
}
100
AcDbMlineStyle
  2
STANDARD
 70
     0
  3

 62
     0
 51
90.0
 52
90.0
 71
     2
 49
0.5
 62
   256
  6
BYLAYER
 49
-0.5
 62
   256
  6
BYLAYER
  0
ENDSEC
  0
EOF
