  0
SECTION
  2
HEADER
  9
$ACADVER
  1
AC1014
  9
$ACADMAINTVER
 70
     0
  9
$DWGCODEPAGE
  3
ANSI_932
  9
$INSBASE
 10
-587.250952
 20
537.890188
 30
0.0
  9
$EXTMIN
 10
-559.432223
 20
565.2839
 30
0.0
  9
$EXTMAX
 10
-297.54234
 20
697.044907
 30
0.0
  9
$LIMMIN
 10
-587.250952
 20
327.890188
  9
$LIMMAX
 10
600.749048
 20
957.890188
  9
$ORTHOMODE
 70
     0
  9
$REGENMODE
 70
     1
  9
$FILLMODE
 70
     1
  9
$QTEXTMODE
 70
     0
  9
$MIRRTEXT
 70
     1
  9
$DRAGMODE
 70
     2
  9
$LTSCALE
 40
5.0
  9
$OSMODE
 70
    39
  9
$ATTMODE
 70
     1
  9
$TEXTSIZE
 40
4.0
  9
$TRACEWID
 40
0.05
  9
$TEXTSTYLE
  7
STANDARD
  9
$CLAYER
  8
外形
  9
$CELTYPE
  6
CONTINUOUS
  9
$CECOLOR
 62
   256
  9
$CELTSCALE
 40
1.0
  9
$DELOBJ
 70
     1
  9
$DISPSILH
 70
     0
  9
$DIMSCALE
 40
1.0
  9
$DIMASZ
 40
2.0
  9
$DIMEXO
 40
1.0
  9
$DIMDLI
 40
8.0
  9
$DIMRND
 40
0.0
  9
$DIMDLE
 40
0.0
  9
$DIMEXE
 40
2.0
  9
$DIMTP
 40
0.0
  9
$DIMTM
 40
0.0
  9
$DIMTXT
 40
3.0
  9
$DIMCEN
 40
-1.0
  9
$DIMTSZ
 40
0.0
  9
$DIMTOL
 70
     0
  9
$DIMLIM
 70
     0
  9
$DIMTIH
 70
     0
  9
$DIMTOH
 70
     0
  9
$DIMSE1
 70
     0
  9
$DIMSE2
 70
     0
  9
$DIMTAD
 70
     1
  9
$DIMZIN
 70
     8
  9
$DIMBLK
  1

  9
$DIMASO
 70
     1
  9
$DIMSHO
 70
     1
  9
$DIMPOST
  1

  9
$DIMAPOST
  1

  9
$DIMALT
 70
     0
  9
$DIMALTD
 70
     2
  9
$DIMALTF
 40
25.4
  9
$DIMLFAC
 40
1.0
  9
$DIMTOFL
 70
     1
  9
$DIMTVP
 40
0.0
  9
$DIMTIX
 70
     0
  9
$DIMSOXD
 70
     0
  9
$DIMSAH
 70
     1
  9
$DIMBLK1
  1
_OPEN30
  9
$DIMBLK2
  1
_OPEN30
  9
$DIMSTYLE
  2
STANDARD
  9
$DIMCLRD
 70
     1
  9
$DIMCLRE
 70
     1
  9
$DIMCLRT
 70
     3
  9
$DIMTFAC
 40
1.0
  9
$DIMGAP
 40
1.0
  9
$DIMJUST
 70
     0
  9
$DIMSD1
 70
     0
  9
$DIMSD2
 70
     0
  9
$DIMTOLJ
 70
     1
  9
$DIMTZIN
 70
     8
  9
$DIMALTZ
 70
     0
  9
$DIMALTTZ
 70
     0
  9
$DIMFIT
 70
     3
  9
$DIMUPT
 70
     0
  9
$DIMUNIT
 70
     2
  9
$DIMDEC
 70
     1
  9
$DIMTDEC
 70
     0
  9
$DIMALTU
 70
     2
  9
$DIMALTTD
 70
     2
  9
$DIMTXSTY
  7
STANDARD
  9
$DIMAUNIT
 70
     0
  9
$LUNITS
 70
     2
  9
$LUPREC
 70
     0
  9
$SKETCHINC
 40
0.1
  9
$FILLETRAD
 40
0.0
  9
$AUNITS
 70
     0
  9
$AUPREC
 70
     0
  9
$MENU
  1
acad
  9
$ELEVATION
 40
0.0
  9
$PELEVATION
 40
0.0
  9
$THICKNESS
 40
0.0
  9
$LIMCHECK
 70
     0
  9
$BLIPMODE
 70
     0
  9
$CHAMFERA
 40
0.0
  9
$CHAMFERB
 40
0.0
  9
$CHAMFERC
 40
0.0
  9
$CHAMFERD
 40
0.0
  9
$SKPOLY
 70
     0
  9
$TDCREATE
 40
2450751.535399305
  9
$TDUPDATE
 40
2451929.356863426
  9
$TDINDWG
 40
1.0024660880
  9
$TDUSRTIMER
 40
1.0024660880
  9
$USRTIMER
 70
     1
  9
$ANGBASE
 50
0.0
  9
$ANGDIR
 70
     0
  9
$PDMODE
 70
     0
  9
$PDSIZE
 40
0.0
  9
$PLINEWID
 40
0.0
  9
$COORDS
 70
     0
  9
$SPLFRAME
 70
     0
  9
$SPLINETYPE
 70
     5
  9
$SPLINESEGS
 70
     8
  9
$ATTDIA
 70
     0
  9
$ATTREQ
 70
     1
  9
$HANDLING
 70
     1
  9
$HANDSEED
  5
5C6
  9
$SURFTAB1
 70
     6
  9
$SURFTAB2
 70
     6
  9
$SURFTYPE
 70
     6
  9
$SURFU
 70
     6
  9
$SURFV
 70
     6
  9
$UCSNAME
  2

  9
$UCSORG
 10
0.0
 20
0.0
 30
0.0
  9
$UCSXDIR
 10
1.0
 20
0.0
 30
0.0
  9
$UCSYDIR
 10
0.0
 20
1.0
 30
0.0
  9
$PUCSNAME
  2

  9
$PUCSORG
 10
0.0
 20
0.0
 30
0.0
  9
$PUCSXDIR
 10
1.0
 20
0.0
 30
0.0
  9
$PUCSYDIR
 10
0.0
 20
1.0
 30
0.0
  9
$USERI1
 70
     0
  9
$USERI2
 70
     0
  9
$USERI3
 70
     0
  9
$USERI4
 70
     0
  9
$USERI5
 70
     0
  9
$USERR1
 40
0.0
  9
$USERR2
 40
0.0
  9
$USERR3
 40
0.0
  9
$USERR4
 40
0.0
  9
$USERR5
 40
0.0
  9
$WORLDVIEW
 70
     1
  9
$SHADEDGE
 70
     3
  9
$SHADEDIF
 70
    70
  9
$TILEMODE
 70
     1
  9
$MAXACTVP
 70
    16
  9
$PINSBASE
 10
0.0
 20
0.0
 30
0.0
  9
$PLIMCHECK
 70
     0
  9
$PEXTMIN
 10
1.000000E+20
 20
1.000000E+20
 30
1.000000E+20
  9
$PEXTMAX
 10
-1.000000E+20
 20
-1.000000E+20
 30
-1.000000E+20
  9
$PLIMMIN
 10
0.0
 20
0.0
  9
$PLIMMAX
 10
12.0
 20
9.0
  9
$UNITMODE
 70
     0
  9
$VISRETAIN
 70
     0
  9
$PLINEGEN
 70
     0
  9
$PSLTSCALE
 70
     1
  9
$TREEDEPTH
 70
  3020
  9
$PICKSTYLE
 70
     1
  9
$CMLSTYLE
  2
STANDARD
  9
$CMLJUST
 70
     0
  9
$CMLSCALE
 40
1.0
  9
$PROXYGRAPHICS
 70
     1
  9
$MEASUREMENT
 70
     0
  0
ENDSEC
  0
SECTION
  2
CLASSES
  0
CLASS
  1
LWPOLYLINE
  2
AcDbPolyline
  3
"AutoCAD"
 90
        0
280
     0
281
     1
  0
CLASS
  1
ACDBDICTIONARYWDFLT
  2
AcDbDictionaryWithDefault
  3
AutoCAD 2000
 90
        0
280
     1
281
     0
  0
CLASS
  1
ACDBPLACEHOLDER
  2
AcDbPlaceHolder
  3
AutoCAD 2000
 90
        0
280
     1
281
     0
  0
CLASS
  1
LAYOUT
  2
AcDbLayout
  3
AutoCAD 2000
 90
        0
280
     1
281
     0
  0
CLASS
  1
LONG_TRANSACTION
  2
AcDbLongTransaction
  3
AutoCAD 2000
 90
        0
280
     1
281
     0
  0
CLASS
  1
LWPOLYLINE
  2
AcDbPolyline
  3
"AutoCAD"
 90
        0
280
     0
281
     1
  0
CLASS
  1
HATCH
  2
AcDbHatch
  3
"ACAD_SEDONA"
 90
        0
280
     0
281
     1
  0
CLASS
  1
XRECORD
  2
AcDbXrecord
  3
"<Built In>"
 90
        0
280
     0
281
     0
  0
ENDSEC
  0
SECTION
  2
TABLES
  0
TABLE
  2
VPORT
  5
16
100
AcDbSymbolTable
 70
     1
  0
VPORT
  5
5C0
100
AcDbSymbolTableRecord
100
AcDbViewportTableRecord
  2
*ACTIVE
 70
     0
 10
0.0
 20
0.0
 11
1.0
 21
1.0
 12
-447.815195
 22
632.719047
 13
0.0
 23
0.0
 14
0.05
 24
0.05
 15
10.0
 25
10.0
 16
0.0
 26
0.0
 36
1.0
 17
0.0
 27
0.0
 37
0.0
 40
147.486165
 41
1.710425
 42
50.0
 43
0.0
 44
0.0
 50
0.0
 51
0.0
 71
     0
 72
   100
 73
     1
 74
     1
 75
     0
 76
     0
 77
     0
 78
     0
  0
ENDTAB
  0
TABLE
  2
LTYPE
  5
11
100
AcDbSymbolTable
 70
     2
  0
LTYPE
  5
12
100
AcDbSymbolTableRecord
100
AcDbLinetypeTableRecord
  2
BYBLOCK
 70
     0
  3

 72
    65
 73
     0
 40
0.0
  0
LTYPE
  5
13
100
AcDbSymbolTableRecord
100
AcDbLinetypeTableRecord
  2
BYLAYER
 70
     0
  3

 72
    65
 73
     0
 40
0.0
  0
LTYPE
  5
7
100
AcDbSymbolTableRecord
100
AcDbLinetypeTableRecord
  2
CONTINUOUS
 70
     0
  3
Solid line
 72
    65
 73
     0
 40
0.0
  0
LTYPE
  5
381
100
AcDbSymbolTableRecord
100
AcDbLinetypeTableRecord
  2
CENTER
 70
     0
  3
Center ____ _ ____ _ ____ _ ____ _ ____ _ ____
 72
    65
 73
     4
 40
2.0
 49
1.25
 74
     0
 49
-0.25
 74
     0
 49
0.25
 74
     0
 49
-0.25
 74
     0
  0
ENDTAB
  0
TABLE
  2
LAYER
  5
E
100
AcDbSymbolTable
 70
     4
  0
LAYER
  5
6
100
AcDbSymbolTableRecord
100
AcDbLayerTableRecord
  2
0
 70
     0
 62
     7
  6
CONTINUOUS
  0
LAYER
  5
31
100
AcDbSymbolTableRecord
100
AcDbLayerTableRecord
  2
外形
 70
     0
 62
     3
  6
CONTINUOUS
  0
LAYER
  5
2B
102
{ACAD_XDICTIONARY
360
2C
102
}
100
AcDbSymbolTableRecord
100
AcDbLayerTableRecord
  2
DEFPOINTS
 70
     0
 62
     7
  6
CONTINUOUS
  0
LAYER
  5
1F
100
AcDbSymbolTableRecord
100
AcDbLayerTableRecord
  2
寸法
 70
     0
 62
     1
  6
CONTINUOUS
  0
ENDTAB
  0
TABLE
  2
STYLE
  5
F
100
AcDbSymbolTable
 70
     2
  0
STYLE
  5
10
100
AcDbSymbolTableRecord
100
AcDbTextStyleTableRecord
  2
STANDARD
 70
     0
 40
0.0
 41
1.0
 50
0.0
 71
     0
 42
4.0
  3
MONOTXT
  4
BIGFONT
  0
STYLE
  5
380
100
AcDbSymbolTableRecord
100
AcDbTextStyleTableRecord
  2

 70
     1
 40
0.0
 41
1.0
 50
0.0
 71
     0
 42
4.0
  3
ltypeshp.shx
  4

  0
ENDTAB
  0
TABLE
  2
VIEW
  5
14
100
AcDbSymbolTable
 70
     0
  0
ENDTAB
  0
TABLE
  2
UCS
  5
15
100
AcDbSymbolTable
 70
     0
  0
ENDTAB
  0
TABLE
  2
APPID
  5
18
100
AcDbSymbolTable
 70
     1
  0
APPID
  5
19
100
AcDbSymbolTableRecord
100
AcDbRegAppTableRecord
  2
ACAD
 70
     0
  0
ENDTAB
  0
TABLE
  2
DIMSTYLE
  5
1A
100
AcDbSymbolTable
 70
     1
  0
DIMSTYLE
105
21
102
{ACAD_XDICTIONARY
360
22
102
}
102
{ACAD_REACTORS
330
33
330
9D
330
AB
330
58
330
6D
330
81
330
4B
102
}
100
AcDbSymbolTableRecord
100
AcDbDimStyleTableRecord
  2
STANDARD
 70
     0
  3

  4

  5

  6
_OPEN30
  7
_OPEN30
 40
1.0
 41
2.0
 42
1.0
 43
8.0
 44
2.0
 45
0.0
 46
0.0
 47
0.0
 48
0.0
140
3.0
141
-1.0
142
0.0
143
25.4
144
1.0
145
0.0
146
1.0
147
1.0
 71
     0
 72
     0
 73
     0
 74
     0
 75
     0
 76
     0
 77
     1
 78
     8
170
     0
171
     2
172
     1
173
     1
174
     0
175
     0
176
     1
177
     1
178
     3
270
     2
271
     1
272
     0
273
     2
274
     2
340
10
275
     0
280
     0
281
     0
282
     0
283
     1
284
     8
285
     0
286
     0
287
     3
288
     0
  0
ENDTAB
  0
TABLE
  2
BLOCK_RECORD
  5
1
100
AcDbSymbolTable
 70
    17
  0
BLOCK_RECORD
  5
2
102
{ACAD_XDICTIONARY
360
3
102
}
100
AcDbSymbolTableRecord
100
AcDbBlockTableRecord
  2
*MODEL_SPACE
  0
BLOCK_RECORD
  5
9
102
{ACAD_XDICTIONARY
360
A
102
}
100
AcDbSymbolTableRecord
100
AcDbBlockTableRecord
  2
*PAPER_SPACE
  0
BLOCK_RECORD
  5
24
100
AcDbSymbolTableRecord
100
AcDbBlockTableRecord
  2
_OPEN30
  0
BLOCK_RECORD
  5
127
100
AcDbSymbolTableRecord
100
AcDbBlockTableRecord
  2
*D1
  0
BLOCK_RECORD
  5
2DD
100
AcDbSymbolTableRecord
100
AcDbBlockTableRecord
  2
_DOTSMALL
  0
BLOCK_RECORD
  5
2E4
100
AcDbSymbolTableRecord
100
AcDbBlockTableRecord
  2
*D8
  0
BLOCK_RECORD
  5
2F0
100
AcDbSymbolTableRecord
100
AcDbBlockTableRecord
  2
*D9
  0
BLOCK_RECORD
  5
2FC
100
AcDbSymbolTableRecord
100
AcDbBlockTableRecord
  2
*D10
  0
BLOCK_RECORD
  5
313
100
AcDbSymbolTableRecord
100
AcDbBlockTableRecord
  2
*D11
  0
BLOCK_RECORD
  5
31F
100
AcDbSymbolTableRecord
100
AcDbBlockTableRecord
  2
*D12
  0
BLOCK_RECORD
  5
32B
100
AcDbSymbolTableRecord
100
AcDbBlockTableRecord
  2
*D13
  0
ENDTAB
  0
ENDSEC
  0
SECTION
  2
BLOCKS
  0
BLOCK
  5
5
100
AcDbEntity
  8
0
100
AcDbBlockBegin
  2
*MODEL_SPACE
 70
     0
 10
0.0
 20
0.0
 30
0.0
  3
*MODEL_SPACE
  1

  0
ENDBLK
  5
8
100
AcDbEntity
  8
0
100
AcDbBlockEnd
  0
BLOCK
  5
C
100
AcDbEntity
 67
     1
  8
0
100
AcDbBlockBegin
  2
*PAPER_SPACE
 70
     0
 10
0.0
 20
0.0
 30
0.0
  3
*PAPER_SPACE
  1

  0
ENDBLK
  5
D
100
AcDbEntity
 67
     1
  8
0
100
AcDbBlockEnd
  0
BLOCK
  5
28
100
AcDbEntity
  8
0
100
AcDbBlockBegin
  2
_OPEN30
 70
     0
 10
0.0
 20
0.0
 30
0.0
  3
_OPEN30
  1

  0
LINE
  5
25
100
AcDbEntity
  8
0
  6
BYBLOCK
 62
     0
100
AcDbLine
 10
-1.0
 20
0.267949
 30
0.0
 11
0.0
 21
0.0
 31
0.0
  0
LINE
  5
26
100
AcDbEntity
  8
0
  6
BYBLOCK
 62
     0
100
AcDbLine
 10
0.0
 20
0.0
 30
0.0
 11
-1.0
 21
-0.267949
 31
0.0
  0
LINE
  5
27
100
AcDbEntity
  8
0
  6
BYBLOCK
 62
     0
100
AcDbLine
 10
0.0
 20
0.0
 30
0.0
 11
-1.0
 21
0.0
 31
0.0
  0
ENDBLK
  5
29
100
AcDbEntity
  8
0
100
AcDbBlockEnd
  0
BLOCK
  5
53B
100
AcDbEntity
  8
0
100
AcDbBlockBegin
  2
*D1
 70
     1
 10
0.0
 20
0.0
 30
0.0
  3
*D1
  1

  0
LINE
  5
53C
100
AcDbEntity
  8
0
  6
BYBLOCK
 62
     1
100
AcDbLine
 10
-509.125349
 20
586.096404
 30
0.0
 11
-528.190789
 21
586.096404
 31
0.0
  0
LINE
  5
53D
100
AcDbEntity
  8
0
  6
BYBLOCK
 62
     1
100
AcDbLine
 10
-510.325349
 20
611.096404
 30
0.0
 11
-528.190789
 21
611.096404
 31
0.0
  0
LINE
  5
53E
100
AcDbEntity
  8
0
  6
BYBLOCK
 62
     1
100
AcDbLine
 10
-525.990789
 20
588.296404
 30
0.0
 11
-525.990789
 21
608.896404
 31
0.0
  0
INSERT
  5
53F
100
AcDbEntity
  8
0
  6
BYBLOCK
 62
     1
100
AcDbBlockReference
  2
_OPEN30
 10
-525.990789
 20
586.096404
 30
0.0
 41
2.2
 42
2.2
 43
2.2
 50
270.0
  0
INSERT
  5
540
100
AcDbEntity
  8
0
  6
BYBLOCK
 62
     1
100
AcDbBlockReference
  2
_OPEN30
 10
-525.990789
 20
611.096404
 30
0.0
 41
2.2
 42
2.2
 43
2.2
 50
90.0
  0
MTEXT
  5
541
100
AcDbEntity
  8
0
  6
BYBLOCK
 62
     3
100
AcDbMText
 10
-528.740789
 20
598.210057
 30
0.0
 40
3.3
 41
0.0
 71
     5
 72
     1
  1
\A1;25
 11
0.0
 21
1.0
 31
0.0
  0
POINT
  5
542
100
AcDbEntity
  8
DEFPOINTS
  6
BYBLOCK
 62
     0
100
AcDbPoint
 10
-508.025349
 20
586.096404
 30
0.0
  0
POINT
  5
543
100
AcDbEntity
  8
DEFPOINTS
  6
BYBLOCK
 62
     0
100
AcDbPoint
 10
-509.225349
 20
611.096404
 30
0.0
  0
POINT
  5
544
100
AcDbEntity
  8
DEFPOINTS
  6
BYBLOCK
 62
     0
100
AcDbPoint
 10
-525.990789
 20
611.096404
 30
0.0
  0
ENDBLK
  5
545
100
AcDbEntity
  8
0
100
AcDbBlockEnd
  0
BLOCK
  5
2DE
100
AcDbEntity
  8
0
100
AcDbBlockBegin
  2
_DOTSMALL
 70
     0
 10
0.0
 20
0.0
 30
0.0
  3
_DOTSMALL
  1

  0
POLYLINE
  5
2DF
100
AcDbEntity
  8
0
  6
BYBLOCK
 62
     0
100
AcDb2dPolyline
 66
     1
 10
0.0
 20
0.0
 30
0.0
 70
     1
 40
0.5
 41
0.5
  0
VERTEX
  5
2E0
100
AcDbEntity
  8
0
  6
BYBLOCK
 62
     0
100
AcDbVertex
100
AcDb2dVertex
 10
-0.0625
 20
0.0
 30
0.0
 42
1.0
  0
VERTEX
  5
2E1
100
AcDbEntity
  8
0
  6
BYBLOCK
 62
     0
100
AcDbVertex
100
AcDb2dVertex
 10
0.0625
 20
0.0
 30
0.0
 42
1.0
  0
SEQEND
  5
2E2
100
AcDbEntity
  8
0
  6
BYBLOCK
 62
     0
  0
ENDBLK
  5
2E3
100
AcDbEntity
  8
0
100
AcDbBlockEnd
  0
BLOCK
  5
51A
100
AcDbEntity
  8
0
100
AcDbBlockBegin
  2
*D8
 70
     1
 10
0.0
 20
0.0
 30
0.0
  3
*D8
  1

  0
LINE
  5
51B
100
AcDbEntity
  8
0
  6
BYBLOCK
 62
     1
100
AcDbLine
 10
-509.056221
 20
683.434729
 30
0.0
 11
-509.056221
 21
651.054589
 31
0.0
  0
LINE
  5
51C
100
AcDbEntity
  8
0
  6
BYBLOCK
 62
     1
100
AcDbLine
 10
-359.056221
 20
670.934729
 30
0.0
 11
-359.056221
 21
651.054589
 31
0.0
  0
LINE
  5
51D
100
AcDbEntity
  8
0
  6
BYBLOCK
 62
     1
100
AcDbLine
 10
-506.856221
 20
653.254589
 30
0.0
 11
-361.256221
 21
653.254589
 31
0.0
  0
INSERT
  5
51E
100
AcDbEntity
  8
0
  6
BYBLOCK
 62
     1
100
AcDbBlockReference
  2
_OPEN30
 10
-509.056221
 20
653.254589
 30
0.0
 41
2.2
 42
2.2
 43
2.2
 50
180.0
  0
INSERT
  5
51F
100
AcDbEntity
  8
0
  6
BYBLOCK
 62
     1
100
AcDbBlockReference
  2
_OPEN30
 10
-359.056221
 20
653.254589
 30
0.0
 41
2.2
 42
2.2
 43
2.2
  0
MTEXT
  5
520
100
AcDbEntity
  8
0
  6
BYBLOCK
 62
     3
100
AcDbMText
 10
-434.056221
 20
656.004589
 30
0.0
 40
3.3
 41
0.0
 71
     5
 72
     1
  1
\A1;150
  0
POINT
  5
521
100
AcDbEntity
  8
DEFPOINTS
  6
BYBLOCK
 62
     0
100
AcDbPoint
 10
-509.056221
 20
684.534729
 30
0.0
  0
POINT
  5
522
100
AcDbEntity
  8
DEFPOINTS
  6
BYBLOCK
 62
     0
100
AcDbPoint
 10
-359.056221
 20
672.034729
 30
0.0
  0
POINT
  5
523
100
AcDbEntity
  8
DEFPOINTS
  6
BYBLOCK
 62
     0
100
AcDbPoint
 10
-359.056221
 20
653.254589
 30
0.0
  0
ENDBLK
  5
524
100
AcDbEntity
  8
0
100
AcDbBlockEnd
  0
BLOCK
  5
525
100
AcDbEntity
  8
0
100
AcDbBlockBegin
  2
*D9
 70
     1
 10
0.0
 20
0.0
 30
0.0
  3
*D9
  1

  0
LINE
  5
526
100
AcDbEntity
  8
0
  6
BYBLOCK
 62
     1
100
AcDbLine
 10
-504.156221
 20
678.534729
 30
0.0
 11
-524.3604
 21
678.534729
 31
0.0
  0
LINE
  5
527
100
AcDbEntity
  8
0
  6
BYBLOCK
 62
     1
100
AcDbLine
 10
-463.916516
 20
696.99384
 30
0.0
 11
-524.3604
 21
696.99384
 31
0.0
  0
LINE
  5
528
100
AcDbEntity
  8
0
  6
BYBLOCK
 62
     1
100
AcDbLine
 10
-522.1604
 20
680.734729
 30
0.0
 11
-522.1604
 21
694.79384
 31
0.0
  0
INSERT
  5
529
100
AcDbEntity
  8
0
  6
BYBLOCK
 62
     1
100
AcDbBlockReference
  2
_OPEN30
 10
-522.1604
 20
678.534729
 30
0.0
 41
2.2
 42
2.2
 43
2.2
 50
270.0
  0
INSERT
  5
52A
100
AcDbEntity
  8
0
  6
BYBLOCK
 62
     1
100
AcDbBlockReference
  2
_OPEN30
 10
-522.1604
 20
696.99384
 30
0.0
 41
2.2
 42
2.2
 43
2.2
 50
90.0
  0
MTEXT
  5
52B
100
AcDbEntity
  8
0
  6
BYBLOCK
 62
     3
100
AcDbMText
 10
-524.9104
 20
687.764284
 30
0.0
 40
3.3
 41
0.0
 71
     5
 72
     1
  1
\A1;18.5
 11
0.0
 21
1.0
 31
0.0
  0
POINT
  5
52C
100
AcDbEntity
  8
DEFPOINTS
  6
BYBLOCK
 62
     0
100
AcDbPoint
 10
-503.056221
 20
678.534729
 30
0.0
  0
POINT
  5
52D
100
AcDbEntity
  8
DEFPOINTS
  6
BYBLOCK
 62
     0
100
AcDbPoint
 10
-462.816516
 20
696.99384
 30
0.0
  0
POINT
  5
52E
100
AcDbEntity
  8
DEFPOINTS
  6
BYBLOCK
 62
     0
100
AcDbPoint
 10
-522.1604
 20
696.99384
 30
0.0
  0
ENDBLK
  5
52F
100
AcDbEntity
  8
0
100
AcDbBlockEnd
  0
BLOCK
  5
530
100
AcDbEntity
  8
0
100
AcDbBlockBegin
  2
*D10
 70
     1
 10
0.0
 20
0.0
 30
0.0
  3
*D10
  1

  0
LINE
  5
531
100
AcDbEntity
  8
0
  6
BYBLOCK
 62
     1
100
AcDbLine
 10
-483.956221
 20
679.734729
 30
0.0
 11
-459.851221
 21
679.734729
 31
0.0
  0
LINE
  5
532
100
AcDbEntity
  8
0
  6
BYBLOCK
 62
     1
100
AcDbLine
 10
-483.956221
 20
689.334729
 30
0.0
 11
-459.851221
 21
689.334729
 31
0.0
  0
LINE
  5
533
100
AcDbEntity
  8
0
  6
BYBLOCK
 62
     1
100
AcDbLine
 10
-462.051221
 20
681.934729
 30
0.0
 11
-462.051221
 21
687.134729
 31
0.0
  0
INSERT
  5
534
100
AcDbEntity
  8
0
  6
BYBLOCK
 62
     1
100
AcDbBlockReference
  2
_OPEN30
 10
-462.051221
 20
679.734729
 30
0.0
 41
2.2
 42
2.2
 43
2.2
 50
270.0
  0
INSERT
  5
535
100
AcDbEntity
  8
0
  6
BYBLOCK
 62
     1
100
AcDbBlockReference
  2
_OPEN30
 10
-462.051221
 20
689.334729
 30
0.0
 41
2.2
 42
2.2
 43
2.2
 50
90.0
  0
MTEXT
  5
536
100
AcDbEntity
  8
0
  6
BYBLOCK
 62
     3
100
AcDbMText
 10
-464.801221
 20
684.534729
 30
0.0
 40
3.3
 41
0.0
 71
     5
 72
     1
  1
\A1;9.6
 11
0.0
 21
1.0
 31
0.0
  0
POINT
  5
537
100
AcDbEntity
  8
DEFPOINTS
  6
BYBLOCK
 62
     0
100
AcDbPoint
 10
-485.056221
 20
679.734729
 30
0.0
  0
POINT
  5
538
100
AcDbEntity
  8
DEFPOINTS
  6
BYBLOCK
 62
     0
100
AcDbPoint
 10
-485.056221
 20
689.334729
 30
0.0
  0
POINT
  5
539
100
AcDbEntity
  8
DEFPOINTS
  6
BYBLOCK
 62
     0
100
AcDbPoint
 10
-462.051221
 20
689.334729
 30
0.0
  0
ENDBLK
  5
53A
100
AcDbEntity
  8
0
100
AcDbBlockEnd
  0
BLOCK
  5
546
100
AcDbEntity
  8
0
100
AcDbBlockBegin
  2
*D11
 70
     1
 10
0.0
 20
0.0
 30
0.0
  3
*D11
  1

  0
LINE
  5
547
100
AcDbEntity
  8
0
  6
BYBLOCK
 62
     1
100
AcDbLine
 10
-509.056221
 20
683.434729
 30
0.0
 11
-509.056221
 21
661.495565
 31
0.0
  0
LINE
  5
548
100
AcDbEntity
  8
0
  6
BYBLOCK
 62
     1
100
AcDbLine
 10
-485.056221
 20
678.634729
 30
0.0
 11
-485.056221
 21
661.495565
 31
0.0
  0
LINE
  5
549
100
AcDbEntity
  8
0
  6
BYBLOCK
 62
     1
100
AcDbLine
 10
-506.856221
 20
663.695565
 30
0.0
 11
-487.256221
 21
663.695565
 31
0.0
  0
INSERT
  5
54A
100
AcDbEntity
  8
0
  6
BYBLOCK
 62
     1
100
AcDbBlockReference
  2
_OPEN30
 10
-509.056221
 20
663.695565
 30
0.0
 41
2.2
 42
2.2
 43
2.2
 50
180.0
  0
INSERT
  5
54B
100
AcDbEntity
  8
0
  6
BYBLOCK
 62
     1
100
AcDbBlockReference
  2
_OPEN30
 10
-485.056221
 20
663.695565
 30
0.0
 41
2.2
 42
2.2
 43
2.2
  0
MTEXT
  5
54C
100
AcDbEntity
  8
0
  6
BYBLOCK
 62
     3
100
AcDbMText
 10
-497.056221
 20
666.445565
 30
0.0
 40
3.3
 41
0.0
 71
     5
 72
     1
  1
\A1;24
  0
POINT
  5
54D
100
AcDbEntity
  8
DEFPOINTS
  6
BYBLOCK
 62
     0
100
AcDbPoint
 10
-509.056221
 20
684.534729
 30
0.0
  0
POINT
  5
54E
100
AcDbEntity
  8
DEFPOINTS
  6
BYBLOCK
 62
     0
100
AcDbPoint
 10
-485.056221
 20
679.734729
 30
0.0
  0
POINT
  5
54F
100
AcDbEntity
  8
DEFPOINTS
  6
BYBLOCK
 62
     0
100
AcDbPoint
 10
-485.056221
 20
663.695565
 30
0.0
  0
ENDBLK
  5
550
100
AcDbEntity
  8
0
100
AcDbBlockEnd
  0
BLOCK
  5
551
100
AcDbEntity
  8
0
100
AcDbBlockBegin
  2
*D12
 70
     1
 10
0.0
 20
0.0
 30
0.0
  3
*D12
  1

  0
LINE
  5
552
100
AcDbEntity
  8
0
  6
BYBLOCK
 62
     1
100
AcDbLine
 10
-357.956221
 20
697.034729
 30
0.0
 11
-343.85114
 21
697.034729
 31
0.0
  0
LINE
  5
553
100
AcDbEntity
  8
0
  6
BYBLOCK
 62
     1
100
AcDbLine
 10
-357.956221
 20
672.034729
 30
0.0
 11
-343.85114
 21
672.034729
 31
0.0
  0
LINE
  5
554
100
AcDbEntity
  8
0
  6
BYBLOCK
 62
     1
100
AcDbLine
 10
-346.05114
 20
694.834729
 30
0.0
 11
-346.05114
 21
674.234729
 31
0.0
  0
INSERT
  5
555
100
AcDbEntity
  8
0
  6
BYBLOCK
 62
     1
100
AcDbBlockReference
  2
_OPEN30
 10
-346.05114
 20
697.034729
 30
0.0
 41
2.2
 42
2.2
 43
2.2
 50
90.0
  0
INSERT
  5
556
100
AcDbEntity
  8
0
  6
BYBLOCK
 62
     1
100
AcDbBlockReference
  2
_OPEN30
 10
-346.05114
 20
672.034729
 30
0.0
 41
2.2
 42
2.2
 43
2.2
 50
270.0
  0
MTEXT
  5
557
100
AcDbEntity
  8
0
  6
BYBLOCK
 62
     3
100
AcDbMText
 10
-348.80114
 20
684.534729
 30
0.0
 40
3.3
 41
0.0
 71
     5
 72
     1
  1
\A1;25
 11
0.0
 21
1.0
 31
0.0
  0
POINT
  5
558
100
AcDbEntity
  8
DEFPOINTS
  6
BYBLOCK
 62
     0
100
AcDbPoint
 10
-359.056221
 20
697.034729
 30
0.0
  0
POINT
  5
559
100
AcDbEntity
  8
DEFPOINTS
  6
BYBLOCK
 62
     0
100
AcDbPoint
 10
-359.056221
 20
672.034729
 30
0.0
  0
POINT
  5
55A
100
AcDbEntity
  8
DEFPOINTS
  6
BYBLOCK
 62
     0
100
AcDbPoint
 10
-346.05114
 20
672.034729
 30
0.0
  0
ENDBLK
  5
55B
100
AcDbEntity
  8
0
100
AcDbBlockEnd
  0
BLOCK
  5
55C
100
AcDbEntity
  8
0
100
AcDbBlockBegin
  2
*D13
 70
     1
 10
0.0
 20
0.0
 30
0.0
  3
*D13
  1

  0
LINE
  5
55D
100
AcDbEntity
  8
0
  6
BYBLOCK
 62
     1
100
AcDbLine
 10
-357.956221
 20
611.096404
 30
0.0
 11
-342.749642
 21
611.096404
 31
0.0
  0
LINE
  5
55E
100
AcDbEntity
  8
0
  6
BYBLOCK
 62
     1
100
AcDbLine
 10
-357.956221
 20
586.096404
 30
0.0
 11
-342.749642
 21
586.096404
 31
0.0
  0
LINE
  5
55F
100
AcDbEntity
  8
0
  6
BYBLOCK
 62
     1
100
AcDbLine
 10
-344.949642
 20
608.896404
 30
0.0
 11
-344.949642
 21
588.296404
 31
0.0
  0
INSERT
  5
560
100
AcDbEntity
  8
0
  6
BYBLOCK
 62
     1
100
AcDbBlockReference
  2
_OPEN30
 10
-344.949642
 20
611.096404
 30
0.0
 41
2.2
 42
2.2
 43
2.2
 50
90.0
  0
INSERT
  5
561
100
AcDbEntity
  8
0
  6
BYBLOCK
 62
     1
100
AcDbBlockReference
  2
_OPEN30
 10
-344.949642
 20
586.096404
 30
0.0
 41
2.2
 42
2.2
 43
2.2
 50
270.0
  0
MTEXT
  5
562
100
AcDbEntity
  8
0
  6
BYBLOCK
 62
     3
100
AcDbMText
 10
-347.699642
 20
598.596404
 30
0.0
 40
3.3
 41
0.0
 71
     5
 72
     1
  1
\A1;25
 11
0.0
 21
1.0
 31
0.0
  0
POINT
  5
563
100
AcDbEntity
  8
DEFPOINTS
  6
BYBLOCK
 62
     0
100
AcDbPoint
 10
-359.056221
 20
611.096404
 30
0.0
  0
POINT
  5
564
100
AcDbEntity
  8
DEFPOINTS
  6
BYBLOCK
 62
     0
100
AcDbPoint
 10
-359.056221
 20
586.096404
 30
0.0
  0
POINT
  5
565
100
AcDbEntity
  8
DEFPOINTS
  6
BYBLOCK
 62
     0
100
AcDbPoint
 10
-344.949642
 20
586.096404
 30
0.0
  0
ENDBLK
  5
566
100
AcDbEntity
  8
0
100
AcDbBlockEnd
  0
ENDSEC
  0
SECTION
  2
ENTITIES
  0
LINE
  5
30
100
AcDbEntity
  8
外形
  6
CONTINUOUS
100
AcDbLine
 10
-496.056221
 20
611.096404
 30
0.0
 11
-359.056221
 21
611.096404
 31
0.0
  0
LINE
  5
32
100
AcDbEntity
  8
外形
  6
CONTINUOUS
100
AcDbLine
 10
-507.856221
 20
586.096404
 30
0.0
 11
-359.056221
 21
586.096404
 31
0.0
  0
DIMENSION
  5
33
100
AcDbEntity
  8
寸法
  6
CONTINUOUS
100
AcDbDimension
  2
*D8
 10
-359.056221
 20
653.254589
 30
0.0
 11
-434.056221
 21
656.004589
 31
0.0
 70
    32
  3
STANDARD
100
AcDbAlignedDimension
 13
-509.056221
 23
684.534729
 33
0.0
 14
-359.056221
 24
672.034729
 34
0.0
100
AcDbRotatedDimension
1001
ACAD
1000
DSTYLE
1002
{
1070
    40
1040
1.1
1002
}
  0
LINE
  5
40
100
AcDbEntity
  8
外形
  6
CONTINUOUS
100
AcDbLine
 10
-359.056221
 20
672.034729
 30
0.0
 11
-462.505933
 21
672.034729
 31
0.0
  0
LINE
  5
41
100
AcDbEntity
  8
外形
  6
CONTINUOUS
100
AcDbLine
 10
-359.056221
 20
697.034729
 30
0.0
 11
-462.505933
 21
697.034729
 31
0.0
  0
LINE
  5
43
100
AcDbEntity
  8
外形
  6
CONTINUOUS
100
AcDbLine
 10
-542.372223
 20
679.734729
 30
0.0
 11
-559.432223
 21
679.734729
 31
0.0
  0
LINE
  5
44
100
AcDbEntity
  8
外形
  6
CONTINUOUS
100
AcDbLine
 10
-542.372223
 20
689.334729
 30
0.0
 11
-559.432223
 21
689.334729
 31
0.0
  0
LINE
  5
45
100
AcDbEntity
  8
外形
  6
CONTINUOUS
100
AcDbLine
 10
-534.432223
 20
672.034729
 30
0.0
 11
-559.432223
 21
672.034729
 31
0.0
  0
LINE
  5
46
100
AcDbEntity
  8
外形
  6
CONTINUOUS
100
AcDbLine
 10
-534.432223
 20
697.034729
 30
0.0
 11
-559.432223
 21
697.034729
 31
0.0
  0
LINE
  5
47
100
AcDbEntity
  8
外形
  6
CONTINUOUS
100
AcDbLine
 10
-559.432223
 20
697.034729
 30
0.0
 11
-559.432223
 21
672.034729
 31
0.0
  0
LINE
  5
49
100
AcDbEntity
  8
外形
  6
CONTINUOUS
100
AcDbLine
 10
-539.192223
 20
689.950274
 30
0.0
 11
-539.192223
 21
679.119183
 31
0.0
  0
CIRCLE
  5
4A
100
AcDbEntity
  8
外形
  6
CONTINUOUS
100
AcDbCircle
 10
-490.456221
 20
684.534729
 30
0.0
 40
3.0
  0
DIMENSION
  5
4B
100
AcDbEntity
  8
寸法
  6
CONTINUOUS
100
AcDbDimension
  2
*D9
 10
-522.1604
 20
696.99384
 30
0.0
 11
-524.9104
 21
687.764284
 31
0.0
 70
    32
  3
STANDARD
100
AcDbAlignedDimension
 13
-503.056221
 23
678.534729
 33
0.0
 14
-462.816516
 24
696.99384
 34
0.0
 50
90.0
100
AcDbRotatedDimension
1001
ACAD
1000
DSTYLE
1002
{
1070
    40
1040
1.1
1002
}
  0
DIMENSION
  5
58
100
AcDbEntity
  8
寸法
  6
CONTINUOUS
100
AcDbDimension
  2
*D10
 10
-462.051221
 20
689.334729
 30
0.0
 11
-462.051221
 21
684.534729
 31
0.0
 70
   160
  3
STANDARD
100
AcDbAlignedDimension
 13
-485.056221
 23
679.734729
 33
0.0
 14
-485.056221
 24
689.334729
 34
0.0
 50
90.0
100
AcDbRotatedDimension
1001
ACAD
1000
DSTYLE
1002
{
1070
    40
1040
1.1
1002
}
  0
LINE
  5
65
100
AcDbEntity
  8
外形
  6
CONTINUOUS
100
AcDbLine
 10
-534.432223
 20
697.034729
 30
0.0
 11
-534.432223
 21
672.034729
 31
0.0
  0
LINE
  5
66
100
AcDbEntity
  8
外形
  6
CONTINUOUS
100
AcDbLine
 10
-496.056221
 20
679.734729
 30
0.0
 11
-496.056221
 21
689.334729
 31
0.0
  0
CIRCLE
  5
67
100
AcDbEntity
  8
外形
  6
CONTINUOUS
100
AcDbCircle
 10
-503.056221
 20
684.534729
 30
0.0
 40
6.0
  0
TEXT
  5
68
100
AcDbEntity
  8
外形
  6
CONTINUOUS
 62
     2
100
AcDbText
 10
-488.124021
 20
564.8839
 30
0.0
 40
6.0
  1
ＰＲＤＣＮ　２５２５Ｍ１２
100
AcDbText
  0
LINE
  5
69
100
AcDbEntity
  8
外形
  6
CONTINUOUS
100
AcDbLine
 10
-508.471767
 20
606.336404
 30
0.0
 11
-499.979283
 21
606.336404
 31
0.0
  0
LINE
  5
6B
100
AcDbEntity
  8
外形
  6
CONTINUOUS
100
AcDbLine
 10
-509.056221
 20
611.096404
 30
0.0
 11
-497.056221
 21
611.096404
 31
0.0
  0
LINE
  5
6C
100
AcDbEntity
  8
外形
  6
CONTINUOUS
100
AcDbLine
 10
-507.856221
 20
603.156404
 30
0.0
 11
-507.856221
 21
586.096404
 31
0.0
  0
DIMENSION
  5
6D
100
AcDbEntity
  8
寸法
  6
CONTINUOUS
100
AcDbDimension
  2
*D1
 10
-525.990789
 20
611.096404
 30
0.0
 11
-525.990789
 21
598.210057
 31
0.0
 70
   160
  3
STANDARD
100
AcDbAlignedDimension
 13
-508.025349
 23
586.096404
 33
0.0
 14
-509.225349
 24
611.096404
 34
0.0
 50
90.0
100
AcDbRotatedDimension
1001
ACAD
1000
DSTYLE
1002
{
1070
    40
1040
1.1
1002
}
  0
LINE
  5
7A
100
AcDbEntity
  8
外形
  6
CONTINUOUS
100
AcDbLine
 10
-509.056221
 20
611.096404
 30
0.0
 11
-508.471767
 21
606.336404
 31
0.0
  0
LINE
  5
7B
100
AcDbEntity
  8
外形
  6
CONTINUOUS
100
AcDbLine
 10
-499.979283
 20
606.336404
 30
0.0
 11
-499.456221
 21
610.596404
 31
0.0
  0
LINE
  5
7C
100
AcDbEntity
  8
外形
  6
CONTINUOUS
100
AcDbLine
 10
-499.979283
 20
603.156404
 30
0.0
 11
-499.979283
 21
606.336404
 31
0.0
  0
LINE
  5
7D
100
AcDbEntity
  8
外形
  6
CONTINUOUS
100
AcDbLine
 10
-497.117613
 20
610.596404
 30
0.0
 11
-497.056221
 21
611.096404
 31
0.0
  0
LINE
  5
7E
100
AcDbEntity
  8
外形
  6
CONTINUOUS
100
AcDbLine
 10
-496.056221
 20
610.596404
 30
0.0
 11
-496.056221
 21
611.096404
 31
0.0
  0
LINE
  5
7F
100
AcDbEntity
  8
外形
  6
CONTINUOUS
100
AcDbLine
 10
-499.456221
 20
610.596404
 30
0.0
 11
-496.056221
 21
610.596404
 31
0.0
  0
CIRCLE
  5
80
100
AcDbEntity
  8
外形
  6
CONTINUOUS
100
AcDbCircle
 10
-503.056221
 20
684.534729
 30
0.0
 40
2.0
  0
DIMENSION
  5
81
100
AcDbEntity
  8
寸法
  6
CONTINUOUS
100
AcDbDimension
  2
*D11
 10
-485.056221
 20
663.695565
 30
0.0
 11
-497.056221
 21
666.445565
 31
0.0
 70
    32
  3
STANDARD
100
AcDbAlignedDimension
 13
-509.056221
 23
684.534729
 33
0.0
 14
-485.056221
 24
679.734729
 34
0.0
100
AcDbRotatedDimension
1001
ACAD
1000
DSTYLE
1002
{
1070
    40
1040
1.1
1002
}
  0
LINE
  5
8E
100
AcDbEntity
  8
外形
  6
CONTINUOUS
100
AcDbLine
 10
-539.192223
 20
679.119183
 30
0.0
 11
-534.432223
 21
678.534729
 31
0.0
  0
LINE
  5
8F
100
AcDbEntity
  8
外形
  6
CONTINUOUS
100
AcDbLine
 10
-462.816516
 20
672.075618
 30
0.0
 11
-485.056221
 21
679.734729
 31
0.0
  0
CIRCLE
  5
90
100
AcDbEntity
  8
外形
  6
CONTINUOUS
100
AcDbCircle
 10
-490.456221
 20
684.534729
 30
0.0
 40
2.4585
  0
LINE
  5
91
100
AcDbEntity
  8
外形
  6
CONTINUOUS
100
AcDbLine
 10
-485.056221
 20
679.734729
 30
0.0
 11
-499.456221
 21
679.734729
 31
0.0
  0
LINE
  5
92
100
AcDbEntity
  8
外形
  6
CONTINUOUS
100
AcDbLine
 10
-489.206221
 20
683.813041
 30
0.0
 11
-490.456221
 21
683.091353
 31
0.0
  0
LINE
  5
93
100
AcDbEntity
  8
外形
  6
CONTINUOUS
100
AcDbLine
 10
-490.456221
 20
685.978104
 30
0.0
 11
-491.706221
 21
685.256417
 31
0.0
  0
LINE
  5
94
100
AcDbEntity
  8
外形
  6
CONTINUOUS
100
AcDbLine
 10
-491.706221
 20
683.813041
 30
0.0
 11
-490.456221
 21
683.091353
 31
0.0
  0
LINE
  5
95
100
AcDbEntity
  8
外形
  6
CONTINUOUS
100
AcDbLine
 10
-490.456221
 20
685.978104
 30
0.0
 11
-489.206221
 21
685.256417
 31
0.0
  0
LINE
  5
96
100
AcDbEntity
  8
外形
  6
CONTINUOUS
100
AcDbLine
 10
-489.206221
 20
685.256417
 30
0.0
 11
-489.206221
 21
683.813041
 31
0.0
  0
LINE
  5
97
100
AcDbEntity
  8
外形
  6
CONTINUOUS
100
AcDbLine
 10
-491.706221
 20
685.256417
 30
0.0
 11
-491.706221
 21
683.813041
 31
0.0
  0
ARC
  5
98
100
AcDbEntity
  8
外形
  6
CONTINUOUS
100
AcDbCircle
 10
-462.505933
 20
673.234729
 30
0.0
 40
1.2
100
AcDbArc
 50
255.0
 51
270.0
  0
LINE
  5
99
100
AcDbEntity
  8
外形
  6
CONTINUOUS
100
AcDbLine
 10
-539.192223
 20
689.950274
 30
0.0
 11
-534.432223
 21
690.534729
 31
0.0
  0
LINE
  5
9A
100
AcDbEntity
  8
外形
  6
CONTINUOUS
100
AcDbLine
 10
-462.816516
 20
696.99384
 30
0.0
 11
-485.056221
 21
689.334729
 31
0.0
  0
LINE
  5
9B
100
AcDbEntity
  8
外形
  6
CONTINUOUS
100
AcDbLine
 10
-485.056221
 20
689.334729
 30
0.0
 11
-499.456221
 21
689.334729
 31
0.0
  0
ARC
  5
9C
100
AcDbEntity
  8
外形
  6
CONTINUOUS
100
AcDbCircle
 10
-462.505933
 20
695.834729
 30
0.0
 40
1.2
100
AcDbArc
 50
90.0
 51
105.0
  0
DIMENSION
  5
9D
100
AcDbEntity
  8
寸法
  6
CONTINUOUS
100
AcDbDimension
  2
*D12
 10
-346.05114
 20
672.034729
 30
0.0
 11
-348.80114
 21
684.534729
 31
0.0
 70
    32
  3
STANDARD
100
AcDbAlignedDimension
 13
-359.056221
 23
697.034729
 33
0.0
 14
-359.056221
 24
672.034729
 34
0.0
 50
90.0
100
AcDbRotatedDimension
1001
ACAD
1000
DSTYLE
1002
{
1070
    40
1040
1.1
1002
}
  0
LINE
  5
AA
100
AcDbEntity
  8
外形
  6
CONTINUOUS
100
AcDbLine
 10
-359.056221
 20
697.034729
 30
0.0
 11
-359.056221
 21
672.034729
 31
0.0
  0
DIMENSION
  5
AB
100
AcDbEntity
  8
寸法
  6
CONTINUOUS
100
AcDbDimension
  2
*D13
 10
-344.949642
 20
586.096404
 30
0.0
 11
-347.699642
 21
598.596404
 31
0.0
 70
    32
  3
STANDARD
100
AcDbAlignedDimension
 13
-359.056221
 23
611.096404
 33
0.0
 14
-359.056221
 24
586.096404
 34
0.0
 50
90.0
100
AcDbRotatedDimension
1001
ACAD
1000
DSTYLE
1002
{
1070
    40
1040
1.1
1002
}
  0
LINE
  5
B8
100
AcDbEntity
  8
外形
  6
CONTINUOUS
100
AcDbLine
 10
-359.056221
 20
611.096404
 30
0.0
 11
-359.056221
 21
586.096404
 31
0.0
  0
LINE
  5
E9
100
AcDbEntity
  8
外形
  6
CONTINUOUS
100
AcDbLine
 10
-542.372223
 20
689.534729
 30
0.0
 11
-542.372223
 21
679.534729
 31
0.0
  0
LINE
  5
EA
100
AcDbEntity
  8
外形
  6
CONTINUOUS
100
AcDbLine
 10
-542.372223
 20
689.534729
 30
0.0
 11
-539.192223
 21
689.534729
 31
0.0
  0
LINE
  5
EB
100
AcDbEntity
  8
外形
  6
CONTINUOUS
100
AcDbLine
 10
-542.372223
 20
679.534729
 30
0.0
 11
-539.192223
 21
679.534729
 31
0.0
  0
LINE
  5
133
100
AcDbEntity
  8
外形
  6
CONTINUOUS
100
AcDbLine
 10
-508.056221
 20
603.156404
 30
0.0
 11
-499.979283
 21
603.156404
 31
0.0
  0
LINE
  5
134
100
AcDbEntity
  8
外形
  6
CONTINUOUS
100
AcDbLine
 10
-508.056221
 20
606.336404
 30
0.0
 11
-508.056221
 21
603.156404
 31
0.0
  0
LINE
  5
14E
100
AcDbEntity
  8
外形
  6
CONTINUOUS
 62
     7
100
AcDbLine
 10
-297.54234
 20
571.712472
 30
0.0
 11
-297.54234
 21
571.783729
 31
0.0
  0
LINE
  5
507
100
AcDbEntity
  8
外形
  6
CENTER
 62
     7
 48
1.5
100
AcDbLine
 10
-503.056221
 20
692.493055
 30
0.0
 11
-503.056221
 21
676.565289
 31
0.0
  0
LINE
  5
508
100
AcDbEntity
  8
外形
  6
CENTER
 62
     7
 48
1.5
100
AcDbLine
 10
-485.223909
 20
684.534729
 30
0.0
 11
-512.30007
 21
684.534729
 31
0.0
  0
LINE
  5
509
100
AcDbEntity
  8
外形
  6
CENTER
 62
     7
 48
1.5
100
AcDbLine
 10
-490.456221
 20
688.598056
 30
0.0
 11
-490.456221
 21
680.599395
 31
0.0
  0
LINE
  5
518
100
AcDbEntity
  8
外形
  6
CONTINUOUS
100
AcDbLine
 10
-462.505933
 20
611.096404
 30
0.0
 11
-462.505933
 21
586.096404
 31
0.0
  0
LINE
  5
519
100
AcDbEntity
  8
外形
  6
CONTINUOUS
100
AcDbLine
 10
-485.056221
 20
611.096404
 30
0.0
 11
-485.056221
 21
586.096404
 31
0.0
  0
ENDSEC
  0
SECTION
  2
OBJECTS
  0
DICTIONARY
  5
1E
100
AcDbDictionary
  3
ACAD_GROUP
350
1C
  3
ACAD_MLINESTYLE
350
1D
  0
DICTIONARY
  5
2C
100
AcDbDictionary
280
     1
  3
ACAD_XREC_ROUNDTRIP
360
2D
  0
DICTIONARY
  5
22
100
AcDbDictionary
280
     1
  3
ACAD_XREC_ROUNDTRIP
360
23
  0
DICTIONARY
  5
3
100
AcDbDictionary
280
     1
  3
ACAD_LAYOUTSELFREF
360
4
  0
DICTIONARY
  5
A
100
AcDbDictionary
280
     1
  3
ACAD_LAYOUTSELFREF
360
B
  0
DICTIONARY
  5
1C
102
{ACAD_REACTORS
330
1E
102
}
100
AcDbDictionary
  0
DICTIONARY
  5
1D
102
{ACAD_REACTORS
330
1E
102
}
100
AcDbDictionary
  3
STANDARD
350
20
  0
XRECORD
  5
2D
102
{ACAD_REACTORS
330
2C
102
}
100
AcDbXrecord
102
PLOTBIT
280
     0
  0
XRECORD
  5
23
102
{ACAD_REACTORS
330
22
102
}
100
AcDbXrecord
102
ACADR14ROUNDTRIP
1000
DSTYLE
1002
{
1070
   341
340
24
1070
   343
340
24
1070
   344
340
24
1002
}
  0
XRECORD
  5
4
102
{ACAD_REACTORS
330
3
102
}
100
AcDbXrecord
340
2
  0
XRECORD
  5
B
102
{ACAD_REACTORS
330
A
102
}
100
AcDbXrecord
340
9
  0
MLINESTYLE
  5
20
102
{ACAD_REACTORS
330
1D
102
}
100
AcDbMlineStyle
  2
STANDARD
 70
     0
  3

 62
     0
 51
90.0
 52
90.0
 71
     2
 49
0.5
 62
   256
  6
BYLAYER
 49
-0.5
 62
   256
  6
BYLAYER
  0
ENDSEC
  0
EOF
