  0
SECTION
  2
HEADER
  9
$ACADVER
  1
AC1014
  9
$ACADMAINTVER
 70
     0
  9
$DWGCODEPAGE
  3
ANSI_932
  9
$INSBASE
 10
6.749048
 20
590.390188
 30
0.0
  9
$EXTMIN
 10
38.360924
 20
638.329184
 30
0.0
  9
$EXTMAX
 10
494.041881
 20
1738.759844
 30
0.0
  9
$LIMMIN
 10
-587.250952
 20
327.890188
  9
$LIMMAX
 10
600.749048
 20
957.890188
  9
$ORTHOMODE
 70
     1
  9
$REGENMODE
 70
     1
  9
$FILLMODE
 70
     1
  9
$QTEXTMODE
 70
     0
  9
$MIRRTEXT
 70
     1
  9
$DRAGMODE
 70
     2
  9
$LTSCALE
 40
5.0
  9
$OSMODE
 70
    39
  9
$ATTMODE
 70
     1
  9
$TEXTSIZE
 40
4.0
  9
$TRACEWID
 40
0.05
  9
$TEXTSTYLE
  7
STANDARD
  9
$CLAYER
  8
外形
  9
$CELTYPE
  6
CONTINUOUS
  9
$CECOLOR
 62
   256
  9
$CELTSCALE
 40
1.0
  9
$DELOBJ
 70
     1
  9
$DISPSILH
 70
     0
  9
$DIMSCALE
 40
1.0
  9
$DIMASZ
 40
2.0
  9
$DIMEXO
 40
1.0
  9
$DIMDLI
 40
8.0
  9
$DIMRND
 40
0.0
  9
$DIMDLE
 40
0.0
  9
$DIMEXE
 40
2.0
  9
$DIMTP
 40
0.0
  9
$DIMTM
 40
0.0
  9
$DIMTXT
 40
3.0
  9
$DIMCEN
 40
-1.0
  9
$DIMTSZ
 40
0.0
  9
$DIMTOL
 70
     0
  9
$DIMLIM
 70
     0
  9
$DIMTIH
 70
     0
  9
$DIMTOH
 70
     0
  9
$DIMSE1
 70
     0
  9
$DIMSE2
 70
     0
  9
$DIMTAD
 70
     1
  9
$DIMZIN
 70
     8
  9
$DIMBLK
  1

  9
$DIMASO
 70
     1
  9
$DIMSHO
 70
     1
  9
$DIMPOST
  1

  9
$DIMAPOST
  1

  9
$DIMALT
 70
     0
  9
$DIMALTD
 70
     2
  9
$DIMALTF
 40
25.4
  9
$DIMLFAC
 40
1.0
  9
$DIMTOFL
 70
     1
  9
$DIMTVP
 40
0.0
  9
$DIMTIX
 70
     0
  9
$DIMSOXD
 70
     0
  9
$DIMSAH
 70
     1
  9
$DIMBLK1
  1
_OPEN30
  9
$DIMBLK2
  1
_OPEN30
  9
$DIMSTYLE
  2
STANDARD
  9
$DIMCLRD
 70
     1
  9
$DIMCLRE
 70
     1
  9
$DIMCLRT
 70
     3
  9
$DIMTFAC
 40
1.0
  9
$DIMGAP
 40
1.0
  9
$DIMJUST
 70
     0
  9
$DIMSD1
 70
     0
  9
$DIMSD2
 70
     0
  9
$DIMTOLJ
 70
     1
  9
$DIMTZIN
 70
     8
  9
$DIMALTZ
 70
     0
  9
$DIMALTTZ
 70
     0
  9
$DIMFIT
 70
     3
  9
$DIMUPT
 70
     0
  9
$DIMUNIT
 70
     2
  9
$DIMDEC
 70
     3
  9
$DIMTDEC
 70
     0
  9
$DIMALTU
 70
     2
  9
$DIMALTTD
 70
     2
  9
$DIMTXSTY
  7
STANDARD
  9
$DIMAUNIT
 70
     0
  9
$LUNITS
 70
     2
  9
$LUPREC
 70
     0
  9
$SKETCHINC
 40
0.1
  9
$FILLETRAD
 40
0.0
  9
$AUNITS
 70
     0
  9
$AUPREC
 70
     0
  9
$MENU
  1
acad
  9
$ELEVATION
 40
0.0
  9
$PELEVATION
 40
0.0
  9
$THICKNESS
 40
0.0
  9
$LIMCHECK
 70
     0
  9
$BLIPMODE
 70
     0
  9
$CHAMFERA
 40
0.0
  9
$CHAMFERB
 40
0.0
  9
$CHAMFERC
 40
0.0
  9
$CHAMFERD
 40
0.0
  9
$SKPOLY
 70
     0
  9
$TDCREATE
 40
2450751.535399305
  9
$TDUPDATE
 40
2451929.365081018
  9
$TDINDWG
 40
0.9856837963
  9
$TDUSRTIMER
 40
0.9856837963
  9
$USRTIMER
 70
     1
  9
$ANGBASE
 50
0.0
  9
$ANGDIR
 70
     0
  9
$PDMODE
 70
     0
  9
$PDSIZE
 40
0.0
  9
$PLINEWID
 40
0.0
  9
$COORDS
 70
     1
  9
$SPLFRAME
 70
     0
  9
$SPLINETYPE
 70
     5
  9
$SPLINESEGS
 70
     8
  9
$ATTDIA
 70
     0
  9
$ATTREQ
 70
     1
  9
$HANDLING
 70
     1
  9
$HANDSEED
  5
6B5
  9
$SURFTAB1
 70
     6
  9
$SURFTAB2
 70
     6
  9
$SURFTYPE
 70
     6
  9
$SURFU
 70
     6
  9
$SURFV
 70
     6
  9
$UCSNAME
  2

  9
$UCSORG
 10
0.0
 20
0.0
 30
0.0
  9
$UCSXDIR
 10
1.0
 20
0.0
 30
0.0
  9
$UCSYDIR
 10
0.0
 20
1.0
 30
0.0
  9
$PUCSNAME
  2

  9
$PUCSORG
 10
0.0
 20
0.0
 30
0.0
  9
$PUCSXDIR
 10
1.0
 20
0.0
 30
0.0
  9
$PUCSYDIR
 10
0.0
 20
1.0
 30
0.0
  9
$USERI1
 70
     0
  9
$USERI2
 70
     0
  9
$USERI3
 70
     0
  9
$USERI4
 70
     0
  9
$USERI5
 70
     0
  9
$USERR1
 40
0.0
  9
$USERR2
 40
0.0
  9
$USERR3
 40
0.0
  9
$USERR4
 40
0.0
  9
$USERR5
 40
0.0
  9
$WORLDVIEW
 70
     1
  9
$SHADEDGE
 70
     3
  9
$SHADEDIF
 70
    70
  9
$TILEMODE
 70
     1
  9
$MAXACTVP
 70
    16
  9
$PINSBASE
 10
0.0
 20
0.0
 30
0.0
  9
$PLIMCHECK
 70
     0
  9
$PEXTMIN
 10
1.000000E+20
 20
1.000000E+20
 30
1.000000E+20
  9
$PEXTMAX
 10
-1.000000E+20
 20
-1.000000E+20
 30
-1.000000E+20
  9
$PLIMMIN
 10
0.0
 20
0.0
  9
$PLIMMAX
 10
12.0
 20
9.0
  9
$UNITMODE
 70
     0
  9
$VISRETAIN
 70
     0
  9
$PLINEGEN
 70
     0
  9
$PSLTSCALE
 70
     1
  9
$TREEDEPTH
 70
  3020
  9
$PICKSTYLE
 70
     1
  9
$CMLSTYLE
  2
STANDARD
  9
$CMLJUST
 70
     0
  9
$CMLSCALE
 40
1.0
  9
$PROXYGRAPHICS
 70
     1
  9
$MEASUREMENT
 70
     0
  0
ENDSEC
  0
SECTION
  2
CLASSES
  0
CLASS
  1
LWPOLYLINE
  2
AcDbPolyline
  3
"AutoCAD"
 90
        0
280
     0
281
     1
  0
CLASS
  1
ACDBDICTIONARYWDFLT
  2
AcDbDictionaryWithDefault
  3
AutoCAD 2000
 90
        0
280
     1
281
     0
  0
CLASS
  1
ACDBPLACEHOLDER
  2
AcDbPlaceHolder
  3
AutoCAD 2000
 90
        0
280
     1
281
     0
  0
CLASS
  1
LAYOUT
  2
AcDbLayout
  3
AutoCAD 2000
 90
        0
280
     1
281
     0
  0
CLASS
  1
LONG_TRANSACTION
  2
AcDbLongTransaction
  3
AutoCAD 2000
 90
        0
280
     1
281
     0
  0
CLASS
  1
LWPOLYLINE
  2
AcDbPolyline
  3
"AutoCAD"
 90
        0
280
     0
281
     1
  0
CLASS
  1
HATCH
  2
AcDbHatch
  3
"ACAD_SEDONA"
 90
        0
280
     0
281
     1
  0
CLASS
  1
XRECORD
  2
AcDbXrecord
  3
"<Built In>"
 90
        0
280
     0
281
     0
  0
ENDSEC
  0
SECTION
  2
TABLES
  0
TABLE
  2
VPORT
  5
16
100
AcDbSymbolTable
 70
     1
  0
VPORT
  5
6AF
100
AcDbSymbolTableRecord
100
AcDbViewportTableRecord
  2
*ACTIVE
 70
     0
 10
0.0
 20
0.0
 11
1.0
 21
1.0
 12
266.880961
 22
787.533578
 13
0.0
 23
0.0
 14
0.05
 24
0.05
 15
10.0
 25
10.0
 16
0.0
 26
0.0
 36
1.0
 17
0.0
 27
0.0
 37
0.0
 40
340.072813
 41
1.710425
 42
50.0
 43
0.0
 44
0.0
 50
0.0
 51
0.0
 71
     0
 72
   100
 73
     1
 74
     1
 75
     0
 76
     0
 77
     0
 78
     0
  0
ENDTAB
  0
TABLE
  2
LTYPE
  5
11
100
AcDbSymbolTable
 70
     4
  0
LTYPE
  5
12
100
AcDbSymbolTableRecord
100
AcDbLinetypeTableRecord
  2
BYBLOCK
 70
     0
  3

 72
    65
 73
     0
 40
0.0
  0
LTYPE
  5
13
100
AcDbSymbolTableRecord
100
AcDbLinetypeTableRecord
  2
BYLAYER
 70
     0
  3

 72
    65
 73
     0
 40
0.0
  0
LTYPE
  5
7
100
AcDbSymbolTableRecord
100
AcDbLinetypeTableRecord
  2
CONTINUOUS
 70
     0
  3
Solid line
 72
    65
 73
     0
 40
0.0
  0
LTYPE
  5
D6
100
AcDbSymbolTableRecord
100
AcDbLinetypeTableRecord
  2
CENTER
 70
     0
  3
Center ____ _ ____ _ ____ _ ____ _ ____ _ ____
 72
    65
 73
     4
 40
2.0
 49
1.25
 74
     0
 49
-0.25
 74
     0
 49
0.25
 74
     0
 49
-0.25
 74
     0
  0
LTYPE
  5
D7
100
AcDbSymbolTableRecord
100
AcDbLinetypeTableRecord
  2
DASHED
 70
     0
  3
Dashed __ __ __ __ __ __ __ __ __ __ __ __ __ _
 72
    65
 73
     2
 40
0.75
 49
0.5
 74
     0
 49
-0.25
 74
     0
  0
LTYPE
  5
1CA
100
AcDbSymbolTableRecord
100
AcDbLinetypeTableRecord
  2
PHANTOM
 70
     0
  3
Phantom ______  __  __  ______  __  __  ______
 72
    65
 73
     6
 40
2.5
 49
1.25
 74
     0
 49
-0.25
 74
     0
 49
0.25
 74
     0
 49
-0.25
 74
     0
 49
0.25
 74
     0
 49
-0.25
 74
     0
  0
ENDTAB
  0
TABLE
  2
LAYER
  5
E
100
AcDbSymbolTable
 70
     4
  0
LAYER
  5
6
100
AcDbSymbolTableRecord
100
AcDbLayerTableRecord
  2
0
 70
     0
 62
     7
  6
CONTINUOUS
  0
LAYER
  5
2B
100
AcDbSymbolTableRecord
100
AcDbLayerTableRecord
  2
外形
 70
     0
 62
     3
  6
CONTINUOUS
  0
LAYER
  5
36
102
{ACAD_XDICTIONARY
360
37
102
}
100
AcDbSymbolTableRecord
100
AcDbLayerTableRecord
  2
DEFPOINTS
 70
     0
 62
     7
  6
CONTINUOUS
  0
LAYER
  5
1F
100
AcDbSymbolTableRecord
100
AcDbLayerTableRecord
  2
寸法
 70
     0
 62
     1
  6
CONTINUOUS
  0
ENDTAB
  0
TABLE
  2
STYLE
  5
F
100
AcDbSymbolTable
 70
     2
  0
STYLE
  5
10
100
AcDbSymbolTableRecord
100
AcDbTextStyleTableRecord
  2
STANDARD
 70
     0
 40
0.0
 41
1.0
 50
0.0
 71
     0
 42
4.0
  3
MONOTXT
  4
BIGFONT
  0
STYLE
  5
D5
100
AcDbSymbolTableRecord
100
AcDbTextStyleTableRecord
  2

 70
     1
 40
0.0
 41
1.0
 50
0.0
 71
     0
 42
4.0
  3
ltypeshp.shx
  4

  0
ENDTAB
  0
TABLE
  2
VIEW
  5
14
100
AcDbSymbolTable
 70
     0
  0
ENDTAB
  0
TABLE
  2
UCS
  5
15
100
AcDbSymbolTable
 70
     0
  0
ENDTAB
  0
TABLE
  2
APPID
  5
18
100
AcDbSymbolTable
 70
     1
  0
APPID
  5
19
100
AcDbSymbolTableRecord
100
AcDbRegAppTableRecord
  2
ACAD
 70
     0
  0
ENDTAB
  0
TABLE
  2
DIMSTYLE
  5
1A
100
AcDbSymbolTable
 70
     1
  0
DIMSTYLE
105
21
102
{ACAD_XDICTIONARY
360
22
102
}
102
{ACAD_REACTORS
330
59
330
66
330
80
330
2D
330
A5
330
41
330
97
102
}
100
AcDbSymbolTableRecord
100
AcDbDimStyleTableRecord
  2
STANDARD
 70
     0
  3

  4

  5

  6
_OPEN30
  7
_OPEN30
 40
1.0
 41
2.0
 42
1.0
 43
8.0
 44
2.0
 45
0.0
 46
0.0
 47
0.0
 48
0.0
140
3.0
141
-1.0
142
0.0
143
25.4
144
1.0
145
0.0
146
1.0
147
1.0
 71
     0
 72
     0
 73
     0
 74
     0
 75
     0
 76
     0
 77
     1
 78
     8
170
     0
171
     2
172
     1
173
     1
174
     0
175
     0
176
     1
177
     1
178
     3
270
     2
271
     3
272
     0
273
     2
274
     2
340
10
275
     0
280
     0
281
     0
282
     0
283
     1
284
     8
285
     0
286
     0
287
     3
288
     0
  0
ENDTAB
  0
TABLE
  2
BLOCK_RECORD
  5
1
100
AcDbSymbolTable
 70
    19
  0
BLOCK_RECORD
  5
2
102
{ACAD_XDICTIONARY
360
3
102
}
100
AcDbSymbolTableRecord
100
AcDbBlockTableRecord
  2
*MODEL_SPACE
  0
BLOCK_RECORD
  5
9
102
{ACAD_XDICTIONARY
360
A
102
}
100
AcDbSymbolTableRecord
100
AcDbBlockTableRecord
  2
*PAPER_SPACE
  0
BLOCK_RECORD
  5
24
100
AcDbSymbolTableRecord
100
AcDbBlockTableRecord
  2
_OPEN30
  0
BLOCK_RECORD
  5
E5
100
AcDbSymbolTableRecord
100
AcDbBlockTableRecord
  2
_DOTSMALL
  0
BLOCK_RECORD
  5
F7
100
AcDbSymbolTableRecord
100
AcDbBlockTableRecord
  2
*D3
  0
BLOCK_RECORD
  5
103
100
AcDbSymbolTableRecord
100
AcDbBlockTableRecord
  2
*D4
  0
BLOCK_RECORD
  5
10F
100
AcDbSymbolTableRecord
100
AcDbBlockTableRecord
  2
*D5
  0
BLOCK_RECORD
  5
11B
100
AcDbSymbolTableRecord
100
AcDbBlockTableRecord
  2
*D6
  0
BLOCK_RECORD
  5
127
100
AcDbSymbolTableRecord
100
AcDbBlockTableRecord
  2
*D7
  0
BLOCK_RECORD
  5
133
100
AcDbSymbolTableRecord
100
AcDbBlockTableRecord
  2
*D8
  0
BLOCK_RECORD
  5
13F
100
AcDbSymbolTableRecord
100
AcDbBlockTableRecord
  2
*D9
  0
ENDTAB
  0
ENDSEC
  0
SECTION
  2
BLOCKS
  0
BLOCK
  5
5
100
AcDbEntity
  8
0
100
AcDbBlockBegin
  2
*MODEL_SPACE
 70
     0
 10
0.0
 20
0.0
 30
0.0
  3
*MODEL_SPACE
  1

  0
ENDBLK
  5
8
100
AcDbEntity
  8
0
100
AcDbBlockEnd
  0
BLOCK
  5
C
100
AcDbEntity
 67
     1
  8
0
100
AcDbBlockBegin
  2
*PAPER_SPACE
 70
     0
 10
0.0
 20
0.0
 30
0.0
  3
*PAPER_SPACE
  1

  0
ENDBLK
  5
D
100
AcDbEntity
 67
     1
  8
0
100
AcDbBlockEnd
  0
BLOCK
  5
28
100
AcDbEntity
  8
0
100
AcDbBlockBegin
  2
_OPEN30
 70
     0
 10
0.0
 20
0.0
 30
0.0
  3
_OPEN30
  1

  0
LINE
  5
25
100
AcDbEntity
  8
0
  6
BYBLOCK
 62
     0
100
AcDbLine
 10
-1.0
 20
0.267949
 30
0.0
 11
0.0
 21
0.0
 31
0.0
  0
LINE
  5
26
100
AcDbEntity
  8
0
  6
BYBLOCK
 62
     0
100
AcDbLine
 10
0.0
 20
0.0
 30
0.0
 11
-1.0
 21
-0.267949
 31
0.0
  0
LINE
  5
27
100
AcDbEntity
  8
0
  6
BYBLOCK
 62
     0
100
AcDbLine
 10
0.0
 20
0.0
 30
0.0
 11
-1.0
 21
0.0
 31
0.0
  0
ENDBLK
  5
29
100
AcDbEntity
  8
0
100
AcDbBlockEnd
  0
BLOCK
  5
E6
100
AcDbEntity
  8
0
100
AcDbBlockBegin
  2
_DOTSMALL
 70
     0
 10
0.0
 20
0.0
 30
0.0
  3
_DOTSMALL
  1

  0
POLYLINE
  5
E7
100
AcDbEntity
  8
0
  6
BYBLOCK
 62
     0
100
AcDb2dPolyline
 66
     1
 10
0.0
 20
0.0
 30
0.0
 70
     1
 40
0.5
 41
0.5
  0
VERTEX
  5
E8
100
AcDbEntity
  8
0
  6
BYBLOCK
 62
     0
100
AcDbVertex
100
AcDb2dVertex
 10
-0.0625
 20
0.0
 30
0.0
 42
1.0
  0
VERTEX
  5
E9
100
AcDbEntity
  8
0
  6
BYBLOCK
 62
     0
100
AcDbVertex
100
AcDb2dVertex
 10
0.0625
 20
0.0
 30
0.0
 42
1.0
  0
SEQEND
  5
EA
100
AcDbEntity
  8
0
  6
BYBLOCK
 62
     0
  0
ENDBLK
  5
EB
100
AcDbEntity
  8
0
100
AcDbBlockEnd
  0
BLOCK
  5
66D
100
AcDbEntity
  8
0
100
AcDbBlockBegin
  2
*D3
 70
     1
 10
0.0
 20
0.0
 30
0.0
  3
*D3
  1

  0
LINE
  5
66E
100
AcDbEntity
  8
0
  6
BYBLOCK
 62
     1
100
AcDbLine
 10
135.57318
 20
844.897871
 30
0.0
 11
105.469001
 21
844.897871
 31
0.0
  0
LINE
  5
66F
100
AcDbEntity
  8
0
  6
BYBLOCK
 62
     1
100
AcDbLine
 10
204.965647
 20
885.897871
 30
0.0
 11
105.469001
 21
885.897871
 31
0.0
  0
LINE
  5
670
100
AcDbEntity
  8
0
  6
BYBLOCK
 62
     1
100
AcDbLine
 10
107.469001
 20
846.897871
 30
0.0
 11
107.469001
 21
883.897871
 31
0.0
  0
INSERT
  5
671
100
AcDbEntity
  8
0
  6
BYBLOCK
 62
     1
100
AcDbBlockReference
  2
_OPEN30
 10
107.469001
 20
844.897871
 30
0.0
 41
2.0
 42
2.0
 43
2.0
 50
270.0
  0
INSERT
  5
672
100
AcDbEntity
  8
0
  6
BYBLOCK
 62
     1
100
AcDbBlockReference
  2
_OPEN30
 10
107.469001
 20
885.897871
 30
0.0
 41
2.0
 42
2.0
 43
2.0
 50
90.0
  0
MTEXT
  5
673
100
AcDbEntity
  8
0
  6
BYBLOCK
 62
     3
100
AcDbMText
 10
104.969001
 20
865.397871
 30
0.0
 40
3.0
 41
0.0
 71
     5
 72
     1
  1
\A1;41
 11
0.0
 21
1.0
 31
0.0
  0
POINT
  5
674
100
AcDbEntity
  8
DEFPOINTS
  6
BYBLOCK
 62
     0
100
AcDbPoint
 10
136.57318
 20
844.897871
 30
0.0
  0
POINT
  5
675
100
AcDbEntity
  8
DEFPOINTS
  6
BYBLOCK
 62
     0
100
AcDbPoint
 10
205.965647
 20
885.897871
 30
0.0
  0
POINT
  5
676
100
AcDbEntity
  8
DEFPOINTS
  6
BYBLOCK
 62
     0
100
AcDbPoint
 10
107.469001
 20
885.897871
 30
0.0
  0
ENDBLK
  5
677
100
AcDbEntity
  8
0
100
AcDbBlockEnd
  0
BLOCK
  5
662
100
AcDbEntity
  8
0
100
AcDbBlockBegin
  2
*D4
 70
     1
 10
0.0
 20
0.0
 30
0.0
  3
*D4
  1

  0
LINE
  5
663
100
AcDbEntity
  8
0
  6
BYBLOCK
 62
     1
100
AcDbLine
 10
120.57318
 20
859.897871
 30
0.0
 11
120.57318
 21
806.978332
 31
0.0
  0
LINE
  5
664
100
AcDbEntity
  8
0
  6
BYBLOCK
 62
     1
100
AcDbLine
 10
470.57318
 20
834.897871
 30
0.0
 11
470.57318
 21
806.978332
 31
0.0
  0
LINE
  5
665
100
AcDbEntity
  8
0
  6
BYBLOCK
 62
     1
100
AcDbLine
 10
122.57318
 20
808.978332
 30
0.0
 11
468.57318
 21
808.978332
 31
0.0
  0
INSERT
  5
666
100
AcDbEntity
  8
0
  6
BYBLOCK
 62
     1
100
AcDbBlockReference
  2
_OPEN30
 10
120.57318
 20
808.978332
 30
0.0
 41
2.0
 42
2.0
 43
2.0
 50
180.0
  0
INSERT
  5
667
100
AcDbEntity
  8
0
  6
BYBLOCK
 62
     1
100
AcDbBlockReference
  2
_OPEN30
 10
470.57318
 20
808.978332
 30
0.0
 41
2.0
 42
2.0
 43
2.0
  0
MTEXT
  5
668
100
AcDbEntity
  8
0
  6
BYBLOCK
 62
     3
100
AcDbMText
 10
295.57318
 20
811.478332
 30
0.0
 40
3.0
 41
0.0
 71
     5
 72
     1
  1
\A1;350
  0
POINT
  5
669
100
AcDbEntity
  8
DEFPOINTS
  6
BYBLOCK
 62
     0
100
AcDbPoint
 10
120.57318
 20
860.897871
 30
0.0
  0
POINT
  5
66A
100
AcDbEntity
  8
DEFPOINTS
  6
BYBLOCK
 62
     0
100
AcDbPoint
 10
470.57318
 20
835.897871
 30
0.0
  0
POINT
  5
66B
100
AcDbEntity
  8
DEFPOINTS
  6
BYBLOCK
 62
     0
100
AcDbPoint
 10
470.57318
 20
808.978332
 30
0.0
  0
ENDBLK
  5
66C
100
AcDbEntity
  8
0
100
AcDbBlockEnd
  0
BLOCK
  5
68E
100
AcDbEntity
  8
0
100
AcDbBlockBegin
  2
*D5
 70
     1
 10
0.0
 20
0.0
 30
0.0
  3
*D5
  1

  0
LINE
  5
68F
100
AcDbEntity
  8
0
  6
BYBLOCK
 62
     1
100
AcDbLine
 10
120.57318
 20
859.897871
 30
0.0
 11
120.57318
 21
824.282735
 31
0.0
  0
LINE
  5
690
100
AcDbEntity
  8
0
  6
BYBLOCK
 62
     1
100
AcDbLine
 10
172.57318
 20
846.397871
 30
0.0
 11
172.57318
 21
824.282735
 31
0.0
  0
LINE
  5
691
100
AcDbEntity
  8
0
  6
BYBLOCK
 62
     1
100
AcDbLine
 10
122.57318
 20
826.282735
 30
0.0
 11
170.57318
 21
826.282735
 31
0.0
  0
INSERT
  5
692
100
AcDbEntity
  8
0
  6
BYBLOCK
 62
     1
100
AcDbBlockReference
  2
_OPEN30
 10
120.57318
 20
826.282735
 30
0.0
 41
2.0
 42
2.0
 43
2.0
 50
180.0
  0
INSERT
  5
693
100
AcDbEntity
  8
0
  6
BYBLOCK
 62
     1
100
AcDbBlockReference
  2
_OPEN30
 10
172.57318
 20
826.282735
 30
0.0
 41
2.0
 42
2.0
 43
2.0
  0
MTEXT
  5
694
100
AcDbEntity
  8
0
  6
BYBLOCK
 62
     3
100
AcDbMText
 10
146.57318
 20
828.782735
 30
0.0
 40
3.0
 41
0.0
 71
     5
 72
     1
  1
\A1;52
  0
POINT
  5
695
100
AcDbEntity
  8
DEFPOINTS
  6
BYBLOCK
 62
     0
100
AcDbPoint
 10
120.57318
 20
860.897871
 30
0.0
  0
POINT
  5
696
100
AcDbEntity
  8
DEFPOINTS
  6
BYBLOCK
 62
     0
100
AcDbPoint
 10
172.57318
 20
847.397871
 30
0.0
  0
POINT
  5
697
100
AcDbEntity
  8
DEFPOINTS
  6
BYBLOCK
 62
     0
100
AcDbPoint
 10
172.57318
 20
826.282735
 30
0.0
  0
ENDBLK
  5
698
100
AcDbEntity
  8
0
100
AcDbBlockEnd
  0
BLOCK
  5
678
100
AcDbEntity
  8
0
100
AcDbBlockBegin
  2
*D6
 70
     1
 10
0.0
 20
0.0
 30
0.0
  3
*D6
  1

  0
LINE
  5
679
100
AcDbEntity
  8
0
  6
BYBLOCK
 62
     1
100
AcDbLine
 10
173.57318
 20
847.397871
 30
0.0
 11
197.57818
 21
847.397871
 31
0.0
  0
LINE
  5
67A
100
AcDbEntity
  8
0
  6
BYBLOCK
 62
     1
100
AcDbLine
 10
173.57318
 20
874.397871
 30
0.0
 11
197.57818
 21
874.397871
 31
0.0
  0
LINE
  5
67B
100
AcDbEntity
  8
0
  6
BYBLOCK
 62
     1
100
AcDbLine
 10
195.57818
 20
849.397871
 30
0.0
 11
195.57818
 21
872.397871
 31
0.0
  0
INSERT
  5
67C
100
AcDbEntity
  8
0
  6
BYBLOCK
 62
     1
100
AcDbBlockReference
  2
_OPEN30
 10
195.57818
 20
847.397871
 30
0.0
 41
2.0
 42
2.0
 43
2.0
 50
270.0
  0
INSERT
  5
67D
100
AcDbEntity
  8
0
  6
BYBLOCK
 62
     1
100
AcDbBlockReference
  2
_OPEN30
 10
195.57818
 20
874.397871
 30
0.0
 41
2.0
 42
2.0
 43
2.0
 50
90.0
  0
MTEXT
  5
67E
100
AcDbEntity
  8
0
  6
BYBLOCK
 62
     3
100
AcDbMText
 10
193.07818
 20
861.747871
 30
0.0
 40
3.0
 41
0.0
 71
     5
 72
     1
  1
\A1;27
 11
0.0
 21
1.0
 31
0.0
  0
POINT
  5
67F
100
AcDbEntity
  8
DEFPOINTS
  6
BYBLOCK
 62
     0
100
AcDbPoint
 10
172.57318
 20
847.397871
 30
0.0
  0
POINT
  5
680
100
AcDbEntity
  8
DEFPOINTS
  6
BYBLOCK
 62
     0
100
AcDbPoint
 10
172.57318
 20
874.397871
 30
0.0
  0
POINT
  5
681
100
AcDbEntity
  8
DEFPOINTS
  6
BYBLOCK
 62
     0
100
AcDbPoint
 10
195.57818
 20
874.397871
 30
0.0
  0
ENDBLK
  5
682
100
AcDbEntity
  8
0
100
AcDbBlockEnd
  0
BLOCK
  5
6A4
100
AcDbEntity
  8
0
100
AcDbBlockBegin
  2
*D7
 70
     1
 10
0.0
 20
0.0
 30
0.0
  3
*D7
  1

  0
LINE
  5
6A5
100
AcDbEntity
  8
0
  6
BYBLOCK
 62
     1
100
AcDbLine
 10
471.57318
 20
885.897871
 30
0.0
 11
492.940384
 21
885.897871
 31
0.0
  0
LINE
  5
6A6
100
AcDbEntity
  8
0
  6
BYBLOCK
 62
     1
100
AcDbLine
 10
471.57318
 20
835.897871
 30
0.0
 11
492.940384
 21
835.897871
 31
0.0
  0
LINE
  5
6A7
100
AcDbEntity
  8
0
  6
BYBLOCK
 62
     1
100
AcDbLine
 10
490.940384
 20
883.897871
 30
0.0
 11
490.940384
 21
837.897871
 31
0.0
  0
INSERT
  5
6A8
100
AcDbEntity
  8
0
  6
BYBLOCK
 62
     1
100
AcDbBlockReference
  2
_OPEN30
 10
490.940384
 20
885.897871
 30
0.0
 41
2.0
 42
2.0
 43
2.0
 50
90.0
  0
INSERT
  5
6A9
100
AcDbEntity
  8
0
  6
BYBLOCK
 62
     1
100
AcDbBlockReference
  2
_OPEN30
 10
490.940384
 20
835.897871
 30
0.0
 41
2.0
 42
2.0
 43
2.0
 50
270.0
  0
MTEXT
  5
6AA
100
AcDbEntity
  8
0
  6
BYBLOCK
 62
     3
100
AcDbMText
 10
488.440384
 20
860.897871
 30
0.0
 40
3.0
 41
0.0
 71
     5
 72
     1
  1
\A1;50
 11
0.0
 21
1.0
 31
0.0
  0
POINT
  5
6AB
100
AcDbEntity
  8
DEFPOINTS
  6
BYBLOCK
 62
     0
100
AcDbPoint
 10
470.57318
 20
885.897871
 30
0.0
  0
POINT
  5
6AC
100
AcDbEntity
  8
DEFPOINTS
  6
BYBLOCK
 62
     0
100
AcDbPoint
 10
470.57318
 20
835.897871
 30
0.0
  0
POINT
  5
6AD
100
AcDbEntity
  8
DEFPOINTS
  6
BYBLOCK
 62
     0
100
AcDbPoint
 10
490.940384
 20
835.897871
 30
0.0
  0
ENDBLK
  5
6AE
100
AcDbEntity
  8
0
100
AcDbBlockEnd
  0
BLOCK
  5
699
100
AcDbEntity
  8
0
100
AcDbBlockBegin
  2
*D8
 70
     1
 10
0.0
 20
0.0
 30
0.0
  3
*D8
  1

  0
LINE
  5
69A
100
AcDbEntity
  8
0
  6
BYBLOCK
 62
     1
100
AcDbLine
 10
471.57318
 20
766.022351
 30
0.0
 11
494.041881
 21
766.022351
 31
0.0
  0
LINE
  5
69B
100
AcDbEntity
  8
0
  6
BYBLOCK
 62
     1
100
AcDbLine
 10
471.57318
 20
716.022351
 30
0.0
 11
494.041881
 21
716.022351
 31
0.0
  0
LINE
  5
69C
100
AcDbEntity
  8
0
  6
BYBLOCK
 62
     1
100
AcDbLine
 10
492.041881
 20
764.022351
 30
0.0
 11
492.041881
 21
718.022351
 31
0.0
  0
INSERT
  5
69D
100
AcDbEntity
  8
0
  6
BYBLOCK
 62
     1
100
AcDbBlockReference
  2
_OPEN30
 10
492.041881
 20
766.022351
 30
0.0
 41
2.0
 42
2.0
 43
2.0
 50
90.0
  0
INSERT
  5
69E
100
AcDbEntity
  8
0
  6
BYBLOCK
 62
     1
100
AcDbBlockReference
  2
_OPEN30
 10
492.041881
 20
716.022351
 30
0.0
 41
2.0
 42
2.0
 43
2.0
 50
270.0
  0
MTEXT
  5
69F
100
AcDbEntity
  8
0
  6
BYBLOCK
 62
     3
100
AcDbMText
 10
489.541881
 20
741.022351
 30
0.0
 40
3.0
 41
0.0
 71
     5
 72
     1
  1
\A1;50
 11
0.0
 21
1.0
 31
0.0
  0
POINT
  5
6A0
100
AcDbEntity
  8
DEFPOINTS
  6
BYBLOCK
 62
     0
100
AcDbPoint
 10
470.57318
 20
766.022351
 30
0.0
  0
POINT
  5
6A1
100
AcDbEntity
  8
DEFPOINTS
  6
BYBLOCK
 62
     0
100
AcDbPoint
 10
470.57318
 20
716.022351
 30
0.0
  0
POINT
  5
6A2
100
AcDbEntity
  8
DEFPOINTS
  6
BYBLOCK
 62
     0
100
AcDbPoint
 10
492.041881
 20
716.022351
 30
0.0
  0
ENDBLK
  5
6A3
100
AcDbEntity
  8
0
100
AcDbBlockEnd
  0
BLOCK
  5
683
100
AcDbEntity
  8
0
100
AcDbBlockBegin
  2
*D9
 70
     1
 10
0.0
 20
0.0
 30
0.0
  3
*D9
  1

  0
LINE
  5
684
100
AcDbEntity
  8
0
  6
BYBLOCK
 62
     1
100
AcDbLine
 10
122.07318
 20
716.022351
 30
0.0
 11
103.269001
 21
716.022351
 31
0.0
  0
LINE
  5
685
100
AcDbEntity
  8
0
  6
BYBLOCK
 62
     1
100
AcDbLine
 10
119.57318
 20
766.022351
 30
0.0
 11
103.269001
 21
766.022351
 31
0.0
  0
LINE
  5
686
100
AcDbEntity
  8
0
  6
BYBLOCK
 62
     1
100
AcDbLine
 10
105.269001
 20
718.022351
 30
0.0
 11
105.269001
 21
764.022351
 31
0.0
  0
INSERT
  5
687
100
AcDbEntity
  8
0
  6
BYBLOCK
 62
     1
100
AcDbBlockReference
  2
_OPEN30
 10
105.269001
 20
716.022351
 30
0.0
 41
2.0
 42
2.0
 43
2.0
 50
270.0
  0
INSERT
  5
688
100
AcDbEntity
  8
0
  6
BYBLOCK
 62
     1
100
AcDbBlockReference
  2
_OPEN30
 10
105.269001
 20
766.022351
 30
0.0
 41
2.0
 42
2.0
 43
2.0
 50
90.0
  0
MTEXT
  5
689
100
AcDbEntity
  8
0
  6
BYBLOCK
 62
     3
100
AcDbMText
 10
102.769001
 20
741.022351
 30
0.0
 40
3.0
 41
0.0
 71
     5
 72
     1
  1
\A1;50
 11
0.0
 21
1.0
 31
0.0
  0
POINT
  5
68A
100
AcDbEntity
  8
DEFPOINTS
  6
BYBLOCK
 62
     0
100
AcDbPoint
 10
123.07318
 20
716.022351
 30
0.0
  0
POINT
  5
68B
100
AcDbEntity
  8
DEFPOINTS
  6
BYBLOCK
 62
     0
100
AcDbPoint
 10
120.57318
 20
766.022351
 30
0.0
  0
POINT
  5
68C
100
AcDbEntity
  8
DEFPOINTS
  6
BYBLOCK
 62
     0
100
AcDbPoint
 10
105.269001
 20
766.022351
 30
0.0
  0
ENDBLK
  5
68D
100
AcDbEntity
  8
0
100
AcDbBlockEnd
  0
ENDSEC
  0
SECTION
  2
ENTITIES
  0
LINE
  5
2A
100
AcDbEntity
  8
外形
  6
CONTINUOUS
100
AcDbLine
 10
470.57318
 20
835.897871
 30
0.0
 11
205.965647
 21
835.897871
 31
0.0
  0
LINE
  5
2C
100
AcDbEntity
  8
外形
  6
CONTINUOUS
100
AcDbLine
 10
470.57318
 20
885.897871
 30
0.0
 11
205.965647
 21
885.897871
 31
0.0
  0
DIMENSION
  5
2D
100
AcDbEntity
  8
寸法
  6
CONTINUOUS
100
AcDbDimension
  2
*D4
 10
470.57318
 20
808.978332
 30
0.0
 11
295.57318
 21
811.478332
 31
0.0
 70
    32
  3
STANDARD
100
AcDbAlignedDimension
 13
120.57318
 23
860.897871
 33
0.0
 14
470.57318
 24
835.897871
 34
0.0
100
AcDbRotatedDimension
1001
ACAD
1000
DSTYLE
1002
{
1002
}
  0
LINE
  5
3D
100
AcDbEntity
  8
外形
  6
CONTINUOUS
100
AcDbLine
 10
153.57318
 20
766.022351
 30
0.0
 11
470.57318
 21
766.022351
 31
0.0
  0
LINE
  5
3E
100
AcDbEntity
  8
外形
  6
CONTINUOUS
100
AcDbLine
 10
123.07318
 20
716.022351
 30
0.0
 11
470.57318
 21
716.022351
 31
0.0
  0
TEXT
  5
3F
100
AcDbEntity
  8
外形
  6
CONTINUOUS
 62
     2
100
AcDbText
 10
180.221177
 20
637.629184
 30
0.0
 40
10.5
  1
ＰＲＤＣＮ　５０５０Ｕ３２
100
AcDbText
  0
LINE
  5
40
100
AcDbEntity
  8
外形
  6
CONTINUOUS
100
AcDbLine
 10
123.07318
 20
750.152351
 30
0.0
 11
123.07318
 21
716.022351
 31
0.0
  0
DIMENSION
  5
41
100
AcDbEntity
  8
寸法
  6
CONTINUOUS
100
AcDbDimension
  2
*D9
 10
105.269001
 20
766.022351
 30
0.0
 11
105.269001
 21
741.022351
 31
0.0
 70
   160
  3
STANDARD
100
AcDbAlignedDimension
 13
123.07318
 23
716.022351
 33
0.0
 14
120.57318
 24
766.022351
 34
0.0
 50
90.0
100
AcDbRotatedDimension
1001
ACAD
1000
DSTYLE
1002
{
1002
}
  0
LINE
  5
4E
100
AcDbEntity
  8
外形
  6
CONTINUOUS
100
AcDbLine
 10
145.160962
 20
765.522351
 30
0.0
 11
153.57318
 21
765.522351
 31
0.0
  0
LINE
  5
4F
100
AcDbEntity
  8
外形
  6
CONTINUOUS
100
AcDbLine
 10
120.57318
 20
766.022351
 30
0.0
 11
152.57318
 21
766.022351
 31
0.0
  0
LINE
  5
51
100
AcDbEntity
  8
外形
  6
CONTINUOUS
100
AcDbLine
 10
121.742089
 20
756.502351
 30
0.0
 11
144.053445
 21
756.502351
 31
0.0
  0
LINE
  5
52
100
AcDbEntity
  8
外形
  6
CONTINUOUS
100
AcDbLine
 10
120.57318
 20
766.022351
 30
0.0
 11
121.742089
 21
756.502351
 31
0.0
  0
LINE
  5
53
100
AcDbEntity
  8
外形
  6
CONTINUOUS
100
AcDbLine
 10
144.053445
 20
756.502351
 30
0.0
 11
145.160962
 21
765.522351
 31
0.0
  0
LINE
  5
54
100
AcDbEntity
  8
外形
  6
CONTINUOUS
100
AcDbLine
 10
144.053445
 20
750.152351
 30
0.0
 11
144.053445
 21
756.502351
 31
0.0
  0
LINE
  5
55
100
AcDbEntity
  8
外形
  6
CONTINUOUS
100
AcDbLine
 10
153.57318
 20
765.522351
 30
0.0
 11
153.57318
 21
766.022351
 31
0.0
  0
LINE
  5
56
100
AcDbEntity
  8
外形
  6
CONTINUOUS
100
AcDbLine
 10
152.511788
 20
765.522351
 30
0.0
 11
152.57318
 21
766.022351
 31
0.0
  0
LINE
  5
57
100
AcDbEntity
  8
外形
  6
CONTINUOUS
100
AcDbLine
 10
205.965647
 20
885.897871
 30
0.0
 11
172.57318
 21
874.397871
 31
0.0
  0
LINE
  5
58
100
AcDbEntity
  8
外形
  6
CONTINUOUS
100
AcDbLine
 10
205.965647
 20
835.897871
 30
0.0
 11
172.57318
 21
847.397871
 31
0.0
  0
DIMENSION
  5
59
100
AcDbEntity
  8
寸法
  6
CONTINUOUS
100
AcDbDimension
  2
*D6
 10
195.57818
 20
874.397871
 30
0.0
 11
195.57818
 21
861.747871
 31
0.0
 70
   160
  3
STANDARD
100
AcDbAlignedDimension
 13
172.57318
 23
847.397871
 33
0.0
 14
172.57318
 24
874.397871
 34
0.0
 50
90.0
100
AcDbRotatedDimension
1001
ACAD
1000
DSTYLE
1002
{
1002
}
  0
DIMENSION
  5
66
100
AcDbEntity
  8
寸法
  6
CONTINUOUS
100
AcDbDimension
  2
*D3
 10
107.469001
 20
885.897871
 30
0.0
 11
104.969001
 21
865.397871
 31
0.0
 70
    32
  3
STANDARD
100
AcDbAlignedDimension
 13
136.57318
 23
844.897871
 33
0.0
 14
205.965647
 24
885.897871
 34
0.0
 50
90.0
100
AcDbRotatedDimension
1001
ACAD
1000
DSTYLE
1002
{
1002
}
  0
LINE
  5
74
100
AcDbEntity
  8
外形
  6
CONTINUOUS
100
AcDbLine
 10
78.840924
 20
875.728962
 30
0.0
 11
78.840924
 21
846.06678
 31
0.0
  0
LINE
  5
75
100
AcDbEntity
  8
外形
  6
CONTINUOUS
100
AcDbLine
 10
88.360924
 20
885.897871
 30
0.0
 11
88.360924
 21
835.897871
 31
0.0
  0
LINE
  5
76
100
AcDbEntity
  8
外形
  6
CONTINUOUS
100
AcDbLine
 10
38.360924
 20
885.897871
 30
0.0
 11
38.360924
 21
835.897871
 31
0.0
  0
LINE
  5
77
100
AcDbEntity
  8
外形
  6
CONTINUOUS
100
AcDbLine
 10
72.490924
 20
847.397871
 30
0.0
 11
38.360924
 21
847.397871
 31
0.0
  0
LINE
  5
78
100
AcDbEntity
  8
外形
  6
CONTINUOUS
100
AcDbLine
 10
88.360924
 20
835.897871
 30
0.0
 11
38.360924
 21
835.897871
 31
0.0
  0
LINE
  5
79
100
AcDbEntity
  8
外形
  6
CONTINUOUS
100
AcDbLine
 10
78.840924
 20
846.06678
 30
0.0
 11
88.360924
 21
844.897871
 31
0.0
  0
LINE
  5
7A
100
AcDbEntity
  8
外形
  6
CONTINUOUS
100
AcDbLine
 10
88.360924
 20
885.897871
 30
0.0
 11
38.360924
 21
885.897871
 31
0.0
  0
LINE
  5
7B
100
AcDbEntity
  8
外形
  6
CONTINUOUS
100
AcDbLine
 10
72.490924
 20
874.397871
 30
0.0
 11
38.360924
 21
874.397871
 31
0.0
  0
LINE
  5
7C
100
AcDbEntity
  8
外形
  6
CONTINUOUS
100
AcDbLine
 10
78.840924
 20
875.728962
 30
0.0
 11
88.360924
 21
876.897871
 31
0.0
  0
CIRCLE
  5
7D
100
AcDbEntity
  8
外形
  6
CONTINUOUS
100
AcDbCircle
 10
136.57318
 20
860.897871
 30
0.0
 40
16.0
  0
LINE
  5
7E
100
AcDbEntity
  8
外形
  6
CONTINUOUS
100
AcDbLine
 10
153.57318
 20
847.397871
 30
0.0
 11
153.57318
 21
874.397871
 31
0.0
  0
LINE
  5
7F
100
AcDbEntity
  8
外形
  6
CONTINUOUS
100
AcDbLine
 10
172.57318
 20
847.397871
 30
0.0
 11
145.160962
 21
847.397871
 31
0.0
  0
DIMENSION
  5
80
100
AcDbEntity
  8
寸法
  6
CONTINUOUS
100
AcDbDimension
  2
*D5
 10
172.57318
 20
826.282735
 30
0.0
 11
146.57318
 21
828.782735
 31
0.0
 70
    32
  3
STANDARD
100
AcDbAlignedDimension
 13
120.57318
 23
860.897871
 33
0.0
 14
172.57318
 24
847.397871
 34
0.0
100
AcDbRotatedDimension
1001
ACAD
1000
DSTYLE
1002
{
1002
}
  0
CIRCLE
  5
8D
100
AcDbEntity
  8
外形
  6
CONTINUOUS
100
AcDbCircle
 10
136.57318
 20
860.897871
 30
0.0
 40
4.75
  0
CIRCLE
  5
8E
100
AcDbEntity
  8
外形
  6
CONTINUOUS
100
AcDbCircle
 10
163.07318
 20
860.897871
 30
0.0
 40
5.053
  0
CIRCLE
  5
8F
100
AcDbEntity
  8
外形
  6
CONTINUOUS
100
AcDbCircle
 10
163.07318
 20
860.897871
 30
0.0
 40
6.0
  0
LINE
  5
90
100
AcDbEntity
  8
外形
  6
CONTINUOUS
100
AcDbLine
 10
166.07318
 20
862.629922
 30
0.0
 11
166.07318
 21
859.16582
 31
0.0
  0
LINE
  5
91
100
AcDbEntity
  8
外形
  6
CONTINUOUS
100
AcDbLine
 10
160.07318
 20
862.629922
 30
0.0
 11
160.07318
 21
859.16582
 31
0.0
  0
LINE
  5
92
100
AcDbEntity
  8
外形
  6
CONTINUOUS
100
AcDbLine
 10
166.07318
 20
859.16582
 30
0.0
 11
163.07318
 21
857.433769
 31
0.0
  0
LINE
  5
93
100
AcDbEntity
  8
外形
  6
CONTINUOUS
100
AcDbLine
 10
160.07318
 20
859.16582
 30
0.0
 11
163.07318
 21
857.433769
 31
0.0
  0
LINE
  5
94
100
AcDbEntity
  8
外形
  6
CONTINUOUS
100
AcDbLine
 10
163.07318
 20
864.361973
 30
0.0
 11
166.07318
 21
862.629922
 31
0.0
  0
LINE
  5
95
100
AcDbEntity
  8
外形
  6
CONTINUOUS
100
AcDbLine
 10
163.07318
 20
864.361973
 30
0.0
 11
160.07318
 21
862.629922
 31
0.0
  0
LINE
  5
96
100
AcDbEntity
  8
外形
  6
CONTINUOUS
100
AcDbLine
 10
172.57318
 20
874.397871
 30
0.0
 11
145.160962
 21
874.397871
 31
0.0
  0
DIMENSION
  5
97
100
AcDbEntity
  8
寸法
  6
CONTINUOUS
100
AcDbDimension
  2
*D8
 10
492.041881
 20
716.022351
 30
0.0
 11
489.541881
 21
741.022351
 31
0.0
 70
    32
  3
STANDARD
100
AcDbAlignedDimension
 13
470.57318
 23
766.022351
 33
0.0
 14
470.57318
 24
716.022351
 34
0.0
 50
90.0
100
AcDbRotatedDimension
1001
ACAD
1000
DSTYLE
1002
{
1002
}
  0
LINE
  5
A4
100
AcDbEntity
  8
外形
  6
CONTINUOUS
100
AcDbLine
 10
470.57318
 20
766.022351
 30
0.0
 11
470.57318
 21
716.022351
 31
0.0
  0
DIMENSION
  5
A5
100
AcDbEntity
  8
寸法
  6
CONTINUOUS
100
AcDbDimension
  2
*D7
 10
490.940384
 20
835.897871
 30
0.0
 11
488.440384
 21
860.897871
 31
0.0
 70
    32
  3
STANDARD
100
AcDbAlignedDimension
 13
470.57318
 23
885.897871
 33
0.0
 14
470.57318
 24
835.897871
 34
0.0
 50
90.0
100
AcDbRotatedDimension
1001
ACAD
1000
DSTYLE
1002
{
1002
}
  0
LINE
  5
B2
100
AcDbEntity
  8
外形
  6
CONTINUOUS
100
AcDbLine
 10
470.57318
 20
885.897871
 30
0.0
 11
470.57318
 21
835.897871
 31
0.0
  0
LINE
  5
C7
100
AcDbEntity
  8
外形
  6
CONTINUOUS
100
AcDbLine
 10
122.57318
 20
750.152351
 30
0.0
 11
144.053445
 21
750.152351
 31
0.0
  0
LINE
  5
C9
100
AcDbEntity
  8
外形
  6
CONTINUOUS
100
AcDbLine
 10
122.57318
 20
756.502351
 30
0.0
 11
122.57318
 21
750.152351
 31
0.0
  0
LINE
  5
D0
100
AcDbEntity
  8
外形
  6
CONTINUOUS
100
AcDbLine
 10
72.490924
 20
874.897871
 30
0.0
 11
72.490924
 21
846.897871
 31
0.0
  0
LINE
  5
D2
100
AcDbEntity
  8
外形
  6
CONTINUOUS
100
AcDbLine
 10
78.840924
 20
874.897871
 30
0.0
 11
72.490924
 21
874.897871
 31
0.0
  0
LINE
  5
D3
100
AcDbEntity
  8
外形
  6
CONTINUOUS
100
AcDbLine
 10
78.840924
 20
846.897871
 30
0.0
 11
72.490924
 21
846.897871
 31
0.0
  0
LINE
  5
592
100
AcDbEntity
  8
外形
  6
CENTER
 62
     7
 48
2.0
100
AcDbLine
 10
115.065129
 20
860.897871
 30
0.0
 11
176.552328
 21
860.897871
 31
0.0
  0
LINE
  5
593
100
AcDbEntity
  8
外形
  6
CENTER
 62
     7
 48
2.0
100
AcDbLine
 10
136.57318
 20
881.497669
 30
0.0
 11
136.57318
 21
837.951268
 31
0.0
  0
LINE
  5
594
100
AcDbEntity
  8
外形
  6
CONTINUOUS
100
AcDbLine
 10
316.64636
 20
1711.759844
 30
0.0
 11
316.64636
 21
1738.759844
 31
0.0
  0
LINE
  5
595
100
AcDbEntity
  8
外形
  6
CENTER
 62
     7
 48
2.0
100
AcDbLine
 10
163.07318
 20
850.861973
 30
0.0
 11
163.07318
 21
871.157884
 31
0.0
  0
LINE
  5
5A3
100
AcDbEntity
  8
外形
  6
CONTINUOUS
100
AcDbLine
 10
205.965647
 20
766.022351
 30
0.0
 11
205.965647
 21
716.022351
 31
0.0
  0
LINE
  5
5A4
100
AcDbEntity
  8
外形
  6
CONTINUOUS
100
AcDbLine
 10
172.57318
 20
766.022351
 30
0.0
 11
172.57318
 21
716.022351
 31
0.0
  0
ENDSEC
  0
SECTION
  2
OBJECTS
  0
DICTIONARY
  5
1E
100
AcDbDictionary
  3
ACAD_GROUP
350
1C
  3
ACAD_MLINESTYLE
350
1D
  0
DICTIONARY
  5
37
100
AcDbDictionary
280
     1
  3
ACAD_XREC_ROUNDTRIP
360
38
  0
DICTIONARY
  5
22
100
AcDbDictionary
280
     1
  3
ACAD_XREC_ROUNDTRIP
360
23
  0
DICTIONARY
  5
3
100
AcDbDictionary
280
     1
  3
ACAD_LAYOUTSELFREF
360
4
  0
DICTIONARY
  5
A
100
AcDbDictionary
280
     1
  3
ACAD_LAYOUTSELFREF
360
B
  0
DICTIONARY
  5
1C
102
{ACAD_REACTORS
330
1E
102
}
100
AcDbDictionary
  0
DICTIONARY
  5
1D
102
{ACAD_REACTORS
330
1E
102
}
100
AcDbDictionary
  3
STANDARD
350
20
  0
XRECORD
  5
38
102
{ACAD_REACTORS
330
37
102
}
100
AcDbXrecord
102
PLOTBIT
280
     0
  0
XRECORD
  5
23
102
{ACAD_REACTORS
330
22
102
}
100
AcDbXrecord
102
ACADR14ROUNDTRIP
1000
DSTYLE
1002
{
1070
   341
340
24
1070
   343
340
24
1070
   344
340
24
1002
}
  0
XRECORD
  5
4
102
{ACAD_REACTORS
330
3
102
}
100
AcDbXrecord
340
2
  0
XRECORD
  5
B
102
{ACAD_REACTORS
330
A
102
}
100
AcDbXrecord
340
9
  0
MLINESTYLE
  5
20
102
{ACAD_REACTORS
330
1D
102
}
100
AcDbMlineStyle
  2
STANDARD
 70
     0
  3

 62
     0
 51
90.0
 52
90.0
 71
     2
 49
0.5
 62
   256
  6
BYLAYER
 49
-0.5
 62
   256
  6
BYLAYER
  0
ENDSEC
  0
EOF
