  0
SECTION
  2
HEADER
  9
$ACADVER
  1
AC1014
  9
$ACADMAINTVER
 70
     0
  9
$DWGCODEPAGE
  3
ANSI_932
  9
$INSBASE
 10
16.219947
 20
22.705508
 30
0.0
  9
$EXTMIN
 10
48.381622
 20
76.630843
 30
0.0
  9
$EXTMAX
 10
381.729029
 20
236.409941
 30
0.0
  9
$LIMMIN
 10
-587.250952
 20
327.890188
  9
$LIMMAX
 10
600.749048
 20
957.890188
  9
$ORTHOMODE
 70
     0
  9
$REGENMODE
 70
     1
  9
$FILLMODE
 70
     1
  9
$QTEXTMODE
 70
     0
  9
$MIRRTEXT
 70
     1
  9
$DRAGMODE
 70
     2
  9
$LTSCALE
 40
5.0
  9
$OSMODE
 70
    36
  9
$ATTMODE
 70
     1
  9
$TEXTSIZE
 40
2.0
  9
$TRACEWID
 40
0.05
  9
$TEXTSTYLE
  7
STANDARD
  9
$CLAYER
  8
外形
  9
$CELTYPE
  6
CONTINUOUS
  9
$CECOLOR
 62
   256
  9
$CELTSCALE
 40
1.0
  9
$DELOBJ
 70
     1
  9
$DISPSILH
 70
     0
  9
$DIMSCALE
 40
1.0
  9
$DIMASZ
 40
2.0
  9
$DIMEXO
 40
1.0
  9
$DIMDLI
 40
8.0
  9
$DIMRND
 40
0.0
  9
$DIMDLE
 40
0.0
  9
$DIMEXE
 40
2.0
  9
$DIMTP
 40
0.0
  9
$DIMTM
 40
0.0
  9
$DIMTXT
 40
3.0
  9
$DIMCEN
 40
-1.0
  9
$DIMTSZ
 40
0.0
  9
$DIMTOL
 70
     0
  9
$DIMLIM
 70
     0
  9
$DIMTIH
 70
     0
  9
$DIMTOH
 70
     0
  9
$DIMSE1
 70
     0
  9
$DIMSE2
 70
     0
  9
$DIMTAD
 70
     1
  9
$DIMZIN
 70
     8
  9
$DIMBLK
  1

  9
$DIMASO
 70
     1
  9
$DIMSHO
 70
     1
  9
$DIMPOST
  1

  9
$DIMAPOST
  1

  9
$DIMALT
 70
     0
  9
$DIMALTD
 70
     2
  9
$DIMALTF
 40
25.4
  9
$DIMLFAC
 40
1.0
  9
$DIMTOFL
 70
     1
  9
$DIMTVP
 40
0.0
  9
$DIMTIX
 70
     0
  9
$DIMSOXD
 70
     0
  9
$DIMSAH
 70
     1
  9
$DIMBLK1
  1
_OPEN30
  9
$DIMBLK2
  1
_OPEN30
  9
$DIMSTYLE
  2
STANDARD
  9
$DIMCLRD
 70
     1
  9
$DIMCLRE
 70
     1
  9
$DIMCLRT
 70
     3
  9
$DIMTFAC
 40
1.0
  9
$DIMGAP
 40
1.0
  9
$DIMJUST
 70
     0
  9
$DIMSD1
 70
     0
  9
$DIMSD2
 70
     0
  9
$DIMTOLJ
 70
     1
  9
$DIMTZIN
 70
     8
  9
$DIMALTZ
 70
     0
  9
$DIMALTTZ
 70
     0
  9
$DIMFIT
 70
     3
  9
$DIMUPT
 70
     0
  9
$DIMUNIT
 70
     2
  9
$DIMDEC
 70
     1
  9
$DIMTDEC
 70
     0
  9
$DIMALTU
 70
     2
  9
$DIMALTTD
 70
     2
  9
$DIMTXSTY
  7
STANDARD
  9
$DIMAUNIT
 70
     0
  9
$LUNITS
 70
     2
  9
$LUPREC
 70
     0
  9
$SKETCHINC
 40
0.1
  9
$FILLETRAD
 40
1.2
  9
$AUNITS
 70
     0
  9
$AUPREC
 70
     0
  9
$MENU
  1
acad
  9
$ELEVATION
 40
0.0
  9
$PELEVATION
 40
0.0
  9
$THICKNESS
 40
0.0
  9
$LIMCHECK
 70
     0
  9
$BLIPMODE
 70
     0
  9
$CHAMFERA
 40
0.0
  9
$CHAMFERB
 40
0.0
  9
$CHAMFERC
 40
0.0
  9
$CHAMFERD
 40
0.0
  9
$SKPOLY
 70
     0
  9
$TDCREATE
 40
2450751.535399305
  9
$TDUPDATE
 40
2451929.432361111
  9
$TDINDWG
 40
1.1534187847
  9
$TDUSRTIMER
 40
1.1534187847
  9
$USRTIMER
 70
     1
  9
$ANGBASE
 50
0.0
  9
$ANGDIR
 70
     0
  9
$PDMODE
 70
     0
  9
$PDSIZE
 40
0.0
  9
$PLINEWID
 40
0.0
  9
$COORDS
 70
     1
  9
$SPLFRAME
 70
     0
  9
$SPLINETYPE
 70
     5
  9
$SPLINESEGS
 70
     8
  9
$ATTDIA
 70
     1
  9
$ATTREQ
 70
     1
  9
$HANDLING
 70
     1
  9
$HANDSEED
  5
1E6
  9
$SURFTAB1
 70
     6
  9
$SURFTAB2
 70
     6
  9
$SURFTYPE
 70
     6
  9
$SURFU
 70
     6
  9
$SURFV
 70
     6
  9
$UCSNAME
  2

  9
$UCSORG
 10
0.0
 20
0.0
 30
0.0
  9
$UCSXDIR
 10
1.0
 20
0.0
 30
0.0
  9
$UCSYDIR
 10
0.0
 20
1.0
 30
0.0
  9
$PUCSNAME
  2

  9
$PUCSORG
 10
0.0
 20
0.0
 30
0.0
  9
$PUCSXDIR
 10
1.0
 20
0.0
 30
0.0
  9
$PUCSYDIR
 10
0.0
 20
1.0
 30
0.0
  9
$USERI1
 70
     0
  9
$USERI2
 70
     0
  9
$USERI3
 70
     0
  9
$USERI4
 70
     0
  9
$USERI5
 70
     0
  9
$USERR1
 40
0.0
  9
$USERR2
 40
0.0
  9
$USERR3
 40
0.0
  9
$USERR4
 40
0.0
  9
$USERR5
 40
0.0
  9
$WORLDVIEW
 70
     1
  9
$SHADEDGE
 70
     3
  9
$SHADEDIF
 70
    70
  9
$TILEMODE
 70
     1
  9
$MAXACTVP
 70
    16
  9
$PINSBASE
 10
0.0
 20
0.0
 30
0.0
  9
$PLIMCHECK
 70
     0
  9
$PEXTMIN
 10
1.000000E+20
 20
1.000000E+20
 30
1.000000E+20
  9
$PEXTMAX
 10
-1.000000E+20
 20
-1.000000E+20
 30
-1.000000E+20
  9
$PLIMMIN
 10
0.0
 20
0.0
  9
$PLIMMAX
 10
12.0
 20
9.0
  9
$UNITMODE
 70
     0
  9
$VISRETAIN
 70
     0
  9
$PLINEGEN
 70
     0
  9
$PSLTSCALE
 70
     1
  9
$TREEDEPTH
 70
  3020
  9
$PICKSTYLE
 70
     1
  9
$CMLSTYLE
  2
STANDARD
  9
$CMLJUST
 70
     0
  9
$CMLSCALE
 40
1.0
  9
$PROXYGRAPHICS
 70
     1
  9
$MEASUREMENT
 70
     0
  0
ENDSEC
  0
SECTION
  2
CLASSES
  0
CLASS
  1
LWPOLYLINE
  2
AcDbPolyline
  3
"AutoCAD"
 90
        0
280
     0
281
     1
  0
CLASS
  1
ACDBDICTIONARYWDFLT
  2
AcDbDictionaryWithDefault
  3
AutoCAD 2000
 90
        0
280
     1
281
     0
  0
CLASS
  1
ACDBPLACEHOLDER
  2
AcDbPlaceHolder
  3
AutoCAD 2000
 90
        0
280
     1
281
     0
  0
CLASS
  1
LAYOUT
  2
AcDbLayout
  3
AutoCAD 2000
 90
        0
280
     1
281
     0
  0
CLASS
  1
LONG_TRANSACTION
  2
AcDbLongTransaction
  3
AutoCAD 2000
 90
        0
280
     1
281
     0
  0
CLASS
  1
LWPOLYLINE
  2
AcDbPolyline
  3
"AutoCAD"
 90
        0
280
     0
281
     1
  0
CLASS
  1
HATCH
  2
AcDbHatch
  3
"ACAD_SEDONA"
 90
        0
280
     0
281
     1
  0
CLASS
  1
XRECORD
  2
AcDbXrecord
  3
"<Built In>"
 90
        0
280
     0
281
     0
  0
CLASS
  1
ACME_DOCUMENT
  2
AcMeDbDoc
  3
AcMeServices
 90
        0
280
     1
281
     0
  0
CLASS
  1
AMGSETTINGSOBJ
  2
AmgSettingsObj
  3
"AcadM|Product Description: AutoCAD Mechanical 2000|Company: Autodesk"
 90
        0
280
     1
281
     0
  0
CLASS
  1
ACMESCOPE
  2
AcMeScope
  3
AcMeServices
 90
        0
280
     1
281
     0
  0
CLASS
  1
ACMECOMMANDHISTORY
  2
AcMeCommandHistory
  3
AcMeServices
 90
        0
280
     1
281
     0
  0
CLASS
  1
DICTIONARYVAR
  2
AcDbDictionaryVar
  3
"AutoCAD"
 90
        0
280
     0
281
     0
  0
CLASS
  1
ACIMSYSVARMAN
  2
AcImSysVarManager
  3
AcMeServices
 90
        0
280
     1
281
     0
  0
CLASS
  1
ACIMREALSYSVAR
  2
AcImRealSysVar
  3
AcMeServices
 90
        0
280
     1
281
     0
  0
CLASS
  1
ACIMINTSYSVAR
  2
AcImIntSysVar
  3
AcMeServices
 90
        0
280
     1
281
     0
  0
CLASS
  1
ACMEDRAWINGMAN
  2
AcMeDrawingMan
  3
AcMeServices
 90
        0
280
     1
281
     0
  0
CLASS
  1
ACMEVIEW
  2
AcMeView
  3
AcMeServices
 90
        0
280
     1
281
     0
  0
CLASS
  1
ACDBENTITYCACHE
  2
AcMeEntityCache
  3
AcMeServices
 90
        0
280
     1
281
     0
  0
CLASS
  1
GSMANAGER
  2
AcMeGSManager
  3
AcMeServices
 90
        0
280
     1
281
     0
  0
CLASS
  1
AmdtInternalReactor
  2
AmdtInternalReactor
  3
AcMeServices
 90
        0
280
     1
281
     0
  0
CLASS
  1
ACMESTATEMGR
  2
AcMeStateMgr
  3
AcMeServices
 90
        0
280
     1
281
     0
  0
CLASS
  1
ACME_DATABASE
  2
AcMeDbDatabase
  3
AcMeServices
 90
        0
280
     1
281
     0
  0
CLASS
  1
ACRFINSADJUSTERMGR
  2
AcRfInsAdjusterMgr
  3
AcMeServices
 90
        0
280
     1
281
     0
  0
CLASS
  1
ACMDATADICTIONARY
  2
AcmDataDictionary
  3
"AcmSymBB|Product Description: AutoCAD Mechanical 2000|Company: Autodesk"
 90
        0
280
     1
281
     0
  0
CLASS
  1
ACMDATAENTRYBLOCK
  2
AcmDataEntryBlock
  3
"AcmSymBB|Product Description: AutoCAD Mechanical 2000|Company: Autodesk"
 90
        0
280
     1
281
     0
  0
CLASS
  1
AMGOBJPROPCFG
  2
AmgObjPropCfg
  3
"AmgLay|Product Description: AutoCAD Mechanical 2000|Company: Autodesk"
 90
        1
280
     1
281
     0
  0
CLASS
  1
LAYER_INDEX
  2
AcDbLayerIndex
  3
"Acad"
 90
        0
280
     0
281
     0
  0
CLASS
  1
IDBUFFER
  2
AcDbIdBuffer
  3
"Acad"
 90
        0
280
     0
281
     0
  0
CLASS
  1
LONG_TRANSACTION
  2
AcDbLongTransaction
  3
AutoCAD 2000
 90
        0
280
     1
281
     0
  0
CLASS
  1
LWPOLYLINE
  2
AcDbPolyline
  3
"AutoCAD"
 90
        0
280
     0
281
     1
  0
CLASS
  1
HATCH
  2
AcDbHatch
  3
"ACAD_SEDONA"
 90
        0
280
     0
281
     1
  0
CLASS
  1
XRECORD
  2
AcDbXrecord
  3
"<Built In>"
 90
        0
280
     0
281
     0
  0
ENDSEC
  0
SECTION
  2
TABLES
  0
TABLE
  2
VPORT
  5
16
100
AcDbSymbolTable
 70
     1
  0
VPORT
  5
1E1
100
AcDbSymbolTableRecord
100
AcDbViewportTableRecord
  2
*ACTIVE
 70
     0
 10
0.0
 20
0.0
 11
1.0
 21
1.0
 12
208.711559
 22
170.515304
 13
0.0
 23
0.0
 14
0.05
 24
0.05
 15
10.0
 25
10.0
 16
0.0
 26
0.0
 36
1.0
 17
0.0
 27
0.0
 37
0.0
 40
213.464775
 41
1.710425
 42
50.0
 43
0.0
 44
0.0
 50
0.0
 51
0.0
 71
     0
 72
   100
 73
     1
 74
     1
 75
     0
 76
     0
 77
     0
 78
     0
  0
ENDTAB
  0
TABLE
  2
LTYPE
  5
11
100
AcDbSymbolTable
 70
     1
  0
LTYPE
  5
12
100
AcDbSymbolTableRecord
100
AcDbLinetypeTableRecord
  2
BYBLOCK
 70
     0
  3

 72
    65
 73
     0
 40
0.0
  0
LTYPE
  5
13
100
AcDbSymbolTableRecord
100
AcDbLinetypeTableRecord
  2
BYLAYER
 70
     0
  3

 72
    65
 73
     0
 40
0.0
  0
LTYPE
  5
7
100
AcDbSymbolTableRecord
100
AcDbLinetypeTableRecord
  2
CONTINUOUS
 70
     0
  3
Solid line
 72
    65
 73
     0
 40
0.0
  0
ENDTAB
  0
TABLE
  2
LAYER
  5
E
100
AcDbSymbolTable
 70
     4
  0
LAYER
  5
6
100
AcDbSymbolTableRecord
100
AcDbLayerTableRecord
  2
0
 70
     0
 62
     7
  6
CONTINUOUS
  0
LAYER
  5
74
100
AcDbSymbolTableRecord
100
AcDbLayerTableRecord
  2
外形
 70
     0
 62
     3
  6
CONTINUOUS
  0
LAYER
  5
36
102
{ACAD_XDICTIONARY
360
37
102
}
100
AcDbSymbolTableRecord
100
AcDbLayerTableRecord
  2
DEFPOINTS
 70
     0
 62
     7
  6
CONTINUOUS
  0
LAYER
  5
59
100
AcDbSymbolTableRecord
100
AcDbLayerTableRecord
  2
寸法
 70
     0
 62
     1
  6
CONTINUOUS
  0
ENDTAB
  0
TABLE
  2
STYLE
  5
F
100
AcDbSymbolTable
 70
     1
  0
STYLE
  5
10
100
AcDbSymbolTableRecord
100
AcDbTextStyleTableRecord
  2
STANDARD
 70
     0
 40
0.0
 41
1.0
 50
0.0
 71
     0
 42
2.0
  3
MONOTXT
  4
BIGFONT
  0
ENDTAB
  0
TABLE
  2
VIEW
  5
14
100
AcDbSymbolTable
 70
     0
  0
ENDTAB
  0
TABLE
  2
UCS
  5
15
100
AcDbSymbolTable
 70
     0
  0
ENDTAB
  0
TABLE
  2
APPID
  5
18
100
AcDbSymbolTable
 70
     1
  0
APPID
  5
19
100
AcDbSymbolTableRecord
100
AcDbRegAppTableRecord
  2
ACAD
 70
     0
  0
ENDTAB
  0
TABLE
  2
DIMSTYLE
  5
1A
100
AcDbSymbolTable
 70
     1
  0
DIMSTYLE
105
23
102
{ACAD_XDICTIONARY
360
24
102
}
102
{ACAD_REACTORS
330
D6
330
58
330
8F
330
E4
330
BD
330
66
102
}
100
AcDbSymbolTableRecord
100
AcDbDimStyleTableRecord
  2
STANDARD
 70
     0
  3

  4

  5

  6
_OPEN30
  7
_OPEN30
 40
1.0
 41
2.0
 42
1.0
 43
8.0
 44
2.0
 45
0.0
 46
0.0
 47
0.0
 48
0.0
140
3.0
141
-1.0
142
0.0
143
25.4
144
1.0
145
0.0
146
1.0
147
1.0
 71
     0
 72
     0
 73
     0
 74
     0
 75
     0
 76
     0
 77
     1
 78
     8
170
     0
171
     2
172
     1
173
     1
174
     0
175
     0
176
     1
177
     1
178
     3
270
     2
271
     1
272
     0
273
     2
274
     2
340
10
275
     0
280
     0
281
     0
282
     0
283
     1
284
     8
285
     0
286
     0
287
     3
288
     0
  0
ENDTAB
  0
TABLE
  2
BLOCK_RECORD
  5
1
100
AcDbSymbolTable
 70
    28
  0
BLOCK_RECORD
  5
2
102
{ACAD_XDICTIONARY
360
3
102
}
100
AcDbSymbolTableRecord
100
AcDbBlockTableRecord
  2
*MODEL_SPACE
  0
BLOCK_RECORD
  5
9
102
{ACAD_XDICTIONARY
360
A
102
}
100
AcDbSymbolTableRecord
100
AcDbBlockTableRecord
  2
*PAPER_SPACE
  0
BLOCK_RECORD
  5
26
100
AcDbSymbolTableRecord
100
AcDbBlockTableRecord
  2
_DOTSMALL
  0
BLOCK_RECORD
  5
122
100
AcDbSymbolTableRecord
100
AcDbBlockTableRecord
  2
*D14
  0
BLOCK_RECORD
  5
12E
100
AcDbSymbolTableRecord
100
AcDbBlockTableRecord
  2
*D15
  0
BLOCK_RECORD
  5
13A
100
AcDbSymbolTableRecord
100
AcDbBlockTableRecord
  2
_OPEN30
  0
BLOCK_RECORD
  5
189
100
AcDbSymbolTableRecord
100
AcDbBlockTableRecord
  2
*D21
  0
BLOCK_RECORD
  5
1A2
100
AcDbSymbolTableRecord
100
AcDbBlockTableRecord
  2
*D23
  0
BLOCK_RECORD
  5
1AE
100
AcDbSymbolTableRecord
100
AcDbBlockTableRecord
  2
*D24
  0
BLOCK_RECORD
  5
1BD
100
AcDbSymbolTableRecord
100
AcDbBlockTableRecord
  2
*D25
  0
ENDTAB
  0
ENDSEC
  0
SECTION
  2
BLOCKS
  0
BLOCK
  5
5
100
AcDbEntity
  8
0
100
AcDbBlockBegin
  2
*MODEL_SPACE
 70
     0
 10
0.0
 20
0.0
 30
0.0
  3
*MODEL_SPACE
  1

  0
ENDBLK
  5
8
100
AcDbEntity
  8
0
100
AcDbBlockEnd
  0
BLOCK
  5
C
100
AcDbEntity
 67
     1
  8
0
100
AcDbBlockBegin
  2
*PAPER_SPACE
 70
     0
 10
0.0
 20
0.0
 30
0.0
  3
*PAPER_SPACE
  1

  0
ENDBLK
  5
D
100
AcDbEntity
 67
     1
  8
0
100
AcDbBlockEnd
  0
BLOCK
  5
2B
100
AcDbEntity
  8
0
100
AcDbBlockBegin
  2
_DOTSMALL
 70
     0
 10
0.0
 20
0.0
 30
0.0
  3
_DOTSMALL
  1

  0
POLYLINE
  5
27
100
AcDbEntity
  8
0
  6
BYBLOCK
 62
     0
100
AcDb2dPolyline
 66
     1
 10
0.0
 20
0.0
 30
0.0
 70
     1
 40
0.5
 41
0.5
  0
VERTEX
  5
28
100
AcDbEntity
  8
0
  6
BYBLOCK
 62
     0
100
AcDbVertex
100
AcDb2dVertex
 10
-0.0625
 20
0.0
 30
0.0
 42
1.0
  0
VERTEX
  5
29
100
AcDbEntity
  8
0
  6
BYBLOCK
 62
     0
100
AcDbVertex
100
AcDb2dVertex
 10
0.0625
 20
0.0
 30
0.0
 42
1.0
  0
SEQEND
  5
2A
100
AcDbEntity
  8
0
  6
BYBLOCK
 62
     0
  0
ENDBLK
  5
2C
100
AcDbEntity
  8
0
100
AcDbBlockEnd
  0
BLOCK
  5
171
100
AcDbEntity
  8
0
100
AcDbBlockBegin
  2
*D14
 70
     1
 10
0.0
 20
0.0
 30
0.0
  3
*D14
  1

  0
LINE
  5
172
100
AcDbEntity
  8
0
  6
BYBLOCK
 62
     1
100
AcDbLine
 10
124.956996
 20
186.409941
 30
0.0
 11
97.151543
 21
186.409941
 31
0.0
  0
LINE
  5
173
100
AcDbEntity
  8
0
  6
BYBLOCK
 62
     1
100
AcDbLine
 10
138.437758
 20
236.409941
 30
0.0
 11
97.151543
 21
236.409941
 31
0.0
  0
LINE
  5
174
100
AcDbEntity
  8
0
  6
BYBLOCK
 62
     1
100
AcDbLine
 10
99.151543
 20
188.409941
 30
0.0
 11
99.151543
 21
234.409941
 31
0.0
  0
INSERT
  5
175
100
AcDbEntity
  8
0
  6
BYBLOCK
 62
     1
100
AcDbBlockReference
  2
_OPEN30
 10
99.151543
 20
186.409941
 30
0.0
 41
2.0
 42
2.0
 43
2.0
 50
270.0
  0
INSERT
  5
176
100
AcDbEntity
  8
0
  6
BYBLOCK
 62
     1
100
AcDbBlockReference
  2
_OPEN30
 10
99.151543
 20
236.409941
 30
0.0
 41
2.0
 42
2.0
 43
2.0
 50
90.0
  0
MTEXT
  5
177
100
AcDbEntity
  8
0
  6
BYBLOCK
 62
     3
100
AcDbMText
 10
96.651543
 20
211.409941
 30
0.0
 40
3.0
 41
0.0
 71
     5
 72
     1
  1
\A1;50
 11
0.0
 21
1.0
 31
0.0
  0
POINT
  5
178
100
AcDbEntity
  8
DEFPOINTS
  6
BYBLOCK
 62
     0
100
AcDbPoint
 10
125.956996
 20
186.409941
 30
0.0
  0
POINT
  5
179
100
AcDbEntity
  8
DEFPOINTS
  6
BYBLOCK
 62
     0
100
AcDbPoint
 10
139.437758
 20
236.409941
 30
0.0
  0
POINT
  5
17A
100
AcDbEntity
  8
DEFPOINTS
  6
BYBLOCK
 62
     0
100
AcDbPoint
 10
99.151543
 20
236.409941
 30
0.0
  0
ENDBLK
  5
17B
100
AcDbEntity
  8
0
100
AcDbBlockEnd
  0
BLOCK
  5
166
100
AcDbEntity
  8
0
100
AcDbBlockBegin
  2
*D15
 70
     1
 10
0.0
 20
0.0
 30
0.0
  3
*D15
  1

  0
LINE
  5
167
100
AcDbEntity
  8
0
  6
BYBLOCK
 62
     1
100
AcDbLine
 10
113.456996
 20
197.909941
 30
0.0
 11
113.456996
 21
165.037601
 31
0.0
  0
LINE
  5
168
100
AcDbEntity
  8
0
  6
BYBLOCK
 62
     1
100
AcDbLine
 10
363.456996
 20
195.409941
 30
0.0
 11
363.456996
 21
165.037601
 31
0.0
  0
LINE
  5
169
100
AcDbEntity
  8
0
  6
BYBLOCK
 62
     1
100
AcDbLine
 10
115.456996
 20
167.037601
 30
0.0
 11
361.456996
 21
167.037601
 31
0.0
  0
INSERT
  5
16A
100
AcDbEntity
  8
0
  6
BYBLOCK
 62
     1
100
AcDbBlockReference
  2
_OPEN30
 10
113.456996
 20
167.037601
 30
0.0
 41
2.0
 42
2.0
 43
2.0
 50
180.0
  0
INSERT
  5
16B
100
AcDbEntity
  8
0
  6
BYBLOCK
 62
     1
100
AcDbBlockReference
  2
_OPEN30
 10
363.456996
 20
167.037601
 30
0.0
 41
2.0
 42
2.0
 43
2.0
  0
MTEXT
  5
16C
100
AcDbEntity
  8
0
  6
BYBLOCK
 62
     3
100
AcDbMText
 10
238.456996
 20
169.537601
 30
0.0
 40
3.0
 41
0.0
 71
     5
 72
     1
  1
\A1;250
  0
POINT
  5
16D
100
AcDbEntity
  8
DEFPOINTS
  6
BYBLOCK
 62
     0
100
AcDbPoint
 10
113.456996
 20
198.909941
 30
0.0
  0
POINT
  5
16E
100
AcDbEntity
  8
DEFPOINTS
  6
BYBLOCK
 62
     0
100
AcDbPoint
 10
363.456996
 20
196.409941
 30
0.0
  0
POINT
  5
16F
100
AcDbEntity
  8
DEFPOINTS
  6
BYBLOCK
 62
     0
100
AcDbPoint
 10
363.456996
 20
167.037601
 30
0.0
  0
ENDBLK
  5
170
100
AcDbEntity
  8
0
100
AcDbBlockEnd
  0
BLOCK
  5
13B
100
AcDbEntity
  8
0
100
AcDbBlockBegin
  2
_OPEN30
 70
     0
 10
0.0
 20
0.0
 30
0.0
  3
_OPEN30
  1

  0
LINE
  5
13C
100
AcDbEntity
  8
0
  6
BYBLOCK
 62
     0
100
AcDbLine
 10
-1.0
 20
0.267949
 30
0.0
 11
0.0
 21
0.0
 31
0.0
  0
LINE
  5
13D
100
AcDbEntity
  8
0
  6
BYBLOCK
 62
     0
100
AcDbLine
 10
0.0
 20
0.0
 30
0.0
 11
-1.0
 21
-0.267949
 31
0.0
  0
LINE
  5
13E
100
AcDbEntity
  8
0
  6
BYBLOCK
 62
     0
100
AcDbLine
 10
0.0
 20
0.0
 30
0.0
 11
-1.0
 21
0.0
 31
0.0
  0
ENDBLK
  5
13F
100
AcDbEntity
  8
0
100
AcDbBlockEnd
  0
BLOCK
  5
18A
100
AcDbEntity
  8
0
100
AcDbBlockBegin
  2
*D21
 70
     1
 10
0.0
 20
0.0
 30
0.0
  3
*D21
  1

  0
LINE
  5
18B
100
AcDbEntity
  8
0
  6
BYBLOCK
 62
     1
100
AcDbLine
 10
113.556996
 20
110.084976
 30
0.0
 11
97.151543
 21
110.084976
 31
0.0
  0
LINE
  5
18C
100
AcDbEntity
  8
0
  6
BYBLOCK
 62
     1
100
AcDbLine
 10
112.456996
 20
150.084976
 30
0.0
 11
97.151543
 21
150.084976
 31
0.0
  0
LINE
  5
18D
100
AcDbEntity
  8
0
  6
BYBLOCK
 62
     1
100
AcDbLine
 10
99.151543
 20
112.084976
 30
0.0
 11
99.151543
 21
148.084976
 31
0.0
  0
INSERT
  5
18E
100
AcDbEntity
  8
0
  6
BYBLOCK
 62
     1
100
AcDbBlockReference
  2
_OPEN30
 10
99.151543
 20
110.084976
 30
0.0
 41
2.0
 42
2.0
 43
2.0
 50
270.0
  0
INSERT
  5
18F
100
AcDbEntity
  8
0
  6
BYBLOCK
 62
     1
100
AcDbBlockReference
  2
_OPEN30
 10
99.151543
 20
150.084976
 30
0.0
 41
2.0
 42
2.0
 43
2.0
 50
90.0
  0
MTEXT
  5
190
100
AcDbEntity
  8
0
  6
BYBLOCK
 62
     3
100
AcDbMText
 10
96.651543
 20
130.084976
 30
0.0
 40
3.0
 41
0.0
 71
     5
 72
     1
  1
\A1;40
 11
0.0
 21
1.0
 31
0.0
  0
POINT
  5
191
100
AcDbEntity
  8
DEFPOINTS
  6
BYBLOCK
 62
     0
100
AcDbPoint
 10
114.556996
 20
110.084976
 30
0.0
  0
POINT
  5
192
100
AcDbEntity
  8
DEFPOINTS
  6
BYBLOCK
 62
     0
100
AcDbPoint
 10
113.456996
 20
150.084976
 30
0.0
  0
POINT
  5
193
100
AcDbEntity
  8
DEFPOINTS
  6
BYBLOCK
 62
     0
100
AcDbPoint
 10
99.151543
 20
150.084976
 30
0.0
  0
ENDBLK
  5
194
100
AcDbEntity
  8
0
100
AcDbBlockEnd
  0
BLOCK
  5
1A3
100
AcDbEntity
  8
0
100
AcDbBlockBegin
  2
*D23
 70
     1
 10
0.0
 20
0.0
 30
0.0
  3
*D23
  1

  0
LINE
  5
1A4
100
AcDbEntity
  8
0
  6
BYBLOCK
 62
     1
100
AcDbLine
 10
364.456996
 20
236.409941
 30
0.0
 11
381.729029
 21
236.409941
 31
0.0
  0
LINE
  5
1A5
100
AcDbEntity
  8
0
  6
BYBLOCK
 62
     1
100
AcDbLine
 10
364.456996
 20
196.409941
 30
0.0
 11
381.729029
 21
196.409941
 31
0.0
  0
LINE
  5
1A6
100
AcDbEntity
  8
0
  6
BYBLOCK
 62
     1
100
AcDbLine
 10
379.729029
 20
234.409941
 30
0.0
 11
379.729029
 21
198.409941
 31
0.0
  0
INSERT
  5
1A7
100
AcDbEntity
  8
0
  6
BYBLOCK
 62
     1
100
AcDbBlockReference
  2
_OPEN30
 10
379.729029
 20
236.409941
 30
0.0
 41
2.0
 42
2.0
 43
2.0
 50
90.0
  0
INSERT
  5
1A8
100
AcDbEntity
  8
0
  6
BYBLOCK
 62
     1
100
AcDbBlockReference
  2
_OPEN30
 10
379.729029
 20
196.409941
 30
0.0
 41
2.0
 42
2.0
 43
2.0
 50
270.0
  0
MTEXT
  5
1A9
100
AcDbEntity
  8
0
  6
BYBLOCK
 62
     3
100
AcDbMText
 10
377.229029
 20
216.409941
 30
0.0
 40
3.0
 41
0.0
 71
     5
 72
     1
  1
\A1;40
 11
0.0
 21
1.0
 31
0.0
  0
POINT
  5
1AA
100
AcDbEntity
  8
DEFPOINTS
  6
BYBLOCK
 62
     0
100
AcDbPoint
 10
363.456996
 20
236.409941
 30
0.0
  0
POINT
  5
1AB
100
AcDbEntity
  8
DEFPOINTS
  6
BYBLOCK
 62
     0
100
AcDbPoint
 10
363.456996
 20
196.409941
 30
0.0
  0
POINT
  5
1AC
100
AcDbEntity
  8
DEFPOINTS
  6
BYBLOCK
 62
     0
100
AcDbPoint
 10
379.729029
 20
196.409941
 30
0.0
  0
ENDBLK
  5
1AD
100
AcDbEntity
  8
0
100
AcDbBlockEnd
  0
BLOCK
  5
1AF
100
AcDbEntity
  8
0
100
AcDbBlockBegin
  2
*D24
 70
     1
 10
0.0
 20
0.0
 30
0.0
  3
*D24
  1

  0
LINE
  5
1B0
100
AcDbEntity
  8
0
  6
BYBLOCK
 62
     1
100
AcDbLine
 10
128.749517
 20
186.539134
 30
0.0
 11
159.522285
 21
186.539134
 31
0.0
  0
LINE
  5
1B1
100
AcDbEntity
  8
0
  6
BYBLOCK
 62
     1
100
AcDbLine
 10
136.667835
 20
191.039134
 30
0.0
 11
159.522285
 21
191.039134
 31
0.0
  0
LINE
  5
1B2
100
AcDbEntity
  8
0
  6
BYBLOCK
 62
     1
100
AcDbLine
 10
157.522285
 20
184.539134
 30
0.0
 11
157.522285
 21
182.539134
 31
0.0
  0
LINE
  5
1B3
100
AcDbEntity
  8
0
  6
BYBLOCK
 62
     1
100
AcDbLine
 10
157.522285
 20
193.039134
 30
0.0
 11
157.522285
 21
195.039134
 31
0.0
  0
MTEXT
  5
1B4
100
AcDbEntity
  8
0
  6
BYBLOCK
 62
     3
100
AcDbMText
 10
163.050664
 20
189.069065
 30
0.0
 40
3.0
 41
0.0
 71
     5
 72
     1
  1
\A1;4.5
 11
0.0
 21
1.0
 31
0.0
  0
LINE
  5
1B5
100
AcDbEntity
  8
0
  6
BYBLOCK
 62
     1
100
AcDbLine
 10
157.522285
 20
186.539134
 30
0.0
 11
157.522285
 21
191.039134
 31
0.0
  0
LINE
  5
1B6
100
AcDbEntity
  8
0
  6
BYBLOCK
 62
     1
100
AcDbLine
 10
157.522285
 20
186.539134
 30
0.0
 11
157.522285
 21
191.039134
 31
0.0
  0
INSERT
  5
1B7
100
AcDbEntity
  8
0
  6
BYBLOCK
 62
     1
100
AcDbBlockReference
  2
_OPEN30
 10
157.522285
 20
186.539134
 30
0.0
 41
2.0
 42
2.0
 43
2.0
 50
90.0
  0
INSERT
  5
1B8
100
AcDbEntity
  8
0
  6
BYBLOCK
 62
     1
100
AcDbBlockReference
  2
_OPEN30
 10
157.522285
 20
191.039134
 30
0.0
 41
2.0
 42
2.0
 43
2.0
 50
270.0
  0
POINT
  5
1B9
100
AcDbEntity
  8
DEFPOINTS
  6
BYBLOCK
 62
     0
100
AcDbPoint
 10
127.749517
 20
186.539134
 30
0.0
  0
POINT
  5
1BA
100
AcDbEntity
  8
DEFPOINTS
  6
BYBLOCK
 62
     0
100
AcDbPoint
 10
135.667835
 20
191.039134
 30
0.0
  0
POINT
  5
1BB
100
AcDbEntity
  8
DEFPOINTS
  6
BYBLOCK
 62
     0
100
AcDbPoint
 10
157.522285
 20
191.039134
 30
0.0
  0
ENDBLK
  5
1BC
100
AcDbEntity
  8
0
100
AcDbBlockEnd
  0
BLOCK
  5
1BE
100
AcDbEntity
  8
0
100
AcDbBlockBegin
  2
*D25
 70
     1
 10
0.0
 20
0.0
 30
0.0
  3
*D25
  1

  0
LINE
  5
1BF
100
AcDbEntity
  8
0
  6
BYBLOCK
 62
     1
100
AcDbLine
 10
364.456996
 20
110.084976
 30
0.0
 11
381.729029
 21
110.084976
 31
0.0
  0
LINE
  5
1C0
100
AcDbEntity
  8
0
  6
BYBLOCK
 62
     1
100
AcDbLine
 10
364.456996
 20
150.084976
 30
0.0
 11
381.729029
 21
150.084976
 31
0.0
  0
LINE
  5
1C1
100
AcDbEntity
  8
0
  6
BYBLOCK
 62
     1
100
AcDbLine
 10
379.729029
 20
112.084976
 30
0.0
 11
379.729029
 21
148.084976
 31
0.0
  0
INSERT
  5
1C2
100
AcDbEntity
  8
0
  6
BYBLOCK
 62
     1
100
AcDbBlockReference
  2
_OPEN30
 10
379.729029
 20
110.084976
 30
0.0
 41
2.0
 42
2.0
 43
2.0
 50
270.0
  0
INSERT
  5
1C3
100
AcDbEntity
  8
0
  6
BYBLOCK
 62
     1
100
AcDbBlockReference
  2
_OPEN30
 10
379.729029
 20
150.084976
 30
0.0
 41
2.0
 42
2.0
 43
2.0
 50
90.0
  0
MTEXT
  5
1C4
100
AcDbEntity
  8
0
  6
BYBLOCK
 62
     3
100
AcDbMText
 10
377.229029
 20
130.084976
 30
0.0
 40
3.0
 41
0.0
 71
     5
 72
     1
  1
\A1;40
 11
0.0
 21
1.0
 31
0.0
  0
POINT
  5
1C5
100
AcDbEntity
  8
DEFPOINTS
  6
BYBLOCK
 62
     0
100
AcDbPoint
 10
363.456996
 20
110.084976
 30
0.0
  0
POINT
  5
1C6
100
AcDbEntity
  8
DEFPOINTS
  6
BYBLOCK
 62
     0
100
AcDbPoint
 10
363.456996
 20
150.084976
 30
0.0
  0
POINT
  5
1C7
100
AcDbEntity
  8
DEFPOINTS
  6
BYBLOCK
 62
     0
100
AcDbPoint
 10
379.729029
 20
150.084976
 30
0.0
  0
ENDBLK
  5
1C8
100
AcDbEntity
  8
0
100
AcDbBlockEnd
  0
ENDSEC
  0
SECTION
  2
ENTITIES
  0
DIMENSION
  5
58
100
AcDbEntity
  8
寸法
  6
CONTINUOUS
100
AcDbDimension
  2
*D15
 10
363.456996
 20
167.037601
 30
0.0
 11
238.456996
 21
169.537601
 31
0.0
 70
    32
  3
STANDARD
100
AcDbAlignedDimension
 13
113.456996
 23
198.909941
 33
0.0
 14
363.456996
 24
196.409941
 34
0.0
100
AcDbRotatedDimension
1001
ACAD
1000
DSTYLE
1002
{
1070
    40
1040
1.0
1002
}
  0
DIMENSION
  5
66
100
AcDbEntity
  8
寸法
  6
CONTINUOUS
100
AcDbDimension
  2
*D14
 10
99.151543
 20
236.409941
 30
0.0
 11
96.651543
 21
211.409941
 31
0.0
 70
    32
  3
STANDARD
100
AcDbAlignedDimension
 13
125.956996
 23
186.409941
 33
0.0
 14
139.437758
 24
236.409941
 34
0.0
 50
90.0
100
AcDbRotatedDimension
1001
ACAD
1000
DSTYLE
1002
{
1070
    40
1040
1.0
1002
}
  0
LINE
  5
73
100
AcDbEntity
  8
外形
100
AcDbLine
 10
114.556996
 20
135.794976
 30
0.0
 11
135.561682
 21
135.794976
 31
0.0
  0
LINE
  5
75
100
AcDbEntity
  8
外形
100
AcDbLine
 10
114.431905
 20
142.144976
 30
0.0
 11
137.482087
 21
142.144976
 31
0.0
  0
LINE
  5
76
100
AcDbEntity
  8
外形
100
AcDbLine
 10
114.756996
 20
110.084976
 30
0.0
 11
363.456996
 21
110.084976
 31
0.0
  0
CIRCLE
  5
77
100
AcDbEntity
  8
外形
  6
CONTINUOUS
100
AcDbCircle
 10
125.956996
 20
198.909941
 30
0.0
 40
4.75
  0
CIRCLE
  5
78
100
AcDbEntity
  8
外形
  6
CONTINUOUS
100
AcDbCircle
 10
125.956996
 20
198.909941
 30
0.0
 40
3.1
  0
CIRCLE
  5
79
100
AcDbEntity
  8
外形
  6
CONTINUOUS
100
AcDbCircle
 10
125.956996
 20
198.909941
 30
0.0
 40
12.5
  0
LINE
  5
7A
100
AcDbEntity
  8
外形
100
AcDbLine
 10
135.303704
 20
236.409941
 30
0.0
 11
119.996696
 21
209.897426
 31
0.0
  0
LINE
  5
7B
100
AcDbEntity
  8
外形
  6
CONTINUOUS
100
AcDbLine
 10
133.881678
 20
134.994976
 30
0.0
 11
120.777504
 21
116.280276
 31
0.0
  0
LINE
  5
7C
100
AcDbEntity
  8
外形
100
AcDbLine
 10
113.456996
 20
150.084976
 30
0.0
 11
363.456996
 21
150.084976
 31
0.0
  0
LINE
  5
7D
100
AcDbEntity
  8
外形
100
AcDbLine
 10
48.381622
 20
187.709941
 30
0.0
 11
48.381622
 21
236.409941
 31
0.0
  0
LINE
  5
7E
100
AcDbEntity
  8
外形
  6
CONTINUOUS
100
AcDbLine
 10
88.381622
 20
211.409941
 30
0.0
 11
78.291622
 21
210.171045
 31
0.0
  0
LINE
  5
7F
100
AcDbEntity
  8
外形
100
AcDbLine
 10
80.441622
 20
187.38485
 30
0.0
 11
80.441622
 21
210.435031
 31
0.0
  0
LINE
  5
80
100
AcDbEntity
  8
外形
100
AcDbLine
 10
88.381622
 20
186.409941
 30
0.0
 11
88.381622
 21
236.409941
 31
0.0
  0
DIMENSION
  5
8F
100
AcDbEntity
  8
寸法
  6
CONTINUOUS
100
AcDbDimension
  2
*D21
 10
99.151543
 20
150.084976
 30
0.0
 11
96.651543
 21
130.084976
 31
0.0
 70
    32
  3
STANDARD
100
AcDbAlignedDimension
 13
114.556996
 23
110.084976
 33
0.0
 14
113.456996
 24
150.084976
 34
0.0
 50
90.0
100
AcDbRotatedDimension
1001
ACAD
1000
DSTYLE
1002
{
1070
    40
1040
1.0
1002
}
  0
LINE
  5
9C
100
AcDbEntity
  8
外形
  6
CONTINUOUS
100
AcDbLine
 10
114.756996
 20
135.794976
 30
0.0
 11
114.756996
 21
110.084976
 31
0.0
  0
LINE
  5
9D
100
AcDbEntity
  8
外形
  6
CONTINUOUS
100
AcDbLine
 10
120.777504
 20
116.280276
 30
0.0
 11
120.777504
 21
110.084976
 31
0.0
  0
LINE
  5
9E
100
AcDbEntity
  8
外形
  6
CONTINUOUS
100
AcDbLine
 10
74.091622
 20
187.709941
 30
0.0
 11
48.381622
 21
187.709941
 31
0.0
  0
LINE
  5
AD
100
AcDbEntity
  8
外形
  6
CONTINUOUS
100
AcDbLine
 10
113.456996
 20
150.084976
 30
0.0
 11
114.431905
 21
142.144976
 31
0.0
  0
LINE
  5
AE
100
AcDbEntity
  8
外形
  6
CONTINUOUS
100
AcDbLine
 10
114.556996
 20
142.144976
 30
0.0
 11
114.556996
 21
135.794976
 31
0.0
  0
LINE
  5
AF
100
AcDbEntity
  8
外形
100
AcDbLine
 10
74.091622
 20
187.509941
 30
0.0
 11
74.091622
 21
208.514627
 31
0.0
  0
LINE
  5
B0
100
AcDbEntity
  8
外形
  6
CONTINUOUS
100
AcDbLine
 10
88.381622
 20
186.409941
 30
0.0
 11
80.441622
 21
187.38485
 31
0.0
  0
LINE
  5
B1
100
AcDbEntity
  8
外形
  6
CONTINUOUS
100
AcDbLine
 10
80.441622
 20
187.509941
 30
0.0
 11
74.091622
 21
187.509941
 31
0.0
  0
LINE
  5
B2
100
AcDbEntity
  8
外形
  6
CONTINUOUS
100
AcDbLine
 10
78.291622
 20
208.514627
 30
0.0
 11
74.091622
 21
208.514627
 31
0.0
  0
LINE
  5
B3
100
AcDbEntity
  8
外形
100
AcDbLine
 10
78.291622
 20
208.514627
 30
0.0
 11
78.291622
 21
210.171045
 31
0.0
  0
LINE
  5
BA
100
AcDbEntity
  8
外形
  6
CONTINUOUS
100
AcDbLine
 10
88.381622
 20
236.409941
 30
0.0
 11
48.381622
 21
236.409941
 31
0.0
  0
LINE
  5
BB
100
AcDbEntity
  8
外形
  6
CONTINUOUS
100
AcDbLine
 10
88.381622
 20
221.916038
 30
0.0
 11
87.881622
 21
221.916038
 31
0.0
  0
LINE
  5
BC
100
AcDbEntity
  8
外形
100
AcDbLine
 10
87.881622
 20
211.348549
 30
0.0
 11
87.881622
 21
221.916038
 31
0.0
  0
DIMENSION
  5
BD
100
AcDbEntity
  8
寸法
  6
CONTINUOUS
100
AcDbDimension
  2
*D23
 10
379.729029
 20
196.409941
 30
0.0
 11
377.229029
 21
216.409941
 31
0.0
 70
    32
  3
STANDARD
100
AcDbAlignedDimension
 13
363.456996
 23
236.409941
 33
0.0
 14
363.456996
 24
196.409941
 34
0.0
 50
90.0
100
AcDbRotatedDimension
1001
ACAD
1000
DSTYLE
1002
{
1070
    40
1040
1.0
1002
}
  0
LINE
  5
CA
100
AcDbEntity
  8
外形
  6
CONTINUOUS
100
AcDbLine
 10
148.963093
 20
196.409941
 30
0.0
 11
125.662371
 21
219.710663
 31
0.0
  0
CIRCLE
  5
CB
100
AcDbEntity
  8
外形
  6
CONTINUOUS
100
AcDbCircle
 10
141.513345
 20
214.46629
 30
0.0
 40
5.0
  0
LINE
  5
CC
100
AcDbEntity
  8
外形
  6
CONTINUOUS
100
AcDbLine
 10
363.456996
 20
196.409941
 30
0.0
 11
363.456996
 21
236.409941
 31
0.0
  0
LINE
  5
CD
100
AcDbEntity
  8
外形
100
AcDbLine
 10
143.056996
 20
196.409941
 30
0.0
 11
363.456996
 21
196.409941
 31
0.0
  0
TEXT
  5
CE
100
AcDbEntity
  8
外形
  6
CONTINUOUS
 62
     2
100
AcDbText
 10
175.708141
 20
76.230843
 30
0.0
 40
6.0
  1
ＰＲＧＣ　Ｒ４０４０Ｓ２５
100
AcDbText
  0
LINE
  5
CF
100
AcDbEntity
  8
外形
  6
CONTINUOUS
100
AcDbLine
 10
133.881678
 20
134.994976
 30
0.0
 11
133.881678
 21
110.084976
 31
0.0
  0
LINE
  5
D0
100
AcDbEntity
  8
外形
  6
CONTINUOUS
100
AcDbLine
 10
143.277504
 20
149.584976
 30
0.0
 11
143.277504
 21
110.084976
 31
0.0
  0
LINE
  5
D1
100
AcDbEntity
  8
外形
  6
CONTINUOUS
100
AcDbLine
 10
138.456996
 20
150.084976
 30
0.0
 11
137.2181
 21
139.994976
 31
0.0
  0
LINE
  5
D2
100
AcDbEntity
  8
外形
  6
CONTINUOUS
100
AcDbLine
 10
135.561682
 20
139.994976
 30
0.0
 11
135.561682
 21
135.794976
 31
0.0
  0
LINE
  5
D3
100
AcDbEntity
  8
外形
100
AcDbLine
 10
135.561682
 20
139.994976
 30
0.0
 11
137.2181
 21
139.994976
 31
0.0
  0
LINE
  5
D4
100
AcDbEntity
  8
外形
100
AcDbLine
 10
138.395604
 20
149.584976
 30
0.0
 11
148.963093
 21
149.584976
 31
0.0
  0
LINE
  5
D5
100
AcDbEntity
  8
外形
  6
CONTINUOUS
100
AcDbLine
 10
148.963093
 20
150.084976
 30
0.0
 11
148.963093
 21
149.584976
 31
0.0
  0
DIMENSION
  5
D6
100
AcDbEntity
  8
寸法
  6
CONTINUOUS
100
AcDbDimension
  2
*D24
 10
157.522285
 20
191.039134
 30
0.0
 11
163.050664
 21
189.069065
 31
0.0
 70
   160
  3
STANDARD
100
AcDbAlignedDimension
 13
127.749517
 23
186.539134
 33
0.0
 14
135.667835
 24
191.039134
 34
0.0
 50
90.0
100
AcDbRotatedDimension
1001
ACAD
1000
DSTYLE
1002
{
1070
   287
1070
     5
1070
   287
1070
     5
1070
    40
1040
1.0
1070
   271
1070
     1
1070
   279
1070
     2
1002
}
  0
LINE
  5
E3
100
AcDbEntity
  8
外形
  6
CONTINUOUS
100
AcDbLine
 10
136.889298
 20
192.849019
 30
0.0
 11
143.056996
 21
196.409941
 31
0.0
  0
DIMENSION
  5
E4
100
AcDbEntity
  8
寸法
  6
CONTINUOUS
100
AcDbDimension
  2
*D25
 10
379.729029
 20
150.084976
 30
0.0
 11
377.229029
 21
130.084976
 31
0.0
 70
    32
  3
STANDARD
100
AcDbAlignedDimension
 13
363.456996
 23
110.084976
 33
0.0
 14
363.456996
 24
150.084976
 34
0.0
 50
90.0
100
AcDbRotatedDimension
1001
ACAD
1000
DSTYLE
1002
{
1070
    40
1040
1.0
1002
}
  0
LINE
  5
F1
100
AcDbEntity
  8
外形
  6
CONTINUOUS
100
AcDbLine
 10
363.456996
 20
110.084976
 30
0.0
 11
363.456996
 21
150.084976
 31
0.0
  0
LINE
  5
FF
100
AcDbEntity
  8
外形
100
AcDbLine
 10
135.303704
 20
236.409941
 30
0.0
 11
363.456996
 21
236.409941
 31
0.0
  0
LWPOLYLINE
  5
10D
100
AcDbEntity
  8
外形
  6
CONTINUOUS
100
AcDbPolyline
 90
        6
 70
     1
 43
0.0
 10
138.374086
 20
215.307452
 10
139.215248
 20
212.168193
 10
142.354507
 20
211.327031
 10
144.652604
 20
213.625128
 10
143.811442
 20
216.764387
 10
140.672183
 20
217.605549
  0
CIRCLE
  5
10E
100
AcDbEntity
  8
外形
  6
CONTINUOUS
100
AcDbCircle
 10
141.513345
 20
214.46629
 30
0.0
 40
4.0
  0
ENDSEC
  0
SECTION
  2
OBJECTS
  0
DICTIONARY
  5
1E
102
{ACAD_XDICTIONARY
360
1F
102
}
100
AcDbDictionary
  3
ACAD_GROUP
350
1C
  3
ACAD_MLINESTYLE
350
1D
  0
DICTIONARY
  5
37
100
AcDbDictionary
280
     1
  3
ACAD_XREC_ROUNDTRIP
360
38
  0
DICTIONARY
  5
24
100
AcDbDictionary
280
     1
  3
ACAD_XREC_ROUNDTRIP
360
25
  0
DICTIONARY
  5
3
100
AcDbDictionary
280
     1
  3
ACAD_LAYOUTSELFREF
360
4
  0
DICTIONARY
  5
A
100
AcDbDictionary
280
     1
  3
ACAD_LAYOUTSELFREF
360
B
  0
DICTIONARY
  5
1F
100
AcDbDictionary
280
     1
  3
ACAD_XREC_ROUNDTRIP
360
20
  0
DICTIONARY
  5
1C
102
{ACAD_REACTORS
330
1E
102
}
100
AcDbDictionary
  0
DICTIONARY
  5
1D
102
{ACAD_REACTORS
330
1E
102
}
100
AcDbDictionary
  3
STANDARD
350
22
  0
XRECORD
  5
38
102
{ACAD_REACTORS
330
37
102
}
100
AcDbXrecord
102
EXTNAMES
  1
DEFPOINTS
  2
Defpoints
102
PLOTBIT
280
     0
  0
XRECORD
  5
25
102
{ACAD_REACTORS
330
24
102
}
100
AcDbXrecord
102
ACADR14ROUNDTRIP
1000
DSTYLE
1002
{
1070
   341
340
0
1070
   343
340
0
1070
   344
340
0
1002
}
  0
XRECORD
  5
4
102
{ACAD_REACTORS
330
3
102
}
100
AcDbXrecord
340
2
  0
XRECORD
  5
B
102
{ACAD_REACTORS
330
A
102
}
100
AcDbXrecord
340
9
  0
XRECORD
  5
20
102
{ACAD_REACTORS
330
1F
102
}
100
AcDbXrecord
102
EXTNAMES
  1
ACDBVARIABLEDICTIONARY
  2
AcDbVariableDictionary
  1
ACMDICTIONARY
  2
AcmDictionary
  1
ACMESYSVARMANAGER
  2
AcmeSysVarManager
  0
MLINESTYLE
  5
22
102
{ACAD_REACTORS
330
1D
102
}
100
AcDbMlineStyle
  2
STANDARD
 70
     0
  3

 62
     0
 51
90.0
 52
90.0
 71
     2
 49
0.5
 62
   256
  6
BYLAYER
 49
-0.5
 62
   256
  6
BYLAYER
  0
ENDSEC
  0
EOF
