  0
SECTION
  2
HEADER
  9
$ACADVER
  1
AC1014
  9
$ACADMAINTVER
 70
     0
  9
$DWGCODEPAGE
  3
ANSI_932
  9
$INSBASE
 10
-275.250952
 20
552.890188
 30
0.0
  9
$EXTMIN
 10
-272.189966
 20
562.076234
 30
0.0
  9
$EXTMAX
 10
-20.449604
 20
718.36839
 30
0.0
  9
$LIMMIN
 10
-587.250952
 20
327.890188
  9
$LIMMAX
 10
600.749048
 20
957.890188
  9
$ORTHOMODE
 70
     1
  9
$REGENMODE
 70
     1
  9
$FILLMODE
 70
     1
  9
$QTEXTMODE
 70
     0
  9
$MIRRTEXT
 70
     1
  9
$DRAGMODE
 70
     2
  9
$LTSCALE
 40
5.0
  9
$OSMODE
 70
    45
  9
$ATTMODE
 70
     1
  9
$TEXTSIZE
 40
4.0
  9
$TRACEWID
 40
0.05
  9
$TEXTSTYLE
  7
STANDARD
  9
$CLAYER
  8
外形
  9
$CELTYPE
  6
CONTINUOUS
  9
$CECOLOR
 62
   256
  9
$CELTSCALE
 40
1.0
  9
$DELOBJ
 70
     1
  9
$DISPSILH
 70
     0
  9
$DIMSCALE
 40
1.0
  9
$DIMASZ
 40
2.0
  9
$DIMEXO
 40
1.0
  9
$DIMDLI
 40
8.0
  9
$DIMRND
 40
0.0
  9
$DIMDLE
 40
0.0
  9
$DIMEXE
 40
2.0
  9
$DIMTP
 40
0.0
  9
$DIMTM
 40
0.0
  9
$DIMTXT
 40
3.0
  9
$DIMCEN
 40
-1.0
  9
$DIMTSZ
 40
0.0
  9
$DIMTOL
 70
     0
  9
$DIMLIM
 70
     0
  9
$DIMTIH
 70
     0
  9
$DIMTOH
 70
     0
  9
$DIMSE1
 70
     0
  9
$DIMSE2
 70
     0
  9
$DIMTAD
 70
     1
  9
$DIMZIN
 70
     8
  9
$DIMBLK
  1

  9
$DIMASO
 70
     1
  9
$DIMSHO
 70
     1
  9
$DIMPOST
  1

  9
$DIMAPOST
  1

  9
$DIMALT
 70
     0
  9
$DIMALTD
 70
     2
  9
$DIMALTF
 40
25.4
  9
$DIMLFAC
 40
1.0
  9
$DIMTOFL
 70
     1
  9
$DIMTVP
 40
0.0
  9
$DIMTIX
 70
     0
  9
$DIMSOXD
 70
     0
  9
$DIMSAH
 70
     1
  9
$DIMBLK1
  1
_OPEN
  9
$DIMBLK2
  1
_OPEN
  9
$DIMSTYLE
  2
STANDARD
  9
$DIMCLRD
 70
     1
  9
$DIMCLRE
 70
     1
  9
$DIMCLRT
 70
     3
  9
$DIMTFAC
 40
1.0
  9
$DIMGAP
 40
1.0
  9
$DIMJUST
 70
     0
  9
$DIMSD1
 70
     0
  9
$DIMSD2
 70
     0
  9
$DIMTOLJ
 70
     1
  9
$DIMTZIN
 70
     8
  9
$DIMALTZ
 70
     0
  9
$DIMALTTZ
 70
     0
  9
$DIMFIT
 70
     3
  9
$DIMUPT
 70
     0
  9
$DIMUNIT
 70
     2
  9
$DIMDEC
 70
     3
  9
$DIMTDEC
 70
     3
  9
$DIMALTU
 70
     2
  9
$DIMALTTD
 70
     2
  9
$DIMTXSTY
  7
STANDARD
  9
$DIMAUNIT
 70
     0
  9
$LUNITS
 70
     2
  9
$LUPREC
 70
     0
  9
$SKETCHINC
 40
0.1
  9
$FILLETRAD
 40
2.4
  9
$AUNITS
 70
     0
  9
$AUPREC
 70
     0
  9
$MENU
  1
acad
  9
$ELEVATION
 40
0.0
  9
$PELEVATION
 40
0.0
  9
$THICKNESS
 40
0.0
  9
$LIMCHECK
 70
     0
  9
$BLIPMODE
 70
     0
  9
$CHAMFERA
 40
0.0
  9
$CHAMFERB
 40
0.0
  9
$CHAMFERC
 40
0.0
  9
$CHAMFERD
 40
0.0
  9
$SKPOLY
 70
     0
  9
$TDCREATE
 40
2450751.535399305
  9
$TDUPDATE
 40
2451929.448379629
  9
$TDINDWG
 40
1.2016048611
  9
$TDUSRTIMER
 40
1.2016048611
  9
$USRTIMER
 70
     1
  9
$ANGBASE
 50
0.0
  9
$ANGDIR
 70
     0
  9
$PDMODE
 70
     0
  9
$PDSIZE
 40
0.0
  9
$PLINEWID
 40
0.0
  9
$COORDS
 70
     1
  9
$SPLFRAME
 70
     0
  9
$SPLINETYPE
 70
     5
  9
$SPLINESEGS
 70
     8
  9
$ATTDIA
 70
     0
  9
$ATTREQ
 70
     1
  9
$HANDLING
 70
     1
  9
$HANDSEED
  5
75C
  9
$SURFTAB1
 70
     6
  9
$SURFTAB2
 70
     6
  9
$SURFTYPE
 70
     6
  9
$SURFU
 70
     6
  9
$SURFV
 70
     6
  9
$UCSNAME
  2

  9
$UCSORG
 10
0.0
 20
0.0
 30
0.0
  9
$UCSXDIR
 10
1.0
 20
0.0
 30
0.0
  9
$UCSYDIR
 10
0.0
 20
1.0
 30
0.0
  9
$PUCSNAME
  2

  9
$PUCSORG
 10
0.0
 20
0.0
 30
0.0
  9
$PUCSXDIR
 10
1.0
 20
0.0
 30
0.0
  9
$PUCSYDIR
 10
0.0
 20
1.0
 30
0.0
  9
$USERI1
 70
     0
  9
$USERI2
 70
     0
  9
$USERI3
 70
     0
  9
$USERI4
 70
     0
  9
$USERI5
 70
     0
  9
$USERR1
 40
0.0
  9
$USERR2
 40
0.0
  9
$USERR3
 40
0.0
  9
$USERR4
 40
0.0
  9
$USERR5
 40
0.0
  9
$WORLDVIEW
 70
     1
  9
$SHADEDGE
 70
     3
  9
$SHADEDIF
 70
    70
  9
$TILEMODE
 70
     1
  9
$MAXACTVP
 70
    16
  9
$PINSBASE
 10
0.0
 20
0.0
 30
0.0
  9
$PLIMCHECK
 70
     0
  9
$PEXTMIN
 10
1.000000E+20
 20
1.000000E+20
 30
1.000000E+20
  9
$PEXTMAX
 10
-1.000000E+20
 20
-1.000000E+20
 30
-1.000000E+20
  9
$PLIMMIN
 10
0.0
 20
0.0
  9
$PLIMMAX
 10
12.0
 20
9.0
  9
$UNITMODE
 70
     0
  9
$VISRETAIN
 70
     0
  9
$PLINEGEN
 70
     0
  9
$PSLTSCALE
 70
     1
  9
$TREEDEPTH
 70
  3020
  9
$PICKSTYLE
 70
     1
  9
$CMLSTYLE
  2
STANDARD
  9
$CMLJUST
 70
     0
  9
$CMLSCALE
 40
1.0
  9
$PROXYGRAPHICS
 70
     1
  9
$MEASUREMENT
 70
     0
  0
ENDSEC
  0
SECTION
  2
CLASSES
  0
CLASS
  1
LWPOLYLINE
  2
AcDbPolyline
  3
"AutoCAD"
 90
        0
280
     0
281
     1
  0
CLASS
  1
ACDBDICTIONARYWDFLT
  2
AcDbDictionaryWithDefault
  3
AutoCAD 2000
 90
        0
280
     1
281
     0
  0
CLASS
  1
ACDBPLACEHOLDER
  2
AcDbPlaceHolder
  3
AutoCAD 2000
 90
        0
280
     1
281
     0
  0
CLASS
  1
LAYOUT
  2
AcDbLayout
  3
AutoCAD 2000
 90
        0
280
     1
281
     0
  0
CLASS
  1
LONG_TRANSACTION
  2
AcDbLongTransaction
  3
AutoCAD 2000
 90
        0
280
     1
281
     0
  0
CLASS
  1
LWPOLYLINE
  2
AcDbPolyline
  3
"AutoCAD"
 90
        0
280
     0
281
     1
  0
CLASS
  1
HATCH
  2
AcDbHatch
  3
"ACAD_SEDONA"
 90
        0
280
     0
281
     1
  0
CLASS
  1
XRECORD
  2
AcDbXrecord
  3
"<Built In>"
 90
        0
280
     0
281
     0
  0
ENDSEC
  0
SECTION
  2
TABLES
  0
TABLE
  2
VPORT
  5
16
100
AcDbSymbolTable
 70
     1
  0
VPORT
  5
757
100
AcDbSymbolTableRecord
100
AcDbViewportTableRecord
  2
*ACTIVE
 70
     0
 10
0.0
 20
0.0
 11
1.0
 21
1.0
 12
-148.992959
 22
643.436181
 13
0.0
 23
0.0
 14
0.05
 24
0.05
 15
10.0
 25
10.0
 16
0.0
 26
0.0
 36
1.0
 17
0.0
 27
0.0
 37
0.0
 40
177.222578
 41
1.710425
 42
50.0
 43
0.0
 44
0.0
 50
0.0
 51
0.0
 71
     0
 72
   100
 73
     1
 74
     1
 75
     0
 76
     0
 77
     0
 78
     0
  0
ENDTAB
  0
TABLE
  2
LTYPE
  5
11
100
AcDbSymbolTable
 70
     1
  0
LTYPE
  5
12
100
AcDbSymbolTableRecord
100
AcDbLinetypeTableRecord
  2
BYBLOCK
 70
     0
  3

 72
    65
 73
     0
 40
0.0
  0
LTYPE
  5
13
100
AcDbSymbolTableRecord
100
AcDbLinetypeTableRecord
  2
BYLAYER
 70
     0
  3

 72
    65
 73
     0
 40
0.0
  0
LTYPE
  5
7
100
AcDbSymbolTableRecord
100
AcDbLinetypeTableRecord
  2
CONTINUOUS
 70
     0
  3
Solid line
 72
    65
 73
     0
 40
0.0
  0
ENDTAB
  0
TABLE
  2
LAYER
  5
E
100
AcDbSymbolTable
 70
     4
  0
LAYER
  5
6
100
AcDbSymbolTableRecord
100
AcDbLayerTableRecord
  2
0
 70
     0
 62
     7
  6
CONTINUOUS
  0
LAYER
  5
1F
100
AcDbSymbolTableRecord
100
AcDbLayerTableRecord
  2
外形
 70
     0
 62
     3
  6
CONTINUOUS
  0
LAYER
  5
33
102
{ACAD_XDICTIONARY
360
34
102
}
100
AcDbSymbolTableRecord
100
AcDbLayerTableRecord
  2
DEFPOINTS
 70
     0
 62
     7
  6
CONTINUOUS
  0
LAYER
  5
61
100
AcDbSymbolTableRecord
100
AcDbLayerTableRecord
  2
寸法
 70
     0
 62
     1
  6
CONTINUOUS
  0
ENDTAB
  0
TABLE
  2
STYLE
  5
F
100
AcDbSymbolTable
 70
     1
  0
STYLE
  5
10
100
AcDbSymbolTableRecord
100
AcDbTextStyleTableRecord
  2
STANDARD
 70
     0
 40
0.0
 41
1.0
 50
0.0
 71
     0
 42
4.0
  3
MONOTXT
  4
BIGFONT
  0
ENDTAB
  0
TABLE
  2
VIEW
  5
14
100
AcDbSymbolTable
 70
     0
  0
ENDTAB
  0
TABLE
  2
UCS
  5
15
100
AcDbSymbolTable
 70
     0
  0
ENDTAB
  0
TABLE
  2
APPID
  5
18
100
AcDbSymbolTable
 70
     1
  0
APPID
  5
19
100
AcDbSymbolTableRecord
100
AcDbRegAppTableRecord
  2
ACAD
 70
     0
  0
ENDTAB
  0
TABLE
  2
DIMSTYLE
  5
1A
100
AcDbSymbolTable
 70
     1
  0
DIMSTYLE
105
21
102
{ACAD_XDICTIONARY
360
22
102
}
102
{ACAD_REACTORS
330
60
330
3A
330
4C
330
8B
330
51B
330
54A
330
598
330
59B
330
619
102
}
100
AcDbSymbolTableRecord
100
AcDbDimStyleTableRecord
  2
STANDARD
 70
     0
  3

  4

  5

  6
_OPEN
  7
_OPEN
 40
1.0
 41
2.0
 42
1.0
 43
8.0
 44
2.0
 45
0.0
 46
0.0
 47
0.0
 48
0.0
140
3.0
141
-1.0
142
0.0
143
25.4
144
1.0
145
0.0
146
1.0
147
1.0
 71
     0
 72
     0
 73
     0
 74
     0
 75
     0
 76
     0
 77
     1
 78
     8
170
     0
171
     2
172
     1
173
     1
174
     0
175
     0
176
     1
177
     1
178
     3
270
     2
271
     3
272
     3
273
     2
274
     2
340
10
275
     0
280
     0
281
     0
282
     0
283
     1
284
     8
285
     0
286
     0
287
     3
288
     0
  0
ENDTAB
  0
TABLE
  2
BLOCK_RECORD
  5
1
100
AcDbSymbolTable
 70
    19
  0
BLOCK_RECORD
  5
2
102
{ACAD_XDICTIONARY
360
3
102
}
100
AcDbSymbolTableRecord
100
AcDbBlockTableRecord
  2
*MODEL_SPACE
  0
BLOCK_RECORD
  5
9
102
{ACAD_XDICTIONARY
360
A
102
}
100
AcDbSymbolTableRecord
100
AcDbBlockTableRecord
  2
*PAPER_SPACE
  0
BLOCK_RECORD
  5
2A
100
AcDbSymbolTableRecord
100
AcDbBlockTableRecord
  2
_OPEN30
  0
BLOCK_RECORD
  5
1CB
100
AcDbSymbolTableRecord
100
AcDbBlockTableRecord
  2
_OPEN
  0
BLOCK_RECORD
  5
3BE
100
AcDbSymbolTableRecord
100
AcDbBlockTableRecord
  2
*D2
  0
BLOCK_RECORD
  5
3CA
100
AcDbSymbolTableRecord
100
AcDbBlockTableRecord
  2
*D3
  0
BLOCK_RECORD
  5
3D6
100
AcDbSymbolTableRecord
100
AcDbBlockTableRecord
  2
*D4
  0
BLOCK_RECORD
  5
3F4
100
AcDbSymbolTableRecord
100
AcDbBlockTableRecord
  2
*D5
  0
BLOCK_RECORD
  5
50F
100
AcDbSymbolTableRecord
100
AcDbBlockTableRecord
  2
*D6
  0
BLOCK_RECORD
  5
53E
100
AcDbSymbolTableRecord
100
AcDbBlockTableRecord
  2
*D7
  0
BLOCK_RECORD
  5
58C
100
AcDbSymbolTableRecord
100
AcDbBlockTableRecord
  2
*D8
  0
BLOCK_RECORD
  5
5B9
100
AcDbSymbolTableRecord
100
AcDbBlockTableRecord
  2
*D10
  0
BLOCK_RECORD
  5
628
100
AcDbSymbolTableRecord
100
AcDbBlockTableRecord
  2
*D16
  0
ENDTAB
  0
ENDSEC
  0
SECTION
  2
BLOCKS
  0
BLOCK
  5
5
100
AcDbEntity
  8
0
100
AcDbBlockBegin
  2
*MODEL_SPACE
 70
     0
 10
0.0
 20
0.0
 30
0.0
  3
*MODEL_SPACE
  1

  0
ENDBLK
  5
8
100
AcDbEntity
  8
0
100
AcDbBlockEnd
  0
BLOCK
  5
C
100
AcDbEntity
 67
     1
  8
0
100
AcDbBlockBegin
  2
*PAPER_SPACE
 70
     0
 10
0.0
 20
0.0
 30
0.0
  3
*PAPER_SPACE
  1

  0
ENDBLK
  5
D
100
AcDbEntity
 67
     1
  8
0
100
AcDbBlockEnd
  0
BLOCK
  5
2E
100
AcDbEntity
  8
0
100
AcDbBlockBegin
  2
_OPEN30
 70
     0
 10
0.0
 20
0.0
 30
0.0
  3
_OPEN30
  1

  0
LINE
  5
2B
100
AcDbEntity
  8
0
  6
BYBLOCK
 62
     0
100
AcDbLine
 10
-1.0
 20
0.267949
 30
0.0
 11
0.0
 21
0.0
 31
0.0
  0
LINE
  5
2C
100
AcDbEntity
  8
0
  6
BYBLOCK
 62
     0
100
AcDbLine
 10
0.0
 20
0.0
 30
0.0
 11
-1.0
 21
-0.267949
 31
0.0
  0
LINE
  5
2D
100
AcDbEntity
  8
0
  6
BYBLOCK
 62
     0
100
AcDbLine
 10
0.0
 20
0.0
 30
0.0
 11
-1.0
 21
0.0
 31
0.0
  0
ENDBLK
  5
2F
100
AcDbEntity
  8
0
100
AcDbBlockEnd
  0
BLOCK
  5
1CF
100
AcDbEntity
  8
0
100
AcDbBlockBegin
  2
_OPEN
 70
     0
 10
0.0
 20
0.0
 30
0.0
  3
_OPEN
  1

  0
LINE
  5
1CC
100
AcDbEntity
  8
0
  6
BYBLOCK
 62
     0
100
AcDbLine
 10
-1.0
 20
0.166667
 30
0.0
 11
0.0
 21
0.0
 31
0.0
  0
LINE
  5
1CD
100
AcDbEntity
  8
0
  6
BYBLOCK
 62
     0
100
AcDbLine
 10
0.0
 20
0.0
 30
0.0
 11
-1.0
 21
-0.166667
 31
0.0
  0
LINE
  5
1CE
100
AcDbEntity
  8
0
  6
BYBLOCK
 62
     0
100
AcDbLine
 10
0.0
 20
0.0
 30
0.0
 11
-1.0
 21
0.0
 31
0.0
  0
ENDBLK
  5
1D0
100
AcDbEntity
  8
0
100
AcDbBlockEnd
  0
BLOCK
  5
681
100
AcDbEntity
  8
0
100
AcDbBlockBegin
  2
*D2
 70
     1
 10
0.0
 20
0.0
 30
0.0
  3
*D2
  1

  0
LINE
  5
682
100
AcDbEntity
  8
0
  6
BYBLOCK
 62
     1
100
AcDbLine
 10
-35.750507
 20
585.182082
 30
0.0
 11
-21.418729
 21
585.182082
 31
0.0
  0
LINE
  5
683
100
AcDbEntity
  8
0
  6
BYBLOCK
 62
     1
100
AcDbLine
 10
-35.750507
 20
617.182082
 30
0.0
 11
-21.418729
 21
617.182082
 31
0.0
  0
LINE
  5
684
100
AcDbEntity
  8
0
  6
BYBLOCK
 62
     1
100
AcDbLine
 10
-23.418729
 20
587.182082
 30
0.0
 11
-23.418729
 21
615.182082
 31
0.0
  0
INSERT
  5
685
100
AcDbEntity
  8
0
  6
BYBLOCK
 62
     1
100
AcDbBlockReference
  2
_OPEN
 10
-23.418729
 20
585.182082
 30
0.0
 41
2.0
 42
2.0
 43
2.0
 50
270.0
  0
INSERT
  5
686
100
AcDbEntity
  8
0
  6
BYBLOCK
 62
     1
100
AcDbBlockReference
  2
_OPEN
 10
-23.418729
 20
617.182082
 30
0.0
 41
2.0
 42
2.0
 43
2.0
 50
90.0
  0
MTEXT
  5
687
100
AcDbEntity
  8
0
  6
BYBLOCK
 62
     3
100
AcDbMText
 10
-25.918729
 20
601.182082
 30
0.0
 40
3.0
 41
0.0
 71
     5
 72
     1
  1
\A1;32
 11
0.0
 21
1.0
 31
0.0
  0
POINT
  5
688
100
AcDbEntity
  8
DEFPOINTS
  6
BYBLOCK
 62
     0
100
AcDbPoint
 10
-36.750507
 20
585.182082
 30
0.0
  0
POINT
  5
689
100
AcDbEntity
  8
DEFPOINTS
  6
BYBLOCK
 62
     0
100
AcDbPoint
 10
-36.750507
 20
617.182082
 30
0.0
  0
POINT
  5
68A
100
AcDbEntity
  8
DEFPOINTS
  6
BYBLOCK
 62
     0
100
AcDbPoint
 10
-23.418729
 20
617.182082
 30
0.0
  0
ENDBLK
  5
68B
100
AcDbEntity
  8
0
100
AcDbBlockEnd
  0
BLOCK
  5
68C
100
AcDbEntity
  8
0
100
AcDbBlockBegin
  2
*D3
 70
     1
 10
0.0
 20
0.0
 30
0.0
  3
*D3
  1

  0
LINE
  5
68D
100
AcDbEntity
  8
0
  6
BYBLOCK
 62
     1
100
AcDbLine
 10
-206.750711
 20
677.546941
 30
0.0
 11
-206.750711
 21
652.878006
 31
0.0
  0
LINE
  5
68E
100
AcDbEntity
  8
0
  6
BYBLOCK
 62
     1
100
AcDbLine
 10
-36.750507
 20
674.547118
 30
0.0
 11
-36.750507
 21
652.878006
 31
0.0
  0
LINE
  5
68F
100
AcDbEntity
  8
0
  6
BYBLOCK
 62
     1
100
AcDbLine
 10
-204.750711
 20
654.878006
 30
0.0
 11
-38.750507
 21
654.878006
 31
0.0
  0
INSERT
  5
690
100
AcDbEntity
  8
0
  6
BYBLOCK
 62
     1
100
AcDbBlockReference
  2
_OPEN
 10
-206.750711
 20
654.878006
 30
0.0
 41
2.0
 42
2.0
 43
2.0
 50
180.0
  0
INSERT
  5
691
100
AcDbEntity
  8
0
  6
BYBLOCK
 62
     1
100
AcDbBlockReference
  2
_OPEN
 10
-36.750507
 20
654.878006
 30
0.0
 41
2.0
 42
2.0
 43
2.0
  0
MTEXT
  5
692
100
AcDbEntity
  8
0
  6
BYBLOCK
 62
     3
100
AcDbMText
 10
-121.750609
 20
657.378006
 30
0.0
 40
3.0
 41
0.0
 71
     5
 72
     1
  1
\A1;170
  0
POINT
  5
693
100
AcDbEntity
  8
DEFPOINTS
  6
BYBLOCK
 62
     0
100
AcDbPoint
 10
-206.750711
 20
678.546941
 30
0.0
  0
POINT
  5
694
100
AcDbEntity
  8
DEFPOINTS
  6
BYBLOCK
 62
     0
100
AcDbPoint
 10
-36.750507
 20
675.547118
 30
0.0
  0
POINT
  5
695
100
AcDbEntity
  8
DEFPOINTS
  6
BYBLOCK
 62
     0
100
AcDbPoint
 10
-36.750507
 20
654.878006
 30
0.0
  0
ENDBLK
  5
696
100
AcDbEntity
  8
0
100
AcDbBlockEnd
  0
BLOCK
  5
697
100
AcDbEntity
  8
0
100
AcDbBlockBegin
  2
*D4
 70
     1
 10
0.0
 20
0.0
 30
0.0
  3
*D4
  1

  0
LINE
  5
698
100
AcDbEntity
  8
0
  6
BYBLOCK
 62
     1
100
AcDbLine
 10
-240.729035
 20
686.600472
 30
0.0
 11
-246.418622
 21
671.778593
 31
0.0
  0
LINE
  5
699
100
AcDbEntity
  8
0
  6
BYBLOCK
 62
     1
100
AcDbLine
 10
-240.549886
 20
686.568127
 30
0.0
 11
-244.665372
 21
671.208928
 31
0.0
  0
ARC
  5
69A
100
AcDbEntity
  8
0
  6
BYBLOCK
 62
     1
100
AcDbCircle
 10
-240.107064
 20
688.220763
 30
0.0
 40
15.611949
100
AcDbArc
 50
234.279566
 51
249.0
  0
LINE
  5
69B
100
AcDbEntity
  8
0
  6
BYBLOCK
 62
     1
100
AcDbLine
 10
-249.2218
 20
675.545807
 30
0.0
 11
-256.203928
 21
680.566752
 31
0.0
  0
ARC
  5
69C
100
AcDbEntity
  8
0
  6
BYBLOCK
 62
     1
100
AcDbCircle
 10
-240.107064
 20
688.220763
 30
0.0
 40
15.611949
100
AcDbArc
 50
234.309961
 51
241.654981
  0
ARC
  5
69D
100
AcDbEntity
  8
0
  6
BYBLOCK
 62
     1
100
AcDbCircle
 10
-240.107064
 20
688.220763
 30
0.0
 40
15.611949
100
AcDbArc
 50
262.345019
 51
269.690039
  0
ARC
  5
69E
100
AcDbEntity
  8
0
  6
BYBLOCK
 62
     1
100
AcDbCircle
 10
-240.107064
 20
688.220763
 30
0.0
 40
15.611949
100
AcDbArc
 50
249.0
 51
255.0
  0
INSERT
  5
69F
100
AcDbEntity
  8
0
  6
BYBLOCK
 62
     1
100
AcDbBlockReference
  2
_OPEN
 10
-245.701886
 20
673.645754
 30
0.0
 41
2.0
 42
2.0
 43
2.0
 50
335.32749
  0
INSERT
  5
6A0
100
AcDbEntity
  8
0
  6
BYBLOCK
 62
     1
100
AcDbBlockReference
  2
_OPEN
 10
-244.147733
 20
673.140779
 30
0.0
 41
2.0
 42
2.0
 43
2.0
 50
168.67251
  0
MTEXT
  5
6A1
100
AcDbEntity
  8
0
  6
BYBLOCK
 62
     3
100
AcDbMText
 10
-251.253287
 20
680.085968
 30
0.0
 40
3.0
 41
0.0
 71
     5
 72
     1
  1
\A1;6°
 11
0.811875
 21
-0.583831
 31
0.0
  0
POINT
  5
6A2
100
AcDbEntity
  8
DEFPOINTS
  6
BYBLOCK
 62
     0
100
AcDbPoint
 10
-244.671556
 20
673.290983
 30
0.0
  0
POINT
  5
6A3
100
AcDbEntity
  8
DEFPOINTS
  6
BYBLOCK
 62
     0
100
AcDbPoint
 10
-233.611619
 20
705.141976
 30
0.0
  0
POINT
  5
6A4
100
AcDbEntity
  8
DEFPOINTS
  6
BYBLOCK
 62
     0
100
AcDbPoint
 10
-238.670618
 20
693.581652
 30
0.0
  0
POINT
  5
6A5
100
AcDbEntity
  8
DEFPOINTS
  6
BYBLOCK
 62
     0
100
AcDbPoint
 10
-240.291067
 20
687.534053
 30
0.0
  0
POINT
  5
6A6
100
AcDbEntity
  8
DEFPOINTS
  6
BYBLOCK
 62
     0
100
AcDbPoint
 10
-240.370667
 20
687.534053
 30
0.0
  0
ENDBLK
  5
6A7
100
AcDbEntity
  8
0
100
AcDbBlockEnd
  0
BLOCK
  5
6A8
100
AcDbEntity
  8
0
100
AcDbBlockBegin
  2
*D5
 70
     1
 10
0.0
 20
0.0
 30
0.0
  3
*D5
  1

  0
LINE
  5
6A9
100
AcDbEntity
  8
0
  6
BYBLOCK
 62
     1
100
AcDbLine
 10
-194.470063
 20
675.256352
 30
0.0
 11
-185.816291
 21
672.937581
 31
0.0
  0
ARC
  5
6AA
100
AcDbEntity
  8
0
  6
BYBLOCK
 62
     1
100
AcDbCircle
 10
-206.930507
 20
678.595118
 30
0.0
 40
19.859044
100
AcDbArc
 50
275.772687
 51
339.227313
  0
INSERT
  5
6AB
100
AcDbEntity
  8
0
  6
BYBLOCK
 62
     1
100
AcDbBlockReference
  2
_OPEN
 10
-206.930507
 20
658.736073
 30
0.0
 41
2.0
 42
2.0
 43
2.0
 50
182.886343
  0
INSERT
  5
6AC
100
AcDbEntity
  8
0
  6
BYBLOCK
 62
     1
100
AcDbBlockReference
  2
_OPEN
 10
-187.748143
 20
673.455219
 30
0.0
 41
2.0
 42
2.0
 43
2.0
 50
72.113657
  0
MTEXT
  5
6AD
100
AcDbEntity
  8
0
  6
BYBLOCK
 62
     3
100
AcDbMText
 10
-196.36299
 20
664.823262
 30
0.0
 40
3.0
 41
0.0
 71
     5
 72
     1
  1
\A1;75°
 11
0.793353
 21
0.608761
 31
0.0
  0
POINT
  5
6AE
100
AcDbEntity
  8
DEFPOINTS
  6
BYBLOCK
 62
     0
100
AcDbPoint
 10
-198.537712
 20
660.596711
 30
0.0
  0
POINT
  5
6AF
100
AcDbEntity
  8
DEFPOINTS
  6
BYBLOCK
 62
     0
100
AcDbPoint
 10
-206.930507
 20
678.595118
 30
0.0
  0
POINT
  5
6B0
100
AcDbEntity
  8
DEFPOINTS
  6
BYBLOCK
 62
     0
100
AcDbPoint
 10
-206.157766
 20
678.388062
 30
0.0
  0
POINT
  5
6B1
100
AcDbEntity
  8
DEFPOINTS
  6
BYBLOCK
 62
     0
100
AcDbPoint
 10
-195.435989
 20
675.515171
 30
0.0
  0
POINT
  5
6B2
100
AcDbEntity
  8
DEFPOINTS
  6
BYBLOCK
 62
     0
100
AcDbPoint
 10
-206.930507
 20
658.736073
 30
0.0
  0
ENDBLK
  5
6B3
100
AcDbEntity
  8
0
100
AcDbBlockEnd
  0
BLOCK
  5
6B4
100
AcDbEntity
  8
0
100
AcDbBlockBegin
  2
*D6
 70
     1
 10
0.0
 20
0.0
 30
0.0
  3
*D6
  1

  0
LINE
  5
6B5
100
AcDbEntity
  8
0
  6
BYBLOCK
 62
     1
100
AcDbLine
 10
-201.020853
 20
700.547234
 30
0.0
 11
-222.803959
 21
700.547234
 31
0.0
  0
LINE
  5
6B6
100
AcDbEntity
  8
0
  6
BYBLOCK
 62
     1
100
AcDbLine
 10
-207.750711
 20
678.546941
 30
0.0
 11
-222.803959
 21
678.546941
 31
0.0
  0
LINE
  5
6B7
100
AcDbEntity
  8
0
  6
BYBLOCK
 62
     1
100
AcDbLine
 10
-220.803959
 20
698.547234
 30
0.0
 11
-220.803959
 21
680.546941
 31
0.0
  0
INSERT
  5
6B8
100
AcDbEntity
  8
0
  6
BYBLOCK
 62
     1
100
AcDbBlockReference
  2
_OPEN
 10
-220.803959
 20
700.547234
 30
0.0
 41
2.0
 42
2.0
 43
2.0
 50
90.0
  0
INSERT
  5
6B9
100
AcDbEntity
  8
0
  6
BYBLOCK
 62
     1
100
AcDbBlockReference
  2
_OPEN
 10
-220.803959
 20
678.546941
 30
0.0
 41
2.0
 42
2.0
 43
2.0
 50
270.0
  0
MTEXT
  5
6BA
100
AcDbEntity
  8
0
  6
BYBLOCK
 62
     3
100
AcDbMText
 10
-223.303959
 20
689.547088
 30
0.0
 40
3.0
 41
0.0
 71
     5
 72
     1
  1
\A1;22
 11
0.0
 21
1.0
 31
0.0
  0
POINT
  5
6BB
100
AcDbEntity
  8
DEFPOINTS
  6
BYBLOCK
 62
     0
100
AcDbPoint
 10
-200.020853
 20
700.547234
 30
0.0
  0
POINT
  5
6BC
100
AcDbEntity
  8
DEFPOINTS
  6
BYBLOCK
 62
     0
100
AcDbPoint
 10
-206.750711
 20
678.546941
 30
0.0
  0
POINT
  5
6BD
100
AcDbEntity
  8
DEFPOINTS
  6
BYBLOCK
 62
     0
100
AcDbPoint
 10
-220.803959
 20
678.546941
 30
0.0
  0
ENDBLK
  5
6BE
100
AcDbEntity
  8
0
100
AcDbBlockEnd
  0
BLOCK
  5
6BF
100
AcDbEntity
  8
0
100
AcDbBlockBegin
  2
*D7
 70
     1
 10
0.0
 20
0.0
 30
0.0
  3
*D7
  1

  0
LINE
  5
6C0
100
AcDbEntity
  8
0
  6
BYBLOCK
 62
     1
100
AcDbLine
 10
-35.750507
 20
700.547234
 30
0.0
 11
-20.449604
 21
700.547234
 31
0.0
  0
LINE
  5
6C1
100
AcDbEntity
  8
0
  6
BYBLOCK
 62
     1
100
AcDbLine
 10
-35.750507
 20
675.547118
 30
0.0
 11
-20.449604
 21
675.547118
 31
0.0
  0
LINE
  5
6C2
100
AcDbEntity
  8
0
  6
BYBLOCK
 62
     1
100
AcDbLine
 10
-22.449604
 20
698.547234
 30
0.0
 11
-22.449604
 21
677.547118
 31
0.0
  0
INSERT
  5
6C3
100
AcDbEntity
  8
0
  6
BYBLOCK
 62
     1
100
AcDbBlockReference
  2
_OPEN
 10
-22.449604
 20
700.547234
 30
0.0
 41
2.0
 42
2.0
 43
2.0
 50
90.0
  0
INSERT
  5
6C4
100
AcDbEntity
  8
0
  6
BYBLOCK
 62
     1
100
AcDbBlockReference
  2
_OPEN
 10
-22.449604
 20
675.547118
 30
0.0
 41
2.0
 42
2.0
 43
2.0
 50
270.0
  0
MTEXT
  5
6C5
100
AcDbEntity
  8
0
  6
BYBLOCK
 62
     3
100
AcDbMText
 10
-24.949604
 20
688.047176
 30
0.0
 40
3.0
 41
0.0
 71
     5
 72
     1
  1
\A1;25
 11
0.0
 21
1.0
 31
0.0
  0
POINT
  5
6C6
100
AcDbEntity
  8
DEFPOINTS
  6
BYBLOCK
 62
     0
100
AcDbPoint
 10
-36.750507
 20
700.547234
 30
0.0
  0
POINT
  5
6C7
100
AcDbEntity
  8
DEFPOINTS
  6
BYBLOCK
 62
     0
100
AcDbPoint
 10
-36.750507
 20
675.547118
 30
0.0
  0
POINT
  5
6C8
100
AcDbEntity
  8
DEFPOINTS
  6
BYBLOCK
 62
     0
100
AcDbPoint
 10
-22.449604
 20
675.547118
 30
0.0
  0
ENDBLK
  5
6C9
100
AcDbEntity
  8
0
100
AcDbBlockEnd
  0
BLOCK
  5
6CA
100
AcDbEntity
  8
0
100
AcDbBlockBegin
  2
*D8
 70
     1
 10
0.0
 20
0.0
 30
0.0
  3
*D8
  1

  0
LINE
  5
6CB
100
AcDbEntity
  8
0
  6
BYBLOCK
 62
     1
100
AcDbLine
 10
-207.750711
 20
617.182082
 30
0.0
 11
-223.980177
 21
617.182082
 31
0.0
  0
LINE
  5
6CC
100
AcDbEntity
  8
0
  6
BYBLOCK
 62
     1
100
AcDbLine
 10
-207.750711
 20
585.182082
 30
0.0
 11
-223.980177
 21
585.182082
 31
0.0
  0
LINE
  5
6CD
100
AcDbEntity
  8
0
  6
BYBLOCK
 62
     1
100
AcDbLine
 10
-221.980177
 20
615.182082
 30
0.0
 11
-221.980177
 21
587.182082
 31
0.0
  0
INSERT
  5
6CE
100
AcDbEntity
  8
0
  6
BYBLOCK
 62
     1
100
AcDbBlockReference
  2
_OPEN
 10
-221.980177
 20
617.182082
 30
0.0
 41
2.0
 42
2.0
 43
2.0
 50
90.0
  0
INSERT
  5
6CF
100
AcDbEntity
  8
0
  6
BYBLOCK
 62
     1
100
AcDbBlockReference
  2
_OPEN
 10
-221.980177
 20
585.182082
 30
0.0
 41
2.0
 42
2.0
 43
2.0
 50
270.0
  0
MTEXT
  5
6D0
100
AcDbEntity
  8
0
  6
BYBLOCK
 62
     3
100
AcDbMText
 10
-224.480177
 20
601.182082
 30
0.0
 40
3.0
 41
0.0
 71
     5
 72
     1
  1
\A1;32
 11
0.0
 21
1.0
 31
0.0
  0
POINT
  5
6D1
100
AcDbEntity
  8
DEFPOINTS
  6
BYBLOCK
 62
     0
100
AcDbPoint
 10
-206.750711
 20
617.182082
 30
0.0
  0
POINT
  5
6D2
100
AcDbEntity
  8
DEFPOINTS
  6
BYBLOCK
 62
     0
100
AcDbPoint
 10
-206.750711
 20
585.182082
 30
0.0
  0
POINT
  5
6D3
100
AcDbEntity
  8
DEFPOINTS
  6
BYBLOCK
 62
     0
100
AcDbPoint
 10
-221.980177
 20
585.182082
 30
0.0
  0
ENDBLK
  5
6D4
100
AcDbEntity
  8
0
100
AcDbBlockEnd
  0
BLOCK
  5
6F0
100
AcDbEntity
  8
0
100
AcDbBlockBegin
  2
*D10
 70
     1
 10
0.0
 20
0.0
 30
0.0
  3
*D10
  1

  0
LINE
  5
6F1
100
AcDbEntity
  8
0
  6
BYBLOCK
 62
     1
100
AcDbLine
 10
-206.750711
 20
618.182082
 30
0.0
 11
-206.750711
 21
631.378097
 31
0.0
  0
LINE
  5
6F2
100
AcDbEntity
  8
0
  6
BYBLOCK
 62
     1
100
AcDbLine
 10
-178.750711
 20
618.182082
 30
0.0
 11
-178.750711
 21
631.378097
 31
0.0
  0
LINE
  5
6F3
100
AcDbEntity
  8
0
  6
BYBLOCK
 62
     1
100
AcDbLine
 10
-204.750711
 20
629.378097
 30
0.0
 11
-180.750711
 21
629.378097
 31
0.0
  0
INSERT
  5
6F4
100
AcDbEntity
  8
0
  6
BYBLOCK
 62
     1
100
AcDbBlockReference
  2
_OPEN
 10
-206.750711
 20
629.378097
 30
0.0
 41
2.0
 42
2.0
 43
2.0
 50
180.0
  0
INSERT
  5
6F5
100
AcDbEntity
  8
0
  6
BYBLOCK
 62
     1
100
AcDbBlockReference
  2
_OPEN
 10
-178.750711
 20
629.378097
 30
0.0
 41
2.0
 42
2.0
 43
2.0
  0
MTEXT
  5
6F6
100
AcDbEntity
  8
0
  6
BYBLOCK
 62
     3
100
AcDbMText
 10
-192.750711
 20
631.878097
 30
0.0
 40
3.0
 41
0.0
 71
     5
 72
     1
  1
\A1;28
  0
POINT
  5
6F7
100
AcDbEntity
  8
DEFPOINTS
  6
BYBLOCK
 62
     0
100
AcDbPoint
 10
-206.750711
 20
617.182082
 30
0.0
  0
POINT
  5
6F8
100
AcDbEntity
  8
DEFPOINTS
  6
BYBLOCK
 62
     0
100
AcDbPoint
 10
-178.750711
 20
617.182082
 30
0.0
  0
POINT
  5
6F9
100
AcDbEntity
  8
DEFPOINTS
  6
BYBLOCK
 62
     0
100
AcDbPoint
 10
-178.750711
 20
629.378097
 30
0.0
  0
ENDBLK
  5
6FA
100
AcDbEntity
  8
0
100
AcDbBlockEnd
  0
BLOCK
  5
72D
100
AcDbEntity
  8
0
100
AcDbBlockBegin
  2
*D16
 70
     1
 10
0.0
 20
0.0
 30
0.0
  3
*D16
  1

  0
LINE
  5
72E
100
AcDbEntity
  8
0
  6
BYBLOCK
 62
     1
100
AcDbLine
 10
-257.250298
 20
618.501149
 30
0.0
 11
-271.201825
 21
622.23945
 31
0.0
  0
LINE
  5
72F
100
AcDbEntity
  8
0
  6
BYBLOCK
 62
     1
100
AcDbLine
 10
-257.26918
 20
618.415979
 30
0.0
 11
-271.493431
 21
620.924098
 31
0.0
  0
ARC
  5
730
100
AcDbEntity
  8
0
  6
BYBLOCK
 62
     1
100
AcDbCircle
 10
-256.284372
 20
618.24233
 30
0.0
 40
13.443684
100
AcDbArc
 50
147.888839
 51
165.0
  0
LINE
  5
731
100
AcDbEntity
  8
0
  6
BYBLOCK
 62
     1
100
AcDbLine
 10
-267.671419
 20
625.388503
 30
0.0
 11
-263.099972
 21
632.672861
 31
0.0
  0
ARC
  5
732
100
AcDbEntity
  8
0
  6
BYBLOCK
 62
     1
100
AcDbCircle
 10
-256.284372
 20
618.24233
 30
0.0
 40
13.443684
100
AcDbArc
 50
147.936597
 51
156.468298
  0
ARC
  5
733
100
AcDbEntity
  8
0
  6
BYBLOCK
 62
     1
100
AcDbCircle
 10
-256.284372
 20
618.24233
 30
0.0
 40
13.443684
100
AcDbArc
 50
178.531702
 51
187.063403
  0
ARC
  5
734
100
AcDbEntity
  8
0
  6
BYBLOCK
 62
     1
100
AcDbCircle
 10
-256.284372
 20
618.24233
 30
0.0
 40
13.443684
100
AcDbArc
 50
165.0
 51
170.0
  0
INSERT
  5
735
100
AcDbEntity
  8
0
  6
BYBLOCK
 62
     1
100
AcDbBlockReference
  2
_OPEN
 10
-269.269973
 20
621.721812
 30
0.0
 41
2.0
 42
2.0
 43
2.0
 50
250.734149
  0
INSERT
  5
736
100
AcDbEntity
  8
0
  6
BYBLOCK
 62
     1
100
AcDbBlockReference
  2
_OPEN
 10
-269.523816
 20
620.576801
 30
0.0
 41
2.0
 42
2.0
 43
2.0
 50
84.265851
  0
MTEXT
  5
737
100
AcDbEntity
  8
0
  6
BYBLOCK
 62
     3
100
AcDbMText
 10
-267.503242
 20
630.359591
 30
0.0
 40
3.0
 41
0.0
 71
     5
 72
     1
  1
\A1;5°
 11
0.531564
 21
0.847018
 31
0.0
  0
POINT
  5
738
100
AcDbEntity
  8
DEFPOINTS
  6
BYBLOCK
 62
     0
100
AcDbPoint
 10
-269.450317
 20
620.960879
 30
0.0
  0
POINT
  5
739
100
AcDbEntity
  8
DEFPOINTS
  6
BYBLOCK
 62
     0
100
AcDbPoint
 10
-256.284372
 20
618.24233
 30
0.0
  0
POINT
  5
73A
100
AcDbEntity
  8
DEFPOINTS
  6
BYBLOCK
 62
     0
100
AcDbPoint
 10
-256.284372
 20
618.24233
 30
0.0
  0
POINT
  5
73B
100
AcDbEntity
  8
DEFPOINTS
  6
BYBLOCK
 62
     0
100
AcDbPoint
 10
-229.398016
 20
611.038153
 30
0.0
  0
POINT
  5
73C
100
AcDbEntity
  8
DEFPOINTS
  6
BYBLOCK
 62
     0
100
AcDbPoint
 10
-228.872442
 20
613.408867
 30
0.0
  0
ENDBLK
  5
73D
100
AcDbEntity
  8
0
100
AcDbBlockEnd
  0
ENDSEC
  0
SECTION
  2
ENTITIES
  0
DIMENSION
  5
3A
100
AcDbEntity
  8
外形
  6
CONTINUOUS
100
AcDbDimension
  2
*D2
 10
-23.418729
 20
617.182082
 30
0.0
 11
-25.918729
 21
601.182082
 31
0.0
 70
    32
  3
STANDARD
100
AcDbAlignedDimension
 13
-36.750507
 23
585.182082
 33
0.0
 14
-36.750507
 24
617.182082
 34
0.0
 50
90.0
100
AcDbRotatedDimension
1001
ACAD
1000
DSTYLE
1002
{
1070
    40
1040
1.0
1002
}
  0
LINE
  5
47
100
AcDbEntity
  8
外形
  6
CONTINUOUS
100
AcDbLine
 10
-36.750507
 20
617.182082
 30
0.0
 11
-36.750507
 21
585.182082
 31
0.0
  0
LINE
  5
4A
100
AcDbEntity
  8
外形
  6
CONTINUOUS
100
AcDbLine
 10
-206.750711
 20
585.182082
 30
0.0
 11
-36.750507
 21
585.182082
 31
0.0
  0
TEXT
  5
4B
100
AcDbEntity
  8
外形
  6
CONTINUOUS
 62
     2
100
AcDbText
 10
-190.26406
 20
561.676234
 30
0.0
 40
6.0
  1
ＰＳＢＮ　Ｒ３２２５－４３
100
AcDbText
  0
DIMENSION
  5
4C
100
AcDbEntity
  8
外形
  6
CONTINUOUS
100
AcDbDimension
  2
*D3
 10
-36.750507
 20
654.878006
 30
0.0
 11
-121.750609
 21
657.378006
 31
0.0
 70
    32
  3
STANDARD
100
AcDbAlignedDimension
 13
-206.750711
 23
678.546941
 33
0.0
 14
-36.750507
 24
675.547118
 34
0.0
100
AcDbRotatedDimension
1001
ACAD
1000
DSTYLE
1002
{
1070
    40
1040
1.0
1002
}
  0
LINE
  5
5B
100
AcDbEntity
  8
外形
  6
CONTINUOUS
100
AcDbLine
 10
-178.750711
 20
617.182082
 30
0.0
 11
-36.750507
 21
617.182082
 31
0.0
  0
LINE
  5
5C
100
AcDbEntity
  8
外形
  6
CONTINUOUS
100
AcDbLine
 10
-272.189966
 20
697.246273
 30
0.0
 11
-266.530312
 21
718.36839
 31
0.0
  0
LINE
  5
5E
100
AcDbEntity
  8
外形
  6
CONTINUOUS
100
AcDbLine
 10
-235.733307
 20
699.407424
 30
0.0
 11
-240.086041
 21
701.350602
 31
0.0
  0
LINE
  5
5F
100
AcDbEntity
  8
外形
  6
CONTINUOUS
100
AcDbLine
 10
-232.005917
 20
709.117606
 30
0.0
 11
-240.291067
 21
687.534053
 31
0.0
  0
DIMENSION
  5
60
100
AcDbEntity
  8
寸法
  6
CONTINUOUS
100
AcDbDimension
  2
*D4
 10
-240.370667
 20
687.534053
 30
0.0
 11
-251.253287
 21
680.085968
 31
0.0
 70
    34
  3
STANDARD
100
AcDb2LineAngularDimension
 13
-238.670618
 23
693.581652
 33
0.0
 14
-240.291067
 24
687.534053
 34
0.0
 15
-233.611619
 25
705.141976
 35
0.0
 16
-244.671556
 26
673.290983
 36
0.0
1001
ACAD
1000
DSTYLE
1002
{
1070
    40
1040
1.0
1002
}
  0
LINE
  5
75
100
AcDbEntity
  8
外形
  6
CONTINUOUS
100
AcDbLine
 10
-243.002932
 20
702.625403
 30
0.0
 11
-247.597292
 21
690.656686
 31
0.0
  0
LINE
  5
76
100
AcDbEntity
  8
外形
  6
CONTINUOUS
100
AcDbLine
 10
-240.086041
 20
701.350602
 30
0.0
 11
-244.643801
 21
689.477232
 31
0.0
  0
LINE
  5
77
100
AcDbEntity
  8
外形
  6
CONTINUOUS
100
AcDbLine
 10
-240.291067
 20
687.534053
 30
0.0
 11
-244.643801
 21
689.477232
 31
0.0
  0
DIMENSION
  5
8B
100
AcDbEntity
  8
外形
  6
CONTINUOUS
100
AcDbDimension
  2
*D5
 10
-206.930507
 20
658.736073
 30
0.0
 11
-196.36299
 21
664.823262
 31
0.0
 70
    34
  3
STANDARD
100
AcDb2LineAngularDimension
 13
-206.157766
 23
678.388062
 33
0.0
 14
-195.435989
 24
675.515171
 34
0.0
 15
-206.930507
 25
678.595118
 35
0.0
 16
-198.537712
 26
660.596711
 36
0.0
1001
ACAD
1000
DSTYLE
1002
{
1070
    40
1040
1.0
1002
}
  0
CIRCLE
  5
99
100
AcDbEntity
  8
外形
  6
CONTINUOUS
100
AcDbCircle
 10
-190.15435
 20
693.809868
 30
0.0
 40
4.0
  0
CIRCLE
  5
9A
100
AcDbEntity
  8
外形
  6
CONTINUOUS
100
AcDbCircle
 10
-190.15435
 20
693.809868
 30
0.0
 40
3.3235
  0
ARC
  5
A8
100
AcDbEntity
  8
外形
  6
CONTINUOUS
100
AcDbCircle
 10
-192.023294
 20
685.160559
 30
0.0
 40
2.5
100
AcDbArc
 50
255.0
 51
75.0
  0
LINE
  5
A9
100
AcDbEntity
  8
外形
  6
CONTINUOUS
100
AcDbLine
 10
-191.583302
 20
686.802633
 30
0.0
 11
-194.456193
 21
676.080856
 31
0.0
  0
CIRCLE
  5
AA
100
AcDbEntity
  8
外形
  6
CONTINUOUS
100
AcDbCircle
 10
-199.153377
 20
683.085246
 30
0.0
 40
2.35
  0
LINE
  5
AB
100
AcDbEntity
  8
外形
  6
CONTINUOUS
100
AcDbLine
 10
-203.85056
 20
690.089635
 30
0.0
 11
-206.723451
 21
679.367858
 31
0.0
  0
LINE
  5
AC
100
AcDbEntity
  8
外形
  6
CONTINUOUS
100
AcDbLine
 10
-206.157766
 20
678.388062
 30
0.0
 11
-195.435989
 21
675.515171
 31
0.0
  0
ARC
  5
AD
100
AcDbEntity
  8
外形
  6
CONTINUOUS
100
AcDbCircle
 10
-205.950711
 20
679.160803
 30
0.0
 40
0.8
100
AcDbArc
 50
165.0
 51
255.0
  0
ARC
  5
B0
100
AcDbEntity
  8
外形
  6
CONTINUOUS
100
AcDbCircle
 10
-195.228934
 20
676.287912
 30
0.0
 40
0.8
100
AcDbArc
 50
255.0
 51
345.0
  0
LINE
  5
B1
100
AcDbEntity
  8
外形
  6
CONTINUOUS
100
AcDbLine
 10
-194.372014
 20
676.395016
 30
0.0
 11
-191.207614
 21
675.547118
 31
0.0
  0
LINE
  5
B2
100
AcDbEntity
  8
外形
  6
CONTINUOUS
100
AcDbLine
 10
-200.020853
 20
700.547234
 30
0.0
 11
-202.684739
 21
690.605475
 31
0.0
  0
LINE
  5
B3
100
AcDbEntity
  8
外形
  6
CONTINUOUS
100
AcDbLine
 10
-202.870764
 20
690.65532
 30
0.0
 11
-191.376247
 21
687.575374
 31
0.0
  0
ARC
  5
B4
100
AcDbEntity
  8
外形
  6
CONTINUOUS
100
AcDbCircle
 10
-203.077819
 20
689.88258
 30
0.0
 40
0.8
100
AcDbArc
 50
75.0
 51
165.0
  0
LWPOLYLINE
  5
B5
100
AcDbEntity
  8
外形
  6
CONTINUOUS
100
AcDbPolyline
 90
        6
 70
     1
 43
0.0
 10
-191.631562
 20
694.07034
 10
-191.118532
 20
692.660801
 10
-189.64132
 20
692.400329
 10
-188.677138
 20
693.549396
 10
-189.190169
 20
694.958935
 10
-190.66738
 20
695.219407
  0
ARC
  5
B6
100
AcDbEntity
  8
外形
  6
CONTINUOUS
100
AcDbCircle
 10
-192.356043
 20
687.009688
 30
0.0
 40
0.8
100
AcDbArc
 50
345.0
 51
75.0
  0
LINE
  5
C6
100
AcDbEntity
  8
外形
  6
CONTINUOUS
100
AcDbLine
 10
-36.750507
 20
700.547234
 30
0.0
 11
-36.750507
 21
675.547118
 31
0.0
  0
LINE
  5
50E
100
AcDbEntity
  8
外形
  6
CONTINUOUS
100
AcDbLine
 10
-200.020853
 20
700.547234
 30
0.0
 11
-36.750507
 21
700.547234
 31
0.0
  0
DIMENSION
  5
51B
100
AcDbEntity
  8
寸法
  6
CONTINUOUS
100
AcDbDimension
  2
*D6
 10
-220.803959
 20
678.546941
 30
0.0
 11
-223.303959
 21
689.547088
 31
0.0
 70
    32
  3
STANDARD
100
AcDbAlignedDimension
 13
-200.020853
 23
700.547234
 33
0.0
 14
-206.750711
 24
678.546941
 34
0.0
 50
90.0
100
AcDbRotatedDimension
1001
ACAD
1000
DSTYLE
1002
{
1070
    40
1040
1.0
1002
}
  0
DIMENSION
  5
54A
100
AcDbEntity
  8
外形
  6
CONTINUOUS
100
AcDbDimension
  2
*D7
 10
-22.449604
 20
675.547118
 30
0.0
 11
-24.949604
 21
688.047176
 31
0.0
 70
    32
  3
STANDARD
100
AcDbAlignedDimension
 13
-36.750507
 23
700.547234
 33
0.0
 14
-36.750507
 24
675.547118
 34
0.0
 50
90.0
100
AcDbRotatedDimension
1001
ACAD
1000
DSTYLE
1002
{
1070
    40
1040
1.0
1002
}
  0
LINE
  5
561
100
AcDbEntity
  8
外形
  6
CONTINUOUS
100
AcDbLine
 10
-191.207614
 20
675.547118
 30
0.0
 11
-36.750507
 21
675.547118
 31
0.0
  0
LINE
  5
579
100
AcDbEntity
  8
外形
  6
CONTINUOUS
100
AcDbLine
 10
-178.930507
 20
675.547118
 30
0.0
 11
-178.930507
 21
700.547234
 31
0.0
  0
DIMENSION
  5
598
100
AcDbEntity
  8
外形
  6
CONTINUOUS
100
AcDbDimension
  2
*D8
 10
-221.980177
 20
585.182082
 30
0.0
 11
-224.480177
 21
601.182082
 31
0.0
 70
    32
  3
STANDARD
100
AcDbAlignedDimension
 13
-206.750711
 23
617.182082
 33
0.0
 14
-206.750711
 24
585.182082
 34
0.0
 50
90.0
100
AcDbRotatedDimension
1001
ACAD
1000
DSTYLE
1002
{
1070
    40
1040
1.0
1002
}
  0
DIMENSION
  5
59B
100
AcDbEntity
  8
寸法
  6
CONTINUOUS
100
AcDbDimension
  2
*D10
 10
-178.750711
 20
629.378097
 30
0.0
 11
-192.750711
 21
631.878097
 31
0.0
 70
    32
  3
STANDARD
100
AcDbAlignedDimension
 13
-206.750711
 23
617.182082
 33
0.0
 14
-178.750711
 24
617.182082
 34
0.0
100
AcDbRotatedDimension
1001
ACAD
1000
DSTYLE
1002
{
1070
    40
1040
1.0
1002
}
  0
LINE
  5
59C
100
AcDbEntity
  8
外形
  6
CONTINUOUS
100
AcDbLine
 10
-194.663249
 20
618.499494
 30
0.0
 11
-194.14751
 21
613.767516
 31
0.0
  0
LINE
  5
59D
100
AcDbEntity
  8
外形
  6
CONTINUOUS
100
AcDbLine
 10
-179.545214
 20
620.147208
 30
0.0
 11
-178.750711
 21
617.182082
 31
0.0
  0
LINE
  5
59E
100
AcDbEntity
  8
外形
  6
CONTINUOUS
100
AcDbLine
 10
-206.750711
 20
617.182082
 30
0.0
 11
-179.545214
 21
620.147208
 31
0.0
  0
LINE
  5
59F
100
AcDbEntity
  8
外形
  6
CONTINUOUS
100
AcDbLine
 10
-205.865572
 20
609.291534
 30
0.0
 11
-193.827816
 21
610.603528
 31
0.0
  0
LINE
  5
5A0
100
AcDbEntity
  8
外形
  6
CONTINUOUS
100
AcDbLine
 10
-206.234973
 20
612.450104
 30
0.0
 11
-194.14751
 21
613.767516
 31
0.0
  0
LINE
  5
5A1
100
AcDbEntity
  8
外形
  6
CONTINUOUS
100
AcDbLine
 10
-206.21012
 20
612.452813
 30
0.0
 11
-205.865572
 21
609.291534
 31
0.0
  0
LINE
  5
5A2
100
AcDbEntity
  8
外形
  6
CONTINUOUS
100
AcDbLine
 10
-206.750711
 20
617.182082
 30
0.0
 11
-206.234973
 21
612.450104
 31
0.0
  0
LINE
  5
5A3
100
AcDbEntity
  8
外形
  6
CONTINUOUS
100
AcDbLine
 10
-194.172363
 20
613.764808
 30
0.0
 11
-193.827816
 21
610.603528
 31
0.0
  0
LINE
  5
5A4
100
AcDbEntity
  8
外形
  6
CONTINUOUS
100
AcDbLine
 10
-179.545214
 20
620.147208
 30
0.0
 11
-179.545214
 21
585.182082
 31
0.0
  0
LINE
  5
5A5
100
AcDbEntity
  8
外形
  6
CONTINUOUS
100
AcDbLine
 10
-178.750711
 20
617.182082
 30
0.0
 11
-178.750711
 21
585.182082
 31
0.0
  0
LINE
  5
5A7
100
AcDbEntity
  8
外形
  6
CONTINUOUS
100
AcDbLine
 10
-191.170293
 20
618.880191
 30
0.0
 11
-191.170293
 21
585.182082
 31
0.0
  0
LINE
  5
5E1
100
AcDbEntity
  8
外形
  6
CONTINUOUS
100
AcDbLine
 10
-205.680507
 20
609.311704
 30
0.0
 11
-205.680507
 21
585.182082
 31
0.0
  0
LINE
  5
5E3
100
AcDbEntity
  8
外形
  6
CONTINUOUS
100
AcDbLine
 10
-179.5452
 20
700.547234
 30
0.0
 11
-178.930507
 21
675.547118
 31
0.0
  0
LINE
  5
613
100
AcDbEntity
  8
寸法
  6
CONTINUOUS
100
AcDbLine
 10
-223.610787
 20
683.064585
 30
0.0
 11
-240.291067
 21
687.534053
 31
0.0
  0
LINE
  5
614
100
AcDbEntity
  8
外形
  6
CONTINUOUS
100
AcDbLine
 10
-247.597292
 20
690.656686
 30
0.0
 11
-272.189966
 21
697.246273
 31
0.0
  0
LINE
  5
615
100
AcDbEntity
  8
外形
  6
CONTINUOUS
100
AcDbLine
 10
-232.005917
 20
709.117606
 30
0.0
 11
-266.530312
 21
718.36839
 31
0.0
  0
LINE
  5
617
100
AcDbEntity
  8
外形
  6
CONTINUOUS
100
AcDbLine
 10
-244.634829
 20
689.500604
 30
0.0
 11
-247.542748
 21
690.798778
 31
0.0
  0
LINE
  5
618
100
AcDbEntity
  8
外形
  6
CONTINUOUS
100
AcDbLine
 10
-240.095013
 20
701.327229
 30
0.0
 11
-243.002932
 21
702.625403
 31
0.0
  0
DIMENSION
  5
619
100
AcDbEntity
  8
寸法
  6
CONTINUOUS
100
AcDbDimension
  2
*D16
 10
-228.872442
 20
613.408867
 30
0.0
 11
-267.503242
 21
630.359591
 31
0.0
 70
    34
  3
STANDARD
100
AcDb2LineAngularDimension
 13
-256.284372
 23
618.24233
 33
0.0
 14
-229.398016
 24
611.038153
 34
0.0
 15
-256.284372
 25
618.24233
 35
0.0
 16
-269.450317
 26
620.960879
 36
0.0
1001
ACAD
1000
DSTYLE
1002
{
1070
    40
1040
1.0
1002
}
  0
LINE
  5
61B
100
AcDbEntity
  8
外形
  6
CONTINUOUS
100
AcDbLine
 10
-256.284372
 20
618.24233
 30
0.0
 11
-228.872442
 21
613.408867
 31
0.0
  0
LINE
  5
61C
100
AcDbEntity
  8
外形
  6
CONTINUOUS
100
AcDbLine
 10
-257.110937
 20
613.554645
 30
0.0
 11
-244.727788
 21
611.371162
 31
0.0
  0
LINE
  5
61D
100
AcDbEntity
  8
外形
  6
CONTINUOUS
100
AcDbLine
 10
-257.638518
 20
610.418616
 30
0.0
 11
-245.30461
 21
608.243815
 31
0.0
  0
LINE
  5
61E
100
AcDbEntity
  8
外形
  6
CONTINUOUS
100
AcDbLine
 10
-261.975878
 20
593.88546
 30
0.0
 11
-235.868492
 21
586.890007
 31
0.0
  0
LINE
  5
61F
100
AcDbEntity
  8
寸法
  6
CONTINUOUS
100
AcDbLine
 10
-247.115905
 20
652.459515
 30
0.0
 11
-256.284372
 21
618.24233
 31
0.0
  0
LINE
  5
621
100
AcDbEntity
  8
外形
  6
CONTINUOUS
100
AcDbLine
 10
-256.284372
 20
618.24233
 30
0.0
 11
-257.110937
 21
613.554645
 31
0.0
  0
LINE
  5
622
100
AcDbEntity
  8
外形
  6
CONTINUOUS
100
AcDbLine
 10
-257.086317
 20
613.550304
 30
0.0
 11
-257.638518
 21
610.418616
 31
0.0
  0
LINE
  5
623
100
AcDbEntity
  8
外形
  6
CONTINUOUS
100
AcDbLine
 10
-228.767732
 20
613.390404
 30
0.0
 11
-235.868492
 21
586.890007
 31
0.0
  0
LINE
  5
624
100
AcDbEntity
  8
外形
  6
CONTINUOUS
100
AcDbLine
 10
-243.901223
 20
616.058847
 30
0.0
 11
-244.727788
 21
611.371162
 31
0.0
  0
LINE
  5
625
100
AcDbEntity
  8
外形
  6
CONTINUOUS
100
AcDbLine
 10
-244.752408
 20
611.375503
 30
0.0
 11
-245.30461
 21
608.243815
 31
0.0
  0
LINE
  5
626
100
AcDbEntity
  8
寸法
  6
CONTINUOUS
100
AcDbLine
 10
-247.127949
 20
652.414566
 30
0.0
 11
-213.75286
 21
652.414566
 31
0.0
  0
LINE
  5
627
100
AcDbEntity
  8
寸法
  6
CONTINUOUS
100
AcDbLine
 10
-206.750711
 20
678.546941
 30
0.0
 11
-213.75286
 21
652.414566
 31
0.0
  0
LINE
  5
63A
100
AcDbEntity
  8
外形
  6
CONTINUOUS
100
AcDbLine
 10
-257.550014
 20
610.40301
 30
0.0
 11
-261.975878
 21
593.88546
 31
0.0
  0
LINE
  5
63B
100
AcDbEntity
  8
外形
  6
CONTINUOUS
100
AcDbLine
 10
-240.674967
 20
615.489971
 30
0.0
 11
-247.502985
 21
590.00746
 31
0.0
  0
ENDSEC
  0
SECTION
  2
OBJECTS
  0
DICTIONARY
  5
1E
100
AcDbDictionary
  3
ACAD_GROUP
350
1C
  3
ACAD_MLINESTYLE
350
1D
  0
DICTIONARY
  5
34
100
AcDbDictionary
280
     1
  3
ACAD_XREC_ROUNDTRIP
360
35
  0
DICTIONARY
  5
22
100
AcDbDictionary
280
     1
  3
ACAD_XREC_ROUNDTRIP
360
23
  0
DICTIONARY
  5
3
100
AcDbDictionary
280
     1
  3
ACAD_LAYOUTSELFREF
360
4
  0
DICTIONARY
  5
A
100
AcDbDictionary
280
     1
  3
ACAD_LAYOUTSELFREF
360
B
  0
DICTIONARY
  5
1C
102
{ACAD_REACTORS
330
1E
102
}
100
AcDbDictionary
  0
DICTIONARY
  5
1D
102
{ACAD_REACTORS
330
1E
102
}
100
AcDbDictionary
  3
STANDARD
350
20
  0
XRECORD
  5
35
102
{ACAD_REACTORS
330
34
102
}
100
AcDbXrecord
102
PLOTBIT
280
     0
  0
XRECORD
  5
23
102
{ACAD_REACTORS
330
22
102
}
100
AcDbXrecord
102
ACADR14ROUNDTRIP
1000
DSTYLE
1002
{
1070
   341
340
2A
1070
   343
340
2A
1070
   344
340
2A
1002
}
  0
XRECORD
  5
4
102
{ACAD_REACTORS
330
3
102
}
100
AcDbXrecord
340
2
  0
XRECORD
  5
B
102
{ACAD_REACTORS
330
A
102
}
100
AcDbXrecord
340
9
  0
MLINESTYLE
  5
20
102
{ACAD_REACTORS
330
1D
102
}
100
AcDbMlineStyle
  2
STANDARD
 70
     0
  3

 62
     0
 51
90.0
 52
90.0
 71
     2
 49
0.5
 62
   256
  6
BYLAYER
 49
-0.5
 62
   256
  6
BYLAYER
  0
ENDSEC
  0
EOF
