  0
SECTION
  2
HEADER
  9
$ACADVER
  1
AC1015
  9
$ACADMAINTVER
 70
     6
  9
$DWGCODEPAGE
  3
ANSI_932
  9
$INSBASE
 10
0.0
 20
0.0
 30
0.0
  9
$EXTMIN
 10
-74.21308384859617
 20
-128.7807981310037
 30
-0.0015258207003583
  9
$EXTMAX
 10
183.4038427996095
 20
50.93703752374097
 30
0.0000000349246037
  9
$LIMMIN
 10
0.0
 20
0.0
  9
$LIMMAX
 10
0.0
 20
0.0
  9
$ORTHOMODE
 70
     1
  9
$REGENMODE
 70
     1
  9
$FILLMODE
 70
     1
  9
$QTEXTMODE
 70
     0
  9
$MIRRTEXT
 70
     1
  9
$LTSCALE
 40
1.0
  9
$ATTMODE
 70
     1
  9
$TEXTSIZE
 40
2.5
  9
$TRACEWID
 40
1.0
  9
$TEXTSTYLE
  7
STANDARD
  9
$CLAYER
  8
AM_0
  9
$CELTYPE
  6
ByLayer
  9
$CECOLOR
 62
   256
  9
$CELTSCALE
 40
1.0
  9
$DISPSILH
 70
     0
  9
$DIMSCALE
 40
1.0
  9
$DIMASZ
 40
2.5
  9
$DIMEXO
 40
0.0
  9
$DIMDLI
 40
10.0
  9
$DIMRND
 40
0.0
  9
$DIMDLE
 40
0.0
  9
$DIMEXE
 40
1.0
  9
$DIMTP
 40
0.1
  9
$DIMTM
 40
0.1000000001
  9
$DIMTXT
 40
3.8
  9
$DIMCEN
 40
0.0
  9
$DIMTSZ
 40
0.0
  9
$DIMTOL
 70
     0
  9
$DIMLIM
 70
     0
  9
$DIMTIH
 70
     0
  9
$DIMTOH
 70
     0
  9
$DIMSE1
 70
     0
  9
$DIMSE2
 70
     0
  9
$DIMTAD
 70
     3
  9
$DIMZIN
 70
     1
  9
$DIMBLK
  1
Open30
  9
$DIMASO
 70
     1
  9
$DIMSHO
 70
     1
  9
$DIMPOST
  1

  9
$DIMAPOST
  1
"
  9
$DIMALT
 70
     0
  9
$DIMALTD
 70
     2
  9
$DIMALTF
 40
0.0393701
  9
$DIMLFAC
 40
1.0
  9
$DIMTOFL
 70
     1
  9
$DIMTVP
 40
0.0
  9
$DIMTIX
 70
     0
  9
$DIMSOXD
 70
     0
  9
$DIMSAH
 70
     0
  9
$DIMBLK1
  1

  9
$DIMBLK2
  1

  9
$DIMSTYLE
  2
AM_JIS
  9
$DIMCLRD
 70
     3
  9
$DIMCLRE
 70
     3
  9
$DIMCLRT
 70
     2
  9
$DIMTFAC
 40
0.71
  9
$DIMGAP
 40
1.5
  9
$DIMJUST
 70
     0
  9
$DIMSD1
 70
     0
  9
$DIMSD2
 70
     0
  9
$DIMTOLJ
 70
     0
  9
$DIMTZIN
 70
     8
  9
$DIMALTZ
 70
     0
  9
$DIMALTTZ
 70
     0
  9
$DIMUPT
 70
     0
  9
$DIMDEC
 70
     2
  9
$DIMTDEC
 70
     2
  9
$DIMALTU
 70
     2
  9
$DIMALTTD
 70
     2
  9
$DIMTXSTY
  7
STANDARD
  9
$DIMAUNIT
 70
     1
  9
$DIMADEC
 70
     0
  9
$DIMALTRND
 40
0.0
  9
$DIMAZIN
 70
     2
  9
$DIMDSEP
 70
    46
  9
$DIMATFIT
 70
     3
  9
$DIMFRAC
 70
     0
  9
$DIMLDRBLK
  1
Open30
  9
$DIMLUNIT
 70
     2
  9
$DIMLWD
 70
    13
  9
$DIMLWE
 70
    13
  9
$DIMTMOVE
 70
     0
  9
$LUNITS
 70
     2
  9
$LUPREC
 70
     2
  9
$SKETCHINC
 40
1.0
  9
$FILLETRAD
 40
2.5
  9
$AUNITS
 70
     1
  9
$AUPREC
 70
     5
  9
$MENU
  1
.
  9
$ELEVATION
 40
0.0
  9
$PELEVATION
 40
0.0
  9
$THICKNESS
 40
0.0
  9
$LIMCHECK
 70
     0
  9
$CHAMFERA
 40
2.5
  9
$CHAMFERB
 40
2.5
  9
$CHAMFERC
 40
20.0
  9
$CHAMFERD
 40
0.0
  9
$SKPOLY
 70
     0
  9
$TDCREATE
 40
2451856.608395394
  9
$TDUCREATE
 40
2451856.233395394
  9
$TDUPDATE
 40
2455441.462253681
  9
$TDUUPDATE
 40
2455441.087253681
  9
$TDINDWG
 40
0.0054441667
  9
$TDUSRTIMER
 40
0.005439537
  9
$USRTIMER
 70
     1
  9
$ANGBASE
 50
0.0
  9
$ANGDIR
 70
     0
  9
$PDMODE
 70
     0
  9
$PDSIZE
 40
0.0
  9
$PLINEWID
 40
0.0
  9
$SPLFRAME
 70
     0
  9
$SPLINETYPE
 70
     6
  9
$SPLINESEGS
 70
     8
  9
$HANDSEED
  5
111D
  9
$SURFTAB1
 70
     6
  9
$SURFTAB2
 70
     6
  9
$SURFTYPE
 70
     6
  9
$SURFU
 70
     6
  9
$SURFV
 70
     6
  9
$UCSBASE
  2

  9
$UCSNAME
  2

  9
$UCSORG
 10
0.0
 20
0.0
 30
0.0
  9
$UCSXDIR
 10
1.0
 20
0.0
 30
0.0
  9
$UCSYDIR
 10
0.0
 20
1.0
 30
0.0
  9
$UCSORTHOREF
  2

  9
$UCSORTHOVIEW
 70
     0
  9
$UCSORGTOP
 10
0.0
 20
0.0
 30
0.0
  9
$UCSORGBOTTOM
 10
0.0
 20
0.0
 30
0.0
  9
$UCSORGLEFT
 10
0.0
 20
0.0
 30
0.0
  9
$UCSORGRIGHT
 10
0.0
 20
0.0
 30
0.0
  9
$UCSORGFRONT
 10
0.0
 20
0.0
 30
0.0
  9
$UCSORGBACK
 10
0.0
 20
0.0
 30
0.0
  9
$PUCSBASE
  2

  9
$PUCSNAME
  2

  9
$PUCSORG
 10
0.0
 20
0.0
 30
0.0
  9
$PUCSXDIR
 10
1.0
 20
0.0
 30
0.0
  9
$PUCSYDIR
 10
0.0
 20
1.0
 30
0.0
  9
$PUCSORTHOREF
  2

  9
$PUCSORTHOVIEW
 70
     0
  9
$PUCSORGTOP
 10
0.0
 20
0.0
 30
0.0
  9
$PUCSORGBOTTOM
 10
0.0
 20
0.0
 30
0.0
  9
$PUCSORGLEFT
 10
0.0
 20
0.0
 30
0.0
  9
$PUCSORGRIGHT
 10
0.0
 20
0.0
 30
0.0
  9
$PUCSORGFRONT
 10
0.0
 20
0.0
 30
0.0
  9
$PUCSORGBACK
 10
0.0
 20
0.0
 30
0.0
  9
$USERI1
 70
     0
  9
$USERI2
 70
     0
  9
$USERI3
 70
     0
  9
$USERI4
 70
     0
  9
$USERI5
 70
     0
  9
$USERR1
 40
0.0
  9
$USERR2
 40
0.0
  9
$USERR3
 40
0.0
  9
$USERR4
 40
0.0
  9
$USERR5
 40
0.0
  9
$WORLDVIEW
 70
     1
  9
$SHADEDGE
 70
     3
  9
$SHADEDIF
 70
    70
  9
$TILEMODE
 70
     1
  9
$MAXACTVP
 70
    64
  9
$PINSBASE
 10
0.0
 20
0.0
 30
0.0
  9
$PLIMCHECK
 70
     0
  9
$PEXTMIN
 10
1.000000000000000E+20
 20
1.000000000000000E+20
 30
1.000000000000000E+20
  9
$PEXTMAX
 10
-1.000000000000000E+20
 20
-1.000000000000000E+20
 30
-1.000000000000000E+20
  9
$PLIMMIN
 10
0.0
 20
0.0
  9
$PLIMMAX
 10
420.0
 20
297.0
  9
$UNITMODE
 70
     0
  9
$VISRETAIN
 70
     1
  9
$PLINEGEN
 70
     0
  9
$PSLTSCALE
 70
     1
  9
$TREEDEPTH
 70
  3020
  9
$CMLSTYLE
  2
Standard
  9
$CMLJUST
 70
     0
  9
$CMLSCALE
 40
20.0
  9
$PROXYGRAPHICS
 70
     1
  9
$MEASUREMENT
 70
     1
  9
$CELWEIGHT
370
    30
  9
$ENDCAPS
280
     0
  9
$JOINSTYLE
280
     0
  9
$LWDISPLAY
290
     0
  9
$INSUNITS
 70
     4
  9
$HYPERLINKBASE
  1

  9
$STYLESHEET
  1
sei_cad.ctb
  9
$XEDIT
290
     1
  9
$CEPSNTYPE
380
     0
  9
$PSTYLEMODE
290
     1
  9
$FINGERPRINTGUID
  2
{403304E0-8DA2-11D3-AB8C-000629E2A613}
  9
$VERSIONGUID
  2
{94952BAF-108E-453B-A337-BCCE32ED121F}
  9
$EXTNAMES
290
     1
  9
$PSVPSCALE
 40
0.0
  9
$OLESTARTUP
290
     0
  0
ENDSEC
  0
SECTION
  2
CLASSES
  0
CLASS
  1
ACDBDICTIONARYWDFLT
  2
AcDbDictionaryWithDefault
  3
ObjectDBX Classes
 90
        0
280
     0
281
     0
  0
CLASS
  1
ACDBPLACEHOLDER
  2
AcDbPlaceHolder
  3
ObjectDBX Classes
 90
        0
280
     0
281
     0
  0
CLASS
  1
LAYOUT
  2
AcDbLayout
  3
ObjectDBX Classes
 90
        0
280
     0
281
     0
  0
CLASS
  1
ACME_DOCUMENT
  2
AcMeDbDoc
  3
AcMeServices
 90
        0
280
     1
281
     0
  0
CLASS
  1
ACMESCOPE
  2
AcMeScope
  3
AcMeServices
 90
        0
280
     1
281
     0
  0
CLASS
  1
ACMECOMMANDHISTORY
  2
AcMeCommandHistory
  3
AcMeServices
 90
        0
280
     1
281
     0
  0
CLASS
  1
DICTIONARYVAR
  2
AcDbDictionaryVar
  3
ObjectDBX Classes
 90
        0
280
     0
281
     0
  0
CLASS
  1
ACIMSYSVARMAN
  2
AcImSysVarManager
  3
AcMeServices
 90
        0
280
     1
281
     0
  0
CLASS
  1
ACIMREALSYSVAR
  2
AcImRealSysVar
  3
AcMeServices
 90
        0
280
     1
281
     0
  0
CLASS
  1
ACIMINTSYSVAR
  2
AcImIntSysVar
  3
AcMeServices
 90
        0
280
     1
281
     0
  0
CLASS
  1
ACMEDRAWINGMAN
  2
AcMeDrawingMan
  3
AcMeServices
 90
        0
280
     1
281
     0
  0
CLASS
  1
ACMEVIEW
  2
AcMeView
  3
AcMeServices
 90
        0
280
     1
281
     0
  0
CLASS
  1
ACDBENTITYCACHE
  2
AcMeEntityCache
  3
AcMeServices
 90
        0
280
     1
281
     0
  0
CLASS
  1
GSMANAGER
  2
AcMeGSManager
  3
AcMeServices
 90
        0
280
     1
281
     0
  0
CLASS
  1
AMDTINTERNALREACTOR
  2
AmdtInternalReactor
  3
AcMeServices
 90
        0
280
     1
281
     0
  0
CLASS
  1
ACMESTATEMGR
  2
AcMeStateMgr
  3
AcMeServices
 90
        0
280
     1
281
     0
  0
CLASS
  1
ACME_DATABASE
  2
AcMeDbDatabase
  3
AcMeServices
 90
        0
280
     1
281
     0
  0
CLASS
  1
ACRFINSADJUSTERMGR
  2
AcRfInsAdjusterMgr
  3
AcMeServices
 90
        0
280
     1
281
     0
  0
CLASS
  1
AMGSETTINGSOBJ
  2
AmgSettingsObj
  3
"AcadM|Product Description: AutoCAD Mechanical 2000|Company: Autodesk"
 90
        0
280
     1
281
     0
  0
CLASS
  1
ACMDATADICTIONARY
  2
AcmDataDictionary
  3
"AcmSymBB|Product Description: AutoCAD Mechanical 2004 DX|Company: Autodesk"
 90
        0
280
     1
281
     0
  0
CLASS
  1
ACMDATAENTRYBLOCK
  2
AcmDataEntryBlock
  3
"AcmSymBB|Product Description: AutoCAD Mechanical 2004 DX|Company: Autodesk"
 90
        0
280
     1
281
     0
  0
CLASS
  1
AMGOBJPROPCFG
  2
AmgObjPropCfg
  3
"AmgLay|Product Description: AutoCAD Mechanical 2000|Company: Autodesk"
 90
        1
280
     1
281
     0
  0
CLASS
  1
ACAMGFILTERDAT
  2
AcAmgFilterDat
  3
"AcadM|Product Description: AutoCAD Mechanical 2000|Company: Autodesk"
 90
        0
280
     1
281
     0
  0
CLASS
  1
LAYER_INDEX
  2
AcDbLayerIndex
  3
ObjectDBX Classes
 90
        0
280
     0
281
     0
  0
CLASS
  1
IDBUFFER
  2
AcDbIdBuffer
  3
ObjectDBX Classes
 90
        0
280
     0
281
     0
  0
CLASS
  1
ACIMSTRSYSVAR
  2
AcImStrSysVar
  3
AcMeServices
 90
        0
280
     1
281
     0
  0
CLASS
  1
ACMSTANDARDJIS
  2
AcmStandardJIS
  3
"Amdt_StdImp|Product Description: AutoCAD Mechanical 2004 DX|Company: Autodesk"
 90
        0
280
     1
281
     0
  0
CLASS
  1
ACMSURFSTANDARDJIS
  2
AcmSurfTextStdJIS
  3
"Amdt_StdImp|Product Description: AutoCAD Mechanical 2004 DX|Company: Autodesk"
 90
        0
280
     1
281
     0
  0
CLASS
  1
ACMFCFSTANDARDJIS
  2
AcmFCFStdJIS
  3
"Amdt_StdImp|Product Description: AutoCAD Mechanical 2004 DX|Company: Autodesk"
 90
        0
280
     1
281
     0
  0
CLASS
  1
ACMWELDSTANDARDJIS
  2
AcmWeldingStdJIS
  3
"Amdt_StdImp|Product Description: AutoCAD Mechanical 2004 DX|Company: Autodesk"
 90
        0
280
     1
281
     0
  0
CLASS
  1
ACMIDSTANDARDJIS
  2
AcmIdStdJIS
  3
"Amdt_StdImp|Product Description: AutoCAD Mechanical 2004 DX|Company: Autodesk"
 90
        0
280
     1
281
     0
  0
CLASS
  1
ACMDATUMSTANDARDJIS
  2
AcmDatumStdJIS
  3
"Amdt_StdImp|Product Description: AutoCAD Mechanical 2004 DX|Company: Autodesk"
 90
        0
280
     1
281
     0
  0
CLASS
  1
ACMBOMSTANDARDJIS
  2
AcmBOMStdJIS
  3
"Amdt_StdImp|Product Description: AutoCAD Mechanical 2004 DX|Company: Autodesk"
 90
        0
280
     1
281
     0
  0
CLASS
  1
TABLESTYLE
  2
AcDbTableStyle
  3
ObjectDBX Classes
 90
     2047
280
     0
281
     0
  0
CLASS
  1
ACGREFMASTER
  2
AcGrefMaster
  3
AcAttribServices
 90
        0
280
     1
281
     0
  0
CLASS
  1
AM_DRAWING_MGR
  2
AcDmDwgMgr
  3
AcMechDwgViewMgmt
 90
        0
280
     1
281
     0
  0
CLASS
  1
AM_DWG_DOCUMENT
  2
AcDmDwgDocument
  3
AcMechDwgViewMgmt
 90
        0
280
     1
281
     0
  0
CLASS
  1
AM_DWG_SHEET
  2
AcDmSheet
  3
AcMechDwgViewMgmt
 90
        0
280
     1
281
     0
  0
CLASS
  1
AM_VIEWDIMPARMAP
  2
AcDmViewDimParMap
  3
AcMechDwgViewMgmt
 90
        0
280
     1
281
     0
  0
CLASS
  1
AM_DWGMGR_NAME
  2
AcDmDwgMgrName
  3
AcMechDwgViewMgmt
 90
        0
280
     1
281
     0
  0
CLASS
  1
ACGREFACADMASTER
  2
AcGrefacadMaster
  3
AcGrefServices
 90
        0
280
     1
281
     0
  0
CLASS
  1
AMDTMENUSTATEMGR
  2
AmdtMenuStateMgr
  3
McadcomServices
 90
        0
280
     1
281
     0
  0
CLASS
  1
AMDTMCOMMENUSTATE
  2
AmdtMcomMenuState
  3
McadcomServices
 90
        0
280
     1
281
     0
  0
CLASS
  1
AMIMASTER
  2
AmiMaster
  3
AmiServices
 90
        0
280
     1
281
     0
  0
CLASS
  1
MAPIAMMOUDLE
  2
MApiAmModule
  3
MApiAmServices
 90
        0
280
     1
281
     0
  0
CLASS
  1
AMDTADMENUSTATE
  2
AmdtAdMenuState
  3
DesignerServices
 90
        0
280
     1
281
     0
  0
CLASS
  1
ADAPPL
  2
AcAdAppl
  3
DesignerServices
 90
        0
280
     1
281
     0
  0
CLASS
  1
DEPMGR
  2
AcAdDepMgr
  3
DesignerServices
 90
        0
280
     1
281
     0
  0
CLASS
  1
PARAMMGR
  2
AcAdParamMgr
  3
DesignerServices
 90
        0
280
     1
281
     0
  0
CLASS
  1
PARAMSCOPE
  2
AcAdParamScope
  3
DesignerServices
 90
        0
280
     1
281
     0
  0
CLASS
  1
NAMEDAPPL
  2
AcAdNamedAppl
  3
DesignerServices
 90
        0
280
     1
281
     0
  0
CLASS
  1
AMDTDMMENUSTATE
  2
AmdtDmMenuState
  3
AcMechDwgViewMgmt
 90
        0
280
     1
281
     0
  0
CLASS
  1
AMDTAMMENUSTATE
  2
AmdtAmMenuState
  3
DesignerAssemblies
 90
        0
280
     1
281
     0
  0
CLASS
  1
ACAMPROJECT
  2
AcAmProject
  3
DesignerAssemblies
 90
        0
280
     1
281
     0
  0
CLASS
  1
ACAMGRCOMPDEF
  2
AcAmGrCompDef
  3
DesignerAssemblies
 90
        0
280
     1
281
     0
  0
CLASS
  1
ACCMCONTEXT
  2
AcCmContext
  3
DesignerAssemblies
 90
        0
280
     1
281
     0
  0
CLASS
  1
ACAMCOMPDEF
  2
AcAmCompDef
  3
DesignerAssemblies
 90
        0
280
     1
281
     0
  0
CLASS
  1
ACAMCOMPDEFMGR
  2
AcAmCompDefMgr
  3
DesignerAssemblies
 90
        0
280
     1
281
     0
  0
CLASS
  1
AMCONTEXTMGR
  2
AcAmContextMgr
  3
DesignerAssemblies
 90
        0
280
     1
281
     0
  0
CLASS
  1
ACAMCONTEXTMODELER
  2
AcAmContextModeler
  3
DesignerAssemblies
 90
        0
280
     1
281
     0
  0
CLASS
  1
ACAMGTITLESTD
  2
AcAmgTitleStd
  3
"TITLEAPP"
 90
        0
280
     1
281
     0
  0
CLASS
  1
ACMDETAILSTANDARDJIS
  2
AmdtDetailSymStdJIS
  3
"Amdt_StdImp|Product Description: AutoCAD Mechanical 2004 DX|Company: Autodesk"
 90
        0
280
     1
281
     0
  0
CLASS
  1
ACMSECTIONSTANDARDJIS
  2
AmdtSectionSymStdJIS
  3
"Amdt_StdImp|Product Description: AutoCAD Mechanical 2004 DX|Company: Autodesk"
 90
        0
280
     1
281
     0
  0
CLASS
  1
ACMCENTERLINESTANDARDJIS
  2
AmdtCenterLineStdJIS
  3
"Amdt_StdImp|Product Description: AutoCAD Mechanical 2004 DX|Company: Autodesk"
 90
        0
280
     1
281
     0
  0
CLASS
  1
ACMTHREADLINESTANDARDJIS
  2
AmdtThreadLineStdJIS
  3
"Amdt_StdImp|Product Description: AutoCAD Mechanical 2004 DX|Company: Autodesk"
 90
        0
280
     1
281
     0
  0
CLASS
  1
ACMNOTESTANDARDJIS
  2
AmdtNoteStdJIS
  3
"Amdt_StdImp|Product Description: AutoCAD Mechanical 2004 DX|Company: Autodesk"
 90
        0
280
     1
281
     0
  0
CLASS
  1
AMDTNOTETEMPLATEDB
  2
AmdtNoteTemplateDB
  3
AMDT_STDIMP_MODULE_NAME
 90
        0
280
     1
281
     0
  0
CLASS
  1
ACAMGLAYSTD
  2
AcAmgLayStd
  3
"AcAmgLayStd|Product Description: AutoCAD Mechanical 2000|Company: Autodesk"
 90
        0
280
     1
281
     0
  0
CLASS
  1
ACAMGDIMSTD
  2
AcAmgDimStd
  3
"AcAmgDimStd|Product Description: AutoCAD Mechanical 2000|Company: Autodesk"
 90
        0
280
     1
281
     0
  0
CLASS
  1
ACAMGHOLECHARTSTDJIS
  2
AcAmgHoleChartStdJIS
  3
ACMSYMBB_MODULE_NAME
 90
        0
280
     1
281
     0
  0
CLASS
  1
CATALOGSTATE
  2
AcAmCatalogState
  3
DesignerAssemblies
 90
        0
280
     1
281
     0
  0
CLASS
  1
ACAMGRCOMPDEFSET
  2
AcAmGrCompDefSet
  3
DesignerAssemblies
 90
        0
280
     1
281
     0
  0
CLASS
  1
AMDTBROWSERDBTAB
  2
AmdtBrowserDbTab
  3
McadcomServices
 90
        0
280
     1
281
     0
  0
CLASS
  1
CBROWSERAPPOBJECT
  2
CBrowserAppObject
  3
McadcomServices
 90
        0
280
     1
281
     0
  0
CLASS
  1
DM_PLACEHOLDER
  2
AcDmSelsetPlaceholder
  3
AcMechDwgViewMgmt
 90
        0
280
     1
281
     0
  0
ENDSEC
  0
SECTION
  2
TABLES
  0
TABLE
  2
VPORT
  5
8
330
0
100
AcDbSymbolTable
 70
    13
  0
VPORT
  5
1116
330
8
100
AcDbSymbolTableRecord
100
AcDbViewportTableRecord
  2
*Active
 70
     0
 10
0.0
 20
0.0
 11
1.0
 21
1.0
 12
54.59537947550663
 22
-38.92188030363136
 13
0.0
 23
0.0
 14
2.5
 24
2.5
 15
10.0
 25
10.0
 16
0.0
 26
0.0
 36
1.0
 17
0.0
 27
0.0
 37
0.0
 40
181.3012527089715
 41
1.697058823529412
 42
50.0
 43
0.0
 44
0.0
 50
0.0
 51
0.0
 71
     0
 72
  2000
 73
     1
 74
     3
 75
     0
 76
     0
 77
     0
 78
     0
281
     0
 65
     1
110
0.0
120
0.0
130
0.0
111
1.0
121
0.0
131
0.0
112
0.0
122
1.0
132
0.0
 79
     0
146
0.0
  0
ENDTAB
  0
TABLE
  2
LTYPE
  5
5
330
0
100
AcDbSymbolTable
 70
    13
  0
LTYPE
  5
14
330
5
100
AcDbSymbolTableRecord
100
AcDbLinetypeTableRecord
  2
ByBlock
 70
     0
  3

 72
    65
 73
     0
 40
0.0
  0
LTYPE
  5
15
330
5
100
AcDbSymbolTableRecord
100
AcDbLinetypeTableRecord
  2
ByLayer
 70
     0
  3

 72
    65
 73
     0
 40
0.0
  0
LTYPE
  5
16
330
5
100
AcDbSymbolTableRecord
100
AcDbLinetypeTableRecord
  2
Continuous
 70
     0
  3
Solid line
 72
    65
 73
     0
 40
0.0
  0
LTYPE
  5
48
330
5
100
AcDbSymbolTableRecord
100
AcDbLinetypeTableRecord
  2
AM_ISO02W050
 70
     0
  3
__ __ __ __ __ __ __ __ __ __ __ __ __ __ __
 72
    65
 73
     2
 40
7.5
 49
6.0
 74
     0
 49
-1.5
 74
     0
  0
LTYPE
  5
49
330
5
100
AcDbSymbolTableRecord
100
AcDbLinetypeTableRecord
  2
AM_ISO08W050
 70
     0
  3
____ . ____ . ____ . ____ . ____ . ____ . ____
 72
    65
 73
     4
 40
18.0
 49
12.0
 74
     0
 49
-1.5
 74
     0
 49
3.0
 74
     0
 49
-1.5
 74
     0
  0
LTYPE
  5
4A
330
5
100
AcDbSymbolTableRecord
100
AcDbLinetypeTableRecord
  2
AM_ISO09W050
 70
     0
  3
_____ . . _____ . . _____ . . ____ .. ____
 72
    65
 73
     6
 40
22.5
 49
12.0
 74
     0
 49
-1.5
 74
     0
 49
3.0
 74
     0
 49
-1.5
 74
     0
 49
3.0
 74
     0
 49
-1.5
 74
     0
  0
LTYPE
  5
4B
330
5
100
AcDbSymbolTableRecord
100
AcDbLinetypeTableRecord
  2
Amconstr
 70
     0
  3
_______________________
 72
    65
 73
     2
 40
9999.0
 49
9999.0
 74
     0
 49
0.0
 74
     0
  0
LTYPE
  5
4C
330
5
100
AcDbSymbolTableRecord
100
AcDbLinetypeTableRecord
  2
AM_ISO02W050x2
 70
     0
  3
 _ _ _ _ _ _ _ _ _ _ _ _
 72
    65
 73
     2
 40
3.75
 49
3.0
 74
     0
 49
-0.75
 74
     0
  0
LTYPE
  5
4D
330
5
100
AcDbSymbolTableRecord
100
AcDbLinetypeTableRecord
  2
AM_ISO08W050x2
 70
     0
  3
__ . __ . __ . __ . __ . __
 72
    65
 73
     4
 40
9.0
 49
6.0
 74
     0
 49
-0.75
 74
     0
 49
1.5
 74
     0
 49
-0.75
 74
     0
  0
LTYPE
  5
50
330
5
100
AcDbSymbolTableRecord
100
AcDbLinetypeTableRecord
  2
Amzigzag
 70
     0
  3
/\/-/\/-/\/-/\/-/\/-/\/
 72
    65
 73
     2
 40
11.0001
 49
0.0001
 74
     4
 75
   135
340
4F
 46
0.04
 50
0.0
 44
0.0
 45
0.0
 49
-11.0
 74
     0
  0
LTYPE
  5
118
330
5
100
AcDbSymbolTableRecord
100
AcDbLinetypeTableRecord
  2
CENTER
 70
     0
  3
____ _ ____ _ ____ _ ____ _ ____ _ ____ _ ____
 72
    65
 73
     4
 40
17.5
 49
13.0
 74
     0
 49
-1.5
 74
     0
 49
1.5
 74
     0
 49
-1.5
 74
     0
  0
LTYPE
  5
7AA
330
5
100
AcDbSymbolTableRecord
100
AcDbLinetypeTableRecord
  2
ACJISTGB
 70
     0
  3
__ . . __ . .
 72
    65
 73
     6
 40
9.0
 49
4.0
 74
     0
 49
-1.0
 74
     0
 49
1.0
 74
     0
 49
-1.0
 74
     0
 49
1.0
 74
     0
 49
-1.0
 74
     0
  0
LTYPE
  5
7AB
330
5
100
AcDbSymbolTableRecord
100
AcDbLinetypeTableRecord
  2
ACJISTGL
 70
     0
  3
_ _ _ _ _
 72
    65
 73
     2
 40
3.0
 49
2.0
 74
     0
 49
-1.0
 74
     0
  0
LTYPE
  5
108A
330
5
100
AcDbSymbolTableRecord
100
AcDbLinetypeTableRecord
  2
HIDDEN
 70
     0
  3
Hidden __ __ __ __ __ __ __ __ __ __ __ __ __ _
 72
    65
 73
     2
 40
9.524999999999999
 49
6.35
 74
     0
 49
-3.175
 74
     0
  0
LTYPE
  5
108B
330
5
100
AcDbSymbolTableRecord
100
AcDbLinetypeTableRecord
  2
PHANTOM2
 70
     0
  3
Phantom (.5x) ___ _ _ ___ _ _ ___ _ _ ___ _ _
 72
    65
 73
     6
 40
31.75
 49
15.875
 74
     0
 49
-3.175
 74
     0
 49
3.175
 74
     0
 49
-3.175
 74
     0
 49
3.175
 74
     0
 49
-3.175
 74
     0
  0
ENDTAB
  0
TABLE
  2
LAYER
  5
2
102
{ACAD_XDICTIONARY
360
10CB
102
}
330
0
100
AcDbSymbolTable
 70
     6
  0
LAYER
  5
10
330
2
100
AcDbSymbolTableRecord
100
AcDbLayerTableRecord
  2
0
 70
     0
 62
     7
  6
Continuous
370
    -3
390
F
  0
LAYER
  5
7B
330
2
100
AcDbSymbolTableRecord
100
AcDbLayerTableRecord
  2
Defpoints
 70
     0
 62
     7
  6
Continuous
290
     0
370
    -3
390
F
  0
LAYER
  5
5F1
330
2
100
AcDbSymbolTableRecord
100
AcDbLayerTableRecord
  2
AM_0
 70
     0
 62
     7
  6
Continuous
370
    30
390
F
  0
LAYER
  5
C1C
330
2
100
AcDbSymbolTableRecord
100
AcDbLayerTableRecord
  2
PV0001_1
 70
     0
 62
     7
  6
Continuous
370
    -3
390
F
  0
LAYER
  5
10CD
330
2
100
AcDbSymbolTableRecord
100
AcDbLayerTableRecord
  2
AM_6
 70
     0
 62
     2
  6
Continuous
370
    30
390
F
  0
LAYER
  5
10D2
330
2
100
AcDbSymbolTableRecord
100
AcDbLayerTableRecord
  2
AM_5
 70
     0
 62
     3
  6
Continuous
370
    13
390
F
  0
ENDTAB
  0
TABLE
  2
STYLE
  5
3
330
0
100
AcDbSymbolTable
 70
     5
  0
STYLE
  5
11
330
3
100
AcDbSymbolTableRecord
100
AcDbTextStyleTableRecord
  2
STANDARD
 70
     0
 40
3.8
 41
1.0
 50
0.0
 71
     0
 42
2.5
  3
ISOCP.SHX
  4
EXTFONT.SHX
  0
STYLE
  5
4F
330
3
100
AcDbSymbolTableRecord
100
AcDbTextStyleTableRecord
  2

 70
     1
 40
0.0
 41
1.0
 50
0.0
 71
     0
 42
2.5
  3
ltypeshp.shx
  4

  0
STYLE
  5
7A2
330
3
100
AcDbSymbolTableRecord
100
AcDbTextStyleTableRecord
  2
ACJISTS
 70
     0
 40
1.0
 41
1.0
 50
0.0
 71
     0
 42
2.5
  3
isocp.shx
  4
bigfont.shx
  0
STYLE
  5
7A9
330
3
100
AcDbSymbolTableRecord
100
AcDbTextStyleTableRecord
  2
ACJISGDT
 70
     0
 40
0.0
 41
1.0
 50
0.0
 71
     0
 42
2.5
  3
amgdt.shx
  4

  0
STYLE
  5
1102
330
3
100
AcDbSymbolTableRecord
100
AcDbTextStyleTableRecord
  2
ACISOTS
 70
     0
 40
3.8
 41
1.0
 50
0.0
 71
     0
 42
3.8
  3
isocp.shx
  4
extfont.shx
  0
ENDTAB
  0
TABLE
  2
VIEW
  5
6
330
0
100
AcDbSymbolTable
 70
     6
  0
VIEW
  5
4F5
330
6
100
AcDbSymbolTableRecord
100
AcDbViewTableRecord
  2
AM_VIEW1
 70
     0
 40
150.0
 10
113.2040050062578
 20
225.0
 41
226.4080100125157
 11
0.0
 21
0.0
 31
1.0
 12
0.0
 22
0.0
 32
0.0
 42
50.0
 43
0.0
 44
0.0
 50
0.0
 71
     0
281
     0
 72
     0
  0
VIEW
  5
4F6
330
6
100
AcDbSymbolTableRecord
100
AcDbViewTableRecord
  2
AM_VIEW2
 70
     0
 40
150.0
 10
309.7959949937422
 20
225.0
 41
226.4080100125157
 11
0.0
 21
0.0
 31
1.0
 12
0.0
 22
0.0
 32
0.0
 42
50.0
 43
0.0
 44
0.0
 50
0.0
 71
     0
281
     0
 72
     0
  0
VIEW
  5
4F7
330
6
100
AcDbSymbolTableRecord
100
AcDbViewTableRecord
  2
AM_VIEW3
 70
     0
 40
150.0
 10
113.2040050062578
 20
75.0
 41
226.4080100125157
 11
0.0
 21
0.0
 31
1.0
 12
0.0
 22
0.0
 32
0.0
 42
50.0
 43
0.0
 44
0.0
 50
0.0
 71
     0
281
     0
 72
     0
  0
VIEW
  5
4F8
330
6
100
AcDbSymbolTableRecord
100
AcDbViewTableRecord
  2
AM_VIEW4
 70
     0
 40
150.0
 10
309.7959949937422
 20
75.0
 41
226.4080100125157
 11
0.0
 21
0.0
 31
1.0
 12
0.0
 22
0.0
 32
0.0
 42
50.0
 43
0.0
 44
0.0
 50
0.0
 71
     0
281
     0
 72
     0
  0
VIEW
  5
4F9
330
6
100
AcDbSymbolTableRecord
100
AcDbViewTableRecord
  2
AM_VIEW5
 70
     0
 40
150.0
 10
211.5
 20
150.0
 41
226.4080100125157
 11
0.0
 21
0.0
 31
1.0
 12
0.0
 22
0.0
 32
0.0
 42
50.0
 43
0.0
 44
0.0
 50
0.0
 71
     0
281
     0
 72
     0
  0
VIEW
  5
4FA
330
6
100
AcDbSymbolTableRecord
100
AcDbViewTableRecord
  2
AM_VIEW6
 70
     0
 40
299.9970000000001
 10
211.5
 20
150.0
 41
452.8114918648312
 11
0.0
 21
0.0
 31
1.0
 12
0.0
 22
0.0
 32
0.0
 42
50.0
 43
0.0
 44
0.0
 50
0.0
 71
     0
281
     0
 72
     0
  0
ENDTAB
  0
TABLE
  2
UCS
  5
7
330
0
100
AcDbSymbolTable
 70
     0
  0
ENDTAB
  0
TABLE
  2
APPID
  5
9
330
0
100
AcDbSymbolTable
 70
    31
  0
APPID
  5
12
330
9
100
AcDbSymbolTableRecord
100
AcDbRegAppTableRecord
  2
ACAD
 70
     0
  0
APPID
  5
2C
330
9
100
AcDbSymbolTableRecord
100
AcDbRegAppTableRecord
  2
MCAD_NO_VIS
 70
     0
  0
APPID
  5
2D
330
9
100
AcDbSymbolTableRecord
100
AcDbRegAppTableRecord
  2
ACAD_TEMP_GRAPHIC
 70
     0
  0
APPID
  5
B5
330
9
100
AcDbSymbolTableRecord
100
AcDbRegAppTableRecord
  2
GENIUS_GENDTOL_13
 70
     0
  0
APPID
  5
12C
330
9
100
AcDbSymbolTableRecord
100
AcDbRegAppTableRecord
  2
GENIUS_GENCFG_13
 70
     0
  0
APPID
  5
12D
330
9
100
AcDbSymbolTableRecord
100
AcDbRegAppTableRecord
  2
GENIUS_GENCFG0_13
 70
     0
  0
APPID
  5
12E
330
9
100
AcDbSymbolTableRecord
100
AcDbRegAppTableRecord
  2
GENIUS_GENCFG1_13
 70
     0
  0
APPID
  5
12F
330
9
100
AcDbSymbolTableRecord
100
AcDbRegAppTableRecord
  2
GENIUS_GENCFG2_13
 70
     0
  0
APPID
  5
130
330
9
100
AcDbSymbolTableRecord
100
AcDbRegAppTableRecord
  2
GENIUS_GENCFG3_13
 70
     0
  0
APPID
  5
131
330
9
100
AcDbSymbolTableRecord
100
AcDbRegAppTableRecord
  2
GENIUS_GENCFG4_13
 70
     0
  0
APPID
  5
53B
330
9
100
AcDbSymbolTableRecord
100
AcDbRegAppTableRecord
  2
GENIUS_GENBLLY_14
 70
     0
  0
APPID
  5
53C
330
9
100
AcDbSymbolTableRecord
100
AcDbRegAppTableRecord
  2
GENIUS_GENODEF_13
 70
     0
  0
APPID
  5
53D
330
9
100
AcDbSymbolTableRecord
100
AcDbRegAppTableRecord
  2
GENIUS_GENOBJ-N-CEN_13
 70
     0
  0
APPID
  5
549
330
9
100
AcDbSymbolTableRecord
100
AcDbRegAppTableRecord
  2
GENIUS_GENTRA_14
 70
     0
  0
APPID
  5
553
330
9
100
AcDbSymbolTableRecord
100
AcDbRegAppTableRecord
  2
GENIUS_GENOBJ-N-TIT_13
 70
     0
  0
APPID
  5
554
330
9
100
AcDbSymbolTableRecord
100
AcDbRegAppTableRecord
  2
GENIUS_GENTITLE_13
 70
     0
  0
APPID
  5
555
330
9
100
AcDbSymbolTableRecord
100
AcDbRegAppTableRecord
  2
GENIUS_GENOENT_13
 70
     0
  0
APPID
  5
556
330
9
100
AcDbSymbolTableRecord
100
AcDbRegAppTableRecord
  2
GENIUS_GENOREF_13
 70
     0
  0
APPID
  5
557
330
9
100
AcDbSymbolTableRecord
100
AcDbRegAppTableRecord
  2
GENIUS_GENOLIS_13
 70
     0
  0
APPID
  5
558
330
9
100
AcDbSymbolTableRecord
100
AcDbRegAppTableRecord
  2
GENIUS_GENZVEED_13
 70
     0
  0
APPID
  5
559
330
9
100
AcDbSymbolTableRecord
100
AcDbRegAppTableRecord
  2
GENIUS_GENSCREG_15
 70
     0
  0
APPID
  5
55A
330
9
100
AcDbSymbolTableRecord
100
AcDbRegAppTableRecord
  2
GENIUS_GENOBJ-N-SDF_13
 70
     0
  0
APPID
  5
567
330
9
100
AcDbSymbolTableRecord
100
AcDbRegAppTableRecord
  2
GENIUS_GENREC_14
 70
     0
  0
APPID
  5
568
330
9
100
AcDbSymbolTableRecord
100
AcDbRegAppTableRecord
  2
GENIUS_GENOBJ-N-REC_13
 70
     0
  0
APPID
  5
609
330
9
100
AcDbSymbolTableRecord
100
AcDbRegAppTableRecord
  2
GENIUS_GENOBJ-N-HTC_13
 70
     0
  0
APPID
  5
60A
330
9
100
AcDbSymbolTableRecord
100
AcDbRegAppTableRecord
  2
GENIUS_GENHATCH_13
 70
     0
  0
APPID
  5
108D
330
9
100
AcDbSymbolTableRecord
100
AcDbRegAppTableRecord
  2
AD_DRAW
 70
     0
  0
APPID
  5
1090
330
9
100
AcDbSymbolTableRecord
100
AcDbRegAppTableRecord
  2
ACATTRIBSERVICES
 70
     0
  0
APPID
  5
10AE
330
9
100
AcDbSymbolTableRecord
100
AcDbRegAppTableRecord
  2
DESIGNERASSEMBLIES
 70
     0
  0
APPID
  5
10C1
330
9
100
AcDbSymbolTableRecord
100
AcDbRegAppTableRecord
  2
ACADM_DIM_EDIT
 70
     0
  0
APPID
  5
10C2
330
9
100
AcDbSymbolTableRecord
100
AcDbRegAppTableRecord
  2
AMDT_DM_ADJ
 70
     0
  0
ENDTAB
  0
TABLE
  2
DIMSTYLE
  5
A
330
0
100
AcDbSymbolTable
 70
    10
100
AcDbDimStyleTable
  0
DIMSTYLE
105
69
330
A
100
AcDbSymbolTableRecord
100
AcDbDimStyleTableRecord
  2
AM_JIS
 70
     0
  4
"
 41
2.5
 42
0.0
 43
10.0
 44
1.0
 47
0.1
 48
0.1000000001
 73
     0
 74
     0
 77
     3
 78
     1
 79
     2
140
3.8
141
0.0
143
0.0393701
146
0.71
147
1.5
172
     1
176
     3
177
     3
178
     2
271
     2
272
     2
275
     1
283
     0
284
     8
340
11
341
6A
342
6A
371
    13
372
    13
  0
DIMSTYLE
105
70
330
A
100
AcDbSymbolTableRecord
100
AcDbDimStyleTableRecord
  2
AM_JIS$3
 70
     0
  4
"
 41
2.5
 42
0.0
 43
10.0
 44
1.0
 47
0.1
 48
0.1000000001
 73
     0
 74
     0
 77
     3
 78
     1
 79
     2
140
3.8
141
0.0
143
0.0393701
146
0.71
147
1.5
172
     1
176
     3
177
     3
178
     2
271
     2
272
     2
275
     1
283
     0
284
     8
288
     1
289
     0
340
11
341
6A
342
6A
371
    13
372
    13
  0
DIMSTYLE
105
71
330
A
100
AcDbSymbolTableRecord
100
AcDbDimStyleTableRecord
  2
AM_JIS$4
 70
     0
  4
"
 41
2.5
 42
0.0
 43
10.0
 44
1.0
 47
0.1
 48
0.1000000001
 73
     0
 74
     0
 77
     3
 78
     1
 79
     2
140
3.8
141
0.0
143
0.0393701
146
0.71
147
1.5
172
     1
176
     3
177
     3
178
     2
271
     2
272
     2
275
     1
283
     0
284
     8
288
     1
289
     0
340
11
341
6A
342
6A
371
    13
372
    13
  0
DIMSTYLE
105
72
330
A
100
AcDbSymbolTableRecord
100
AcDbDimStyleTableRecord
  2
AM_JIS$6
 70
     0
  4
"
 41
2.5
 42
0.0
 43
10.0
 44
1.0
 47
0.1
 48
0.1000000001
 73
     0
 74
     0
 78
     1
 79
     2
140
3.8
141
0.0
143
0.0393701
146
0.71
147
1.5
172
     1
176
     3
177
     3
178
     2
271
     2
272
     2
275
     1
283
     0
284
     8
340
11
341
6A
342
6A
371
    13
372
    13
  0
DIMSTYLE
105
73
330
A
100
AcDbSymbolTableRecord
100
AcDbDimStyleTableRecord
  2
AM_JIS$7
 70
     0
  4
"
 41
2.5
 42
0.0
 43
10.0
 44
1.0
 47
0.1
 48
0.1000000001
 73
     0
 74
     0
 77
     3
 78
     1
 79
     2
140
5.0
141
0.0
143
0.0393701
146
0.71
147
1.5
172
     1
176
     3
177
     3
178
     2
271
     2
272
     2
275
     1
283
     0
284
     8
340
11
341
6A
342
6A
371
    13
372
    13
  0
DIMSTYLE
105
74
330
A
100
AcDbSymbolTableRecord
100
AcDbDimStyleTableRecord
  2
AM_JIS$SF
 70
     0
  4
"
 41
2.5
 42
1.0
 43
10.0
 44
1.0
 47
0.1
 48
0.1
 73
     0
 74
     0
 75
     1
 76
     1
 77
     3
 78
     8
 79
     2
140
3.5
141
0.0
143
0.0393701
146
0.71
147
1.5
176
   256
177
   256
178
     2
271
     2
272
     3
274
     4
340
11
341
6A
342
6A
343
6A
344
6A
371
    -1
372
    -1
  0
DIMSTYLE
105
79
330
A
100
AcDbSymbolTableRecord
100
AcDbDimStyleTableRecord
  2
AM_JIS$SH
 70
     0
  4
"
 41
2.5
 42
1.0
 43
10.0
 44
1.0
 47
0.1
 48
0.1
 73
     0
 74
     0
 75
     1
 76
     1
 77
     3
 78
     8
 79
     2
140
3.5
141
0.0
143
0.0393701
144
2.0
146
0.71
147
1.5
173
     1
176
   256
177
   256
178
     2
271
     2
272
     3
274
     4
340
11
341
6A
342
6A
343
75
344
6A
371
    -1
372
    -1
  0
DIMSTYLE
105
124
330
A
100
AcDbSymbolTableRecord
100
AcDbDimStyleTableRecord
  2
STANDARD
 70
     0
340
11
  0
DIMSTYLE
105
927
102
{ACAD_REACTORS
330
C1D
330
C60
330
CA3
330
CE6
330
D29
330
D6C
102
}
330
A
100
AcDbSymbolTableRecord
100
AcDbDimStyleTableRecord
  2
AM_JIS$0
 70
     0
  4
"
 41
2.5
 42
0.0
 43
10.0
 44
1.0
 47
0.1
 48
0.1000000001
 73
     0
 74
     0
 77
     3
 78
     1
 79
     2
140
3.8
141
0.0
143
0.0393701
146
0.71
147
1.5
172
     1
176
     3
177
     3
178
     2
271
     2
272
     2
275
     1
283
     0
284
     8
289
     0
340
11
341
6A
342
6A
371
    13
372
    13
  0
DIMSTYLE
105
9A0
102
{ACAD_REACTORS
330
DAF
330
DFF
330
E51
102
}
330
A
100
AcDbSymbolTableRecord
100
AcDbDimStyleTableRecord
  2
AM_JIS$2
 70
     0
  4
"
 41
2.5
 42
0.0
 43
10.0
 44
1.0
 47
0.1
 48
0.1000000001
 73
     0
 74
     0
 77
     3
 78
     1
 79
     2
140
3.8
141
0.0
143
0.0393701
146
0.71
147
1.5
172
     1
176
     3
177
     3
178
     2
271
     2
272
     2
275
     1
283
     0
284
     8
289
     0
340
11
341
6A
342
6A
371
    13
372
    13
  0
ENDTAB
  0
TABLE
  2
BLOCK_RECORD
  5
1
330
0
100
AcDbSymbolTable
 70
    13
  0
BLOCK_RECORD
  5
1F
102
{ACAD_XDICTIONARY
360
10B
102
}
330
1
100
AcDbSymbolTableRecord
100
AcDbBlockTableRecord
  2
*Model_Space
340
22
  0
BLOCK_RECORD
  5
1B
330
1
100
AcDbSymbolTableRecord
100
AcDbBlockTableRecord
  2
*Paper_Space
340
1E
  0
BLOCK_RECORD
  5
23
330
1
100
AcDbSymbolTableRecord
100
AcDbBlockTableRecord
  2
*Paper_Space0
340
26
  0
BLOCK_RECORD
  5
6A
330
1
100
AcDbSymbolTableRecord
100
AcDbBlockTableRecord
  2
_Open30
340
0
102
{BLKREFS
331
FA8
331
FA9
331
FBA
331
FBB
331
FCC
331
FCD
331
FDE
331
FDF
331
FF0
331
FF1
331
1002
331
1003
331
1014
331
1015
331
102E
331
102F
331
1048
331
1049
102
}
  0
BLOCK_RECORD
  5
75
330
1
100
AcDbSymbolTableRecord
100
AcDbBlockTableRecord
  2
GENAXEH
340
0
  0
BLOCK_RECORD
  5
C1E
330
1
100
AcDbSymbolTableRecord
100
AcDbBlockTableRecord
  2
*D3
340
0
  0
BLOCK_RECORD
  5
C61
330
1
100
AcDbSymbolTableRecord
100
AcDbBlockTableRecord
  2
*D4
340
0
  0
BLOCK_RECORD
  5
CA4
330
1
100
AcDbSymbolTableRecord
100
AcDbBlockTableRecord
  2
*D5
340
0
  0
BLOCK_RECORD
  5
CE7
330
1
100
AcDbSymbolTableRecord
100
AcDbBlockTableRecord
  2
*D6
340
0
  0
BLOCK_RECORD
  5
D2A
330
1
100
AcDbSymbolTableRecord
100
AcDbBlockTableRecord
  2
*D7
340
0
  0
BLOCK_RECORD
  5
D6D
330
1
100
AcDbSymbolTableRecord
100
AcDbBlockTableRecord
  2
*D8
340
0
  0
BLOCK_RECORD
  5
DB0
330
1
100
AcDbSymbolTableRecord
100
AcDbBlockTableRecord
  2
*D9
340
0
  0
BLOCK_RECORD
  5
E00
330
1
100
AcDbSymbolTableRecord
100
AcDbBlockTableRecord
  2
*D10
340
0
  0
BLOCK_RECORD
  5
E52
330
1
100
AcDbSymbolTableRecord
100
AcDbBlockTableRecord
  2
*D11
340
0
  0
BLOCK_RECORD
  5
10A5
330
1
100
AcDbSymbolTableRecord
100
AcDbBlockTableRecord
  2
*U12
340
0
  0
ENDTAB
  0
ENDSEC
  0
SECTION
  2
BLOCKS
  0
BLOCK
  5
20
330
1F
100
AcDbEntity
  8
0
100
AcDbBlockBegin
  2
*Model_Space
 70
     0
 71
     0
 10
0.0
 20
0.0
 30
0.0
  3
*Model_Space
  1

  0
ENDBLK
  5
21
330
1F
100
AcDbEntity
  8
0
100
AcDbBlockEnd
  0
BLOCK
  5
1C
330
1B
100
AcDbEntity
 67
     1
  8
0
100
AcDbBlockBegin
  2
*Paper_Space
 70
     0
 71
     0
 10
0.0
 20
0.0
 30
0.0
  3
*Paper_Space
  1

  0
ENDBLK
  5
1D
330
1B
100
AcDbEntity
 67
     1
  8
0
100
AcDbBlockEnd
  0
BLOCK
  5
24
330
23
100
AcDbEntity
  8
0
100
AcDbBlockBegin
  2
*Paper_Space0
 70
     0
 71
     0
 10
0.0
 20
0.0
 30
0.0
  3
*Paper_Space0
  1

  0
ENDBLK
  5
25
330
23
100
AcDbEntity
  8
0
100
AcDbBlockEnd
  0
BLOCK
  5
6E
330
6A
100
AcDbEntity
  8
0
100
AcDbBlockBegin
  2
_Open30
 70
     0
 71
     0
 10
0.0
 20
0.0
 30
0.0
  3
_Open30
  1

  0
LINE
  5
6B
330
6A
100
AcDbEntity
  8
0
 62
     0
370
    -2
100
AcDbLine
 10
-1.0
 20
0.26794919
 30
0.0
 11
0.0
 21
0.0
 31
0.0
  0
LINE
  5
6C
330
6A
100
AcDbEntity
  8
0
 62
     0
370
    -2
100
AcDbLine
 10
0.0
 20
0.0
 30
0.0
 11
-1.0
 21
-0.26794919
 31
0.0
  0
LINE
  5
6D
330
6A
100
AcDbEntity
  8
0
 62
     0
370
    -2
100
AcDbLine
 10
0.0
 20
0.0
 30
0.0
 11
-1.0
 21
0.0
 31
0.0
  0
ENDBLK
  5
6F
330
6A
100
AcDbEntity
  8
0
100
AcDbBlockEnd
  0
BLOCK
  5
77
330
75
100
AcDbEntity
  8
0
100
AcDbBlockBegin
  2
GENAXEH
 70
     0
 71
     0
 10
0.0
 20
0.0
 30
0.0
  3
GENAXEH
  1

  0
LINE
  5
76
330
75
100
AcDbEntity
  8
0
100
AcDbLine
 10
-1.0
 20
0.0
 30
0.0
 11
1.0
 21
0.0
 31
0.0
  0
ENDBLK
  5
78
330
75
100
AcDbEntity
  8
0
100
AcDbBlockEnd
  0
BLOCK
  5
C28
330
C1E
100
AcDbEntity
  8
0
100
AcDbBlockBegin
  2
*D3
 70
     1
 71
     0
 10
0.0
 20
0.0
 30
0.0
  3
*D3
  1

  0
LINE
  5
FA5
330
C1E
100
AcDbEntity
  8
PV0001_1
 62
     3
370
    13
100
AcDbLine
 10
0.0
 20
-0.0000006527943
 30
0.0
 11
-0.0000000000000018
 21
-29.75584411621
 31
0.0
  0
LINE
  5
FA6
330
C1E
100
AcDbEntity
  8
PV0001_1
 62
     3
370
    13
100
AcDbLine
 10
170.0
 20
-3.0000007152557
 30
0.0
 11
170.0
 21
-29.75584411621
 31
0.0
  0
LINE
  5
FA7
330
C1E
100
AcDbEntity
  8
PV0001_1
 62
     3
370
    13
100
AcDbLine
 10
2.499999999999998
 20
-28.75584411621
 30
0.0
 11
167.5
 21
-28.75584411621
 31
0.0
  0
INSERT
  5
FA8
330
C1E
100
AcDbEntity
  8
PV0001_1
 62
     3
370
    13
100
AcDbBlockReference
  2
_Open30
 10
-0.0000000000000018
 20
-28.75584411621
 30
0.0
 41
2.5
 42
2.5
 43
2.5
 50
180.0
  0
INSERT
  5
FA9
330
C1E
100
AcDbEntity
  8
PV0001_1
 62
     3
370
    13
100
AcDbBlockReference
  2
_Open30
 10
170.0
 20
-28.75584411621
 30
0.0
 41
2.5
 42
2.5
 43
2.5
  0
MTEXT
  5
FAA
330
C1E
100
AcDbEntity
  8
PV0001_1
 62
     2
100
AcDbMText
 10
85.0
 20
-25.35584411621
 30
0.0
 40
3.8
 41
0.0
 71
     5
 72
     1
  1
170
 73
     1
 44
1.0
  0
POINT
  5
FAB
330
C1E
100
AcDbEntity
  8
Defpoints
 62
     0
100
AcDbPoint
 10
0.0
 20
-0.0000006527943
 30
0.0
  0
POINT
  5
FAC
330
C1E
100
AcDbEntity
  8
Defpoints
 62
     0
100
AcDbPoint
 10
170.0
 20
-3.0000007152557
 30
0.0
  0
POINT
  5
FAD
330
C1E
100
AcDbEntity
  8
Defpoints
 62
     0
100
AcDbPoint
 10
170.0
 20
-28.75584411621
 30
0.0
  0
ENDBLK
  5
C29
330
C1E
100
AcDbEntity
  8
0
100
AcDbBlockEnd
  0
BLOCK
  5
C6B
330
C61
100
AcDbEntity
  8
0
100
AcDbBlockBegin
  2
*D4
 70
     1
 71
     0
 10
0.0
 20
0.0
 30
0.0
  3
*D4
  1

  0
LINE
  5
FB7
330
C61
100
AcDbEntity
  8
PV0001_1
 62
     3
370
    13
100
AcDbLine
 10
-0.0000038146973
 20
-52.055847167968
 30
0.0
 11
-0.0000038146972991
 21
-37.555843353271
 31
0.0
  0
LINE
  5
FB8
330
C61
100
AcDbEntity
  8
PV0001_1
 62
     3
370
    13
100
AcDbLine
 10
34.999996185302
 20
-52.055847167968
 30
0.0
 11
34.999996185302
 21
-37.555843353271
 31
0.0
  0
LINE
  5
FB9
330
C61
100
AcDbEntity
  8
PV0001_1
 62
     3
370
    13
100
AcDbLine
 10
2.499996185302701
 20
-38.555843353271
 30
0.0
 11
32.499996185302
 21
-38.555843353271
 31
0.0
  0
INSERT
  5
FBA
330
C61
100
AcDbEntity
  8
PV0001_1
 62
     3
370
    13
100
AcDbBlockReference
  2
_Open30
 10
-0.0000038146972992
 20
-38.555843353271
 30
0.0
 41
2.5
 42
2.5
 43
2.5
 50
180.0
  0
INSERT
  5
FBB
330
C61
100
AcDbEntity
  8
PV0001_1
 62
     3
370
    13
100
AcDbBlockReference
  2
_Open30
 10
34.999996185302
 20
-38.555843353271
 30
0.0
 41
2.5
 42
2.5
 43
2.5
  0
MTEXT
  5
FBC
330
C61
100
AcDbEntity
  8
PV0001_1
 62
     2
100
AcDbMText
 10
17.499998092651
 20
-35.155843353271
 30
0.0
 40
3.8
 41
0.0
 71
     5
 72
     1
  1
35
 73
     1
 44
1.0
  0
POINT
  5
FBD
330
C61
100
AcDbEntity
  8
Defpoints
 62
     0
100
AcDbPoint
 10
-0.0000038146973
 20
-52.055847167968
 30
0.0
  0
POINT
  5
FBE
330
C61
100
AcDbEntity
  8
Defpoints
 62
     0
100
AcDbPoint
 10
34.999996185302
 20
-52.055847167968
 30
0.0
  0
POINT
  5
FBF
330
C61
100
AcDbEntity
  8
Defpoints
 62
     0
100
AcDbPoint
 10
34.999996185302
 20
-38.555843353271
 30
0.0
  0
ENDBLK
  5
C6C
330
C61
100
AcDbEntity
  8
0
100
AcDbBlockEnd
  0
BLOCK
  5
CAE
330
CA4
100
AcDbEntity
  8
0
100
AcDbBlockBegin
  2
*D5
 70
     1
 71
     0
 10
0.0
 20
0.0
 30
0.0
  3
*D5
  1

  0
LINE
  5
FC9
330
CA4
100
AcDbEntity
  8
PV0001_1
 62
     3
370
    13
100
AcDbLine
 10
170.0
 20
21.999996185302
 30
0.0
 11
183.39598083496
 21
21.999996185302
 31
0.0
  0
LINE
  5
FCA
330
CA4
100
AcDbEntity
  8
PV0001_1
 62
     3
370
    13
100
AcDbLine
 10
170.0
 20
-3.0000007152557
 30
0.0
 11
183.39598083496
 21
-3.000000715255704
 31
0.0
  0
LINE
  5
FCB
330
CA4
100
AcDbEntity
  8
PV0001_1
 62
     3
370
    13
100
AcDbLine
 10
182.39598083496
 20
19.499996185302
 30
0.0
 11
182.39598083496
 21
-0.5000007152557037
 31
0.0
  0
INSERT
  5
FCC
330
CA4
100
AcDbEntity
  8
PV0001_1
 62
     3
370
    13
100
AcDbBlockReference
  2
_Open30
 10
182.39598083496
 20
21.999996185302
 30
0.0
 41
2.5
 42
2.5
 43
2.5
 50
90.0
  0
INSERT
  5
FCD
330
CA4
100
AcDbEntity
  8
PV0001_1
 62
     3
370
    13
100
AcDbBlockReference
  2
_Open30
 10
182.39598083496
 20
-3.000000715255704
 30
0.0
 41
2.5
 42
2.5
 43
2.5
 50
270.0
  0
MTEXT
  5
FCE
330
CA4
100
AcDbEntity
  8
PV0001_1
 62
     2
100
AcDbMText
 10
178.995606819212
 20
9.4999952316284
 30
0.0
 40
3.8
 41
0.0
 71
     5
 72
     1
  1
25
 11
6.123031769111886E-17
 21
1.0
 31
0.0
 73
     1
 44
1.0
  0
POINT
  5
FCF
330
CA4
100
AcDbEntity
  8
Defpoints
 62
     0
100
AcDbPoint
 10
170.0
 20
21.999996185302
 30
0.0
  0
POINT
  5
FD0
330
CA4
100
AcDbEntity
  8
Defpoints
 62
     0
100
AcDbPoint
 10
170.0
 20
-3.0000007152557
 30
0.0
  0
POINT
  5
FD1
330
CA4
100
AcDbEntity
  8
Defpoints
 62
     0
100
AcDbPoint
 10
182.39598083496
 20
-3.000000715255704
 30
0.0
  0
ENDBLK
  5
CAF
330
CA4
100
AcDbEntity
  8
0
100
AcDbBlockEnd
  0
BLOCK
  5
CF1
330
CE7
100
AcDbEntity
  8
0
100
AcDbBlockBegin
  2
*D6
 70
     1
 71
     0
 10
0.0
 20
0.0
 30
0.0
  3
*D6
  1

  0
LINE
  5
FDB
330
CE7
100
AcDbEntity
  8
PV0001_1
 62
     3
370
    13
100
AcDbLine
 10
170.0
 20
-52.055847167968
 30
0.0
 11
183.39598083496
 21
-52.055847167968
 31
0.0
  0
LINE
  5
FDC
330
CE7
100
AcDbEntity
  8
PV0001_1
 62
     3
370
    13
100
AcDbLine
 10
170.0
 20
-84.055847167968
 30
0.0
 11
183.39598083496
 21
-84.055847167968
 31
0.0
  0
LINE
  5
FDD
330
CE7
100
AcDbEntity
  8
PV0001_1
 62
     3
370
    13
100
AcDbLine
 10
182.39598083496
 20
-54.555847167968
 30
0.0
 11
182.39598083496
 21
-81.555847167968
 31
0.0
  0
INSERT
  5
FDE
330
CE7
100
AcDbEntity
  8
PV0001_1
 62
     3
370
    13
100
AcDbBlockReference
  2
_Open30
 10
182.39598083496
 20
-52.055847167968
 30
0.0
 41
2.5
 42
2.5
 43
2.5
 50
90.0
  0
INSERT
  5
FDF
330
CE7
100
AcDbEntity
  8
PV0001_1
 62
     3
370
    13
100
AcDbBlockReference
  2
_Open30
 10
182.39598083496
 20
-84.055847167968
 30
0.0
 41
2.5
 42
2.5
 43
2.5
 50
270.0
  0
MTEXT
  5
FE0
330
CE7
100
AcDbEntity
  8
PV0001_1
 62
     2
100
AcDbMText
 10
178.995606819212
 20
-68.055847167968
 30
0.0
 40
3.8
 41
0.0
 71
     5
 72
     1
  1
32
 11
6.123031769111886E-17
 21
1.0
 31
0.0
 73
     1
 44
1.0
  0
POINT
  5
FE1
330
CE7
100
AcDbEntity
  8
Defpoints
 62
     0
100
AcDbPoint
 10
170.0
 20
-52.055847167968
 30
0.0
  0
POINT
  5
FE2
330
CE7
100
AcDbEntity
  8
Defpoints
 62
     0
100
AcDbPoint
 10
170.0
 20
-84.055847167968
 30
0.0
  0
POINT
  5
FE3
330
CE7
100
AcDbEntity
  8
Defpoints
 62
     0
100
AcDbPoint
 10
182.39598083496
 20
-84.055847167968
 30
0.0
  0
ENDBLK
  5
CF2
330
CE7
100
AcDbEntity
  8
0
100
AcDbBlockEnd
  0
BLOCK
  5
D34
330
D2A
100
AcDbEntity
  8
0
100
AcDbBlockBegin
  2
*D7
 70
     1
 71
     0
 10
0.0
 20
0.0
 30
0.0
  3
*D7
  1

  0
LINE
  5
FED
330
D2A
100
AcDbEntity
  8
PV0001_1
 62
     3
370
    13
100
AcDbLine
 10
7.1587371826172
 20
21.999996185302
 30
0.0
 11
-11.104022979736
 21
21.999996185302
 31
0.0
  0
LINE
  5
FEE
330
D2A
100
AcDbEntity
  8
PV0001_1
 62
     3
370
    13
100
AcDbLine
 10
0.0
 20
-0.0000006527943
 30
0.0
 11
-11.104022979736
 21
-0.0000006527942969
 31
0.0
  0
LINE
  5
FEF
330
D2A
100
AcDbEntity
  8
PV0001_1
 62
     3
370
    13
100
AcDbLine
 10
-10.104022979736
 20
19.499996185302
 30
0.0
 11
-10.104022979736
 21
2.499999347205703
 31
0.0
  0
INSERT
  5
FF0
330
D2A
100
AcDbEntity
  8
PV0001_1
 62
     3
370
    13
100
AcDbBlockReference
  2
_Open30
 10
-10.10402297973599
 20
21.999996185302
 30
0.0
 41
2.5
 42
2.5
 43
2.5
 50
90.0
  0
INSERT
  5
FF1
330
D2A
100
AcDbEntity
  8
PV0001_1
 62
     3
370
    13
100
AcDbBlockReference
  2
_Open30
 10
-10.104022979736
 20
-0.0000006527942971
 30
0.0
 41
2.5
 42
2.5
 43
2.5
 50
270.0
  0
MTEXT
  5
FF2
330
D2A
100
AcDbEntity
  8
PV0001_1
 62
     2
100
AcDbMText
 10
-13.50439699548403
 20
10.999995231628
 30
0.0
 40
3.8
 41
0.0
 71
     5
 72
     1
  1
22
 11
6.123031769111886E-17
 21
1.0
 31
0.0
 73
     1
 44
1.0
  0
POINT
  5
FF3
330
D2A
100
AcDbEntity
  8
Defpoints
 62
     0
100
AcDbPoint
 10
7.1587371826172
 20
21.999996185302
 30
0.0
  0
POINT
  5
FF4
330
D2A
100
AcDbEntity
  8
Defpoints
 62
     0
100
AcDbPoint
 10
0.0
 20
-0.0000006527943
 30
0.0
  0
POINT
  5
FF5
330
D2A
100
AcDbEntity
  8
Defpoints
 62
     0
100
AcDbPoint
 10
-10.104022979736
 20
-0.0000006527942971
 30
0.0
  0
ENDBLK
  5
D35
330
D2A
100
AcDbEntity
  8
0
100
AcDbBlockEnd
  0
BLOCK
  5
D77
330
D6D
100
AcDbEntity
  8
0
100
AcDbBlockBegin
  2
*D8
 70
     1
 71
     0
 10
0.0
 20
0.0
 30
0.0
  3
*D8
  1

  0
LINE
  5
FFF
330
D6D
100
AcDbEntity
  8
PV0001_1
 62
     3
370
    13
100
AcDbLine
 10
2.0
 20
-84.055847167968
 30
0.0
 11
-11.10402297973602
 21
-84.055847167968
 31
0.0
  0
LINE
  5
1000
330
D6D
100
AcDbEntity
  8
PV0001_1
 62
     3
370
    13
100
AcDbLine
 10
-0.0000038146973
 20
-52.055847167968
 30
0.0
 11
-11.10402297973601
 21
-52.055847167968
 31
0.0
  0
LINE
  5
1001
330
D6D
100
AcDbEntity
  8
PV0001_1
 62
     3
370
    13
100
AcDbLine
 10
-10.10402297973601
 20
-81.555847167968
 30
0.0
 11
-10.10402297973601
 21
-54.555847167968
 31
0.0
  0
INSERT
  5
1002
330
D6D
100
AcDbEntity
  8
PV0001_1
 62
     3
370
    13
100
AcDbBlockReference
  2
_Open30
 10
-10.10402297973602
 20
-84.055847167968
 30
0.0
 41
2.5
 42
2.5
 43
2.5
 50
270.0
  0
INSERT
  5
1003
330
D6D
100
AcDbEntity
  8
PV0001_1
 62
     3
370
    13
100
AcDbBlockReference
  2
_Open30
 10
-10.10402297973601
 20
-52.055847167968
 30
0.0
 41
2.5
 42
2.5
 43
2.5
 50
90.0
  0
MTEXT
  5
1004
330
D6D
100
AcDbEntity
  8
PV0001_1
 62
     2
100
AcDbMText
 10
-13.50439699548403
 20
-68.055847167968
 30
0.0
 40
3.8
 41
0.0
 71
     5
 72
     1
  1
32
 11
6.123031769111886E-17
 21
1.0
 31
0.0
 73
     1
 44
1.0
  0
POINT
  5
1005
330
D6D
100
AcDbEntity
  8
Defpoints
 62
     0
100
AcDbPoint
 10
2.0
 20
-84.055847167968
 30
0.0
  0
POINT
  5
1006
330
D6D
100
AcDbEntity
  8
Defpoints
 62
     0
100
AcDbPoint
 10
-0.0000038146973
 20
-52.055847167968
 30
0.0
  0
POINT
  5
1007
330
D6D
100
AcDbEntity
  8
Defpoints
 62
     0
100
AcDbPoint
 10
-10.10402297973601
 20
-52.055847167968
 30
0.0
  0
ENDBLK
  5
D78
330
D6D
100
AcDbEntity
  8
0
100
AcDbBlockEnd
  0
BLOCK
  5
DBC
330
DB0
100
AcDbEntity
  8
0
100
AcDbBlockBegin
  2
*D9
 70
     1
 71
     0
 10
0.0
 20
0.0
 30
0.0
  3
*D9
  1

  0
LINE
  5
1012
330
DB0
100
AcDbEntity
  8
PV0001_1
 62
     3
370
    13
100
AcDbLine
 10
14.026005744934
 20
-3.75825715065
 30
0.0
 11
19.23202673622282
 21
-5.153206263315809
 31
0.0
  0
ARC
  5
1013
330
DB0
100
AcDbEntity
  8
PV0001_1
 62
     3
370
    13
100
AcDbCircle
 10
-0.0000000000000014
 20
-0.0000002590853932
 30
0.0
 40
18.91045917363097
100
AcDbArc
 50
277.5801419423262
 51
337.4198581370437
  0
INSERT
  5
1014
330
DB0
100
AcDbEntity
  8
PV0001_1
 62
     3
370
    13
100
AcDbBlockReference
  2
_Open30
 10
-0.0000000000000036
 20
-18.91045943271637
 30
0.0
 41
2.5
 42
2.5
 43
2.5
 50
183.7900709711631
  0
INSERT
  5
1015
330
DB0
100
AcDbEntity
  8
PV0001_1
 62
     3
370
    13
100
AcDbBlockReference
  2
_Open30
 10
18.26610090957522
 20
-4.894387219551352
 30
0.0
 41
2.5
 42
2.5
 43
2.5
 50
71.20992910820677
  0
MTEXT
  5
1016
330
DB0
100
AcDbEntity
  8
PV0001_1
 62
     2
100
AcDbMText
 10
9.442168486358797
 20
-12.30527547145208
 30
0.0
 40
3.8
 41
0.0
 71
     5
 72
     1
  1
75°
 11
0.7933533801040946
 21
0.6087613771235885
 31
0.0
 73
     1
 44
1.0
  0
POINT
  5
1017
330
DB0
100
AcDbEntity
  8
Defpoints
 62
     0
100
AcDbPoint
 10
14.48625217801396
 20
-12.15540909600032
 30
0.0
  0
POINT
  5
1018
330
DB0
100
AcDbEntity
  8
Defpoints
 62
     0
100
AcDbPoint
 10
0.0
 20
-41.601228713988
 30
0.0
  0
POINT
  5
1019
330
DB0
100
AcDbEntity
  8
Defpoints
 62
     0
100
AcDbPoint
 10
8.819984436035
 20
-2.363307952880799
 30
0.0
  0
POINT
  5
101A
330
DB0
100
AcDbEntity
  8
Defpoints
 62
     0
100
AcDbPoint
 10
14.026005744934
 20
-3.75825715065
 30
0.0
  0
POINT
  5
101B
330
DB0
100
AcDbEntity
  8
Defpoints
 62
     0
100
AcDbPoint
 10
-0.0000000000000018
 20
-29.75584411621
 30
0.0
  0
ENDBLK
  5
DBD
330
DB0
100
AcDbEntity
  8
0
100
AcDbBlockEnd
  0
BLOCK
  5
E0E
330
E00
100
AcDbEntity
  8
0
100
AcDbBlockBegin
  2
*D10
 70
     1
 71
     0
 10
0.0
 20
0.0
 30
0.0
  3
*D10
  1

  0
LINE
  5
1029
330
E00
100
AcDbEntity
  8
PV0001_1
 62
     3
370
    13
100
AcDbLine
 10
-43.813220977783
 20
11.739715576171
 30
0.0
 11
-49.44188767828818
 21
-2.923470135624232
 31
0.0
  0
LINE
  5
102A
330
E00
100
AcDbEntity
  8
PV0001_1
 62
     3
370
    13
100
AcDbLine
 10
-43.813220977783
 20
11.739715576171
 30
0.0
 11
-47.87833428966638
 21
-3.431499200685881
 31
0.0
  0
ARC
  5
102B
330
E00
100
AcDbEntity
  8
PV0001_1
 62
     3
370
    13
100
AcDbCircle
 10
-43.81322097778299
 20
11.73971557617101
 30
0.0
 40
14.70639691475967
100
AcDbArc
 50
229.4965945920074
 51
239.2483022908717
  0
ARC
  5
102C
330
E00
100
AcDbEntity
  8
PV0001_1
 62
     3
370
    13
100
AcDbCircle
 10
-43.81322097778299
 20
11.73971557617101
 30
0.0
 40
14.70639691475967
100
AcDbArc
 50
264.7517127579973
 51
274.5034204568616
  0
ARC
  5
102D
330
E00
100
AcDbEntity
  8
PV0001_1
 62
     3
370
    13
100
AcDbCircle
 10
-43.81322097778299
 20
11.73971557617101
 30
0.0
 40
14.70639691475967
100
AcDbArc
 50
249.0000099897361
 51
255.0000050591329
  0
INSERT
  5
102E
330
E00
100
AcDbEntity
  8
PV0001_1
 62
     3
370
    13
100
AcDbBlockReference
  2
_Open30
 10
-49.08351989151618
 20
-1.989889646644237
 30
0.0
 41
2.5
 42
2.5
 43
2.5
 50
334.1241561403039
  0
INSERT
  5
102F
330
E00
100
AcDbEntity
  8
PV0001_1
 62
     3
370
    13
100
AcDbBlockReference
  2
_Open30
 10
-47.61951532985368
 20
-2.465573351543473
 30
0.0
 41
2.5
 42
2.5
 43
2.5
 50
169.8758589085651
  0
MTEXT
  5
1030
330
E00
100
AcDbEntity
  8
PV0001_1
 62
     2
100
AcDbMText
 10
-52.07083703064074
 20
4.016608149903195
 30
0.0
 40
3.8
 41
0.0
 71
     5
 72
     1
  1
-6°
 11
0.6830741468297351
 21
-0.7303490329512523
 31
0.0
 73
     1
 44
1.0
  0
POINT
  5
1031
330
E00
100
AcDbEntity
  8
Defpoints
 62
     0
100
AcDbPoint
 10
-48.11295366884663
 20
-2.324082239492146
 30
0.0
  0
POINT
  5
1032
330
E00
100
AcDbEntity
  8
Defpoints
 62
     0
100
AcDbPoint
 10
-38.18455505371099
 20
26.40289926528759
 30
0.0
  0
POINT
  5
1033
330
E00
100
AcDbEntity
  8
Defpoints
 62
     0
100
AcDbPoint
 10
-39.74810791015599
 20
26.9109294414503
 30
0.0
  0
POINT
  5
1034
330
E00
100
AcDbEntity
  8
Defpoints
 62
     0
100
AcDbPoint
 10
-43.813220977783
 20
11.739715576171
 30
0.0
  0
POINT
  5
1035
330
E00
100
AcDbEntity
  8
Defpoints
 62
     0
100
AcDbPoint
 10
-43.813220977783
 20
11.739715576171
 30
0.0
  0
ENDBLK
  5
E0F
330
E00
100
AcDbEntity
  8
0
100
AcDbBlockEnd
  0
BLOCK
  5
E60
330
E52
100
AcDbEntity
  8
0
100
AcDbBlockBegin
  2
*D11
 70
     1
 71
     0
 10
0.0
 20
0.0
 30
0.0
  3
*D11
  1

  0
LINE
  5
1043
330
E52
100
AcDbEntity
  8
PV0001_1
 62
     3
370
    13
100
AcDbLine
 10
-24.29289393149553
 20
-89.5834702548628
 30
0.0
 11
-35.86779383684562
 21
-86.48198807525
 31
0.0
  0
LINE
  5
1044
330
E52
100
AcDbEntity
  8
PV0001_1
 62
     3
370
    13
100
AcDbLine
 10
-24.29289393149553
 20
-89.5834702548628
 30
0.0
 11
-36.09405851871645
 21
-87.50260170671947
 31
0.0
  0
ARC
  5
1045
330
E52
100
AcDbEntity
  8
PV0001_1
 62
     3
370
    13
100
AcDbCircle
 10
-24.29289393149553
 20
-89.5834702548628
 30
0.0
 40
10.98321741141874
100
AcDbArc
 50
138.8600430966906
 51
151.930028250813
  0
ARC
  5
1046
330
E52
100
AcDbEntity
  8
PV0001_1
 62
     3
370
    13
100
AcDbCircle
 10
-24.29289393149553
 20
-89.5834702548628
 30
0.0
 40
10.98321741141874
100
AcDbArc
 50
183.0699624222568
 51
196.1399475763792
  0
ARC
  5
1047
330
E52
100
AcDbEntity
  8
PV0001_1
 62
     3
370
    13
100
AcDbCircle
 10
-24.29289393149553
 20
-89.5834702548628
 30
0.0
 40
10.98321741141874
100
AcDbArc
 50
165.0000134049354
 51
169.9999772681344
  0
INSERT
  5
1048
330
E52
100
AcDbEntity
  8
PV0001_1
 62
     3
370
    13
100
AcDbBlockReference
  2
_Open30
 10
-34.90186795000321
 20
-86.74080689436426
 30
0.0
 41
2.5
 42
2.5
 43
2.5
 50
248.4650208278742
  0
INSERT
  5
1049
330
E52
100
AcDbEntity
  8
PV0001_1
 62
     3
370
    13
100
AcDbBlockReference
  2
_Open30
 10
-35.10925083459853
 20
-87.67625027510483
 30
0.0
 41
2.5
 42
2.5
 43
2.5
 50
86.53496984519558
  0
MTEXT
  5
104A
330
E52
100
AcDbEntity
  8
PV0001_1
 62
     2
100
AcDbMText
 10
-36.29211257209875
 20
-81.65278963343191
 30
0.0
 40
3.8
 41
0.0
 71
     5
 72
     1
  1
-5°
 11
0.551384324840615
 21
0.8342513567984526
 31
0.0
 73
     1
 44
1.0
  0
POINT
  5
104B
330
E52
100
AcDbEntity
  8
Defpoints
 62
     0
100
AcDbPoint
 10
-35.04920448594064
 20
-87.36246868736569
 30
0.0
  0
POINT
  5
104C
330
E52
100
AcDbEntity
  8
Defpoints
 62
     0
100
AcDbPoint
 10
-12.71796798706001
 20
-92.68495941162101
 30
0.0
  0
POINT
  5
104D
330
E52
100
AcDbEntity
  8
Defpoints
 62
     0
100
AcDbPoint
 10
-12.491695404052
 20
-91.664344787597
 30
0.0
  0
POINT
  5
104E
330
E52
100
AcDbEntity
  8
Defpoints
 62
     0
100
AcDbPoint
 10
-24.292877197265
 20
-89.58347320556601
 30
0.0
  0
POINT
  5
104F
330
E52
100
AcDbEntity
  8
Defpoints
 62
     0
100
AcDbPoint
 10
-24.292882919311
 20
-89.58347320556601
 30
0.0
  0
ENDBLK
  5
E61
330
E52
100
AcDbEntity
  8
0
100
AcDbBlockEnd
  0
BLOCK
  5
10A6
330
10A5
100
AcDbEntity
  8
0
100
AcDbBlockBegin
  2
*U12
 70
     1
 71
     0
 10
0.0
 20
0.0
 30
0.0
  3
*U12
  1

  0
ENDBLK
  5
10A7
330
10A5
100
AcDbEntity
  8
0
100
AcDbBlockEnd
  0
ENDSEC
  0
SECTION
  2
ENTITIES
  0
DIMENSION
  5
C1D
330
1F
100
AcDbEntity
  8
AM_5
370
    13
100
AcDbDimension
  2
*D3
 10
170.0
 20
-28.75584411621
 30
0.0
 11
85.0
 21
-28.75584411621
 31
0.0
 70
   160
  1
<>
 71
     5
 42
170.0
  3
AM_JIS$0
100
AcDbAlignedDimension
 13
0.0
 23
-0.0000006527943
 33
0.0
 14
170.0
 24
-3.0000007152557
 34
0.0
100
AcDbRotatedDimension
1001
ACAD
1000
DSTYLE
1002
{
1070
   284
1070
     8
1070
   271
1070
     0
1070
    45
1040
0.1
1070
   173
1070
     1
1070
   343
1005
6A
1070
   344
1005
6A
1002
}
  0
DIMENSION
  5
C60
330
1F
100
AcDbEntity
  8
AM_5
370
    13
100
AcDbDimension
  2
*D4
 10
34.999996185302
 20
-38.555843353271
 30
0.0
 11
17.499998092651
 21
-38.555843353271
 31
0.0
 70
   160
  1
<>
 71
     5
 42
34.9999999999993
  3
AM_JIS$0
100
AcDbAlignedDimension
 13
-0.0000038146973
 23
-52.055847167968
 33
0.0
 14
34.999996185302
 24
-52.055847167968
 34
0.0
100
AcDbRotatedDimension
1001
ACAD
1000
DSTYLE
1002
{
1070
   284
1070
     8
1070
   271
1070
     0
1070
    45
1040
0.1
1070
   173
1070
     1
1070
   343
1005
6A
1070
   344
1005
6A
1002
}
  0
DIMENSION
  5
CA3
330
1F
100
AcDbEntity
  8
AM_5
370
    13
100
AcDbDimension
  2
*D5
 10
182.39598083496
 20
-3.000000715255704
 30
0.0
 11
182.39598083496
 21
9.4999952316284
 31
0.0
 70
   160
  1
<>
 71
     5
 42
24.9999969005577
  3
AM_JIS$0
100
AcDbAlignedDimension
 13
170.0
 23
21.999996185302
 33
0.0
 14
170.0
 24
-3.0000007152557
 34
0.0
 50
90.0
100
AcDbRotatedDimension
1001
ACAD
1000
DSTYLE
1002
{
1070
   284
1070
     8
1070
   271
1070
     0
1070
    45
1040
0.1
1070
   173
1070
     1
1070
   343
1005
6A
1070
   344
1005
6A
1002
}
  0
DIMENSION
  5
CE6
330
1F
100
AcDbEntity
  8
AM_5
370
    13
100
AcDbDimension
  2
*D6
 10
182.39598083496
 20
-84.055847167968
 30
0.0
 11
182.39598083496
 21
-68.055847167968
 31
0.0
 70
   160
  1
<>
 71
     5
 42
31.99999999999999
  3
AM_JIS$0
100
AcDbAlignedDimension
 13
170.0
 23
-52.055847167968
 33
0.0
 14
170.0
 24
-84.055847167968
 34
0.0
 50
90.0
100
AcDbRotatedDimension
1001
ACAD
1000
DSTYLE
1002
{
1070
   284
1070
     8
1070
   271
1070
     0
1070
    45
1040
0.1
1070
   173
1070
     1
1070
   343
1005
6A
1070
   344
1005
6A
1002
}
  0
DIMENSION
  5
D29
330
1F
100
AcDbEntity
  8
AM_5
370
    13
100
AcDbDimension
  2
*D7
 10
-10.104022979736
 20
-0.0000006527942971
 30
0.0
 11
-10.104022979736
 21
10.999995231628
 31
0.0
 70
   160
  1
<>
 71
     5
 42
21.9999968380963
  3
AM_JIS$0
100
AcDbAlignedDimension
 13
7.1587371826172
 23
21.999996185302
 33
0.0
 14
0.0
 24
-0.0000006527943
 34
0.0
 50
90.0
100
AcDbRotatedDimension
1001
ACAD
1000
DSTYLE
1002
{
1070
   284
1070
     8
1070
   271
1070
     0
1070
    45
1040
0.1
1070
   173
1070
     1
1070
   343
1005
6A
1070
   344
1005
6A
1002
}
  0
DIMENSION
  5
D6C
330
1F
100
AcDbEntity
  8
AM_5
370
    13
100
AcDbDimension
  2
*D8
 10
-10.10402297973601
 20
-52.055847167968
 30
0.0
 11
-10.104022979736
 21
-68.055847167968
 31
0.0
 70
   160
  1
<>
 71
     5
 42
32.0
  3
AM_JIS$0
100
AcDbAlignedDimension
 13
2.0
 23
-84.055847167968
 33
0.0
 14
-0.0000038146973
 24
-52.055847167968
 34
0.0
 50
90.0
100
AcDbRotatedDimension
1001
ACAD
1000
DSTYLE
1002
{
1070
   284
1070
     8
1070
   271
1070
     0
1070
    45
1040
0.1
1070
   173
1070
     1
1070
   343
1005
6A
1070
   344
1005
6A
1002
}
  0
DIMENSION
  5
DAF
330
1F
100
AcDbEntity
  8
AM_5
370
    13
100
AcDbDimension
  2
*D9
 10
0.0
 20
-29.75584411621
 30
0.0
 11
11.511957168579
 21
-15.00267696380601
 31
0.0
 70
   162
  1
<>
 71
     5
 42
1.308996940381014
  3
AM_JIS$2
100
AcDb2LineAngularDimension
 13
8.819984436035
 23
-2.363307952880799
 33
0.0
 14
14.026005744934
 24
-3.75825715065
 34
0.0
 15
-0.0000000000000015
 25
-41.601228713988
 35
0.0
 16
14.48625217801396
 26
-12.15540909600032
 36
0.0
1001
ACAD
1000
DSTYLE
1002
{
1070
   284
1070
     8
1070
   179
1070
     0
1070
   173
1070
     1
1070
   343
1005
6A
1070
   344
1005
6A
1070
    75
1070
     1
1002
}
  0
DIMENSION
  5
DFF
330
1F
100
AcDbEntity
  8
AM_5
370
    13
100
AcDbDimension
  2
*D10
 10
-43.813220977783
 20
11.739715576171
 30
0.0
 11
-54.554023742675
 21
1.694156050682096
 31
0.0
 70
   162
  1
-<>
 71
     5
 42
0.1047196690643997
  3
AM_JIS$2
100
AcDb2LineAngularDimension
 13
-39.74810791015599
 23
26.9109294414503
 33
0.0
 14
-43.813220977783
 24
11.739715576171
 34
0.0
 15
-38.18455505371099
 25
26.40289926528759
 35
0.0
 16
-48.11295366884663
 26
-2.324082239492146
 36
0.0
1001
ACAD
1000
DSTYLE
1002
{
1070
   284
1070
     8
1070
   179
1070
     0
1070
   173
1070
     1
1070
   343
1005
6A
1070
   344
1005
6A
1002
}
  0
DIMENSION
  5
E51
330
1F
100
AcDbEntity
  8
AM_5
370
    13
100
AcDbDimension
  2
*D11
 10
-24.292882919311
 20
-89.58347320556599
 30
0.0
 11
-33.45565795898401
 21
-83.52749633789
 31
0.0
 70
   162
  1
-<>
 71
     5
 42
0.0872658318935569
  3
AM_JIS$2
100
AcDb2LineAngularDimension
 13
-12.491695404052
 23
-91.66434478759699
 33
0.0
 14
-24.292877197265
 24
-89.58347320556599
 34
0.0
 15
-12.71796798706
 25
-92.68495941162099
 35
0.0
 16
-35.04920448594064
 26
-87.36246868736569
 36
0.0
1001
ACAD
1000
DSTYLE
1002
{
1070
   284
1070
     8
1070
   179
1070
     0
1070
   173
1070
     1
1070
   343
1005
6A
1070
   344
1005
6A
1002
}
  0
LINE
  5
EA3
330
1F
100
AcDbEntity
  8
AM_0
  6
Continuous
 48
0.5
370
    30
100
AcDbLine
 10
0.8894126415253
 20
-0.2383174151182
 30
0.0
 11
14.026005744934
 21
-3.75825715065
 31
0.0
  0
LINE
  5
EA4
330
1F
100
AcDbEntity
  8
AM_0
  6
Continuous
 48
0.5
370
    30
100
AcDbLine
 10
0.0408903025091
 20
1.2313740253448
 30
0.0
 11
3.5608294010162
 21
14.367965698242
 31
0.0
  0
LINE
  5
EA5
330
1F
100
AcDbEntity
  8
AM_0
  6
Continuous
 48
0.5
370
    30
100
AcDbLine
 10
5.0305171012878
 20
15.216494560241
 30
0.0
 11
18.167110443115
 21
11.696555137634
 31
0.0
  0
LINE
  5
EA6
330
1F
100
AcDbEntity
  8
AM_0
  6
Continuous
 48
0.5
370
    30
100
AcDbLine
 10
15.495700836181
 20
-2.9097280502319
 30
0.0
 11
19.209114074707
 21
10.948916435241
 31
0.0
  0
LINE
  5
EA7
330
1F
100
AcDbEntity
  8
AM_0
  6
Continuous
370
    30
100
AcDbLine
 10
7.1587371826172
 20
21.999996185302
 30
0.0
 11
170.0
 21
21.999996185302
 31
0.0
  0
LINE
  5
EA8
330
1F
100
AcDbEntity
  8
AM_0
  6
Continuous
 48
0.5
370
    30
100
AcDbLine
 10
5.3202996253967
 20
15.138851165771
 30
0.0
 11
7.1587386131287
 21
22.0
 31
0.0
  0
LINE
  5
EA9
330
1F
100
AcDbEntity
  8
AM_0
  6
Continuous
 48
0.5
370
    30
100
AcDbLine
 10
15.573346138
 20
-2.6199512481689
 30
0.0
 11
16.991706848144
 21
-2.9999997615814
 31
0.0
  0
LINE
  5
EAA
330
1F
100
AcDbEntity
  8
AM_0
  6
Continuous
 48
0.5
370
    30
100
AcDbLine
 10
170.0
 20
21.999996185302
 30
0.0
 11
170.0
 21
-3.0000007152557
 31
0.0
  0
LINE
  5
EAB
330
1F
100
AcDbEntity
  8
AM_0
  6
Continuous
370
    30
100
AcDbLine
 10
16.991706848144
 20
-3.0000007152557
 30
0.0
 11
170.0
 21
-3.0000007152557
 31
0.0
  0
LINE
  5
EAC
330
1F
100
AcDbEntity
  8
AM_0
  6
Continuous
 48
0.5
370
    30
100
AcDbLine
 10
27.785186767578
 20
8.5074872970581
 30
0.0
 11
26.535186767578
 21
10.67255115509
 31
0.0
  0
LINE
  5
EAD
330
1F
100
AcDbEntity
  8
AM_0
  6
Continuous
 48
0.5
370
    30
100
AcDbLine
 10
26.535186767578
 20
10.672553062439
 30
0.0
 11
24.035186767578
 21
10.672553062439
 31
0.0
  0
LINE
  5
EAE
330
1F
100
AcDbEntity
  8
AM_0
  6
Continuous
 48
0.5
370
    30
100
AcDbLine
 10
22.785186767578
 20
8.5074872970581
 30
0.0
 11
24.035186767578
 21
10.67255115509
 31
0.0
  0
LINE
  5
EAF
330
1F
100
AcDbEntity
  8
AM_0
  6
Continuous
 48
0.5
370
    30
100
AcDbLine
 10
24.035184860229
 20
6.3424229621887
 30
0.0
 11
22.785184860229
 21
8.5074863433838
 31
0.0
  0
LINE
  5
EB0
330
1F
100
AcDbEntity
  8
AM_0
  6
Continuous
 48
0.5
370
    30
100
AcDbLine
 10
26.535186767578
 20
6.3424258232117
 30
0.0
 11
24.035186767578
 21
6.3424258232117
 31
0.0
  0
LINE
  5
EB1
330
1F
100
AcDbEntity
  8
AM_0
  6
Continuous
 48
0.5
370
    30
100
AcDbLine
 10
27.785188674926
 20
8.5074872970581
 30
0.0
 11
26.535188674926
 21
6.3424234390259
 31
0.0
  0
LINE
  5
EB2
330
1F
100
AcDbEntity
  8
AM_0
  6
Continuous
370
    30
100
AcDbLine
 10
2.0
 20
-84.055847167968
 30
0.0
 11
170.0
 21
-84.055847167968
 31
0.0
  0
LINE
  5
EB3
330
1F
100
AcDbEntity
  8
AM_0
  6
Continuous
370
    30
100
AcDbLine
 10
35.920791625976
 20
-52.055847167968
 30
0.0
 11
170.0
 21
-52.055847167968
 31
0.0
  0
LINE
  5
EB4
330
1F
100
AcDbEntity
  8
AM_0
  6
Continuous
 48
0.5
370
    30
100
AcDbLine
 10
34.999996185302
 20
21.999996185302
 30
0.0
 11
34.999996185302
 21
-3.0000007152557
 31
0.0
  0
LINE
  5
EB5
330
1F
100
AcDbEntity
  8
AM_0
  6
Continuous
 48
0.5
370
    30
100
AcDbLine
 10
34.999996185302
 20
-3.000004529953
 30
0.0
 11
34.12697982788
 21
21.999996185302
 31
0.0
  0
LINE
  5
EB6
330
1F
100
AcDbEntity
  8
AM_0
  6
Continuous
 48
0.5
370
    30
100
AcDbLine
 10
34.761680603027
 20
-51.166427612304
 30
0.0
 11
33.660255432128
 21
-47.055847167968
 31
0.0
  0
LINE
  5
EB7
330
1F
100
AcDbEntity
  8
AM_0
  6
Continuous
370
    30
100
AcDbLine
 10
-0.0000027755
 20
-52.055843353271
 30
0.0
 11
33.660251617431
 21
-47.055843353271
 31
0.0
  0
LINE
  5
EB8
330
1F
100
AcDbEntity
  8
AM_0
  6
Continuous
370
    30
100
AcDbLine
 10
170.0
 20
-52.055847167968
 30
0.0
 11
170.0
 21
-84.055847167968
 31
0.0
  0
LINE
  5
EB9
330
1F
100
AcDbEntity
  8
AM_0
  6
Continuous
 48
0.5
370
    30
100
AcDbLine
 10
-0.0000036299887
 20
-52.055847167968
 30
0.0
 11
1.5941976308823
 21
-62.788089752197
 31
0.0
  0
LINE
  5
EBA
330
1F
100
AcDbEntity
  8
AM_0
  6
Continuous
370
    30
100
AcDbLine
 10
16.991706848144
 20
-49.531845092773
 30
0.0
 11
16.991706848144
 21
-84.055847167968
 31
0.0
  0
LINE
  5
EBB
330
1F
100
AcDbEntity
  8
AM_0
  6
Continuous
 48
0.5
370
    30
100
AcDbLine
 10
15.536589622497
 20
-49.747993469238
 30
0.0
 11
16.991706848144
 21
-59.54391643789842
 31
0.0
  0
LINE
  5
EBC
330
1F
100
AcDbEntity
  8
AM_0
  6
Continuous
 48
0.5
370
    30
100
AcDbLine
 10
0.9330129027367
 20
-58.336925506591
 30
0.0
 11
16.469604492187
 21
-56.029071807861
 31
0.0
  0
LINE
  5
EBD
330
1F
100
AcDbEntity
  8
AM_0
  6
Continuous
 48
0.5
370
    30
100
AcDbLine
 10
1.5941990613937
 20
-62.788089752197
 30
0.0
 11
16.991706848144
 21
-60.50089600342832
 31
0.0
  0
LINE
  5
EBE
330
1F
100
AcDbEntity
  8
AM_0
  6
Continuous
 48
0.5
370
    30
100
AcDbLine
 10
2.0
 20
-62.727806091308
 30
0.0
 11
2.0
 21
-84.055847167968
 31
0.0
  0
LINE
  5
EBF
330
1F
100
AcDbEntity
  8
AM_0
  6
Continuous
370
    30
100
AcDbLine
 10
-68.74330902099599
 20
42.337882995605
 30
0.0
 11
-35.488178253173
 21
33.427196502685
 31
0.0
  0
LINE
  5
EC0
330
1F
100
AcDbEntity
  8
AM_5
370
    13
100
AcDbLine
 10
-43.8132204489466
 20
11.7397169538366
 30
0.0
 11
0.8894163370132
 21
-0.2383183985949
 31
0.0
  0
LINE
  5
EC1
330
1F
100
AcDbEntity
  8
AM_5
370
    13
100
AcDbLine
 10
-24.29287432226152
 20
-89.58347371250643
 30
0.0
 11
0.0408898070455
 21
1.2313722372055
 31
0.0
  0
LINE
  5
EC2
330
1F
100
AcDbEntity
  8
AM_0
  6
Continuous
370
    30
100
AcDbLine
 10
-15.701913833618
 20
-125.01425933837
 30
0.0
 11
-7.0241537094116
 21
-92.62841796875
 31
0.0
  0
LINE
  5
EC3
330
1F
100
AcDbEntity
  8
AM_0
  6
Continuous
370
    30
100
AcDbLine
 10
-24.292877197265
 20
-89.58347320556599
 30
0.0
 11
7.341347694397
 21
-95.16143798828099
 31
0.0
  0
LINE
  5
EC4
330
1F
100
AcDbEntity
  8
AM_0
  6
Continuous
370
    30
100
AcDbLine
 10
-43.813220977783
 20
11.739715576171
 30
0.0
 11
-32.282276153564
 21
41.778846740722
 31
0.0
  0
LINE
  5
EC5
330
1F
100
AcDbEntity
  8
AM_0
  6
Continuous
 48
0.5
370
    30
100
AcDbLine
 10
-53.94257736206
 20
15.628011703491
 30
0.0
 11
-43.81322479248
 21
11.73971748352
 31
0.0
  0
LINE
  5
EC6
330
1F
100
AcDbEntity
  8
AM_0
  6
Continuous
 48
0.5
370
    30
100
AcDbLine
 10
-48.177101135253
 20
30.647573471069
 30
0.0
 11
-38.047748565673
 21
26.759279251098
 31
0.0
  0
LINE
  5
EC7
330
1F
100
AcDbEntity
  8
AM_0
  6
Continuous
 48
0.5
370
    30
100
AcDbLine
 10
-24.292875289917
 20
-89.58347320556599
 30
0.0
 11
-26.176958084106
 21
-100.26863098144
 31
0.0
  0
LINE
  5
EC8
330
1F
100
AcDbEntity
  8
AM_0
  6
Continuous
 48
0.5
370
    30
100
AcDbLine
 10
-8.475766181945801
 20
-92.37245941162099
 30
0.0
 11
-10.359847068786
 21
-103.0576171875
 31
0.0
  0
LINE
  5
EC9
330
1F
100
AcDbEntity
  8
AM_0
  6
Continuous
 48
0.5
370
    30
100
AcDbLine
 10
-25.395544052124
 20
-95.83699798583901
 30
0.0
 11
-9.578432083129901
 21
-98.62598419189401
 31
0.0
  0
LINE
  5
ECA
330
1F
100
AcDbEntity
  8
AM_0
  6
Continuous
 48
0.5
370
    30
100
AcDbLine
 10
-49.741458892822
 20
14.015352249145
 30
0.0
 11
-43.975986480712
 21
29.03491783142
 31
0.0
  0
LINE
  5
ECB
330
1F
100
AcDbEntity
  8
AM_0
  6
Continuous
 48
0.5
370
    30
100
AcDbLine
 10
-53.942565917968
 20
15.628008842468
 30
0.0
 11
-48.177093505859
 21
30.647573471069
 31
0.0
  0
LINE
  5
ECC
330
1F
100
AcDbEntity
  8
AM_0
  6
Continuous
 48
0.5
370
    30
100
AcDbLine
 10
-26.176961898803
 20
-100.26863861083
 30
0.0
 11
-10.359850883483
 21
-103.05762481689
 31
0.0
  0
LINE
  5
ECD
330
1F
100
AcDbEntity
  8
AM_0
  6
Continuous
 48
0.5
370
    30
100
AcDbLine
 10
-30.643236160278
 20
-121.01074981689
 30
0.0
 11
-25.13465309143
 21
-100.45243072509
 31
0.0
  0
LINE
  5
ECE
330
1F
100
AcDbEntity
  8
AM_0
  6
Continuous
 48
0.5
370
    30
100
AcDbLine
 10
-74.20521545410099
 20
21.953777313232
 30
0.0
 11
-53.630561828613
 21
16.440816879272
 31
0.0
  0
LINE
  5
ECF
330
1F
100
AcDbEntity
  8
AM_0
  6
Continuous
 48
0.5
370
    30
100
AcDbLine
 10
-66.44065093994099
 20
50.931552886962
 30
0.0
 11
-74.20522308349599
 21
21.953779220581
 31
0.0
  0
LINE
  5
ED0
330
1F
100
AcDbEntity
  8
AM_0
  6
Continuous
 48
0.5
370
    30
100
AcDbLine
 10
-30.643238067627
 20
-121.01074981689
 30
0.0
 11
-1.6654634475708
 21
-128.77531433105
 31
0.0
  0
ARC
  5
EDB
330
1F
100
AcDbEntity
  8
AM_0
  6
Continuous
 48
0.5
370
    30
100
AcDbCircle
 10
4.7199363708496
 20
14.057383537292
 30
0.0
 40
1.2000000476837
100
AcDbArc
 50
74.9999986719728
 51
164.999994346262
  0
ARC
  5
EDC
330
1F
100
AcDbEntity
  8
AM_0
  6
Continuous
 48
0.5
370
    30
100
AcDbCircle
 10
1.1999969482422
 20
0.9207909703255
 30
0.0
 40
1.2000000476837
100
AcDbArc
 50
164.999994346262
 51
255.000003680925
  0
ARC
  5
EDD
330
1F
100
AcDbEntity
  8
AM_0
  6
Continuous
 48
0.5
370
    30
100
AcDbCircle
 10
14.336589813232
 20
-2.5991485118866
 30
0.0
 40
1.2000000476837
100
AcDbArc
 50
255.0000004932047
 51
344.9999995825859
  0
ARC
  5
EDE
330
1F
100
AcDbEntity
  8
AM_0
  6
Continuous
 48
0.5
370
    30
100
AcDbCircle
 10
17.856529235839
 20
10.537444114685
 30
0.0
 40
1.2000000476837
100
AcDbArc
 50
344.9999995825859
 51
74.9999986719728
  0
CIRCLE
  5
EDF
330
1F
100
AcDbEntity
  8
AM_0
  6
Continuous
 48
0.5
370
    30
100
AcDbCircle
 10
25.285186767578
 20
8.5074872970581
 30
0.0
 40
4.0
  0
CIRCLE
  5
EE0
330
1F
100
AcDbEntity
  8
AM_0
  6
Continuous
 48
0.5
370
    30
100
AcDbCircle
 10
25.285186767578
 20
8.5074872970581
 30
0.0
 40
3.5
  0
CIRCLE
  5
EE1
330
1F
100
AcDbEntity
  8
AM_0
  6
Continuous
 48
0.5
370
    30
100
AcDbCircle
 10
9.528263092041
 20
5.7291178703308
 30
0.0
 40
3.0
  0
ARC
  5
EE2
330
1F
100
AcDbEntity
  8
AM_0
  6
Continuous
 48
0.5
370
    30
100
AcDbCircle
 10
16.311336517334
 20
11.725367546081
 30
0.0
 40
3.0
100
AcDbArc
 50
344.9999995825859
 51
156.3252169682345
  0
ARC
  5
EE3
330
1F
100
AcDbEntity
  8
AM_0
  6
Continuous
 48
0.5
370
    30
100
AcDbCircle
 10
35.920791625976
 20
-50.855842590332
 30
0.0
 40
1.2000000476837
100
AcDbArc
 50
195.000005653738
 51
269.9999974955211
  0
TEXT
  5
110B
330
1F
100
AcDbEntity
  8
AM_6
  6
Continuous
 62
     0
370
    30
100
AcDbText
 10
74.29990872733757
 20
-105.6292700554563
 30
0.0
 40
3.8
  1
PSBNR3225-54
  7
ACISOTS
100
AcDbText
  0
ENDSEC
  0
SECTION
  2
OBJECTS
  0
DICTIONARY
  5
C
330
0
100
AcDbDictionary
281
     1
  3
ACAD_COLOR
350
1056
  3
ACAD_GROUP
350
D
  3
ACAD_LAYOUT
350
1A
  3
ACAD_MATERIAL
350
1055
  3
ACAD_MLINESTYLE
350
17
  3
ACAD_PLOTSETTINGS
350
19
  3
ACAD_PLOTSTYLENAME
350
E
  3
ACAD_TABLESTYLE
350
1057
  3
AcAmCatalogState
350
10BE
  3
ACDBHEADERROUNDTRIPXREC
350
1119
  3
AcDbVariableDictionary
350
30
  3
ACDMSYSVARMGR
350
106F
  3
ACGREF_MASTER
350
1067
  3
ACGREFACAD_MASTER
350
1091
  3
AcmDictionary
350
43
  3
ACME_BOM_MANAGER_NAME
350
36
  3
ACME_COMMAND_HISTORY
350
2F
  3
ACME_SCOPE_NAME
350
2E
  3
ACMESTATEMGR
350
3B
  3
AcmeSysVarManager
350
32
  3
AcmSystemVariableManager
350
79D
  3
AD_APPL
350
109C
  3
ADSYSVARMGR
350
109B
  3
AmdtNamedDwgMgr
350
108C
  3
AMG
350
3F
  3
AMGSNAPSETTINGS
350
59
  3
AMI_MASTER
350
1094
  3
AUTOCAD_ASSEMBLIES_PROJECT
350
10A4
  3
Designer_Assemblies_SysVars
350
109F
  3
DWGPROPS
350
111C
  3
GREFAM_MODULE
350
1095
  3
SAKAE_DICT
350
1050
  0
DICTIONARY
  5
10CB
330
2
100
AcDbDictionary
280
     1
281
     1
  3
ACAD_LAYERSTATES
360
1103
  3
AMLAYER_GROUPCOLORS
360
10CC
  0
DICTIONARY
  5
10B
330
1F
100
AcDbDictionary
280
     1
281
     1
  0
DICTIONARY
  5
1056
102
{ACAD_REACTORS
330
C
102
}
330
C
100
AcDbDictionary
281
     1
  0
DICTIONARY
  5
D
102
{ACAD_REACTORS
330
C
102
}
330
C
100
AcDbDictionary
281
     1
  0
DICTIONARY
  5
1A
102
{ACAD_REACTORS
330
C
102
}
330
C
100
AcDbDictionary
281
     1
  3
Model
350
22
  3
ﾚｲｱｳﾄ1
350
1E
  3
ﾚｲｱｳﾄ2
350
26
  0
DICTIONARY
  5
1055
102
{ACAD_REACTORS
330
C
102
}
330
C
100
AcDbDictionary
281
     1
  0
DICTIONARY
  5
17
102
{ACAD_REACTORS
330
C
102
}
330
C
100
AcDbDictionary
281
     1
  3
Standard
350
18
  0
DICTIONARY
  5
19
102
{ACAD_REACTORS
330
C
102
}
330
C
100
AcDbDictionary
281
     1
  0
ACDBDICTIONARYWDFLT
  5
E
102
{ACAD_REACTORS
330
C
102
}
330
C
100
AcDbDictionary
281
     1
  3
Normal
350
F
100
AcDbDictionaryWithDefault
340
F
  0
DICTIONARY
  5
1057
102
{ACAD_REACTORS
330
C
102
}
330
C
100
AcDbDictionary
281
     1
  3
Standard
350
1058
  0
ACAD_PROXY_OBJECT
  5
10BE
102
{ACAD_REACTORS
330
C
102
}
330
C
100
AcDbProxyObject
 90
      499
 91
      570
 95
       25
 70
     0
 93
      632
310
3FFFFFFFE00A0281402A12E2E29B2B5B5B2B4AFB9B2B93B32B92E34BA30B6B4AFB9B2B5B5B2B4AE4661483641BA41A441C5C1AFAE73714BBAAE19181898181C191B2E2829A22741632829A127400AA
  0
DICTIONARY
  5
1119
102
{ACAD_REACTORS
330
C
102
}
330
C
100
AcDbDictionary
281
     1
  3
COLORDICT
350
111A
  3
MATERIALDICT
350
111B
  0
DICTIONARY
  5
30
102
{ACAD_REACTORS
330
C
102
}
330
C
100
AcDbDictionary
281
     1
  3
CTABLESTYLE
350
10C9
  3
DIMASSOC
350
1117
  3
HIDETEXT
350
1118
  3
INDEXCTL
350
31
  0
ACAD_PROXY_OBJECT
  5
106F
102
{ACAD_REACTORS
330
C
102
}
330
C
100
AcDbProxyObject
 90
      499
 91
      507
 95
       25
 70
     0
 93
      240
310
4C51A47A0000000000000000000000000000000000000000000000000000
330
1070
330
1071
330
1072
330
1073
330
1074
330
1075
330
1076
330
1077
330
1078
330
1079
330
107A
330
107B
330
107C
330
107D
330
107E
330
107F
330
1080
330
1081
330
1082
330
1083
330
1084
330
1085
330
1086
330
1087
330
1088
330
1089
 94
        0
  0
ACAD_PROXY_OBJECT
  5
1067
102
{ACAD_REACTORS
330
C
102
}
330
C
100
AcDbProxyObject
 90
      499
 91
      534
 95
       25
 70
     0
 93
       34
310
0400004280
  0
ACAD_PROXY_OBJECT
  5
1091
102
{ACAD_REACTORS
330
C
102
}
330
C
100
AcDbProxyObject
 90
      499
 91
      540
 95
       25
 70
     0
 93
      114
310
04000041C080000000000000000000
  0
DICTIONARY
  5
43
102
{ACAD_REACTORS
330
C
102
}
330
C
100
AcDbDictionary
281
     1
  3
AcmBOMDATA
350
44
  3
AcmStdDictionary
350
7A0
  3
AMDTSECTSYM_ARROWCOLOR
350
10B2
  0
ACAD_PROXY_OBJECT
  5
36
102
{ACAD_REACTORS
330
C
102
}
330
C
100
AcDbProxyObject
 90
      499
 91
      510
 95
       25
 70
     0
 93
       50
310
00010040400000
330
0
330
0
330
37
 94
        0
  0
ACAD_PROXY_OBJECT
  5
2F
102
{ACAD_REACTORS
330
C
102
}
330
C
100
AcDbProxyObject
 90
      499
 91
      505
 95
       25
 70
     0
 93
     8740
310
47805055153415645404052D4D5347202D205050413A2020206465736B746F702E6172782046696C6556657273696F6E3A20392E322E302E3401411514925350101461354D1C80B4810DBDB5B585B990810D05390D1531311510B805055153415645404052D4D5347202D205050413A2020206465736B746F702E617278204
310
6696C6556657273696F6E3A20392E322E302E3401415454D05591501014B5354D1C80B481414104E88080819195CDADD1BDC0B985C9E08119A5B1955995C9CDA5BDB8E880E4B8C8B8C0B8D005055153415645408052D4D5347202D205050413A2020206465736B746F702E6172782046696C6556657273696F6E3A20392E32
310
2E302E3401461354D1C80B4810DBDB5B585B990810D05390D1531311510B805055153415645404052D4D5347202D205050413A2020206465736B746F702E6172782046696C6556657273696F6E3A20392E322E302E3401415454D05591501014B5354D1C80B481414104E88080819195CDADD1BDC0B985C9E08119A5B19559
310
95C9CDA5BDB8E880E4B8C8B8C0B8D005045452494D40405184D5347202D20436F6D6D616E642043414E43454C4C45442E01415454D05591501014B5354D1C80B481414104E88080819195CDADD1BDC0B985C9E08119A5B1955995C9CDA5BDB8E880E4B8C8B8C0B8D005055153415645404052D4D5347202D205050413A2020
310
206465736B746F702E6172782046696C6556657273696F6E3A20392E322E302E3401415454D05591501014B5354D1C80B481414104E88080819195CDADD1BDC0B985C9E08119A5B1955995C9CDA5BDB8E880E4B8C8B8C0B8D005055055524745805055153415645404052D4D5347202D205050413A2020206465736B746F70
310
2E6172782046696C6556657273696F6E3A20392E322E302E3401415454D05591501014B5354D1C80B481414104E88080819195CDADD1BDC0B985C9E08119A5B1955995C9CDA5BDB8E880E4B8C8B8C0B8D005055153415645404052D4D5347202D205050413A2020206465736B746F702E6172782046696C6556657273696F6
310
E3A20392E322E302E3401415454D05591501014B5354D1C80B481414104E88080819195CDADD1BDC0B985C9E08119A5B1955995C9CDA5BDB8E880E4B8C8B8C0B8D005055153415645404052D4D5347202D205050413A2020206465736B746F702E6172782046696C6556657273696F6E3A20392E322E302E34014390535115
310
149154D15511109353D1102014213880B4815539113C05084E202D20554E444F014115539113E014115539113E0142541054D51150D312542014151549054D160142541054D51150D3125420141935511511255201419111115112552014151549054D1601411353D591601411693D3D350101461354D1C80B4810DBDB5B58
310
5B990810D05390D1531311510B805055055524745805055153415645404052D4D5347202D205050413A2020206465736B746F702E6172782046696C6556657273696F6E3A20392E322E302E340
  0
ACAD_PROXY_OBJECT
  5
2E
102
{ACAD_REACTORS
330
C
102
}
330
C
100
AcDbProxyObject
 90
      499
 91
      504
 95
       25
 70
     0
 93
      594
310
09000046408000000000000000001354E60000000000000000000000000000000000000000000000000000000000000000000000000000000000000000000000000000000000AAA406AA80
360
33
360
34
360
35
360
37
360
79E
360
79F
360
1068
360
1069
360
106A
360
106B
360
106C
360
106D
360
1070
360
1071
360
1072
360
1073
360
1074
360
1075
360
1076
360
1077
360
1078
360
1079
360
107A
360
107B
360
107C
360
107D
360
107E
360
107F
360
1080
360
1081
360
1082
360
1083
360
1084
360
1085
360
1086
360
1087
360
1088
360
1089
360
1097
360
1098
360
1099
360
109A
360
10A0
360
10A1
360
10A2
360
10A3
360
10A8
360
10A9
360
10AA
360
10AB
360
10AC
360
10AD
360
10CE
 94
        0
  0
ACAD_PROXY_OBJECT
  5
3B
102
{ACAD_REACTORS
330
C
102
}
330
C
100
AcDbProxyObject
 90
      499
 91
      515
 95
       25
 70
     0
 93
       50
310
09000042641280
  0
ACAD_PROXY_OBJECT
  5
32
102
{ACAD_REACTORS
330
C
102
}
330
C
100
AcDbProxyObject
 90
      499
 91
      507
 95
       25
 70
     0
 93
       48
310
903412000000
330
33
330
34
330
35
 94
        0
  0
ACAD_PROXY_OBJECT
  5
79D
102
{ACAD_REACTORS
330
C
102
}
330
C
100
AcDbProxyObject
 90
      499
 91
      507
 95
       25
 70
     0
 93
       48
310
903412000000
330
79E
330
79F
330
10CE
 94
        0
  0
ACAD_PROXY_OBJECT
  5
109C
102
{ACAD_REACTORS
330
C
102
}
330
C
100
AcDbProxyObject
 90
      499
 91
      550
 95
       25
 70
     0
 93
       42
310
000900004040
330
1097
 94
        0
  0
ACAD_PROXY_OBJECT
  5
109B
102
{ACAD_REACTORS
330
C
102
}
330
C
100
AcDbProxyObject
 90
      499
 91
      507
 95
       25
 70
     0
 93
        8
310
AA
  0
ACAD_PROXY_OBJECT
  5
108C
102
{ACAD_REACTORS
330
C
102
}
330
C
100
AcDbProxyObject
 90
      499
 91
      539
 95
       25
 70
     0
 93
       42
310
000100005E80
330
1068
 94
        0
  0
DICTIONARY
  5
3F
102
{ACAD_REACTORS
330
C
102
}
330
C
100
AcDbDictionary
281
     1
  3
AcMgSettings
350
40
  3
AMGLAYCFG
350
47
  0
DICTIONARY
  5
59
102
{ACAD_REACTORS
330
C
102
}
330
C
100
AcDbDictionary
281
     1
  3
DIMENSION
350
AE3
  3
FEA
350
AE4
  3
HATCH (1)
350
AE5
  3
HATCH (2)
350
AE6
  3
SYMBOLS
350
AE7
  0
ACAD_PROXY_OBJECT
  5
1094
102
{ACAD_REACTORS
330
C
102
}
330
C
100
AcDbProxyObject
 90
      499
 91
      543
 95
       25
 70
     0
 93
       34
310
0500004280
  0
ACAD_PROXY_OBJECT
  5
10A4
102
{ACAD_REACTORS
330
C
102
}
330
C
100
AcDbProxyObject
 90
      499
 91
      553
 95
       25
 70
     0
 93
       98
310
0900004E400000000000000000
330
10AB
330
0
330
10AC
330
0
330
0
330
0
330
0
330
0
 94
        0
  0
ACAD_PROXY_OBJECT
  5
109F
102
{ACAD_REACTORS
330
C
102
}
330
C
100
AcDbProxyObject
 90
      499
 91
      507
 95
       25
 70
     0
 93
       56
310
90441600000000
330
10A0
330
10A1
330
10A2
330
10A3
 94
        0
  0
XRECORD
  5
111C
102
{ACAD_REACTORS
330
C
102
}
330
C
100
AcDbXrecord
280
     1
  1
DWGPROPS COOKIE
  2

  3

  4

  6

  7

  8

  9

300
AmdtFileType=82
301
=
302
=
303
=
304
=
305
=
306
=
307
=
308
=
309
=
 40
0.0
 41
2451856.233395394
 42
2455441.087253681
  1

 90
        1
  0
ACAD_PROXY_OBJECT
  5
1095
102
{ACAD_REACTORS
330
C
102
}
330
C
100
AcDbProxyObject
 90
      499
 91
      544
 95
       25
 70
     0
 93
        8
310
05
  0
DICTIONARY
  5
1050
102
{ACAD_REACTORS
330
C
102
}
330
C
100
AcDbDictionary
281
     1
  3
XREC1
350
1051
  0
DICTIONARY
  5
1103
102
{ACAD_REACTORS
330
10CB
102
}
330
10CB
100
AcDbDictionary
281
     1
  0
DICTIONARY
  5
10CC
102
{ACAD_REACTORS
330
10CB
102
}
330
10CB
100
AcDbDictionary
280
     1
281
     1
  0
LAYOUT
  5
22
102
{ACAD_REACTORS
330
1A
102
}
330
1A
100
AcDbPlotSettings
  1

  2
SII LP-2150 (D-SCAN C2)
  4
User118
  6
AM_VIEW1
 40
3.174999952316284
 41
3.174999952316284
 42
3.17498779296875
 43
3.17498779296875
 44
296.9259948730469
 45
419.9889831542969
 46
0.0
 47
0.0
 48
0.0
 49
0.0
140
423.0
141
300.0
142
1.0
143
1.03243210946902
 70
 11952
 72
     1
 73
     1
 74
     4
  7
sei_cad.ctb
 75
     0
147
0.9685866904258728
148
0.0
149
0.0
100
AcDbLayout
  1
Model
 70
     1
 71
     0
 10
0.0
 20
0.0
 11
12.0
 21
9.0
 12
0.0
 22
0.0
 32
0.0
 14
0.0
 24
0.0
 34
0.0
 15
0.0
 25
0.0
 35
0.0
146
0.0
 13
0.0
 23
0.0
 33
0.0
 16
1.0
 26
0.0
 36
0.0
 17
0.0
 27
1.0
 37
0.0
 76
     0
330
1F
  0
LAYOUT
  5
1E
102
{ACAD_REACTORS
330
1A
102
}
330
1A
100
AcDbPlotSettings
  1

  2
SII LP-2150 (D-SCAN C2)
  4

  6

 40
0.0
 41
0.0
 42
0.0
 43
0.0
 44
0.0
 45
0.0
 46
0.0
 47
0.0
 48
0.0
 49
0.0
140
0.0
141
0.0
142
1.0
143
1.0
 70
   688
 72
     0
 73
     0
 74
     5
  7
sei_cad.ctb
 75
    16
147
1.0
148
0.0
149
0.0
100
AcDbLayout
  1
ﾚｲｱｳﾄ1
 70
     1
 71
     1
 10
0.0
 20
0.0
 11
420.0
 21
297.0
 12
0.0
 22
0.0
 32
0.0
 14
1.000000000000000E+20
 24
1.000000000000000E+20
 34
1.000000000000000E+20
 15
-1.000000000000000E+20
 25
-1.000000000000000E+20
 35
-1.000000000000000E+20
146
0.0
 13
0.0
 23
0.0
 33
0.0
 16
1.0
 26
0.0
 36
0.0
 17
0.0
 27
1.0
 37
0.0
 76
     0
330
1B
  0
LAYOUT
  5
26
102
{ACAD_REACTORS
330
1A
102
}
330
1A
100
AcDbPlotSettings
  1

  2
SII LP-2150 (D-SCAN C2)
  4

  6

 40
0.0
 41
0.0
 42
0.0
 43
0.0
 44
0.0
 45
0.0
 46
0.0
 47
0.0
 48
0.0
 49
0.0
140
0.0
141
0.0
142
1.0
143
1.0
 70
   688
 72
     0
 73
     0
 74
     5
  7
sei_cad.ctb
 75
    16
147
1.0
148
0.0
149
0.0
100
AcDbLayout
  1
ﾚｲｱｳﾄ2
 70
     1
 71
     2
 10
0.0
 20
0.0
 11
12.0
 21
9.0
 12
0.0
 22
0.0
 32
0.0
 14
0.0
 24
0.0
 34
0.0
 15
0.0
 25
0.0
 35
0.0
146
0.0
 13
0.0
 23
0.0
 33
0.0
 16
1.0
 26
0.0
 36
0.0
 17
0.0
 27
1.0
 37
0.0
 76
     0
330
23
  0
MLINESTYLE
  5
18
102
{ACAD_REACTORS
330
17
102
}
330
17
100
AcDbMlineStyle
  2
STANDARD
 70
     0
  3

 62
   256
 51
90.0
 52
90.0
 71
     2
 49
0.5
 62
   256
  6
BYLAYER
 49
-0.5
 62
   256
  6
BYLAYER
  0
ACDBPLACEHOLDER
  5
F
102
{ACAD_REACTORS
330
E
102
}
330
E
  0
TABLESTYLE
  5
1058
102
{ACAD_REACTORS
330
1057
102
}
330
1057
100
AcDbTableStyle
  3
Standard
 70
     0
 71
     8
 40
1.5
 41
1.5
280
     0
281
     0
  7
STANDARD
140
4.5
170
     2
 62
     0
 63
     7
283
     0
274
    -2
284
     1
 64
     0
275
    -2
285
     1
 65
     0
276
    -2
286
     1
 66
     0
277
    -2
287
     1
 67
     0
278
    -2
288
     1
 68
     0
279
    -2
289
     1
 69
     0
  7
STANDARD
140
6.0
170
     5
 62
     0
 63
     7
283
     0
274
    -2
284
     1
 64
     0
275
    -2
285
     1
 65
     0
276
    -2
286
     1
 66
     0
277
    -2
287
     1
 67
     0
278
    -2
288
     1
 68
     0
279
    -2
289
     1
 69
     0
  7
STANDARD
140
4.5
170
     5
 62
     0
 63
     7
283
     0
274
    -2
284
     1
 64
     0
275
    -2
285
     1
 65
     0
276
    -2
286
     1
 66
     0
277
    -2
287
     1
 67
     0
278
    -2
288
     1
 68
     0
279
    -2
289
     1
 69
     0
  0
XRECORD
  5
111A
102
{ACAD_REACTORS
330
1119
102
}
330
1119
100
AcDbXrecord
280
     1
340
1056
  0
XRECORD
  5
111B
102
{ACAD_REACTORS
330
1119
102
}
330
1119
100
AcDbXrecord
280
     1
340
1055
  0
DICTIONARYVAR
  5
10C9
102
{ACAD_REACTORS
330
30
102
}
330
30
100
DictionaryVariables
280
     0
  1
STANDARD
  0
DICTIONARYVAR
  5
1117
102
{ACAD_REACTORS
330
30
102
}
330
30
100
DictionaryVariables
280
     0
  1
1
  0
DICTIONARYVAR
  5
1118
102
{ACAD_REACTORS
330
30
102
}
330
30
100
DictionaryVariables
280
     0
  1
0
  0
DICTIONARYVAR
  5
31
102
{ACAD_REACTORS
330
30
102
}
330
30
100
DictionaryVariables
280
     0
  1
1
  0
ACAD_PROXY_OBJECT
  5
44
102
{ACAD_REACTORS
330
43
102
}
330
43
100
AcDbProxyObject
 90
      499
 91
      519
 95
       25
 70
     0
 93
      118
310
405010040CA904C415CD5B075DD058
350
45
 94
        0
  0
DICTIONARY
  5
7A0
102
{ACAD_REACTORS
330
43
102
}
330
43
100
AcDbDictionary
281
     1
  3
JIS
350
7A1
  0
XRECORD
  5
10B2
102
{ACAD_REACTORS
330
43
102
}
330
43
100
AcDbXrecord
280
     1
 90
-1023410169
  0
ACAD_PROXY_OBJECT
  5
33
330
2E
100
AcDbProxyObject
 90
      499
 91
      508
 95
       25
 70
     0
 93
      156
310
00010143D050D351505391D5531054925390D490
330
2E
 94
        0
  0
ACAD_PROXY_OBJECT
  5
34
330
2E
100
AcDbProxyObject
 90
      499
 91
      508
 95
       25
 70
     0
 93
      148
310
000101439050D351531253915054925390D490
330
2E
 94
        0
  0
ACAD_PROXY_OBJECT
  5
35
330
2E
100
AcDbProxyObject
 90
      499
 91
      509
 95
       25
 70
     0
 93
      156
310
000101439050D35154D6535093D314D256915080
330
2E
 94
        0
  0
ACAD_PROXY_OBJECT
  5
37
330
2E
100
AcDbProxyObject
 90
      499
 91
      511
 95
       25
 70
     0
 93
       88
310
000101411093D34C402B00
330
2E
330
0
330
0
 94
        0
  0
ACAD_PROXY_OBJECT
  5
79E
330
2E
100
AcDbProxyObject
 90
      499
 91
      509
 95
       25
 70
     0
 93
      108
310
00010142505351D153D35054D4E0
330
2E
 94
        0
  0
ACAD_PROXY_OBJECT
  5
79F
330
2E
100
AcDbProxyObject
 90
      499
 91
      525
 95
       25
 70
     0
 93
      140
310
00010142105350D55494D511005034A49530
330
2E
 94
        0
  0
ACAD_PROXY_OBJECT
  5
1068
330
2E
100
AcDbProxyObject
 90
      499
 91
      535
 95
       25
 70
     0
 93
      358
310
0001014124FEA55D00507392E322E302E32014124FEA55D00507392E322E302E3240501000041505391D311658
330
2E
330
1069
330
106F
 94
        0
  0
ACAD_PROXY_OBJECT
  5
1069
330
2E
100
AcDbProxyObject
 90
      499
 91
      536
 95
       25
 70
     0
 93
       56
310
000190240E0000
330
2E
330
106A
330
106C
 94
        0
  0
ACAD_PROXY_OBJECT
  5
106A
330
2E
100
AcDbProxyObject
 90
      499
 91
      537
 95
       25
 70
     0
 93
       48
310
0001AA000000
330
2E
330
1E
330
106B
330
0
 94
        0
  0
ACAD_PROXY_OBJECT
  5
106B
330
2E
100
AcDbProxyObject
 90
      499
 91
      538
 95
       25
 70
     0
 93
       28
310
0001AAA0
330
2E
 94
        0
  0
ACAD_PROXY_OBJECT
  5
106C
330
2E
100
AcDbProxyObject
 90
      499
 91
      537
 95
       25
 70
     0
 93
       48
310
0001AA000000
330
2E
330
26
330
106D
330
0
 94
        0
  0
ACAD_PROXY_OBJECT
  5
106D
330
2E
100
AcDbProxyObject
 90
      499
 91
      538
 95
       25
 70
     0
 93
       28
310
0001AAA0
330
2E
 94
        0
  0
ACAD_PROXY_OBJECT
  5
1070
330
2E
100
AcDbProxyObject
 90
      499
 91
      509
 95
       25
 70
     0
 93
      108
310
000101421053521310D05310D010
330
2E
 94
        0
  0
ACAD_PROXY_OBJECT
  5
1071
330
2E
100
AcDbProxyObject
 90
      499
 91
      509
 95
       25
 70
     0
 93
      124
310
00010142905354915554D15112535010
330
2E
 94
        0
  0
ACAD_PROXY_OBJECT
  5
1072
330
2E
100
AcDbProxyObject
 90
      499
 91
      509
 95
       25
 70
     0
 93
      132
310
00010143105354D150D51253D391125360
330
2E
 94
        0
  0
ACAD_PROXY_OBJECT
  5
1073
330
2E
100
AcDbProxyObject
 90
      499
 91
      509
 95
       25
 70
     0
 93
      124
310
00010142905355941093D49111549010
330
2E
 94
        0
  0
ACAD_PROXY_OBJECT
  5
1074
330
2E
100
AcDbProxyObject
 90
      499
 91
      509
 95
       25
 70
     0
 93
      116
310
0001014290535115D1D0D3D313D4A0
330
2E
 94
        0
  0
ACAD_PROXY_OBJECT
  5
1075
330
2E
100
AcDbProxyObject
 90
      499
 91
      509
 95
       25
 70
     0
 93
      148
310
00010143505355925155D49151949154D21010
330
2E
 94
        0
  0
ACAD_PROXY_OBJECT
  5
1076
330
2E
100
AcDbProxyObject
 90
      499
 91
      509
 95
       25
 70
     0
 93
      172
310
00010144105350539393D51154149154D15495915010
330
2E
 94
        0
  0
ACAD_PROXY_OBJECT
  5
1077
330
2E
100
AcDbProxyObject
 90
      499
 91
      509
 95
       25
 70
     0
 93
      172
310
00010144105350555513D11253505494905391D15010
330
2E
 94
        0
  0
ACAD_PROXY_OBJECT
  5
1078
330
2E
100
AcDbProxyObject
 90
      499
 91
      509
 95
       25
 70
     0
 93
      124
310
00010142D05351561514915191125360
330
2E
 94
        0
  0
ACAD_PROXY_OBJECT
  5
1079
330
2E
100
AcDbProxyObject
 90
      499
 91
      509
 95
       25
 70
     0
 93
      132
310
00010142D05355105410539393D5115010
330
2E
 94
        0
  0
ACAD_PROXY_OBJECT
  5
107A
330
2E
100
AcDbProxyObject
 90
      499
 91
      509
 95
       25
 70
     0
 93
      108
310
00010142105350555513D0D31010
330
2E
 94
        0
  0
ACAD_PROXY_OBJECT
  5
107B
330
2E
100
AcDbProxyObject
 90
      499
 91
      509
 95
       25
 70
     0
 93
      108
310
00010142105350D3119150551050
330
2E
 94
        0
  0
ACAD_PROXY_OBJECT
  5
107C
330
2E
100
AcDbProxyObject
 90
      499
 91
      509
 95
       25
 70
     0
 93
      108
310
00010142105350D315925155D3F0
330
2E
 94
        0
  0
ACAD_PROXY_OBJECT
  5
107D
330
2E
100
AcDbProxyObject
 90
      499
 91
      509
 95
       25
 70
     0
 93
      148
310
0001014350535212511156915493D112535010
330
2E
 94
        0
  0
ACAD_PROXY_OBJECT
  5
107E
330
2E
100
AcDbProxyObject
 90
      499
 91
      509
 95
       25
 70
     0
 93
      124
310
00010142905352105510D21254D3D010
330
2E
 94
        0
  0
ACAD_PROXY_OBJECT
  5
107F
330
2E
100
AcDbProxyObject
 90
      499
 91
      509
 95
       25
 70
     0
 93
      148
310
00010143905354D25391D31152105513105660
330
2E
 94
        0
  0
ACAD_PROXY_OBJECT
  5
1080
330
2E
100
AcDbProxyObject
 90
      499
 91
      509
 95
       25
 70
     0
 93
      124
310
00010142D0535115D1D193111254D420
330
2E
 94
        0
  0
ACAD_PROXY_OBJECT
  5
1081
330
2E
100
AcDbProxyObject
 90
      499
 91
      509
 95
       25
 70
     0
 93
      100
310
00010142105350555513D213A0
330
2E
 94
        0
  0
ACAD_PROXY_OBJECT
  5
1082
330
2E
100
AcDbProxyObject
 90
      499
 91
      509
 95
       25
 70
     0
 93
      116
310
000101425053521390D3D553951010
330
2E
 94
        0
  0
ACAD_PROXY_OBJECT
  5
1083
330
2E
100
AcDbProxyObject
 90
      499
 91
      509
 95
       25
 70
     0
 93
      108
310
0001014210535213941493D29010
330
2E
 94
        0
  0
ACAD_PROXY_OBJECT
  5
1084
330
2E
100
AcDbProxyObject
 90
      499
 91
      509
 95
       25
 70
     0
 93
      108
310
0001014210535213951654115070
330
2E
 94
        0
  0
ACAD_PROXY_OBJECT
  5
1085
330
2E
100
AcDbProxyObject
 90
      499
 91
      509
 95
       25
 70
     0
 93
      108
310
000101421053521395925155D0F0
330
2E
 94
        0
  0
ACAD_PROXY_OBJECT
  5
1086
330
2E
100
AcDbProxyObject
 90
      499
 91
      509
 95
       25
 70
     0
 93
      140
310
00010143505354D150D51253D390D3D41660
330
2E
 94
        0
  0
ACAD_PROXY_OBJECT
  5
1087
330
2E
100
AcDbProxyObject
 90
      499
 91
      509
 95
       25
 70
     0
 93
      108
310
00010142105350D3141493D29030
330
2E
 94
        0
  0
ACAD_PROXY_OBJECT
  5
1088
330
2E
100
AcDbProxyObject
 90
      499
 91
      508
 95
       25
 70
     0
 93
      212
310
00010143905350555513D2105510D21493D500000000000002E400
330
2E
 94
        0
  0
ACAD_PROXY_OBJECT
  5
1089
330
2E
100
AcDbProxyObject
 90
      499
 91
      509
 95
       25
 70
     0
 93
      156
310
00010143905350555513D2105510D21111551010
330
2E
 94
        0
  0
ACAD_PROXY_OBJECT
  5
1097
330
2E
100
AcDbProxyObject
 90
      499
 91
      546
 95
       25
 70
     0
 93
      698
310
0001000000009AA6A9AA4051E4D6F6E204175672033302030313A33303A353420323031302028555443290141CE4B8C8B8C0B8C80518576564205365702030312031313A30353A333820323031300141CE4B8C8B8C0B8C80
330
2E
330
1098
330
1099
330
109B
330
0
 94
        0
  0
ACAD_PROXY_OBJECT
  5
1098
330
2E
100
AcDbProxyObject
 90
      499
 91
      547
 95
       25
 70
     0
 93
       70
310
0001AAA80820000000
330
2E
330
1098
330
1098
 94
        0
  0
ACAD_PROXY_OBJECT
  5
1099
330
2E
100
AcDbProxyObject
 90
      499
 91
      548
 95
       25
 70
     0
 93
       48
310
000100000000
330
2E
330
0
330
109A
330
0
330
0
 94
        0
  0
ACAD_PROXY_OBJECT
  5
109A
330
2E
100
AcDbProxyObject
 90
      499
 91
      549
 95
       25
 70
     0
 93
       40
310
000100AAAA
330
2E
330
0
 94
        0
  0
ACAD_PROXY_OBJECT
  5
10A0
330
2E
100
AcDbProxyObject
 90
      499
 91
      525
 95
       25
 70
     0
 93
      180
310
00010143105050D3D35411119390535140504434F4D500
330
2E
 94
        0
  0
ACAD_PROXY_OBJECT
  5
10A1
330
2E
100
AcDbProxyObject
 90
      499
 91
      525
 95
       25
 70
     0
 93
      212
310
0001014390505193D311115491119390535140506466F6C6465720
330
2E
 94
        0
  0
ACAD_PROXY_OBJECT
  5
10A2
330
2E
100
AcDbProxyObject
 90
      499
 91
      525
 95
       25
 70
     0
 93
      180
310
00010143105050539393D1119390535140504284156290
330
2E
 94
        0
  0
ACAD_PROXY_OBJECT
  5
10A3
330
2E
100
AcDbProxyObject
 90
      499
 91
      525
 95
       25
 70
     0
 93
      436
310
00010143905050D3D35415925155D31254D50052295BD96CA0A90B396CA0A894591A496CA0A8DB691A496CA0A89BA96CA0A95E28F95310
330
2E
 94
        0
  0
ACAD_PROXY_OBJECT
  5
10A8
330
2E
100
AcDbProxyObject
 90
      499
 91
      554
 95
       25
 70
     0
 93
       32
310
00010000
330
2E
340
10A5
330
10AA
330
10A5
 94
        0
  0
ACAD_PROXY_OBJECT
  5
10A9
330
2E
100
AcDbProxyObject
 90
      499
 91
      555
 95
       25
 70
     0
 93
       18
310
000180
330
2E
 94
        0
  0
ACAD_PROXY_OBJECT
  5
10AA
330
2E
100
AcDbProxyObject
 90
      499
 91
      556
 95
       25
 70
     0
 93
      186
310
000101431414D093948CCC8C8D4B4D4D1050055401550000
330
2E
330
10A8
330
10A9
 94
        0
  0
ACAD_PROXY_OBJECT
  5
10AB
330
2E
100
AcDbProxyObject
 90
      499
 91
      557
 95
       25
 70
     0
 93
      178
310
000100AAAAAAAE0D7E775359B551A5ABD24E2887730740
330
2E
330
10AA
 94
        0
  0
ACAD_PROXY_OBJECT
  5
10AC
330
2E
100
AcDbProxyObject
 90
      499
 91
      558
 95
       25
 70
     0
 93
      108
310
000190140A000000000000AAAAA0
330
2E
330
10AD
330
10AD
330
10AD
330
10AD
330
10AD
330
0
 94
        0
  0
ACAD_PROXY_OBJECT
  5
10AD
330
2E
100
AcDbProxyObject
 90
      499
 91
      559
 95
       25
 70
     0
 93
       51
310
00010000AAAA80
330
2E
330
10AC
330
10AA
 94
        0
  0
ACAD_PROXY_OBJECT
  5
10CE
330
2E
100
AcDbProxyObject
 90
      499
 91
      509
 95
       25
 70
     0
 93
      148
310
0001014350535311D0D3D313D49353D1115010
330
2E
 94
        0
  0
DICTIONARY
  5
40
102
{ACAD_REACTORS
330
3F
102
}
330
3F
100
AcDbDictionary
281
     1
  3
DWGSETTINGS
350
41
  3
FEM
350
54
  3
Shaft
350
53
  3
TRANSSETTINGS
350
42
  0
ACAD_PROXY_OBJECT
  5
47
102
{ACAD_REACTORS
330
3F
102
}
330
3F
100
AcDbProxyObject
 90
      499
 91
      521
 95
       25
 70
     0
 93
    23232
310
41502491013041105357CC201C00030C011E441013141105357CC603800030C011E441013241105357CCA01400030C011E441013341105357CCE01800030C010D9013441105357CD200C00030C010D9013541105357CD600C00030C010D9013641105357CDA00800030C011E9013741105357CDE01000030C010D901384110
310
5357CE200400030C011E9013941105357CE63F400030C0241102324141505357CC4C201C00030C011E902344141505357CC4C600C00030C010D902495041505357CC4CA01C00030C011E40902304E41505357CC13A01C00030C011E902314E41505357CC53A03800030C011E902324E41505357CC93A01400030C011E90233
310
4E41505357CCD3A01800030C010D902344E41505357CD13A00C00030C010D902354E41505357CD53A00C00030C010D902364E41505357CD93A00800030C011E902374E41505357CDD3A01000030C010D902384E41505357CE13A00400030C011E902394E41505357CE53A3F400030C024110332414E41905357CC4C13A01C0
310
0030C011E90334414E41905357CC4C53A00C00030C010D90349504E41905357CC4C93A01C00030C011E409044B4C494E41505357D0D3200400030C011E42504494E464F42105357D410549151A01000030C010D42D055241484D3541905357D093D4A01C00030C011E425045649455742105357D5925155D4E00400030C011
310
E42D06424548494E4441905357D25395A3F400030C0243505545241494C41505357D514A00C00030C010D4250348494441905357D21251201C00030C011E4250356495341905357D59254E01C00030C011E4250650415244494D42505357D41054911253600C00030C010D4250652454644494D42505357D49151911253601
310
000030C010D425774110531514901348070000C300479034110915312501348000000C0003FFFFFFFD034110921395901398000000C0003FFFFFFFE415092139594D06424548494E448000000C0003FFFFFFFE411093125110234418000000C0003FFFFFFFD03411093D05410234418000000C0003FFFFFFFD03411093D48C
310
9055241484D358010000C30047A411093D48CD055241484D358020000C30047A411093D48D5055241484D358000000C0003FFFFFFFE411093D48DD055241484D3581E0000C30047903411094105410234418000000C0003FFFFFFFD03411094115610234418000000C0003FFFFFFFD034110951112501358000000C0003FFF
310
FFFFD034110D0530C901348000000C0003FFFFFFFE4110D0530CD01348020000C30047A4110D0530D501348070000C30047A4110D0530DD013481E0000C30047A4110D15393901378000000C0003FFFFFFFE4110D15395D01378000000C0003FFFFFFFE4110D312539044B4C494E8000000C0003FFFFFFFE4110D3D38C5013
310
08000000C0003FFFFFFFD034110D3D38C901318000000C0003FFFFFFFD034110D3D38CD01328000000C0003FFFFFFFD034110D3D38D101328000000C0003FFFFFFFD034111115494101348000000C0003FFFFFFFD034111115510501348000000C0003FFFFFFFE4111125051D01358000000C0003FFFFFFFE4111125312501
310
358000000C0003FFFFFFFE411112535410650415244494D8000000C0003FFFFFFFE411112535490652454644494D8000000C0003FFFFFFFE411156135410234418000000C0003FFFFFFFD034111915353901388000000C0003FFFFFFFE415191535413901388030000C3004364151915354D410234418000000C0003FFFFFF
310
FE4151915354D510234418030000C300436415191535593901328000000C0003FFFFFFFE415191535595101328030000C3004364111931055101308000000C0003FFFFFFFD03411194905490234418000000C0003FFFFFFFD034111D49312501358000000C0003FFFFFFFD034111D5931250234418000000C0003FFFFFFFD0
310
34112105510D01388000000C0003FFFFFFFD014112125113901338000000C0003FFFFFFFD034112125115D01338000000C0003FFFFFFFD034112131253901348000000C0003FFFFFFFD01411213D0D3901378000000C0003FFFFFFFE411213D0D5D01378000000C0003FFFFFFFE4112539193D04494E464F8000000C0003FF
310
FFFFFE4113105112501348000000C0003FFFFFFFD034113115051101358000000C0003FFFFFFFE419397D0921395902394E8000000C0003FFFFFFFE419397D0D3D38C502304E8000000C0003FFFFFFFD03419397D0D3D38C902314E8000000C0003FFFFFFFD03419397D0D3D38CD02324E8000000C0003FFFFFFFD03419397
310
D0D3D38D102324E8000000C0003FFFFFFFD03419397D0D15393902374E8000000C0003FFFFFFFE419397D0D15395D02374E8000000C0003FFFFFFFE419397D1125312502354E8000000C0003FFFFFFFE419397D2105510D02384E8000000C0003FFFFFFFD01419397D2125113902334E8000000C0003FFFFFFFD03419397D2
310
125115D02334E8000000C0003FFFFFFFD03419397D3115051102354E8000000C0003FFFFFFFE419397D391D25410349504E8000000C0003FFFFFFFE419397D412105390334414E8000000C0003FFFFFFFE419397D510D3D3902304E8000000C0003FFFFFFFD03419397D5121312502344E8000000C0003FFFFFFFD01419397
310
D5131153902304E8000000C0003FFFFFFFD03419397D516150CD02364E8000000C0003FFFFFFFD03419397D594131250332414E8000000C0003FFFFFFFE411391D25410249508000000C0003FFFFFFFE411410530C9055241484D358010000C30047A411410530CD055241484D358020000C30047A411410530D5055241484
310
D358000000C0003FFFFFFFE411410530DD055241484D3581E0000C30047903411412105390234418000000C0003FFFFFFFE411413D4D3901368070000C30047A419413D4D49151901368050000C30047903411413D4D6101368000000C0003FFFFFFFD03411414D150D0234418000000C0003FFFFFFFD03411490D1D390137
310
8000000C0003FFFFFFFE411490D1D5D01378000000C0003FFFFFFFE4114919112501348000000C0003FFFFFFFD034114945514901348070000C30047903411494D093D01348000000C0003FFFFFFFD034114D09492D01348000000C0003FFFFFFFD014114D0D153901378000000C0003FFFFFFFD034114D150D51013480000
310
00C0003FFFFFFFD014114D15313901378000000C0003FFFFFFFD034114D15315D01378000000C0003FFFFFFFD034114D4D654D01308000000C0003FFFFFFFD034114D51312501348070000C300479034114D6508C501358000000C0003FFFFFFFD034114D6508C901358000000C0003FFFFFFFD034114D6508CD0135802000
310
0C30047A4114D6508D501358070000C300479034114D65353901378000000C0003FFFFFFFD034114D65355D01378000000C0003FFFFFFFD03411510D3D3901308000000C0003FFFFFFFD034115121312501348000000C0003FFFFFFFD01411512550C9055241484D358010000C30047A411512550CD055241484D358020000
310
C30047A411512550D5055241484D358000000C0003FFFFFFFE411512550DD055241484D3581E0000C300479034115131153901308000000C0003FFFFFFFD03415514905253105545241494C8000000C0003FFFFFFFE41151492D3901378000000C0003FFFFFFFD0341151492D5D01378000000C0003FFFFFFFD03411514931
310
2501348000000C0003FFFFFFFD01411516150C501368030000C300436411516150C901368030000C300436411516150CD01368000000C0003FFFFFFFE411516150D501368070000C30047A411516150DD013681E0000C30047A4115925155D04564945578000000C0003FFFFFFFE41159151121034849448000000C0003FFF
310
FFFFD0241159151159035649538000000C0003FFFFFFFD02411594131250232418000000C0003FFFFFFFE4116925690501348000000C0003FFFFFFFD01411354D653501358020000C30047AAAA3F400030C01013F90A4391E41D1E4190D4151E4110D40D0D4091E4051E4791E7F6
340
16
340
16
340
16
340
48
340
16
340
16
340
16
340
49
340
16
340
16
340
49
340
4A
340
16
340
16
340
16
340
16
340
48
340
16
340
16
340
16
340
49
340
16
340
16
340
49
340
4A
340
16
340
4B
340
16
340
16
340
16
340
16
340
16
340
48
340
16
340
16
340
16
340
4C
340
15
340
15
340
15
340
15
340
15
340
15
340
15
340
15
340
15
340
15
340
15
340
15
340
15
340
15
340
15
340
15
340
4D
340
15
340
15
340
15
340
15
340
15
340
15
340
15
340
15
340
15
340
15
340
15
340
15
340
15
340
15
340
15
340
16
340
15
340
15
340
15
340
15
340
15
340
15
340
15
340
15
340
4C
340
15
340
15
340
4D
340
15
340
15
340
15
340
15
340
15
340
15
340
15
340
15
340
15
340
4D
340
15
340
15
340
15
340
4C
340
15
340
15
340
15
340
15
340
15
340
15
340
15
340
15
340
15
340
15
340
15
340
15
340
15
340
15
340
15
340
15
340
15
340
15
340
15
340
4D
340
15
340
15
340
4D
340
15
340
15
340
16
340
15
340
4D
340
15
340
15
340
4C
340
15
340
15
340
16
340
15
340
4D
340
15
340
15
340
15
340
15
340
15
340
15
340
15
340
15
340
15
340
4D
340
15
340
15
340
15
340
15
340
15
340
15
340
15
340
15
340
15
340
15
340
15
340
50
340
16
 94
        0
  0
ACAD_PROXY_OBJECT
  5
AE3
102
{ACAD_REACTORS
330
59
102
}
330
59
100
AcDbProxyObject
 90
      499
 91
      522
 95
       25
 70
     0
 93
      253
310
43D1444494D454E53494F4E2C414D44545F2A5F44494D404A9012A404A9012A0
  0
ACAD_PROXY_OBJECT
  5
AE4
102
{ACAD_REACTORS
330
59
102
}
330
59
100
AcDbProxyObject
 90
      499
 91
      522
 95
       25
 70
     0
 93
      181
310
43D012A42D05357D191504B505357CA9012A404A9012A8
  0
ACAD_PROXY_OBJECT
  5
AE5
102
{ACAD_REACTORS
330
59
102
}
330
59
100
AcDbProxyObject
 90
      499
 91
      522
 95
       25
 70
     0
 93
      133
310
43D054841544348404A9012A404A9012A8
  0
ACAD_PROXY_OBJECT
  5
AE6
102
{ACAD_REACTORS
330
59
102
}
330
59
100
AcDbProxyObject
 90
      499
 91
      522
 95
       25
 70
     0
 93
      549
310
43D044C494E4549CE0B0E138B0A8B4E0B0A8B4E138B105357CE0B105357CE138B0A8B505357CE0B0A8B505357CE139012A404A910494E534552542C5354445041525432448
  0
ACAD_PROXY_OBJECT
  5
AE7
102
{ACAD_REACTORS
330
59
102
}
330
59
100
AcDbProxyObject
 90
      499
 91
      522
 95
       25
 70
     0
 93
      909
310
43D6641434D46434652414D452C41434D444154554D5441524745542C41434D444154554D49442C41434D57454C4453594D2C41434D5355524653594D2C41434D4645415449442C41434D504152545245462C41434D42414C4C4F4F4E2C414D44544544474553594D404A9012A404A9012A8
  0
XRECORD
  5
1051
102
{ACAD_REACTORS
330
1050
102
}
330
1050
100
AcDbXrecord
280
     1
  1
PV
 40
1.0
 50
0.0
 51
0.0
 52
0.0
 53
0.0
  0
ACAD_PROXY_OBJECT
  5
45
102
{ACAD_REACTORS
330
44
102
}
330
44
100
AcDbProxyObject
 90
      499
 91
      520
 95
       25
 70
     0
 93
      157
310
057356C1D77406406AA8FFFFFFFF05DD01009010
330
1F
330
0
330
10AA
 94
        0
  0
ACAD_PROXY_OBJECT
  5
7A1
102
{ACAD_REACTORS
330
7A0
102
}
330
7A0
100
AcDbProxyObject
 90
      499
 91
      526
 95
       25
 70
     0
 93
     2379
310
5DC33333333333309408000000C00040D29254D01640600800030C0200800030C003333333333330940C8121E8720B1B6A9BAB9332A32BC3A29BA3220480A1282C6DA8C868CA6E8C88120286A0B1B6ABB2B63234B733A9BA3220480A1082C6DA92C8A6E8C88120285A0B1B6A230BA3AB6A9BA3220480A1282C6DA849E9AA6E
310
8C88120286A0B1A0B6B3AA34BA3632A9BA3220480A2082DAC8E888CAE8C2D2D8A6F2DAA6E8C88120288A0B6B23A29B2B1BA34B7B729BCB6A9BA3220480A2282DAC8E886CADCE8CAE498D2DCCAA6E8C88120288A0B6B23A2A343932B0B22634B732A9BA3220480A1682DAC8E89CDEE8CAA6E8C88120285A0B1A0B6B3A630BCA
310
9BA3220480A1682C682DACE88D2DAA6E8C88120288A0B1A0B6B3A437B632A1B430B93A29BA3220480C812020
340
7A2
360
7A3
360
7A4
360
7A5
360
7A6
360
7A7
360
7A8
360
10AF
360
10B0
360
10B1
360
10B3
360
10B4
360
10B5
360
10BB
360
10BC
360
10BD
340
0
340
0
 94
        0
  0
ACAD_PROXY_OBJECT
  5
41
102
{ACAD_REACTORS
330
40
102
}
330
40
100
AcDbProxyObject
 90
      499
 91
      518
 95
       25
 70
     0
 93
     2624
310
4050B44574753455454494E4753A0E8482A68AA6A88882A069492A684A1A0A723A0A92920ACA0A8419983E1A1ABE1B1820C868A9C829C8E82A12686AF87260F862666A8321A2A72224A0A50000000000000122020E868A9C889282A682A106260F86460F8666083A1A2A72224A9AA250000000000000042020C868A9C988A9
310
C94000000000000048808321A2A727A32325000000000000012202128698929C82A4A482B282A106260F86460F866608421A624A722AA2CA820A82AC2624A722A1288AE8EAAA68682988A94283A620A9AA27A12520A80982109A82968AAC928AAE9FA04832829A1A0A622830020000419491559254D2505404C1055343414C
310
4541503313A314214D510539110549110540D29254D0954494D455354414D504A01E33C451722B734141D5915494D253D3905414C4D4B8C0C1107B44574753455454494E4753454E447D
  0
ACAD_PROXY_OBJECT
  5
54
102
{ACAD_REACTORS
330
40
102
}
330
40
100
AcDbProxyObject
 90
      499
 91
      518
 95
       25
 70
     0
 93
      411
310
4050346454D21092DCC6E486DECACC942842630BCA3B937BAB820A8320A6AFA322A0A20F688AE8EA68AA8A8929C8EA68A9C88FA0
  0
ACAD_PROXY_OBJECT
  5
53
102
{ACAD_REACTORS
330
40
102
}
330
40
100
AcDbProxyObject
 90
      499
 91
      518
 95
       25
 70
     0
 93
      591
310
40505536861667421292DCE8CAE4E4EAE0E89FC84A634B3B43A2634B732A7E80A1A98D2CED0E898D2DCCAACD2CAEE9FA028229B4B232A7E80A20F688AE8EA68AA8A8929C8EA68A9C88FA
  0
ACAD_PROXY_OBJECT
  5
42
102
{ACAD_REACTORS
330
40
102
}
330
40
100
AcDbProxyObject
 90
      499
 91
      518
 95
       25
 70
     0
 93
      852
310
4050D5452414E5353455454494E4753A2488A482AE929C8EA8A4829CA69882A8929E9C0C00800050D4F524947494E414C4C595F4F4E0600400028529A7AAA921A2A620A723A0A81A52827212AAA0A48AA68AA4AC8A0C0080001107B44574753455454494E4753454E447D0
  0
ACAD_PROXY_OBJECT
  5
7A3
330
7A1
100
AcDbProxyObject
 90
      499
 91
      527
 95
       25
 70
     0
 93
       86
310
5DEA0C80A0280A0280A034
  0
ACAD_PROXY_OBJECT
  5
7A4
330
7A1
100
AcDbProxyObject
 90
      499
 91
      528
 95
       25
 70
     0
 93
      282
310
5DD0E4050140501405014050140501405014050141101405014041000000000000001000
340
7A9
 94
        0
  0
ACAD_PROXY_OBJECT
  5
7A5
330
7A1
100
AcDbProxyObject
 90
      499
 91
      529
 95
       25
 70
     0
 93
      323
310
5DCC199999999999E99F91740501405014050140501405014050140501405014050140501405014040
340
0
 94
        0
  0
ACAD_PROXY_OBJECT
  5
7A6
330
7A1
100
AcDbProxyObject
 90
      499
 91
      530
 95
       25
 70
     0
 93
       10
310
5DC0
  0
ACAD_PROXY_OBJECT
  5
7A7
330
7A1
100
AcDbProxyObject
 90
      499
 91
      531
 95
       25
 70
     0
 93
      257
310
5DE0C16A22A7D90F49F80000000000001081400000000000004204010000618000
340
7AA
340
7AB
 94
        0
  0
ACAD_PROXY_OBJECT
  5
7A8
330
7A1
100
AcDbProxyObject
 90
      499
 91
      532
 95
       25
 70
     0
 93
     5277
310
5DD06411255115350141236025B6901405014069010000000000000910240690120281A8AA2CA0282484A4BE52028120280A032020000000000001220480D202405044E414D454050496BC914F4051C40640A80000000000004E4090193C3D3C4946284953424C414E4B28504152543A4E414D45292C424C4F434B3A4E414D
310
452C504152543A4E414D45293E3C41435F44455343524950544E3E40480A109A82A88AA492829880A091BBD2F7E80A3A80C81D0E27A15AF46E08A81203480901411393D5115014124A363B7D0147501904A0000000000000F902406428F4F1050D7D393D5114F901202832B22A72227A92028366EF6EE06F582028EA0320B4
310
0000000000001F20480C879E9E20A1AFAB27222FA620A122A61F20240506445020000000000000490201C00030C00010180000000000003E400000000000000F901073D3C4954454D3E4050180000000000003E400000000000000F901073D3C4954454D3E40501800000000000034400000000000000D101073D3C4954454
310
D3E40501800000000000034400000000000000D101073D3C4954454D3E405029010000000000000F9000000000000003E4041CF4F125511534F901418F4F1455164F9014060000000000000F9000000000000003E4041CF4F125511534F901800000000000034400000000000000D101073D3C4954454D3E40640400000000
310
0000003E400000000000000F90288800000000000020810000001800120881A068120480A032208521122080D21480D211480A1485214852050000000000003C2FC000000000000F0BF40600800030C0200400030C00CDCCCCCCCCCCEC3F3373333333333B0FC3333333333330940C80D069014090341504901A1999999999
310
9984A040100006180400800061804010000618008098A02808
340
0
340
0
 94
        0
  0
ACAD_PROXY_OBJECT
  5
10AF
330
7A1
100
AcDbProxyObject
 90
      499
 91
      560
 95
       25
 70
     0
 93
     3042
310
5DD9740D29254D064A49535F413342929254D7D512551311505134A49535F42525F5265766973696F6E6C6973744190F4134522028323937783231306D6D2941D29254D7D04D1490E41312028353934783834316D6D2941929254D7D04C50E41332028323937783432306D6D2941929254D7D04CD0F41344C2028323130783
310
239376D6D2941D29254D7D04D1310E41322028343230783539346D6D2941929254D7D04C90F4130202838343178313138396D6D2941929254D7D04C10243129254C82557247A25E4C81050A4A49535F5449544C454143129254C82557247A25E4C81090A4A49535F5449544C45424110E979A97F0838A835883675F42525F4
310
4D29254D7D09497D4995D9A5CDA5BDB9B1A5CDD10E979A97F0838A835883675F54525F44D29254D7D51497D4995D9A5CDA5BDB9B1A5CDD10E979A97F0838A835883675F424C5F44D29254D7D09317D4995D9A5CDA5BDB9B1A5CDD10E979A97F0838A835883675F544C5F44D29254D7D51317D4995D9A5CDA5BDB9B1A5CDD00
  0
ACAD_PROXY_OBJECT
  5
10B0
330
7A1
100
AcDbProxyObject
 90
      499
 91
      561
 95
       25
 70
     0
 93
      898
310
5DC4000000000000124048CF4F11115510525317D3105091530F880A0F11115510525317D05094D4D0D053114F8A50241C9A9999999999B93F26A666666666724FC000000000000E03F400000000000000400000000000000510000000000000024408070000C300000000000000049000
340
16
340
7A2
 94
        0
  0
ACAD_PROXY_OBJECT
  5
10B1
330
7A1
100
AcDbProxyObject
 90
      499
 91
      562
 95
       25
 70
     0
 93
      823
310
5DC0B00000000000002480959E9E29A2A1AA24A7A72FA620A122A62FA324A929AA1F169E29A2A1AA24A7A72FA620A122A62FA620A9AA1F000000000000048803FFFE01C00030C008140380006180000000000000048800000000000000A2000000000000002480
340
118
340
7A2
 94
        0
  0
ACAD_PROXY_OBJECT
  5
10B3
330
7A1
100
AcDbProxyObject
 90
      499
 91
      563
 95
       25
 70
     0
 93
      152
310
5DE8273108AC1C5A0640A3D0A5723F0BD1F200
  0
ACAD_PROXY_OBJECT
  5
10B4
330
7A1
100
AcDbProxyObject
 90
      499
 91
      564
 95
       25
 70
     0
 93
       14
310
5DE0
340
0
 94
        0
  0
ACAD_PROXY_OBJECT
  5
10B5
330
7A1
100
AcDbProxyObject
 90
      499
 91
      565
 95
       25
 70
     0
 93
     6059
310
5DD084050BA4050AA405024050E836583938376838C815B83672031405983D3C486F6C653A6469613E3C696628657175616C28486F6C653A7465726D696E6174696F6E2C223022292C2220905B82B320222C22208368838A838B22293E3C696628657175616C28486F6C653A7465726D696E6174696F6E2C223022292C486F
310
6C653A64657074682C2222293E2C203C486F6C653A63746469613E2082B482AE82E882CC905B82B3203C486F6C653A637464657074683E406901405034050E836583938376838C815B83672031405EF3D3C486F6C653A6374616E676C653E252564202525633C486F6C653A63746469613E208E4D8C8A2C203C69662865717
310
5616C28486F6C653A7461707065642C223022292C22252563222C486F6C653A6E6F6D696E616C202220782022293E3C696628657175616C28486F6C653A7461707065642C223022292C486F6C653A6469612C486F6C653A706974636864657363293E203C696628657175616C28486F6C653A7465726D696E6174696F6E2C2
310
23022292C22905B82B320222C222022293E3C696628657175616C28486F6C653A7465726D696E6174696F6E2C223022292C486F6C653A64657074682C2222293E406901405014050E836583938376838C815B83672031405C73D3C696628657175616C28486F6C653A7461707065642C223022292C22252563222C486F6C65
310
3A6E6F6D696E616C202220782022293E3C696628657175616C28486F6C653A7461707065642C223022292C486F6C653A6469612C486F6C653A706974636864657363293E203C696628657175616C28486F6C653A7465726D696E6174696F6E2C223022292C22905B82B320222C222022293E3C696628657175616C28486F6C
310
653A7465726D696E6174696F6E2C223022292C486F6C653A64657074682C2222293E4069014051E4090E836583938376838C815B83672032405173D3C535444503A444553433E203C535444503A5354443E40690E836583938376838C815B836720314050C3D3C535444503A444553433E40690240515AAABBA120
360
10B9
330
10B9
360
10BA
330
10BA
360
10B8
330
10B8
360
10B7
360
10B6
330
10B7
330
10B6
 94
        0
  0
ACAD_PROXY_OBJECT
  5
10BB
330
7A1
100
AcDbProxyObject
 90
      499
 91
      567
 95
       25
 70
     0
 93
       26
310
5DD02A80
340
47
 94
        0
  0
ACAD_PROXY_OBJECT
  5
10BC
330
7A1
100
AcDbProxyObject
 90
      499
 91
      568
 95
       25
 70
     0
 93
      250
310
5DD020000000000000A1000000000000002440408F0F9023C3E409A0DCFFFF80
340
69
340
0
340
0
340
70
340
71
340
72
340
73
340
74
340
79
340
0
 94
        0
  0
ACAD_PROXY_OBJECT
  5
10BD
330
7A1
100
AcDbProxyObject
 90
      499
 91
      569
 95
       25
 70
     0
 93
    13889
310
5DD1D003FFFFFFFD030300030CCCCCCCCCCCC250200800030C01030300030CCCCCCCCCCCC250200800030C00050C8DC0955782CC838A83588367014ED1D15395149050D3CB1294138B0C0B23702555E0B320E2A0D620D9CB11D15395149055160B095CCB0A11D1539354D1C819D95B991A5B5E880CCC0A78000C0000000000
310
00000000000000000000010CCCCCCCCCCCC250200800030C010CCCCCCCCCCCC250200800030C020143CF4F111959985D5B1D151A5D1B194F8050A8C8A8365815B8375838B014E51D15395149050D3CB1294138B0C0B2322A0D96056E0DD60E2CB11D15395149055160B095CCB0A11D1539354D1C819D95B991A5B5E880CCC4
310
A78000C000000000000000000000000000000010CCCCCCCCCCCC250200800030C010CCCCCCCCCCCC250200800030C020143CF4F111959985D5B1D151A5D1B194F90D44111409034110541D0C4350F4050E44D03449074510F000141232D24D7C053247454E545241434F2C4A504E2C302C8CB4935F2C47454E54524154582C
310
25732C2847454E4D53472067656E64696D7A20312900010104002214000281464500A608E8A9CA8A482869E5894A09C5860591914588E8A9CA8A482A8B0584AE658508E8A9C9AA68E40CECADCC8D2DAF4406452029E9E9E27B934B3B4B71F1E24A31427A91424A9A12620A7259427B934B3B4B7149624A9A12620A7259424B
310
A32B6949496111116111711149F1E24BA32B69F00808200111A000140560052F47454E545241434F2C4A504E2C302C582C47454E54524154582C25732C2847454E4D53472067656E64696D7A20332900010100002054000280AC80A5E8E8A9CA8A482869E5894A09C586058B2588E8A9CA8A482A8B0584AE658508E8A9C9AA
310
68E40CECADCC8D2DAF4406852000202000040E800050152014BD1D15395149050D3CB1294138B0C0B148B11D15395149055160B095CCB0A11D1539354D1C819D95B991A5B5E880D8A400040400008250000A0507A6029823A2A72A2920A1A79625282716181641E99623A2A72A2920AA2C1612B9961423A2A726A9A39033B2
310
B73234B6BD101B948000808180105A000140A0F4C053047454E545241434F2C4A504E2C302C83D32C47454E54524154582C25732C2847454E4D53472067656E64696D7A203829000101010020F400028248704B5F00A668E8A9CA8A482869E5894A09C58605921C12D7C588E8A9CA8A482A8B0584AE658508E8A9C9AA68E40
310
CECADCC8D2DAF440646052000200080043280005048B4B8A69014CD1D15395149050D3CB1294138B0C0B22D2E29A4B11D15395149055160B095CCB0A11D1539354D1C819D95B991A5B5E880C8C4A4000400100086D0000A09196926BE029923A2A72A2920A1A796252827161816465A49AF9623A2A72A2920AA2C1612B9961
310
423A2A726A9A39033B2B73234B6BD10189480A02620202080043E80005048D8096DA014CD1D15395149050D3CB1294138B0C0B236025B68B11D15395149055160B095CCB0A11D1539354D1C819D95B991A5B5E880C4D0A4000404140280D0000A190687072706CD06C5069D06B0029DA3A2A72A2920A1A7962528271618164
310
1A1C1C9C1B341B141A741AC1623A2A72A2920AA2C1612B9961423A2A726A9A39033B2B73234B6BD10189A94800080820050EA000143A322A0D0E0E4E0D9A0D8A0D3A0D60053D47454E545241434F2C4A504E2C302C8C8A8343839383668362834E83582C47454E54524154582C25732C2847454E4D53472067656E64696D7A
310
2031372900010105002274000281464500A628E8A9CA8A482869E5894A09C5860591914588E8A9CA8A482A8B0584AE658508E8A9C9AA68E40CECADCC8D2DAF440626C52000202080044A8000504909497CA014CD1D15395149050D3CB1294138B0C0B242525F28B11D15395149055160B095CCB0A11D1539354D1C819D95B9
310
91A5B5E880C4E4A400040418008A521E000000000000001CA040C00000000000034408080000000000006881010000000000000D102040000000000001A204080000000000003440818000000000000728103000000000000125020600000000004028A040000000000000034408000000000000004881000000000000000D
310
102000000000000001A204000000000000003440818000000000000508143C0000000000000039408180000000000006881030000000000000D102060000000000001A2040C00000000000034408180000000000006881030000000000000E5020600000000000024A040C0000000000805140800000000000000688100000
310
00000000009102000000000000001A2040000000000000034408180000000000006881030000000000000A10284220000000878000002020000008380000020400000081800000208000000828000002028900000000
340
0
340
0
340
0
340
0
340
7A2
340
7A2
 94
        0
  0
ACAD_PROXY_OBJECT
  5
10B9
330
10B5
100
AcDbProxyObject
 90
      499
 91
      566
 95
       25
 70
     0
 93
     1376
310
5DE0143A0D960E4E0DDA0E32056E0D9C80C405983D3C486F6C653A6469613E3C696628657175616C28486F6C653A7465726D696E6174696F6E2C223022292C2220905B82B320222C22208368838A838B22293E3C696628657175616C28486F6C653A7465726D696E6174696F6E2C223022292C486F6C653A64657074682C22
310
22293E2C203C486F6C653A63746469613E2082B482AE82E882CC905B82B3203C486F6C653A637464657074683E
  0
ACAD_PROXY_OBJECT
  5
10BA
330
10B5
100
AcDbProxyObject
 90
      499
 91
      566
 95
       25
 70
     0
 93
     2072
310
5DE0143A0D960E4E0DDA0E32056E0D9C80C405EF3D3C486F6C653A6374616E676C653E252564202525633C486F6C653A63746469613E208E4D8C8A2C203C696628657175616C28486F6C653A7461707065642C223022292C22252563222C486F6C653A6E6F6D696E616C202220782022293E3C696628657175616C28486F6C
310
653A7461707065642C223022292C486F6C653A6469612C486F6C653A706974636864657363293E203C696628657175616C28486F6C653A7465726D696E6174696F6E2C223022292C22905B82B320222C222022293E3C696628657175616C28486F6C653A7465726D696E6174696F6E2C223022292C486F6C653A6465707468
310
2C2222293E
  0
ACAD_PROXY_OBJECT
  5
10B8
330
10B5
100
AcDbProxyObject
 90
      499
 91
      566
 95
       25
 70
     0
 93
     1752
310
5DE0143A0D960E4E0DDA0E32056E0D9C80C405C73D3C696628657175616C28486F6C653A7461707065642C223022292C22252563222C486F6C653A6E6F6D696E616C202220782022293E3C696628657175616C28486F6C653A7461707065642C223022292C486F6C653A6469612C486F6C653A706974636864657363293E20
310
3C696628657175616C28486F6C653A7465726D696E6174696F6E2C223022292C22905B82B320222C222022293E3C696628657175616C28486F6C653A7465726D696E6174696F6E2C223022292C486F6C653A64657074682C2222293E
  0
ACAD_PROXY_OBJECT
  5
10B7
330
10B5
100
AcDbProxyObject
 90
      499
 91
      566
 95
       25
 70
     0
 93
      344
310
5DE0143A0D960E4E0DDA0E32056E0D9C80C805173D3C535444503A444553433E203C535444503A5354443E
  0
ACAD_PROXY_OBJECT
  5
10B6
330
10B5
100
AcDbProxyObject
 90
      499
 91
      566
 95
       25
 70
     0
 93
      256
310
5DE0143A0D960E4E0DDA0E32056E0D9C80C4050C3D3C535444503A444553433E
  0
ENDSEC
  0
EOF
