  0
SECTION
  2
HEADER
  9
$ACADVER
  1
AC1014
  9
$ACADMAINTVER
 70
     0
  9
$DWGCODEPAGE
  3
ANSI_932
  9
$INSBASE
 10
-275.250952
 20
342.890188
 30
0.0
  9
$EXTMIN
 10
-293.617673
 20
350.824489
 30
0.0
  9
$EXTMAX
 10
-19.507496
 20
512.195958
 30
0.0
  9
$LIMMIN
 10
-587.250952
 20
327.890188
  9
$LIMMAX
 10
600.749048
 20
957.890188
  9
$ORTHOMODE
 70
     1
  9
$REGENMODE
 70
     1
  9
$FILLMODE
 70
     1
  9
$QTEXTMODE
 70
     0
  9
$MIRRTEXT
 70
     1
  9
$DRAGMODE
 70
     2
  9
$LTSCALE
 40
5.0
  9
$OSMODE
 70
    45
  9
$ATTMODE
 70
     1
  9
$TEXTSIZE
 40
4.0
  9
$TRACEWID
 40
0.05
  9
$TEXTSTYLE
  7
STANDARD
  9
$CLAYER
  8
外形
  9
$CELTYPE
  6
CONTINUOUS
  9
$CECOLOR
 62
   256
  9
$CELTSCALE
 40
1.0
  9
$DELOBJ
 70
     1
  9
$DISPSILH
 70
     0
  9
$DIMSCALE
 40
1.0
  9
$DIMASZ
 40
2.0
  9
$DIMEXO
 40
1.0
  9
$DIMDLI
 40
8.0
  9
$DIMRND
 40
0.0
  9
$DIMDLE
 40
0.0
  9
$DIMEXE
 40
2.0
  9
$DIMTP
 40
0.0
  9
$DIMTM
 40
0.0
  9
$DIMTXT
 40
3.0
  9
$DIMCEN
 40
-1.0
  9
$DIMTSZ
 40
0.0
  9
$DIMTOL
 70
     0
  9
$DIMLIM
 70
     0
  9
$DIMTIH
 70
     0
  9
$DIMTOH
 70
     0
  9
$DIMSE1
 70
     0
  9
$DIMSE2
 70
     0
  9
$DIMTAD
 70
     1
  9
$DIMZIN
 70
     8
  9
$DIMBLK
  1

  9
$DIMASO
 70
     1
  9
$DIMSHO
 70
     1
  9
$DIMPOST
  1

  9
$DIMAPOST
  1

  9
$DIMALT
 70
     0
  9
$DIMALTD
 70
     2
  9
$DIMALTF
 40
25.4
  9
$DIMLFAC
 40
1.0
  9
$DIMTOFL
 70
     1
  9
$DIMTVP
 40
0.0
  9
$DIMTIX
 70
     0
  9
$DIMSOXD
 70
     0
  9
$DIMSAH
 70
     1
  9
$DIMBLK1
  1
_OPEN
  9
$DIMBLK2
  1
_OPEN
  9
$DIMSTYLE
  2
STANDARD
  9
$DIMCLRD
 70
     1
  9
$DIMCLRE
 70
     1
  9
$DIMCLRT
 70
     3
  9
$DIMTFAC
 40
1.0
  9
$DIMGAP
 40
1.0
  9
$DIMJUST
 70
     0
  9
$DIMSD1
 70
     0
  9
$DIMSD2
 70
     0
  9
$DIMTOLJ
 70
     1
  9
$DIMTZIN
 70
     8
  9
$DIMALTZ
 70
     0
  9
$DIMALTTZ
 70
     0
  9
$DIMFIT
 70
     3
  9
$DIMUPT
 70
     0
  9
$DIMUNIT
 70
     2
  9
$DIMDEC
 70
     3
  9
$DIMTDEC
 70
     3
  9
$DIMALTU
 70
     2
  9
$DIMALTTD
 70
     2
  9
$DIMTXSTY
  7
STANDARD
  9
$DIMAUNIT
 70
     0
  9
$LUNITS
 70
     2
  9
$LUPREC
 70
     0
  9
$SKETCHINC
 40
0.1
  9
$FILLETRAD
 40
2.4
  9
$AUNITS
 70
     0
  9
$AUPREC
 70
     0
  9
$MENU
  1
acad
  9
$ELEVATION
 40
0.0
  9
$PELEVATION
 40
0.0
  9
$THICKNESS
 40
0.0
  9
$LIMCHECK
 70
     0
  9
$BLIPMODE
 70
     0
  9
$CHAMFERA
 40
0.0
  9
$CHAMFERB
 40
0.0
  9
$CHAMFERC
 40
0.0
  9
$CHAMFERD
 40
0.0
  9
$SKPOLY
 70
     0
  9
$TDCREATE
 40
2450751.535399305
  9
$TDUPDATE
 40
2451929.450115740
  9
$TDINDWG
 40
1.2071193287
  9
$TDUSRTIMER
 40
1.2071193287
  9
$USRTIMER
 70
     1
  9
$ANGBASE
 50
0.0
  9
$ANGDIR
 70
     0
  9
$PDMODE
 70
     0
  9
$PDSIZE
 40
0.0
  9
$PLINEWID
 40
0.0
  9
$COORDS
 70
     1
  9
$SPLFRAME
 70
     0
  9
$SPLINETYPE
 70
     5
  9
$SPLINESEGS
 70
     8
  9
$ATTDIA
 70
     0
  9
$ATTREQ
 70
     1
  9
$HANDLING
 70
     1
  9
$HANDSEED
  5
6EB
  9
$SURFTAB1
 70
     6
  9
$SURFTAB2
 70
     6
  9
$SURFTYPE
 70
     6
  9
$SURFU
 70
     6
  9
$SURFV
 70
     6
  9
$UCSNAME
  2

  9
$UCSORG
 10
0.0
 20
0.0
 30
0.0
  9
$UCSXDIR
 10
1.0
 20
0.0
 30
0.0
  9
$UCSYDIR
 10
0.0
 20
1.0
 30
0.0
  9
$PUCSNAME
  2

  9
$PUCSORG
 10
0.0
 20
0.0
 30
0.0
  9
$PUCSXDIR
 10
1.0
 20
0.0
 30
0.0
  9
$PUCSYDIR
 10
0.0
 20
1.0
 30
0.0
  9
$USERI1
 70
     0
  9
$USERI2
 70
     0
  9
$USERI3
 70
     0
  9
$USERI4
 70
     0
  9
$USERI5
 70
     0
  9
$USERR1
 40
0.0
  9
$USERR2
 40
0.0
  9
$USERR3
 40
0.0
  9
$USERR4
 40
0.0
  9
$USERR5
 40
0.0
  9
$WORLDVIEW
 70
     1
  9
$SHADEDGE
 70
     3
  9
$SHADEDIF
 70
    70
  9
$TILEMODE
 70
     1
  9
$MAXACTVP
 70
    16
  9
$PINSBASE
 10
0.0
 20
0.0
 30
0.0
  9
$PLIMCHECK
 70
     0
  9
$PEXTMIN
 10
1.000000E+20
 20
1.000000E+20
 30
1.000000E+20
  9
$PEXTMAX
 10
-1.000000E+20
 20
-1.000000E+20
 30
-1.000000E+20
  9
$PLIMMIN
 10
0.0
 20
0.0
  9
$PLIMMAX
 10
12.0
 20
9.0
  9
$UNITMODE
 70
     0
  9
$VISRETAIN
 70
     0
  9
$PLINEGEN
 70
     0
  9
$PSLTSCALE
 70
     1
  9
$TREEDEPTH
 70
  3020
  9
$PICKSTYLE
 70
     1
  9
$CMLSTYLE
  2
STANDARD
  9
$CMLJUST
 70
     0
  9
$CMLSCALE
 40
1.0
  9
$PROXYGRAPHICS
 70
     1
  9
$MEASUREMENT
 70
     0
  0
ENDSEC
  0
SECTION
  2
CLASSES
  0
CLASS
  1
LWPOLYLINE
  2
AcDbPolyline
  3
"AutoCAD"
 90
        0
280
     0
281
     1
  0
CLASS
  1
ACDBDICTIONARYWDFLT
  2
AcDbDictionaryWithDefault
  3
AutoCAD 2000
 90
        0
280
     1
281
     0
  0
CLASS
  1
ACDBPLACEHOLDER
  2
AcDbPlaceHolder
  3
AutoCAD 2000
 90
        0
280
     1
281
     0
  0
CLASS
  1
LAYOUT
  2
AcDbLayout
  3
AutoCAD 2000
 90
        0
280
     1
281
     0
  0
CLASS
  1
LONG_TRANSACTION
  2
AcDbLongTransaction
  3
AutoCAD 2000
 90
        0
280
     1
281
     0
  0
CLASS
  1
LWPOLYLINE
  2
AcDbPolyline
  3
"AutoCAD"
 90
        0
280
     0
281
     1
  0
CLASS
  1
HATCH
  2
AcDbHatch
  3
"ACAD_SEDONA"
 90
        0
280
     0
281
     1
  0
CLASS
  1
XRECORD
  2
AcDbXrecord
  3
"<Built In>"
 90
        0
280
     0
281
     0
  0
ENDSEC
  0
SECTION
  2
TABLES
  0
TABLE
  2
VPORT
  5
16
100
AcDbSymbolTable
 70
     1
  0
VPORT
  5
6E6
100
AcDbSymbolTableRecord
100
AcDbViewportTableRecord
  2
*ACTIVE
 70
     0
 10
0.0
 20
0.0
 11
1.0
 21
1.0
 12
-145.879505
 22
436.770789
 13
0.0
 23
0.0
 14
0.05
 24
0.05
 15
10.0
 25
10.0
 16
0.0
 26
0.0
 36
1.0
 17
0.0
 27
0.0
 37
0.0
 40
186.013448
 41
1.710425
 42
50.0
 43
0.0
 44
0.0
 50
0.0
 51
0.0
 71
     0
 72
   100
 73
     1
 74
     1
 75
     0
 76
     0
 77
     0
 78
     0
  0
ENDTAB
  0
TABLE
  2
LTYPE
  5
11
100
AcDbSymbolTable
 70
     1
  0
LTYPE
  5
12
100
AcDbSymbolTableRecord
100
AcDbLinetypeTableRecord
  2
BYBLOCK
 70
     0
  3

 72
    65
 73
     0
 40
0.0
  0
LTYPE
  5
13
100
AcDbSymbolTableRecord
100
AcDbLinetypeTableRecord
  2
BYLAYER
 70
     0
  3

 72
    65
 73
     0
 40
0.0
  0
LTYPE
  5
7
100
AcDbSymbolTableRecord
100
AcDbLinetypeTableRecord
  2
CONTINUOUS
 70
     0
  3
Solid line
 72
    65
 73
     0
 40
0.0
  0
ENDTAB
  0
TABLE
  2
LAYER
  5
E
100
AcDbSymbolTable
 70
     4
  0
LAYER
  5
6
100
AcDbSymbolTableRecord
100
AcDbLayerTableRecord
  2
0
 70
     0
 62
     7
  6
CONTINUOUS
  0
LAYER
  5
1F
100
AcDbSymbolTableRecord
100
AcDbLayerTableRecord
  2
外形
 70
     0
 62
     3
  6
CONTINUOUS
  0
LAYER
  5
34
102
{ACAD_XDICTIONARY
360
35
102
}
100
AcDbSymbolTableRecord
100
AcDbLayerTableRecord
  2
DEFPOINTS
 70
     0
 62
     7
  6
CONTINUOUS
  0
LAYER
  5
6F
100
AcDbSymbolTableRecord
100
AcDbLayerTableRecord
  2
寸法
 70
     0
 62
     1
  6
CONTINUOUS
  0
ENDTAB
  0
TABLE
  2
STYLE
  5
F
100
AcDbSymbolTable
 70
     1
  0
STYLE
  5
10
100
AcDbSymbolTableRecord
100
AcDbTextStyleTableRecord
  2
STANDARD
 70
     0
 40
0.0
 41
1.0
 50
0.0
 71
     0
 42
4.0
  3
MONOTXT
  4
BIGFONT
  0
ENDTAB
  0
TABLE
  2
VIEW
  5
14
100
AcDbSymbolTable
 70
     0
  0
ENDTAB
  0
TABLE
  2
UCS
  5
15
100
AcDbSymbolTable
 70
     0
  0
ENDTAB
  0
TABLE
  2
APPID
  5
18
100
AcDbSymbolTable
 70
     1
  0
APPID
  5
19
100
AcDbSymbolTableRecord
100
AcDbRegAppTableRecord
  2
ACAD
 70
     0
  0
ENDTAB
  0
TABLE
  2
DIMSTYLE
  5
1A
100
AcDbSymbolTable
 70
     1
  0
DIMSTYLE
105
21
102
{ACAD_XDICTIONARY
360
22
102
}
102
{ACAD_REACTORS
330
6E
330
25
330
3D
330
99
330
85
330
5C
330
B9
330
4C
330
58B
102
}
100
AcDbSymbolTableRecord
100
AcDbDimStyleTableRecord
  2
STANDARD
 70
     0
  3

  4

  5

  6
_OPEN
  7
_OPEN
 40
1.0
 41
2.0
 42
1.0
 43
8.0
 44
2.0
 45
0.0
 46
0.0
 47
0.0
 48
0.0
140
3.0
141
-1.0
142
0.0
143
25.4
144
1.0
145
0.0
146
1.0
147
1.0
 71
     0
 72
     0
 73
     0
 74
     0
 75
     0
 76
     0
 77
     1
 78
     8
170
     0
171
     2
172
     1
173
     1
174
     0
175
     0
176
     1
177
     1
178
     3
270
     2
271
     3
272
     3
273
     2
274
     2
340
10
275
     0
280
     0
281
     0
282
     0
283
     1
284
     8
285
     0
286
     0
287
     3
288
     0
  0
ENDTAB
  0
TABLE
  2
BLOCK_RECORD
  5
1
100
AcDbSymbolTable
 70
    19
  0
BLOCK_RECORD
  5
2
102
{ACAD_XDICTIONARY
360
3
102
}
100
AcDbSymbolTableRecord
100
AcDbBlockTableRecord
  2
*MODEL_SPACE
  0
BLOCK_RECORD
  5
9
102
{ACAD_XDICTIONARY
360
A
102
}
100
AcDbSymbolTableRecord
100
AcDbBlockTableRecord
  2
*PAPER_SPACE
  0
BLOCK_RECORD
  5
2B
100
AcDbSymbolTableRecord
100
AcDbBlockTableRecord
  2
_OPEN30
  0
BLOCK_RECORD
  5
1D7
100
AcDbSymbolTableRecord
100
AcDbBlockTableRecord
  2
_OPEN
  0
BLOCK_RECORD
  5
3B0
100
AcDbSymbolTableRecord
100
AcDbBlockTableRecord
  2
*D2
  0
BLOCK_RECORD
  5
3BC
100
AcDbSymbolTableRecord
100
AcDbBlockTableRecord
  2
*D3
  0
BLOCK_RECORD
  5
3C8
100
AcDbSymbolTableRecord
100
AcDbBlockTableRecord
  2
*D4
  0
BLOCK_RECORD
  5
3D4
100
AcDbSymbolTableRecord
100
AcDbBlockTableRecord
  2
*D5
  0
BLOCK_RECORD
  5
3E0
100
AcDbSymbolTableRecord
100
AcDbBlockTableRecord
  2
*D6
  0
BLOCK_RECORD
  5
3F2
100
AcDbSymbolTableRecord
100
AcDbBlockTableRecord
  2
*D7
  0
BLOCK_RECORD
  5
3FE
100
AcDbSymbolTableRecord
100
AcDbBlockTableRecord
  2
*D8
  0
BLOCK_RECORD
  5
40B
100
AcDbSymbolTableRecord
100
AcDbBlockTableRecord
  2
*D9
  0
BLOCK_RECORD
  5
579
100
AcDbSymbolTableRecord
100
AcDbBlockTableRecord
  2
*D15
  0
ENDTAB
  0
ENDSEC
  0
SECTION
  2
BLOCKS
  0
BLOCK
  5
5
100
AcDbEntity
  8
0
100
AcDbBlockBegin
  2
*MODEL_SPACE
 70
     0
 10
0.0
 20
0.0
 30
0.0
  3
*MODEL_SPACE
  1

  0
ENDBLK
  5
8
100
AcDbEntity
  8
0
100
AcDbBlockEnd
  0
BLOCK
  5
C
100
AcDbEntity
 67
     1
  8
0
100
AcDbBlockBegin
  2
*PAPER_SPACE
 70
     0
 10
0.0
 20
0.0
 30
0.0
  3
*PAPER_SPACE
  1

  0
ENDBLK
  5
D
100
AcDbEntity
 67
     1
  8
0
100
AcDbBlockEnd
  0
BLOCK
  5
2F
100
AcDbEntity
  8
0
100
AcDbBlockBegin
  2
_OPEN30
 70
     0
 10
0.0
 20
0.0
 30
0.0
  3
_OPEN30
  1

  0
LINE
  5
2C
100
AcDbEntity
  8
0
  6
BYBLOCK
 62
     0
100
AcDbLine
 10
-1.0
 20
0.267949
 30
0.0
 11
0.0
 21
0.0
 31
0.0
  0
LINE
  5
2D
100
AcDbEntity
  8
0
  6
BYBLOCK
 62
     0
100
AcDbLine
 10
0.0
 20
0.0
 30
0.0
 11
-1.0
 21
-0.267949
 31
0.0
  0
LINE
  5
2E
100
AcDbEntity
  8
0
  6
BYBLOCK
 62
     0
100
AcDbLine
 10
0.0
 20
0.0
 30
0.0
 11
-1.0
 21
0.0
 31
0.0
  0
ENDBLK
  5
30
100
AcDbEntity
  8
0
100
AcDbBlockEnd
  0
BLOCK
  5
1DB
100
AcDbEntity
  8
0
100
AcDbBlockBegin
  2
_OPEN
 70
     0
 10
0.0
 20
0.0
 30
0.0
  3
_OPEN
  1

  0
LINE
  5
1D8
100
AcDbEntity
  8
0
  6
BYBLOCK
 62
     0
100
AcDbLine
 10
-1.0
 20
0.166667
 30
0.0
 11
0.0
 21
0.0
 31
0.0
  0
LINE
  5
1D9
100
AcDbEntity
  8
0
  6
BYBLOCK
 62
     0
100
AcDbLine
 10
0.0
 20
0.0
 30
0.0
 11
-1.0
 21
-0.166667
 31
0.0
  0
LINE
  5
1DA
100
AcDbEntity
  8
0
  6
BYBLOCK
 62
     0
100
AcDbLine
 10
0.0
 20
0.0
 30
0.0
 11
-1.0
 21
0.0
 31
0.0
  0
ENDBLK
  5
1DC
100
AcDbEntity
  8
0
100
AcDbBlockEnd
  0
BLOCK
  5
5FF
100
AcDbEntity
  8
0
100
AcDbBlockBegin
  2
*D2
 70
     1
 10
0.0
 20
0.0
 30
0.0
  3
*D2
  1

  0
LINE
  5
600
100
AcDbEntity
  8
0
  6
BYBLOCK
 62
     1
100
AcDbLine
 10
-34.820647
 20
373.913427
 30
0.0
 11
-20.488869
 21
373.913427
 31
0.0
  0
LINE
  5
601
100
AcDbEntity
  8
0
  6
BYBLOCK
 62
     1
100
AcDbLine
 10
-34.820647
 20
405.913427
 30
0.0
 11
-20.488869
 21
405.913427
 31
0.0
  0
LINE
  5
602
100
AcDbEntity
  8
0
  6
BYBLOCK
 62
     1
100
AcDbLine
 10
-22.488869
 20
375.913427
 30
0.0
 11
-22.488869
 21
403.913427
 31
0.0
  0
INSERT
  5
603
100
AcDbEntity
  8
0
  6
BYBLOCK
 62
     1
100
AcDbBlockReference
  2
_OPEN
 10
-22.488869
 20
373.913427
 30
0.0
 41
2.0
 42
2.0
 43
2.0
 50
270.0
  0
INSERT
  5
604
100
AcDbEntity
  8
0
  6
BYBLOCK
 62
     1
100
AcDbBlockReference
  2
_OPEN
 10
-22.488869
 20
405.913427
 30
0.0
 41
2.0
 42
2.0
 43
2.0
 50
90.0
  0
MTEXT
  5
605
100
AcDbEntity
  8
0
  6
BYBLOCK
 62
     3
100
AcDbMText
 10
-24.988869
 20
389.913427
 30
0.0
 40
3.0
 41
0.0
 71
     5
 72
     1
  1
\A1;32
 11
0.0
 21
1.0
 31
0.0
  0
POINT
  5
606
100
AcDbEntity
  8
DEFPOINTS
  6
BYBLOCK
 62
     0
100
AcDbPoint
 10
-35.820647
 20
373.913427
 30
0.0
  0
POINT
  5
607
100
AcDbEntity
  8
DEFPOINTS
  6
BYBLOCK
 62
     0
100
AcDbPoint
 10
-35.820647
 20
405.913427
 30
0.0
  0
POINT
  5
608
100
AcDbEntity
  8
DEFPOINTS
  6
BYBLOCK
 62
     0
100
AcDbPoint
 10
-22.488869
 20
405.913427
 30
0.0
  0
ENDBLK
  5
609
100
AcDbEntity
  8
0
100
AcDbBlockEnd
  0
BLOCK
  5
60A
100
AcDbEntity
  8
0
100
AcDbBlockBegin
  2
*D3
 70
     1
 10
0.0
 20
0.0
 30
0.0
  3
*D3
  1

  0
LINE
  5
60B
100
AcDbEntity
  8
0
  6
BYBLOCK
 62
     1
100
AcDbLine
 10
-205.738399
 20
373.913427
 30
0.0
 11
-218.68863
 21
373.913427
 31
0.0
  0
LINE
  5
60C
100
AcDbEntity
  8
0
  6
BYBLOCK
 62
     1
100
AcDbLine
 10
-206.988399
 20
405.913427
 30
0.0
 11
-218.68863
 21
405.913427
 31
0.0
  0
LINE
  5
60D
100
AcDbEntity
  8
0
  6
BYBLOCK
 62
     1
100
AcDbLine
 10
-216.68863
 20
375.913427
 30
0.0
 11
-216.68863
 21
403.913427
 31
0.0
  0
INSERT
  5
60E
100
AcDbEntity
  8
0
  6
BYBLOCK
 62
     1
100
AcDbBlockReference
  2
_OPEN
 10
-216.68863
 20
373.913427
 30
0.0
 41
2.0
 42
2.0
 43
2.0
 50
270.0
  0
INSERT
  5
60F
100
AcDbEntity
  8
0
  6
BYBLOCK
 62
     1
100
AcDbBlockReference
  2
_OPEN
 10
-216.68863
 20
405.913427
 30
0.0
 41
2.0
 42
2.0
 43
2.0
 50
90.0
  0
MTEXT
  5
610
100
AcDbEntity
  8
0
  6
BYBLOCK
 62
     3
100
AcDbMText
 10
-219.18863
 20
389.913427
 30
0.0
 40
3.0
 41
0.0
 71
     5
 72
     1
  1
\A1;32
 11
0.0
 21
1.0
 31
0.0
  0
POINT
  5
611
100
AcDbEntity
  8
DEFPOINTS
  6
BYBLOCK
 62
     0
100
AcDbPoint
 10
-204.738399
 20
373.913427
 30
0.0
  0
POINT
  5
612
100
AcDbEntity
  8
DEFPOINTS
  6
BYBLOCK
 62
     0
100
AcDbPoint
 10
-205.988399
 20
405.913427
 30
0.0
  0
POINT
  5
613
100
AcDbEntity
  8
DEFPOINTS
  6
BYBLOCK
 62
     0
100
AcDbPoint
 10
-216.68863
 20
405.913427
 30
0.0
  0
ENDBLK
  5
614
100
AcDbEntity
  8
0
100
AcDbBlockEnd
  0
BLOCK
  5
615
100
AcDbEntity
  8
0
100
AcDbBlockBegin
  2
*D4
 70
     1
 10
0.0
 20
0.0
 30
0.0
  3
*D4
  1

  0
LINE
  5
616
100
AcDbEntity
  8
0
  6
BYBLOCK
 62
     1
100
AcDbLine
 10
-205.988399
 20
466.26323
 30
0.0
 11
-205.988399
 21
437.163338
 31
0.0
  0
LINE
  5
617
100
AcDbEntity
  8
0
  6
BYBLOCK
 62
     1
100
AcDbLine
 10
-35.988399
 20
461.26323
 30
0.0
 11
-35.988399
 21
437.163338
 31
0.0
  0
LINE
  5
618
100
AcDbEntity
  8
0
  6
BYBLOCK
 62
     1
100
AcDbLine
 10
-203.988399
 20
439.163338
 30
0.0
 11
-37.988399
 21
439.163338
 31
0.0
  0
INSERT
  5
619
100
AcDbEntity
  8
0
  6
BYBLOCK
 62
     1
100
AcDbBlockReference
  2
_OPEN
 10
-205.988399
 20
439.163338
 30
0.0
 41
2.0
 42
2.0
 43
2.0
 50
180.0
  0
INSERT
  5
61A
100
AcDbEntity
  8
0
  6
BYBLOCK
 62
     1
100
AcDbBlockReference
  2
_OPEN
 10
-35.988399
 20
439.163338
 30
0.0
 41
2.0
 42
2.0
 43
2.0
  0
MTEXT
  5
61B
100
AcDbEntity
  8
0
  6
BYBLOCK
 62
     3
100
AcDbMText
 10
-120.988399
 20
441.663338
 30
0.0
 40
3.0
 41
0.0
 71
     5
 72
     1
  1
\A1;170
  0
POINT
  5
61C
100
AcDbEntity
  8
DEFPOINTS
  6
BYBLOCK
 62
     0
100
AcDbPoint
 10
-205.988399
 20
467.26323
 30
0.0
  0
POINT
  5
61D
100
AcDbEntity
  8
DEFPOINTS
  6
BYBLOCK
 62
     0
100
AcDbPoint
 10
-35.988399
 20
462.26323
 30
0.0
  0
POINT
  5
61E
100
AcDbEntity
  8
DEFPOINTS
  6
BYBLOCK
 62
     0
100
AcDbPoint
 10
-35.988399
 20
439.163338
 30
0.0
  0
ENDBLK
  5
61F
100
AcDbEntity
  8
0
100
AcDbBlockEnd
  0
BLOCK
  5
620
100
AcDbEntity
  8
0
100
AcDbBlockBegin
  2
*D5
 70
     1
 10
0.0
 20
0.0
 30
0.0
  3
*D5
  1

  0
LINE
  5
621
100
AcDbEntity
  8
0
  6
BYBLOCK
 62
     1
100
AcDbLine
 10
-206.988399
 20
467.26323
 30
0.0
 11
-218.68863
 21
467.26323
 31
0.0
  0
LINE
  5
622
100
AcDbEntity
  8
0
  6
BYBLOCK
 62
     1
100
AcDbLine
 10
-198.459676
 20
494.26323
 30
0.0
 11
-218.68863
 21
494.26323
 31
0.0
  0
LINE
  5
623
100
AcDbEntity
  8
0
  6
BYBLOCK
 62
     1
100
AcDbLine
 10
-216.68863
 20
469.26323
 30
0.0
 11
-216.68863
 21
492.26323
 31
0.0
  0
INSERT
  5
624
100
AcDbEntity
  8
0
  6
BYBLOCK
 62
     1
100
AcDbBlockReference
  2
_OPEN
 10
-216.68863
 20
467.26323
 30
0.0
 41
2.0
 42
2.0
 43
2.0
 50
270.0
  0
INSERT
  5
625
100
AcDbEntity
  8
0
  6
BYBLOCK
 62
     1
100
AcDbBlockReference
  2
_OPEN
 10
-216.68863
 20
494.26323
 30
0.0
 41
2.0
 42
2.0
 43
2.0
 50
90.0
  0
MTEXT
  5
626
100
AcDbEntity
  8
0
  6
BYBLOCK
 62
     3
100
AcDbMText
 10
-219.18863
 20
480.76323
 30
0.0
 40
3.0
 41
0.0
 71
     5
 72
     1
  1
\A1;27
 11
0.0
 21
1.0
 31
0.0
  0
POINT
  5
627
100
AcDbEntity
  8
DEFPOINTS
  6
BYBLOCK
 62
     0
100
AcDbPoint
 10
-205.988399
 20
467.26323
 30
0.0
  0
POINT
  5
628
100
AcDbEntity
  8
DEFPOINTS
  6
BYBLOCK
 62
     0
100
AcDbPoint
 10
-197.459676
 20
494.26323
 30
0.0
  0
POINT
  5
629
100
AcDbEntity
  8
DEFPOINTS
  6
BYBLOCK
 62
     0
100
AcDbPoint
 10
-216.68863
 20
494.26323
 30
0.0
  0
ENDBLK
  5
62A
100
AcDbEntity
  8
0
100
AcDbBlockEnd
  0
BLOCK
  5
62B
100
AcDbEntity
  8
0
100
AcDbBlockBegin
  2
*D6
 70
     1
 10
0.0
 20
0.0
 30
0.0
  3
*D6
  1

  0
LINE
  5
62C
100
AcDbEntity
  8
0
  6
BYBLOCK
 62
     1
100
AcDbLine
 10
-239.95468
 20
475.313534
 30
0.0
 11
-245.644266
 21
460.491655
 31
0.0
  0
LINE
  5
62D
100
AcDbEntity
  8
0
  6
BYBLOCK
 62
     1
100
AcDbLine
 10
-239.775531
 20
475.281189
 30
0.0
 11
-243.891016
 21
459.921989
 31
0.0
  0
ARC
  5
62E
100
AcDbEntity
  8
0
  6
BYBLOCK
 62
     1
100
AcDbCircle
 10
-239.332708
 20
476.933825
 30
0.0
 40
15.611949
100
AcDbArc
 50
234.279566
 51
249.0
  0
LINE
  5
62F
100
AcDbEntity
  8
0
  6
BYBLOCK
 62
     1
100
AcDbLine
 10
-248.447445
 20
464.258869
 30
0.0
 11
-255.429573
 21
469.279814
 31
0.0
  0
ARC
  5
630
100
AcDbEntity
  8
0
  6
BYBLOCK
 62
     1
100
AcDbCircle
 10
-239.332708
 20
476.933825
 30
0.0
 40
15.611949
100
AcDbArc
 50
234.309961
 51
241.654981
  0
ARC
  5
631
100
AcDbEntity
  8
0
  6
BYBLOCK
 62
     1
100
AcDbCircle
 10
-239.332708
 20
476.933825
 30
0.0
 40
15.611949
100
AcDbArc
 50
262.345019
 51
269.690039
  0
ARC
  5
632
100
AcDbEntity
  8
0
  6
BYBLOCK
 62
     1
100
AcDbCircle
 10
-239.332708
 20
476.933825
 30
0.0
 40
15.611949
100
AcDbArc
 50
249.0
 51
255.0
  0
INSERT
  5
633
100
AcDbEntity
  8
0
  6
BYBLOCK
 62
     1
100
AcDbBlockReference
  2
_OPEN
 10
-244.92753
 20
462.358815
 30
0.0
 41
2.0
 42
2.0
 43
2.0
 50
335.32749
  0
INSERT
  5
634
100
AcDbEntity
  8
0
  6
BYBLOCK
 62
     1
100
AcDbBlockReference
  2
_OPEN
 10
-243.373378
 20
461.853841
 30
0.0
 41
2.0
 42
2.0
 43
2.0
 50
168.67251
  0
MTEXT
  5
635
100
AcDbEntity
  8
0
  6
BYBLOCK
 62
     3
100
AcDbMText
 10
-250.478932
 20
468.79903
 30
0.0
 40
3.0
 41
0.0
 71
     5
 72
     1
  1
\A1;6°
 11
0.811875
 21
-0.583831
 31
0.0
  0
POINT
  5
636
100
AcDbEntity
  8
DEFPOINTS
  6
BYBLOCK
 62
     0
100
AcDbPoint
 10
-243.8972
 20
462.004044
 30
0.0
  0
POINT
  5
637
100
AcDbEntity
  8
DEFPOINTS
  6
BYBLOCK
 62
     0
100
AcDbPoint
 10
-232.837263
 20
493.855038
 30
0.0
  0
POINT
  5
638
100
AcDbEntity
  8
DEFPOINTS
  6
BYBLOCK
 62
     0
100
AcDbPoint
 10
-237.896262
 20
482.294713
 30
0.0
  0
POINT
  5
639
100
AcDbEntity
  8
DEFPOINTS
  6
BYBLOCK
 62
     0
100
AcDbPoint
 10
-239.516712
 20
476.247114
 30
0.0
  0
POINT
  5
63A
100
AcDbEntity
  8
DEFPOINTS
  6
BYBLOCK
 62
     0
100
AcDbPoint
 10
-239.596312
 20
476.247114
 30
0.0
  0
ENDBLK
  5
63B
100
AcDbEntity
  8
0
100
AcDbBlockEnd
  0
BLOCK
  5
63C
100
AcDbEntity
  8
0
100
AcDbBlockBegin
  2
*D7
 70
     1
 10
0.0
 20
0.0
 30
0.0
  3
*D7
  1

  0
LINE
  5
63D
100
AcDbEntity
  8
0
  6
BYBLOCK
 62
     1
100
AcDbLine
 10
-205.988399
 20
406.913427
 30
0.0
 11
-205.988399
 21
420.755344
 31
0.0
  0
LINE
  5
63E
100
AcDbEntity
  8
0
  6
BYBLOCK
 62
     1
100
AcDbLine
 10
-170.988399
 20
406.913427
 30
0.0
 11
-170.988399
 21
420.755344
 31
0.0
  0
LINE
  5
63F
100
AcDbEntity
  8
0
  6
BYBLOCK
 62
     1
100
AcDbLine
 10
-203.988399
 20
418.755344
 30
0.0
 11
-172.988399
 21
418.755344
 31
0.0
  0
INSERT
  5
640
100
AcDbEntity
  8
0
  6
BYBLOCK
 62
     1
100
AcDbBlockReference
  2
_OPEN
 10
-205.988399
 20
418.755344
 30
0.0
 41
2.0
 42
2.0
 43
2.0
 50
180.0
  0
INSERT
  5
641
100
AcDbEntity
  8
0
  6
BYBLOCK
 62
     1
100
AcDbBlockReference
  2
_OPEN
 10
-170.988399
 20
418.755344
 30
0.0
 41
2.0
 42
2.0
 43
2.0
  0
MTEXT
  5
642
100
AcDbEntity
  8
0
  6
BYBLOCK
 62
     3
100
AcDbMText
 10
-188.488399
 20
421.255344
 30
0.0
 40
3.0
 41
0.0
 71
     5
 72
     1
  1
\A1;35
  0
POINT
  5
643
100
AcDbEntity
  8
DEFPOINTS
  6
BYBLOCK
 62
     0
100
AcDbPoint
 10
-205.988399
 20
405.913427
 30
0.0
  0
POINT
  5
644
100
AcDbEntity
  8
DEFPOINTS
  6
BYBLOCK
 62
     0
100
AcDbPoint
 10
-170.988399
 20
405.913427
 30
0.0
  0
POINT
  5
645
100
AcDbEntity
  8
DEFPOINTS
  6
BYBLOCK
 62
     0
100
AcDbPoint
 10
-170.988399
 20
418.755344
 30
0.0
  0
ENDBLK
  5
646
100
AcDbEntity
  8
0
100
AcDbBlockEnd
  0
BLOCK
  5
647
100
AcDbEntity
  8
0
100
AcDbBlockBegin
  2
*D8
 70
     1
 10
0.0
 20
0.0
 30
0.0
  3
*D8
  1

  0
LINE
  5
648
100
AcDbEntity
  8
0
  6
BYBLOCK
 62
     1
100
AcDbLine
 10
-193.695708
 20
463.969413
 30
0.0
 11
-185.041935
 21
461.650642
 31
0.0
  0
ARC
  5
649
100
AcDbEntity
  8
0
  6
BYBLOCK
 62
     1
100
AcDbCircle
 10
-206.156151
 20
467.308179
 30
0.0
 40
19.859044
100
AcDbArc
 50
275.772687
 51
339.227313
  0
INSERT
  5
64A
100
AcDbEntity
  8
0
  6
BYBLOCK
 62
     1
100
AcDbBlockReference
  2
_OPEN
 10
-206.156151
 20
447.449135
 30
0.0
 41
2.0
 42
2.0
 43
2.0
 50
182.886343
  0
INSERT
  5
64B
100
AcDbEntity
  8
0
  6
BYBLOCK
 62
     1
100
AcDbBlockReference
  2
_OPEN
 10
-186.973787
 20
462.16828
 30
0.0
 41
2.0
 42
2.0
 43
2.0
 50
72.113657
  0
MTEXT
  5
64C
100
AcDbEntity
  8
0
  6
BYBLOCK
 62
     3
100
AcDbMText
 10
-195.588634
 20
453.536323
 30
0.0
 40
3.0
 41
0.0
 71
     5
 72
     1
  1
\A1;75°
 11
0.793353
 21
0.608761
 31
0.0
  0
POINT
  5
64D
100
AcDbEntity
  8
DEFPOINTS
  6
BYBLOCK
 62
     0
100
AcDbPoint
 10
-197.763356
 20
449.309773
 30
0.0
  0
POINT
  5
64E
100
AcDbEntity
  8
DEFPOINTS
  6
BYBLOCK
 62
     0
100
AcDbPoint
 10
-206.156151
 20
467.308179
 30
0.0
  0
POINT
  5
64F
100
AcDbEntity
  8
DEFPOINTS
  6
BYBLOCK
 62
     0
100
AcDbPoint
 10
-205.38341
 20
467.101124
 30
0.0
  0
POINT
  5
650
100
AcDbEntity
  8
DEFPOINTS
  6
BYBLOCK
 62
     0
100
AcDbPoint
 10
-194.661634
 20
464.228233
 30
0.0
  0
POINT
  5
651
100
AcDbEntity
  8
DEFPOINTS
  6
BYBLOCK
 62
     0
100
AcDbPoint
 10
-206.156151
 20
447.449135
 30
0.0
  0
ENDBLK
  5
652
100
AcDbEntity
  8
0
100
AcDbBlockEnd
  0
BLOCK
  5
653
100
AcDbEntity
  8
0
100
AcDbBlockBegin
  2
*D9
 70
     1
 10
0.0
 20
0.0
 30
0.0
  3
*D9
  1

  0
LINE
  5
654
100
AcDbEntity
  8
0
  6
BYBLOCK
 62
     1
100
AcDbLine
 10
-34.988399
 20
494.26323
 30
0.0
 11
-19.507496
 21
494.26323
 31
0.0
  0
LINE
  5
655
100
AcDbEntity
  8
0
  6
BYBLOCK
 62
     1
100
AcDbLine
 10
-34.988399
 20
462.26323
 30
0.0
 11
-19.507496
 21
462.26323
 31
0.0
  0
LINE
  5
656
100
AcDbEntity
  8
0
  6
BYBLOCK
 62
     1
100
AcDbLine
 10
-21.507496
 20
492.26323
 30
0.0
 11
-21.507496
 21
464.26323
 31
0.0
  0
INSERT
  5
657
100
AcDbEntity
  8
0
  6
BYBLOCK
 62
     1
100
AcDbBlockReference
  2
_OPEN
 10
-21.507496
 20
494.26323
 30
0.0
 41
2.0
 42
2.0
 43
2.0
 50
90.0
  0
INSERT
  5
658
100
AcDbEntity
  8
0
  6
BYBLOCK
 62
     1
100
AcDbBlockReference
  2
_OPEN
 10
-21.507496
 20
462.26323
 30
0.0
 41
2.0
 42
2.0
 43
2.0
 50
270.0
  0
MTEXT
  5
659
100
AcDbEntity
  8
0
  6
BYBLOCK
 62
     3
100
AcDbMText
 10
-24.007496
 20
478.26323
 30
0.0
 40
3.0
 41
0.0
 71
     5
 72
     1
  1
\A1;32
 11
0.0
 21
1.0
 31
0.0
  0
POINT
  5
65A
100
AcDbEntity
  8
DEFPOINTS
  6
BYBLOCK
 62
     0
100
AcDbPoint
 10
-35.988399
 20
494.26323
 30
0.0
  0
POINT
  5
65B
100
AcDbEntity
  8
DEFPOINTS
  6
BYBLOCK
 62
     0
100
AcDbPoint
 10
-35.988399
 20
462.26323
 30
0.0
  0
POINT
  5
65C
100
AcDbEntity
  8
DEFPOINTS
  6
BYBLOCK
 62
     0
100
AcDbPoint
 10
-21.507496
 20
462.26323
 30
0.0
  0
ENDBLK
  5
65D
100
AcDbEntity
  8
0
100
AcDbBlockEnd
  0
BLOCK
  5
6D5
100
AcDbEntity
  8
0
100
AcDbBlockBegin
  2
*D15
 70
     1
 10
0.0
 20
0.0
 30
0.0
  3
*D15
  1

  0
LINE
  5
6D6
100
AcDbEntity
  8
0
  6
BYBLOCK
 62
     1
100
AcDbLine
 10
-272.540931
 20
422.13344
 30
0.0
 11
-293.195044
 21
427.667693
 31
0.0
  0
LINE
  5
6D7
100
AcDbEntity
  8
0
  6
BYBLOCK
 62
     1
100
AcDbLine
 10
-272.559813
 20
422.048269
 30
0.0
 11
-293.617673
 21
425.761338
 31
0.0
  0
ARC
  5
6D8
100
AcDbEntity
  8
0
  6
BYBLOCK
 62
     1
100
AcDbCircle
 10
-271.575005
 20
421.874621
 30
0.0
 40
20.382712
100
AcDbArc
 50
153.737883
 51
165.0
  0
LINE
  5
6D9
100
AcDbEntity
  8
0
  6
BYBLOCK
 62
     1
100
AcDbLine
 10
-289.853797
 20
430.89353
 30
0.0
 11
-286.048483
 21
438.605831
 31
0.0
  0
ARC
  5
6DA
100
AcDbEntity
  8
0
  6
BYBLOCK
 62
     1
100
AcDbCircle
 10
-271.575005
 20
421.874621
 30
0.0
 40
20.382712
100
AcDbArc
 50
153.751489
 51
159.375744
  0
ARC
  5
6DB
100
AcDbEntity
  8
0
  6
BYBLOCK
 62
     1
100
AcDbCircle
 10
-271.575005
 20
421.874621
 30
0.0
 40
20.382712
100
AcDbArc
 50
175.624256
 51
181.248511
  0
ARC
  5
6DC
100
AcDbEntity
  8
0
  6
BYBLOCK
 62
     1
100
AcDbCircle
 10
-271.575005
 20
421.874621
 30
0.0
 40
20.382712
100
AcDbArc
 50
165.0
 51
170.0
  0
INSERT
  5
6DD
100
AcDbEntity
  8
0
  6
BYBLOCK
 62
     1
100
AcDbBlockReference
  2
_OPEN
 10
-291.263193
 20
427.150055
 30
0.0
 41
2.0
 42
2.0
 43
2.0
 50
252.187872
  0
INSERT
  5
6DE
100
AcDbEntity
  8
0
  6
BYBLOCK
 62
     1
100
AcDbBlockReference
  2
_OPEN
 10
-291.648058
 20
425.414042
 30
0.0
 41
2.0
 42
2.0
 43
2.0
 50
82.812128
  0
MTEXT
  5
6DF
100
AcDbEntity
  8
0
  6
BYBLOCK
 62
     3
100
AcDbMText
 10
-290.193088
 20
435.855876
 30
0.0
 40
3.0
 41
0.0
 71
     5
 72
     1
  1
\A1;5°
 11
0.442478
 21
0.896779
 31
0.0
  0
POINT
  5
6E0
100
AcDbEntity
  8
DEFPOINTS
  6
BYBLOCK
 62
     0
100
AcDbPoint
 10
-291.536623
 20
425.996364
 30
0.0
  0
POINT
  5
6E1
100
AcDbEntity
  8
DEFPOINTS
  6
BYBLOCK
 62
     0
100
AcDbPoint
 10
-271.575005
 20
421.874621
 30
0.0
  0
POINT
  5
6E2
100
AcDbEntity
  8
DEFPOINTS
  6
BYBLOCK
 62
     0
100
AcDbPoint
 10
-271.575005
 20
421.874621
 30
0.0
  0
POINT
  5
6E3
100
AcDbEntity
  8
DEFPOINTS
  6
BYBLOCK
 62
     0
100
AcDbPoint
 10
-237.837312
 20
412.834634
 30
0.0
  0
POINT
  5
6E4
100
AcDbEntity
  8
DEFPOINTS
  6
BYBLOCK
 62
     0
100
AcDbPoint
 10
-237.177808
 20
415.809467
 30
0.0
  0
ENDBLK
  5
6E5
100
AcDbEntity
  8
0
100
AcDbBlockEnd
  0
ENDSEC
  0
SECTION
  2
ENTITIES
  0
LINE
  5
24
100
AcDbEntity
  8
外形
  6
CONTINUOUS
100
AcDbLine
 10
-35.820647
 20
405.913427
 30
0.0
 11
-35.820647
 21
373.913427
 31
0.0
  0
DIMENSION
  5
25
100
AcDbEntity
  8
寸法
  6
CONTINUOUS
100
AcDbDimension
  2
*D2
 10
-22.488869
 20
405.913427
 30
0.0
 11
-24.988869
 21
389.913427
 31
0.0
 70
    32
  3
STANDARD
100
AcDbAlignedDimension
 13
-35.820647
 23
373.913427
 33
0.0
 14
-35.820647
 24
405.913427
 34
0.0
 50
90.0
100
AcDbRotatedDimension
1001
ACAD
1000
DSTYLE
1002
{
1070
    40
1040
1.0
1002
}
  0
DIMENSION
  5
3D
100
AcDbEntity
  8
外形
  6
CONTINUOUS
100
AcDbDimension
  2
*D3
 10
-216.68863
 20
405.913427
 30
0.0
 11
-219.18863
 21
389.913427
 31
0.0
 70
    32
  3
STANDARD
100
AcDbAlignedDimension
 13
-204.738399
 23
373.913427
 33
0.0
 14
-205.988399
 24
405.913427
 34
0.0
 50
90.0
100
AcDbRotatedDimension
1001
ACAD
1000
DSTYLE
1002
{
1070
    40
1040
1.0
1002
}
  0
LINE
  5
4A
100
AcDbEntity
  8
外形
  6
CONTINUOUS
100
AcDbLine
 10
-204.906151
 20
373.913427
 30
0.0
 11
-35.820647
 21
373.913427
 31
0.0
  0
TEXT
  5
4B
100
AcDbEntity
  8
外形
  6
CONTINUOUS
 62
     2
100
AcDbText
 10
-187.150542
 20
350.424489
 30
0.0
 40
6.0
  1
ＰＳＢＮ　Ｒ３２３２－４３
100
AcDbText
  0
DIMENSION
  5
4C
100
AcDbEntity
  8
寸法
  6
CONTINUOUS
100
AcDbDimension
  2
*D4
 10
-35.988399
 20
439.163338
 30
0.0
 11
-120.988399
 21
441.663338
 31
0.0
 70
    32
  3
STANDARD
100
AcDbAlignedDimension
 13
-205.988399
 23
467.26323
 33
0.0
 14
-35.988399
 24
462.26323
 34
0.0
100
AcDbRotatedDimension
1001
ACAD
1000
DSTYLE
1002
{
1070
    40
1040
1.0
1002
}
  0
LINE
  5
59
100
AcDbEntity
  8
外形
  6
CONTINUOUS
100
AcDbLine
 10
-182.943222
 20
462.26323
 30
0.0
 11
-35.820647
 21
462.26323
 31
0.0
  0
LINE
  5
5A
100
AcDbEntity
  8
外形
  6
CONTINUOUS
100
AcDbLine
 10
-197.879975
 20
494.26323
 30
0.0
 11
-35.820647
 21
494.26323
 31
0.0
  0
LINE
  5
5B
100
AcDbEntity
  8
外形
  6
CONTINUOUS
100
AcDbLine
 10
-170.988399
 20
405.913427
 30
0.0
 11
-35.820647
 21
405.913427
 31
0.0
  0
DIMENSION
  5
5C
100
AcDbEntity
  8
寸法
  6
CONTINUOUS
100
AcDbDimension
  2
*D5
 10
-216.68863
 20
494.26323
 30
0.0
 11
-219.18863
 21
480.76323
 31
0.0
 70
    32
  3
STANDARD
100
AcDbAlignedDimension
 13
-205.988399
 23
467.26323
 33
0.0
 14
-197.459676
 24
494.26323
 34
0.0
 50
90.0
100
AcDbRotatedDimension
1001
ACAD
1000
DSTYLE
1002
{
1070
    40
1040
1.0
1002
}
  0
LINE
  5
6A
100
AcDbEntity
  8
外形
  6
CONTINUOUS
100
AcDbLine
 10
-197.879975
 20
494.26323
 30
0.0
 11
-201.886134
 21
479.312039
 31
0.0
  0
LINE
  5
6C
100
AcDbEntity
  8
外形
  6
CONTINUOUS
100
AcDbLine
 10
-229.323577
 20
502.801137
 30
0.0
 11
-239.516712
 21
476.247114
 31
0.0
  0
DIMENSION
  5
6E
100
AcDbEntity
  8
寸法
  6
CONTINUOUS
100
AcDbDimension
  2
*D6
 10
-239.596312
 20
476.247114
 30
0.0
 11
-250.478932
 21
468.79903
 31
0.0
 70
    34
  3
STANDARD
100
AcDb2LineAngularDimension
 13
-237.896262
 23
482.294713
 33
0.0
 14
-239.516712
 24
476.247114
 34
0.0
 15
-232.837263
 25
493.855038
 35
0.0
 16
-243.8972
 26
462.004044
 36
0.0
1001
ACAD
1000
DSTYLE
1002
{
1070
    40
1040
1.0
1002
}
  0
LINE
  5
82
100
AcDbEntity
  8
外形
  6
CONTINUOUS
100
AcDbLine
 10
-239.391285
 20
490.063664
 30
0.0
 11
-243.949045
 21
478.190293
 31
0.0
  0
LINE
  5
83
100
AcDbEntity
  8
外形
  6
CONTINUOUS
100
AcDbLine
 10
-242.308176
 20
491.338465
 30
0.0
 11
-246.891632
 21
479.398155
 31
0.0
  0
LINE
  5
84
100
AcDbEntity
  8
外形
  6
CONTINUOUS
100
AcDbLine
 10
-239.596312
 20
476.247114
 30
0.0
 11
-243.949045
 21
478.190293
 31
0.0
  0
DIMENSION
  5
85
100
AcDbEntity
  8
寸法
  6
CONTINUOUS
100
AcDbDimension
  2
*D7
 10
-170.988399
 20
418.755344
 30
0.0
 11
-188.488399
 21
421.255344
 31
0.0
 70
    32
  3
STANDARD
100
AcDbAlignedDimension
 13
-205.988399
 23
405.913427
 33
0.0
 14
-170.988399
 24
405.913427
 34
0.0
100
AcDbRotatedDimension
1001
ACAD
1000
DSTYLE
1002
{
1070
    40
1040
1.0
1002
}
  0
LINE
  5
92
100
AcDbEntity
  8
外形
  6
CONTINUOUS
100
AcDbLine
 10
-205.988399
 20
405.913427
 30
0.0
 11
-171.981528
 21
409.619835
 31
0.0
  0
LINE
  5
93
100
AcDbEntity
  8
外形
  6
CONTINUOUS
100
AcDbLine
 10
-193.362453
 20
407.289528
 30
0.0
 11
-192.796485
 21
402.563025
 31
0.0
  0
LINE
  5
94
100
AcDbEntity
  8
外形
  6
CONTINUOUS
100
AcDbLine
 10
-205.988399
 20
405.913427
 30
0.0
 11
-205.422431
 21
401.186924
 31
0.0
  0
LINE
  5
95
100
AcDbEntity
  8
外形
  6
CONTINUOUS
100
AcDbLine
 10
-205.422431
 20
401.186924
 30
0.0
 11
-192.796485
 21
402.563025
 31
0.0
  0
LINE
  5
96
100
AcDbEntity
  8
外形
  6
CONTINUOUS
100
AcDbLine
 10
-205.019472
 20
398.03201
 30
0.0
 11
-192.443235
 21
399.402694
 31
0.0
  0
LINE
  5
97
100
AcDbEntity
  8
外形
  6
CONTINUOUS
100
AcDbLine
 10
-171.981528
 20
409.619835
 30
0.0
 11
-170.988399
 21
405.913427
 31
0.0
  0
LINE
  5
98
100
AcDbEntity
  8
外形
  6
CONTINUOUS
100
AcDbLine
 10
-193.595159
 20
465.117408
 30
0.0
 11
-182.943222
 21
462.26323
 31
0.0
  0
DIMENSION
  5
99
100
AcDbEntity
  8
寸法
  6
CONTINUOUS
100
AcDbDimension
  2
*D8
 10
-206.156151
 20
447.449135
 30
0.0
 11
-195.588634
 21
453.536323
 31
0.0
 70
    34
  3
STANDARD
100
AcDb2LineAngularDimension
 13
-205.38341
 23
467.101124
 33
0.0
 14
-194.661634
 24
464.228233
 34
0.0
 15
-206.156151
 25
467.308179
 35
0.0
 16
-197.763356
 26
449.309773
 36
0.0
1001
ACAD
1000
DSTYLE
1002
{
1070
    40
1040
1.0
1002
}
  0
CIRCLE
  5
A7
100
AcDbEntity
  8
外形
  6
CONTINUOUS
100
AcDbCircle
 10
-189.379994
 20
482.522929
 30
0.0
 40
4.0
  0
CIRCLE
  5
A8
100
AcDbEntity
  8
外形
  6
CONTINUOUS
100
AcDbCircle
 10
-189.379994
 20
482.522929
 30
0.0
 40
3.3235
  0
CIRCLE
  5
A9
100
AcDbEntity
  8
外形
  6
CONTINUOUS
100
AcDbCircle
 10
-198.379021
 20
471.798307
 30
0.0
 40
2.35
  0
LINE
  5
AA
100
AcDbEntity
  8
外形
  6
CONTINUOUS
100
AcDbLine
 10
-203.076204
 20
478.802696
 30
0.0
 11
-205.949096
 21
468.08092
 31
0.0
  0
LINE
  5
AB
100
AcDbEntity
  8
外形
  6
CONTINUOUS
100
AcDbLine
 10
-190.808946
 20
475.515695
 30
0.0
 11
-193.681838
 21
464.793918
 31
0.0
  0
ARC
  5
AC
100
AcDbEntity
  8
外形
  6
CONTINUOUS
100
AcDbCircle
 10
-191.248939
 20
473.873621
 30
0.0
 40
2.5
100
AcDbArc
 50
255.0
 51
75.0
  0
LINE
  5
AD
100
AcDbEntity
  8
外形
  6
CONTINUOUS
100
AcDbLine
 10
-205.38341
 20
467.101124
 30
0.0
 11
-194.661634
 21
464.228233
 31
0.0
  0
ARC
  5
AF
100
AcDbEntity
  8
外形
  6
CONTINUOUS
100
AcDbCircle
 10
-205.176355
 20
467.873865
 30
0.0
 40
0.8
100
AcDbArc
 50
165.0
 51
255.0
  0
ARC
  5
B1
100
AcDbEntity
  8
外形
  6
CONTINUOUS
100
AcDbCircle
 10
-194.454578
 20
465.000973
 30
0.0
 40
0.8
100
AcDbArc
 50
255.0
 51
345.0
  0
LINE
  5
B2
100
AcDbEntity
  8
外形
  6
CONTINUOUS
100
AcDbLine
 10
-202.096408
 20
479.368382
 30
0.0
 11
-190.601891
 21
476.288435
 31
0.0
  0
ARC
  5
B3
100
AcDbEntity
  8
外形
  6
CONTINUOUS
100
AcDbCircle
 10
-202.303464
 20
478.595641
 30
0.0
 40
0.8
100
AcDbArc
 50
75.0
 51
165.0
  0
ARC
  5
B4
100
AcDbEntity
  8
外形
  6
CONTINUOUS
100
AcDbCircle
 10
-191.581687
 20
475.72275
 30
0.0
 40
0.8
100
AcDbArc
 50
345.0
 51
75.0
  0
LWPOLYLINE
  5
B5
100
AcDbEntity
  8
外形
  6
CONTINUOUS
100
AcDbPolyline
 90
        6
 70
     1
 43
0.0
 10
-190.857206
 20
482.783402
 10
-190.344176
 20
481.373863
 10
-188.866964
 20
481.11339
 10
-187.902783
 20
482.262457
 10
-188.415813
 20
483.671996
 10
-189.893025
 20
483.932468
  0
LINE
  5
B7
100
AcDbEntity
  8
外形
  6
CONTINUOUS
100
AcDbLine
 10
-235.038552
 20
488.120485
 30
0.0
 11
-239.391285
 21
490.063664
 31
0.0
  0
LINE
  5
B8
100
AcDbEntity
  8
外形
  6
CONTINUOUS
100
AcDbLine
 10
-271.41311
 20
485.968665
 30
0.0
 11
-264.385528
 21
512.195958
 31
0.0
  0
DIMENSION
  5
B9
100
AcDbEntity
  8
寸法
  6
CONTINUOUS
100
AcDbDimension
  2
*D9
 10
-21.507496
 20
462.26323
 30
0.0
 11
-24.007496
 21
478.26323
 31
0.0
 70
    32
  3
STANDARD
100
AcDbAlignedDimension
 13
-35.988399
 23
494.26323
 33
0.0
 14
-35.988399
 24
462.26323
 34
0.0
 50
90.0
100
AcDbRotatedDimension
1001
ACAD
1000
DSTYLE
1002
{
1070
    40
1040
1.0
1002
}
  0
LINE
  5
C6
100
AcDbEntity
  8
外形
  6
CONTINUOUS
100
AcDbLine
 10
-35.820647
 20
494.26323
 30
0.0
 11
-35.820647
 21
462.26323
 31
0.0
  0
LINE
  5
55D
100
AcDbEntity
  8
外形
  6
CONTINUOUS
100
AcDbLine
 10
-192.821339
 20
402.560316
 30
0.0
 11
-192.443235
 21
399.402694
 31
0.0
  0
LINE
  5
55E
100
AcDbEntity
  8
外形
  6
CONTINUOUS
100
AcDbLine
 10
-205.397577
 20
401.189632
 30
0.0
 11
-205.019472
 21
398.03201
 31
0.0
  0
LINE
  5
55F
100
AcDbEntity
  8
外形
  6
CONTINUOUS
100
AcDbLine
 10
-204.906151
 20
398.044361
 30
0.0
 11
-204.906151
 21
373.913427
 31
0.0
  0
LINE
  5
560
100
AcDbEntity
  8
寸法
  6
CONTINUOUS
100
AcDbLine
 10
-205.988399
 20
467.26323
 30
0.0
 11
-239.516712
 21
476.247114
 31
0.0
  0
LINE
  5
561
100
AcDbEntity
  8
外形
  6
CONTINUOUS
100
AcDbLine
 10
-246.891632
 20
479.398155
 30
0.0
 11
-271.41311
 21
485.968665
 31
0.0
  0
LINE
  5
562
100
AcDbEntity
  8
外形
  6
CONTINUOUS
100
AcDbLine
 10
-229.323577
 20
502.801137
 30
0.0
 11
-264.385528
 21
512.195958
 31
0.0
  0
LINE
  5
563
100
AcDbEntity
  8
外形
  6
CONTINUOUS
100
AcDbLine
 10
-239.400257
 20
490.040291
 30
0.0
 11
-242.308176
 21
491.338465
 31
0.0
  0
LINE
  5
564
100
AcDbEntity
  8
外形
  6
CONTINUOUS
100
AcDbLine
 10
-243.940073
 20
478.213666
 30
0.0
 11
-246.847992
 21
479.51184
 31
0.0
  0
LINE
  5
565
100
AcDbEntity
  8
外形
  6
CONTINUOUS
100
AcDbLine
 10
-182.943222
 20
408.42512
 30
0.0
 11
-182.943222
 21
373.913427
 31
0.0
  0
LINE
  5
567
100
AcDbEntity
  8
寸法
  6
CONTINUOUS
100
AcDbLine
 10
-205.988399
 20
467.26323
 30
0.0
 11
-215.143179
 21
433.097126
 31
0.0
  0
LINE
  5
569
100
AcDbEntity
  8
外形
  6
CONTINUOUS
100
AcDbLine
 10
-248.290211
 20
417.768884
 30
0.0
 11
-257.105772
 21
384.868764
 31
0.0
  0
LINE
  5
56B
100
AcDbEntity
  8
外形
  6
CONTINUOUS
100
AcDbLine
 10
-237.046416
 20
415.786299
 30
0.0
 11
-246.119522
 21
381.925007
 31
0.0
  0
LINE
  5
56C
100
AcDbEntity
  8
寸法
  6
CONTINUOUS
100
AcDbLine
 10
-268.567944
 20
433.097126
 30
0.0
 11
-215.143179
 21
433.097126
 31
0.0
  0
LINE
  5
56E
100
AcDbEntity
  8
外形
  6
CONTINUOUS
100
AcDbLine
 10
-272.830879
 20
414.033578
 30
0.0
 11
-279.068701
 21
390.753713
 31
0.0
  0
LINE
  5
56F
100
AcDbEntity
  8
寸法
  6
CONTINUOUS
100
AcDbLine
 10
-268.567944
 20
433.097126
 30
0.0
 11
-271.575005
 21
421.874621
 31
0.0
  0
LINE
  5
571
100
AcDbEntity
  8
外形
  6
CONTINUOUS
100
AcDbLine
 10
-279.068701
 20
390.753713
 30
0.0
 11
-246.119522
 21
381.925007
 31
0.0
  0
LINE
  5
572
100
AcDbEntity
  8
外形
  6
CONTINUOUS
100
AcDbLine
 10
-271.575005
 20
421.874621
 30
0.0
 11
-237.177808
 21
415.809467
 31
0.0
  0
LINE
  5
573
100
AcDbEntity
  8
外形
  6
CONTINUOUS
100
AcDbLine
 10
-272.40157
 20
417.186936
 30
0.0
 11
-260.018421
 21
415.003453
 31
0.0
  0
LINE
  5
574
100
AcDbEntity
  8
外形
  6
CONTINUOUS
100
AcDbLine
 10
-272.929151
 20
414.050906
 30
0.0
 11
-260.595243
 21
411.876105
 31
0.0
  0
LINE
  5
575
100
AcDbEntity
  8
外形
  6
CONTINUOUS
100
AcDbLine
 10
-271.575005
 20
421.874621
 30
0.0
 11
-272.40157
 21
417.186936
 31
0.0
  0
LINE
  5
576
100
AcDbEntity
  8
外形
  6
CONTINUOUS
100
AcDbLine
 10
-259.191856
 20
419.691138
 30
0.0
 11
-260.018421
 21
415.003453
 31
0.0
  0
LINE
  5
577
100
AcDbEntity
  8
外形
  6
CONTINUOUS
100
AcDbLine
 10
-260.043042
 20
415.007794
 30
0.0
 11
-260.595243
 21
411.876105
 31
0.0
  0
LINE
  5
578
100
AcDbEntity
  8
外形
  6
CONTINUOUS
100
AcDbLine
 10
-272.37695
 20
417.182595
 30
0.0
 11
-272.929151
 21
414.050906
 31
0.0
  0
DIMENSION
  5
58B
100
AcDbEntity
  8
寸法
  6
CONTINUOUS
100
AcDbDimension
  2
*D15
 10
-237.177808
 20
415.809467
 30
0.0
 11
-290.193088
 21
435.855876
 31
0.0
 70
    34
  3
STANDARD
100
AcDb2LineAngularDimension
 13
-271.575005
 23
421.874621
 33
0.0
 14
-237.837312
 24
412.834634
 34
0.0
 15
-271.575005
 25
421.874621
 35
0.0
 16
-291.536623
 26
425.996364
 36
0.0
1001
ACAD
1000
DSTYLE
1002
{
1070
    40
1040
1.0
1002
}
  0
LINE
  5
5B3
100
AcDbEntity
  8
外形
  6
CONTINUOUS
100
AcDbLine
 10
-170.988399
 20
405.913427
 30
0.0
 11
-170.988399
 21
373.913427
 31
0.0
  0
LINE
  5
5B4
100
AcDbEntity
  8
外形
  6
CONTINUOUS
100
AcDbLine
 10
-171.981528
 20
409.619835
 30
0.0
 11
-171.981528
 21
373.913427
 31
0.0
  0
LINE
  5
5B5
100
AcDbEntity
  8
外形
  6
CONTINUOUS
100
AcDbLine
 10
-170.988399
 20
462.26323
 30
0.0
 11
-170.988399
 21
494.26323
 31
0.0
  0
LINE
  5
5B7
100
AcDbEntity
  8
外形
  6
CONTINUOUS
100
AcDbLine
 10
-170.988399
 20
462.26323
 30
0.0
 11
-171.981528
 21
494.26323
 31
0.0
  0
ENDSEC
  0
SECTION
  2
OBJECTS
  0
DICTIONARY
  5
1E
100
AcDbDictionary
  3
ACAD_GROUP
350
1C
  3
ACAD_MLINESTYLE
350
1D
  0
DICTIONARY
  5
35
100
AcDbDictionary
280
     1
  3
ACAD_XREC_ROUNDTRIP
360
36
  0
DICTIONARY
  5
22
100
AcDbDictionary
280
     1
  3
ACAD_XREC_ROUNDTRIP
360
23
  0
DICTIONARY
  5
3
100
AcDbDictionary
280
     1
  3
ACAD_LAYOUTSELFREF
360
4
  0
DICTIONARY
  5
A
100
AcDbDictionary
280
     1
  3
ACAD_LAYOUTSELFREF
360
B
  0
DICTIONARY
  5
1C
102
{ACAD_REACTORS
330
1E
102
}
100
AcDbDictionary
  0
DICTIONARY
  5
1D
102
{ACAD_REACTORS
330
1E
102
}
100
AcDbDictionary
  3
STANDARD
350
20
  0
XRECORD
  5
36
102
{ACAD_REACTORS
330
35
102
}
100
AcDbXrecord
102
PLOTBIT
280
     0
  0
XRECORD
  5
23
102
{ACAD_REACTORS
330
22
102
}
100
AcDbXrecord
102
ACADR14ROUNDTRIP
1000
DSTYLE
1002
{
1070
   341
340
2B
1070
   343
340
2B
1070
   344
340
2B
1002
}
  0
XRECORD
  5
4
102
{ACAD_REACTORS
330
3
102
}
100
AcDbXrecord
340
2
  0
XRECORD
  5
B
102
{ACAD_REACTORS
330
A
102
}
100
AcDbXrecord
340
9
  0
MLINESTYLE
  5
20
102
{ACAD_REACTORS
330
1D
102
}
100
AcDbMlineStyle
  2
STANDARD
 70
     0
  3

 62
     0
 51
90.0
 52
90.0
 71
     2
 49
0.5
 62
   256
  6
BYLAYER
 49
-0.5
 62
   256
  6
BYLAYER
  0
ENDSEC
  0
EOF
