  0
SECTION
  2
HEADER
  9
$ACADVER
  1
AC1014
  9
$ACADMAINTVER
 70
     0
  9
$DWGCODEPAGE
  3
ANSI_932
  9
$INSBASE
 10
318.749048
 20
255.890188
 30
0.0
  9
$EXTMIN
 10
317.559469
 20
274.540722
 30
0.0
  9
$EXTMAX
 10
690.028066
 20
484.863193
 30
0.0
  9
$LIMMIN
 10
-587.250952
 20
327.890188
  9
$LIMMAX
 10
600.749048
 20
957.890188
  9
$ORTHOMODE
 70
     1
  9
$REGENMODE
 70
     1
  9
$FILLMODE
 70
     1
  9
$QTEXTMODE
 70
     0
  9
$MIRRTEXT
 70
     1
  9
$DRAGMODE
 70
     2
  9
$LTSCALE
 40
5.0
  9
$OSMODE
 70
    45
  9
$ATTMODE
 70
     1
  9
$TEXTSIZE
 40
4.0
  9
$TRACEWID
 40
0.05
  9
$TEXTSTYLE
  7
STANDARD
  9
$CLAYER
  8
外形
  9
$CELTYPE
  6
CONTINUOUS
  9
$CECOLOR
 62
   256
  9
$CELTSCALE
 40
1.0
  9
$DELOBJ
 70
     1
  9
$DISPSILH
 70
     0
  9
$DIMSCALE
 40
1.0
  9
$DIMASZ
 40
2.0
  9
$DIMEXO
 40
1.0
  9
$DIMDLI
 40
8.0
  9
$DIMRND
 40
0.0
  9
$DIMDLE
 40
0.0
  9
$DIMEXE
 40
2.0
  9
$DIMTP
 40
0.0
  9
$DIMTM
 40
0.0
  9
$DIMTXT
 40
3.0
  9
$DIMCEN
 40
-1.0
  9
$DIMTSZ
 40
0.0
  9
$DIMTOL
 70
     0
  9
$DIMLIM
 70
     0
  9
$DIMTIH
 70
     0
  9
$DIMTOH
 70
     0
  9
$DIMSE1
 70
     0
  9
$DIMSE2
 70
     0
  9
$DIMTAD
 70
     1
  9
$DIMZIN
 70
     8
  9
$DIMBLK
  1

  9
$DIMASO
 70
     1
  9
$DIMSHO
 70
     1
  9
$DIMPOST
  1

  9
$DIMAPOST
  1

  9
$DIMALT
 70
     0
  9
$DIMALTD
 70
     2
  9
$DIMALTF
 40
25.4
  9
$DIMLFAC
 40
1.0
  9
$DIMTOFL
 70
     1
  9
$DIMTVP
 40
0.0
  9
$DIMTIX
 70
     0
  9
$DIMSOXD
 70
     0
  9
$DIMSAH
 70
     1
  9
$DIMBLK1
  1
_OPEN
  9
$DIMBLK2
  1
_OPEN
  9
$DIMSTYLE
  2
STANDARD
  9
$DIMCLRD
 70
     1
  9
$DIMCLRE
 70
     1
  9
$DIMCLRT
 70
     3
  9
$DIMTFAC
 40
1.0
  9
$DIMGAP
 40
1.0
  9
$DIMJUST
 70
     0
  9
$DIMSD1
 70
     0
  9
$DIMSD2
 70
     0
  9
$DIMTOLJ
 70
     1
  9
$DIMTZIN
 70
     8
  9
$DIMALTZ
 70
     0
  9
$DIMALTTZ
 70
     0
  9
$DIMFIT
 70
     3
  9
$DIMUPT
 70
     0
  9
$DIMUNIT
 70
     2
  9
$DIMDEC
 70
     2
  9
$DIMTDEC
 70
     2
  9
$DIMALTU
 70
     2
  9
$DIMALTTD
 70
     2
  9
$DIMTXSTY
  7
STANDARD
  9
$DIMAUNIT
 70
     0
  9
$LUNITS
 70
     2
  9
$LUPREC
 70
     0
  9
$SKETCHINC
 40
0.1
  9
$FILLETRAD
 40
2.4
  9
$AUNITS
 70
     0
  9
$AUPREC
 70
     0
  9
$MENU
  1
acad
  9
$ELEVATION
 40
0.0
  9
$PELEVATION
 40
0.0
  9
$THICKNESS
 40
0.0
  9
$LIMCHECK
 70
     0
  9
$BLIPMODE
 70
     0
  9
$CHAMFERA
 40
0.0
  9
$CHAMFERB
 40
0.0
  9
$CHAMFERC
 40
0.0
  9
$CHAMFERD
 40
0.0
  9
$SKPOLY
 70
     0
  9
$TDCREATE
 40
2450751.535399305
  9
$TDUPDATE
 40
2451929.453333333
  9
$TDINDWG
 40
1.1938299769
  9
$TDUSRTIMER
 40
1.1938299769
  9
$USRTIMER
 70
     1
  9
$ANGBASE
 50
0.0
  9
$ANGDIR
 70
     0
  9
$PDMODE
 70
     0
  9
$PDSIZE
 40
0.0
  9
$PLINEWID
 40
0.0
  9
$COORDS
 70
     1
  9
$SPLFRAME
 70
     0
  9
$SPLINETYPE
 70
     5
  9
$SPLINESEGS
 70
     8
  9
$ATTDIA
 70
     0
  9
$ATTREQ
 70
     1
  9
$HANDLING
 70
     1
  9
$HANDSEED
  5
5CF
  9
$SURFTAB1
 70
     6
  9
$SURFTAB2
 70
     6
  9
$SURFTYPE
 70
     6
  9
$SURFU
 70
     6
  9
$SURFV
 70
     6
  9
$UCSNAME
  2

  9
$UCSORG
 10
0.0
 20
0.0
 30
0.0
  9
$UCSXDIR
 10
1.0
 20
0.0
 30
0.0
  9
$UCSYDIR
 10
0.0
 20
1.0
 30
0.0
  9
$PUCSNAME
  2

  9
$PUCSORG
 10
0.0
 20
0.0
 30
0.0
  9
$PUCSXDIR
 10
1.0
 20
0.0
 30
0.0
  9
$PUCSYDIR
 10
0.0
 20
1.0
 30
0.0
  9
$USERI1
 70
     0
  9
$USERI2
 70
     0
  9
$USERI3
 70
     0
  9
$USERI4
 70
     0
  9
$USERI5
 70
     0
  9
$USERR1
 40
0.0
  9
$USERR2
 40
0.0
  9
$USERR3
 40
0.0
  9
$USERR4
 40
0.0
  9
$USERR5
 40
0.0
  9
$WORLDVIEW
 70
     1
  9
$SHADEDGE
 70
     3
  9
$SHADEDIF
 70
    70
  9
$TILEMODE
 70
     1
  9
$MAXACTVP
 70
    16
  9
$PINSBASE
 10
0.0
 20
0.0
 30
0.0
  9
$PLIMCHECK
 70
     0
  9
$PEXTMIN
 10
1.000000E+20
 20
1.000000E+20
 30
1.000000E+20
  9
$PEXTMAX
 10
-1.000000E+20
 20
-1.000000E+20
 30
-1.000000E+20
  9
$PLIMMIN
 10
0.0
 20
0.0
  9
$PLIMMAX
 10
12.0
 20
9.0
  9
$UNITMODE
 70
     0
  9
$VISRETAIN
 70
     0
  9
$PLINEGEN
 70
     0
  9
$PSLTSCALE
 70
     1
  9
$TREEDEPTH
 70
  3020
  9
$PICKSTYLE
 70
     1
  9
$CMLSTYLE
  2
STANDARD
  9
$CMLJUST
 70
     0
  9
$CMLSCALE
 40
1.0
  9
$PROXYGRAPHICS
 70
     1
  9
$MEASUREMENT
 70
     0
  0
ENDSEC
  0
SECTION
  2
CLASSES
  0
CLASS
  1
LWPOLYLINE
  2
AcDbPolyline
  3
"AutoCAD"
 90
        0
280
     0
281
     1
  0
CLASS
  1
ACDBDICTIONARYWDFLT
  2
AcDbDictionaryWithDefault
  3
AutoCAD 2000
 90
        0
280
     1
281
     0
  0
CLASS
  1
ACDBPLACEHOLDER
  2
AcDbPlaceHolder
  3
AutoCAD 2000
 90
        0
280
     1
281
     0
  0
CLASS
  1
LAYOUT
  2
AcDbLayout
  3
AutoCAD 2000
 90
        0
280
     1
281
     0
  0
CLASS
  1
LONG_TRANSACTION
  2
AcDbLongTransaction
  3
AutoCAD 2000
 90
        0
280
     1
281
     0
  0
CLASS
  1
LWPOLYLINE
  2
AcDbPolyline
  3
"AutoCAD"
 90
        0
280
     0
281
     1
  0
CLASS
  1
HATCH
  2
AcDbHatch
  3
"ACAD_SEDONA"
 90
        0
280
     0
281
     1
  0
CLASS
  1
XRECORD
  2
AcDbXrecord
  3
"<Built In>"
 90
        0
280
     0
281
     0
  0
ENDSEC
  0
SECTION
  2
TABLES
  0
TABLE
  2
VPORT
  5
16
100
AcDbSymbolTable
 70
     1
  0
VPORT
  5
5CA
100
AcDbSymbolTableRecord
100
AcDbViewportTableRecord
  2
*ACTIVE
 70
     0
 10
0.0
 20
0.0
 11
1.0
 21
1.0
 12
501.431145
 22
389.601486
 13
0.0
 23
0.0
 14
0.05
 24
0.05
 15
10.0
 25
10.0
 16
0.0
 26
0.0
 36
1.0
 17
0.0
 27
0.0
 37
0.0
 40
257.984418
 41
1.710425
 42
50.0
 43
0.0
 44
0.0
 50
0.0
 51
0.0
 71
     0
 72
   100
 73
     1
 74
     1
 75
     0
 76
     0
 77
     0
 78
     0
  0
ENDTAB
  0
TABLE
  2
LTYPE
  5
11
100
AcDbSymbolTable
 70
     1
  0
LTYPE
  5
12
100
AcDbSymbolTableRecord
100
AcDbLinetypeTableRecord
  2
BYBLOCK
 70
     0
  3

 72
    65
 73
     0
 40
0.0
  0
LTYPE
  5
13
100
AcDbSymbolTableRecord
100
AcDbLinetypeTableRecord
  2
BYLAYER
 70
     0
  3

 72
    65
 73
     0
 40
0.0
  0
LTYPE
  5
7
100
AcDbSymbolTableRecord
100
AcDbLinetypeTableRecord
  2
CONTINUOUS
 70
     0
  3
Solid line
 72
    65
 73
     0
 40
0.0
  0
ENDTAB
  0
TABLE
  2
LAYER
  5
E
100
AcDbSymbolTable
 70
     4
  0
LAYER
  5
6
100
AcDbSymbolTableRecord
100
AcDbLayerTableRecord
  2
0
 70
     0
 62
     7
  6
CONTINUOUS
  0
LAYER
  5
1F
100
AcDbSymbolTableRecord
100
AcDbLayerTableRecord
  2
外形
 70
     0
 62
     3
  6
CONTINUOUS
  0
LAYER
  5
33
102
{ACAD_XDICTIONARY
360
34
102
}
100
AcDbSymbolTableRecord
100
AcDbLayerTableRecord
  2
DEFPOINTS
 70
     0
 62
     7
  6
CONTINUOUS
  0
LAYER
  5
77
100
AcDbSymbolTableRecord
100
AcDbLayerTableRecord
  2
寸法
 70
     0
 62
     1
  6
CONTINUOUS
  0
ENDTAB
  0
TABLE
  2
STYLE
  5
F
100
AcDbSymbolTable
 70
     1
  0
STYLE
  5
10
100
AcDbSymbolTableRecord
100
AcDbTextStyleTableRecord
  2
STANDARD
 70
     0
 40
0.0
 41
1.0
 50
0.0
 71
     0
 42
4.0
  3
MONOTXT
  4
BIGFONT
  0
ENDTAB
  0
TABLE
  2
VIEW
  5
14
100
AcDbSymbolTable
 70
     0
  0
ENDTAB
  0
TABLE
  2
UCS
  5
15
100
AcDbSymbolTable
 70
     0
  0
ENDTAB
  0
TABLE
  2
APPID
  5
18
100
AcDbSymbolTable
 70
     1
  0
APPID
  5
19
100
AcDbSymbolTableRecord
100
AcDbRegAppTableRecord
  2
ACAD
 70
     0
  0
ENDTAB
  0
TABLE
  2
DIMSTYLE
  5
1A
100
AcDbSymbolTable
 70
     1
  0
DIMSTYLE
105
21
102
{ACAD_XDICTIONARY
360
22
102
}
102
{ACAD_REACTORS
330
8B
330
3F
330
AC
330
4C
330
64
330
BA
330
24
330
21E
330
260
102
}
100
AcDbSymbolTableRecord
100
AcDbDimStyleTableRecord
  2
STANDARD
 70
     0
  3

  4

  5

  6
_OPEN
  7
_OPEN
 40
1.0
 41
2.0
 42
1.0
 43
8.0
 44
2.0
 45
0.0
 46
0.0
 47
0.0
 48
0.0
140
3.0
141
-1.0
142
0.0
143
25.4
144
1.0
145
0.0
146
1.0
147
1.0
 71
     0
 72
     0
 73
     0
 74
     0
 75
     0
 76
     0
 77
     1
 78
     8
170
     0
171
     2
172
     1
173
     1
174
     0
175
     0
176
     1
177
     1
178
     3
270
     2
271
     2
272
     2
273
     2
274
     2
340
10
275
     0
280
     0
281
     0
282
     0
283
     1
284
     8
285
     0
286
     0
287
     3
288
     0
  0
ENDTAB
  0
TABLE
  2
BLOCK_RECORD
  5
1
100
AcDbSymbolTable
 70
    19
  0
BLOCK_RECORD
  5
2
102
{ACAD_XDICTIONARY
360
3
102
}
100
AcDbSymbolTableRecord
100
AcDbBlockTableRecord
  2
*MODEL_SPACE
  0
BLOCK_RECORD
  5
9
102
{ACAD_XDICTIONARY
360
A
102
}
100
AcDbSymbolTableRecord
100
AcDbBlockTableRecord
  2
*PAPER_SPACE
  0
BLOCK_RECORD
  5
2A
100
AcDbSymbolTableRecord
100
AcDbBlockTableRecord
  2
_OPEN30
  0
BLOCK_RECORD
  5
CC
100
AcDbSymbolTableRecord
100
AcDbBlockTableRecord
  2
_OPEN
  0
BLOCK_RECORD
  5
D2
100
AcDbSymbolTableRecord
100
AcDbBlockTableRecord
  2
*D2
  0
BLOCK_RECORD
  5
DE
100
AcDbSymbolTableRecord
100
AcDbBlockTableRecord
  2
*D3
  0
BLOCK_RECORD
  5
EA
100
AcDbSymbolTableRecord
100
AcDbBlockTableRecord
  2
*D4
  0
BLOCK_RECORD
  5
F6
100
AcDbSymbolTableRecord
100
AcDbBlockTableRecord
  2
*D5
  0
BLOCK_RECORD
  5
114
100
AcDbSymbolTableRecord
100
AcDbBlockTableRecord
  2
*D6
  0
BLOCK_RECORD
  5
122
100
AcDbSymbolTableRecord
100
AcDbBlockTableRecord
  2
*D7
  0
BLOCK_RECORD
  5
12E
100
AcDbSymbolTableRecord
100
AcDbBlockTableRecord
  2
*D8
  0
BLOCK_RECORD
  5
162
100
AcDbSymbolTableRecord
100
AcDbBlockTableRecord
  2
*D10
  0
BLOCK_RECORD
  5
203
100
AcDbSymbolTableRecord
100
AcDbBlockTableRecord
  2
*D13
  0
ENDTAB
  0
ENDSEC
  0
SECTION
  2
BLOCKS
  0
BLOCK
  5
5
100
AcDbEntity
  8
0
100
AcDbBlockBegin
  2
*MODEL_SPACE
 70
     0
 10
0.0
 20
0.0
 30
0.0
  3
*MODEL_SPACE
  1

  0
ENDBLK
  5
8
100
AcDbEntity
  8
0
100
AcDbBlockEnd
  0
BLOCK
  5
C
100
AcDbEntity
 67
     1
  8
0
100
AcDbBlockBegin
  2
*PAPER_SPACE
 70
     0
 10
0.0
 20
0.0
 30
0.0
  3
*PAPER_SPACE
  1

  0
ENDBLK
  5
D
100
AcDbEntity
 67
     1
  8
0
100
AcDbBlockEnd
  0
BLOCK
  5
2E
100
AcDbEntity
  8
0
100
AcDbBlockBegin
  2
_OPEN30
 70
     0
 10
0.0
 20
0.0
 30
0.0
  3
_OPEN30
  1

  0
LINE
  5
2B
100
AcDbEntity
  8
0
  6
BYBLOCK
 62
     0
100
AcDbLine
 10
-1.0
 20
0.267949
 30
0.0
 11
0.0
 21
0.0
 31
0.0
  0
LINE
  5
2C
100
AcDbEntity
  8
0
  6
BYBLOCK
 62
     0
100
AcDbLine
 10
0.0
 20
0.0
 30
0.0
 11
-1.0
 21
-0.267949
 31
0.0
  0
LINE
  5
2D
100
AcDbEntity
  8
0
  6
BYBLOCK
 62
     0
100
AcDbLine
 10
0.0
 20
0.0
 30
0.0
 11
-1.0
 21
0.0
 31
0.0
  0
ENDBLK
  5
2F
100
AcDbEntity
  8
0
100
AcDbBlockEnd
  0
BLOCK
  5
CD
100
AcDbEntity
  8
0
100
AcDbBlockBegin
  2
_OPEN
 70
     0
 10
0.0
 20
0.0
 30
0.0
  3
_OPEN
  1

  0
LINE
  5
CE
100
AcDbEntity
  8
0
  6
BYBLOCK
 62
     0
100
AcDbLine
 10
-1.0
 20
0.166667
 30
0.0
 11
0.0
 21
0.0
 31
0.0
  0
LINE
  5
CF
100
AcDbEntity
  8
0
  6
BYBLOCK
 62
     0
100
AcDbLine
 10
0.0
 20
0.0
 30
0.0
 11
-1.0
 21
-0.166667
 31
0.0
  0
LINE
  5
D0
100
AcDbEntity
  8
0
  6
BYBLOCK
 62
     0
100
AcDbLine
 10
0.0
 20
0.0
 30
0.0
 11
-1.0
 21
0.0
 31
0.0
  0
ENDBLK
  5
D1
100
AcDbEntity
  8
0
100
AcDbBlockEnd
  0
BLOCK
  5
4F5
100
AcDbEntity
  8
0
100
AcDbBlockBegin
  2
*D2
 70
     1
 10
0.0
 20
0.0
 30
0.0
  3
*D2
  1

  0
LINE
  5
4F6
100
AcDbEntity
  8
0
  6
BYBLOCK
 62
     1
100
AcDbLine
 10
418.266285
 20
425.448693
 30
0.0
 11
418.266285
 21
391.290725
 31
0.0
  0
LINE
  5
4F7
100
AcDbEntity
  8
0
  6
BYBLOCK
 62
     1
100
AcDbLine
 10
668.266285
 20
418.448693
 30
0.0
 11
668.266285
 21
391.290725
 31
0.0
  0
LINE
  5
4F8
100
AcDbEntity
  8
0
  6
BYBLOCK
 62
     1
100
AcDbLine
 10
420.266285
 20
393.290725
 30
0.0
 11
666.266285
 21
393.290725
 31
0.0
  0
INSERT
  5
4F9
100
AcDbEntity
  8
0
  6
BYBLOCK
 62
     1
100
AcDbBlockReference
  2
_OPEN
 10
418.266285
 20
393.290725
 30
0.0
 41
2.0
 42
2.0
 43
2.0
 50
180.0
  0
INSERT
  5
4FA
100
AcDbEntity
  8
0
  6
BYBLOCK
 62
     1
100
AcDbBlockReference
  2
_OPEN
 10
668.266285
 20
393.290725
 30
0.0
 41
2.0
 42
2.0
 43
2.0
  0
MTEXT
  5
4FB
100
AcDbEntity
  8
0
  6
BYBLOCK
 62
     3
100
AcDbMText
 10
543.266285
 20
395.790725
 30
0.0
 40
3.0
 41
0.0
 71
     5
 72
     1
  1
\A1;250
  0
POINT
  5
4FC
100
AcDbEntity
  8
DEFPOINTS
  6
BYBLOCK
 62
     0
100
AcDbPoint
 10
418.266285
 20
426.448693
 30
0.0
  0
POINT
  5
4FD
100
AcDbEntity
  8
DEFPOINTS
  6
BYBLOCK
 62
     0
100
AcDbPoint
 10
668.266285
 20
419.448693
 30
0.0
  0
POINT
  5
4FE
100
AcDbEntity
  8
DEFPOINTS
  6
BYBLOCK
 62
     0
100
AcDbPoint
 10
668.266285
 20
393.290725
 30
0.0
  0
ENDBLK
  5
4FF
100
AcDbEntity
  8
0
100
AcDbBlockEnd
  0
BLOCK
  5
500
100
AcDbEntity
  8
0
100
AcDbBlockBegin
  2
*D3
 70
     1
 10
0.0
 20
0.0
 30
0.0
  3
*D3
  1

  0
LINE
  5
501
100
AcDbEntity
  8
0
  6
BYBLOCK
 62
     1
100
AcDbLine
 10
418.266285
 20
365.729868
 30
0.0
 11
418.266285
 21
381.998609
 31
0.0
  0
LINE
  5
502
100
AcDbEntity
  8
0
  6
BYBLOCK
 62
     1
100
AcDbLine
 10
468.266285
 20
365.729868
 30
0.0
 11
468.266285
 21
381.998609
 31
0.0
  0
LINE
  5
503
100
AcDbEntity
  8
0
  6
BYBLOCK
 62
     1
100
AcDbLine
 10
420.266285
 20
379.998609
 30
0.0
 11
466.266285
 21
379.998609
 31
0.0
  0
INSERT
  5
504
100
AcDbEntity
  8
0
  6
BYBLOCK
 62
     1
100
AcDbBlockReference
  2
_OPEN
 10
418.266285
 20
379.998609
 30
0.0
 41
2.0
 42
2.0
 43
2.0
 50
180.0
  0
INSERT
  5
505
100
AcDbEntity
  8
0
  6
BYBLOCK
 62
     1
100
AcDbBlockReference
  2
_OPEN
 10
468.266285
 20
379.998609
 30
0.0
 41
2.0
 42
2.0
 43
2.0
  0
MTEXT
  5
506
100
AcDbEntity
  8
0
  6
BYBLOCK
 62
     3
100
AcDbMText
 10
443.266285
 20
382.498609
 30
0.0
 40
3.0
 41
0.0
 71
     5
 72
     1
  1
\A1;50
  0
POINT
  5
507
100
AcDbEntity
  8
DEFPOINTS
  6
BYBLOCK
 62
     0
100
AcDbPoint
 10
418.266285
 20
364.729868
 30
0.0
  0
POINT
  5
508
100
AcDbEntity
  8
DEFPOINTS
  6
BYBLOCK
 62
     0
100
AcDbPoint
 10
468.266285
 20
364.729868
 30
0.0
  0
POINT
  5
509
100
AcDbEntity
  8
DEFPOINTS
  6
BYBLOCK
 62
     0
100
AcDbPoint
 10
468.266285
 20
379.998609
 30
0.0
  0
ENDBLK
  5
50A
100
AcDbEntity
  8
0
100
AcDbBlockEnd
  0
BLOCK
  5
50B
100
AcDbEntity
  8
0
100
AcDbBlockBegin
  2
*D4
 70
     1
 10
0.0
 20
0.0
 30
0.0
  3
*D4
  1

  0
LINE
  5
50C
100
AcDbEntity
  8
0
  6
BYBLOCK
 62
     1
100
AcDbLine
 10
417.266285
 20
364.729868
 30
0.0
 11
407.130989
 21
364.729868
 31
0.0
  0
LINE
  5
50D
100
AcDbEntity
  8
0
  6
BYBLOCK
 62
     1
100
AcDbLine
 10
419.51597
 20
314.729868
 30
0.0
 11
407.130989
 21
314.729868
 31
0.0
  0
LINE
  5
50E
100
AcDbEntity
  8
0
  6
BYBLOCK
 62
     1
100
AcDbLine
 10
409.130989
 20
362.729868
 30
0.0
 11
409.130989
 21
316.729868
 31
0.0
  0
INSERT
  5
50F
100
AcDbEntity
  8
0
  6
BYBLOCK
 62
     1
100
AcDbBlockReference
  2
_OPEN
 10
409.130989
 20
364.729868
 30
0.0
 41
2.0
 42
2.0
 43
2.0
 50
90.0
  0
INSERT
  5
510
100
AcDbEntity
  8
0
  6
BYBLOCK
 62
     1
100
AcDbBlockReference
  2
_OPEN
 10
409.130989
 20
314.729868
 30
0.0
 41
2.0
 42
2.0
 43
2.0
 50
270.0
  0
MTEXT
  5
511
100
AcDbEntity
  8
0
  6
BYBLOCK
 62
     3
100
AcDbMText
 10
406.630989
 20
339.729868
 30
0.0
 40
3.0
 41
0.0
 71
     5
 72
     1
  1
\A1;50
 11
0.0
 21
1.0
 31
0.0
  0
POINT
  5
512
100
AcDbEntity
  8
DEFPOINTS
  6
BYBLOCK
 62
     0
100
AcDbPoint
 10
418.266285
 20
364.729868
 30
0.0
  0
POINT
  5
513
100
AcDbEntity
  8
DEFPOINTS
  6
BYBLOCK
 62
     0
100
AcDbPoint
 10
420.51597
 20
314.729868
 30
0.0
  0
POINT
  5
514
100
AcDbEntity
  8
DEFPOINTS
  6
BYBLOCK
 62
     0
100
AcDbPoint
 10
409.130989
 20
314.729868
 30
0.0
  0
ENDBLK
  5
515
100
AcDbEntity
  8
0
100
AcDbBlockEnd
  0
BLOCK
  5
516
100
AcDbEntity
  8
0
100
AcDbBlockBegin
  2
*D5
 70
     1
 10
0.0
 20
0.0
 30
0.0
  3
*D5
  1

  0
LINE
  5
517
100
AcDbEntity
  8
0
  6
BYBLOCK
 62
     1
100
AcDbLine
 10
417.266285
 20
426.448693
 30
0.0
 11
407.130989
 21
426.448693
 31
0.0
  0
LINE
  5
518
100
AcDbEntity
  8
0
  6
BYBLOCK
 62
     1
100
AcDbLine
 10
431.622312
 20
469.448693
 30
0.0
 11
407.130989
 21
469.448693
 31
0.0
  0
LINE
  5
519
100
AcDbEntity
  8
0
  6
BYBLOCK
 62
     1
100
AcDbLine
 10
409.130989
 20
428.448693
 30
0.0
 11
409.130989
 21
467.448693
 31
0.0
  0
INSERT
  5
51A
100
AcDbEntity
  8
0
  6
BYBLOCK
 62
     1
100
AcDbBlockReference
  2
_OPEN
 10
409.130989
 20
426.448693
 30
0.0
 41
2.0
 42
2.0
 43
2.0
 50
270.0
  0
INSERT
  5
51B
100
AcDbEntity
  8
0
  6
BYBLOCK
 62
     1
100
AcDbBlockReference
  2
_OPEN
 10
409.130989
 20
469.448693
 30
0.0
 41
2.0
 42
2.0
 43
2.0
 50
90.0
  0
MTEXT
  5
51C
100
AcDbEntity
  8
0
  6
BYBLOCK
 62
     3
100
AcDbMText
 10
406.630989
 20
447.948693
 30
0.0
 40
3.0
 41
0.0
 71
     5
 72
     1
  1
\A1;43
 11
0.0
 21
1.0
 31
0.0
  0
POINT
  5
51D
100
AcDbEntity
  8
DEFPOINTS
  6
BYBLOCK
 62
     0
100
AcDbPoint
 10
418.266285
 20
426.448693
 30
0.0
  0
POINT
  5
51E
100
AcDbEntity
  8
DEFPOINTS
  6
BYBLOCK
 62
     0
100
AcDbPoint
 10
432.622312
 20
469.448693
 30
0.0
  0
POINT
  5
51F
100
AcDbEntity
  8
DEFPOINTS
  6
BYBLOCK
 62
     0
100
AcDbPoint
 10
409.130989
 20
469.448693
 30
0.0
  0
ENDBLK
  5
520
100
AcDbEntity
  8
0
100
AcDbBlockEnd
  0
BLOCK
  5
521
100
AcDbEntity
  8
0
100
AcDbBlockBegin
  2
*D6
 70
     1
 10
0.0
 20
0.0
 30
0.0
  3
*D6
  1

  0
LINE
  5
522
100
AcDbEntity
  8
0
  6
BYBLOCK
 62
     1
100
AcDbLine
 10
417.726897
 20
405.734178
 30
0.0
 11
417.726897
 21
399.501475
 31
0.0
  0
LINE
  5
523
100
AcDbEntity
  8
0
  6
BYBLOCK
 62
     1
100
AcDbLine
 10
430.18734
 20
423.254456
 30
0.0
 11
443.895516
 21
419.581362
 31
0.0
  0
ARC
  5
524
100
AcDbEntity
  8
0
  6
BYBLOCK
 62
     1
100
AcDbCircle
 10
417.726897
 20
426.593222
 30
0.0
 40
25.091747
100
AcDbArc
 50
274.568112
 51
340.431888
  0
INSERT
  5
525
100
AcDbEntity
  8
0
  6
BYBLOCK
 62
     1
100
AcDbBlockReference
  2
_OPEN
 10
417.726897
 20
401.501475
 30
0.0
 41
2.0
 42
2.0
 43
2.0
 50
182.284056
  0
INSERT
  5
526
100
AcDbEntity
  8
0
  6
BYBLOCK
 62
     1
100
AcDbBlockReference
  2
_OPEN
 10
441.963664
 20
420.099
 30
0.0
 41
2.0
 42
2.0
 43
2.0
 50
72.715944
  0
MTEXT
  5
527
100
AcDbEntity
  8
0
  6
BYBLOCK
 62
     3
100
AcDbMText
 10
431.479882
 20
408.669984
 30
0.0
 40
3.0
 41
0.0
 71
     5
 72
     1
  1
\A1;75°
 11
0.793353
 21
0.608761
 31
0.0
  0
POINT
  5
528
100
AcDbEntity
  8
DEFPOINTS
  6
BYBLOCK
 62
     0
100
AcDbPoint
 10
428.331128
 20
403.852376
 30
0.0
  0
POINT
  5
529
100
AcDbEntity
  8
DEFPOINTS
  6
BYBLOCK
 62
     0
100
AcDbPoint
 10
417.726897
 20
426.593222
 30
0.0
  0
POINT
  5
52A
100
AcDbEntity
  8
DEFPOINTS
  6
BYBLOCK
 62
     0
100
AcDbPoint
 10
418.499638
 20
426.386167
 30
0.0
  0
POINT
  5
52B
100
AcDbEntity
  8
DEFPOINTS
  6
BYBLOCK
 62
     0
100
AcDbPoint
 10
429.221415
 20
423.513275
 30
0.0
  0
POINT
  5
52C
100
AcDbEntity
  8
DEFPOINTS
  6
BYBLOCK
 62
     0
100
AcDbPoint
 10
417.726897
 20
406.734178
 30
0.0
  0
ENDBLK
  5
52D
100
AcDbEntity
  8
0
100
AcDbBlockEnd
  0
BLOCK
  5
52E
100
AcDbEntity
  8
0
100
AcDbBlockBegin
  2
*D7
 70
     1
 10
0.0
 20
0.0
 30
0.0
  3
*D7
  1

  0
LINE
  5
52F
100
AcDbEntity
  8
0
  6
BYBLOCK
 62
     1
100
AcDbLine
 10
670.41541
 20
364.729868
 30
0.0
 11
690.028066
 21
364.729868
 31
0.0
  0
LINE
  5
530
100
AcDbEntity
  8
0
  6
BYBLOCK
 62
     1
100
AcDbLine
 10
670.41541
 20
314.729868
 30
0.0
 11
690.028066
 21
314.729868
 31
0.0
  0
LINE
  5
531
100
AcDbEntity
  8
0
  6
BYBLOCK
 62
     1
100
AcDbLine
 10
688.028066
 20
362.729868
 30
0.0
 11
688.028066
 21
316.729868
 31
0.0
  0
INSERT
  5
532
100
AcDbEntity
  8
0
  6
BYBLOCK
 62
     1
100
AcDbBlockReference
  2
_OPEN
 10
688.028066
 20
364.729868
 30
0.0
 41
2.0
 42
2.0
 43
2.0
 50
90.0
  0
INSERT
  5
533
100
AcDbEntity
  8
0
  6
BYBLOCK
 62
     1
100
AcDbBlockReference
  2
_OPEN
 10
688.028066
 20
314.729868
 30
0.0
 41
2.0
 42
2.0
 43
2.0
 50
270.0
  0
MTEXT
  5
534
100
AcDbEntity
  8
0
  6
BYBLOCK
 62
     3
100
AcDbMText
 10
685.528066
 20
339.729868
 30
0.0
 40
3.0
 41
0.0
 71
     5
 72
     1
  1
\A1;50
 11
0.0
 21
1.0
 31
0.0
  0
POINT
  5
535
100
AcDbEntity
  8
DEFPOINTS
  6
BYBLOCK
 62
     0
100
AcDbPoint
 10
669.41541
 20
364.729868
 30
0.0
  0
POINT
  5
536
100
AcDbEntity
  8
DEFPOINTS
  6
BYBLOCK
 62
     0
100
AcDbPoint
 10
669.41541
 20
314.729868
 30
0.0
  0
POINT
  5
537
100
AcDbEntity
  8
DEFPOINTS
  6
BYBLOCK
 62
     0
100
AcDbPoint
 10
688.028066
 20
314.729868
 30
0.0
  0
ENDBLK
  5
538
100
AcDbEntity
  8
0
100
AcDbBlockEnd
  0
BLOCK
  5
539
100
AcDbEntity
  8
0
100
AcDbBlockBegin
  2
*D8
 70
     1
 10
0.0
 20
0.0
 30
0.0
  3
*D8
  1

  0
LINE
  5
53A
100
AcDbEntity
  8
0
  6
BYBLOCK
 62
     1
100
AcDbLine
 10
669.266285
 20
469.448693
 30
0.0
 11
690.028066
 21
469.448693
 31
0.0
  0
LINE
  5
53B
100
AcDbEntity
  8
0
  6
BYBLOCK
 62
     1
100
AcDbLine
 10
669.266285
 20
419.448693
 30
0.0
 11
690.028066
 21
419.448693
 31
0.0
  0
LINE
  5
53C
100
AcDbEntity
  8
0
  6
BYBLOCK
 62
     1
100
AcDbLine
 10
688.028066
 20
467.448693
 30
0.0
 11
688.028066
 21
421.448693
 31
0.0
  0
INSERT
  5
53D
100
AcDbEntity
  8
0
  6
BYBLOCK
 62
     1
100
AcDbBlockReference
  2
_OPEN
 10
688.028066
 20
469.448693
 30
0.0
 41
2.0
 42
2.0
 43
2.0
 50
90.0
  0
INSERT
  5
53E
100
AcDbEntity
  8
0
  6
BYBLOCK
 62
     1
100
AcDbBlockReference
  2
_OPEN
 10
688.028066
 20
419.448693
 30
0.0
 41
2.0
 42
2.0
 43
2.0
 50
270.0
  0
MTEXT
  5
53F
100
AcDbEntity
  8
0
  6
BYBLOCK
 62
     3
100
AcDbMText
 10
685.528066
 20
444.448693
 30
0.0
 40
3.0
 41
0.0
 71
     5
 72
     1
  1
\A1;50
 11
0.0
 21
1.0
 31
0.0
  0
POINT
  5
540
100
AcDbEntity
  8
DEFPOINTS
  6
BYBLOCK
 62
     0
100
AcDbPoint
 10
668.266285
 20
469.448693
 30
0.0
  0
POINT
  5
541
100
AcDbEntity
  8
DEFPOINTS
  6
BYBLOCK
 62
     0
100
AcDbPoint
 10
668.266285
 20
419.448693
 30
0.0
  0
POINT
  5
542
100
AcDbEntity
  8
DEFPOINTS
  6
BYBLOCK
 62
     0
100
AcDbPoint
 10
688.028066
 20
419.448693
 30
0.0
  0
ENDBLK
  5
543
100
AcDbEntity
  8
0
100
AcDbBlockEnd
  0
BLOCK
  5
54F
100
AcDbEntity
  8
0
100
AcDbBlockBegin
  2
*D10
 70
     1
 10
0.0
 20
0.0
 30
0.0
  3
*D10
  1

  0
LINE
  5
550
100
AcDbEntity
  8
0
  6
BYBLOCK
 62
     1
100
AcDbLine
 10
381.300264
 20
434.566761
 30
0.0
 11
375.610677
 21
419.744882
 31
0.0
  0
LINE
  5
551
100
AcDbEntity
  8
0
  6
BYBLOCK
 62
     1
100
AcDbLine
 10
381.479413
 20
434.534416
 30
0.0
 11
377.363928
 21
419.175216
 31
0.0
  0
ARC
  5
552
100
AcDbEntity
  8
0
  6
BYBLOCK
 62
     1
100
AcDbCircle
 10
381.922235
 20
436.187052
 30
0.0
 40
15.611949
100
AcDbArc
 50
234.279566
 51
249.0
  0
LINE
  5
553
100
AcDbEntity
  8
0
  6
BYBLOCK
 62
     1
100
AcDbLine
 10
372.807499
 20
423.512096
 30
0.0
 11
365.825371
 21
428.533041
 31
0.0
  0
ARC
  5
554
100
AcDbEntity
  8
0
  6
BYBLOCK
 62
     1
100
AcDbCircle
 10
381.922235
 20
436.187052
 30
0.0
 40
15.611949
100
AcDbArc
 50
234.309961
 51
241.654981
  0
ARC
  5
555
100
AcDbEntity
  8
0
  6
BYBLOCK
 62
     1
100
AcDbCircle
 10
381.922235
 20
436.187052
 30
0.0
 40
15.611949
100
AcDbArc
 50
262.345019
 51
269.690039
  0
ARC
  5
556
100
AcDbEntity
  8
0
  6
BYBLOCK
 62
     1
100
AcDbCircle
 10
381.922235
 20
436.187052
 30
0.0
 40
15.611949
100
AcDbArc
 50
249.0
 51
255.0
  0
INSERT
  5
557
100
AcDbEntity
  8
0
  6
BYBLOCK
 62
     1
100
AcDbBlockReference
  2
_OPEN
 10
376.327413
 20
421.612042
 30
0.0
 41
2.0
 42
2.0
 43
2.0
 50
335.32749
  0
INSERT
  5
558
100
AcDbEntity
  8
0
  6
BYBLOCK
 62
     1
100
AcDbBlockReference
  2
_OPEN
 10
377.881566
 20
421.107068
 30
0.0
 41
2.0
 42
2.0
 43
2.0
 50
168.67251
  0
MTEXT
  5
559
100
AcDbEntity
  8
0
  6
BYBLOCK
 62
     3
100
AcDbMText
 10
370.776012
 20
428.052257
 30
0.0
 40
3.0
 41
0.0
 71
     5
 72
     1
  1
\A1;6°
 11
0.811875
 21
-0.583831
 31
0.0
  0
POINT
  5
55A
100
AcDbEntity
  8
DEFPOINTS
  6
BYBLOCK
 62
     0
100
AcDbPoint
 10
377.357743
 20
421.257271
 30
0.0
  0
POINT
  5
55B
100
AcDbEntity
  8
DEFPOINTS
  6
BYBLOCK
 62
     0
100
AcDbPoint
 10
388.41768
 20
453.108265
 30
0.0
  0
POINT
  5
55C
100
AcDbEntity
  8
DEFPOINTS
  6
BYBLOCK
 62
     0
100
AcDbPoint
 10
383.358681
 20
441.54794
 30
0.0
  0
POINT
  5
55D
100
AcDbEntity
  8
DEFPOINTS
  6
BYBLOCK
 62
     0
100
AcDbPoint
 10
381.738232
 20
435.500341
 30
0.0
  0
POINT
  5
55E
100
AcDbEntity
  8
DEFPOINTS
  6
BYBLOCK
 62
     0
100
AcDbPoint
 10
381.658632
 20
435.500341
 30
0.0
  0
ENDBLK
  5
55F
100
AcDbEntity
  8
0
100
AcDbBlockEnd
  0
BLOCK
  5
57A
100
AcDbEntity
  8
0
100
AcDbBlockBegin
  2
*D13
 70
     1
 10
0.0
 20
0.0
 30
0.0
  3
*D13
  1

  0
LINE
  5
57B
100
AcDbEntity
  8
0
  6
BYBLOCK
 62
     1
100
AcDbLine
 10
341.849441
 20
379.160356
 30
0.0
 11
318.043705
 21
385.539084
 31
0.0
  0
LINE
  5
57C
100
AcDbEntity
  8
0
  6
BYBLOCK
 62
     1
100
AcDbLine
 10
341.830559
 20
379.075185
 30
0.0
 11
317.559469
 21
383.354833
 31
0.0
  0
ARC
  5
57D
100
AcDbEntity
  8
0
  6
BYBLOCK
 62
     1
100
AcDbCircle
 10
342.815367
 20
378.901537
 30
0.0
 40
23.645511
100
AcDbArc
 50
155.295948
 51
165.0
  0
LINE
  5
57E
100
AcDbEntity
  8
0
  6
BYBLOCK
 62
     1
100
AcDbLine
 10
321.333926
 20
388.783737
 30
0.0
 11
324.928135
 21
396.596653
 31
0.0
  0
ARC
  5
57F
100
AcDbEntity
  8
0
  6
BYBLOCK
 62
     1
100
AcDbCircle
 10
342.815367
 20
378.901537
 30
0.0
 40
23.645511
100
AcDbArc
 50
155.304651
 51
160.152325
  0
ARC
  5
580
100
AcDbEntity
  8
0
  6
BYBLOCK
 62
     1
100
AcDbCircle
 10
342.815367
 20
378.901537
 30
0.0
 40
23.645511
100
AcDbArc
 50
174.847675
 51
179.695349
  0
ARC
  5
581
100
AcDbEntity
  8
0
  6
BYBLOCK
 62
     1
100
AcDbCircle
 10
342.815367
 20
378.901537
 30
0.0
 40
23.645511
100
AcDbArc
 50
165.0
 51
170.0
  0
INSERT
  5
582
100
AcDbEntity
  8
0
  6
BYBLOCK
 62
     1
100
AcDbBlockReference
  2
_OPEN
 10
319.975557
 20
385.021446
 30
0.0
 41
2.0
 42
2.0
 43
2.0
 50
252.576163
  0
INSERT
  5
583
100
AcDbEntity
  8
0
  6
BYBLOCK
 62
     1
100
AcDbBlockReference
  2
_OPEN
 10
319.529084
 20
383.007537
 30
0.0
 41
2.0
 42
2.0
 43
2.0
 50
82.423837
  0
MTEXT
  5
584
100
AcDbEntity
  8
0
  6
BYBLOCK
 62
     3
100
AcDbMText
 10
320.859834
 20
393.735023
 30
0.0
 40
3.0
 41
0.0
 71
     5
 72
     1
  1
\A1;5°
 11
0.417931
 21
0.908479
 31
0.0
  0
POINT
  5
585
100
AcDbEntity
  8
DEFPOINTS
  6
BYBLOCK
 62
     0
100
AcDbPoint
 10
319.658357
 20
383.683075
 30
0.0
  0
POINT
  5
586
100
AcDbEntity
  8
DEFPOINTS
  6
BYBLOCK
 62
     0
100
AcDbPoint
 10
342.815367
 20
378.901537
 30
0.0
  0
POINT
  5
587
100
AcDbEntity
  8
DEFPOINTS
  6
BYBLOCK
 62
     0
100
AcDbPoint
 10
342.815367
 20
378.901537
 30
0.0
  0
POINT
  5
588
100
AcDbEntity
  8
DEFPOINTS
  6
BYBLOCK
 62
     0
100
AcDbPoint
 10
390.176615
 20
366.211129
 30
0.0
  0
POINT
  5
589
100
AcDbEntity
  8
DEFPOINTS
  6
BYBLOCK
 62
     0
100
AcDbPoint
 10
391.102433
 20
370.387225
 30
0.0
  0
ENDBLK
  5
58A
100
AcDbEntity
  8
0
100
AcDbBlockEnd
  0
ENDSEC
  0
SECTION
  2
ENTITIES
  0
DIMENSION
  5
24
100
AcDbEntity
  8
寸法
  6
CONTINUOUS
100
AcDbDimension
  2
*D2
 10
668.266285
 20
393.290725
 30
0.0
 11
543.266285
 21
395.790725
 31
0.0
 70
    32
  3
STANDARD
100
AcDbAlignedDimension
 13
418.266285
 23
426.448693
 33
0.0
 14
668.266285
 24
419.448693
 34
0.0
100
AcDbRotatedDimension
1001
ACAD
1000
DSTYLE
1002
{
1070
    40
1040
1.0
1002
}
  0
LINE
  5
3B
100
AcDbEntity
  8
外形
  6
CONTINUOUS
100
AcDbLine
 10
431.137922
 20
469.448693
 30
0.0
 11
668.266285
 21
469.448693
 31
0.0
  0
LINE
  5
3C
100
AcDbEntity
  8
外形
  6
CONTINUOUS
100
AcDbLine
 10
468.266285
 20
364.729868
 30
0.0
 11
669.41541
 21
364.729868
 31
0.0
  0
LINE
  5
3D
100
AcDbEntity
  8
外形
  6
CONTINUOUS
100
AcDbLine
 10
419.946897
 20
314.729868
 30
0.0
 11
669.41541
 21
314.729868
 31
0.0
  0
TEXT
  5
3E
100
AcDbEntity
  8
外形
  6
CONTINUOUS
 62
     2
100
AcDbText
 10
474.614147
 20
274.140722
 30
0.0
 40
6.0
  1
ＰＳＢＮ　Ｒ５０５０－８５
100
AcDbText
  0
DIMENSION
  5
3F
100
AcDbEntity
  8
寸法
  6
CONTINUOUS
100
AcDbDimension
  2
*D3
 10
468.266285
 20
379.998609
 30
0.0
 11
443.266285
 21
382.498609
 31
0.0
 70
    32
  3
STANDARD
100
AcDbAlignedDimension
 13
418.266285
 23
364.729868
 33
0.0
 14
468.266285
 24
364.729868
 34
0.0
100
AcDbRotatedDimension
1001
ACAD
1000
DSTYLE
1002
{
1070
    40
1040
1.0
1002
}
  0
DIMENSION
  5
4C
100
AcDbEntity
  8
寸法
  6
CONTINUOUS
100
AcDbDimension
  2
*D4
 10
409.130989
 20
314.729868
 30
0.0
 11
406.630989
 21
339.729868
 31
0.0
 70
    32
  3
STANDARD
100
AcDbAlignedDimension
 13
418.266285
 23
364.729868
 33
0.0
 14
420.51597
 24
314.729868
 34
0.0
 50
90.0
100
AcDbRotatedDimension
1001
ACAD
1000
DSTYLE
1002
{
1070
    40
1040
1.0
1002
}
  0
LINE
  5
5B
100
AcDbEntity
  8
外形
  6
CONTINUOUS
100
AcDbLine
 10
418.266285
 20
364.729868
 30
0.0
 11
466.847529
 21
370.024736
 31
0.0
  0
LINE
  5
5C
100
AcDbEntity
  8
外形
  6
CONTINUOUS
100
AcDbLine
 10
419.210358
 20
356.845742
 30
0.0
 11
443.205486
 21
359.46097
 31
0.0
  0
LINE
  5
5D
100
AcDbEntity
  8
外形
  6
CONTINUOUS
100
AcDbLine
 10
419.946897
 20
350.538414
 30
0.0
 11
443.935652
 21
353.152947
 31
0.0
  0
LINE
  5
5E
100
AcDbEntity
  8
外形
  6
CONTINUOUS
100
AcDbLine
 10
418.266285
 20
364.729868
 30
0.0
 11
419.210358
 21
356.845742
 31
0.0
  0
LINE
  5
5F
100
AcDbEntity
  8
外形
  6
CONTINUOUS
100
AcDbLine
 10
442.261413
 20
367.345096
 30
0.0
 11
443.205486
 21
359.46097
 31
0.0
  0
LINE
  5
60
100
AcDbEntity
  8
外形
  6
CONTINUOUS
100
AcDbLine
 10
466.847529
 20
370.024736
 30
0.0
 11
468.266285
 21
364.729868
 31
0.0
  0
DIMENSION
  5
64
100
AcDbEntity
  8
寸法
  6
CONTINUOUS
100
AcDbDimension
  2
*D5
 10
409.130989
 20
469.448693
 30
0.0
 11
406.630989
 21
447.948693
 31
0.0
 70
    32
  3
STANDARD
100
AcDbAlignedDimension
 13
418.266285
 23
426.448693
 33
0.0
 14
432.622312
 24
469.448693
 34
0.0
 50
90.0
100
AcDbRotatedDimension
1001
ACAD
1000
DSTYLE
1002
{
1070
    40
1040
1.0
1002
}
  0
CIRCLE
  5
73
100
AcDbEntity
  8
外形
  6
CONTINUOUS
100
AcDbCircle
 10
433.281157
 20
435.573478
 30
0.0
 40
4.3
  0
LINE
  5
74
100
AcDbEntity
  8
外形
  6
CONTINUOUS
100
AcDbLine
 10
423.679735
 20
448.809516
 30
0.0
 11
418.348063
 21
428.911444
 31
0.0
  0
LINE
  5
75
100
AcDbEntity
  8
外形
  6
CONTINUOUS
100
AcDbLine
 10
448.835417
 20
444.553734
 30
0.0
 11
442.882579
 21
422.33744
 31
0.0
  0
LINE
  5
8A
100
AcDbEntity
  8
外形
  6
CONTINUOUS
100
AcDbLine
 10
420.045119
 20
425.972056
 30
0.0
 11
439.943191
 21
420.640384
 31
0.0
  0
DIMENSION
  5
8B
100
AcDbEntity
  8
寸法
  6
CONTINUOUS
100
AcDbDimension
  2
*D6
 10
417.726897
 20
406.734178
 30
0.0
 11
431.479882
 21
408.669984
 31
0.0
 70
    34
  3
STANDARD
100
AcDb2LineAngularDimension
 13
418.499638
 23
426.386167
 33
0.0
 14
429.221415
 24
423.513275
 34
0.0
 15
417.726897
 25
426.593222
 35
0.0
 16
428.331128
 26
403.852376
 36
0.0
1001
ACAD
1000
DSTYLE
1002
{
1070
    40
1040
1.0
1002
}
  0
ARC
  5
9A
100
AcDbEntity
  8
外形
  6
CONTINUOUS
100
AcDbCircle
 10
420.666285
 20
428.290278
 30
0.0
 40
2.4
100
AcDbArc
 50
165.0
 51
255.0
  0
LINE
  5
9D
100
AcDbEntity
  8
外形
  6
CONTINUOUS
100
AcDbLine
 10
442.782625
 20
421.964407
 30
0.0
 11
452.171396
 21
419.448693
 31
0.0
  0
ARC
  5
9E
100
AcDbEntity
  8
外形
  6
CONTINUOUS
100
AcDbCircle
 10
440.564357
 20
422.958606
 30
0.0
 40
2.4
100
AcDbArc
 50
255.0
 51
345.0
  0
LINE
  5
9F
100
AcDbEntity
  8
外形
  6
CONTINUOUS
100
AcDbLine
 10
431.137922
 20
469.448693
 30
0.0
 11
426.099689
 21
450.645754
 31
0.0
  0
LINE
  5
A0
100
AcDbEntity
  8
外形
  6
CONTINUOUS
100
AcDbLine
 10
426.619123
 20
450.506572
 30
0.0
 11
446.517195
 21
445.1749
 31
0.0
  0
ARC
  5
A5
100
AcDbEntity
  8
外形
  6
CONTINUOUS
100
AcDbCircle
 10
425.997957
 20
448.18835
 30
0.0
 40
2.4
100
AcDbArc
 50
75.0
 51
165.0
  0
CIRCLE
  5
A7
100
AcDbEntity
  8
外形
  6
CONTINUOUS
100
AcDbCircle
 10
455.454638
 20
438.296039
 30
0.0
 40
5.053
  0
LWPOLYLINE
  5
A8
100
AcDbEntity
  8
外形
  6
CONTINUOUS
100
AcDbPolyline
 90
        6
 70
     1
 43
0.0
 10
453.348286
 20
441.091263
 10
451.980727
 20
437.869496
 10
454.087079
 20
435.074272
 10
457.560991
 20
435.500815
 10
458.92855
 20
438.722582
 10
456.822197
 20
441.517806
  0
CIRCLE
  5
A9
100
AcDbEntity
  8
外形
  6
CONTINUOUS
100
AcDbCircle
 10
455.454638
 20
438.296039
 30
0.0
 40
6.0
  0
ARC
  5
AA
100
AcDbEntity
  8
外形
  6
CONTINUOUS
100
AcDbCircle
 10
444.971714
 20
445.58901
 30
0.0
 40
4.0
100
AcDbArc
 50
345.0
 51
165.0
  0
ARC
  5
AB
100
AcDbEntity
  8
外形
  6
CONTINUOUS
100
AcDbCircle
 10
445.896029
 20
442.856678
 30
0.0
 40
2.4
100
AcDbArc
 50
345.0
 51
75.0
  0
DIMENSION
  5
AC
100
AcDbEntity
  8
寸法
  6
CONTINUOUS
100
AcDbDimension
  2
*D7
 10
688.028066
 20
314.729868
 30
0.0
 11
685.528066
 21
339.729868
 31
0.0
 70
    32
  3
STANDARD
100
AcDbAlignedDimension
 13
669.41541
 23
364.729868
 33
0.0
 14
669.41541
 24
314.729868
 34
0.0
 50
90.0
100
AcDbRotatedDimension
1001
ACAD
1000
DSTYLE
1002
{
1070
    40
1040
1.0
1002
}
  0
LINE
  5
B9
100
AcDbEntity
  8
外形
  6
CONTINUOUS
100
AcDbLine
 10
669.41541
 20
364.729868
 30
0.0
 11
669.41541
 21
314.729868
 31
0.0
  0
DIMENSION
  5
BA
100
AcDbEntity
  8
寸法
  6
CONTINUOUS
100
AcDbDimension
  2
*D8
 10
688.028066
 20
419.448693
 30
0.0
 11
685.528066
 21
444.448693
 31
0.0
 70
    32
  3
STANDARD
100
AcDbAlignedDimension
 13
668.266285
 23
469.448693
 33
0.0
 14
668.266285
 24
419.448693
 34
0.0
 50
90.0
100
AcDbRotatedDimension
1001
ACAD
1000
DSTYLE
1002
{
1070
    40
1040
1.0
1002
}
  0
LINE
  5
C7
100
AcDbEntity
  8
外形
  6
CONTINUOUS
100
AcDbLine
 10
668.266285
 20
469.448693
 30
0.0
 11
668.266285
 21
419.448693
 31
0.0
  0
LINE
  5
216
100
AcDbEntity
  8
外形
  6
CONTINUOUS
100
AcDbLine
 10
377.725097
 20
465.128351
 30
0.0
 11
368.629558
 21
441.433661
 31
0.0
  0
LINE
  5
217
100
AcDbEntity
  8
外形
  6
CONTINUOUS
100
AcDbLine
 10
383.662292
 20
462.876054
 30
0.0
 11
374.518566
 21
439.055833
 31
0.0
  0
LINE
  5
219
100
AcDbEntity
  8
外形
  6
CONTINUOUS
100
AcDbLine
 10
395.104994
 20
470.529313
 30
0.0
 11
381.922235
 21
436.187052
 31
0.0
  0
DIMENSION
  5
21E
100
AcDbEntity
  8
寸法
  6
CONTINUOUS
100
AcDbDimension
  2
*D10
 10
381.658632
 20
435.500341
 30
0.0
 11
370.776012
 21
428.052257
 31
0.0
 70
    34
  3
STANDARD
100
AcDb2LineAngularDimension
 13
383.358681
 23
441.54794
 33
0.0
 14
381.738232
 24
435.500341
 34
0.0
 15
388.41768
 25
453.108265
 35
0.0
 16
377.357743
 26
421.257271
 36
0.0
1001
ACAD
1000
DSTYLE
1002
{
1070
    40
1040
1.0
1002
}
  0
LINE
  5
24D
100
AcDbEntity
  8
寸法
  6
CONTINUOUS
100
AcDbLine
 10
417.726897
 20
426.593222
 30
0.0
 11
381.922235
 21
436.187052
 31
0.0
  0
LINE
  5
24E
100
AcDbEntity
  8
外形
  6
CONTINUOUS
100
AcDbLine
 10
368.629558
 20
441.433661
 30
0.0
 11
332.562794
 21
451.097722
 31
0.0
  0
LINE
  5
24F
100
AcDbEntity
  8
外形
  6
CONTINUOUS
100
AcDbLine
 10
395.104994
 20
470.529313
 30
0.0
 11
341.610224
 21
484.863193
 31
0.0
  0
LINE
  5
250
100
AcDbEntity
  8
外形
  6
CONTINUOUS
100
AcDbLine
 10
381.922235
 20
436.187052
 30
0.0
 11
374.509607
 21
439.032494
 31
0.0
  0
LINE
  5
251
100
AcDbEntity
  8
外形
  6
CONTINUOUS
100
AcDbLine
 10
391.074921
 20
460.030612
 30
0.0
 11
383.662292
 21
462.876054
 31
0.0
  0
LINE
  5
252
100
AcDbEntity
  8
外形
  6
CONTINUOUS
100
AcDbLine
 10
383.653333
 20
462.852714
 30
0.0
 11
377.725097
 21
465.128351
 31
0.0
  0
LINE
  5
253
100
AcDbEntity
  8
外形
  6
CONTINUOUS
100
AcDbLine
 10
374.518566
 20
439.055833
 30
0.0
 11
368.59033
 21
441.33147
 31
0.0
  0
LINE
  5
254
100
AcDbEntity
  8
寸法
  6
CONTINUOUS
100
AcDbLine
 10
418.266285
 20
426.448693
 30
0.0
 11
410.005758
 21
395.619986
 31
0.0
  0
LINE
  5
255
100
AcDbEntity
  8
外形
  6
CONTINUOUS
100
AcDbLine
 10
391.286881
 20
370.354701
 30
0.0
 11
377.235662
 21
317.914838
 31
0.0
  0
LINE
  5
256
100
AcDbEntity
  8
外形
  6
CONTINUOUS
100
AcDbLine
 10
364.204667
 20
360.61958
 30
0.0
 11
354.401392
 21
324.033262
 31
0.0
  0
LINE
  5
257
100
AcDbEntity
  8
外形
  6
CONTINUOUS
100
AcDbLine
 10
340.391639
 20
364.818459
 30
0.0
 11
331.133815
 21
330.26779
 31
0.0
  0
LINE
  5
258
100
AcDbEntity
  8
寸法
  6
CONTINUOUS
100
AcDbLine
 10
347.295062
 20
395.619986
 30
0.0
 11
342.815367
 21
378.901537
 31
0.0
  0
LINE
  5
25A
100
AcDbEntity
  8
寸法
  6
CONTINUOUS
100
AcDbLine
 10
347.295062
 20
395.619986
 30
0.0
 11
410.005758
 21
395.619986
 31
0.0
  0
LINE
  5
25B
100
AcDbEntity
  8
外形
  6
CONTINUOUS
100
AcDbLine
 10
342.815367
 20
378.901537
 30
0.0
 11
391.102433
 21
370.387225
 31
0.0
  0
LINE
  5
25C
100
AcDbEntity
  8
外形
  6
CONTINUOUS
100
AcDbLine
 10
341.436601
 20
371.082164
 30
0.0
 11
365.994235
 21
366.75199
 31
0.0
  0
LINE
  5
25D
100
AcDbEntity
  8
外形
  6
CONTINUOUS
100
AcDbLine
 10
340.391639
 20
364.818459
 30
0.0
 11
364.866949
 21
360.502802
 31
0.0
  0
LINE
  5
25E
100
AcDbEntity
  8
外形
  6
CONTINUOUS
100
AcDbLine
 10
342.815367
 20
378.901537
 30
0.0
 11
341.436601
 21
371.082164
 31
0.0
  0
LINE
  5
25F
100
AcDbEntity
  8
外形
  6
CONTINUOUS
100
AcDbLine
 10
367.373002
 20
374.571364
 30
0.0
 11
365.994235
 21
366.75199
 31
0.0
  0
DIMENSION
  5
260
100
AcDbEntity
  8
寸法
  6
CONTINUOUS
100
AcDbDimension
  2
*D13
 10
391.102433
 20
370.387225
 30
0.0
 11
320.859834
 21
393.735023
 31
0.0
 70
    34
  3
STANDARD
100
AcDb2LineAngularDimension
 13
342.815367
 23
378.901537
 33
0.0
 14
390.176615
 24
366.211129
 34
0.0
 15
342.815367
 25
378.901537
 35
0.0
 16
319.658357
 26
383.683075
 36
0.0
1001
ACAD
1000
DSTYLE
1002
{
1070
    40
1040
1.0
1002
}
  0
LINE
  5
261
100
AcDbEntity
  8
外形
  6
CONTINUOUS
100
AcDbLine
 10
365.969615
 20
366.756331
 30
0.0
 11
364.866949
 21
360.502802
 31
0.0
  0
LINE
  5
262
100
AcDbEntity
  8
外形
  6
CONTINUOUS
100
AcDbLine
 10
341.461221
 20
371.077822
 30
0.0
 11
340.358555
 21
364.824293
 31
0.0
  0
LINE
  5
34E
100
AcDbEntity
  8
外形
  6
CONTINUOUS
100
AcDbLine
 10
331.133815
 20
330.26779
 30
0.0
 11
377.235662
 21
317.914838
 31
0.0
  0
LINE
  5
34F
100
AcDbEntity
  8
外形
  6
CONTINUOUS
100
AcDbLine
 10
332.562794
 20
451.097722
 30
0.0
 11
341.610224
 21
484.863193
 31
0.0
  0
LINE
  5
360
100
AcDbEntity
  8
外形
  6
CONTINUOUS
100
AcDbLine
 10
452.171396
 20
419.448693
 30
0.0
 11
668.266285
 21
419.448693
 31
0.0
  0
LINE
  5
361
100
AcDbEntity
  8
外形
  6
CONTINUOUS
100
AcDbLine
 10
468.266285
 20
364.729868
 30
0.0
 11
468.266285
 21
314.729868
 31
0.0
  0
LINE
  5
373
100
AcDbEntity
  8
外形
  6
CONTINUOUS
100
AcDbLine
 10
466.59379
 20
369.997081
 30
0.0
 11
466.59379
 21
314.729868
 31
0.0
  0
LINE
  5
374
100
AcDbEntity
  8
外形
  6
CONTINUOUS
100
AcDbLine
 10
468.266285
 20
419.448693
 30
0.0
 11
468.266285
 21
469.448693
 31
0.0
  0
LINE
  5
377
100
AcDbEntity
  8
外形
  6
CONTINUOUS
100
AcDbLine
 10
466.59379
 20
469.448693
 30
0.0
 11
468.266285
 21
419.448693
 31
0.0
  0
LINE
  5
386
100
AcDbEntity
  8
外形
  6
CONTINUOUS
100
AcDbLine
 10
419.235212
 20
356.848451
 30
0.0
 11
419.990232
 21
350.543137
 31
0.0
  0
LINE
  5
387
100
AcDbEntity
  8
外形
  6
CONTINUOUS
100
AcDbLine
 10
443.180632
 20
359.458262
 30
0.0
 11
443.935652
 21
353.152947
 31
0.0
  0
LINE
  5
4BC
100
AcDbEntity
  8
外形
  6
CONTINUOUS
100
AcDbLine
 10
452.171396
 20
368.425184
 30
0.0
 11
452.171396
 21
314.729868
 31
0.0
  0
LINE
  5
4BD
100
AcDbEntity
  8
外形
  6
CONTINUOUS
100
AcDbLine
 10
419.946897
 20
350.538414
 30
0.0
 11
419.946897
 21
314.729868
 31
0.0
  0
ENDSEC
  0
SECTION
  2
OBJECTS
  0
DICTIONARY
  5
1E
100
AcDbDictionary
  3
ACAD_GROUP
350
1C
  3
ACAD_MLINESTYLE
350
1D
  0
DICTIONARY
  5
34
100
AcDbDictionary
280
     1
  3
ACAD_XREC_ROUNDTRIP
360
35
  0
DICTIONARY
  5
22
100
AcDbDictionary
280
     1
  3
ACAD_XREC_ROUNDTRIP
360
23
  0
DICTIONARY
  5
3
100
AcDbDictionary
280
     1
  3
ACAD_LAYOUTSELFREF
360
4
  0
DICTIONARY
  5
A
100
AcDbDictionary
280
     1
  3
ACAD_LAYOUTSELFREF
360
B
  0
DICTIONARY
  5
1C
102
{ACAD_REACTORS
330
1E
102
}
100
AcDbDictionary
  0
DICTIONARY
  5
1D
102
{ACAD_REACTORS
330
1E
102
}
100
AcDbDictionary
  3
STANDARD
350
20
  0
XRECORD
  5
35
102
{ACAD_REACTORS
330
34
102
}
100
AcDbXrecord
102
PLOTBIT
280
     0
  0
XRECORD
  5
23
102
{ACAD_REACTORS
330
22
102
}
100
AcDbXrecord
102
ACADR14ROUNDTRIP
1000
DSTYLE
1002
{
1070
   341
340
2A
1070
   343
340
2A
1070
   344
340
2A
1002
}
  0
XRECORD
  5
4
102
{ACAD_REACTORS
330
3
102
}
100
AcDbXrecord
340
2
  0
XRECORD
  5
B
102
{ACAD_REACTORS
330
A
102
}
100
AcDbXrecord
340
9
  0
MLINESTYLE
  5
20
102
{ACAD_REACTORS
330
1D
102
}
100
AcDbMlineStyle
  2
STANDARD
 70
     0
  3

 62
     0
 51
90.0
 52
90.0
 71
     2
 49
0.5
 62
   256
  6
BYLAYER
 49
-0.5
 62
   256
  6
BYLAYER
  0
ENDSEC
  0
EOF
