  0
SECTION
  2
HEADER
  9
$ACADVER
  1
AC1014
  9
$ACADMAINTVER
 70
     0
  9
$DWGCODEPAGE
  3
ANSI_932
  9
$INSBASE
 10
-116.5768
 20
-152.525608
 30
0.0
  9
$EXTMIN
 10
-69.474667
 20
-125.131896
 30
0.0
  9
$EXTMAX
 10
108.913976
 20
0.364
 30
0.0
  9
$LIMMIN
 10
0.0
 20
0.0
  9
$LIMMAX
 10
1273.731701
 20
854.777937
  9
$ORTHOMODE
 70
     1
  9
$REGENMODE
 70
     1
  9
$FILLMODE
 70
     1
  9
$QTEXTMODE
 70
     0
  9
$MIRRTEXT
 70
     1
  9
$DRAGMODE
 70
     2
  9
$LTSCALE
 40
5.0
  9
$OSMODE
 70
    45
  9
$ATTMODE
 70
     1
  9
$TEXTSIZE
 40
20.0
  9
$TRACEWID
 40
0.05
  9
$TEXTSTYLE
  7
STANDARD
  9
$CLAYER
  8
外形
  9
$CELTYPE
  6
CONTINUOUS
  9
$CECOLOR
 62
   256
  9
$CELTSCALE
 40
1.0
  9
$DELOBJ
 70
     1
  9
$DISPSILH
 70
     0
  9
$DIMSCALE
 40
1.0
  9
$DIMASZ
 40
2.0
  9
$DIMEXO
 40
1.0
  9
$DIMDLI
 40
8.0
  9
$DIMRND
 40
0.0
  9
$DIMDLE
 40
0.0
  9
$DIMEXE
 40
1.5
  9
$DIMTP
 40
0.0
  9
$DIMTM
 40
0.0
  9
$DIMTXT
 40
3.0
  9
$DIMCEN
 40
-1.0
  9
$DIMTSZ
 40
0.0
  9
$DIMTOL
 70
     0
  9
$DIMLIM
 70
     0
  9
$DIMTIH
 70
     0
  9
$DIMTOH
 70
     0
  9
$DIMSE1
 70
     0
  9
$DIMSE2
 70
     0
  9
$DIMTAD
 70
     1
  9
$DIMZIN
 70
     8
  9
$DIMBLK
  1

  9
$DIMASO
 70
     1
  9
$DIMSHO
 70
     1
  9
$DIMPOST
  1

  9
$DIMAPOST
  1

  9
$DIMALT
 70
     0
  9
$DIMALTD
 70
     2
  9
$DIMALTF
 40
25.4
  9
$DIMLFAC
 40
1.0
  9
$DIMTOFL
 70
     1
  9
$DIMTVP
 40
0.0
  9
$DIMTIX
 70
     0
  9
$DIMSOXD
 70
     0
  9
$DIMSAH
 70
     1
  9
$DIMBLK1
  1
_OPEN30
  9
$DIMBLK2
  1
_OPEN30
  9
$DIMSTYLE
  2
STANDARD
  9
$DIMCLRD
 70
     1
  9
$DIMCLRE
 70
     1
  9
$DIMCLRT
 70
     3
  9
$DIMTFAC
 40
1.0
  9
$DIMGAP
 40
1.0
  9
$DIMJUST
 70
     0
  9
$DIMSD1
 70
     0
  9
$DIMSD2
 70
     0
  9
$DIMTOLJ
 70
     1
  9
$DIMTZIN
 70
     8
  9
$DIMALTZ
 70
     0
  9
$DIMALTTZ
 70
     0
  9
$DIMFIT
 70
     3
  9
$DIMUPT
 70
     0
  9
$DIMUNIT
 70
     2
  9
$DIMDEC
 70
     3
  9
$DIMTDEC
 70
     0
  9
$DIMALTU
 70
     2
  9
$DIMALTTD
 70
     2
  9
$DIMTXSTY
  7
STANDARD
  9
$DIMAUNIT
 70
     0
  9
$LUNITS
 70
     2
  9
$LUPREC
 70
     3
  9
$SKETCHINC
 40
0.1
  9
$FILLETRAD
 40
2.4
  9
$AUNITS
 70
     0
  9
$AUPREC
 70
     3
  9
$MENU
  1
acad
  9
$ELEVATION
 40
0.0
  9
$PELEVATION
 40
0.0
  9
$THICKNESS
 40
0.0
  9
$LIMCHECK
 70
     0
  9
$BLIPMODE
 70
     0
  9
$CHAMFERA
 40
0.0
  9
$CHAMFERB
 40
0.0
  9
$CHAMFERC
 40
0.0
  9
$CHAMFERD
 40
0.0
  9
$SKPOLY
 70
     0
  9
$TDCREATE
 40
2450751.535399305
  9
$TDUPDATE
 40
2451929.860729166
  9
$TDINDWG
 40
2.0686529051
  9
$TDUSRTIMER
 40
2.0686529051
  9
$USRTIMER
 70
     1
  9
$ANGBASE
 50
0.0
  9
$ANGDIR
 70
     0
  9
$PDMODE
 70
     0
  9
$PDSIZE
 40
0.0
  9
$PLINEWID
 40
0.0
  9
$COORDS
 70
     0
  9
$SPLFRAME
 70
     0
  9
$SPLINETYPE
 70
     5
  9
$SPLINESEGS
 70
     8
  9
$ATTDIA
 70
     1
  9
$ATTREQ
 70
     1
  9
$HANDLING
 70
     1
  9
$HANDSEED
  5
296
  9
$SURFTAB1
 70
     6
  9
$SURFTAB2
 70
     6
  9
$SURFTYPE
 70
     6
  9
$SURFU
 70
     6
  9
$SURFV
 70
     6
  9
$UCSNAME
  2

  9
$UCSORG
 10
0.0
 20
0.0
 30
0.0
  9
$UCSXDIR
 10
1.0
 20
0.0
 30
0.0
  9
$UCSYDIR
 10
0.0
 20
1.0
 30
0.0
  9
$PUCSNAME
  2

  9
$PUCSORG
 10
0.0
 20
0.0
 30
0.0
  9
$PUCSXDIR
 10
1.0
 20
0.0
 30
0.0
  9
$PUCSYDIR
 10
0.0
 20
1.0
 30
0.0
  9
$USERI1
 70
     0
  9
$USERI2
 70
     0
  9
$USERI3
 70
     0
  9
$USERI4
 70
     0
  9
$USERI5
 70
     0
  9
$USERR1
 40
0.0
  9
$USERR2
 40
0.0
  9
$USERR3
 40
0.0
  9
$USERR4
 40
0.0
  9
$USERR5
 40
0.0
  9
$WORLDVIEW
 70
     1
  9
$SHADEDGE
 70
     3
  9
$SHADEDIF
 70
    70
  9
$TILEMODE
 70
     1
  9
$MAXACTVP
 70
    16
  9
$PINSBASE
 10
0.0
 20
0.0
 30
0.0
  9
$PLIMCHECK
 70
     0
  9
$PEXTMIN
 10
0.0
 20
0.0
 30
0.0
  9
$PEXTMAX
 10
0.0
 20
0.0
 30
0.0
  9
$PLIMMIN
 10
0.0
 20
0.0
  9
$PLIMMAX
 10
0.0
 20
0.0
  9
$UNITMODE
 70
     0
  9
$VISRETAIN
 70
     0
  9
$PLINEGEN
 70
     0
  9
$PSLTSCALE
 70
     1
  9
$TREEDEPTH
 70
  3020
  9
$PICKSTYLE
 70
     1
  9
$CMLSTYLE
  2
STANDARD
  9
$CMLJUST
 70
     0
  9
$CMLSCALE
 40
1.0
  9
$PROXYGRAPHICS
 70
     1
  9
$MEASUREMENT
 70
     0
  0
ENDSEC
  0
SECTION
  2
CLASSES
  0
CLASS
  1
LWPOLYLINE
  2
AcDbPolyline
  3
"AutoCAD"
 90
        0
280
     0
281
     1
  0
CLASS
  1
ACDBDICTIONARYWDFLT
  2
AcDbDictionaryWithDefault
  3
AutoCAD 2000
 90
        0
280
     1
281
     0
  0
CLASS
  1
ACDBPLACEHOLDER
  2
AcDbPlaceHolder
  3
AutoCAD 2000
 90
        0
280
     1
281
     0
  0
CLASS
  1
LAYOUT
  2
AcDbLayout
  3
AutoCAD 2000
 90
        0
280
     1
281
     0
  0
CLASS
  1
LONG_TRANSACTION
  2
AcDbLongTransaction
  3
AutoCAD 2000
 90
        0
280
     1
281
     0
  0
CLASS
  1
LWPOLYLINE
  2
AcDbPolyline
  3
"AutoCAD"
 90
        0
280
     0
281
     1
  0
CLASS
  1
HATCH
  2
AcDbHatch
  3
"ACAD_SEDONA"
 90
        0
280
     0
281
     1
  0
CLASS
  1
XRECORD
  2
AcDbXrecord
  3
"<Built In>"
 90
        0
280
     0
281
     0
  0
CLASS
  1
ACME_DOCUMENT
  2
AcMeDbDoc
  3
AcMeServices
 90
        0
280
     1
281
     0
  0
CLASS
  1
ACMESCOPE
  2
AcMeScope
  3
AcMeServices
 90
        0
280
     1
281
     0
  0
CLASS
  1
ACMECOMMANDHISTORY
  2
AcMeCommandHistory
  3
AcMeServices
 90
        0
280
     1
281
     0
  0
CLASS
  1
DICTIONARYVAR
  2
AcDbDictionaryVar
  3
"AutoCAD"
 90
        0
280
     0
281
     0
  0
CLASS
  1
ACIMSYSVARMAN
  2
AcImSysVarManager
  3
AcMeServices
 90
        0
280
     1
281
     0
  0
CLASS
  1
ACIMREALSYSVAR
  2
AcImRealSysVar
  3
AcMeServices
 90
        0
280
     1
281
     0
  0
CLASS
  1
ACIMINTSYSVAR
  2
AcImIntSysVar
  3
AcMeServices
 90
        0
280
     1
281
     0
  0
CLASS
  1
ACMEDRAWINGMAN
  2
AcMeDrawingMan
  3
AcMeServices
 90
        0
280
     1
281
     0
  0
CLASS
  1
ACMEVIEW
  2
AcMeView
  3
AcMeServices
 90
        0
280
     1
281
     0
  0
CLASS
  1
ACDBENTITYCACHE
  2
AcMeEntityCache
  3
AcMeServices
 90
        0
280
     1
281
     0
  0
CLASS
  1
GSMANAGER
  2
AcMeGSManager
  3
AcMeServices
 90
        0
280
     1
281
     0
  0
CLASS
  1
AmdtInternalReactor
  2
AmdtInternalReactor
  3
AcMeServices
 90
        0
280
     1
281
     0
  0
CLASS
  1
ACMESTATEMGR
  2
AcMeStateMgr
  3
AcMeServices
 90
        0
280
     1
281
     0
  0
CLASS
  1
ACME_DATABASE
  2
AcMeDbDatabase
  3
AcMeServices
 90
        0
280
     1
281
     0
  0
CLASS
  1
ACRFINSADJUSTERMGR
  2
AcRfInsAdjusterMgr
  3
AcMeServices
 90
        0
280
     1
281
     0
  0
CLASS
  1
AMGSETTINGSOBJ
  2
AmgSettingsObj
  3
"AcadM|Product Description: AutoCAD Mechanical 2000|Company: Autodesk"
 90
        0
280
     1
281
     0
  0
CLASS
  1
ACMDATADICTIONARY
  2
AcmDataDictionary
  3
"AcmSymBB|Product Description: AutoCAD Mechanical 2000|Company: Autodesk"
 90
        0
280
     1
281
     0
  0
CLASS
  1
ACMDATAENTRYBLOCK
  2
AcmDataEntryBlock
  3
"AcmSymBB|Product Description: AutoCAD Mechanical 2000|Company: Autodesk"
 90
        0
280
     1
281
     0
  0
CLASS
  1
AMGOBJPROPCFG
  2
AmgObjPropCfg
  3
"AmgLay|Product Description: AutoCAD Mechanical 2000|Company: Autodesk"
 90
        1
280
     1
281
     0
  0
CLASS
  1
LAYER_INDEX
  2
AcDbLayerIndex
  3
"Acad"
 90
        0
280
     0
281
     0
  0
CLASS
  1
IDBUFFER
  2
AcDbIdBuffer
  3
"Acad"
 90
        0
280
     0
281
     0
  0
CLASS
  1
LONG_TRANSACTION
  2
AcDbLongTransaction
  3
AutoCAD 2000
 90
        0
280
     1
281
     0
  0
CLASS
  1
LWPOLYLINE
  2
AcDbPolyline
  3
"AutoCAD"
 90
        0
280
     0
281
     1
  0
CLASS
  1
HATCH
  2
AcDbHatch
  3
"ACAD_SEDONA"
 90
        0
280
     0
281
     1
  0
CLASS
  1
XRECORD
  2
AcDbXrecord
  3
"<Built In>"
 90
        0
280
     0
281
     0
  0
ENDSEC
  0
SECTION
  2
TABLES
  0
TABLE
  2
VPORT
  5
16
100
AcDbSymbolTable
 70
     1
  0
VPORT
  5
291
100
AcDbSymbolTableRecord
100
AcDbViewportTableRecord
  2
*ACTIVE
 70
     0
 10
0.0
 20
0.0
 11
1.0
 21
1.0
 12
28.915983
 22
-71.675667
 13
0.0
 23
0.0
 14
0.05
 24
0.05
 15
10.0
 25
10.0
 16
0.0
 26
0.0
 36
1.0
 17
0.0
 27
0.0
 37
0.0
 40
168.63687
 41
1.710425
 42
50.0
 43
0.0
 44
0.0
 50
0.0
 51
0.0
 71
     0
 72
   100
 73
     1
 74
     1
 75
     0
 76
     0
 77
     0
 78
     0
  0
ENDTAB
  0
TABLE
  2
LTYPE
  5
11
100
AcDbSymbolTable
 70
     1
  0
LTYPE
  5
12
100
AcDbSymbolTableRecord
100
AcDbLinetypeTableRecord
  2
BYBLOCK
 70
     0
  3

 72
    65
 73
     0
 40
0.0
  0
LTYPE
  5
13
100
AcDbSymbolTableRecord
100
AcDbLinetypeTableRecord
  2
BYLAYER
 70
     0
  3

 72
    65
 73
     0
 40
0.0
  0
LTYPE
  5
7
100
AcDbSymbolTableRecord
100
AcDbLinetypeTableRecord
  2
CONTINUOUS
 70
     0
  3
Solid line
 72
    65
 73
     0
 40
0.0
  0
ENDTAB
  0
TABLE
  2
LAYER
  5
E
100
AcDbSymbolTable
 70
     4
  0
LAYER
  5
6
100
AcDbSymbolTableRecord
100
AcDbLayerTableRecord
  2
0
 70
     0
 62
     7
  6
CONTINUOUS
  0
LAYER
  5
4E
100
AcDbSymbolTableRecord
100
AcDbLayerTableRecord
  2
外形
 70
     0
 62
     3
  6
CONTINUOUS
  0
LAYER
  5
35
102
{ACAD_XDICTIONARY
360
36
102
}
100
AcDbSymbolTableRecord
100
AcDbLayerTableRecord
  2
DEFPOINTS
 70
     0
 62
     7
  6
CONTINUOUS
  0
LAYER
  5
3C
100
AcDbSymbolTableRecord
100
AcDbLayerTableRecord
  2
寸法
 70
     0
 62
     1
  6
CONTINUOUS
  0
ENDTAB
  0
TABLE
  2
STYLE
  5
F
100
AcDbSymbolTable
 70
     1
  0
STYLE
  5
10
100
AcDbSymbolTableRecord
100
AcDbTextStyleTableRecord
  2
STANDARD
 70
     0
 40
0.0
 41
1.0
 50
0.0
 71
     0
 42
20.0
  3
MONOTXT
  4
BIGFONT
  0
ENDTAB
  0
TABLE
  2
VIEW
  5
14
100
AcDbSymbolTable
 70
     0
  0
ENDTAB
  0
TABLE
  2
UCS
  5
15
100
AcDbSymbolTable
 70
     0
  0
ENDTAB
  0
TABLE
  2
APPID
  5
18
100
AcDbSymbolTable
 70
     1
  0
APPID
  5
19
100
AcDbSymbolTableRecord
100
AcDbRegAppTableRecord
  2
ACAD
 70
     0
  0
ENDTAB
  0
TABLE
  2
DIMSTYLE
  5
1A
100
AcDbSymbolTable
 70
     1
  0
DIMSTYLE
105
23
102
{ACAD_XDICTIONARY
360
24
102
}
102
{ACAD_REACTORS
330
16E
330
15E
330
12F
330
77
330
97
330
E9
330
A4
330
CB
330
3B
102
}
100
AcDbSymbolTableRecord
100
AcDbDimStyleTableRecord
  2
STANDARD
 70
     0
  3

  4

  5

  6
_OPEN30
  7
_OPEN30
 40
1.0
 41
2.0
 42
1.0
 43
8.0
 44
1.5
 45
0.0
 46
0.0
 47
0.0
 48
0.0
140
3.0
141
-1.0
142
0.0
143
25.4
144
1.0
145
0.0
146
1.0
147
1.0
 71
     0
 72
     0
 73
     0
 74
     0
 75
     0
 76
     0
 77
     1
 78
     8
170
     0
171
     2
172
     1
173
     1
174
     0
175
     0
176
     1
177
     1
178
     3
270
     2
271
     3
272
     0
273
     2
274
     2
340
10
275
     0
280
     0
281
     0
282
     0
283
     1
284
     8
285
     0
286
     0
287
     3
288
     0
  0
ENDTAB
  0
TABLE
  2
BLOCK_RECORD
  5
1
100
AcDbSymbolTable
 70
    11
  0
BLOCK_RECORD
  5
2
102
{ACAD_XDICTIONARY
360
3
102
}
100
AcDbSymbolTableRecord
100
AcDbBlockTableRecord
  2
*MODEL_SPACE
  0
BLOCK_RECORD
  5
9
102
{ACAD_XDICTIONARY
360
A
102
}
100
AcDbSymbolTableRecord
100
AcDbBlockTableRecord
  2
*PAPER_SPACE
  0
BLOCK_RECORD
  5
26
100
AcDbSymbolTableRecord
100
AcDbBlockTableRecord
  2
_DOTSMALL
  0
BLOCK_RECORD
  5
18B
100
AcDbSymbolTableRecord
100
AcDbBlockTableRecord
  2
_OPEN30
  0
BLOCK_RECORD
  5
19C
100
AcDbSymbolTableRecord
100
AcDbBlockTableRecord
  2
*D2
  0
BLOCK_RECORD
  5
1CD
100
AcDbSymbolTableRecord
100
AcDbBlockTableRecord
  2
*D3
  0
BLOCK_RECORD
  5
1E7
100
AcDbSymbolTableRecord
100
AcDbBlockTableRecord
  2
*D4
  0
BLOCK_RECORD
  5
1F3
100
AcDbSymbolTableRecord
100
AcDbBlockTableRecord
  2
*D5
  0
BLOCK_RECORD
  5
20D
100
AcDbSymbolTableRecord
100
AcDbBlockTableRecord
  2
*D6
  0
BLOCK_RECORD
  5
21F
100
AcDbSymbolTableRecord
100
AcDbBlockTableRecord
  2
*D7
  0
BLOCK_RECORD
  5
259
100
AcDbSymbolTableRecord
100
AcDbBlockTableRecord
  2
*D8
  0
BLOCK_RECORD
  5
273
100
AcDbSymbolTableRecord
100
AcDbBlockTableRecord
  2
*D9
  0
BLOCK_RECORD
  5
27F
100
AcDbSymbolTableRecord
100
AcDbBlockTableRecord
  2
*D10
  0
ENDTAB
  0
ENDSEC
  0
SECTION
  2
BLOCKS
  0
BLOCK
  5
5
100
AcDbEntity
  8
0
100
AcDbBlockBegin
  2
*MODEL_SPACE
 70
     0
 10
0.0
 20
0.0
 30
0.0
  3
*MODEL_SPACE
  1

  0
ENDBLK
  5
8
100
AcDbEntity
  8
0
100
AcDbBlockEnd
  0
BLOCK
  5
C
100
AcDbEntity
 67
     1
  8
0
100
AcDbBlockBegin
  2
*PAPER_SPACE
 70
     0
 10
0.0
 20
0.0
 30
0.0
  3
*PAPER_SPACE
  1

  0
ENDBLK
  5
D
100
AcDbEntity
 67
     1
  8
0
100
AcDbBlockEnd
  0
BLOCK
  5
2B
100
AcDbEntity
  8
0
100
AcDbBlockBegin
  2
_DOTSMALL
 70
     0
 10
0.0
 20
0.0
 30
0.0
  3
_DOTSMALL
  1

  0
POLYLINE
  5
27
100
AcDbEntity
  8
0
  6
BYBLOCK
 62
     0
100
AcDb2dPolyline
 66
     1
 10
0.0
 20
0.0
 30
0.0
 70
     1
 40
0.5
 41
0.5
  0
VERTEX
  5
28
100
AcDbEntity
  8
0
  6
BYBLOCK
 62
     0
100
AcDbVertex
100
AcDb2dVertex
 10
-0.0625
 20
0.0
 30
0.0
 42
1.0
  0
VERTEX
  5
29
100
AcDbEntity
  8
0
  6
BYBLOCK
 62
     0
100
AcDbVertex
100
AcDb2dVertex
 10
0.0625
 20
0.0
 30
0.0
 42
1.0
  0
SEQEND
  5
2A
100
AcDbEntity
  8
0
  6
BYBLOCK
 62
     0
  0
ENDBLK
  5
2C
100
AcDbEntity
  8
0
100
AcDbBlockEnd
  0
BLOCK
  5
18C
100
AcDbEntity
  8
0
100
AcDbBlockBegin
  2
_OPEN30
 70
     0
 10
0.0
 20
0.0
 30
0.0
  3
_OPEN30
  1

  0
LINE
  5
18D
100
AcDbEntity
  8
0
  6
BYBLOCK
 62
     0
100
AcDbLine
 10
-1.0
 20
0.267949
 30
0.0
 11
0.0
 21
0.0
 31
0.0
  0
LINE
  5
18E
100
AcDbEntity
  8
0
  6
BYBLOCK
 62
     0
100
AcDbLine
 10
0.0
 20
0.0
 30
0.0
 11
-1.0
 21
-0.267949
 31
0.0
  0
LINE
  5
18F
100
AcDbEntity
  8
0
  6
BYBLOCK
 62
     0
100
AcDbLine
 10
0.0
 20
0.0
 30
0.0
 11
-1.0
 21
0.0
 31
0.0
  0
ENDBLK
  5
190
100
AcDbEntity
  8
0
100
AcDbBlockEnd
  0
BLOCK
  5
19D
100
AcDbEntity
  8
0
100
AcDbBlockBegin
  2
*D2
 70
     1
 10
0.0
 20
0.0
 30
0.0
  3
*D2
  1

  0
LINE
  5
19E
100
AcDbEntity
  8
0
  6
BYBLOCK
 62
     1
100
AcDbLine
 10
6.147713
 20
-48.99316
 30
0.0
 11
-7.240068
 21
-52.580405
 31
0.0
  0
LINE
  5
19F
100
AcDbEntity
  8
0
  6
BYBLOCK
 62
     1
100
AcDbLine
 10
6.180058
 20
-49.092709
 30
0.0
 11
-6.759414
 21
-54.059707
 31
0.0
  0
ARC
  5
1A0
100
AcDbEntity
  8
0
  6
BYBLOCK
 62
     1
100
AcDbCircle
 10
7.113639
 20
-48.734341
 30
0.0
 40
13.360051
100
AcDbArc
 50
177.780914
 51
195.0
  0
LINE
  5
1A1
100
AcDbEntity
  8
0
  6
BYBLOCK
 62
     1
100
AcDbLine
 10
-6.236393
 20
-48.217031
 30
0.0
 11
-5.903395
 21
-39.62348
 31
0.0
  0
ARC
  5
1A2
100
AcDbEntity
  8
0
  6
BYBLOCK
 62
     1
100
AcDbCircle
 10
7.113639
 20
-48.734341
 30
0.0
 40
13.360051
100
AcDbArc
 50
177.829582
 51
186.414791
  0
ARC
  5
1A3
100
AcDbEntity
  8
0
  6
BYBLOCK
 62
     1
100
AcDbCircle
 10
7.113639
 20
-48.734341
 30
0.0
 40
13.360051
100
AcDbArc
 50
209.585209
 51
218.170418
  0
ARC
  5
1A4
100
AcDbEntity
  8
0
  6
BYBLOCK
 62
     1
100
AcDbCircle
 10
7.113639
 20
-48.734341
 30
0.0
 40
13.360051
100
AcDbArc
 50
195.0
 51
201.0
  0
INSERT
  5
1A5
100
AcDbEntity
  8
0
  6
BYBLOCK
 62
     1
100
AcDbBlockReference
  2
_OPEN30
 10
-5.79118
 20
-52.192177
 30
0.0
 41
2.0
 42
2.0
 43
2.0
 50
280.707396
  0
INSERT
  5
1A6
100
AcDbEntity
  8
0
  6
BYBLOCK
 62
     1
100
AcDbBlockReference
  2
_OPEN30
 10
-5.359043
 20
-53.522155
 30
0.0
 41
2.0
 42
2.0
 43
2.0
 50
115.292604
  0
MTEXT
  5
1A7
100
AcDbEntity
  8
0
  6
BYBLOCK
 62
     3
100
AcDbMText
 10
-3.571769
 20
-44.017057
 30
0.0
 40
3.0
 41
0.0
 71
     5
 72
     1
  1
\A1;6°
 11
-0.038721
 21
-0.99925
 31
0.0
  0
POINT
  5
1A8
100
AcDbEntity
  8
DEFPOINTS
  6
BYBLOCK
 62
     0
100
AcDbPoint
 10
-5.518538
 20
-53.083948
 30
0.0
  0
POINT
  5
1A9
100
AcDbEntity
  8
DEFPOINTS
  6
BYBLOCK
 62
     0
100
AcDbPoint
 10
23.938515
 20
-42.275876
 30
0.0
  0
POINT
  5
1AA
100
AcDbEntity
  8
DEFPOINTS
  6
BYBLOCK
 62
     0
100
AcDbPoint
 10
24.52144
 20
-44.069935
 30
0.0
  0
POINT
  5
1AB
100
AcDbEntity
  8
DEFPOINTS
  6
BYBLOCK
 62
     0
100
AcDbPoint
 10
7.113639
 20
-48.734341
 30
0.0
  0
POINT
  5
1AC
100
AcDbEntity
  8
DEFPOINTS
  6
BYBLOCK
 62
     0
100
AcDbPoint
 10
7.113639
 20
-48.734341
 30
0.0
  0
ENDBLK
  5
1AD
100
AcDbEntity
  8
0
100
AcDbBlockEnd
  0
BLOCK
  5
1CE
100
AcDbEntity
  8
0
100
AcDbBlockBegin
  2
*D3
 70
     1
 10
0.0
 20
0.0
 30
0.0
  3
*D3
  1

  0
LINE
  5
1CF
100
AcDbEntity
  8
0
  6
BYBLOCK
 62
     1
100
AcDbLine
 10
-0.585625
 20
-21.000298
 30
0.0
 11
-0.585625
 21
-36.136
 31
0.0
  0
LINE
  5
1D0
100
AcDbEntity
  8
0
  6
BYBLOCK
 62
     1
100
AcDbLine
 10
99.413976
 20
-16.636
 30
0.0
 11
99.413976
 21
-36.136
 31
0.0
  0
LINE
  5
1D1
100
AcDbEntity
  8
0
  6
BYBLOCK
 62
     1
100
AcDbLine
 10
1.414375
 20
-34.636
 30
0.0
 11
97.413976
 21
-34.636
 31
0.0
  0
INSERT
  5
1D2
100
AcDbEntity
  8
0
  6
BYBLOCK
 62
     1
100
AcDbBlockReference
  2
_OPEN30
 10
-0.585625
 20
-34.636
 30
0.0
 41
2.0
 42
2.0
 43
2.0
 50
180.0
  0
INSERT
  5
1D3
100
AcDbEntity
  8
0
  6
BYBLOCK
 62
     1
100
AcDbBlockReference
  2
_OPEN30
 10
99.413976
 20
-34.636
 30
0.0
 41
2.0
 42
2.0
 43
2.0
  0
MTEXT
  5
1D4
100
AcDbEntity
  8
0
  6
BYBLOCK
 62
     3
100
AcDbMText
 10
49.414176
 20
-32.136
 30
0.0
 40
3.0
 41
0.0
 71
     5
 72
     1
  1
\A1;100
  0
POINT
  5
1D5
100
AcDbEntity
  8
DEFPOINTS
  6
BYBLOCK
 62
     0
100
AcDbPoint
 10
-0.585625
 20
-20.000298
 30
0.0
  0
POINT
  5
1D6
100
AcDbEntity
  8
DEFPOINTS
  6
BYBLOCK
 62
     0
100
AcDbPoint
 10
99.413976
 20
-15.636
 30
0.0
  0
POINT
  5
1D7
100
AcDbEntity
  8
DEFPOINTS
  6
BYBLOCK
 62
     0
100
AcDbPoint
 10
99.413976
 20
-34.636
 30
0.0
  0
ENDBLK
  5
1D8
100
AcDbEntity
  8
0
100
AcDbBlockEnd
  0
BLOCK
  5
1E8
100
AcDbEntity
  8
0
100
AcDbBlockBegin
  2
*D4
 70
     1
 10
0.0
 20
0.0
 30
0.0
  3
*D4
  1

  0
LINE
  5
1E9
100
AcDbEntity
  8
0
  6
BYBLOCK
 62
     1
100
AcDbLine
 10
-1.715625
 20
-78.860713
 30
0.0
 11
-14.63
 21
-78.860713
 31
0.0
  0
LINE
  5
1EA
100
AcDbEntity
  8
0
  6
BYBLOCK
 62
     1
100
AcDbLine
 10
-4.0
 20
-94.860638
 30
0.0
 11
-14.63
 21
-94.860638
 31
0.0
  0
LINE
  5
1EB
100
AcDbEntity
  8
0
  6
BYBLOCK
 62
     1
100
AcDbLine
 10
-13.13
 20
-80.860713
 30
0.0
 11
-13.13
 21
-92.860638
 31
0.0
  0
INSERT
  5
1EC
100
AcDbEntity
  8
0
  6
BYBLOCK
 62
     1
100
AcDbBlockReference
  2
_OPEN30
 10
-13.13
 20
-78.860713
 30
0.0
 41
2.0
 42
2.0
 43
2.0
 50
90.0
  0
INSERT
  5
1ED
100
AcDbEntity
  8
0
  6
BYBLOCK
 62
     1
100
AcDbBlockReference
  2
_OPEN30
 10
-13.13
 20
-94.860638
 30
0.0
 41
2.0
 42
2.0
 43
2.0
 50
270.0
  0
MTEXT
  5
1EE
100
AcDbEntity
  8
0
  6
BYBLOCK
 62
     3
100
AcDbMText
 10
-15.63
 20
-86.860676
 30
0.0
 40
3.0
 41
0.0
 71
     5
 72
     1
  1
\A1;16
 11
0.0
 21
1.0
 31
0.0
  0
POINT
  5
1EF
100
AcDbEntity
  8
DEFPOINTS
  6
BYBLOCK
 62
     0
100
AcDbPoint
 10
-0.715625
 20
-78.860713
 30
0.0
  0
POINT
  5
1F0
100
AcDbEntity
  8
DEFPOINTS
  6
BYBLOCK
 62
     0
100
AcDbPoint
 10
-3.0
 20
-94.860638
 30
0.0
  0
POINT
  5
1F1
100
AcDbEntity
  8
DEFPOINTS
  6
BYBLOCK
 62
     0
100
AcDbPoint
 10
-13.13
 20
-94.860638
 30
0.0
  0
ENDBLK
  5
1F2
100
AcDbEntity
  8
0
100
AcDbBlockEnd
  0
BLOCK
  5
1F4
100
AcDbEntity
  8
0
100
AcDbBlockBegin
  2
*D5
 70
     1
 10
0.0
 20
0.0
 30
0.0
  3
*D5
  1

  0
LINE
  5
1F5
100
AcDbEntity
  8
0
  6
BYBLOCK
 62
     1
100
AcDbLine
 10
-3.0
 20
-84.444864
 30
0.0
 11
-3.0
 21
-67.591586
 31
0.0
  0
LINE
  5
1F6
100
AcDbEntity
  8
0
  6
BYBLOCK
 62
     1
100
AcDbLine
 10
17.000124
 20
-77.860638
 30
0.0
 11
17.000124
 21
-67.591586
 31
0.0
  0
LINE
  5
1F7
100
AcDbEntity
  8
0
  6
BYBLOCK
 62
     1
100
AcDbLine
 10
-1.0
 20
-69.091586
 30
0.0
 11
15.000124
 21
-69.091586
 31
0.0
  0
INSERT
  5
1F8
100
AcDbEntity
  8
0
  6
BYBLOCK
 62
     1
100
AcDbBlockReference
  2
_OPEN30
 10
-3.0
 20
-69.091586
 30
0.0
 41
2.0
 42
2.0
 43
2.0
 50
180.0
  0
INSERT
  5
1F9
100
AcDbEntity
  8
0
  6
BYBLOCK
 62
     1
100
AcDbBlockReference
  2
_OPEN30
 10
17.000124
 20
-69.091586
 30
0.0
 41
2.0
 42
2.0
 43
2.0
  0
MTEXT
  5
1FA
100
AcDbEntity
  8
0
  6
BYBLOCK
 62
     3
100
AcDbMText
 10
7.000062
 20
-66.591586
 30
0.0
 40
3.0
 41
0.0
 71
     5
 72
     1
  1
\A1;20
  0
POINT
  5
1FB
100
AcDbEntity
  8
DEFPOINTS
  6
BYBLOCK
 62
     0
100
AcDbPoint
 10
-3.0
 20
-85.444864
 30
0.0
  0
POINT
  5
1FC
100
AcDbEntity
  8
DEFPOINTS
  6
BYBLOCK
 62
     0
100
AcDbPoint
 10
17.000124
 20
-78.860638
 30
0.0
  0
POINT
  5
1FD
100
AcDbEntity
  8
DEFPOINTS
  6
BYBLOCK
 62
     0
100
AcDbPoint
 10
17.000124
 20
-69.091586
 30
0.0
  0
ENDBLK
  5
1FE
100
AcDbEntity
  8
0
100
AcDbBlockEnd
  0
BLOCK
  5
20E
100
AcDbEntity
  8
0
100
AcDbBlockBegin
  2
*D6
 70
     1
 10
0.0
 20
0.0
 30
0.0
  3
*D6
  1

  0
LINE
  5
20F
100
AcDbEntity
  8
0
  6
BYBLOCK
 62
     1
100
AcDbLine
 10
-49.29117
 20
-34.27495
 30
0.0
 11
-46.064932
 21
-52.571853
 31
0.0
  0
LINE
  5
210
100
AcDbEntity
  8
0
  6
BYBLOCK
 62
     1
100
AcDbLine
 10
-49.205999
 20
-34.256068
 30
0.0
 11
-44.397358
 21
-52.20216
 31
0.0
  0
ARC
  5
211
100
AcDbEntity
  8
0
  6
BYBLOCK
 62
     1
100
AcDbCircle
 10
-49.464818
 20
-33.290143
 30
0.0
 40
18.079161
100
AcDbArc
 50
267.297356
 51
280.0
  0
LINE
  5
212
100
AcDbEntity
  8
0
  6
BYBLOCK
 62
     1
100
AcDbLine
 10
-50.317297
 20
-51.349195
 30
0.0
 11
-58.907731
 21
-50.943683
 31
0.0
  0
ARC
  5
213
100
AcDbEntity
  8
0
  6
BYBLOCK
 62
     1
100
AcDbCircle
 10
-49.464818
 20
-33.290143
 30
0.0
 40
18.079161
100
AcDbArc
 50
267.316882
 51
273.658441
  0
ARC
  5
214
100
AcDbEntity
  8
0
  6
BYBLOCK
 62
     1
100
AcDbCircle
 10
-49.464818
 20
-33.290143
 30
0.0
 40
18.079161
100
AcDbArc
 50
291.341559
 51
297.683118
  0
ARC
  5
215
100
AcDbEntity
  8
0
  6
BYBLOCK
 62
     1
100
AcDbCircle
 10
-49.464818
 20
-33.290143
 30
0.0
 40
18.079161
100
AcDbArc
 50
280.0
 51
285.0
  0
INSERT
  5
216
100
AcDbEntity
  8
0
  6
BYBLOCK
 62
     1
100
AcDbBlockReference
  2
_OPEN30
 10
-46.325405
 20
-51.094641
 30
0.0
 41
2.0
 42
2.0
 43
2.0
 50
6.82922
  0
INSERT
  5
217
100
AcDbEntity
  8
0
  6
BYBLOCK
 62
     1
100
AcDbBlockReference
  2
_OPEN30
 10
-44.785587
 20
-50.753272
 30
0.0
 41
2.0
 42
2.0
 43
2.0
 50
198.17078
  0
MTEXT
  5
218
100
AcDbEntity
  8
0
  6
BYBLOCK
 62
     3
100
AcDbMText
 10
-54.494633
 20
-48.649219
 30
0.0
 40
3.0
 41
0.0
 71
     5
 72
     1
  1
\A1;5°
 11
0.998888
 21
-0.047153
 31
0.0
  0
POINT
  5
219
100
AcDbEntity
  8
DEFPOINTS
  6
BYBLOCK
 62
     0
100
AcDbPoint
 10
-45.295477
 20
-50.881978
 30
0.0
 50
345.0
  0
POINT
  5
21A
100
AcDbEntity
  8
DEFPOINTS
  6
BYBLOCK
 62
     0
100
AcDbPoint
 10
-49.464818
 20
-33.290143
 30
0.0
 50
345.0
  0
POINT
  5
21B
100
AcDbEntity
  8
DEFPOINTS
  6
BYBLOCK
 62
     0
100
AcDbPoint
 10
-49.464818
 20
-33.290143
 30
0.0
 50
345.0
  0
POINT
  5
21C
100
AcDbEntity
  8
DEFPOINTS
  6
BYBLOCK
 62
     0
100
AcDbPoint
 10
-52.838333
 20
-14.157989
 30
0.0
 50
345.0
  0
POINT
  5
21D
100
AcDbEntity
  8
DEFPOINTS
  6
BYBLOCK
 62
     0
100
AcDbPoint
 10
-54.284901
 20
-15.301347
 30
0.0
 50
345.0
  0
ENDBLK
  5
21E
100
AcDbEntity
  8
0
100
AcDbBlockEnd
  0
BLOCK
  5
220
100
AcDbEntity
  8
0
100
AcDbBlockBegin
  2
*D7
 70
     1
 10
0.0
 20
0.0
 30
0.0
  3
*D7
  1

  0
LINE
  5
221
100
AcDbEntity
  8
0
  6
BYBLOCK
 62
     1
100
AcDbLine
 10
-0.585625
 20
-21.000298
 30
0.0
 11
-0.585625
 21
-34.03018
 31
0.0
  0
LINE
  5
222
100
AcDbEntity
  8
0
  6
BYBLOCK
 62
     1
100
AcDbLine
 10
-0.326806
 20
-20.966223
 30
0.0
 11
3.045576
 21
-33.552124
 31
0.0
  0
ARC
  5
223
100
AcDbEntity
  8
0
  6
BYBLOCK
 62
     1
100
AcDbCircle
 10
-0.585625
 20
-20.000298
 30
0.0
 40
12.529883
100
AcDbArc
 50
251.630503
 51
270.0
  0
LINE
  5
224
100
AcDbEntity
  8
0
  6
BYBLOCK
 62
     1
100
AcDbLine
 10
-4.53434
 20
-31.891707
 30
0.0
 11
-15.54325
 21
-28.236038
 31
0.0
  0
ARC
  5
225
100
AcDbEntity
  8
0
  6
BYBLOCK
 62
     1
100
AcDbCircle
 10
-0.585625
 20
-20.000298
 30
0.0
 40
12.529883
100
AcDbArc
 50
251.689604
 51
260.844802
  0
ARC
  5
226
100
AcDbEntity
  8
0
  6
BYBLOCK
 62
     1
100
AcDbCircle
 10
-0.585625
 20
-20.000298
 30
0.0
 40
12.529883
100
AcDbArc
 50
294.155198
 51
303.310396
  0
ARC
  5
227
100
AcDbEntity
  8
0
  6
BYBLOCK
 62
     1
100
AcDbCircle
 10
-0.585625
 20
-20.000298
 30
0.0
 40
12.529883
100
AcDbArc
 50
270.0
 51
285.0
  0
INSERT
  5
228
100
AcDbEntity
  8
0
  6
BYBLOCK
 62
     1
100
AcDbBlockReference
  2
_OPEN30
 10
-0.585625
 20
-32.53018
 30
0.0
 41
2.0
 42
2.0
 43
2.0
 50
355.422401
  0
INSERT
  5
229
100
AcDbEntity
  8
0
  6
BYBLOCK
 62
     1
100
AcDbBlockReference
  2
_OPEN30
 10
2.657347
 20
-32.103235
 30
0.0
 41
2.0
 42
2.0
 43
2.0
 50
199.577599
  0
MTEXT
  5
22A
100
AcDbEntity
  8
0
  6
BYBLOCK
 62
     3
100
AcDbMText
 10
-9.250935
 20
-27.691263
 30
0.0
 40
3.0
 41
0.0
 71
     5
 72
     1
  1
\A1;15°
 11
0.949044
 21
-0.315144
 31
0.0
  0
POINT
  5
22B
100
AcDbEntity
  8
DEFPOINTS
  6
BYBLOCK
 62
     0
100
AcDbPoint
 10
1.590166
 20
-32.339823
 30
0.0
  0
POINT
  5
22C
100
AcDbEntity
  8
DEFPOINTS
  6
BYBLOCK
 62
     0
100
AcDbPoint
 10
-0.585625
 20
-20.000298
 30
0.0
  0
POINT
  5
22D
100
AcDbEntity
  8
DEFPOINTS
  6
BYBLOCK
 62
     0
100
AcDbPoint
 10
-2.843821
 20
-11.572595
 30
0.0
  0
POINT
  5
22E
100
AcDbEntity
  8
DEFPOINTS
  6
BYBLOCK
 62
     0
100
AcDbPoint
 10
-0.79268
 20
-19.227557
 30
0.0
  0
POINT
  5
22F
100
AcDbEntity
  8
DEFPOINTS
  6
BYBLOCK
 62
     0
100
AcDbPoint
 10
-0.585625
 20
-17.086
 30
0.0
  0
ENDBLK
  5
230
100
AcDbEntity
  8
0
100
AcDbBlockEnd
  0
BLOCK
  5
25A
100
AcDbEntity
  8
0
100
AcDbBlockBegin
  2
*D8
 70
     1
 10
0.0
 20
0.0
 30
0.0
  3
*D8
  1

  0
LINE
  5
25B
100
AcDbEntity
  8
0
  6
BYBLOCK
 62
     1
100
AcDbLine
 10
-1.0
 20
0.0
 30
0.0
 11
-14.5
 21
0.0
 31
0.0
  0
LINE
  5
25C
100
AcDbEntity
  8
0
  6
BYBLOCK
 62
     1
100
AcDbLine
 10
-1.585625
 20
-20.000298
 30
0.0
 11
-14.5
 21
-20.000298
 31
0.0
  0
LINE
  5
25D
100
AcDbEntity
  8
0
  6
BYBLOCK
 62
     1
100
AcDbLine
 10
-13.0
 20
-2.0
 30
0.0
 11
-13.0
 21
-18.000298
 31
0.0
  0
INSERT
  5
25E
100
AcDbEntity
  8
0
  6
BYBLOCK
 62
     1
100
AcDbBlockReference
  2
_OPEN30
 10
-13.0
 20
0.0
 30
0.0
 41
2.0
 42
2.0
 43
2.0
 50
90.0
  0
INSERT
  5
25F
100
AcDbEntity
  8
0
  6
BYBLOCK
 62
     1
100
AcDbBlockReference
  2
_OPEN30
 10
-13.0
 20
-20.000298
 30
0.0
 41
2.0
 42
2.0
 43
2.0
 50
270.0
  0
MTEXT
  5
260
100
AcDbEntity
  8
0
  6
BYBLOCK
 62
     3
100
AcDbMText
 10
-15.5
 20
-10.000149
 30
0.0
 40
3.0
 41
0.0
 71
     5
 72
     1
  1
\A1;20
 11
0.0
 21
1.0
 31
0.0
  0
POINT
  5
261
100
AcDbEntity
  8
DEFPOINTS
  6
BYBLOCK
 62
     0
100
AcDbPoint
 10
0.0
 20
0.0
 30
0.0
  0
POINT
  5
262
100
AcDbEntity
  8
DEFPOINTS
  6
BYBLOCK
 62
     0
100
AcDbPoint
 10
-0.585625
 20
-20.000298
 30
0.0
  0
POINT
  5
263
100
AcDbEntity
  8
DEFPOINTS
  6
BYBLOCK
 62
     0
100
AcDbPoint
 10
-13.0
 20
-20.000298
 30
0.0
  0
ENDBLK
  5
264
100
AcDbEntity
  8
0
100
AcDbBlockEnd
  0
BLOCK
  5
274
100
AcDbEntity
  8
0
100
AcDbBlockBegin
  2
*D9
 70
     1
 10
0.0
 20
0.0
 30
0.0
  3
*D9
  1

  0
LINE
  5
275
100
AcDbEntity
  8
0
  6
BYBLOCK
 62
     1
100
AcDbLine
 10
100.413976
 20
-78.860638
 30
0.0
 11
108.913976
 21
-78.860638
 31
0.0
  0
LINE
  5
276
100
AcDbEntity
  8
0
  6
BYBLOCK
 62
     1
100
AcDbLine
 10
100.413976
 20
-94.860638
 30
0.0
 11
108.913976
 21
-94.860638
 31
0.0
  0
LINE
  5
277
100
AcDbEntity
  8
0
  6
BYBLOCK
 62
     1
100
AcDbLine
 10
107.413976
 20
-80.860638
 30
0.0
 11
107.413976
 21
-92.860638
 31
0.0
  0
INSERT
  5
278
100
AcDbEntity
  8
0
  6
BYBLOCK
 62
     1
100
AcDbBlockReference
  2
_OPEN30
 10
107.413976
 20
-78.860638
 30
0.0
 41
2.0
 42
2.0
 43
2.0
 50
90.0
  0
INSERT
  5
279
100
AcDbEntity
  8
0
  6
BYBLOCK
 62
     1
100
AcDbBlockReference
  2
_OPEN30
 10
107.413976
 20
-94.860638
 30
0.0
 41
2.0
 42
2.0
 43
2.0
 50
270.0
  0
MTEXT
  5
27A
100
AcDbEntity
  8
0
  6
BYBLOCK
 62
     3
100
AcDbMText
 10
104.913976
 20
-86.860638
 30
0.0
 40
3.0
 41
0.0
 71
     5
 72
     1
  1
\A1;16
 11
0.0
 21
1.0
 31
0.0
  0
POINT
  5
27B
100
AcDbEntity
  8
DEFPOINTS
  6
BYBLOCK
 62
     0
100
AcDbPoint
 10
99.413976
 20
-78.860638
 30
0.0
  0
POINT
  5
27C
100
AcDbEntity
  8
DEFPOINTS
  6
BYBLOCK
 62
     0
100
AcDbPoint
 10
99.413976
 20
-94.860638
 30
0.0
  0
POINT
  5
27D
100
AcDbEntity
  8
DEFPOINTS
  6
BYBLOCK
 62
     0
100
AcDbPoint
 10
107.413976
 20
-94.860638
 30
0.0
  0
ENDBLK
  5
27E
100
AcDbEntity
  8
0
100
AcDbBlockEnd
  0
BLOCK
  5
280
100
AcDbEntity
  8
0
100
AcDbBlockBegin
  2
*D10
 70
     1
 10
0.0
 20
0.0
 30
0.0
  3
*D10
  1

  0
LINE
  5
281
100
AcDbEntity
  8
0
  6
BYBLOCK
 62
     1
100
AcDbLine
 10
100.413976
 20
0.364
 30
0.0
 11
108.913976
 21
0.364
 31
0.0
  0
LINE
  5
282
100
AcDbEntity
  8
0
  6
BYBLOCK
 62
     1
100
AcDbLine
 10
100.413976
 20
-15.636
 30
0.0
 11
108.913976
 21
-15.636
 31
0.0
  0
LINE
  5
283
100
AcDbEntity
  8
0
  6
BYBLOCK
 62
     1
100
AcDbLine
 10
107.413976
 20
-1.636
 30
0.0
 11
107.413976
 21
-13.636
 31
0.0
  0
INSERT
  5
284
100
AcDbEntity
  8
0
  6
BYBLOCK
 62
     1
100
AcDbBlockReference
  2
_OPEN30
 10
107.413976
 20
0.364
 30
0.0
 41
2.0
 42
2.0
 43
2.0
 50
90.0
  0
INSERT
  5
285
100
AcDbEntity
  8
0
  6
BYBLOCK
 62
     1
100
AcDbBlockReference
  2
_OPEN30
 10
107.413976
 20
-15.636
 30
0.0
 41
2.0
 42
2.0
 43
2.0
 50
270.0
  0
MTEXT
  5
286
100
AcDbEntity
  8
0
  6
BYBLOCK
 62
     3
100
AcDbMText
 10
104.913976
 20
-7.636
 30
0.0
 40
3.0
 41
0.0
 71
     5
 72
     1
  1
\A1;16
 11
0.0
 21
1.0
 31
0.0
  0
POINT
  5
287
100
AcDbEntity
  8
DEFPOINTS
  6
BYBLOCK
 62
     0
100
AcDbPoint
 10
99.413976
 20
0.364
 30
0.0
  0
POINT
  5
288
100
AcDbEntity
  8
DEFPOINTS
  6
BYBLOCK
 62
     0
100
AcDbPoint
 10
99.413976
 20
-15.636
 30
0.0
  0
POINT
  5
289
100
AcDbEntity
  8
DEFPOINTS
  6
BYBLOCK
 62
     0
100
AcDbPoint
 10
107.413976
 20
-15.636
 30
0.0
  0
ENDBLK
  5
28A
100
AcDbEntity
  8
0
100
AcDbBlockEnd
  0
ENDSEC
  0
SECTION
  2
ENTITIES
  0
DIMENSION
  5
3B
100
AcDbEntity
  8
寸法
  6
CONTINUOUS
100
AcDbDimension
  2
*D2
 10
7.113639
 20
-48.734341
 30
0.0
 11
-3.571769
 21
-44.017057
 31
0.0
 70
    34
  3
STANDARD
100
AcDb2LineAngularDimension
 13
24.52144
 23
-44.069935
 33
0.0
 14
7.113639
 24
-48.734341
 34
0.0
 15
23.938515
 25
-42.275876
 35
0.0
 16
-5.518538
 26
-53.083948
 36
0.0
1001
ACAD
1000
DSTYLE
1002
{
1070
    40
1040
1.0
1002
}
  0
LINE
  5
4D
100
AcDbEntity
  8
外形
100
AcDbLine
 10
28.662545
 20
-59.524748
 30
0.0
 11
12.195843
 21
-63.936987
 31
0.0
  0
LINE
  5
4F
100
AcDbEntity
  8
外形
100
AcDbLine
 10
24.031191
 20
-42.240301
 30
0.0
 11
7.113639
 21
-48.734341
 31
0.0
  0
LINE
  5
50
100
AcDbEntity
  8
外形
100
AcDbLine
 10
19.417186
 20
-44.011452
 30
0.0
 11
23.914831
 21
-60.796894
 31
0.0
  0
LINE
  5
61
100
AcDbEntity
  8
外形
  6
CONTINUOUS
100
AcDbLine
 10
99.413976
 20
-78.860638
 30
0.0
 11
17.000124
 21
-78.860638
 31
0.0
  0
LINE
  5
62
100
AcDbEntity
  8
外形
100
AcDbLine
 10
99.413976
 20
-16.0
 30
0.0
 11
11.91154
 21
-16.0
 31
0.0
  0
LINE
  5
63
100
AcDbEntity
  8
外形
  6
CONTINUOUS
100
AcDbLine
 10
99.413976
 20
0.0
 30
0.0
 11
0.0
 21
0.0
 31
0.0
  0
TEXT
  5
75
100
AcDbEntity
  8
外形
  6
CONTINUOUS
 62
     2
100
AcDbText
 10
-17.449869
 20
-125.531896
 30
0.0
 40
6.0
  1
ＰＳＫＮ　Ｒ１６１６－３２
100
AcDbText
  0
LINE
  5
76
100
AcDbEntity
  8
外形
  6
CONTINUOUS
100
AcDbLine
 10
99.413976
 20
-94.860638
 30
0.0
 11
-2.061601
 21
-94.860638
 31
0.0
  0
DIMENSION
  5
77
100
AcDbEntity
  8
寸法
  6
CONTINUOUS
100
AcDbDimension
  2
*D3
 10
99.413976
 20
-34.636
 30
0.0
 11
49.414176
 21
-32.136
 31
0.0
 70
    32
  3
STANDARD
100
AcDbAlignedDimension
 13
-0.585625
 23
-20.000298
 33
0.0
 14
99.413976
 24
-15.636
 34
0.0
100
AcDbRotatedDimension
1001
ACAD
1000
DSTYLE
1002
{
1070
    40
1040
1.0
1002
}
  0
LINE
  5
84
100
AcDbEntity
  8
外形
100
AcDbLine
 10
9.68339
 20
-54.560388
 30
0.0
 11
12.195843
 21
-63.936987
 31
0.0
  0
LINE
  5
93
100
AcDbEntity
  8
外形
  6
CONTINUOUS
100
AcDbLine
 10
-1.899861
 20
-85.449564
 30
0.0
 11
-2.329237
 21
-82.298685
 31
0.0
  0
LINE
  5
94
100
AcDbEntity
  8
外形
  6
CONTINUOUS
100
AcDbLine
 10
9.303092
 20
-83.922917
 30
0.0
 11
-2.061601
 21
-85.471604
 31
0.0
  0
LINE
  5
95
100
AcDbEntity
  8
外形
  6
CONTINUOUS
100
AcDbLine
 10
8.89601
 20
-80.769001
 30
0.0
 11
-2.351531
 21
-82.301723
 31
0.0
  0
LINE
  5
96
100
AcDbEntity
  8
外形
  6
CONTINUOUS
100
AcDbLine
 10
-2.780907
 20
-79.150844
 30
0.0
 11
16.378306
 21
-76.539984
 31
0.0
  0
DIMENSION
  5
97
100
AcDbEntity
  8
寸法
  6
CONTINUOUS
100
AcDbDimension
  2
*D4
 10
-13.13
 20
-94.860638
 30
0.0
 11
-15.63
 21
-86.860676
 31
0.0
 70
    32
  3
STANDARD
100
AcDbAlignedDimension
 13
-0.715625
 23
-78.860713
 33
0.0
 14
-3.0
 24
-94.860638
 34
0.0
 50
90.0
100
AcDbRotatedDimension
1001
ACAD
1000
DSTYLE
1002
{
1070
    40
1040
1.0
1002
}
  0
DIMENSION
  5
A4
100
AcDbEntity
  8
寸法
  6
CONTINUOUS
100
AcDbDimension
  2
*D5
 10
17.000124
 20
-69.091586
 30
0.0
 11
7.000062
 21
-66.591586
 31
0.0
 70
    32
  3
STANDARD
100
AcDbAlignedDimension
 13
-3.0
 23
-85.444864
 33
0.0
 14
17.000124
 24
-78.860638
 34
0.0
100
AcDbRotatedDimension
1001
ACAD
1000
DSTYLE
1002
{
1070
    40
1040
1.0
1002
}
  0
LINE
  5
BF
100
AcDbEntity
  8
外形
  6
CONTINUOUS
100
AcDbLine
 10
-2.351531
 20
-82.301723
 30
0.0
 11
-2.780907
 21
-79.150844
 31
0.0
  0
LINE
  5
C1
100
AcDbEntity
  8
外形
  6
CONTINUOUS
100
AcDbLine
 10
-2.061601
 20
-85.471604
 30
0.0
 11
-2.061601
 21
-94.860638
 31
0.0
  0
LINE
  5
C2
100
AcDbEntity
  8
外形
  6
CONTINUOUS
100
AcDbLine
 10
11.91154
 20
-77.148678
 30
0.0
 11
11.91154
 21
-94.860638
 31
0.0
  0
LINE
  5
C3
100
AcDbEntity
  8
外形
  6
CONTINUOUS
100
AcDbLine
 10
16.378306
 20
-76.539984
 30
0.0
 11
16.378306
 21
-94.860638
 31
0.0
  0
LINE
  5
C4
100
AcDbEntity
  8
外形
  6
CONTINUOUS
100
AcDbLine
 10
8.89601
 20
-80.769001
 30
0.0
 11
8.466634
 21
-77.618122
 31
0.0
  0
LINE
  5
C5
100
AcDbEntity
  8
外形
  6
CONTINUOUS
100
AcDbLine
 10
17.000124
 20
-78.860638
 30
0.0
 11
16.378306
 21
-76.539984
 31
0.0
  0
LINE
  5
C6
100
AcDbEntity
  8
外形
  6
CONTINUOUS
100
AcDbLine
 10
9.303092
 20
-83.922917
 30
0.0
 11
8.873716
 21
-80.772039
 31
0.0
  0
LINE
  5
C7
100
AcDbEntity
  8
外形
  6
CONTINUOUS
100
AcDbLine
 10
0.273127
 20
-85.153447
 30
0.0
 11
-0.585625
 21
-78.851689
 31
0.0
  0
LINE
  5
C8
100
AcDbEntity
  8
外形
  6
CONTINUOUS
100
AcDbLine
 10
0.235292
 20
-85.158603
 30
0.0
 11
0.235292
 21
-94.860638
 31
0.0
  0
LINE
  5
C9
100
AcDbEntity
  8
外形
  6
CONTINUOUS
100
AcDbLine
 10
17.0
 20
-78.860638
 30
0.0
 11
17.0
 21
-94.860638
 31
0.0
  0
LINE
  5
CA
100
AcDbEntity
  8
寸法
  6
CONTINUOUS
100
AcDbLine
 10
-49.464818
 20
-33.290143
 30
0.0
 11
-0.537449
 21
-20.180094
 31
0.0
  0
DIMENSION
  5
CB
100
AcDbEntity
  8
寸法
  6
CONTINUOUS
100
AcDbDimension
  2
*D6
 10
-54.284901
 20
-15.301347
 30
0.0
 11
-54.494633
 21
-48.649219
 31
0.0
 70
    34
 51
345.0
  3
STANDARD
100
AcDb2LineAngularDimension
 13
-49.464818
 23
-33.290143
 33
0.0
 14
-52.838333
 24
-14.157989
 34
0.0
 15
-49.464818
 25
-33.290143
 35
0.0
 16
-45.295477
 26
-50.881978
 36
0.0
1001
ACAD
1000
DSTYLE
1002
{
1070
    40
1040
1.0
1002
}
  0
LINE
  5
DC
100
AcDbEntity
  8
外形
  6
CONTINUOUS
100
AcDbLine
 10
-52.611819
 20
-33.755503
 30
0.0
 11
-54.260621
 21
-24.404686
 31
0.0
  0
LINE
  5
DD
100
AcDbEntity
  8
外形
  6
CONTINUOUS
100
AcDbLine
 10
-49.464818
 20
-33.290143
 30
0.0
 11
-52.838333
 21
-14.157989
 31
0.0
  0
LINE
  5
DE
100
AcDbEntity
  8
外形
  6
CONTINUOUS
100
AcDbLine
 10
-55.75882
 20
-34.220864
 30
0.0
 11
-57.403279
 21
-24.894676
 31
0.0
  0
LINE
  5
DF
100
AcDbEntity
  8
外形
  6
CONTINUOUS
100
AcDbLine
 10
-64.654584
 20
-36.604477
 30
0.0
 11
-69.474667
 21
-18.615681
 31
0.0
  0
LINE
  5
E0
100
AcDbEntity
  8
外形
  6
CONTINUOUS
100
AcDbLine
 10
-49.464818
 20
-33.290143
 30
0.0
 11
-52.611819
 21
-33.755503
 31
0.0
  0
LINE
  5
E1
100
AcDbEntity
  8
外形
  6
CONTINUOUS
100
AcDbLine
 10
-64.654584
 20
-36.604477
 30
0.0
 11
-55.75882
 21
-34.220864
 31
0.0
  0
LINE
  5
E2
100
AcDbEntity
  8
外形
  6
CONTINUOUS
100
AcDbLine
 10
-52.616162
 20
-33.730874
 30
0.0
 11
-55.763163
 21
-34.196234
 31
0.0
  0
LINE
  5
E3
100
AcDbEntity
  8
外形
  6
CONTINUOUS
100
AcDbLine
 10
-51.757135
 20
-20.289765
 30
0.0
 11
-67.869297
 21
-24.607006
 31
0.0
  0
LINE
  5
E4
100
AcDbEntity
  8
外形
  6
CONTINUOUS
100
AcDbLine
 10
-51.11362
 20
-23.939325
 30
0.0
 11
-54.260621
 21
-24.404686
 31
0.0
  0
LINE
  5
E5
100
AcDbEntity
  8
外形
  6
CONTINUOUS
100
AcDbLine
 10
-68.925629
 20
-20.664719
 30
0.0
 11
-52.505365
 21
-16.264923
 31
0.0
  0
LINE
  5
E6
100
AcDbEntity
  8
外形
  6
CONTINUOUS
100
AcDbLine
 10
-69.474667
 20
-18.615681
 30
0.0
 11
-52.838333
 21
-14.157989
 31
0.0
  0
LINE
  5
E7
100
AcDbEntity
  8
外形
  6
CONTINUOUS
100
AcDbLine
 10
-54.256278
 20
-24.429315
 30
0.0
 11
-57.403279
 21
-24.894676
 31
0.0
  0
LINE
  5
E8
100
AcDbEntity
  8
寸法
  6
CONTINUOUS
100
AcDbLine
 10
-0.585625
 20
-20.000298
 30
0.0
 11
7.113639
 21
-48.734341
 31
0.0
  0
DIMENSION
  5
E9
100
AcDbEntity
  8
寸法
  6
CONTINUOUS
100
AcDbDimension
  2
*D7
 10
-0.585625
 20
-17.086
 30
0.0
 11
-9.250935
 21
-27.691263
 31
0.0
 70
    34
  3
STANDARD
100
AcDb2LineAngularDimension
 13
-2.843821
 23
-11.572595
 33
0.0
 14
-0.79268
 24
-19.227557
 34
0.0
 15
-0.585625
 25
-20.000298
 35
0.0
 16
1.590166
 26
-32.339823
 36
0.0
1001
ACAD
1000
DSTYLE
1002
{
1070
    40
1040
1.0
1002
}
  0
LINE
  5
107
100
AcDbEntity
  8
外形
100
AcDbLine
 10
18.313188
 20
-51.247719
 30
0.0
 11
9.413864
 21
-54.663849
 31
0.0
  0
LINE
  5
108
100
AcDbEntity
  8
外形
100
AcDbLine
 10
17.194584
 20
-48.27087
 30
0.0
 11
8.253249
 21
-51.703127
 31
0.0
  0
LINE
  5
109
100
AcDbEntity
  8
外形
100
AcDbLine
 10
7.113639
 20
-48.734341
 30
0.0
 11
8.253249
 21
-51.703127
 31
0.0
  0
LINE
  5
10A
100
AcDbEntity
  8
外形
100
AcDbLine
 10
8.274254
 20
-51.695063
 30
0.0
 11
9.413864
 21
-54.663849
 31
0.0
  0
LINE
  5
10B
100
AcDbEntity
  8
外形
100
AcDbLine
 10
17.173578
 20
-48.278933
 30
0.0
 11
18.313188
 21
-51.247719
 31
0.0
  0
LINE
  5
10C
100
AcDbEntity
  8
外形
100
AcDbLine
 10
16.054974
 20
-45.302084
 30
0.0
 11
17.194584
 21
-48.27087
 31
0.0
  0
LINE
  5
10D
100
AcDbEntity
  8
外形
  6
CONTINUOUS
100
AcDbLine
 10
-2.795645
 20
-11.752391
 30
0.0
 11
-0.744504
 21
-19.407353
 31
0.0
  0
LINE
  5
10E
100
AcDbEntity
  8
外形
  6
CONTINUOUS
100
AcDbLine
 10
6.197743
 20
-8.514399
 30
0.0
 11
-2.22996
 21
-10.772595
 31
0.0
  0
LINE
  5
12D
100
AcDbEntity
  8
外形
  6
CONTINUOUS
100
AcDbLine
 10
-2.061601
 20
-10.727483
 30
0.0
 11
-3.0
 21
-7.22533
 31
0.0
  0
LINE
  5
12E
100
AcDbEntity
  8
外形
  6
CONTINUOUS
100
AcDbLine
 10
-3.0
 20
-3.0
 30
0.0
 11
0.0
 21
0.0
 31
0.0
  0
DIMENSION
  5
12F
100
AcDbEntity
  8
寸法
  6
CONTINUOUS
100
AcDbDimension
  2
*D8
 10
-13.0
 20
-20.000298
 30
0.0
 11
-15.5
 21
-10.000149
 31
0.0
 70
    32
  3
STANDARD
100
AcDbAlignedDimension
 13
0.0
 23
0.0
 33
0.0
 14
-0.585625
 24
-20.000298
 34
0.0
 50
90.0
100
AcDbRotatedDimension
1001
ACAD
1000
DSTYLE
1002
{
1070
    40
1040
1.0
1002
}
  0
ARC
  5
14A
100
AcDbEntity
  8
外形
  6
CONTINUOUS
100
AcDbCircle
 10
-2.022904
 20
-11.545335
 30
0.0
 40
0.8
100
AcDbArc
 50
105.0
 51
195.0
  0
LINE
  5
14B
100
AcDbEntity
  8
外形
  6
CONTINUOUS
100
AcDbLine
 10
-3.0
 20
-3.0
 30
0.0
 11
-3.0
 21
-7.22533
 31
0.0
  0
LINE
  5
14D
100
AcDbEntity
  8
外形
  6
CONTINUOUS
100
AcDbLine
 10
8.455939
 20
-16.942101
 30
0.0
 11
6.197743
 21
-8.514399
 31
0.0
  0
LINE
  5
14E
100
AcDbEntity
  8
外形
  6
CONTINUOUS
100
AcDbLine
 10
16.378306
 20
0.0
 30
0.0
 11
17.000124
 21
-16.0
 31
0.0
  0
LINE
  5
14F
100
AcDbEntity
  8
外形
  6
CONTINUOUS
100
AcDbLine
 10
17.000124
 20
-16.0
 30
0.0
 11
17.000124
 21
0.0
 31
0.0
  0
CIRCLE
  5
150
100
AcDbEntity
  8
外形
  6
CONTINUOUS
100
AcDbCircle
 10
10.490592
 20
-7.91937
 30
0.0
 40
3.0
  0
CIRCLE
  5
151
100
AcDbEntity
  8
外形
  6
CONTINUOUS
100
AcDbCircle
 10
10.490592
 20
-7.91937
 30
0.0
 40
2.4585
  0
LINE
  5
152
100
AcDbEntity
  8
外形
100
AcDbLine
 10
11.91154
 20
-16.0
 30
0.0
 11
8.451895
 21
-16.927009
 31
0.0
  0
ARC
  5
153
100
AcDbEntity
  8
外形
  6
CONTINUOUS
100
AcDbCircle
 10
7.683199
 20
-17.149157
 30
0.0
 40
0.8
100
AcDbArc
 50
285.0
 51
15.0
  0
LINE
  5
154
100
AcDbEntity
  8
外形
  6
CONTINUOUS
100
AcDbLine
 10
0.235292
 20
-19.973038
 30
0.0
 11
7.890254
 21
-17.921897
 31
0.0
  0
ARC
  5
155
100
AcDbEntity
  8
外形
  6
CONTINUOUS
100
AcDbCircle
 10
0.028237
 20
-19.200298
 30
0.0
 40
0.8
100
AcDbArc
 50
195.0
 51
285.0
  0
CIRCLE
  5
159
100
AcDbEntity
  8
外形
  6
CONTINUOUS
100
AcDbCircle
 10
2.830147
 20
-14.347246
 30
0.0
 40
2.5
  0
LINE
  5
15B
100
AcDbEntity
  8
寸法
  6
CONTINUOUS
100
AcDbLine
 10
0.235292
 20
-19.973038
 30
0.0
 11
-0.537449
 21
-20.180094
 31
0.0
  0
LWPOLYLINE
  5
15C
100
AcDbEntity
  8
外形
  6
CONTINUOUS
100
AcDbPolyline
 90
        6
 70
     1
 43
0.0
 10
9.240592
 20
-8.641058
 10
10.490592
 20
-9.362746
 10
11.740592
 20
-8.641058
 10
11.740592
 20
-7.197682
 10
10.490592
 20
-6.475994
 10
9.240592
 20
-7.197682
  0
ARC
  5
15D
100
AcDbEntity
  8
外形
  6
CONTINUOUS
100
AcDbCircle
 10
4.265892
 20
-9.032037
 30
0.0
 40
2.0
100
AcDbArc
 50
15.0
 51
195.0
  0
DIMENSION
  5
15E
100
AcDbEntity
  8
寸法
  6
CONTINUOUS
100
AcDbDimension
  2
*D9
 10
107.413976
 20
-94.860638
 30
0.0
 11
104.913976
 21
-86.860638
 31
0.0
 70
    32
  3
STANDARD
100
AcDbAlignedDimension
 13
99.413976
 23
-78.860638
 33
0.0
 14
99.413976
 24
-94.860638
 34
0.0
 50
90.0
100
AcDbRotatedDimension
1001
ACAD
1000
DSTYLE
1002
{
1070
    40
1040
1.0
1002
}
  0
LINE
  5
16B
100
AcDbEntity
  8
外形
  6
CONTINUOUS
100
AcDbLine
 10
99.413976
 20
-78.919638
 30
0.0
 11
99.413976
 21
-94.919638
 31
0.0
  0
LINE
  5
16C
100
AcDbEntity
  8
外形
100
AcDbLine
 10
24.031191
 20
-42.240301
 30
0.0
 11
28.662545
 21
-59.524748
 31
0.0
  0
LINE
  5
16D
100
AcDbEntity
  8
外形
100
AcDbLine
 10
99.413976
 20
0.364
 30
0.0
 11
99.413976
 21
-15.636
 31
0.0
  0
DIMENSION
  5
16E
100
AcDbEntity
  8
寸法
  6
CONTINUOUS
100
AcDbDimension
  2
*D10
 10
107.413976
 20
-15.636
 30
0.0
 11
104.913976
 21
-7.636
 31
0.0
 70
    32
  3
STANDARD
100
AcDbAlignedDimension
 13
99.413976
 23
0.364
 33
0.0
 14
99.413976
 24
-15.636
 34
0.0
 50
90.0
100
AcDbRotatedDimension
1001
ACAD
1000
DSTYLE
1002
{
1070
    40
1040
1.0
1002
}
  0
ENDSEC
  0
SECTION
  2
OBJECTS
  0
DICTIONARY
  5
1E
102
{ACAD_XDICTIONARY
360
1F
102
}
100
AcDbDictionary
  3
ACAD_GROUP
350
1C
  3
ACAD_MLINESTYLE
350
1D
  0
DICTIONARY
  5
36
100
AcDbDictionary
280
     1
  3
ACAD_XREC_ROUNDTRIP
360
37
  0
DICTIONARY
  5
24
100
AcDbDictionary
280
     1
  3
ACAD_XREC_ROUNDTRIP
360
25
  0
DICTIONARY
  5
3
100
AcDbDictionary
280
     1
  3
ACAD_LAYOUTSELFREF
360
4
  0
DICTIONARY
  5
A
100
AcDbDictionary
280
     1
  3
ACAD_LAYOUTSELFREF
360
B
  0
DICTIONARY
  5
1F
100
AcDbDictionary
280
     1
  3
ACAD_XREC_ROUNDTRIP
360
20
  0
DICTIONARY
  5
1C
102
{ACAD_REACTORS
330
1E
102
}
100
AcDbDictionary
  0
DICTIONARY
  5
1D
102
{ACAD_REACTORS
330
1E
102
}
100
AcDbDictionary
  3
STANDARD
350
22
  0
XRECORD
  5
37
102
{ACAD_REACTORS
330
36
102
}
100
AcDbXrecord
102
PLOTBIT
280
     0
  0
XRECORD
  5
25
102
{ACAD_REACTORS
330
24
102
}
100
AcDbXrecord
102
ACADR14ROUNDTRIP
1000
DSTYLE
1002
{
1070
   341
340
0
1070
   343
340
0
1070
   344
340
0
1002
}
  0
XRECORD
  5
4
102
{ACAD_REACTORS
330
3
102
}
100
AcDbXrecord
340
2
  0
XRECORD
  5
B
102
{ACAD_REACTORS
330
A
102
}
100
AcDbXrecord
340
9
  0
XRECORD
  5
20
102
{ACAD_REACTORS
330
1F
102
}
100
AcDbXrecord
102
EXTNAMES
  1
ACDBVARIABLEDICTIONARY
  2
AcDbVariableDictionary
  1
ACMDICTIONARY
  2
AcmDictionary
  1
ACMESYSVARMANAGER
  2
AcmeSysVarManager
  0
MLINESTYLE
  5
22
102
{ACAD_REACTORS
330
1D
102
}
100
AcDbMlineStyle
  2
STANDARD
 70
     0
  3

 62
     0
 51
90.0
 52
90.0
 71
     2
 49
0.5
 62
   256
  6
BYLAYER
 49
-0.5
 62
   256
  6
BYLAYER
  0
ENDSEC
  0
EOF
