  0
SECTION
  2
HEADER
  9
$ACADVER
  1
AC1014
  9
$ACADMAINTVER
 70
     0
  9
$DWGCODEPAGE
  3
ANSI_932
  9
$INSBASE
 10
-101.5768
 20
-557.525608
 30
0.0
  9
$EXTMIN
 10
-80.958599
 20
-545.131896
 30
0.0
  9
$EXTMAX
 10
147.345295
 20
-395.027884
 30
0.0
  9
$LIMMIN
 10
0.0
 20
0.0
  9
$LIMMAX
 10
1273.731701
 20
854.777937
  9
$ORTHOMODE
 70
     1
  9
$REGENMODE
 70
     1
  9
$FILLMODE
 70
     1
  9
$QTEXTMODE
 70
     0
  9
$MIRRTEXT
 70
     1
  9
$DRAGMODE
 70
     2
  9
$LTSCALE
 40
5.0
  9
$OSMODE
 70
    45
  9
$ATTMODE
 70
     1
  9
$TEXTSIZE
 40
20.0
  9
$TRACEWID
 40
0.05
  9
$TEXTSTYLE
  7
STANDARD
  9
$CLAYER
  8
外形
  9
$CELTYPE
  6
CONTINUOUS
  9
$CECOLOR
 62
   256
  9
$CELTSCALE
 40
1.0
  9
$DELOBJ
 70
     1
  9
$DISPSILH
 70
     0
  9
$DIMSCALE
 40
1.0
  9
$DIMASZ
 40
2.0
  9
$DIMEXO
 40
1.0
  9
$DIMDLI
 40
8.0
  9
$DIMRND
 40
0.0
  9
$DIMDLE
 40
0.0
  9
$DIMEXE
 40
1.5
  9
$DIMTP
 40
0.0
  9
$DIMTM
 40
0.0
  9
$DIMTXT
 40
3.0
  9
$DIMCEN
 40
-1.0
  9
$DIMTSZ
 40
0.0
  9
$DIMTOL
 70
     0
  9
$DIMLIM
 70
     0
  9
$DIMTIH
 70
     0
  9
$DIMTOH
 70
     0
  9
$DIMSE1
 70
     0
  9
$DIMSE2
 70
     0
  9
$DIMTAD
 70
     1
  9
$DIMZIN
 70
     8
  9
$DIMBLK
  1

  9
$DIMASO
 70
     1
  9
$DIMSHO
 70
     1
  9
$DIMPOST
  1

  9
$DIMAPOST
  1

  9
$DIMALT
 70
     0
  9
$DIMALTD
 70
     2
  9
$DIMALTF
 40
25.4
  9
$DIMLFAC
 40
1.0
  9
$DIMTOFL
 70
     1
  9
$DIMTVP
 40
0.0
  9
$DIMTIX
 70
     0
  9
$DIMSOXD
 70
     0
  9
$DIMSAH
 70
     1
  9
$DIMBLK1
  1
_OPEN30
  9
$DIMBLK2
  1
_OPEN30
  9
$DIMSTYLE
  2
STANDARD
  9
$DIMCLRD
 70
     1
  9
$DIMCLRE
 70
     1
  9
$DIMCLRT
 70
     3
  9
$DIMTFAC
 40
1.0
  9
$DIMGAP
 40
1.0
  9
$DIMJUST
 70
     0
  9
$DIMSD1
 70
     0
  9
$DIMSD2
 70
     0
  9
$DIMTOLJ
 70
     1
  9
$DIMTZIN
 70
     8
  9
$DIMALTZ
 70
     0
  9
$DIMALTTZ
 70
     0
  9
$DIMFIT
 70
     3
  9
$DIMUPT
 70
     0
  9
$DIMUNIT
 70
     2
  9
$DIMDEC
 70
     3
  9
$DIMTDEC
 70
     0
  9
$DIMALTU
 70
     2
  9
$DIMALTTD
 70
     2
  9
$DIMTXSTY
  7
STANDARD
  9
$DIMAUNIT
 70
     0
  9
$LUNITS
 70
     2
  9
$LUPREC
 70
     3
  9
$SKETCHINC
 40
0.1
  9
$FILLETRAD
 40
2.4
  9
$AUNITS
 70
     0
  9
$AUPREC
 70
     3
  9
$MENU
  1
acad
  9
$ELEVATION
 40
0.0
  9
$PELEVATION
 40
0.0
  9
$THICKNESS
 40
0.0
  9
$LIMCHECK
 70
     0
  9
$BLIPMODE
 70
     0
  9
$CHAMFERA
 40
0.0
  9
$CHAMFERB
 40
0.0
  9
$CHAMFERC
 40
0.0
  9
$CHAMFERD
 40
0.0
  9
$SKPOLY
 70
     0
  9
$TDCREATE
 40
2450751.535399305
  9
$TDUPDATE
 40
2451929.847245370
  9
$TDINDWG
 40
2.0617200347
  9
$TDUSRTIMER
 40
2.0617200347
  9
$USRTIMER
 70
     1
  9
$ANGBASE
 50
0.0
  9
$ANGDIR
 70
     0
  9
$PDMODE
 70
     0
  9
$PDSIZE
 40
0.0
  9
$PLINEWID
 40
0.0
  9
$COORDS
 70
     0
  9
$SPLFRAME
 70
     0
  9
$SPLINETYPE
 70
     5
  9
$SPLINESEGS
 70
     8
  9
$ATTDIA
 70
     1
  9
$ATTREQ
 70
     1
  9
$HANDLING
 70
     1
  9
$HANDSEED
  5
20A
  9
$SURFTAB1
 70
     6
  9
$SURFTAB2
 70
     6
  9
$SURFTYPE
 70
     6
  9
$SURFU
 70
     6
  9
$SURFV
 70
     6
  9
$UCSNAME
  2

  9
$UCSORG
 10
0.0
 20
0.0
 30
0.0
  9
$UCSXDIR
 10
1.0
 20
0.0
 30
0.0
  9
$UCSYDIR
 10
0.0
 20
1.0
 30
0.0
  9
$PUCSNAME
  2

  9
$PUCSORG
 10
0.0
 20
0.0
 30
0.0
  9
$PUCSXDIR
 10
1.0
 20
0.0
 30
0.0
  9
$PUCSYDIR
 10
0.0
 20
1.0
 30
0.0
  9
$USERI1
 70
     0
  9
$USERI2
 70
     0
  9
$USERI3
 70
     0
  9
$USERI4
 70
     0
  9
$USERI5
 70
     0
  9
$USERR1
 40
0.0
  9
$USERR2
 40
0.0
  9
$USERR3
 40
0.0
  9
$USERR4
 40
0.0
  9
$USERR5
 40
0.0
  9
$WORLDVIEW
 70
     1
  9
$SHADEDGE
 70
     3
  9
$SHADEDIF
 70
    70
  9
$TILEMODE
 70
     1
  9
$MAXACTVP
 70
    16
  9
$PINSBASE
 10
0.0
 20
0.0
 30
0.0
  9
$PLIMCHECK
 70
     0
  9
$PEXTMIN
 10
0.0
 20
0.0
 30
0.0
  9
$PEXTMAX
 10
0.0
 20
0.0
 30
0.0
  9
$PLIMMIN
 10
0.0
 20
0.0
  9
$PLIMMAX
 10
0.0
 20
0.0
  9
$UNITMODE
 70
     0
  9
$VISRETAIN
 70
     0
  9
$PLINEGEN
 70
     0
  9
$PSLTSCALE
 70
     1
  9
$TREEDEPTH
 70
  3020
  9
$PICKSTYLE
 70
     1
  9
$CMLSTYLE
  2
STANDARD
  9
$CMLJUST
 70
     0
  9
$CMLSCALE
 40
1.0
  9
$PROXYGRAPHICS
 70
     1
  9
$MEASUREMENT
 70
     0
  0
ENDSEC
  0
SECTION
  2
CLASSES
  0
CLASS
  1
LWPOLYLINE
  2
AcDbPolyline
  3
"AutoCAD"
 90
        0
280
     0
281
     1
  0
CLASS
  1
ACDBDICTIONARYWDFLT
  2
AcDbDictionaryWithDefault
  3
AutoCAD 2000
 90
        0
280
     1
281
     0
  0
CLASS
  1
ACDBPLACEHOLDER
  2
AcDbPlaceHolder
  3
AutoCAD 2000
 90
        0
280
     1
281
     0
  0
CLASS
  1
LAYOUT
  2
AcDbLayout
  3
AutoCAD 2000
 90
        0
280
     1
281
     0
  0
CLASS
  1
LONG_TRANSACTION
  2
AcDbLongTransaction
  3
AutoCAD 2000
 90
        0
280
     1
281
     0
  0
CLASS
  1
LWPOLYLINE
  2
AcDbPolyline
  3
"AutoCAD"
 90
        0
280
     0
281
     1
  0
CLASS
  1
HATCH
  2
AcDbHatch
  3
"ACAD_SEDONA"
 90
        0
280
     0
281
     1
  0
CLASS
  1
XRECORD
  2
AcDbXrecord
  3
"<Built In>"
 90
        0
280
     0
281
     0
  0
CLASS
  1
ACME_DOCUMENT
  2
AcMeDbDoc
  3
AcMeServices
 90
        0
280
     1
281
     0
  0
CLASS
  1
ACMESCOPE
  2
AcMeScope
  3
AcMeServices
 90
        0
280
     1
281
     0
  0
CLASS
  1
ACMECOMMANDHISTORY
  2
AcMeCommandHistory
  3
AcMeServices
 90
        0
280
     1
281
     0
  0
CLASS
  1
DICTIONARYVAR
  2
AcDbDictionaryVar
  3
"AutoCAD"
 90
        0
280
     0
281
     0
  0
CLASS
  1
ACIMSYSVARMAN
  2
AcImSysVarManager
  3
AcMeServices
 90
        0
280
     1
281
     0
  0
CLASS
  1
ACIMREALSYSVAR
  2
AcImRealSysVar
  3
AcMeServices
 90
        0
280
     1
281
     0
  0
CLASS
  1
ACIMINTSYSVAR
  2
AcImIntSysVar
  3
AcMeServices
 90
        0
280
     1
281
     0
  0
CLASS
  1
ACMEDRAWINGMAN
  2
AcMeDrawingMan
  3
AcMeServices
 90
        0
280
     1
281
     0
  0
CLASS
  1
ACMEVIEW
  2
AcMeView
  3
AcMeServices
 90
        0
280
     1
281
     0
  0
CLASS
  1
ACDBENTITYCACHE
  2
AcMeEntityCache
  3
AcMeServices
 90
        0
280
     1
281
     0
  0
CLASS
  1
GSMANAGER
  2
AcMeGSManager
  3
AcMeServices
 90
        0
280
     1
281
     0
  0
CLASS
  1
AmdtInternalReactor
  2
AmdtInternalReactor
  3
AcMeServices
 90
        0
280
     1
281
     0
  0
CLASS
  1
ACMESTATEMGR
  2
AcMeStateMgr
  3
AcMeServices
 90
        0
280
     1
281
     0
  0
CLASS
  1
ACME_DATABASE
  2
AcMeDbDatabase
  3
AcMeServices
 90
        0
280
     1
281
     0
  0
CLASS
  1
ACRFINSADJUSTERMGR
  2
AcRfInsAdjusterMgr
  3
AcMeServices
 90
        0
280
     1
281
     0
  0
CLASS
  1
AMGSETTINGSOBJ
  2
AmgSettingsObj
  3
"AcadM|Product Description: AutoCAD Mechanical 2000|Company: Autodesk"
 90
        0
280
     1
281
     0
  0
CLASS
  1
ACMDATADICTIONARY
  2
AcmDataDictionary
  3
"AcmSymBB|Product Description: AutoCAD Mechanical 2000|Company: Autodesk"
 90
        0
280
     1
281
     0
  0
CLASS
  1
ACMDATAENTRYBLOCK
  2
AcmDataEntryBlock
  3
"AcmSymBB|Product Description: AutoCAD Mechanical 2000|Company: Autodesk"
 90
        0
280
     1
281
     0
  0
CLASS
  1
AMGOBJPROPCFG
  2
AmgObjPropCfg
  3
"AmgLay|Product Description: AutoCAD Mechanical 2000|Company: Autodesk"
 90
        1
280
     1
281
     0
  0
CLASS
  1
LAYER_INDEX
  2
AcDbLayerIndex
  3
"Acad"
 90
        0
280
     0
281
     0
  0
CLASS
  1
IDBUFFER
  2
AcDbIdBuffer
  3
"Acad"
 90
        0
280
     0
281
     0
  0
CLASS
  1
LONG_TRANSACTION
  2
AcDbLongTransaction
  3
AutoCAD 2000
 90
        0
280
     1
281
     0
  0
CLASS
  1
LWPOLYLINE
  2
AcDbPolyline
  3
"AutoCAD"
 90
        0
280
     0
281
     1
  0
CLASS
  1
HATCH
  2
AcDbHatch
  3
"ACAD_SEDONA"
 90
        0
280
     0
281
     1
  0
CLASS
  1
XRECORD
  2
AcDbXrecord
  3
"<Built In>"
 90
        0
280
     0
281
     0
  0
ENDSEC
  0
SECTION
  2
TABLES
  0
TABLE
  2
VPORT
  5
16
100
AcDbSymbolTable
 70
     1
  0
VPORT
  5
205
100
AcDbSymbolTableRecord
100
AcDbViewportTableRecord
  2
*ACTIVE
 70
     0
 10
0.0
 20
0.0
 11
1.0
 21
1.0
 12
14.531124
 22
-481.541314
 13
0.0
 23
0.0
 14
0.05
 24
0.05
 15
10.0
 25
10.0
 16
0.0
 26
0.0
 36
1.0
 17
0.0
 27
0.0
 37
0.0
 40
213.347874
 41
1.710425
 42
50.0
 43
0.0
 44
0.0
 50
0.0
 51
0.0
 71
     0
 72
   100
 73
     1
 74
     1
 75
     0
 76
     0
 77
     0
 78
     0
  0
ENDTAB
  0
TABLE
  2
LTYPE
  5
11
100
AcDbSymbolTable
 70
     1
  0
LTYPE
  5
12
100
AcDbSymbolTableRecord
100
AcDbLinetypeTableRecord
  2
BYBLOCK
 70
     0
  3

 72
    65
 73
     0
 40
0.0
  0
LTYPE
  5
13
100
AcDbSymbolTableRecord
100
AcDbLinetypeTableRecord
  2
BYLAYER
 70
     0
  3

 72
    65
 73
     0
 40
0.0
  0
LTYPE
  5
7
100
AcDbSymbolTableRecord
100
AcDbLinetypeTableRecord
  2
CONTINUOUS
 70
     0
  3
Solid line
 72
    65
 73
     0
 40
0.0
  0
ENDTAB
  0
TABLE
  2
LAYER
  5
E
100
AcDbSymbolTable
 70
     5
  0
LAYER
  5
6
100
AcDbSymbolTableRecord
100
AcDbLayerTableRecord
  2
0
 70
     0
 62
     7
  6
CONTINUOUS
  0
LAYER
  5
41
100
AcDbSymbolTableRecord
100
AcDbLayerTableRecord
  2
外形
 70
     0
 62
     3
  6
CONTINUOUS
  0
LAYER
  5
37
102
{ACAD_XDICTIONARY
360
38
102
}
100
AcDbSymbolTableRecord
100
AcDbLayerTableRecord
  2
DEFPOINTS
 70
     0
 62
     7
  6
CONTINUOUS
  0
LAYER
  5
44
100
AcDbSymbolTableRecord
100
AcDbLayerTableRecord
  2
寸法
 70
     0
 62
     1
  6
CONTINUOUS
  0
LAYER
  5
21
100
AcDbSymbolTableRecord
100
AcDbLayerTableRecord
  2
画層1
 70
     0
 62
     7
  6
CONTINUOUS
  0
ENDTAB
  0
TABLE
  2
STYLE
  5
F
100
AcDbSymbolTable
 70
     1
  0
STYLE
  5
10
100
AcDbSymbolTableRecord
100
AcDbTextStyleTableRecord
  2
STANDARD
 70
     0
 40
0.0
 41
1.0
 50
0.0
 71
     0
 42
20.0
  3
MONOTXT
  4
BIGFONT
  0
ENDTAB
  0
TABLE
  2
VIEW
  5
14
100
AcDbSymbolTable
 70
     0
  0
ENDTAB
  0
TABLE
  2
UCS
  5
15
100
AcDbSymbolTable
 70
     0
  0
ENDTAB
  0
TABLE
  2
APPID
  5
18
100
AcDbSymbolTable
 70
     1
  0
APPID
  5
19
100
AcDbSymbolTableRecord
100
AcDbRegAppTableRecord
  2
ACAD
 70
     0
  0
ENDTAB
  0
TABLE
  2
DIMSTYLE
  5
1A
100
AcDbSymbolTable
 70
     1
  0
DIMSTYLE
105
23
102
{ACAD_XDICTIONARY
360
24
102
}
102
{ACAD_REACTORS
330
D1
330
77
330
15B
330
43
330
16A
330
8B
330
AF
330
FE
330
E2
102
}
100
AcDbSymbolTableRecord
100
AcDbDimStyleTableRecord
  2
STANDARD
 70
     0
  3

  4

  5

  6
_OPEN30
  7
_OPEN30
 40
1.0
 41
2.0
 42
1.0
 43
8.0
 44
1.5
 45
0.0
 46
0.0
 47
0.0
 48
0.0
140
3.0
141
-1.0
142
0.0
143
25.4
144
1.0
145
0.0
146
1.0
147
1.0
 71
     0
 72
     0
 73
     0
 74
     0
 75
     0
 76
     0
 77
     1
 78
     8
170
     0
171
     2
172
     1
173
     1
174
     0
175
     0
176
     1
177
     1
178
     3
270
     2
271
     3
272
     0
273
     2
274
     2
340
10
275
     0
280
     0
281
     0
282
     0
283
     1
284
     8
285
     0
286
     0
287
     3
288
     0
  0
ENDTAB
  0
TABLE
  2
BLOCK_RECORD
  5
1
100
AcDbSymbolTable
 70
    29
  0
BLOCK_RECORD
  5
2
102
{ACAD_XDICTIONARY
360
3
102
}
100
AcDbSymbolTableRecord
100
AcDbBlockTableRecord
  2
*MODEL_SPACE
  0
BLOCK_RECORD
  5
9
102
{ACAD_XDICTIONARY
360
A
102
}
100
AcDbSymbolTableRecord
100
AcDbBlockTableRecord
  2
*PAPER_SPACE
  0
BLOCK_RECORD
  5
26
100
AcDbSymbolTableRecord
100
AcDbBlockTableRecord
  2
_DOTSMALL
  0
BLOCK_RECORD
  5
181
100
AcDbSymbolTableRecord
100
AcDbBlockTableRecord
  2
_OPEN30
  0
BLOCK_RECORD
  5
187
100
AcDbSymbolTableRecord
100
AcDbBlockTableRecord
  2
*D20
  0
BLOCK_RECORD
  5
193
100
AcDbSymbolTableRecord
100
AcDbBlockTableRecord
  2
*D21
  0
BLOCK_RECORD
  5
19F
100
AcDbSymbolTableRecord
100
AcDbBlockTableRecord
  2
*D22
  0
BLOCK_RECORD
  5
1AB
100
AcDbSymbolTableRecord
100
AcDbBlockTableRecord
  2
*D23
  0
BLOCK_RECORD
  5
1B7
100
AcDbSymbolTableRecord
100
AcDbBlockTableRecord
  2
*D24
  0
BLOCK_RECORD
  5
1C9
100
AcDbSymbolTableRecord
100
AcDbBlockTableRecord
  2
*D25
  0
BLOCK_RECORD
  5
1DB
100
AcDbSymbolTableRecord
100
AcDbBlockTableRecord
  2
*D26
  0
BLOCK_RECORD
  5
1ED
100
AcDbSymbolTableRecord
100
AcDbBlockTableRecord
  2
*D27
  0
BLOCK_RECORD
  5
1F9
100
AcDbSymbolTableRecord
100
AcDbBlockTableRecord
  2
*D28
  0
ENDTAB
  0
ENDSEC
  0
SECTION
  2
BLOCKS
  0
BLOCK
  5
5
100
AcDbEntity
  8
0
100
AcDbBlockBegin
  2
*MODEL_SPACE
 70
     0
 10
0.0
 20
0.0
 30
0.0
  3
*MODEL_SPACE
  1

  0
ENDBLK
  5
8
100
AcDbEntity
  8
0
100
AcDbBlockEnd
  0
BLOCK
  5
C
100
AcDbEntity
 67
     1
  8
0
100
AcDbBlockBegin
  2
*PAPER_SPACE
 70
     0
 10
0.0
 20
0.0
 30
0.0
  3
*PAPER_SPACE
  1

  0
ENDBLK
  5
D
100
AcDbEntity
 67
     1
  8
0
100
AcDbBlockEnd
  0
BLOCK
  5
2B
100
AcDbEntity
  8
0
100
AcDbBlockBegin
  2
_DOTSMALL
 70
     0
 10
0.0
 20
0.0
 30
0.0
  3
_DOTSMALL
  1

  0
POLYLINE
  5
27
100
AcDbEntity
  8
0
  6
BYBLOCK
 62
     0
100
AcDb2dPolyline
 66
     1
 10
0.0
 20
0.0
 30
0.0
 70
     1
 40
0.5
 41
0.5
  0
VERTEX
  5
28
100
AcDbEntity
  8
0
  6
BYBLOCK
 62
     0
100
AcDbVertex
100
AcDb2dVertex
 10
-0.0625
 20
0.0
 30
0.0
 42
1.0
  0
VERTEX
  5
29
100
AcDbEntity
  8
0
  6
BYBLOCK
 62
     0
100
AcDbVertex
100
AcDb2dVertex
 10
0.0625
 20
0.0
 30
0.0
 42
1.0
  0
SEQEND
  5
2A
100
AcDbEntity
  8
0
  6
BYBLOCK
 62
     0
  0
ENDBLK
  5
2C
100
AcDbEntity
  8
0
100
AcDbBlockEnd
  0
BLOCK
  5
182
100
AcDbEntity
  8
0
100
AcDbBlockBegin
  2
_OPEN30
 70
     0
 10
0.0
 20
0.0
 30
0.0
  3
_OPEN30
  1

  0
LINE
  5
183
100
AcDbEntity
  8
0
  6
BYBLOCK
 62
     0
100
AcDbLine
 10
-1.0
 20
0.267949
 30
0.0
 11
0.0
 21
0.0
 31
0.0
  0
LINE
  5
184
100
AcDbEntity
  8
0
  6
BYBLOCK
 62
     0
100
AcDbLine
 10
0.0
 20
0.0
 30
0.0
 11
-1.0
 21
-0.267949
 31
0.0
  0
LINE
  5
185
100
AcDbEntity
  8
0
  6
BYBLOCK
 62
     0
100
AcDbLine
 10
0.0
 20
0.0
 30
0.0
 11
-1.0
 21
0.0
 31
0.0
  0
ENDBLK
  5
186
100
AcDbEntity
  8
0
100
AcDbBlockEnd
  0
BLOCK
  5
188
100
AcDbEntity
  8
0
100
AcDbBlockBegin
  2
*D20
 70
     1
 10
0.0
 20
0.0
 30
0.0
  3
*D20
  1

  0
LINE
  5
189
100
AcDbEntity
  8
0
  6
BYBLOCK
 62
     1
100
AcDbLine
 10
135.25
 20
-421.027884
 30
0.0
 11
135.25
 21
-441.753156
 31
0.0
  0
LINE
  5
18A
100
AcDbEntity
  8
0
  6
BYBLOCK
 62
     1
100
AcDbLine
 10
-14.75
 20
-428.027884
 30
0.0
 11
-14.75
 21
-441.753156
 31
0.0
  0
LINE
  5
18B
100
AcDbEntity
  8
0
  6
BYBLOCK
 62
     1
100
AcDbLine
 10
133.25
 20
-440.253156
 30
0.0
 11
-12.75
 21
-440.253156
 31
0.0
  0
INSERT
  5
18C
100
AcDbEntity
  8
0
  6
BYBLOCK
 62
     1
100
AcDbBlockReference
  2
_OPEN30
 10
135.25
 20
-440.253156
 30
0.0
 41
2.0
 42
2.0
 43
2.0
  0
INSERT
  5
18D
100
AcDbEntity
  8
0
  6
BYBLOCK
 62
     1
100
AcDbBlockReference
  2
_OPEN30
 10
-14.75
 20
-440.253156
 30
0.0
 41
2.0
 42
2.0
 43
2.0
 50
180.0
  0
MTEXT
  5
18E
100
AcDbEntity
  8
0
  6
BYBLOCK
 62
     3
100
AcDbMText
 10
60.25
 20
-437.753156
 30
0.0
 40
3.0
 41
0.0
 71
     5
 72
     1
  1
\A1;150
  0
POINT
  5
18F
100
AcDbEntity
  8
DEFPOINTS
  6
BYBLOCK
 62
     0
100
AcDbPoint
 10
135.25
 20
-420.027884
 30
0.0
  0
POINT
  5
190
100
AcDbEntity
  8
DEFPOINTS
  6
BYBLOCK
 62
     0
100
AcDbPoint
 10
-14.75
 20
-427.027884
 30
0.0
  0
POINT
  5
191
100
AcDbEntity
  8
DEFPOINTS
  6
BYBLOCK
 62
     0
100
AcDbPoint
 10
-14.75
 20
-440.253156
 30
0.0
  0
ENDBLK
  5
192
100
AcDbEntity
  8
0
100
AcDbBlockEnd
  0
BLOCK
  5
194
100
AcDbEntity
  8
0
100
AcDbBlockBegin
  2
*D21
 70
     1
 10
0.0
 20
0.0
 30
0.0
  3
*D21
  1

  0
LINE
  5
195
100
AcDbEntity
  8
0
  6
BYBLOCK
 62
     1
100
AcDbLine
 10
-15.75
 20
-427.027884
 30
0.0
 11
-29.5
 21
-427.027884
 31
0.0
  0
LINE
  5
196
100
AcDbEntity
  8
0
  6
BYBLOCK
 62
     1
100
AcDbLine
 10
-11.0
 20
-395.027884
 30
0.0
 11
-29.5
 21
-395.027884
 31
0.0
  0
LINE
  5
197
100
AcDbEntity
  8
0
  6
BYBLOCK
 62
     1
100
AcDbLine
 10
-28.0
 20
-425.027884
 30
0.0
 11
-28.0
 21
-397.027884
 31
0.0
  0
INSERT
  5
198
100
AcDbEntity
  8
0
  6
BYBLOCK
 62
     1
100
AcDbBlockReference
  2
_OPEN30
 10
-28.0
 20
-427.027884
 30
0.0
 41
2.0
 42
2.0
 43
2.0
 50
270.0
  0
INSERT
  5
199
100
AcDbEntity
  8
0
  6
BYBLOCK
 62
     1
100
AcDbBlockReference
  2
_OPEN30
 10
-28.0
 20
-395.027884
 30
0.0
 41
2.0
 42
2.0
 43
2.0
 50
90.0
  0
MTEXT
  5
19A
100
AcDbEntity
  8
0
  6
BYBLOCK
 62
     3
100
AcDbMText
 10
-30.5
 20
-411.027884
 30
0.0
 40
3.0
 41
0.0
 71
     5
 72
     1
  1
\A1;32
 11
0.0
 21
1.0
 31
0.0
  0
POINT
  5
19B
100
AcDbEntity
  8
DEFPOINTS
  6
BYBLOCK
 62
     0
100
AcDbPoint
 10
-14.75
 20
-427.027884
 30
0.0
  0
POINT
  5
19C
100
AcDbEntity
  8
DEFPOINTS
  6
BYBLOCK
 62
     0
100
AcDbPoint
 10
-10.0
 20
-395.027884
 30
0.0
  0
POINT
  5
19D
100
AcDbEntity
  8
DEFPOINTS
  6
BYBLOCK
 62
     0
100
AcDbPoint
 10
-28.0
 20
-395.027884
 30
0.0
  0
ENDBLK
  5
19E
100
AcDbEntity
  8
0
100
AcDbBlockEnd
  0
BLOCK
  5
1A0
100
AcDbEntity
  8
0
100
AcDbBlockBegin
  2
*D22
 70
     1
 10
0.0
 20
0.0
 30
0.0
  3
*D22
  1

  0
LINE
  5
1A1
100
AcDbEntity
  8
0
  6
BYBLOCK
 62
     1
100
AcDbLine
 10
-15.75
 20
-493.934594
 30
0.0
 11
-29.050842
 21
-493.934594
 31
0.0
  0
LINE
  5
1A2
100
AcDbEntity
  8
0
  6
BYBLOCK
 62
     1
100
AcDbLine
 10
-19.0
 20
-518.934594
 30
0.0
 11
-29.050842
 21
-518.934594
 31
0.0
  0
LINE
  5
1A3
100
AcDbEntity
  8
0
  6
BYBLOCK
 62
     1
100
AcDbLine
 10
-27.550842
 20
-495.934594
 30
0.0
 11
-27.550842
 21
-516.934594
 31
0.0
  0
INSERT
  5
1A4
100
AcDbEntity
  8
0
  6
BYBLOCK
 62
     1
100
AcDbBlockReference
  2
_OPEN30
 10
-27.550842
 20
-493.934594
 30
0.0
 41
2.0
 42
2.0
 43
2.0
 50
90.0
  0
INSERT
  5
1A5
100
AcDbEntity
  8
0
  6
BYBLOCK
 62
     1
100
AcDbBlockReference
  2
_OPEN30
 10
-27.550842
 20
-518.934594
 30
0.0
 41
2.0
 42
2.0
 43
2.0
 50
270.0
  0
MTEXT
  5
1A6
100
AcDbEntity
  8
0
  6
BYBLOCK
 62
     3
100
AcDbMText
 10
-30.050842
 20
-506.434594
 30
0.0
 40
3.0
 41
0.0
 71
     5
 72
     1
  1
\A1;25
 11
0.0
 21
1.0
 31
0.0
  0
POINT
  5
1A7
100
AcDbEntity
  8
DEFPOINTS
  6
BYBLOCK
 62
     0
100
AcDbPoint
 10
-14.75
 20
-493.934594
 30
0.0
  0
POINT
  5
1A8
100
AcDbEntity
  8
DEFPOINTS
  6
BYBLOCK
 62
     0
100
AcDbPoint
 10
-18.0
 20
-518.934594
 30
0.0
  0
POINT
  5
1A9
100
AcDbEntity
  8
DEFPOINTS
  6
BYBLOCK
 62
     0
100
AcDbPoint
 10
-27.550842
 20
-518.934594
 30
0.0
  0
ENDBLK
  5
1AA
100
AcDbEntity
  8
0
100
AcDbBlockEnd
  0
BLOCK
  5
1AC
100
AcDbEntity
  8
0
100
AcDbBlockBegin
  2
*D23
 70
     1
 10
0.0
 20
0.0
 30
0.0
  3
*D23
  1

  0
LINE
  5
1AD
100
AcDbEntity
  8
0
  6
BYBLOCK
 62
     1
100
AcDbLine
 10
-18.0
 20
-493.143444
 30
0.0
 11
-18.0
 21
-484.442817
 31
0.0
  0
LINE
  5
1AE
100
AcDbEntity
  8
0
  6
BYBLOCK
 62
     1
100
AcDbLine
 10
8.0
 20
-492.934594
 30
0.0
 11
8.0
 21
-484.442817
 31
0.0
  0
LINE
  5
1AF
100
AcDbEntity
  8
0
  6
BYBLOCK
 62
     1
100
AcDbLine
 10
-16.0
 20
-485.942817
 30
0.0
 11
6.0
 21
-485.942817
 31
0.0
  0
INSERT
  5
1B0
100
AcDbEntity
  8
0
  6
BYBLOCK
 62
     1
100
AcDbBlockReference
  2
_OPEN30
 10
-18.0
 20
-485.942817
 30
0.0
 41
2.0
 42
2.0
 43
2.0
 50
180.0
  0
INSERT
  5
1B1
100
AcDbEntity
  8
0
  6
BYBLOCK
 62
     1
100
AcDbBlockReference
  2
_OPEN30
 10
8.0
 20
-485.942817
 30
0.0
 41
2.0
 42
2.0
 43
2.0
  0
MTEXT
  5
1B2
100
AcDbEntity
  8
0
  6
BYBLOCK
 62
     3
100
AcDbMText
 10
-5.0
 20
-483.442817
 30
0.0
 40
3.0
 41
0.0
 71
     5
 72
     1
  1
\A1;26
  0
POINT
  5
1B3
100
AcDbEntity
  8
DEFPOINTS
  6
BYBLOCK
 62
     0
100
AcDbPoint
 10
-18.0
 20
-494.143444
 30
0.0
  0
POINT
  5
1B4
100
AcDbEntity
  8
DEFPOINTS
  6
BYBLOCK
 62
     0
100
AcDbPoint
 10
8.0
 20
-493.934594
 30
0.0
  0
POINT
  5
1B5
100
AcDbEntity
  8
DEFPOINTS
  6
BYBLOCK
 62
     0
100
AcDbPoint
 10
8.0
 20
-485.942817
 30
0.0
  0
ENDBLK
  5
1B6
100
AcDbEntity
  8
0
100
AcDbBlockEnd
  0
BLOCK
  5
1B8
100
AcDbEntity
  8
0
100
AcDbBlockBegin
  2
*D24
 70
     1
 10
0.0
 20
0.0
 30
0.0
  3
*D24
  1

  0
LINE
  5
1B9
100
AcDbEntity
  8
0
  6
BYBLOCK
 62
     1
100
AcDbLine
 10
-14.75
 20
-428.027884
 30
0.0
 11
-14.75
 21
-439.913
 31
0.0
  0
LINE
  5
1BA
100
AcDbEntity
  8
0
  6
BYBLOCK
 62
     1
100
AcDbLine
 10
-14.491181
 20
-427.993809
 30
0.0
 11
-11.415086
 21
-439.473951
 31
0.0
  0
ARC
  5
1BB
100
AcDbEntity
  8
0
  6
BYBLOCK
 62
     1
100
AcDbCircle
 10
-14.75
 20
-427.027884
 30
0.0
 40
11.385117
100
AcDbArc
 50
249.764939
 51
270.0
  0
LINE
  5
1BC
100
AcDbEntity
  8
0
  6
BYBLOCK
 62
     1
100
AcDbLine
 10
-18.687798
 20
-437.710329
 30
0.0
 11
-29.571864
 21
-433.698208
 31
0.0
  0
ARC
  5
1BD
100
AcDbEntity
  8
0
  6
BYBLOCK
 62
     1
100
AcDbCircle
 10
-14.75
 20
-427.027884
 30
0.0
 40
11.385117
100
AcDbArc
 50
249.843963
 51
259.921982
  0
ARC
  5
1BE
100
AcDbEntity
  8
0
  6
BYBLOCK
 62
     1
100
AcDbCircle
 10
-14.75
 20
-427.027884
 30
0.0
 40
11.385117
100
AcDbArc
 50
295.078018
 51
305.156037
  0
ARC
  5
1BF
100
AcDbEntity
  8
0
  6
BYBLOCK
 62
     1
100
AcDbCircle
 10
-14.75
 20
-427.027884
 30
0.0
 40
11.385117
100
AcDbArc
 50
270.0
 51
285.0
  0
INSERT
  5
1C0
100
AcDbEntity
  8
0
  6
BYBLOCK
 62
     1
100
AcDbBlockReference
  2
_OPEN30
 10
-14.75
 20
-438.413
 30
0.0
 41
2.0
 42
2.0
 43
2.0
 50
354.960991
  0
INSERT
  5
1C1
100
AcDbEntity
  8
0
  6
BYBLOCK
 62
     1
100
AcDbBlockReference
  2
_OPEN30
 10
-11.803315
 20
-438.025062
 30
0.0
 41
2.0
 42
2.0
 43
2.0
 50
200.039009
  0
MTEXT
  5
1C2
100
AcDbEntity
  8
0
  6
BYBLOCK
 62
     3
100
AcDbMText
 10
-23.26515
 20
-433.358565
 30
0.0
 40
3.0
 41
0.0
 71
     5
 72
     1
  1
\A1;15°
 11
0.938282
 21
-0.345872
 31
0.0
  0
POINT
  5
1C3
100
AcDbEntity
  8
DEFPOINTS
  6
BYBLOCK
 62
     0
100
AcDbPoint
 10
-12.772995
 20
-438.240035
 30
0.0
  0
POINT
  5
1C4
100
AcDbEntity
  8
DEFPOINTS
  6
BYBLOCK
 62
     0
100
AcDbPoint
 10
-18.037002
 20
-414.760626
 30
0.0
  0
POINT
  5
1C5
100
AcDbEntity
  8
DEFPOINTS
  6
BYBLOCK
 62
     0
100
AcDbPoint
 10
-14.75
 20
-427.027884
 30
0.0
  0
POINT
  5
1C6
100
AcDbEntity
  8
DEFPOINTS
  6
BYBLOCK
 62
     0
100
AcDbPoint
 10
-14.75
 20
-419.747884
 30
0.0
  0
POINT
  5
1C7
100
AcDbEntity
  8
DEFPOINTS
  6
BYBLOCK
 62
     0
100
AcDbPoint
 10
-14.75
 20
-427.027884
 30
0.0
  0
ENDBLK
  5
1C8
100
AcDbEntity
  8
0
100
AcDbBlockEnd
  0
BLOCK
  5
1CA
100
AcDbEntity
  8
0
100
AcDbBlockBegin
  2
*D25
 70
     1
 10
0.0
 20
0.0
 30
0.0
  3
*D25
  1

  0
LINE
  5
1CB
100
AcDbEntity
  8
0
  6
BYBLOCK
 62
     1
100
AcDbLine
 10
-49.035043
 20
-437.438574
 30
0.0
 11
-46.450802
 21
-452.094532
 31
0.0
  0
LINE
  5
1CC
100
AcDbEntity
  8
0
  6
BYBLOCK
 62
     1
100
AcDbLine
 10
-48.949872
 20
-437.419692
 30
0.0
 11
-45.098114
 21
-451.794648
 31
0.0
  0
ARC
  5
1CD
100
AcDbEntity
  8
0
  6
BYBLOCK
 62
     1
100
AcDbCircle
 10
-49.208691
 20
-436.453767
 30
0.0
 40
14.382049
100
AcDbArc
 50
264.012828
 51
280.0
  0
LINE
  5
1CE
100
AcDbEntity
  8
0
  6
BYBLOCK
 62
     1
100
AcDbLine
 10
-50.708822
 20
-450.757366
 30
0.0
 11
-59.261911
 21
-449.860336
 31
0.0
  0
ARC
  5
1CF
100
AcDbEntity
  8
0
  6
BYBLOCK
 62
     1
100
AcDbCircle
 10
-49.208691
 20
-436.453767
 30
0.0
 40
14.382049
100
AcDbArc
 50
264.051773
 51
272.025886
  0
ARC
  5
1D0
100
AcDbEntity
  8
0
  6
BYBLOCK
 62
     1
100
AcDbCircle
 10
-49.208691
 20
-436.453767
 30
0.0
 40
14.382049
100
AcDbArc
 50
292.974114
 51
300.948227
  0
ARC
  5
1D1
100
AcDbEntity
  8
0
  6
BYBLOCK
 62
     1
100
AcDbCircle
 10
-49.208691
 20
-436.453767
 30
0.0
 40
14.382049
100
AcDbArc
 50
280.0
 51
285.0
  0
INSERT
  5
1D2
100
AcDbEntity
  8
0
  6
BYBLOCK
 62
     1
100
AcDbBlockReference
  2
_OPEN30
 10
-46.711274
 20
-450.61732
 30
0.0
 41
2.0
 42
2.0
 43
2.0
 50
6.012943
  0
INSERT
  5
1D3
100
AcDbEntity
  8
0
  6
BYBLOCK
 62
     1
100
AcDbBlockReference
  2
_OPEN30
 10
-45.486343
 20
-450.345759
 30
0.0
 41
2.0
 42
2.0
 43
2.0
 50
198.987057
  0
MTEXT
  5
1D4
100
AcDbEntity
  8
0
  6
BYBLOCK
 62
     3
100
AcDbMText
 10
-54.724602
 20
-447.822488
 30
0.0
 40
3.0
 41
0.0
 71
     5
 72
     1
  1
\A1;5°
 11
0.994545
 21
-0.104306
 31
0.0
  0
POINT
  5
1D5
100
AcDbEntity
  8
DEFPOINTS
  6
BYBLOCK
 62
     0
100
AcDbPoint
 10
-45.891962
 20
-450.448146
 30
0.0
  0
POINT
  5
1D6
100
AcDbEntity
  8
DEFPOINTS
  6
BYBLOCK
 62
     0
100
AcDbPoint
 10
-49.208691
 20
-436.453767
 30
0.0
  0
POINT
  5
1D7
100
AcDbEntity
  8
DEFPOINTS
  6
BYBLOCK
 62
     0
100
AcDbPoint
 10
-49.208691
 20
-436.453767
 30
0.0
  0
POINT
  5
1D8
100
AcDbEntity
  8
DEFPOINTS
  6
BYBLOCK
 62
     0
100
AcDbPoint
 10
-54.414743
 20
-406.928778
 30
0.0
  0
POINT
  5
1D9
100
AcDbEntity
  8
DEFPOINTS
  6
BYBLOCK
 62
     0
100
AcDbPoint
 10
-56.938677
 20
-407.605064
 30
0.0
  0
ENDBLK
  5
1DA
100
AcDbEntity
  8
0
100
AcDbBlockEnd
  0
BLOCK
  5
1DC
100
AcDbEntity
  8
0
100
AcDbBlockBegin
  2
*D26
 70
     1
 10
0.0
 20
0.0
 30
0.0
  3
*D26
  1

  0
LINE
  5
1DD
100
AcDbEntity
  8
0
  6
BYBLOCK
 62
     1
100
AcDbLine
 10
-7.287357
 20
-458.562754
 30
0.0
 11
-21.899472
 21
-462.478059
 31
0.0
  0
LINE
  5
1DE
100
AcDbEntity
  8
0
  6
BYBLOCK
 62
     1
100
AcDbLine
 10
-7.255011
 20
-458.662303
 30
0.0
 11
-21.377819
 21
-464.083541
 31
0.0
  0
ARC
  5
1DF
100
AcDbEntity
  8
0
  6
BYBLOCK
 62
     1
100
AcDbCircle
 10
-6.321431
 20
-458.303935
 30
0.0
 40
14.627575
100
AcDbArc
 50
179.282885
 51
195.0
  0
LINE
  5
1E0
100
AcDbEntity
  8
0
  6
BYBLOCK
 62
     1
100
AcDbLine
 10
-20.94786
 20
-458.120861
 30
0.0
 11
-20.840225
 21
-449.521535
 31
0.0
  0
ARC
  5
1E1
100
AcDbEntity
  8
0
  6
BYBLOCK
 62
     1
100
AcDbCircle
 10
-6.321431
 20
-458.303935
 30
0.0
 40
14.627575
100
AcDbArc
 50
179.319888
 51
187.159944
  0
ARC
  5
1E2
100
AcDbEntity
  8
0
  6
BYBLOCK
 62
     1
100
AcDbCircle
 10
-6.321431
 20
-458.303935
 30
0.0
 40
14.627575
100
AcDbArc
 50
208.840056
 51
216.680112
  0
ARC
  5
1E3
100
AcDbEntity
  8
0
  6
BYBLOCK
 62
     1
100
AcDbCircle
 10
-6.321431
 20
-458.303935
 30
0.0
 40
14.627575
100
AcDbArc
 50
195.0
 51
201.0
  0
INSERT
  5
1E4
100
AcDbEntity
  8
0
  6
BYBLOCK
 62
     1
100
AcDbBlockReference
  2
_OPEN30
 10
-20.450584
 20
-462.08983
 30
0.0
 41
2.0
 42
2.0
 43
2.0
 50
281.079972
  0
INSERT
  5
1E5
100
AcDbEntity
  8
0
  6
BYBLOCK
 62
     1
100
AcDbBlockReference
  2
_OPEN30
 10
-19.977449
 20
-463.54599
 30
0.0
 41
2.0
 42
2.0
 43
2.0
 50
114.920028
  0
MTEXT
  5
1E6
100
AcDbEntity
  8
0
  6
BYBLOCK
 62
     3
100
AcDbMText
 10
-18.394239
 20
-453.852487
 30
0.0
 40
3.0
 41
0.0
 71
     5
 72
     1
  1
\A1;6°
 11
-0.012516
 21
-0.999922
 31
0.0
  0
POINT
  5
1E7
100
AcDbEntity
  8
DEFPOINTS
  6
BYBLOCK
 62
     0
100
AcDbPoint
 10
-20.152075
 20
-463.066208
 30
0.0
  0
POINT
  5
1E8
100
AcDbEntity
  8
DEFPOINTS
  6
BYBLOCK
 62
     0
100
AcDbPoint
 10
-6.321431
 20
-458.303935
 30
0.0
  0
POINT
  5
1E9
100
AcDbEntity
  8
DEFPOINTS
  6
BYBLOCK
 62
     0
100
AcDbPoint
 10
-6.321431
 20
-458.303935
 30
0.0
  0
POINT
  5
1EA
100
AcDbEntity
  8
DEFPOINTS
  6
BYBLOCK
 62
     0
100
AcDbPoint
 10
16.109659
 20
-452.293543
 30
0.0
  0
POINT
  5
1EB
100
AcDbEntity
  8
DEFPOINTS
  6
BYBLOCK
 62
     0
100
AcDbPoint
 10
15.477941
 20
-449.93594
 30
0.0
  0
ENDBLK
  5
1EC
100
AcDbEntity
  8
0
100
AcDbBlockEnd
  0
BLOCK
  5
1EE
100
AcDbEntity
  8
0
100
AcDbBlockBegin
  2
*D27
 70
     1
 10
0.0
 20
0.0
 30
0.0
  3
*D27
  1

  0
LINE
  5
1EF
100
AcDbEntity
  8
0
  6
BYBLOCK
 62
     1
100
AcDbLine
 10
136.25
 20
-395.027884
 30
0.0
 11
147.345295
 21
-395.027884
 31
0.0
  0
LINE
  5
1F0
100
AcDbEntity
  8
0
  6
BYBLOCK
 62
     1
100
AcDbLine
 10
136.25
 20
-420.027884
 30
0.0
 11
147.345295
 21
-420.027884
 31
0.0
  0
LINE
  5
1F1
100
AcDbEntity
  8
0
  6
BYBLOCK
 62
     1
100
AcDbLine
 10
145.845295
 20
-397.027884
 30
0.0
 11
145.845295
 21
-418.027884
 31
0.0
  0
INSERT
  5
1F2
100
AcDbEntity
  8
0
  6
BYBLOCK
 62
     1
100
AcDbBlockReference
  2
_OPEN30
 10
145.845295
 20
-395.027884
 30
0.0
 41
2.0
 42
2.0
 43
2.0
 50
90.0
  0
INSERT
  5
1F3
100
AcDbEntity
  8
0
  6
BYBLOCK
 62
     1
100
AcDbBlockReference
  2
_OPEN30
 10
145.845295
 20
-420.027884
 30
0.0
 41
2.0
 42
2.0
 43
2.0
 50
270.0
  0
MTEXT
  5
1F4
100
AcDbEntity
  8
0
  6
BYBLOCK
 62
     3
100
AcDbMText
 10
143.345295
 20
-407.527884
 30
0.0
 40
3.0
 41
0.0
 71
     5
 72
     1
  1
\A1;25
 11
0.0
 21
1.0
 31
0.0
  0
POINT
  5
1F5
100
AcDbEntity
  8
DEFPOINTS
  6
BYBLOCK
 62
     0
100
AcDbPoint
 10
135.25
 20
-395.027884
 30
0.0
  0
POINT
  5
1F6
100
AcDbEntity
  8
DEFPOINTS
  6
BYBLOCK
 62
     0
100
AcDbPoint
 10
135.25
 20
-420.027884
 30
0.0
  0
POINT
  5
1F7
100
AcDbEntity
  8
DEFPOINTS
  6
BYBLOCK
 62
     0
100
AcDbPoint
 10
145.845295
 20
-420.027884
 30
0.0
  0
ENDBLK
  5
1F8
100
AcDbEntity
  8
0
100
AcDbBlockEnd
  0
BLOCK
  5
1FA
100
AcDbEntity
  8
0
100
AcDbBlockBegin
  2
*D28
 70
     1
 10
0.0
 20
0.0
 30
0.0
  3
*D28
  1

  0
LINE
  5
1FB
100
AcDbEntity
  8
0
  6
BYBLOCK
 62
     1
100
AcDbLine
 10
136.25
 20
-493.934594
 30
0.0
 11
144.75
 21
-493.934594
 31
0.0
  0
LINE
  5
1FC
100
AcDbEntity
  8
0
  6
BYBLOCK
 62
     1
100
AcDbLine
 10
136.25
 20
-518.934594
 30
0.0
 11
144.75
 21
-518.934594
 31
0.0
  0
LINE
  5
1FD
100
AcDbEntity
  8
0
  6
BYBLOCK
 62
     1
100
AcDbLine
 10
143.25
 20
-495.934594
 30
0.0
 11
143.25
 21
-516.934594
 31
0.0
  0
INSERT
  5
1FE
100
AcDbEntity
  8
0
  6
BYBLOCK
 62
     1
100
AcDbBlockReference
  2
_OPEN30
 10
143.25
 20
-493.934594
 30
0.0
 41
2.0
 42
2.0
 43
2.0
 50
90.0
  0
INSERT
  5
1FF
100
AcDbEntity
  8
0
  6
BYBLOCK
 62
     1
100
AcDbBlockReference
  2
_OPEN30
 10
143.25
 20
-518.934594
 30
0.0
 41
2.0
 42
2.0
 43
2.0
 50
270.0
  0
MTEXT
  5
200
100
AcDbEntity
  8
0
  6
BYBLOCK
 62
     3
100
AcDbMText
 10
140.75
 20
-506.434594
 30
0.0
 40
3.0
 41
0.0
 71
     5
 72
     1
  1
\A1;25
 11
0.0
 21
1.0
 31
0.0
  0
POINT
  5
201
100
AcDbEntity
  8
DEFPOINTS
  6
BYBLOCK
 62
     0
100
AcDbPoint
 10
135.25
 20
-493.934594
 30
0.0
  0
POINT
  5
202
100
AcDbEntity
  8
DEFPOINTS
  6
BYBLOCK
 62
     0
100
AcDbPoint
 10
135.25
 20
-518.934594
 30
0.0
  0
POINT
  5
203
100
AcDbEntity
  8
DEFPOINTS
  6
BYBLOCK
 62
     0
100
AcDbPoint
 10
143.25
 20
-518.934594
 30
0.0
  0
ENDBLK
  5
204
100
AcDbEntity
  8
0
100
AcDbBlockEnd
  0
ENDSEC
  0
SECTION
  2
ENTITIES
  0
LINE
  5
40
100
AcDbEntity
  8
外形
  6
CONTINUOUS
100
AcDbLine
 10
135.25
 20
-493.934594
 30
0.0
 11
8.0
 21
-493.934594
 31
0.0
  0
LINE
  5
42
100
AcDbEntity
  8
外形
  6
CONTINUOUS
100
AcDbLine
 10
135.25
 20
-518.934594
 30
0.0
 11
-16.892595
 21
-518.934594
 31
0.0
  0
DIMENSION
  5
43
100
AcDbEntity
  8
寸法
  6
CONTINUOUS
 62
     2
100
AcDbDimension
  2
*D20
 10
-14.75
 20
-440.253156
 30
0.0
 11
60.25
 21
-437.753156
 31
0.0
 70
    32
  3
STANDARD
100
AcDbAlignedDimension
 13
135.25
 23
-420.027884
 33
0.0
 14
-14.75
 24
-427.027884
 34
0.0
100
AcDbRotatedDimension
1001
ACAD
1000
DSTYLE
1002
{
1070
    40
1040
1.0
1002
}
  0
LINE
  5
51
100
AcDbEntity
  8
外形
  6
CONTINUOUS
100
AcDbLine
 10
135.25
 20
-420.027884
 30
0.0
 11
8.268476
 21
-420.027884
 31
0.0
  0
LINE
  5
52
100
AcDbEntity
  8
外形
  6
CONTINUOUS
100
AcDbLine
 10
135.25
 20
-395.027884
 30
0.0
 11
-10.0
 21
-395.027884
 31
0.0
  0
LINE
  5
53
100
AcDbEntity
  8
外形
  6
CONTINUOUS
100
AcDbLine
 10
8.0
 20
-420.027884
 30
0.0
 11
8.0
 21
-395.027884
 31
0.0
  0
LINE
  5
54
100
AcDbEntity
  8
外形
  6
CONTINUOUS
100
AcDbLine
 10
7.549675
 20
-395.027884
 30
0.0
 11
8.0
 21
-420.099821
 31
0.0
  0
LINE
  5
55
100
AcDbEntity
  8
外形
  6
CONTINUOUS
100
AcDbLine
 10
-18.0
 20
-403.027884
 30
0.0
 11
-18.0
 21
-410.513796
 31
0.0
  0
CIRCLE
  5
56
100
AcDbEntity
  8
外形
  6
CONTINUOUS
100
AcDbCircle
 10
-7.780621
 20
-405.643241
 30
0.0
 40
3.3235
  0
CIRCLE
  5
57
100
AcDbEntity
  8
外形
  6
CONTINUOUS
100
AcDbCircle
 10
-7.780621
 20
-405.643241
 30
0.0
 40
4.0
  0
LWPOLYLINE
  5
58
100
AcDbEntity
  8
外形
  6
CONTINUOUS
100
AcDbPolyline
 90
        6
 70
     1
 43
0.0
 10
-9.280621
 20
-406.509266
 10
-7.780621
 20
-407.375292
 10
-6.280621
 20
-406.509266
 10
-6.280621
 20
-404.777216
 10
-7.780621
 20
-403.91119
 10
-9.280621
 20
-404.777216
  0
DIMENSION
  5
77
100
AcDbEntity
  8
寸法
  6
CONTINUOUS
100
AcDbDimension
  2
*D21
 10
-28.0
 20
-395.027884
 30
0.0
 11
-30.5
 21
-411.027884
 31
0.0
 70
    32
  3
STANDARD
100
AcDbAlignedDimension
 13
-14.75
 23
-427.027884
 33
0.0
 14
-10.0
 24
-395.027884
 34
0.0
 50
90.0
100
AcDbRotatedDimension
1001
ACAD
1000
DSTYLE
1002
{
1070
    40
1040
1.0
1002
}
  0
LINE
  5
84
100
AcDbEntity
  8
外形
  6
CONTINUOUS
100
AcDbLine
 10
-52.16827
 20
-419.669156
 30
0.0
 11
-77.62302
 21
-426.489736
 31
0.0
  0
LINE
  5
85
100
AcDbEntity
  8
外形
  6
CONTINUOUS
100
AcDbLine
 10
-54.430473
 20
-406.932993
 30
0.0
 11
-80.958599
 21
-414.041183
 31
0.0
  0
LINE
  5
86
100
AcDbEntity
  8
外形
  6
CONTINUOUS
100
AcDbLine
 10
-53.428688
 20
-412.520972
 30
0.0
 11
-79.494498
 21
-419.505284
 31
0.0
  0
LINE
  5
87
100
AcDbEntity
  8
外形
  6
CONTINUOUS
100
AcDbLine
 10
-73.53302
 20
-441.753823
 30
0.0
 11
-80.958599
 21
-414.041183
 31
0.0
  0
TEXT
  5
88
100
AcDbEntity
  8
外形
  6
CONTINUOUS
 62
     2
100
AcDbText
 10
-17.449869
 20
-545.531896
 30
0.0
 40
6.0
  1
ＰＳＫＮ　Ｒ２５２５－４３
100
AcDbText
  0
LINE
  5
89
100
AcDbEntity
  8
外形
  6
CONTINUOUS
100
AcDbLine
 10
15.477941
 20
-449.93594
 30
0.0
 11
22.580135
 21
-476.441689
 31
0.0
  0
LINE
  5
8A
100
AcDbEntity
  8
外形
  6
CONTINUOUS
100
AcDbLine
 10
-3.233413
 20
-465.623448
 30
0.0
 11
1.200327
 21
-482.170391
 31
0.0
  0
DIMENSION
  5
8B
100
AcDbEntity
  8
寸法
  6
CONTINUOUS
100
AcDbDimension
  2
*D22
 10
-27.550842
 20
-518.934594
 30
0.0
 11
-30.050842
 21
-506.434594
 31
0.0
 70
    32
  3
STANDARD
100
AcDbAlignedDimension
 13
-14.75
 23
-493.934594
 33
0.0
 14
-18.0
 24
-518.934594
 34
0.0
 50
90.0
100
AcDbRotatedDimension
1001
ACAD
1000
DSTYLE
1002
{
1070
    40
1040
1.0
1002
}
  0
LINE
  5
A6
100
AcDbEntity
  8
外形
  6
CONTINUOUS
100
AcDbLine
 10
-13.861824
 20
-501.830173
 30
0.0
 11
-13.861824
 21
-518.934594
 31
0.0
  0
LINE
  5
A7
100
AcDbEntity
  8
外形
  6
CONTINUOUS
100
AcDbLine
 10
-16.892595
 20
-502.05859
 30
0.0
 11
-16.892595
 21
-518.934594
 31
0.0
  0
LINE
  5
A8
100
AcDbEntity
  8
外形
  6
CONTINUOUS
100
AcDbLine
 10
7.549675
 20
-492.253959
 30
0.0
 11
7.549675
 21
-518.934594
 31
0.0
  0
LINE
  5
A9
100
AcDbEntity
  8
外形
  6
CONTINUOUS
100
AcDbLine
 10
0.804374
 20
-492.762324
 30
0.0
 11
0.804374
 21
-518.934594
 31
0.0
  0
LINE
  5
AA
100
AcDbEntity
  8
外形
  6
CONTINUOUS
100
AcDbLine
 10
8.0
 20
-493.934594
 30
0.0
 11
8.0
 21
-518.934594
 31
0.0
  0
LINE
  5
AB
100
AcDbEntity
  8
外形
  6
CONTINUOUS
100
AcDbLine
 10
-2.434566
 20
-493.00643
 30
0.0
 11
-2.076839
 21
-497.752969
 31
0.0
  0
LINE
  5
AC
100
AcDbEntity
  8
外形
  6
CONTINUOUS
100
AcDbLine
 10
-17.999487
 20
-494.179494
 30
0.0
 11
7.549675
 21
-492.253959
 31
0.0
  0
LINE
  5
AD
100
AcDbEntity
  8
外形
  6
CONTINUOUS
100
AcDbLine
 10
-17.377845
 20
-502.095161
 30
0.0
 11
-1.862782
 21
-500.925855
 31
0.0
  0
LINE
  5
AE
100
AcDbEntity
  8
外形
  6
CONTINUOUS
100
AcDbLine
 10
-17.64176
 20
-498.926033
 30
0.0
 11
-2.076839
 21
-497.752969
 31
0.0
  0
DIMENSION
  5
AF
100
AcDbEntity
  8
寸法
  6
CONTINUOUS
100
AcDbDimension
  2
*D23
 10
8.0
 20
-485.942817
 30
0.0
 11
-5.0
 21
-483.442817
 31
0.0
 70
    32
  3
STANDARD
100
AcDbAlignedDimension
 13
-18.0
 23
-494.143444
 33
0.0
 14
8.0
 24
-493.934594
 34
0.0
100
AcDbRotatedDimension
1001
ACAD
1000
DSTYLE
1002
{
1070
    40
1040
1.0
1002
}
  0
LINE
  5
CA
100
AcDbEntity
  8
外形
  6
CONTINUOUS
100
AcDbLine
 10
-14.75
 20
-493.934594
 30
0.0
 11
-14.153287
 21
-501.85214
 31
0.0
  0
LINE
  5
CB
100
AcDbEntity
  8
外形
  6
CONTINUOUS
100
AcDbLine
 10
-17.61683
 20
-498.924154
 30
0.0
 11
-17.377845
 21
-502.095161
 31
0.0
  0
LINE
  5
CC
100
AcDbEntity
  8
外形
  6
CONTINUOUS
100
AcDbLine
 10
-17.999487
 20
-494.179494
 30
0.0
 11
-17.64176
 21
-498.926033
 31
0.0
  0
LINE
  5
CD
100
AcDbEntity
  8
外形
  6
CONTINUOUS
100
AcDbLine
 10
8.0
 20
-493.934594
 30
0.0
 11
7.549675
 21
-492.253959
 31
0.0
  0
LINE
  5
CE
100
AcDbEntity
  8
外形
  6
CONTINUOUS
100
AcDbLine
 10
-2.101768
 20
-497.754848
 30
0.0
 11
-1.862782
 21
-500.925855
 31
0.0
  0
LINE
  5
CF
100
AcDbEntity
  8
外形
  6
CONTINUOUS
100
AcDbLine
 10
1.200327
 20
-482.170391
 30
0.0
 11
22.580135
 21
-476.441689
 31
0.0
  0
LINE
  5
D0
100
AcDbEntity
  8
寸法
  6
CONTINUOUS
100
AcDbLine
 10
-14.701824
 20
-427.207679
 30
0.0
 11
-49.208691
 21
-436.453767
 31
0.0
  0
DIMENSION
  5
D1
100
AcDbEntity
  8
寸法
  6
CONTINUOUS
 62
     2
100
AcDbDimension
  2
*D24
 10
-14.75
 20
-427.027884
 30
0.0
 11
-23.26515
 21
-433.358565
 31
0.0
 70
    34
  3
STANDARD
100
AcDb2LineAngularDimension
 13
-14.75
 23
-427.027884
 33
0.0
 14
-14.75
 24
-419.747884
 34
0.0
 15
-18.037002
 25
-414.760626
 35
0.0
 16
-12.772995
 26
-438.240035
 36
0.0
1001
ACAD
1000
DSTYLE
1002
{
1070
    40
1040
1.0
1002
}
  0
DIMENSION
  5
E2
100
AcDbEntity
  8
寸法
  6
CONTINUOUS
100
AcDbDimension
  2
*D25
 10
-56.938677
 20
-407.605064
 30
0.0
 11
-54.724602
 21
-447.822488
 31
0.0
 70
    34
  3
STANDARD
100
AcDb2LineAngularDimension
 13
-49.208691
 23
-436.453767
 33
0.0
 14
-54.414743
 24
-406.928778
 34
0.0
 15
-49.208691
 25
-436.453767
 35
0.0
 16
-45.891962
 26
-450.448146
 36
0.0
1001
ACAD
1000
DSTYLE
1002
{
1070
    40
1040
1.0
1002
}
  0
LINE
  5
F3
100
AcDbEntity
  8
外形
  6
CONTINUOUS
100
AcDbLine
 10
-57.118131
 20
-437.321738
 30
0.0
 11
-73.541452
 21
-441.722354
 31
0.0
  0
LINE
  5
F4
100
AcDbEntity
  8
外形
  6
CONTINUOUS
100
AcDbLine
 10
-51.454893
 20
-423.714922
 30
0.0
 11
-56.142578
 21
-424.541488
 31
0.0
  0
LINE
  5
F5
100
AcDbEntity
  8
外形
  6
CONTINUOUS
100
AcDbLine
 10
-49.208691
 20
-436.453767
 30
0.0
 11
-53.896376
 21
-437.280332
 31
0.0
  0
LINE
  5
F6
100
AcDbEntity
  8
外形
  6
CONTINUOUS
100
AcDbLine
 10
-49.208691
 20
-436.453767
 30
0.0
 11
-54.414743
 21
-406.928778
 31
0.0
  0
LINE
  5
F7
100
AcDbEntity
  8
外形
  6
CONTINUOUS
100
AcDbLine
 10
-56.138236
 20
-424.566108
 30
0.0
 11
-59.269925
 21
-425.118309
 31
0.0
  0
LINE
  5
F8
100
AcDbEntity
  8
外形
  6
CONTINUOUS
100
AcDbLine
 10
-53.900717
 20
-437.255712
 30
0.0
 11
-57.032406
 21
-437.807913
 31
0.0
  0
LINE
  5
F9
100
AcDbEntity
  8
外形
  6
CONTINUOUS
100
AcDbLine
 10
-53.896376
 20
-437.280332
 30
0.0
 11
-56.142578
 21
-424.541488
 31
0.0
  0
LINE
  5
FA
100
AcDbEntity
  8
外形
  6
CONTINUOUS
100
AcDbLine
 10
-57.032406
 20
-437.807913
 30
0.0
 11
-59.269925
 21
-425.118309
 31
0.0
  0
LINE
  5
FB
100
AcDbEntity
  8
寸法
  6
CONTINUOUS
100
AcDbLine
 10
-14.75
 20
-427.027884
 30
0.0
 11
-6.365114
 21
-458.320704
 31
0.0
  0
LINE
  5
FC
100
AcDbEntity
  8
外形
  6
CONTINUOUS
100
AcDbLine
 10
-4.659283
 20
-462.764547
 30
0.0
 11
7.262498
 21
-458.188204
 31
0.0
  0
LINE
  5
FD
100
AcDbEntity
  8
外形
  6
CONTINUOUS
100
AcDbLine
 10
-3.496333
 20
-465.724373
 30
0.0
 11
8.378768
 21
-461.165949
 31
0.0
  0
DIMENSION
  5
FE
100
AcDbEntity
  8
寸法
  6
CONTINUOUS
100
AcDbDimension
  2
*D26
 10
15.477941
 20
-449.93594
 30
0.0
 11
-18.394239
 21
-453.852487
 31
0.0
 70
    34
  3
STANDARD
100
AcDb2LineAngularDimension
 13
-6.321431
 23
-458.303935
 33
0.0
 14
16.109659
 24
-452.293543
 34
0.0
 15
-6.321431
 25
-458.303935
 35
0.0
 16
-20.152075
 26
-463.066208
 36
0.0
1001
ACAD
1000
DSTYLE
1002
{
1070
    40
1040
1.0
1002
}
  0
LINE
  5
10F
100
AcDbEntity
  8
外形
  6
CONTINUOUS
100
AcDbLine
 10
-6.365114
 20
-458.320704
 30
0.0
 11
15.477941
 21
-449.93594
 31
0.0
  0
LINE
  5
110
100
AcDbEntity
  8
外形
  6
CONTINUOUS
100
AcDbLine
 10
-6.365114
 20
-458.320704
 30
0.0
 11
-4.659283
 21
-462.764547
 31
0.0
  0
LINE
  5
111
100
AcDbEntity
  8
外形
  6
CONTINUOUS
100
AcDbLine
 10
-4.635943
 20
-462.755587
 30
0.0
 11
-3.496333
 21
-465.724373
 31
0.0
  0
LINE
  5
112
100
AcDbEntity
  8
外形
  6
CONTINUOUS
100
AcDbLine
 10
7.239158
 20
-458.197163
 30
0.0
 11
8.378768
 21
-461.165949
 31
0.0
  0
LINE
  5
113
100
AcDbEntity
  8
外形
  6
CONTINUOUS
100
AcDbLine
 10
5.556666
 20
-453.744361
 30
0.0
 11
7.262498
 21
-458.188204
 31
0.0
  0
LINE
  5
12E
100
AcDbEntity
  8
外形
100
AcDbLine
 10
8.268476
 20
-420.027884
 30
0.0
 11
-2.690797
 21
-422.964412
 31
0.0
  0
ARC
  5
131
100
AcDbEntity
  8
外形
  6
CONTINUOUS
100
AcDbCircle
 10
-3.414362
 20
-423.354992
 30
0.0
 40
0.8
100
AcDbArc
 50
285.0
 51
15.0
  0
LINE
  5
132
100
AcDbEntity
  8
外形
  6
CONTINUOUS
100
AcDbLine
 10
-17.78177
 20
-415.713162
 30
0.0
 11
-14.908879
 21
-426.434939
 31
0.0
  0
ARC
  5
143
100
AcDbEntity
  8
外形
  6
CONTINUOUS
100
AcDbCircle
 10
-14.136138
 20
-426.227884
 30
0.0
 40
0.8
100
AcDbArc
 50
195.0
 51
285.0
  0
LINE
  5
146
100
AcDbEntity
  8
外形
  6
CONTINUOUS
100
AcDbLine
 10
-13.929083
 20
-427.000624
 30
0.0
 11
-3.207307
 21
-424.127733
 31
0.0
  0
LINE
  5
147
100
AcDbEntity
  8
外形
  6
CONTINUOUS
100
AcDbLine
 10
-5.721568
 20
-411.65342
 30
0.0
 11
-17.216085
 21
-414.733366
 31
0.0
  0
ARC
  5
148
100
AcDbEntity
  8
外形
  6
CONTINUOUS
100
AcDbCircle
 10
-17.00903
 20
-415.506107
 30
0.0
 40
0.8
100
AcDbArc
 50
105.0
 51
195.0
  0
LINE
  5
149
100
AcDbEntity
  8
外形
  6
CONTINUOUS
100
AcDbLine
 10
-16.892595
 20
-414.646687
 30
0.0
 11
-18.0
 21
-410.513796
 31
0.0
  0
LINE
  5
14A
100
AcDbEntity
  8
外形
  6
CONTINUOUS
100
AcDbLine
 10
-2.641621
 20
-423.147937
 30
0.0
 11
-5.721568
 21
-411.65342
 31
0.0
  0
CIRCLE
  5
14B
100
AcDbEntity
  8
外形
  6
CONTINUOUS
100
AcDbCircle
 10
-10.211696
 20
-419.430549
 30
0.0
 40
3.45
  0
ARC
  5
14C
100
AcDbEntity
  8
外形
  6
CONTINUOUS
100
AcDbCircle
 10
-5.07452
 20
-414.068234
 30
0.0
 40
2.5
100
AcDbArc
 50
285.0
 51
105.0
  0
LINE
  5
14D
100
AcDbEntity
  8
外形
  6
CONTINUOUS
100
AcDbLine
 10
-18.0
 20
-403.027884
 30
0.0
 11
-10.0
 21
-395.027884
 31
0.0
  0
DIMENSION
  5
15B
100
AcDbEntity
  8
寸法
  6
CONTINUOUS
100
AcDbDimension
  2
*D27
 10
145.845295
 20
-420.027884
 30
0.0
 11
143.345295
 21
-407.527884
 31
0.0
 70
    32
  3
STANDARD
100
AcDbAlignedDimension
 13
135.25
 23
-395.027884
 33
0.0
 14
135.25
 24
-420.027884
 34
0.0
 50
90.0
100
AcDbRotatedDimension
1001
ACAD
1000
DSTYLE
1002
{
1070
    40
1040
1.0
1002
}
  0
LINE
  5
168
100
AcDbEntity
  8
外形
  6
CONTINUOUS
100
AcDbLine
 10
135.25
 20
-395.027884
 30
0.0
 11
135.25
 21
-420.027884
 31
0.0
  0
LINE
  5
169
100
AcDbEntity
  8
外形
  6
CONTINUOUS
100
AcDbLine
 10
135.25
 20
-493.934594
 30
0.0
 11
135.25
 21
-518.934594
 31
0.0
  0
DIMENSION
  5
16A
100
AcDbEntity
  8
寸法
  6
CONTINUOUS
100
AcDbDimension
  2
*D28
 10
143.25
 20
-518.934594
 30
0.0
 11
140.75
 21
-506.434594
 31
0.0
 70
    32
  3
STANDARD
100
AcDbAlignedDimension
 13
135.25
 23
-493.934594
 33
0.0
 14
135.25
 24
-518.934594
 34
0.0
 50
90.0
100
AcDbRotatedDimension
1001
ACAD
1000
DSTYLE
1002
{
1070
    40
1040
1.0
1002
}
  0
ENDSEC
  0
SECTION
  2
OBJECTS
  0
DICTIONARY
  5
1E
102
{ACAD_XDICTIONARY
360
1F
102
}
100
AcDbDictionary
  3
ACAD_GROUP
350
1C
  3
ACAD_MLINESTYLE
350
1D
  0
DICTIONARY
  5
38
100
AcDbDictionary
280
     1
  3
ACAD_XREC_ROUNDTRIP
360
39
  0
DICTIONARY
  5
24
100
AcDbDictionary
280
     1
  3
ACAD_XREC_ROUNDTRIP
360
25
  0
DICTIONARY
  5
3
100
AcDbDictionary
280
     1
  3
ACAD_LAYOUTSELFREF
360
4
  0
DICTIONARY
  5
A
100
AcDbDictionary
280
     1
  3
ACAD_LAYOUTSELFREF
360
B
  0
DICTIONARY
  5
1F
100
AcDbDictionary
280
     1
  3
ACAD_XREC_ROUNDTRIP
360
20
  0
DICTIONARY
  5
1C
102
{ACAD_REACTORS
330
1E
102
}
100
AcDbDictionary
  0
DICTIONARY
  5
1D
102
{ACAD_REACTORS
330
1E
102
}
100
AcDbDictionary
  3
STANDARD
350
22
  0
XRECORD
  5
39
102
{ACAD_REACTORS
330
38
102
}
100
AcDbXrecord
102
PLOTBIT
280
     0
  0
XRECORD
  5
25
102
{ACAD_REACTORS
330
24
102
}
100
AcDbXrecord
102
ACADR14ROUNDTRIP
1000
DSTYLE
1002
{
1070
   341
340
0
1070
   343
340
0
1070
   344
340
0
1002
}
  0
XRECORD
  5
4
102
{ACAD_REACTORS
330
3
102
}
100
AcDbXrecord
340
2
  0
XRECORD
  5
B
102
{ACAD_REACTORS
330
A
102
}
100
AcDbXrecord
340
9
  0
XRECORD
  5
20
102
{ACAD_REACTORS
330
1F
102
}
100
AcDbXrecord
102
EXTNAMES
  1
ACDBVARIABLEDICTIONARY
  2
AcDbVariableDictionary
  1
ACMDICTIONARY
  2
AcmDictionary
  1
ACMESYSVARMANAGER
  2
AcmeSysVarManager
  0
MLINESTYLE
  5
22
102
{ACAD_REACTORS
330
1D
102
}
100
AcDbMlineStyle
  2
STANDARD
 70
     0
  3

 62
     0
 51
90.0
 52
90.0
 71
     2
 49
0.5
 62
   256
  6
BYLAYER
 49
-0.5
 62
   256
  6
BYLAYER
  0
ENDSEC
  0
EOF
