  0
SECTION
  2
HEADER
  9
$ACADVER
  1
AC1014
  9
$ACADMAINTVER
 70
     0
  9
$DWGCODEPAGE
  3
ANSI_932
  9
$INSBASE
 10
777.354441
 20
77.172345
 30
0.0
  9
$EXTMIN
 10
792.698448
 20
84.868104
 30
0.0
  9
$EXTMAX
 10
1146.621903
 20
311.243677
 30
0.0
  9
$LIMMIN
 10
0.0
 20
0.0
  9
$LIMMAX
 10
1273.731701
 20
854.777937
  9
$ORTHOMODE
 70
     1
  9
$REGENMODE
 70
     1
  9
$FILLMODE
 70
     1
  9
$QTEXTMODE
 70
     0
  9
$MIRRTEXT
 70
     1
  9
$DRAGMODE
 70
     2
  9
$LTSCALE
 40
5.0
  9
$OSMODE
 70
    45
  9
$ATTMODE
 70
     1
  9
$TEXTSIZE
 40
20.0
  9
$TRACEWID
 40
0.05
  9
$TEXTSTYLE
  7
STANDARD
  9
$CLAYER
  8
外形
  9
$CELTYPE
  6
CONTINUOUS
  9
$CECOLOR
 62
   256
  9
$CELTSCALE
 40
1.0
  9
$DELOBJ
 70
     1
  9
$DISPSILH
 70
     0
  9
$DIMSCALE
 40
1.0
  9
$DIMASZ
 40
2.0
  9
$DIMEXO
 40
1.0
  9
$DIMDLI
 40
8.0
  9
$DIMRND
 40
0.0
  9
$DIMDLE
 40
0.0
  9
$DIMEXE
 40
1.5
  9
$DIMTP
 40
0.0
  9
$DIMTM
 40
0.0
  9
$DIMTXT
 40
3.0
  9
$DIMCEN
 40
-1.0
  9
$DIMTSZ
 40
0.0
  9
$DIMTOL
 70
     0
  9
$DIMLIM
 70
     0
  9
$DIMTIH
 70
     0
  9
$DIMTOH
 70
     0
  9
$DIMSE1
 70
     0
  9
$DIMSE2
 70
     0
  9
$DIMTAD
 70
     1
  9
$DIMZIN
 70
     8
  9
$DIMBLK
  1

  9
$DIMASO
 70
     1
  9
$DIMSHO
 70
     1
  9
$DIMPOST
  1

  9
$DIMAPOST
  1

  9
$DIMALT
 70
     0
  9
$DIMALTD
 70
     2
  9
$DIMALTF
 40
25.4
  9
$DIMLFAC
 40
1.0
  9
$DIMTOFL
 70
     1
  9
$DIMTVP
 40
0.0
  9
$DIMTIX
 70
     0
  9
$DIMSOXD
 70
     0
  9
$DIMSAH
 70
     1
  9
$DIMBLK1
  1
_OPEN30
  9
$DIMBLK2
  1
_OPEN30
  9
$DIMSTYLE
  2
STANDARD
  9
$DIMCLRD
 70
     1
  9
$DIMCLRE
 70
     1
  9
$DIMCLRT
 70
     3
  9
$DIMTFAC
 40
1.0
  9
$DIMGAP
 40
1.0
  9
$DIMJUST
 70
     0
  9
$DIMSD1
 70
     0
  9
$DIMSD2
 70
     0
  9
$DIMTOLJ
 70
     1
  9
$DIMTZIN
 70
     8
  9
$DIMALTZ
 70
     0
  9
$DIMALTTZ
 70
     0
  9
$DIMFIT
 70
     3
  9
$DIMUPT
 70
     0
  9
$DIMUNIT
 70
     2
  9
$DIMDEC
 70
     3
  9
$DIMTDEC
 70
     0
  9
$DIMALTU
 70
     2
  9
$DIMALTTD
 70
     2
  9
$DIMTXSTY
  7
STANDARD
  9
$DIMAUNIT
 70
     0
  9
$LUNITS
 70
     2
  9
$LUPREC
 70
     3
  9
$SKETCHINC
 40
0.1
  9
$FILLETRAD
 40
2.4
  9
$AUNITS
 70
     0
  9
$AUPREC
 70
     3
  9
$MENU
  1
acad
  9
$ELEVATION
 40
0.0
  9
$PELEVATION
 40
0.0
  9
$THICKNESS
 40
0.0
  9
$LIMCHECK
 70
     0
  9
$BLIPMODE
 70
     0
  9
$CHAMFERA
 40
0.0
  9
$CHAMFERB
 40
0.0
  9
$CHAMFERC
 40
0.0
  9
$CHAMFERD
 40
0.0
  9
$SKPOLY
 70
     0
  9
$TDCREATE
 40
2450751.535399305
  9
$TDUPDATE
 40
2451929.871226851
  9
$TDINDWG
 40
2.0631089236
  9
$TDUSRTIMER
 40
2.0631089236
  9
$USRTIMER
 70
     1
  9
$ANGBASE
 50
0.0
  9
$ANGDIR
 70
     0
  9
$PDMODE
 70
     0
  9
$PDSIZE
 40
0.0
  9
$PLINEWID
 40
0.0
  9
$COORDS
 70
     0
  9
$SPLFRAME
 70
     0
  9
$SPLINETYPE
 70
     5
  9
$SPLINESEGS
 70
     8
  9
$ATTDIA
 70
     1
  9
$ATTREQ
 70
     1
  9
$HANDLING
 70
     1
  9
$HANDSEED
  5
271
  9
$SURFTAB1
 70
     6
  9
$SURFTAB2
 70
     6
  9
$SURFTYPE
 70
     6
  9
$SURFU
 70
     6
  9
$SURFV
 70
     6
  9
$UCSNAME
  2

  9
$UCSORG
 10
0.0
 20
0.0
 30
0.0
  9
$UCSXDIR
 10
1.0
 20
0.0
 30
0.0
  9
$UCSYDIR
 10
0.0
 20
1.0
 30
0.0
  9
$PUCSNAME
  2

  9
$PUCSORG
 10
0.0
 20
0.0
 30
0.0
  9
$PUCSXDIR
 10
1.0
 20
0.0
 30
0.0
  9
$PUCSYDIR
 10
0.0
 20
1.0
 30
0.0
  9
$USERI1
 70
     0
  9
$USERI2
 70
     0
  9
$USERI3
 70
     0
  9
$USERI4
 70
     0
  9
$USERI5
 70
     0
  9
$USERR1
 40
0.0
  9
$USERR2
 40
0.0
  9
$USERR3
 40
0.0
  9
$USERR4
 40
0.0
  9
$USERR5
 40
0.0
  9
$WORLDVIEW
 70
     1
  9
$SHADEDGE
 70
     3
  9
$SHADEDIF
 70
    70
  9
$TILEMODE
 70
     1
  9
$MAXACTVP
 70
    16
  9
$PINSBASE
 10
0.0
 20
0.0
 30
0.0
  9
$PLIMCHECK
 70
     0
  9
$PEXTMIN
 10
0.0
 20
0.0
 30
0.0
  9
$PEXTMAX
 10
0.0
 20
0.0
 30
0.0
  9
$PLIMMIN
 10
0.0
 20
0.0
  9
$PLIMMAX
 10
0.0
 20
0.0
  9
$UNITMODE
 70
     0
  9
$VISRETAIN
 70
     0
  9
$PLINEGEN
 70
     0
  9
$PSLTSCALE
 70
     1
  9
$TREEDEPTH
 70
  3020
  9
$PICKSTYLE
 70
     1
  9
$CMLSTYLE
  2
STANDARD
  9
$CMLJUST
 70
     0
  9
$CMLSCALE
 40
1.0
  9
$PROXYGRAPHICS
 70
     1
  9
$MEASUREMENT
 70
     0
  0
ENDSEC
  0
SECTION
  2
CLASSES
  0
CLASS
  1
LWPOLYLINE
  2
AcDbPolyline
  3
"AutoCAD"
 90
        0
280
     0
281
     1
  0
CLASS
  1
ACDBDICTIONARYWDFLT
  2
AcDbDictionaryWithDefault
  3
AutoCAD 2000
 90
        0
280
     1
281
     0
  0
CLASS
  1
ACDBPLACEHOLDER
  2
AcDbPlaceHolder
  3
AutoCAD 2000
 90
        0
280
     1
281
     0
  0
CLASS
  1
LAYOUT
  2
AcDbLayout
  3
AutoCAD 2000
 90
        0
280
     1
281
     0
  0
CLASS
  1
LONG_TRANSACTION
  2
AcDbLongTransaction
  3
AutoCAD 2000
 90
        0
280
     1
281
     0
  0
CLASS
  1
LWPOLYLINE
  2
AcDbPolyline
  3
"AutoCAD"
 90
        0
280
     0
281
     1
  0
CLASS
  1
HATCH
  2
AcDbHatch
  3
"ACAD_SEDONA"
 90
        0
280
     0
281
     1
  0
CLASS
  1
XRECORD
  2
AcDbXrecord
  3
"<Built In>"
 90
        0
280
     0
281
     0
  0
CLASS
  1
ACME_DOCUMENT
  2
AcMeDbDoc
  3
AcMeServices
 90
        0
280
     1
281
     0
  0
CLASS
  1
ACMESCOPE
  2
AcMeScope
  3
AcMeServices
 90
        0
280
     1
281
     0
  0
CLASS
  1
ACMECOMMANDHISTORY
  2
AcMeCommandHistory
  3
AcMeServices
 90
        0
280
     1
281
     0
  0
CLASS
  1
DICTIONARYVAR
  2
AcDbDictionaryVar
  3
"AutoCAD"
 90
        0
280
     0
281
     0
  0
CLASS
  1
ACIMSYSVARMAN
  2
AcImSysVarManager
  3
AcMeServices
 90
        0
280
     1
281
     0
  0
CLASS
  1
ACIMREALSYSVAR
  2
AcImRealSysVar
  3
AcMeServices
 90
        0
280
     1
281
     0
  0
CLASS
  1
ACIMINTSYSVAR
  2
AcImIntSysVar
  3
AcMeServices
 90
        0
280
     1
281
     0
  0
CLASS
  1
ACMEDRAWINGMAN
  2
AcMeDrawingMan
  3
AcMeServices
 90
        0
280
     1
281
     0
  0
CLASS
  1
ACMEVIEW
  2
AcMeView
  3
AcMeServices
 90
        0
280
     1
281
     0
  0
CLASS
  1
ACDBENTITYCACHE
  2
AcMeEntityCache
  3
AcMeServices
 90
        0
280
     1
281
     0
  0
CLASS
  1
GSMANAGER
  2
AcMeGSManager
  3
AcMeServices
 90
        0
280
     1
281
     0
  0
CLASS
  1
AmdtInternalReactor
  2
AmdtInternalReactor
  3
AcMeServices
 90
        0
280
     1
281
     0
  0
CLASS
  1
ACMESTATEMGR
  2
AcMeStateMgr
  3
AcMeServices
 90
        0
280
     1
281
     0
  0
CLASS
  1
ACME_DATABASE
  2
AcMeDbDatabase
  3
AcMeServices
 90
        0
280
     1
281
     0
  0
CLASS
  1
ACRFINSADJUSTERMGR
  2
AcRfInsAdjusterMgr
  3
AcMeServices
 90
        0
280
     1
281
     0
  0
CLASS
  1
AMGSETTINGSOBJ
  2
AmgSettingsObj
  3
"AcadM|Product Description: AutoCAD Mechanical 2000|Company: Autodesk"
 90
        0
280
     1
281
     0
  0
CLASS
  1
ACMDATADICTIONARY
  2
AcmDataDictionary
  3
"AcmSymBB|Product Description: AutoCAD Mechanical 2000|Company: Autodesk"
 90
        0
280
     1
281
     0
  0
CLASS
  1
ACMDATAENTRYBLOCK
  2
AcmDataEntryBlock
  3
"AcmSymBB|Product Description: AutoCAD Mechanical 2000|Company: Autodesk"
 90
        0
280
     1
281
     0
  0
CLASS
  1
AMGOBJPROPCFG
  2
AmgObjPropCfg
  3
"AmgLay|Product Description: AutoCAD Mechanical 2000|Company: Autodesk"
 90
        1
280
     1
281
     0
  0
CLASS
  1
LAYER_INDEX
  2
AcDbLayerIndex
  3
"Acad"
 90
        0
280
     0
281
     0
  0
CLASS
  1
IDBUFFER
  2
AcDbIdBuffer
  3
"Acad"
 90
        0
280
     0
281
     0
  0
CLASS
  1
LONG_TRANSACTION
  2
AcDbLongTransaction
  3
AutoCAD 2000
 90
        0
280
     1
281
     0
  0
CLASS
  1
LWPOLYLINE
  2
AcDbPolyline
  3
"AutoCAD"
 90
        0
280
     0
281
     1
  0
CLASS
  1
HATCH
  2
AcDbHatch
  3
"ACAD_SEDONA"
 90
        0
280
     0
281
     1
  0
CLASS
  1
XRECORD
  2
AcDbXrecord
  3
"<Built In>"
 90
        0
280
     0
281
     0
  0
ENDSEC
  0
SECTION
  2
TABLES
  0
TABLE
  2
VPORT
  5
16
100
AcDbSymbolTable
 70
     1
  0
VPORT
  5
26C
100
AcDbSymbolTableRecord
100
AcDbViewportTableRecord
  2
*ACTIVE
 70
     0
 10
0.0
 20
0.0
 11
1.0
 21
1.0
 12
967.901123
 22
207.14737
 13
0.0
 23
0.0
 14
0.05
 24
0.05
 15
10.0
 25
10.0
 16
0.0
 26
0.0
 36
1.0
 17
0.0
 27
0.0
 37
0.0
 40
255.365255
 41
1.710425
 42
50.0
 43
0.0
 44
0.0
 50
0.0
 51
0.0
 71
     0
 72
   100
 73
     1
 74
     1
 75
     0
 76
     0
 77
     0
 78
     0
  0
ENDTAB
  0
TABLE
  2
LTYPE
  5
11
100
AcDbSymbolTable
 70
     1
  0
LTYPE
  5
12
100
AcDbSymbolTableRecord
100
AcDbLinetypeTableRecord
  2
BYBLOCK
 70
     0
  3

 72
    65
 73
     0
 40
0.0
  0
LTYPE
  5
13
100
AcDbSymbolTableRecord
100
AcDbLinetypeTableRecord
  2
BYLAYER
 70
     0
  3

 72
    65
 73
     0
 40
0.0
  0
LTYPE
  5
7
100
AcDbSymbolTableRecord
100
AcDbLinetypeTableRecord
  2
CONTINUOUS
 70
     0
  3
Solid line
 72
    65
 73
     0
 40
0.0
  0
ENDTAB
  0
TABLE
  2
LAYER
  5
E
100
AcDbSymbolTable
 70
     4
  0
LAYER
  5
6
100
AcDbSymbolTableRecord
100
AcDbLayerTableRecord
  2
0
 70
     0
 62
     7
  6
CONTINUOUS
  0
LAYER
  5
2E
100
AcDbSymbolTableRecord
100
AcDbLayerTableRecord
  2
外形
 70
     0
 62
     3
  6
CONTINUOUS
  0
LAYER
  5
3D
102
{ACAD_XDICTIONARY
360
3E
102
}
100
AcDbSymbolTableRecord
100
AcDbLayerTableRecord
  2
DEFPOINTS
 70
     0
 62
     7
  6
CONTINUOUS
  0
LAYER
  5
47
100
AcDbSymbolTableRecord
100
AcDbLayerTableRecord
  2
寸法
 70
     0
 62
     1
  6
CONTINUOUS
  0
ENDTAB
  0
TABLE
  2
STYLE
  5
F
100
AcDbSymbolTable
 70
     1
  0
STYLE
  5
10
100
AcDbSymbolTableRecord
100
AcDbTextStyleTableRecord
  2
STANDARD
 70
     0
 40
0.0
 41
1.0
 50
0.0
 71
     0
 42
20.0
  3
MONOTXT
  4
BIGFONT
  0
ENDTAB
  0
TABLE
  2
VIEW
  5
14
100
AcDbSymbolTable
 70
     0
  0
ENDTAB
  0
TABLE
  2
UCS
  5
15
100
AcDbSymbolTable
 70
     0
  0
ENDTAB
  0
TABLE
  2
APPID
  5
18
100
AcDbSymbolTable
 70
     1
  0
APPID
  5
19
100
AcDbSymbolTableRecord
100
AcDbRegAppTableRecord
  2
ACAD
 70
     0
  0
ENDTAB
  0
TABLE
  2
DIMSTYLE
  5
1A
100
AcDbSymbolTable
 70
     1
  0
DIMSTYLE
105
23
102
{ACAD_XDICTIONARY
360
24
102
}
102
{ACAD_REACTORS
330
157
330
140
330
76
330
108
330
D0
330
46
330
92
330
A3
330
11A
102
}
100
AcDbSymbolTableRecord
100
AcDbDimStyleTableRecord
  2
STANDARD
 70
     0
  3

  4

  5

  6
_OPEN30
  7
_OPEN30
 40
1.0
 41
2.0
 42
1.0
 43
8.0
 44
1.5
 45
0.0
 46
0.0
 47
0.0
 48
0.0
140
3.0
141
-1.0
142
0.0
143
25.4
144
1.0
145
0.0
146
1.0
147
1.0
 71
     0
 72
     0
 73
     0
 74
     0
 75
     0
 76
     0
 77
     1
 78
     8
170
     0
171
     2
172
     1
173
     1
174
     0
175
     0
176
     1
177
     1
178
     3
270
     2
271
     3
272
     0
273
     2
274
     2
340
10
275
     0
280
     0
281
     0
282
     0
283
     1
284
     8
285
     0
286
     0
287
     3
288
     0
  0
ENDTAB
  0
TABLE
  2
BLOCK_RECORD
  5
1
100
AcDbSymbolTable
 70
    35
  0
BLOCK_RECORD
  5
2
102
{ACAD_XDICTIONARY
360
3
102
}
100
AcDbSymbolTableRecord
100
AcDbBlockTableRecord
  2
*MODEL_SPACE
  0
BLOCK_RECORD
  5
9
102
{ACAD_XDICTIONARY
360
A
102
}
100
AcDbSymbolTableRecord
100
AcDbBlockTableRecord
  2
*PAPER_SPACE
  0
BLOCK_RECORD
  5
26
100
AcDbSymbolTableRecord
100
AcDbBlockTableRecord
  2
_DOTSMALL
  0
BLOCK_RECORD
  5
168
100
AcDbSymbolTableRecord
100
AcDbBlockTableRecord
  2
*D17
  0
BLOCK_RECORD
  5
17F
100
AcDbSymbolTableRecord
100
AcDbBlockTableRecord
  2
_OPEN30
  0
BLOCK_RECORD
  5
194
100
AcDbSymbolTableRecord
100
AcDbBlockTableRecord
  2
*D20
  0
BLOCK_RECORD
  5
1BC
100
AcDbSymbolTableRecord
100
AcDbBlockTableRecord
  2
*D23
  0
BLOCK_RECORD
  5
1D5
100
AcDbSymbolTableRecord
100
AcDbBlockTableRecord
  2
*D25
  0
BLOCK_RECORD
  5
1E1
100
AcDbSymbolTableRecord
100
AcDbBlockTableRecord
  2
*D26
  0
BLOCK_RECORD
  5
20A
100
AcDbSymbolTableRecord
100
AcDbBlockTableRecord
  2
*D29
  0
BLOCK_RECORD
  5
231
100
AcDbSymbolTableRecord
100
AcDbBlockTableRecord
  2
*D32
  0
BLOCK_RECORD
  5
252
100
AcDbSymbolTableRecord
100
AcDbBlockTableRecord
  2
*D33
  0
BLOCK_RECORD
  5
25E
100
AcDbSymbolTableRecord
100
AcDbBlockTableRecord
  2
*D34
  0
ENDTAB
  0
ENDSEC
  0
SECTION
  2
BLOCKS
  0
BLOCK
  5
5
100
AcDbEntity
  8
0
100
AcDbBlockBegin
  2
*MODEL_SPACE
 70
     0
 10
0.0
 20
0.0
 30
0.0
  3
*MODEL_SPACE
  1

  0
ENDBLK
  5
8
100
AcDbEntity
  8
0
100
AcDbBlockEnd
  0
BLOCK
  5
C
100
AcDbEntity
 67
     1
  8
0
100
AcDbBlockBegin
  2
*PAPER_SPACE
 70
     0
 10
0.0
 20
0.0
 30
0.0
  3
*PAPER_SPACE
  1

  0
ENDBLK
  5
D
100
AcDbEntity
 67
     1
  8
0
100
AcDbBlockEnd
  0
BLOCK
  5
2B
100
AcDbEntity
  8
0
100
AcDbBlockBegin
  2
_DOTSMALL
 70
     0
 10
0.0
 20
0.0
 30
0.0
  3
_DOTSMALL
  1

  0
POLYLINE
  5
27
100
AcDbEntity
  8
0
  6
BYBLOCK
 62
     0
100
AcDb2dPolyline
 66
     1
 10
0.0
 20
0.0
 30
0.0
 70
     1
 40
0.5
 41
0.5
  0
VERTEX
  5
28
100
AcDbEntity
  8
0
  6
BYBLOCK
 62
     0
100
AcDbVertex
100
AcDb2dVertex
 10
-0.0625
 20
0.0
 30
0.0
 42
1.0
  0
VERTEX
  5
29
100
AcDbEntity
  8
0
  6
BYBLOCK
 62
     0
100
AcDbVertex
100
AcDb2dVertex
 10
0.0625
 20
0.0
 30
0.0
 42
1.0
  0
SEQEND
  5
2A
100
AcDbEntity
  8
0
  6
BYBLOCK
 62
     0
  0
ENDBLK
  5
2C
100
AcDbEntity
  8
0
100
AcDbBlockEnd
  0
BLOCK
  5
241
100
AcDbEntity
  8
0
100
AcDbBlockBegin
  2
*D17
 70
     1
 10
0.0
 20
0.0
 30
0.0
  3
*D17
  1

  0
LINE
  5
242
100
AcDbEntity
  8
0
  6
BYBLOCK
 62
     1
100
AcDbLine
 10
891.445452
 20
231.242909
 30
0.0
 11
872.550258
 21
226.179957
 31
0.0
  0
LINE
  5
243
100
AcDbEntity
  8
0
  6
BYBLOCK
 62
     1
100
AcDbLine
 10
891.477797
 20
231.14336
 30
0.0
 11
873.215336
 21
224.133058
 31
0.0
  0
ARC
  5
244
100
AcDbEntity
  8
0
  6
BYBLOCK
 62
     1
100
AcDbCircle
 10
892.411377
 20
231.501728
 30
0.0
 40
19.061744
100
AcDbArc
 50
182.954632
 51
195.0
  0
LINE
  5
245
100
AcDbEntity
  8
0
  6
BYBLOCK
 62
     1
100
AcDbLine
 10
873.374973
 20
230.519187
 30
0.0
 11
872.931685
 21
239.107754
 31
0.0
  0
ARC
  5
246
100
AcDbEntity
  8
0
  6
BYBLOCK
 62
     1
100
AcDbCircle
 10
892.411377
 20
231.501728
 30
0.0
 40
19.061744
100
AcDbArc
 50
182.97128
 51
188.98564
  0
ARC
  5
247
100
AcDbEntity
  8
0
  6
BYBLOCK
 62
     1
100
AcDbCircle
 10
892.411377
 20
231.501728
 30
0.0
 40
19.061744
100
AcDbArc
 50
207.01436
 51
213.02872
  0
ARC
  5
248
100
AcDbEntity
  8
0
  6
BYBLOCK
 62
     1
100
AcDbCircle
 10
892.411377
 20
231.501728
 30
0.0
 40
19.061744
100
AcDbArc
 50
195.0
 51
201.0
  0
INSERT
  5
249
100
AcDbEntity
  8
0
  6
BYBLOCK
 62
     1
100
AcDbBlockReference
  2
_OPEN30
 10
873.999147
 20
226.568186
 30
0.0
 41
2.0
 42
2.0
 43
2.0
 50
281.99282
  0
INSERT
  5
24A
100
AcDbEntity
  8
0
  6
BYBLOCK
 62
     1
100
AcDbBlockReference
  2
_OPEN30
 10
874.615707
 20
224.67061
 30
0.0
 41
2.0
 42
2.0
 43
2.0
 50
114.00718
  0
MTEXT
  5
24B
100
AcDbEntity
  8
0
  6
BYBLOCK
 62
     3
100
AcDbMText
 10
875.650006
 20
234.942333
 30
0.0
 40
3.0
 41
0.0
 71
     5
 72
     1
  1
\A1;6°
 11
0.051545
 21
-0.998671
 31
0.0
  0
POINT
  5
24C
100
AcDbEntity
  8
DEFPOINTS
  6
BYBLOCK
 62
     0
100
AcDbPoint
 10
874.388145
 20
225.295831
 30
0.0
  0
POINT
  5
24D
100
AcDbEntity
  8
DEFPOINTS
  6
BYBLOCK
 62
     0
100
AcDbPoint
 10
892.411377
 20
231.501728
 30
0.0
  0
POINT
  5
24E
100
AcDbEntity
  8
DEFPOINTS
  6
BYBLOCK
 62
     0
100
AcDbPoint
 10
892.411377
 20
231.501728
 30
0.0
  0
POINT
  5
24F
100
AcDbEntity
  8
DEFPOINTS
  6
BYBLOCK
 62
     0
100
AcDbPoint
 10
916.945893
 20
238.075732
 30
0.0
  0
POINT
  5
250
100
AcDbEntity
  8
DEFPOINTS
  6
BYBLOCK
 62
     0
100
AcDbPoint
 10
916.12432
 20
240.604274
 30
0.0
  0
ENDBLK
  5
251
100
AcDbEntity
  8
0
100
AcDbBlockEnd
  0
BLOCK
  5
180
100
AcDbEntity
  8
0
100
AcDbBlockBegin
  2
_OPEN30
 70
     0
 10
0.0
 20
0.0
 30
0.0
  3
_OPEN30
  1

  0
LINE
  5
181
100
AcDbEntity
  8
0
  6
BYBLOCK
 62
     0
100
AcDbLine
 10
-1.0
 20
0.267949
 30
0.0
 11
0.0
 21
0.0
 31
0.0
  0
LINE
  5
182
100
AcDbEntity
  8
0
  6
BYBLOCK
 62
     0
100
AcDbLine
 10
0.0
 20
0.0
 30
0.0
 11
-1.0
 21
-0.267949
 31
0.0
  0
LINE
  5
183
100
AcDbEntity
  8
0
  6
BYBLOCK
 62
     0
100
AcDbLine
 10
0.0
 20
0.0
 30
0.0
 11
-1.0
 21
0.0
 31
0.0
  0
ENDBLK
  5
184
100
AcDbEntity
  8
0
100
AcDbBlockEnd
  0
BLOCK
  5
195
100
AcDbEntity
  8
0
100
AcDbBlockBegin
  2
*D20
 70
     1
 10
0.0
 20
0.0
 30
0.0
  3
*D20
  1

  0
LINE
  5
196
100
AcDbEntity
  8
0
  6
BYBLOCK
 62
     1
100
AcDbLine
 10
883.163927
 20
156.864716
 30
0.0
 11
883.163927
 21
168.763165
 31
0.0
  0
LINE
  5
197
100
AcDbEntity
  8
0
  6
BYBLOCK
 62
     1
100
AcDbLine
 10
927.163927
 20
157.439953
 30
0.0
 11
927.163927
 21
168.763165
 31
0.0
  0
LINE
  5
198
100
AcDbEntity
  8
0
  6
BYBLOCK
 62
     1
100
AcDbLine
 10
885.163927
 20
167.263165
 30
0.0
 11
925.163927
 21
167.263165
 31
0.0
  0
INSERT
  5
199
100
AcDbEntity
  8
0
  6
BYBLOCK
 62
     1
100
AcDbBlockReference
  2
_OPEN30
 10
883.163927
 20
167.263165
 30
0.0
 41
2.0
 42
2.0
 43
2.0
 50
180.0
  0
INSERT
  5
19A
100
AcDbEntity
  8
0
  6
BYBLOCK
 62
     1
100
AcDbBlockReference
  2
_OPEN30
 10
927.163927
 20
167.263165
 30
0.0
 41
2.0
 42
2.0
 43
2.0
  0
MTEXT
  5
19B
100
AcDbEntity
  8
0
  6
BYBLOCK
 62
     3
100
AcDbMText
 10
905.163927
 20
169.763165
 30
0.0
 40
3.0
 41
0.0
 71
     5
 72
     1
  1
\A1;44
  0
POINT
  5
19C
100
AcDbEntity
  8
DEFPOINTS
  6
BYBLOCK
 62
     0
100
AcDbPoint
 10
883.163927
 20
155.864716
 30
0.0
  0
POINT
  5
19D
100
AcDbEntity
  8
DEFPOINTS
  6
BYBLOCK
 62
     0
100
AcDbPoint
 10
927.163927
 20
156.439953
 30
0.0
  0
POINT
  5
19E
100
AcDbEntity
  8
DEFPOINTS
  6
BYBLOCK
 62
     0
100
AcDbPoint
 10
927.163927
 20
167.263165
 30
0.0
  0
ENDBLK
  5
19F
100
AcDbEntity
  8
0
100
AcDbBlockEnd
  0
BLOCK
  5
1BD
100
AcDbEntity
  8
0
100
AcDbBlockBegin
  2
*D23
 70
     1
 10
0.0
 20
0.0
 30
0.0
  3
*D23
  1

  0
LINE
  5
1BE
100
AcDbEntity
  8
0
  6
BYBLOCK
 62
     1
100
AcDbLine
 10
887.121538
 20
250.243677
 30
0.0
 11
887.121538
 21
240.792674
 31
0.0
  0
LINE
  5
1BF
100
AcDbEntity
  8
0
  6
BYBLOCK
 62
     1
100
AcDbLine
 10
1137.121903
 20
260.243677
 30
0.0
 11
1137.121903
 21
240.792674
 31
0.0
  0
LINE
  5
1C0
100
AcDbEntity
  8
0
  6
BYBLOCK
 62
     1
100
AcDbLine
 10
889.121538
 20
242.292674
 30
0.0
 11
1135.121903
 21
242.292674
 31
0.0
  0
INSERT
  5
1C1
100
AcDbEntity
  8
0
  6
BYBLOCK
 62
     1
100
AcDbBlockReference
  2
_OPEN30
 10
887.121538
 20
242.292674
 30
0.0
 41
2.0
 42
2.0
 43
2.0
 50
180.0
  0
INSERT
  5
1C2
100
AcDbEntity
  8
0
  6
BYBLOCK
 62
     1
100
AcDbBlockReference
  2
_OPEN30
 10
1137.121903
 20
242.292674
 30
0.0
 41
2.0
 42
2.0
 43
2.0
  0
MTEXT
  5
1C3
100
AcDbEntity
  8
0
  6
BYBLOCK
 62
     3
100
AcDbMText
 10
1012.12172
 20
244.792674
 30
0.0
 40
3.0
 41
0.0
 71
     5
 72
     1
  1
\A1;250
  0
POINT
  5
1C4
100
AcDbEntity
  8
DEFPOINTS
  6
BYBLOCK
 62
     0
100
AcDbPoint
 10
887.121538
 20
251.243677
 30
0.0
  0
POINT
  5
1C5
100
AcDbEntity
  8
DEFPOINTS
  6
BYBLOCK
 62
     0
100
AcDbPoint
 10
1137.121903
 20
261.243677
 30
0.0
  0
POINT
  5
1C6
100
AcDbEntity
  8
DEFPOINTS
  6
BYBLOCK
 62
     0
100
AcDbPoint
 10
1137.121903
 20
242.292674
 30
0.0
  0
ENDBLK
  5
1C7
100
AcDbEntity
  8
0
100
AcDbBlockEnd
  0
BLOCK
  5
1D6
100
AcDbEntity
  8
0
100
AcDbBlockBegin
  2
*D25
 70
     1
 10
0.0
 20
0.0
 30
0.0
  3
*D25
  1

  0
LINE
  5
1D7
100
AcDbEntity
  8
0
  6
BYBLOCK
 62
     1
100
AcDbLine
 10
886.121538
 20
156.439953
 30
0.0
 11
868.430791
 21
156.439953
 31
0.0
  0
LINE
  5
1D8
100
AcDbEntity
  8
0
  6
BYBLOCK
 62
     1
100
AcDbLine
 10
882.163927
 20
106.439953
 30
0.0
 11
868.430791
 21
106.439953
 31
0.0
  0
LINE
  5
1D9
100
AcDbEntity
  8
0
  6
BYBLOCK
 62
     1
100
AcDbLine
 10
869.930791
 20
154.439953
 30
0.0
 11
869.930791
 21
108.439953
 31
0.0
  0
INSERT
  5
1DA
100
AcDbEntity
  8
0
  6
BYBLOCK
 62
     1
100
AcDbBlockReference
  2
_OPEN30
 10
869.930791
 20
156.439953
 30
0.0
 41
2.0
 42
2.0
 43
2.0
 50
90.0
  0
INSERT
  5
1DB
100
AcDbEntity
  8
0
  6
BYBLOCK
 62
     1
100
AcDbBlockReference
  2
_OPEN30
 10
869.930791
 20
106.439953
 30
0.0
 41
2.0
 42
2.0
 43
2.0
 50
270.0
  0
MTEXT
  5
1DC
100
AcDbEntity
  8
0
  6
BYBLOCK
 62
     3
100
AcDbMText
 10
867.430791
 20
131.439953
 30
0.0
 40
3.0
 41
0.0
 71
     5
 72
     1
  1
\A1;50
 11
0.0
 21
1.0
 31
0.0
  0
POINT
  5
1DD
100
AcDbEntity
  8
DEFPOINTS
  6
BYBLOCK
 62
     0
100
AcDbPoint
 10
887.121538
 20
156.439953
 30
0.0
  0
POINT
  5
1DE
100
AcDbEntity
  8
DEFPOINTS
  6
BYBLOCK
 62
     0
100
AcDbPoint
 10
883.163927
 20
106.439953
 30
0.0
  0
POINT
  5
1DF
100
AcDbEntity
  8
DEFPOINTS
  6
BYBLOCK
 62
     0
100
AcDbPoint
 10
869.930791
 20
106.439953
 30
0.0
  0
ENDBLK
  5
1E0
100
AcDbEntity
  8
0
100
AcDbBlockEnd
  0
BLOCK
  5
1E2
100
AcDbEntity
  8
0
100
AcDbBlockBegin
  2
*D26
 70
     1
 10
0.0
 20
0.0
 30
0.0
  3
*D26
  1

  0
LINE
  5
1E3
100
AcDbEntity
  8
0
  6
BYBLOCK
 62
     1
100
AcDbLine
 10
854.423878
 20
241.451028
 30
0.0
 11
857.183446
 21
225.800741
 31
0.0
  0
LINE
  5
1E4
100
AcDbEntity
  8
0
  6
BYBLOCK
 62
     1
100
AcDbLine
 10
854.509049
 20
241.46991
 30
0.0
 11
858.622128
 21
226.119689
 31
0.0
  0
ARC
  5
1E5
100
AcDbEntity
  8
0
  6
BYBLOCK
 62
     1
100
AcDbCircle
 10
854.25023
 20
242.435836
 30
0.0
 40
15.391718
100
AcDbArc
 50
265.067748
 51
280.0
  0
LINE
  5
1E6
100
AcDbEntity
  8
0
  6
BYBLOCK
 62
     1
100
AcDbLine
 10
852.926884
 20
227.101113
 30
0.0
 11
844.35873
 21
227.840521
 31
0.0
  0
ARC
  5
1E7
100
AcDbEntity
  8
0
  6
BYBLOCK
 62
     1
100
AcDbCircle
 10
854.25023
 20
242.435836
 30
0.0
 40
15.391718
100
AcDbArc
 50
265.099476
 51
272.549738
  0
ARC
  5
1E8
100
AcDbEntity
  8
0
  6
BYBLOCK
 62
     1
100
AcDbCircle
 10
854.25023
 20
242.435836
 30
0.0
 40
15.391718
100
AcDbArc
 50
292.450262
 51
299.900524
  0
ARC
  5
1E9
100
AcDbEntity
  8
0
  6
BYBLOCK
 62
     1
100
AcDbCircle
 10
854.25023
 20
242.435836
 30
0.0
 40
15.391718
100
AcDbArc
 50
280.0
 51
285.0
  0
INSERT
  5
1EA
100
AcDbEntity
  8
0
  6
BYBLOCK
 62
     1
100
AcDbBlockReference
  2
_OPEN30
 10
856.922973
 20
227.277953
 30
0.0
 41
2.0
 42
2.0
 43
2.0
 50
6.274869
  0
INSERT
  5
1EB
100
AcDbEntity
  8
0
  6
BYBLOCK
 62
     1
100
AcDbBlockReference
  2
_OPEN30
 10
858.233899
 20
227.568578
 30
0.0
 41
2.0
 42
2.0
 43
2.0
 50
198.725131
  0
MTEXT
  5
1EC
100
AcDbEntity
  8
0
  6
BYBLOCK
 62
     3
100
AcDbMText
 10
848.857751
 20
229.96156
 30
0.0
 40
3.0
 41
0.0
 71
     5
 72
     1
  1
\A1;5°
 11
0.996297
 21
-0.085978
 31
0.0
  0
POINT
  5
1ED
100
AcDbEntity
  8
DEFPOINTS
  6
BYBLOCK
 62
     0
100
AcDbPoint
 10
857.799804
 20
227.459004
 30
0.0
  0
POINT
  5
1EE
100
AcDbEntity
  8
DEFPOINTS
  6
BYBLOCK
 62
     0
100
AcDbPoint
 10
840.994739
 20
291.906001
 30
0.0
  0
POINT
  5
1EF
100
AcDbEntity
  8
DEFPOINTS
  6
BYBLOCK
 62
     0
100
AcDbPoint
 10
845.356789
 20
292.873044
 30
0.0
  0
POINT
  5
1F0
100
AcDbEntity
  8
DEFPOINTS
  6
BYBLOCK
 62
     0
100
AcDbPoint
 10
854.25023
 20
242.435836
 30
0.0
  0
POINT
  5
1F1
100
AcDbEntity
  8
DEFPOINTS
  6
BYBLOCK
 62
     0
100
AcDbPoint
 10
854.25023
 20
242.435836
 30
0.0
  0
ENDBLK
  5
1F2
100
AcDbEntity
  8
0
100
AcDbBlockEnd
  0
BLOCK
  5
20B
100
AcDbEntity
  8
0
100
AcDbBlockBegin
  2
*D29
 70
     1
 10
0.0
 20
0.0
 30
0.0
  3
*D29
  1

  0
LINE
  5
20C
100
AcDbEntity
  8
0
  6
BYBLOCK
 62
     1
100
AcDbLine
 10
911.975697
 20
311.243677
 30
0.0
 11
871.663927
 21
311.243677
 31
0.0
  0
LINE
  5
20D
100
AcDbEntity
  8
0
  6
BYBLOCK
 62
     1
100
AcDbLine
 10
886.121538
 20
251.243677
 30
0.0
 11
871.663927
 21
251.243677
 31
0.0
  0
LINE
  5
20E
100
AcDbEntity
  8
0
  6
BYBLOCK
 62
     1
100
AcDbLine
 10
873.163927
 20
309.243677
 30
0.0
 11
873.163927
 21
253.243677
 31
0.0
  0
INSERT
  5
20F
100
AcDbEntity
  8
0
  6
BYBLOCK
 62
     1
100
AcDbBlockReference
  2
_OPEN30
 10
873.163927
 20
311.243677
 30
0.0
 41
2.0
 42
2.0
 43
2.0
 50
90.0
  0
INSERT
  5
210
100
AcDbEntity
  8
0
  6
BYBLOCK
 62
     1
100
AcDbBlockReference
  2
_OPEN30
 10
873.163927
 20
251.243677
 30
0.0
 41
2.0
 42
2.0
 43
2.0
 50
270.0
  0
MTEXT
  5
211
100
AcDbEntity
  8
0
  6
BYBLOCK
 62
     3
100
AcDbMText
 10
870.663927
 20
281.243677
 30
0.0
 40
3.0
 41
0.0
 71
     5
 72
     1
  1
\A1;60
 11
0.0
 21
1.0
 31
0.0
  0
POINT
  5
212
100
AcDbEntity
  8
DEFPOINTS
  6
BYBLOCK
 62
     0
100
AcDbPoint
 10
912.975697
 20
311.243677
 30
0.0
  0
POINT
  5
213
100
AcDbEntity
  8
DEFPOINTS
  6
BYBLOCK
 62
     0
100
AcDbPoint
 10
887.121538
 20
251.243677
 30
0.0
  0
POINT
  5
214
100
AcDbEntity
  8
DEFPOINTS
  6
BYBLOCK
 62
     0
100
AcDbPoint
 10
873.163927
 20
251.243677
 30
0.0
  0
ENDBLK
  5
215
100
AcDbEntity
  8
0
100
AcDbBlockEnd
  0
BLOCK
  5
232
100
AcDbEntity
  8
0
100
AcDbBlockBegin
  2
*D32
 70
     1
 10
0.0
 20
0.0
 30
0.0
  3
*D32
  1

  0
LINE
  5
233
100
AcDbEntity
  8
0
  6
BYBLOCK
 62
     1
100
AcDbLine
 10
883.308455
 20
264.474296
 30
0.0
 11
883.308455
 21
237.677755
 31
0.0
  0
LINE
  5
234
100
AcDbEntity
  8
0
  6
BYBLOCK
 62
     1
100
AcDbLine
 10
887.524886
 20
249.738363
 30
0.0
 11
890.50273
 21
238.624899
 31
0.0
  0
ARC
  5
235
100
AcDbEntity
  8
0
  6
BYBLOCK
 62
     1
100
AcDbCircle
 10
883.308455
 20
265.474296
 30
0.0
 40
26.296542
100
AcDbArc
 50
265.641283
 51
270.0
  0
LINE
  5
236
100
AcDbEntity
  8
0
  6
BYBLOCK
 62
     1
100
AcDbLine
 10
881.309902
 20
239.25381
 30
0.0
 11
869.743452
 21
240.135417
 31
0.0
  0
ARC
  5
237
100
AcDbEntity
  8
0
  6
BYBLOCK
 62
     1
100
AcDbCircle
 10
883.308455
 20
265.474296
 30
0.0
 40
26.296542
100
AcDbArc
 50
274.358717
 51
280.641283
  0
INSERT
  5
238
100
AcDbEntity
  8
0
  6
BYBLOCK
 62
     1
100
AcDbBlockReference
  2
_OPEN30
 10
883.308455
 20
239.177755
 30
0.0
 41
2.0
 42
2.0
 43
2.0
 50
182.179359
  0
INSERT
  5
239
100
AcDbEntity
  8
0
  6
BYBLOCK
 62
     1
100
AcDbBlockReference
  2
_OPEN30
 10
890.114501
 20
240.073788
 30
0.0
 41
2.0
 42
2.0
 43
2.0
 50
12.820641
  0
MTEXT
  5
23A
100
AcDbEntity
  8
0
  6
BYBLOCK
 62
     3
100
AcDbMText
 10
875.716678
 20
242.187383
 30
0.0
 40
3.0
 41
0.0
 71
     5
 72
     1
  1
\A1;15°
 11
0.997108
 21
-0.076001
 31
0.0
  0
POINT
  5
23B
100
AcDbEntity
  8
DEFPOINTS
  6
BYBLOCK
 62
     0
100
AcDbPoint
 10
887.874802
 20
239.577258
 30
0.0
  0
POINT
  5
23C
100
AcDbEntity
  8
DEFPOINTS
  6
BYBLOCK
 62
     0
100
AcDbPoint
 10
883.308455
 20
280.892518
 30
0.0
  0
POINT
  5
23D
100
AcDbEntity
  8
DEFPOINTS
  6
BYBLOCK
 62
     0
100
AcDbPoint
 10
880.692063
 20
275.238805
 30
0.0
  0
POINT
  5
23E
100
AcDbEntity
  8
DEFPOINTS
  6
BYBLOCK
 62
     0
100
AcDbPoint
 10
887.266067
 20
250.704289
 30
0.0
  0
POINT
  5
23F
100
AcDbEntity
  8
DEFPOINTS
  6
BYBLOCK
 62
     0
100
AcDbPoint
 10
883.308455
 20
267.792518
 30
0.0
  0
ENDBLK
  5
240
100
AcDbEntity
  8
0
100
AcDbBlockEnd
  0
BLOCK
  5
253
100
AcDbEntity
  8
0
100
AcDbBlockBegin
  2
*D33
 70
     1
 10
0.0
 20
0.0
 30
0.0
  3
*D33
  1

  0
LINE
  5
254
100
AcDbEntity
  8
0
  6
BYBLOCK
 62
     1
100
AcDbLine
 10
1138.121538
 20
156.439953
 30
0.0
 11
1146.621538
 21
156.439953
 31
0.0
  0
LINE
  5
255
100
AcDbEntity
  8
0
  6
BYBLOCK
 62
     1
100
AcDbLine
 10
1138.121538
 20
106.439953
 30
0.0
 11
1146.621538
 21
106.439953
 31
0.0
  0
LINE
  5
256
100
AcDbEntity
  8
0
  6
BYBLOCK
 62
     1
100
AcDbLine
 10
1145.121538
 20
154.439953
 30
0.0
 11
1145.121538
 21
108.439953
 31
0.0
  0
INSERT
  5
257
100
AcDbEntity
  8
0
  6
BYBLOCK
 62
     1
100
AcDbBlockReference
  2
_OPEN30
 10
1145.121538
 20
156.439953
 30
0.0
 41
2.0
 42
2.0
 43
2.0
 50
90.0
  0
INSERT
  5
258
100
AcDbEntity
  8
0
  6
BYBLOCK
 62
     1
100
AcDbBlockReference
  2
_OPEN30
 10
1145.121538
 20
106.439953
 30
0.0
 41
2.0
 42
2.0
 43
2.0
 50
270.0
  0
MTEXT
  5
259
100
AcDbEntity
  8
0
  6
BYBLOCK
 62
     3
100
AcDbMText
 10
1142.621538
 20
131.439953
 30
0.0
 40
3.0
 41
0.0
 71
     5
 72
     1
  1
\A1;50
 11
0.0
 21
1.0
 31
0.0
  0
POINT
  5
25A
100
AcDbEntity
  8
DEFPOINTS
  6
BYBLOCK
 62
     0
100
AcDbPoint
 10
1137.121538
 20
156.439953
 30
0.0
  0
POINT
  5
25B
100
AcDbEntity
  8
DEFPOINTS
  6
BYBLOCK
 62
     0
100
AcDbPoint
 10
1137.121538
 20
106.439953
 30
0.0
  0
POINT
  5
25C
100
AcDbEntity
  8
DEFPOINTS
  6
BYBLOCK
 62
     0
100
AcDbPoint
 10
1145.121538
 20
106.439953
 30
0.0
  0
ENDBLK
  5
25D
100
AcDbEntity
  8
0
100
AcDbBlockEnd
  0
BLOCK
  5
25F
100
AcDbEntity
  8
0
100
AcDbBlockBegin
  2
*D34
 70
     1
 10
0.0
 20
0.0
 30
0.0
  3
*D34
  1

  0
LINE
  5
260
100
AcDbEntity
  8
0
  6
BYBLOCK
 62
     1
100
AcDbLine
 10
1138.121903
 20
311.243677
 30
0.0
 11
1146.621903
 21
311.243677
 31
0.0
  0
LINE
  5
261
100
AcDbEntity
  8
0
  6
BYBLOCK
 62
     1
100
AcDbLine
 10
1138.121903
 20
261.243677
 30
0.0
 11
1146.621903
 21
261.243677
 31
0.0
  0
LINE
  5
262
100
AcDbEntity
  8
0
  6
BYBLOCK
 62
     1
100
AcDbLine
 10
1145.121903
 20
309.243677
 30
0.0
 11
1145.121903
 21
263.243677
 31
0.0
  0
INSERT
  5
263
100
AcDbEntity
  8
0
  6
BYBLOCK
 62
     1
100
AcDbBlockReference
  2
_OPEN30
 10
1145.121903
 20
311.243677
 30
0.0
 41
2.0
 42
2.0
 43
2.0
 50
90.0
  0
INSERT
  5
264
100
AcDbEntity
  8
0
  6
BYBLOCK
 62
     1
100
AcDbBlockReference
  2
_OPEN30
 10
1145.121903
 20
261.243677
 30
0.0
 41
2.0
 42
2.0
 43
2.0
 50
270.0
  0
MTEXT
  5
265
100
AcDbEntity
  8
0
  6
BYBLOCK
 62
     3
100
AcDbMText
 10
1142.621903
 20
286.243677
 30
0.0
 40
3.0
 41
0.0
 71
     5
 72
     1
  1
\A1;50
 11
0.0
 21
1.0
 31
0.0
  0
POINT
  5
266
100
AcDbEntity
  8
DEFPOINTS
  6
BYBLOCK
 62
     0
100
AcDbPoint
 10
1137.121903
 20
311.243677
 30
0.0
  0
POINT
  5
267
100
AcDbEntity
  8
DEFPOINTS
  6
BYBLOCK
 62
     0
100
AcDbPoint
 10
1137.121903
 20
261.243677
 30
0.0
  0
POINT
  5
268
100
AcDbEntity
  8
DEFPOINTS
  6
BYBLOCK
 62
     0
100
AcDbPoint
 10
1145.121903
 20
261.243677
 30
0.0
  0
ENDBLK
  5
269
100
AcDbEntity
  8
0
100
AcDbBlockEnd
  0
ENDSEC
  0
SECTION
  2
ENTITIES
  0
LINE
  5
2D
100
AcDbEntity
  8
外形
  6
CONTINUOUS
100
AcDbLine
 10
918.321281
 20
232.942717
 30
0.0
 11
921.166722
 21
225.530088
 31
0.0
  0
LINE
  5
2F
100
AcDbEntity
  8
外形
100
AcDbLine
 10
899.622138
 20
210.458126
 30
0.0
 11
923.419019
 21
219.592893
 31
0.0
  0
LINE
  5
30
100
AcDbEntity
  8
外形
100
AcDbLine
 10
897.323162
 20
216.377403
 30
0.0
 11
921.166722
 21
225.530088
 31
0.0
  0
LINE
  5
31
100
AcDbEntity
  8
外形
100
AcDbLine
 10
894.47772
 20
223.790032
 30
0.0
 11
928.948926
 21
237.022288
 31
0.0
  0
LINE
  5
32
100
AcDbEntity
  8
外形
  6
CONTINUOUS
100
AcDbLine
 10
908.593975
 20
175.808662
 30
0.0
 11
942.888809
 21
184.997935
 31
0.0
  0
DIMENSION
  5
46
100
AcDbEntity
  8
寸法
  6
CONTINUOUS
100
AcDbDimension
  2
*D20
 10
927.163927
 20
167.263165
 30
0.0
 11
905.163927
 21
169.763165
 31
0.0
 70
    32
  3
STANDARD
100
AcDbAlignedDimension
 13
883.163927
 23
155.864716
 33
0.0
 14
927.163927
 24
156.439953
 34
0.0
100
AcDbRotatedDimension
1001
ACAD
1000
DSTYLE
1002
{
1070
    40
1040
1.0
1002
}
  0
LINE
  5
54
100
AcDbEntity
  8
外形
  6
CONTINUOUS
100
AcDbLine
 10
925.662884
 20
162.04192
 30
0.0
 11
881.351519
 21
155.601284
 31
0.0
  0
LINE
  5
64
100
AcDbEntity
  8
外形
  6
CONTINUOUS
100
AcDbLine
 10
913.163927
 20
311.243677
 30
0.0
 11
1137.121903
 21
311.243677
 31
0.0
  0
CIRCLE
  5
65
100
AcDbEntity
  8
外形
  6
CONTINUOUS
100
AcDbCircle
 10
914.08784
 20
279.703096
 30
0.0
 40
4.9
  0
LINE
  5
66
100
AcDbEntity
  8
外形
100
AcDbLine
 10
922.458824
 20
261.243677
 30
0.0
 11
911.523204
 21
258.313486
 31
0.0
  0
LINE
  5
67
100
AcDbEntity
  8
外形
  6
CONTINUOUS
100
AcDbLine
 10
1137.121538
 20
106.439953
 30
0.0
 11
883.163927
 21
106.439953
 31
0.0
  0
TEXT
  5
68
100
AcDbEntity
  8
外形
  6
CONTINUOUS
 62
     2
100
AcDbText
 10
873.550131
 20
84.468104
 30
0.0
 40
6.0
  1
ＰＳＫＮ　Ｒ５０５０－８５
100
AcDbText
  0
DIMENSION
  5
76
100
AcDbEntity
  8
寸法
  6
CONTINUOUS
100
AcDbDimension
  2
*D23
 10
1137.121903
 20
242.292674
 30
0.0
 11
1012.12172
 21
244.792674
 31
0.0
 70
    32
  3
STANDARD
100
AcDbAlignedDimension
 13
887.121538
 23
251.243677
 33
0.0
 14
1137.121903
 24
261.243677
 34
0.0
100
AcDbRotatedDimension
1001
ACAD
1000
DSTYLE
1002
{
1070
    40
1040
1.0
1002
}
  0
LINE
  5
91
100
AcDbEntity
  8
外形
  6
CONTINUOUS
100
AcDbLine
 10
882.480043
 20
148.010879
 30
0.0
 11
883.393415
 21
141.726911
 31
0.0
  0
DIMENSION
  5
92
100
AcDbEntity
  8
寸法
  6
CONTINUOUS
100
AcDbDimension
  2
*D25
 10
869.930791
 20
106.439953
 30
0.0
 11
867.430791
 21
131.439953
 31
0.0
 70
    32
  3
STANDARD
100
AcDbAlignedDimension
 13
887.121538
 23
156.439953
 33
0.0
 14
883.163927
 24
106.439953
 34
0.0
 50
90.0
100
AcDbRotatedDimension
1001
ACAD
1000
DSTYLE
1002
{
1070
    40
1040
1.0
1002
}
  0
LINE
  5
9F
100
AcDbEntity
  8
外形
  6
CONTINUOUS
100
AcDbLine
 10
887.121538
 20
156.439953
 30
0.0
 11
889.176984
 21
142.298552
 31
0.0
  0
LINE
  5
A0
100
AcDbEntity
  8
外形
  6
CONTINUOUS
100
AcDbLine
 10
913.831289
 20
145.882043
 30
0.0
 11
883.163927
 21
141.424557
 31
0.0
  0
LINE
  5
A1
100
AcDbEntity
  8
外形
  6
CONTINUOUS
100
AcDbLine
 10
888.16399
 20
142.151313
 30
0.0
 11
888.16399
 21
106.439953
 31
0.0
  0
LINE
  5
A2
100
AcDbEntity
  8
外形
  6
CONTINUOUS
100
AcDbLine
 10
883.163927
 20
141.424557
 30
0.0
 11
883.163927
 21
106.439953
 31
0.0
  0
DIMENSION
  5
A3
100
AcDbEntity
  8
寸法
  6
CONTINUOUS
100
AcDbDimension
  2
*D26
 10
854.25023
 20
242.435836
 30
0.0
 11
848.857751
 21
229.96156
 31
0.0
 70
    34
  3
STANDARD
100
AcDb2LineAngularDimension
 13
845.356789
 23
292.873044
 33
0.0
 14
854.25023
 24
242.435836
 34
0.0
 15
840.994739
 25
291.906001
 35
0.0
 16
857.799804
 26
227.459004
 36
0.0
1001
ACAD
1000
DSTYLE
1002
{
1070
    40
1040
1.0
1002
}
  0
LINE
  5
B4
100
AcDbEntity
  8
外形
  6
CONTINUOUS
100
AcDbLine
 10
845.322818
 20
293.065706
 30
0.0
 11
854.25023
 21
242.435836
 31
0.0
  0
LINE
  5
B5
100
AcDbEntity
  8
外形
  6
CONTINUOUS
100
AcDbLine
 10
845.322818
 20
293.065706
 30
0.0
 11
792.698448
 21
278.965049
 31
0.0
  0
ARC
  5
C1
100
AcDbEntity
  8
外形
  6
CONTINUOUS
100
AcDbCircle
 10
901.362876
 20
280.777532
 30
0.0
 40
4.0
100
AcDbArc
 50
15.0
 51
195.0
  0
LINE
  5
C2
100
AcDbEntity
  8
外形
  6
CONTINUOUS
100
AcDbLine
 10
883.163927
 20
281.243677
 30
0.0
 11
913.163927
 21
311.243677
 31
0.0
  0
DIMENSION
  5
D0
100
AcDbEntity
  8
寸法
  6
CONTINUOUS
100
AcDbDimension
  2
*D29
 10
873.163927
 20
251.243677
 30
0.0
 11
870.663927
 21
281.243677
 31
0.0
 70
    32
  3
STANDARD
100
AcDbAlignedDimension
 13
912.975697
 23
311.243677
 33
0.0
 14
887.121538
 24
251.243677
 34
0.0
 50
90.0
100
AcDbRotatedDimension
1001
ACAD
1000
DSTYLE
1002
{
1070
    40
1040
1.0
1002
}
  0
LINE
  5
DD
100
AcDbEntity
  8
外形
  6
CONTINUOUS
100
AcDbLine
 10
849.020523
 20
272.094979
 30
0.0
 11
798.188829
 21
258.474668
 31
0.0
  0
LINE
  5
DE
100
AcDbEntity
  8
外形
  6
CONTINUOUS
100
AcDbLine
 10
840.304951
 20
239.230612
 30
0.0
 11
805.821088
 21
229.990689
 31
0.0
  0
LINE
  5
DF
100
AcDbEntity
  8
外形
  6
CONTINUOUS
100
AcDbLine
 10
792.698448
 20
278.965049
 30
0.0
 11
805.821088
 21
229.990689
 31
0.0
  0
LINE
  5
E0
100
AcDbEntity
  8
外形
  6
CONTINUOUS
100
AcDbLine
 10
898.6493
 20
212.922696
 30
0.0
 11
908.593975
 21
175.808662
 31
0.0
  0
LINE
  5
E1
100
AcDbEntity
  8
外形
  6
CONTINUOUS
100
AcDbLine
 10
912.942657
 20
152.169607
 30
0.0
 11
882.493593
 21
147.74385
 31
0.0
  0
LINE
  5
F0
100
AcDbEntity
  8
外形
  6
CONTINUOUS
100
AcDbLine
 10
881.351519
 20
155.601284
 30
0.0
 11
882.455303
 21
148.007283
 31
0.0
  0
LINE
  5
F1
100
AcDbEntity
  8
外形
  6
CONTINUOUS
100
AcDbLine
 10
912.917917
 20
152.166011
 30
0.0
 11
913.831289
 21
145.882043
 31
0.0
  0
LINE
  5
F2
100
AcDbEntity
  8
外形
  6
CONTINUOUS
100
AcDbLine
 10
911.800583
 20
160.027041
 30
0.0
 11
912.942657
 21
152.169607
 31
0.0
  0
LINE
  5
F3
100
AcDbEntity
  8
寸法
  6
CONTINUOUS
100
AcDbLine
 10
887.121538
 20
251.243677
 30
0.0
 11
854.25023
 21
242.435836
 31
0.0
  0
LINE
  5
F4
100
AcDbEntity
  8
外形
  6
CONTINUOUS
100
AcDbLine
 10
835.851495
 20
264.487418
 30
0.0
 11
840.304951
 21
239.230612
 31
0.0
  0
LINE
  5
F5
100
AcDbEntity
  8
外形
  6
CONTINUOUS
100
AcDbLine
 10
842.100683
 20
265.614704
 30
0.0
 11
846.430856
 21
241.057069
 31
0.0
  0
LINE
  5
F6
100
AcDbEntity
  8
外形
  6
CONTINUOUS
100
AcDbLine
 10
840.172986
 20
239.979024
 30
0.0
 11
846.426515
 21
241.08169
 31
0.0
  0
LINE
  5
F7
100
AcDbEntity
  8
外形
  6
CONTINUOUS
100
AcDbLine
 10
846.430856
 20
241.057069
 30
0.0
 11
854.25023
 21
242.435836
 31
0.0
  0
LINE
  5
F8
100
AcDbEntity
  8
外形
  6
CONTINUOUS
100
AcDbLine
 10
842.100683
 20
265.614704
 30
0.0
 11
849.920056
 21
266.99347
 31
0.0
  0
LINE
  5
F9
100
AcDbEntity
  8
外形
  6
CONTINUOUS
100
AcDbLine
 10
835.851495
 20
264.487418
 30
0.0
 11
842.105024
 21
265.590084
 31
0.0
  0
LINE
  5
FA
100
AcDbEntity
  8
寸法
  6
CONTINUOUS
100
AcDbLine
 10
887.121538
 20
251.243677
 30
0.0
 11
894.47772
 21
223.790032
 31
0.0
  0
DIMENSION
  5
108
100
AcDbEntity
  8
寸法
  6
CONTINUOUS
100
AcDbDimension
  2
*D32
 10
883.308455
 20
267.792518
 30
0.0
 11
875.716678
 21
242.187383
 31
0.0
 70
    34
  3
STANDARD
100
AcDb2LineAngularDimension
 13
880.692063
 23
275.238805
 33
0.0
 14
887.266067
 24
250.704289
 34
0.0
 15
883.308455
 25
280.892518
 35
0.0
 16
887.874802
 26
239.577258
 36
0.0
1001
ACAD
1000
DSTYLE
1002
{
1070
    40
1040
1.0
1002
}
  0
LINE
  5
119
100
AcDbEntity
  8
外形
  6
CONTINUOUS
100
AcDbLine
 10
894.47772
 20
223.790032
 30
0.0
 11
897.323162
 21
216.377403
 31
0.0
  0
DIMENSION
  5
11A
100
AcDbEntity
  8
外形
  6
CONTINUOUS
100
AcDbDimension
  2
*D17
 10
918.190663
 20
232.892577
 30
0.0
 11
877.716348
 21
227.230637
 31
0.0
 12
2.066343
 22
-7.711697
 32
0.0
 70
    34
  3
STANDARD
100
AcDb2LineAngularDimension
 13
894.47772
 23
223.790032
 33
0.0
 14
919.012236
 24
230.364035
 34
0.0
 15
894.47772
 25
223.790032
 35
0.0
 16
876.454488
 26
217.584135
 36
0.0
1001
ACAD
1000
DSTYLE
1002
{
1070
    40
1040
1.0
1002
}
  0
LINE
  5
12B
100
AcDbEntity
  8
外形
  6
CONTINUOUS
100
AcDbLine
 10
897.346501
 20
216.386362
 30
0.0
 11
899.622138
 21
210.458126
 31
0.0
  0
LINE
  5
12E
100
AcDbEntity
  8
外形
  6
CONTINUOUS
100
AcDbLine
 10
902.908357
 20
281.191643
 30
0.0
 11
883.010285
 21
275.859971
 31
0.0
  0
LINE
  5
12F
100
AcDbEntity
  8
外形
  6
CONTINUOUS
100
AcDbLine
 10
889.584289
 20
251.325455
 30
0.0
 11
909.482361
 21
256.657127
 31
0.0
  0
CIRCLE
  5
130
100
AcDbEntity
  8
外形
  6
CONTINUOUS
100
AcDbCircle
 10
896.246323
 20
266.258549
 30
0.0
 40
6.6
  0
LINE
  5
132
100
AcDbEntity
  8
外形
  6
CONTINUOUS
100
AcDbLine
 10
881.313229
 20
272.920583
 30
0.0
 11
886.644901
 21
253.022511
 31
0.0
  0
ARC
  5
133
100
AcDbEntity
  8
外形
  6
CONTINUOUS
100
AcDbCircle
 10
888.963123
 20
253.643677
 30
0.0
 40
2.4
100
AcDbArc
 50
195.0
 51
285.0
  0
ARC
  5
136
100
AcDbEntity
  8
外形
  6
CONTINUOUS
100
AcDbCircle
 10
883.631451
 20
273.541749
 30
0.0
 40
2.4
100
AcDbArc
 50
105.0
 51
195.0
  0
LINE
  5
138
100
AcDbEntity
  8
外形
  6
CONTINUOUS
100
AcDbLine
 10
883.163927
 20
281.243677
 30
0.0
 11
883.163927
 21
275.901139
 31
0.0
  0
LINE
  5
139
100
AcDbEntity
  8
外形
  6
CONTINUOUS
100
AcDbLine
 10
911.179417
 20
259.596515
 30
0.0
 11
905.226579
 21
281.812809
 31
0.0
  0
ARC
  5
13A
100
AcDbEntity
  8
外形
  6
CONTINUOUS
100
AcDbCircle
 10
908.861195
 20
258.975349
 30
0.0
 40
2.4
100
AcDbArc
 50
285.0
 51
15.0
  0
CIRCLE
  5
13B
100
AcDbEntity
  8
外形
  6
CONTINUOUS
100
AcDbCircle
 10
914.08784
 20
279.703096
 30
0.0
 40
4.071288
  0
LWPOLYLINE
  5
13C
100
AcDbEntity
  8
外形
  6
CONTINUOUS
100
AcDbPolyline
 90
        6
 70
     1
 43
0.0
 10
912.995052
 20
277.884391
 10
915.116491
 20
277.847361
 10
916.209279
 20
279.666066
 10
915.180629
 20
281.521802
 10
913.059189
 20
281.558831
 10
911.966401
 20
279.740126
  0
LINE
  5
13D
100
AcDbEntity
  8
外形
  6
CONTINUOUS
100
AcDbLine
 10
927.163927
 20
156.439953
 30
0.0
 11
927.163927
 21
106.439953
 31
0.0
  0
LINE
  5
13E
100
AcDbEntity
  8
外形
  6
CONTINUOUS
100
AcDbLine
 10
922.458824
 20
161.576211
 30
0.0
 11
922.458824
 21
106.439953
 31
0.0
  0
LINE
  5
13F
100
AcDbEntity
  8
外形
  6
CONTINUOUS
100
AcDbLine
 10
925.662884
 20
162.04192
 30
0.0
 11
925.662884
 21
106.439953
 31
0.0
  0
DIMENSION
  5
140
100
AcDbEntity
  8
寸法
  6
CONTINUOUS
100
AcDbDimension
  2
*D33
 10
1145.121538
 20
106.439953
 30
0.0
 11
1142.621538
 21
131.439953
 31
0.0
 70
    32
  3
STANDARD
100
AcDbAlignedDimension
 13
1137.121538
 23
156.439953
 33
0.0
 14
1137.121538
 24
106.439953
 34
0.0
 50
90.0
100
AcDbRotatedDimension
1001
ACAD
1000
DSTYLE
1002
{
1070
    40
1040
1.0
1002
}
  0
LINE
  5
14D
100
AcDbEntity
  8
外形
  6
CONTINUOUS
100
AcDbLine
 10
1137.121538
 20
156.439953
 30
0.0
 11
1137.121538
 21
106.439953
 31
0.0
  0
LINE
  5
14E
100
AcDbEntity
  8
外形
  6
CONTINUOUS
100
AcDbLine
 10
927.163927
 20
156.439953
 30
0.0
 11
927.163927
 21
106.439953
 31
0.0
  0
LINE
  5
14F
100
AcDbEntity
  8
外形
100
AcDbLine
 10
1137.121903
 20
261.243677
 30
0.0
 11
922.458824
 21
261.243677
 31
0.0
  0
LINE
  5
150
100
AcDbEntity
  8
外形
  6
CONTINUOUS
100
AcDbLine
 10
1137.121538
 20
156.439953
 30
0.0
 11
927.163927
 21
156.439953
 31
0.0
  0
LINE
  5
151
100
AcDbEntity
  8
外形
  6
CONTINUOUS
100
AcDbLine
 10
927.163927
 20
261.243677
 30
0.0
 11
925.662884
 21
311.243677
 31
0.0
  0
LINE
  5
152
100
AcDbEntity
  8
外形
  6
CONTINUOUS
100
AcDbLine
 10
927.163927
 20
311.243677
 30
0.0
 11
927.163927
 21
261.243677
 31
0.0
  0
LINE
  5
153
100
AcDbEntity
  8
外形
  6
CONTINUOUS
100
AcDbLine
 10
928.948926
 20
237.022288
 30
0.0
 11
942.888809
 21
184.997935
 31
0.0
  0
LINE
  5
154
100
AcDbEntity
  8
外形
  6
CONTINUOUS
100
AcDbLine
 10
927.163927
 20
156.439953
 30
0.0
 11
925.662884
 21
162.04192
 31
0.0
  0
LINE
  5
155
100
AcDbEntity
  8
外形
  6
CONTINUOUS
100
AcDbLine
 10
921.143383
 20
225.521129
 30
0.0
 11
923.419019
 21
219.592893
 31
0.0
  0
LINE
  5
156
100
AcDbEntity
  8
外形
100
AcDbLine
 10
1137.121903
 20
311.243677
 30
0.0
 11
1137.121903
 21
261.243677
 31
0.0
  0
DIMENSION
  5
157
100
AcDbEntity
  8
寸法
  6
CONTINUOUS
100
AcDbDimension
  2
*D34
 10
1145.121903
 20
261.243677
 30
0.0
 11
1142.621903
 21
286.243677
 31
0.0
 70
    32
  3
STANDARD
100
AcDbAlignedDimension
 13
1137.121903
 23
311.243677
 33
0.0
 14
1137.121903
 24
261.243677
 34
0.0
 50
90.0
100
AcDbRotatedDimension
1001
ACAD
1000
DSTYLE
1002
{
1070
    40
1040
1.0
1002
}
  0
ARC
  5
17E
100
AcDbEntity
  8
外形
  6
CONTINUOUS
100
AcDbCircle
 10
903.529523
 20
278.873421
 30
0.0
 40
2.4
100
AcDbArc
 50
15.0
 51
105.0
  0
ENDSEC
  0
SECTION
  2
OBJECTS
  0
DICTIONARY
  5
1E
102
{ACAD_XDICTIONARY
360
1F
102
}
100
AcDbDictionary
  3
ACAD_GROUP
350
1C
  3
ACAD_MLINESTYLE
350
1D
  0
DICTIONARY
  5
3E
100
AcDbDictionary
280
     1
  3
ACAD_XREC_ROUNDTRIP
360
3F
  0
DICTIONARY
  5
24
100
AcDbDictionary
280
     1
  3
ACAD_XREC_ROUNDTRIP
360
25
  0
DICTIONARY
  5
3
100
AcDbDictionary
280
     1
  3
ACAD_LAYOUTSELFREF
360
4
  0
DICTIONARY
  5
A
100
AcDbDictionary
280
     1
  3
ACAD_LAYOUTSELFREF
360
B
  0
DICTIONARY
  5
1F
100
AcDbDictionary
280
     1
  3
ACAD_XREC_ROUNDTRIP
360
20
  0
DICTIONARY
  5
1C
102
{ACAD_REACTORS
330
1E
102
}
100
AcDbDictionary
  0
DICTIONARY
  5
1D
102
{ACAD_REACTORS
330
1E
102
}
100
AcDbDictionary
  3
STANDARD
350
22
  0
XRECORD
  5
3F
102
{ACAD_REACTORS
330
3E
102
}
100
AcDbXrecord
102
PLOTBIT
280
     0
  0
XRECORD
  5
25
102
{ACAD_REACTORS
330
24
102
}
100
AcDbXrecord
102
ACADR14ROUNDTRIP
1000
DSTYLE
1002
{
1070
   341
340
0
1070
   343
340
0
1070
   344
340
0
1002
}
  0
XRECORD
  5
4
102
{ACAD_REACTORS
330
3
102
}
100
AcDbXrecord
340
2
  0
XRECORD
  5
B
102
{ACAD_REACTORS
330
A
102
}
100
AcDbXrecord
340
9
  0
XRECORD
  5
20
102
{ACAD_REACTORS
330
1F
102
}
100
AcDbXrecord
102
EXTNAMES
  1
ACDBVARIABLEDICTIONARY
  2
AcDbVariableDictionary
  1
ACMDICTIONARY
  2
AcmDictionary
  1
ACMESYSVARMANAGER
  2
AcmeSysVarManager
  0
MLINESTYLE
  5
22
102
{ACAD_REACTORS
330
1D
102
}
100
AcDbMlineStyle
  2
STANDARD
 70
     0
  3

 62
     0
 51
90.0
 52
90.0
 71
     2
 49
0.5
 62
   256
  6
BYLAYER
 49
-0.5
 62
   256
  6
BYLAYER
  0
ENDSEC
  0
EOF
