  0
SECTION
  2
HEADER
  9
$ACADVER
  1
AC1014
  9
$ACADMAINTVER
 70
     0
  9
$DWGCODEPAGE
  3
ANSI_932
  9
$INSBASE
 10
15.0
 20
15.0
 30
0.0
  9
$EXTMIN
 10
23.87982
 20
27.393712
 30
0.0
  9
$EXTMAX
 10
249.612323
 20
193.935249
 30
0.0
  9
$LIMMIN
 10
0.0
 20
0.0
  9
$LIMMAX
 10
1188.0
 20
630.0
  9
$ORTHOMODE
 70
     1
  9
$REGENMODE
 70
     1
  9
$FILLMODE
 70
     1
  9
$QTEXTMODE
 70
     0
  9
$MIRRTEXT
 70
     1
  9
$DRAGMODE
 70
     2
  9
$LTSCALE
 40
5.0
  9
$OSMODE
 70
    45
  9
$ATTMODE
 70
     1
  9
$TEXTSIZE
 40
4.0
  9
$TRACEWID
 40
0.05
  9
$TEXTSTYLE
  7
STANDARD
  9
$CLAYER
  8
外形
  9
$CELTYPE
  6
CONTINUOUS
  9
$CECOLOR
 62
   256
  9
$CELTSCALE
 40
1.0
  9
$DELOBJ
 70
     1
  9
$DISPSILH
 70
     0
  9
$DIMSCALE
 40
0.0
  9
$DIMASZ
 40
2.0
  9
$DIMEXO
 40
1.0
  9
$DIMDLI
 40
8.0
  9
$DIMRND
 40
0.0
  9
$DIMDLE
 40
0.0
  9
$DIMEXE
 40
1.5
  9
$DIMTP
 40
0.0
  9
$DIMTM
 40
0.0
  9
$DIMTXT
 40
3.0
  9
$DIMCEN
 40
-1.0
  9
$DIMTSZ
 40
0.0
  9
$DIMTOL
 70
     0
  9
$DIMLIM
 70
     0
  9
$DIMTIH
 70
     0
  9
$DIMTOH
 70
     0
  9
$DIMSE1
 70
     0
  9
$DIMSE2
 70
     0
  9
$DIMTAD
 70
     1
  9
$DIMZIN
 70
     8
  9
$DIMBLK
  1

  9
$DIMASO
 70
     1
  9
$DIMSHO
 70
     1
  9
$DIMPOST
  1

  9
$DIMAPOST
  1

  9
$DIMALT
 70
     0
  9
$DIMALTD
 70
     2
  9
$DIMALTF
 40
25.4
  9
$DIMLFAC
 40
1.0
  9
$DIMTOFL
 70
     1
  9
$DIMTVP
 40
0.0
  9
$DIMTIX
 70
     0
  9
$DIMSOXD
 70
     0
  9
$DIMSAH
 70
     1
  9
$DIMBLK1
  1
_OPEN30
  9
$DIMBLK2
  1
_OPEN30
  9
$DIMSTYLE
  2
STANDARD
  9
$DIMCLRD
 70
     1
  9
$DIMCLRE
 70
     1
  9
$DIMCLRT
 70
     3
  9
$DIMTFAC
 40
1.0
  9
$DIMGAP
 40
1.0
  9
$DIMJUST
 70
     0
  9
$DIMSD1
 70
     0
  9
$DIMSD2
 70
     0
  9
$DIMTOLJ
 70
     1
  9
$DIMTZIN
 70
     8
  9
$DIMALTZ
 70
     0
  9
$DIMALTTZ
 70
     0
  9
$DIMFIT
 70
     3
  9
$DIMUPT
 70
     0
  9
$DIMUNIT
 70
     2
  9
$DIMDEC
 70
     3
  9
$DIMTDEC
 70
     2
  9
$DIMALTU
 70
     2
  9
$DIMALTTD
 70
     2
  9
$DIMTXSTY
  7
STANDARD
  9
$DIMAUNIT
 70
     0
  9
$LUNITS
 70
     2
  9
$LUPREC
 70
     2
  9
$SKETCHINC
 40
0.1
  9
$FILLETRAD
 40
2.4
  9
$AUNITS
 70
     0
  9
$AUPREC
 70
     2
  9
$MENU
  1
acad
  9
$ELEVATION
 40
0.0
  9
$PELEVATION
 40
0.0
  9
$THICKNESS
 40
0.0
  9
$LIMCHECK
 70
     0
  9
$BLIPMODE
 70
     0
  9
$CHAMFERA
 40
0.0
  9
$CHAMFERB
 40
0.0
  9
$CHAMFERC
 40
0.0
  9
$CHAMFERD
 40
0.0
  9
$SKPOLY
 70
     0
  9
$TDCREATE
 40
2450751.535399305
  9
$TDUPDATE
 40
2451930.402303240
  9
$TDINDWG
 40
2.3610207870
  9
$TDUSRTIMER
 40
2.3610207870
  9
$USRTIMER
 70
     1
  9
$ANGBASE
 50
0.0
  9
$ANGDIR
 70
     0
  9
$PDMODE
 70
     0
  9
$PDSIZE
 40
0.0
  9
$PLINEWID
 40
0.0
  9
$COORDS
 70
     0
  9
$SPLFRAME
 70
     0
  9
$SPLINETYPE
 70
     5
  9
$SPLINESEGS
 70
     8
  9
$ATTDIA
 70
     1
  9
$ATTREQ
 70
     1
  9
$HANDLING
 70
     1
  9
$HANDSEED
  5
2A6
  9
$SURFTAB1
 70
     6
  9
$SURFTAB2
 70
     6
  9
$SURFTYPE
 70
     6
  9
$SURFU
 70
     6
  9
$SURFV
 70
     6
  9
$UCSNAME
  2

  9
$UCSORG
 10
0.0
 20
0.0
 30
0.0
  9
$UCSXDIR
 10
1.0
 20
0.0
 30
0.0
  9
$UCSYDIR
 10
0.0
 20
1.0
 30
0.0
  9
$PUCSNAME
  2

  9
$PUCSORG
 10
0.0
 20
0.0
 30
0.0
  9
$PUCSXDIR
 10
1.0
 20
0.0
 30
0.0
  9
$PUCSYDIR
 10
0.0
 20
1.0
 30
0.0
  9
$USERI1
 70
     0
  9
$USERI2
 70
     0
  9
$USERI3
 70
     0
  9
$USERI4
 70
     0
  9
$USERI5
 70
     0
  9
$USERR1
 40
0.0
  9
$USERR2
 40
0.0
  9
$USERR3
 40
0.0
  9
$USERR4
 40
0.0
  9
$USERR5
 40
0.0
  9
$WORLDVIEW
 70
     1
  9
$SHADEDGE
 70
     3
  9
$SHADEDIF
 70
    70
  9
$TILEMODE
 70
     1
  9
$MAXACTVP
 70
    16
  9
$PINSBASE
 10
0.0
 20
0.0
 30
0.0
  9
$PLIMCHECK
 70
     0
  9
$PEXTMIN
 10
0.0
 20
0.0
 30
0.0
  9
$PEXTMAX
 10
0.0
 20
0.0
 30
0.0
  9
$PLIMMIN
 10
0.0
 20
0.0
  9
$PLIMMAX
 10
0.0
 20
0.0
  9
$UNITMODE
 70
     0
  9
$VISRETAIN
 70
     0
  9
$PLINEGEN
 70
     0
  9
$PSLTSCALE
 70
     1
  9
$TREEDEPTH
 70
  3020
  9
$PICKSTYLE
 70
     1
  9
$CMLSTYLE
  2
STANDARD
  9
$CMLJUST
 70
     0
  9
$CMLSCALE
 40
1.0
  9
$PROXYGRAPHICS
 70
     1
  9
$MEASUREMENT
 70
     0
  0
ENDSEC
  0
SECTION
  2
CLASSES
  0
CLASS
  1
LWPOLYLINE
  2
AcDbPolyline
  3
"AutoCAD"
 90
        0
280
     0
281
     1
  0
CLASS
  1
ACDBDICTIONARYWDFLT
  2
AcDbDictionaryWithDefault
  3
AutoCAD 2000
 90
        0
280
     1
281
     0
  0
CLASS
  1
ACDBPLACEHOLDER
  2
AcDbPlaceHolder
  3
AutoCAD 2000
 90
        0
280
     1
281
     0
  0
CLASS
  1
LAYOUT
  2
AcDbLayout
  3
AutoCAD 2000
 90
        0
280
     1
281
     0
  0
CLASS
  1
LONG_TRANSACTION
  2
AcDbLongTransaction
  3
AutoCAD 2000
 90
        0
280
     1
281
     0
  0
CLASS
  1
LWPOLYLINE
  2
AcDbPolyline
  3
"AutoCAD"
 90
        0
280
     0
281
     1
  0
CLASS
  1
HATCH
  2
AcDbHatch
  3
"ACAD_SEDONA"
 90
        0
280
     0
281
     1
  0
CLASS
  1
XRECORD
  2
AcDbXrecord
  3
"<Built In>"
 90
        0
280
     0
281
     0
  0
CLASS
  1
ACME_DOCUMENT
  2
AcMeDbDoc
  3
AcMeServices
 90
        0
280
     1
281
     0
  0
CLASS
  1
ACMESCOPE
  2
AcMeScope
  3
AcMeServices
 90
        0
280
     1
281
     0
  0
CLASS
  1
ACMECOMMANDHISTORY
  2
AcMeCommandHistory
  3
AcMeServices
 90
        0
280
     1
281
     0
  0
CLASS
  1
DICTIONARYVAR
  2
AcDbDictionaryVar
  3
"AutoCAD"
 90
        0
280
     0
281
     0
  0
CLASS
  1
ACIMSYSVARMAN
  2
AcImSysVarManager
  3
AcMeServices
 90
        0
280
     1
281
     0
  0
CLASS
  1
ACIMREALSYSVAR
  2
AcImRealSysVar
  3
AcMeServices
 90
        0
280
     1
281
     0
  0
CLASS
  1
ACIMINTSYSVAR
  2
AcImIntSysVar
  3
AcMeServices
 90
        0
280
     1
281
     0
  0
CLASS
  1
ACMEDRAWINGMAN
  2
AcMeDrawingMan
  3
AcMeServices
 90
        0
280
     1
281
     0
  0
CLASS
  1
ACMEVIEW
  2
AcMeView
  3
AcMeServices
 90
        0
280
     1
281
     0
  0
CLASS
  1
ACDBENTITYCACHE
  2
AcMeEntityCache
  3
AcMeServices
 90
        0
280
     1
281
     0
  0
CLASS
  1
GSMANAGER
  2
AcMeGSManager
  3
AcMeServices
 90
        0
280
     1
281
     0
  0
CLASS
  1
AmdtInternalReactor
  2
AmdtInternalReactor
  3
AcMeServices
 90
        0
280
     1
281
     0
  0
CLASS
  1
ACMESTATEMGR
  2
AcMeStateMgr
  3
AcMeServices
 90
        0
280
     1
281
     0
  0
CLASS
  1
ACME_DATABASE
  2
AcMeDbDatabase
  3
AcMeServices
 90
        0
280
     1
281
     0
  0
CLASS
  1
ACRFINSADJUSTERMGR
  2
AcRfInsAdjusterMgr
  3
AcMeServices
 90
        0
280
     1
281
     0
  0
CLASS
  1
AMGSETTINGSOBJ
  2
AmgSettingsObj
  3
"AcadM|Product Description: AutoCAD Mechanical 2000|Company: Autodesk"
 90
        0
280
     1
281
     0
  0
CLASS
  1
ACMDATADICTIONARY
  2
AcmDataDictionary
  3
"AcmSymBB|Product Description: AutoCAD Mechanical 2000|Company: Autodesk"
 90
        0
280
     1
281
     0
  0
CLASS
  1
ACMDATAENTRYBLOCK
  2
AcmDataEntryBlock
  3
"AcmSymBB|Product Description: AutoCAD Mechanical 2000|Company: Autodesk"
 90
        0
280
     1
281
     0
  0
CLASS
  1
AMGOBJPROPCFG
  2
AmgObjPropCfg
  3
"AmgLay|Product Description: AutoCAD Mechanical 2000|Company: Autodesk"
 90
        1
280
     1
281
     0
  0
CLASS
  1
LAYER_INDEX
  2
AcDbLayerIndex
  3
"Acad"
 90
        0
280
     0
281
     0
  0
CLASS
  1
IDBUFFER
  2
AcDbIdBuffer
  3
"Acad"
 90
        0
280
     0
281
     0
  0
CLASS
  1
LONG_TRANSACTION
  2
AcDbLongTransaction
  3
AutoCAD 2000
 90
        0
280
     1
281
     0
  0
CLASS
  1
LWPOLYLINE
  2
AcDbPolyline
  3
"AutoCAD"
 90
        0
280
     0
281
     1
  0
CLASS
  1
HATCH
  2
AcDbHatch
  3
"ACAD_SEDONA"
 90
        0
280
     0
281
     1
  0
CLASS
  1
XRECORD
  2
AcDbXrecord
  3
"<Built In>"
 90
        0
280
     0
281
     0
  0
ENDSEC
  0
SECTION
  2
TABLES
  0
TABLE
  2
VPORT
  5
16
100
AcDbSymbolTable
 70
     1
  0
VPORT
  5
2A1
100
AcDbSymbolTableRecord
100
AcDbViewportTableRecord
  2
*ACTIVE
 70
     0
 10
0.0
 20
0.0
 11
1.0
 21
1.0
 12
137.221861
 22
109.282195
 13
0.0
 23
0.0
 14
0.5
 24
0.5
 15
10.0
 25
10.0
 16
0.0
 26
0.0
 36
1.0
 17
0.0
 27
0.0
 37
0.0
 40
176.566174
 41
1.710425
 42
50.0
 43
0.0
 44
0.0
 50
0.0
 51
0.0
 71
     0
 72
   100
 73
     1
 74
     1
 75
     0
 76
     0
 77
     0
 78
     0
  0
ENDTAB
  0
TABLE
  2
LTYPE
  5
11
100
AcDbSymbolTable
 70
     1
  0
LTYPE
  5
12
100
AcDbSymbolTableRecord
100
AcDbLinetypeTableRecord
  2
BYBLOCK
 70
     0
  3

 72
    65
 73
     0
 40
0.0
  0
LTYPE
  5
13
100
AcDbSymbolTableRecord
100
AcDbLinetypeTableRecord
  2
BYLAYER
 70
     0
  3

 72
    65
 73
     0
 40
0.0
  0
LTYPE
  5
7
100
AcDbSymbolTableRecord
100
AcDbLinetypeTableRecord
  2
CONTINUOUS
 70
     0
  3
Solid line
 72
    65
 73
     0
 40
0.0
  0
ENDTAB
  0
TABLE
  2
LAYER
  5
E
100
AcDbSymbolTable
 70
     4
  0
LAYER
  5
6
100
AcDbSymbolTableRecord
100
AcDbLayerTableRecord
  2
0
 70
     0
 62
     7
  6
CONTINUOUS
  0
LAYER
  5
2E
100
AcDbSymbolTableRecord
100
AcDbLayerTableRecord
  2
外形
 70
     0
 62
     3
  6
CONTINUOUS
  0
LAYER
  5
3A
102
{ACAD_XDICTIONARY
360
3B
102
}
100
AcDbSymbolTableRecord
100
AcDbLayerTableRecord
  2
DEFPOINTS
 70
     0
 62
     7
  6
CONTINUOUS
  0
LAYER
  5
31
100
AcDbSymbolTableRecord
100
AcDbLayerTableRecord
  2
寸法
 70
     0
 62
     1
  6
CONTINUOUS
  0
ENDTAB
  0
TABLE
  2
STYLE
  5
F
100
AcDbSymbolTable
 70
     1
  0
STYLE
  5
10
100
AcDbSymbolTableRecord
100
AcDbTextStyleTableRecord
  2
STANDARD
 70
     0
 40
0.0
 41
1.0
 50
0.0
 71
     0
 42
4.0
  3
MONOTXT
  4
BIGFONT
  0
ENDTAB
  0
TABLE
  2
VIEW
  5
14
100
AcDbSymbolTable
 70
     0
  0
ENDTAB
  0
TABLE
  2
UCS
  5
15
100
AcDbSymbolTable
 70
     0
  0
ENDTAB
  0
TABLE
  2
APPID
  5
18
100
AcDbSymbolTable
 70
     1
  0
APPID
  5
19
100
AcDbSymbolTableRecord
100
AcDbRegAppTableRecord
  2
ACAD
 70
     0
  0
ENDTAB
  0
TABLE
  2
DIMSTYLE
  5
1A
100
AcDbSymbolTable
 70
     1
  0
DIMSTYLE
105
23
102
{ACAD_XDICTIONARY
360
24
102
}
102
{ACAD_REACTORS
330
7C
330
30
330
60
330
147
330
124
330
111
330
D7
330
42
102
}
100
AcDbSymbolTableRecord
100
AcDbDimStyleTableRecord
  2
STANDARD
 70
     0
  3

  4

  5

  6
_OPEN30
  7
_OPEN30
 40
0.0
 41
2.0
 42
1.0
 43
8.0
 44
1.5
 45
0.0
 46
0.0
 47
0.0
 48
0.0
140
3.0
141
-1.0
142
0.0
143
25.4
144
1.0
145
0.0
146
1.0
147
1.0
 71
     0
 72
     0
 73
     0
 74
     0
 75
     0
 76
     0
 77
     1
 78
     8
170
     0
171
     2
172
     1
173
     1
174
     0
175
     0
176
     1
177
     1
178
     3
270
     2
271
     3
272
     2
273
     2
274
     2
340
10
275
     0
280
     0
281
     0
282
     0
283
     1
284
     8
285
     0
286
     0
287
     3
288
     0
  0
ENDTAB
  0
TABLE
  2
BLOCK_RECORD
  5
1
100
AcDbSymbolTable
 70
    12
  0
BLOCK_RECORD
  5
2
102
{ACAD_XDICTIONARY
360
3
102
}
100
AcDbSymbolTableRecord
100
AcDbBlockTableRecord
  2
*MODEL_SPACE
  0
BLOCK_RECORD
  5
9
102
{ACAD_XDICTIONARY
360
A
102
}
100
AcDbSymbolTableRecord
100
AcDbBlockTableRecord
  2
*PAPER_SPACE
  0
BLOCK_RECORD
  5
26
100
AcDbSymbolTableRecord
100
AcDbBlockTableRecord
  2
_DOTSMALL
  0
BLOCK_RECORD
  5
158
100
AcDbSymbolTableRecord
100
AcDbBlockTableRecord
  2
*D1
  0
BLOCK_RECORD
  5
168
100
AcDbSymbolTableRecord
100
AcDbBlockTableRecord
  2
A$C67F24B59
  0
BLOCK_RECORD
  5
177
100
AcDbSymbolTableRecord
100
AcDbBlockTableRecord
  2
_OPEN30
  0
BLOCK_RECORD
  5
17D
100
AcDbSymbolTableRecord
100
AcDbBlockTableRecord
  2
*D4
  0
BLOCK_RECORD
  5
189
100
AcDbSymbolTableRecord
100
AcDbBlockTableRecord
  2
*D5
  0
BLOCK_RECORD
  5
1A6
100
AcDbSymbolTableRecord
100
AcDbBlockTableRecord
  2
*D6
  0
BLOCK_RECORD
  5
1C0
100
AcDbSymbolTableRecord
100
AcDbBlockTableRecord
  2
*D7
  0
BLOCK_RECORD
  5
1F8
100
AcDbSymbolTableRecord
100
AcDbBlockTableRecord
  2
*D8
  0
BLOCK_RECORD
  5
223
100
AcDbSymbolTableRecord
100
AcDbBlockTableRecord
  2
*D9
  0
BLOCK_RECORD
  5
22F
100
AcDbSymbolTableRecord
100
AcDbBlockTableRecord
  2
*D10
  0
BLOCK_RECORD
  5
249
100
AcDbSymbolTableRecord
100
AcDbBlockTableRecord
  2
*D11
  0
ENDTAB
  0
ENDSEC
  0
SECTION
  2
BLOCKS
  0
BLOCK
  5
5
100
AcDbEntity
  8
0
100
AcDbBlockBegin
  2
*MODEL_SPACE
 70
     0
 10
0.0
 20
0.0
 30
0.0
  3
*MODEL_SPACE
  1

  0
ENDBLK
  5
8
100
AcDbEntity
  8
0
100
AcDbBlockEnd
  0
BLOCK
  5
C
100
AcDbEntity
 67
     1
  8
0
100
AcDbBlockBegin
  2
*PAPER_SPACE
 70
     0
 10
0.0
 20
0.0
 30
0.0
  3
*PAPER_SPACE
  1

  0
ENDBLK
  5
D
100
AcDbEntity
 67
     1
  8
0
100
AcDbBlockEnd
  0
BLOCK
  5
2B
100
AcDbEntity
  8
0
100
AcDbBlockBegin
  2
_DOTSMALL
 70
     0
 10
0.0
 20
0.0
 30
0.0
  3
_DOTSMALL
  1

  0
POLYLINE
  5
27
100
AcDbEntity
  8
0
  6
BYBLOCK
 62
     0
100
AcDb2dPolyline
 66
     1
 10
0.0
 20
0.0
 30
0.0
 70
     1
 40
0.5
 41
0.5
  0
VERTEX
  5
28
100
AcDbEntity
  8
0
  6
BYBLOCK
 62
     0
100
AcDbVertex
100
AcDb2dVertex
 10
-0.0625
 20
0.0
 30
0.0
 42
1.0
  0
VERTEX
  5
29
100
AcDbEntity
  8
0
  6
BYBLOCK
 62
     0
100
AcDbVertex
100
AcDb2dVertex
 10
0.0625
 20
0.0
 30
0.0
 42
1.0
  0
SEQEND
  5
2A
100
AcDbEntity
  8
0
  6
BYBLOCK
 62
     0
  0
ENDBLK
  5
2C
100
AcDbEntity
  8
0
100
AcDbBlockEnd
  0
BLOCK
  5
166
100
AcDbEntity
  8
0
100
AcDbBlockBegin
  2
*D1
 70
     1
 10
0.0
 20
0.0
 30
0.0
  3
*D1
  1

  0
LINE
  5
159
100
AcDbEntity
  8
0
  6
BYBLOCK
 62
     1
100
AcDbLine
 10
80.58157
 20
536.886463
 30
0.0
 11
69.723819
 21
547.744214
 31
0.0
  0
LINE
  5
15A
100
AcDbEntity
  8
0
  6
BYBLOCK
 62
     1
100
AcDbLine
 10
79.524988
 20
537.122438
 30
0.0
 11
66.865954
 21
543.891485
 31
0.0
  0
ARC
  5
15B
100
AcDbEntity
  8
0
  6
BYBLOCK
 62
     1
100
AcDbCircle
 10
81.288677
 20
536.179357
 30
0.0
 40
14.855179
100
AcDbArc
 50
125.346193
 51
135.0
  0
LINE
  5
15C
100
AcDbEntity
  8
0
  6
BYBLOCK
 62
     1
100
AcDbLine
 10
72.694727
 20
548.296302
 30
0.0
 11
79.709501
 21
553.271534
 31
0.0
  0
ARC
  5
15D
100
AcDbEntity
  8
0
  6
BYBLOCK
 62
     1
100
AcDbCircle
 10
81.288677
 20
536.179357
 30
0.0
 40
14.855179
100
AcDbArc
 50
135.0
 51
151.865661
  0
INSERT
  5
15E
100
AcDbEntity
  8
0
  6
BYBLOCK
 62
     1
100
AcDbBlockReference
  2
_DOTSMALL
 10
70.784479
 20
546.683554
 30
0.0
 41
2.5
 42
2.5
 43
2.5
 50
45.0
  0
INSERT
  5
15F
100
AcDbEntity
  8
0
  6
BYBLOCK
 62
     1
100
AcDbBlockReference
  2
_DOTSMALL
 10
68.188721
 20
543.184175
 30
0.0
 41
2.5
 42
2.5
 43
2.5
 50
241.865661
  0
MTEXT
  5
160
100
AcDbEntity
  8
0
  6
BYBLOCK
 62
     3
100
AcDbMText
 10
74.755826
 20
552.823097
 30
0.0
 40
3.0
 41
0.0
 71
     5
 72
     1
  1
\A1;0°
 11
0.815671
 21
0.578515
 31
0.0
  0
POINT
  5
161
100
AcDbEntity
  8
DEFPOINTS
  6
BYBLOCK
 62
     0
100
AcDbPoint
 10
68.937944
 20
544.433794
 30
0.0
  0
POINT
  5
162
100
AcDbEntity
  8
DEFPOINTS
  6
BYBLOCK
 62
     0
100
AcDbPoint
 10
81.288677
 20
536.179357
 30
0.0
  0
POINT
  5
163
100
AcDbEntity
  8
DEFPOINTS
  6
BYBLOCK
 62
     0
100
AcDbPoint
 10
94.602575
 20
522.865458
 30
0.0
  0
POINT
  5
164
100
AcDbEntity
  8
DEFPOINTS
  6
BYBLOCK
 62
     0
100
AcDbPoint
 10
81.288677
 20
536.179357
 30
0.0
  0
POINT
  5
165
100
AcDbEntity
  8
DEFPOINTS
  6
BYBLOCK
 62
     0
100
AcDbPoint
 10
80.406833
 20
536.650897
 30
0.0
  0
ENDBLK
  5
167
100
AcDbEntity
  8
0
100
AcDbBlockEnd
  0
BLOCK
  5
16A
100
AcDbEntity
  8
0
100
AcDbBlockBegin
  2
A$C67F24B59
 70
     0
 10
0.0
 20
0.0
 30
0.0
  3
A$C67F24B59
  1

  0
DIMENSION
  5
169
100
AcDbEntity
  8
寸法
  6
CONTINUOUS
100
AcDbDimension
  2
*D1
 10
13.540879
 20
13.785438
 30
0.0
 11
7.889872
 21
29.957637
 31
0.0
 12
-66.865953
 22
-522.865459
 32
0.0
 70
     2
  1
0%%d
  3
STANDARD
100
AcDb2LineAngularDimension
 13
27.736622
 23
-0.000001
 33
0.0
 14
14.422724
 24
13.313897
 34
0.0
 15
14.422724
 25
13.313897
 35
0.0
 16
2.071991
 26
21.568335
 36
0.0
1001
ACAD
1000
DSTYLE
1002
{
1070
    40
1040
1.0
1002
}
  0
ENDBLK
  5
16B
100
AcDbEntity
  8
0
100
AcDbBlockEnd
  0
BLOCK
  5
178
100
AcDbEntity
  8
0
100
AcDbBlockBegin
  2
_OPEN30
 70
     0
 10
0.0
 20
0.0
 30
0.0
  3
_OPEN30
  1

  0
LINE
  5
179
100
AcDbEntity
  8
0
  6
BYBLOCK
 62
     0
100
AcDbLine
 10
-1.0
 20
0.267949
 30
0.0
 11
0.0
 21
0.0
 31
0.0
  0
LINE
  5
17A
100
AcDbEntity
  8
0
  6
BYBLOCK
 62
     0
100
AcDbLine
 10
0.0
 20
0.0
 30
0.0
 11
-1.0
 21
-0.267949
 31
0.0
  0
LINE
  5
17B
100
AcDbEntity
  8
0
  6
BYBLOCK
 62
     0
100
AcDbLine
 10
0.0
 20
0.0
 30
0.0
 11
-1.0
 21
0.0
 31
0.0
  0
ENDBLK
  5
17C
100
AcDbEntity
  8
0
100
AcDbBlockEnd
  0
BLOCK
  5
262
100
AcDbEntity
  8
0
100
AcDbBlockBegin
  2
*D4
 70
     1
 10
0.0
 20
0.0
 30
0.0
  3
*D4
  1

  0
LINE
  5
263
100
AcDbEntity
  8
0
  6
BYBLOCK
 62
     1
100
AcDbLine
 10
90.112323
 20
126.46734
 30
0.0
 11
90.112323
 21
95.239839
 31
0.0
  0
LINE
  5
264
100
AcDbEntity
  8
0
  6
BYBLOCK
 62
     1
100
AcDbLine
 10
240.112323
 20
124.81734
 30
0.0
 11
240.112323
 21
95.239839
 31
0.0
  0
LINE
  5
265
100
AcDbEntity
  8
0
  6
BYBLOCK
 62
     1
100
AcDbLine
 10
92.112323
 20
96.739839
 30
0.0
 11
238.112323
 21
96.739839
 31
0.0
  0
INSERT
  5
266
100
AcDbEntity
  8
0
  6
BYBLOCK
 62
     1
100
AcDbBlockReference
  2
_OPEN30
 10
90.112323
 20
96.739839
 30
0.0
 41
2.0
 42
2.0
 43
2.0
 50
180.0
  0
INSERT
  5
267
100
AcDbEntity
  8
0
  6
BYBLOCK
 62
     1
100
AcDbBlockReference
  2
_OPEN30
 10
240.112323
 20
96.739839
 30
0.0
 41
2.0
 42
2.0
 43
2.0
  0
MTEXT
  5
268
100
AcDbEntity
  8
0
  6
BYBLOCK
 62
     3
100
AcDbMText
 10
165.112323
 20
99.239839
 30
0.0
 40
3.0
 41
0.0
 71
     5
 72
     1
  1
\A1;150
  0
POINT
  5
269
100
AcDbEntity
  8
DEFPOINTS
  6
BYBLOCK
 62
     0
100
AcDbPoint
 10
90.112323
 20
127.46734
 30
0.0
  0
POINT
  5
26A
100
AcDbEntity
  8
DEFPOINTS
  6
BYBLOCK
 62
     0
100
AcDbPoint
 10
240.112323
 20
125.81734
 30
0.0
  0
POINT
  5
26B
100
AcDbEntity
  8
DEFPOINTS
  6
BYBLOCK
 62
     0
100
AcDbPoint
 10
240.112323
 20
96.739839
 30
0.0
  0
ENDBLK
  5
26C
100
AcDbEntity
  8
0
100
AcDbBlockEnd
  0
BLOCK
  5
18A
100
AcDbEntity
  8
0
100
AcDbBlockBegin
  2
*D5
 70
     1
 10
0.0
 20
0.0
 30
0.0
  3
*D5
  1

  0
LINE
  5
18B
100
AcDbEntity
  8
0
  6
BYBLOCK
 62
     1
100
AcDbLine
 10
64.042078
 20
151.805764
 30
0.0
 11
53.098777
 21
143.559396
 31
0.0
  0
LINE
  5
18C
100
AcDbEntity
  8
0
  6
BYBLOCK
 62
     1
100
AcDbLine
 10
64.133606
 20
151.700473
 30
0.0
 11
54.444478
 21
142.011344
 31
0.0
  0
ARC
  5
18D
100
AcDbEntity
  8
0
  6
BYBLOCK
 62
     1
100
AcDbCircle
 10
64.840713
 20
152.407579
 30
0.0
 40
13.202497
100
AcDbArc
 50
199.573838
 51
217.0
  0
LINE
  5
18E
100
AcDbEntity
  8
0
  6
BYBLOCK
 62
     1
100
AcDbLine
 10
52.401181
 20
147.98446
 30
0.0
 11
49.519997
 21
156.087471
 31
0.0
  0
ARC
  5
18F
100
AcDbEntity
  8
0
  6
BYBLOCK
 62
     1
100
AcDbCircle
 10
64.840713
 20
152.407579
 30
0.0
 40
13.202497
100
AcDbArc
 50
199.624285
 51
208.312143
  0
ARC
  5
190
100
AcDbEntity
  8
0
  6
BYBLOCK
 62
     1
100
AcDbCircle
 10
64.840713
 20
152.407579
 30
0.0
 40
13.202497
100
AcDbArc
 50
233.687857
 51
242.375715
  0
ARC
  5
191
100
AcDbEntity
  8
0
  6
BYBLOCK
 62
     1
100
AcDbCircle
 10
64.840713
 20
152.407579
 30
0.0
 40
13.202497
100
AcDbArc
 50
217.0
 51
225.0
  0
INSERT
  5
192
100
AcDbEntity
  8
0
  6
BYBLOCK
 62
     1
100
AcDbBlockReference
  2
_OPEN30
 10
54.29673
 20
144.462118
 30
0.0
 41
2.0
 42
2.0
 43
2.0
 50
302.656071
  0
INSERT
  5
193
100
AcDbEntity
  8
0
  6
BYBLOCK
 62
     1
100
AcDbBlockReference
  2
_OPEN30
 10
55.505138
 20
143.072004
 30
0.0
 41
2.0
 42
2.0
 43
2.0
 50
139.343929
  0
MTEXT
  5
194
100
AcDbEntity
  8
0
  6
BYBLOCK
 62
     3
100
AcDbMText
 10
53.316116
 20
152.873519
 30
0.0
 40
3.0
 41
0.0
 71
     5
 72
     1
  1
\A1;8°
 11
0.335021
 21
-0.942211
 31
0.0
  0
POINT
  5
195
100
AcDbEntity
  8
DEFPOINTS
  6
BYBLOCK
 62
     0
100
AcDbPoint
 10
55.080907
 20
143.516454
 30
0.0
  0
POINT
  5
196
100
AcDbEntity
  8
DEFPOINTS
  6
BYBLOCK
 62
     0
100
AcDbPoint
 10
81.880713
 20
169.447579
 30
0.0
  0
POINT
  5
197
100
AcDbEntity
  8
DEFPOINTS
  6
BYBLOCK
 62
     0
100
AcDbPoint
 10
84.275529
 20
167.052764
 30
0.0
  0
POINT
  5
198
100
AcDbEntity
  8
DEFPOINTS
  6
BYBLOCK
 62
     0
100
AcDbPoint
 10
64.840713
 20
152.407579
 30
0.0
  0
POINT
  5
199
100
AcDbEntity
  8
DEFPOINTS
  6
BYBLOCK
 62
     0
100
AcDbPoint
 10
64.840713
 20
152.407579
 30
0.0
  0
ENDBLK
  5
19A
100
AcDbEntity
  8
0
100
AcDbBlockEnd
  0
BLOCK
  5
1A7
100
AcDbEntity
  8
0
100
AcDbBlockBegin
  2
*D6
 70
     1
 10
0.0
 20
0.0
 30
0.0
  3
*D6
  1

  0
LINE
  5
1A8
100
AcDbEntity
  8
0
  6
BYBLOCK
 62
     1
100
AcDbLine
 10
113.130952
 20
150.81734
 30
0.0
 11
74.124976
 21
150.81734
 31
0.0
  0
LINE
  5
1A9
100
AcDbEntity
  8
0
  6
BYBLOCK
 62
     1
100
AcDbLine
 10
97.761208
 20
118.818455
 30
0.0
 11
74.124976
 21
118.818455
 31
0.0
  0
LINE
  5
1AA
100
AcDbEntity
  8
0
  6
BYBLOCK
 62
     1
100
AcDbLine
 10
75.624976
 20
148.81734
 30
0.0
 11
75.624976
 21
120.818455
 31
0.0
  0
INSERT
  5
1AB
100
AcDbEntity
  8
0
  6
BYBLOCK
 62
     1
100
AcDbBlockReference
  2
_OPEN30
 10
75.624976
 20
150.81734
 30
0.0
 41
2.0
 42
2.0
 43
2.0
 50
90.0
  0
INSERT
  5
1AC
100
AcDbEntity
  8
0
  6
BYBLOCK
 62
     1
100
AcDbBlockReference
  2
_OPEN30
 10
75.624976
 20
118.818455
 30
0.0
 41
2.0
 42
2.0
 43
2.0
 50
270.0
  0
MTEXT
  5
1AD
100
AcDbEntity
  8
0
  6
BYBLOCK
 62
     3
100
AcDbMText
 10
73.124976
 20
134.817898
 30
0.0
 40
3.0
 41
0.0
 71
     5
 72
     1
  1
\A1;32
 11
0.0
 21
1.0
 31
0.0
  0
POINT
  5
1AE
100
AcDbEntity
  8
DEFPOINTS
  6
BYBLOCK
 62
     0
100
AcDbPoint
 10
114.130952
 20
150.81734
 30
0.0
  0
POINT
  5
1AF
100
AcDbEntity
  8
DEFPOINTS
  6
BYBLOCK
 62
     0
100
AcDbPoint
 10
98.761208
 20
118.818455
 30
0.0
  0
POINT
  5
1B0
100
AcDbEntity
  8
DEFPOINTS
  6
BYBLOCK
 62
     0
100
AcDbPoint
 10
75.624976
 20
118.818455
 30
0.0
  0
ENDBLK
  5
1B1
100
AcDbEntity
  8
0
100
AcDbBlockEnd
  0
BLOCK
  5
26D
100
AcDbEntity
  8
0
100
AcDbBlockBegin
  2
*D7
 70
     1
 10
0.0
 20
0.0
 30
0.0
  3
*D7
  1

  0
LINE
  5
26E
100
AcDbEntity
  8
0
  6
BYBLOCK
 62
     1
100
AcDbLine
 10
98.90263
 20
118.345663
 30
0.0
 11
117.303616
 21
99.944677
 31
0.0
  0
LINE
  5
26F
100
AcDbEntity
  8
0
  6
BYBLOCK
 62
     1
100
AcDbLine
 10
99.761208
 20
127.46734
 30
0.0
 11
128.703876
 21
127.46734
 31
0.0
  0
ARC
  5
270
100
AcDbEntity
  8
0
  6
BYBLOCK
 62
     1
100
AcDbCircle
 10
89.780952
 20
127.46734
 30
0.0
 40
37.422924
100
AcDbArc
 50
318.062433
 51
356.937567
  0
INSERT
  5
271
100
AcDbEntity
  8
0
  6
BYBLOCK
 62
     1
100
AcDbBlockReference
  2
_OPEN30
 10
116.242956
 20
101.005337
 30
0.0
 41
2.0
 42
2.0
 43
2.0
 50
226.531217
  0
INSERT
  5
272
100
AcDbEntity
  8
0
  6
BYBLOCK
 62
     1
100
AcDbBlockReference
  2
_OPEN30
 10
127.203876
 20
127.46734
 30
0.0
 41
2.0
 42
2.0
 43
2.0
 50
88.468783
  0
MTEXT
  5
273
100
AcDbEntity
  8
0
  6
BYBLOCK
 62
     3
100
AcDbMText
 10
121.716191
 20
113.334005
 30
0.0
 40
3.0
 41
0.0
 71
     5
 72
     1
  1
\A1;45°
 11
0.404701
 21
0.914449
 31
0.0
  0
POINT
  5
274
100
AcDbEntity
  8
DEFPOINTS
  6
BYBLOCK
 62
     0
100
AcDbPoint
 10
125.928721
 20
117.781575
 30
0.0
  0
POINT
  5
275
100
AcDbEntity
  8
DEFPOINTS
  6
BYBLOCK
 62
     0
100
AcDbPoint
 10
90.346638
 20
126.901655
 30
0.0
  0
POINT
  5
276
100
AcDbEntity
  8
DEFPOINTS
  6
BYBLOCK
 62
     0
100
AcDbPoint
 10
98.761208
 20
127.46734
 30
0.0
  0
POINT
  5
277
100
AcDbEntity
  8
DEFPOINTS
  6
BYBLOCK
 62
     0
100
AcDbPoint
 10
84.684128
 20
127.46734
 30
0.0
  0
POINT
  5
278
100
AcDbEntity
  8
DEFPOINTS
  6
BYBLOCK
 62
     0
100
AcDbPoint
 10
98.195523
 20
119.052769
 30
0.0
  0
ENDBLK
  5
279
100
AcDbEntity
  8
0
100
AcDbBlockEnd
  0
BLOCK
  5
1F9
100
AcDbEntity
  8
0
100
AcDbBlockBegin
  2
*D8
 70
     1
 10
0.0
 20
0.0
 30
0.0
  3
*D8
  1

  0
LINE
  5
1FA
100
AcDbEntity
  8
0
  6
BYBLOCK
 62
     1
100
AcDbLine
 10
241.112323
 20
150.81734
 30
0.0
 11
249.280952
 21
150.81734
 31
0.0
  0
LINE
  5
1FB
100
AcDbEntity
  8
0
  6
BYBLOCK
 62
     1
100
AcDbLine
 10
241.112323
 20
125.81734
 30
0.0
 11
249.280952
 21
125.81734
 31
0.0
  0
LINE
  5
1FC
100
AcDbEntity
  8
0
  6
BYBLOCK
 62
     1
100
AcDbLine
 10
247.780952
 20
148.81734
 30
0.0
 11
247.780952
 21
127.81734
 31
0.0
  0
INSERT
  5
1FD
100
AcDbEntity
  8
0
  6
BYBLOCK
 62
     1
100
AcDbBlockReference
  2
_OPEN30
 10
247.780952
 20
150.81734
 30
0.0
 41
2.0
 42
2.0
 43
2.0
 50
90.0
  0
INSERT
  5
1FE
100
AcDbEntity
  8
0
  6
BYBLOCK
 62
     1
100
AcDbBlockReference
  2
_OPEN30
 10
247.780952
 20
125.81734
 30
0.0
 41
2.0
 42
2.0
 43
2.0
 50
270.0
  0
MTEXT
  5
1FF
100
AcDbEntity
  8
0
  6
BYBLOCK
 62
     3
100
AcDbMText
 10
245.280952
 20
138.31734
 30
0.0
 40
3.0
 41
0.0
 71
     5
 72
     1
  1
\A1;25
 11
0.0
 21
1.0
 31
0.0
  0
POINT
  5
200
100
AcDbEntity
  8
DEFPOINTS
  6
BYBLOCK
 62
     0
100
AcDbPoint
 10
240.112323
 20
150.81734
 30
0.0
  0
POINT
  5
201
100
AcDbEntity
  8
DEFPOINTS
  6
BYBLOCK
 62
     0
100
AcDbPoint
 10
240.112323
 20
125.81734
 30
0.0
  0
POINT
  5
202
100
AcDbEntity
  8
DEFPOINTS
  6
BYBLOCK
 62
     0
100
AcDbPoint
 10
247.780952
 20
125.81734
 30
0.0
  0
ENDBLK
  5
203
100
AcDbEntity
  8
0
100
AcDbBlockEnd
  0
BLOCK
  5
296
100
AcDbEntity
  8
0
100
AcDbBlockBegin
  2
*D9
 70
     1
 10
0.0
 20
0.0
 30
0.0
  3
*D9
  1

  0
LINE
  5
297
100
AcDbEntity
  8
0
  6
BYBLOCK
 62
     1
100
AcDbLine
 10
89.112323
 20
73.535165
 30
0.0
 11
78.713199
 21
73.535165
 31
0.0
  0
LINE
  5
298
100
AcDbEntity
  8
0
  6
BYBLOCK
 62
     1
100
AcDbLine
 10
90.112323
 20
48.535165
 30
0.0
 11
78.713199
 21
48.535165
 31
0.0
  0
LINE
  5
299
100
AcDbEntity
  8
0
  6
BYBLOCK
 62
     1
100
AcDbLine
 10
80.213199
 20
71.535165
 30
0.0
 11
80.213199
 21
50.535165
 31
0.0
  0
INSERT
  5
29A
100
AcDbEntity
  8
0
  6
BYBLOCK
 62
     1
100
AcDbBlockReference
  2
_OPEN30
 10
80.213199
 20
73.535165
 30
0.0
 41
2.0
 42
2.0
 43
2.0
 50
90.0
  0
INSERT
  5
29B
100
AcDbEntity
  8
0
  6
BYBLOCK
 62
     1
100
AcDbBlockReference
  2
_OPEN30
 10
80.213199
 20
48.535165
 30
0.0
 41
2.0
 42
2.0
 43
2.0
 50
270.0
  0
MTEXT
  5
29C
100
AcDbEntity
  8
0
  6
BYBLOCK
 62
     3
100
AcDbMText
 10
77.713199
 20
61.035165
 30
0.0
 40
3.0
 41
0.0
 71
     5
 72
     1
  1
\A1;25
 11
0.0
 21
1.0
 31
0.0
  0
POINT
  5
29D
100
AcDbEntity
  8
DEFPOINTS
  6
BYBLOCK
 62
     0
100
AcDbPoint
 10
90.112323
 20
73.535165
 30
0.0
  0
POINT
  5
29E
100
AcDbEntity
  8
DEFPOINTS
  6
BYBLOCK
 62
     0
100
AcDbPoint
 10
91.112323
 20
48.535165
 30
0.0
  0
POINT
  5
29F
100
AcDbEntity
  8
DEFPOINTS
  6
BYBLOCK
 62
     0
100
AcDbPoint
 10
80.213199
 20
48.535165
 30
0.0
  0
ENDBLK
  5
2A0
100
AcDbEntity
  8
0
100
AcDbBlockEnd
  0
BLOCK
  5
28B
100
AcDbEntity
  8
0
100
AcDbBlockBegin
  2
*D10
 70
     1
 10
0.0
 20
0.0
 30
0.0
  3
*D10
  1

  0
LINE
  5
28C
100
AcDbEntity
  8
0
  6
BYBLOCK
 62
     1
100
AcDbLine
 10
90.112323
 20
74.535165
 30
0.0
 11
90.112323
 21
84.75584
 31
0.0
  0
LINE
  5
28D
100
AcDbEntity
  8
0
  6
BYBLOCK
 62
     1
100
AcDbLine
 10
120.112323
 20
75.352725
 30
0.0
 11
120.112323
 21
84.75584
 31
0.0
  0
LINE
  5
28E
100
AcDbEntity
  8
0
  6
BYBLOCK
 62
     1
100
AcDbLine
 10
92.112323
 20
83.25584
 30
0.0
 11
118.112323
 21
83.25584
 31
0.0
  0
INSERT
  5
28F
100
AcDbEntity
  8
0
  6
BYBLOCK
 62
     1
100
AcDbBlockReference
  2
_OPEN30
 10
90.112323
 20
83.25584
 30
0.0
 41
2.0
 42
2.0
 43
2.0
 50
180.0
  0
INSERT
  5
290
100
AcDbEntity
  8
0
  6
BYBLOCK
 62
     1
100
AcDbBlockReference
  2
_OPEN30
 10
120.112323
 20
83.25584
 30
0.0
 41
2.0
 42
2.0
 43
2.0
  0
MTEXT
  5
291
100
AcDbEntity
  8
0
  6
BYBLOCK
 62
     3
100
AcDbMText
 10
105.112323
 20
85.75584
 30
0.0
 40
3.0
 41
0.0
 71
     5
 72
     1
  1
\A1;30
  0
POINT
  5
292
100
AcDbEntity
  8
DEFPOINTS
  6
BYBLOCK
 62
     0
100
AcDbPoint
 10
90.112323
 20
73.535165
 30
0.0
  0
POINT
  5
293
100
AcDbEntity
  8
DEFPOINTS
  6
BYBLOCK
 62
     0
100
AcDbPoint
 10
120.112323
 20
74.352725
 30
0.0
  0
POINT
  5
294
100
AcDbEntity
  8
DEFPOINTS
  6
BYBLOCK
 62
     0
100
AcDbPoint
 10
120.112323
 20
83.25584
 30
0.0
  0
ENDBLK
  5
295
100
AcDbEntity
  8
0
100
AcDbBlockEnd
  0
BLOCK
  5
24A
100
AcDbEntity
  8
0
100
AcDbBlockBegin
  2
*D11
 70
     1
 10
0.0
 20
0.0
 30
0.0
  3
*D11
  1

  0
LINE
  5
24B
100
AcDbEntity
  8
0
  6
BYBLOCK
 62
     1
100
AcDbLine
 10
241.112323
 20
73.455165
 30
0.0
 11
249.612323
 21
73.455165
 31
0.0
  0
LINE
  5
24C
100
AcDbEntity
  8
0
  6
BYBLOCK
 62
     1
100
AcDbLine
 10
241.112323
 20
48.455165
 30
0.0
 11
249.612323
 21
48.455165
 31
0.0
  0
LINE
  5
24D
100
AcDbEntity
  8
0
  6
BYBLOCK
 62
     1
100
AcDbLine
 10
248.112323
 20
71.455165
 30
0.0
 11
248.112323
 21
50.455165
 31
0.0
  0
INSERT
  5
24E
100
AcDbEntity
  8
0
  6
BYBLOCK
 62
     1
100
AcDbBlockReference
  2
_OPEN30
 10
248.112323
 20
73.455165
 30
0.0
 41
2.0
 42
2.0
 43
2.0
 50
90.0
  0
INSERT
  5
24F
100
AcDbEntity
  8
0
  6
BYBLOCK
 62
     1
100
AcDbBlockReference
  2
_OPEN30
 10
248.112323
 20
48.455165
 30
0.0
 41
2.0
 42
2.0
 43
2.0
 50
270.0
  0
MTEXT
  5
250
100
AcDbEntity
  8
0
  6
BYBLOCK
 62
     3
100
AcDbMText
 10
245.612323
 20
60.955165
 30
0.0
 40
3.0
 41
0.0
 71
     5
 72
     1
  1
\A1;25
 11
0.0
 21
1.0
 31
0.0
  0
POINT
  5
251
100
AcDbEntity
  8
DEFPOINTS
  6
BYBLOCK
 62
     0
100
AcDbPoint
 10
240.112323
 20
73.455165
 30
0.0
  0
POINT
  5
252
100
AcDbEntity
  8
DEFPOINTS
  6
BYBLOCK
 62
     0
100
AcDbPoint
 10
240.112323
 20
48.455165
 30
0.0
  0
POINT
  5
253
100
AcDbEntity
  8
DEFPOINTS
  6
BYBLOCK
 62
     0
100
AcDbPoint
 10
248.112323
 20
48.455165
 30
0.0
  0
ENDBLK
  5
254
100
AcDbEntity
  8
0
100
AcDbBlockEnd
  0
ENDSEC
  0
SECTION
  2
ENTITIES
  0
LINE
  5
2D
100
AcDbEntity
  8
外形
100
AcDbLine
 10
240.112323
 20
125.81734
 30
0.0
 11
120.112323
 21
125.81734
 31
0.0
  0
LINE
  5
2F
100
AcDbEntity
  8
外形
  6
CONTINUOUS
100
AcDbLine
 10
240.112323
 20
150.81734
 30
0.0
 11
114.130952
 21
150.81734
 31
0.0
  0
DIMENSION
  5
30
100
AcDbEntity
  8
寸法
  6
CONTINUOUS
100
AcDbDimension
  2
*D4
 10
240.112323
 20
96.739839
 30
0.0
 11
165.112323
 21
99.239839
 31
0.0
 70
    32
  3
STANDARD
100
AcDbAlignedDimension
 13
90.112323
 23
127.46734
 33
0.0
 14
240.112323
 24
125.81734
 34
0.0
100
AcDbRotatedDimension
1001
ACAD
1000
DSTYLE
1002
{
1070
    40
1040
1.0
1002
}
  0
LINE
  5
41
100
AcDbEntity
  8
外形
  6
CONTINUOUS
100
AcDbLine
 10
64.840713
 20
152.407579
 30
0.0
 11
61.976074
 21
156.209084
 31
0.0
  0
DIMENSION
  5
42
100
AcDbEntity
  8
寸法
  6
CONTINUOUS
100
AcDbDimension
  2
*D5
 10
64.840713
 20
152.407579
 30
0.0
 11
53.316116
 21
152.873519
 31
0.0
 70
    34
  3
STANDARD
100
AcDb2LineAngularDimension
 13
84.275529
 23
167.052764
 33
0.0
 14
64.840713
 24
152.407579
 34
0.0
 15
81.880713
 25
169.447579
 35
0.0
 16
55.080907
 26
143.516454
 36
0.0
1001
ACAD
1000
DSTYLE
1002
{
1070
    40
1040
1.0
1002
}
  0
LINE
  5
53
100
AcDbEntity
  8
外形
  6
CONTINUOUS
100
AcDbLine
 10
92.042612
 20
172.90568
 30
0.0
 11
64.840713
 21
152.407579
 31
0.0
  0
LINE
  5
5F
100
AcDbEntity
  8
寸法
  6
CONTINUOUS
100
AcDbLine
 10
89.780952
 20
127.46734
 30
0.0
 11
64.840713
 21
152.407579
 31
0.0
  0
DIMENSION
  5
60
100
AcDbEntity
  8
寸法
  6
CONTINUOUS
100
AcDbDimension
  2
*D6
 10
75.624976
 20
118.818455
 30
0.0
 11
73.124976
 21
134.817898
 31
0.0
 70
    32
  3
STANDARD
100
AcDbAlignedDimension
 13
114.130952
 23
150.81734
 33
0.0
 14
98.761208
 24
118.818455
 34
0.0
 50
90.0
100
AcDbRotatedDimension
1001
ACAD
1000
DSTYLE
1002
{
1070
   272
1070
     2
1070
    40
1040
1.0
1070
   271
1070
     2
1002
}
  0
DIMENSION
  5
7C
100
AcDbEntity
  8
寸法
  6
CONTINUOUS
100
AcDbDimension
  2
*D7
 10
98.195523
 20
119.052769
 30
0.0
 11
124.002314
 21
112.322253
 31
0.0
 70
   162
  3
STANDARD
100
AcDb2LineAngularDimension
 13
98.761208
 23
127.46734
 33
0.0
 14
84.684128
 24
127.46734
 34
0.0
 15
90.346638
 25
126.901655
 35
0.0
 16
125.928721
 26
117.781575
 36
0.0
1001
ACAD
1000
DSTYLE
1002
{
1070
    40
1040
1.0
1002
}
  0
LINE
  5
B8
100
AcDbEntity
  8
外形
  6
CONTINUOUS
100
AcDbLine
 10
107.741464
 20
127.46734
 30
0.0
 11
99.326894
 21
135.881911
 31
0.0
  0
LINE
  5
B9
100
AcDbEntity
  8
外形
  6
CONTINUOUS
100
AcDbLine
 10
114.130952
 20
150.81734
 30
0.0
 11
99.261208
 21
135.947596
 31
0.0
  0
LINE
  5
BA
100
AcDbEntity
  8
外形
  6
CONTINUOUS
100
AcDbLine
 10
118.517957
 20
119.867084
 30
0.0
 11
100.141208
 21
119.867084
 31
0.0
  0
ARC
  5
BB
100
AcDbEntity
  8
外形
  6
CONTINUOUS
100
AcDbCircle
 10
105.973698
 20
125.699573
 30
0.0
 40
2.5
100
AcDbArc
 50
225.0
 51
45.0
  0
LINE
  5
BC
100
AcDbEntity
  8
外形
  6
CONTINUOUS
100
AcDbLine
 10
99.326894
 20
119.052769
 30
0.0
 11
107.741464
 21
127.46734
 31
0.0
  0
LINE
  5
BD
100
AcDbEntity
  8
外形
  6
CONTINUOUS
100
AcDbLine
 10
98.195523
 20
135.881911
 30
0.0
 11
90.346638
 21
128.033026
 31
0.0
  0
LINE
  5
C0
100
AcDbEntity
  8
外形
  6
CONTINUOUS
100
AcDbLine
 10
90.346638
 20
126.901655
 30
0.0
 11
98.195523
 21
119.052769
 31
0.0
  0
LINE
  5
C2
100
AcDbEntity
  8
外形
  6
CONTINUOUS
100
AcDbLine
 10
90.800952
 20
128.48734
 30
0.0
 11
90.780952
 21
128.50734
 31
0.0
  0
ARC
  5
C3
100
AcDbEntity
  8
外形
  6
CONTINUOUS
100
AcDbCircle
 10
90.912323
 20
127.46734
 30
0.0
 40
0.8
100
AcDbArc
 50
135.0
 51
225.0
  0
CIRCLE
  5
C4
100
AcDbEntity
  8
外形
  6
CONTINUOUS
100
AcDbCircle
 10
98.761208
 20
127.46734
 30
0.0
 40
3.45
  0
ARC
  5
C5
100
AcDbEntity
  8
外形
  6
CONTINUOUS
100
AcDbCircle
 10
98.761208
 20
119.618455
 30
0.0
 40
0.8
100
AcDbArc
 50
225.0
 51
315.0
  0
ARC
  5
C7
100
AcDbEntity
  8
外形
  6
CONTINUOUS
100
AcDbCircle
 10
98.761208
 20
135.316225
 30
0.0
 40
0.8
100
AcDbArc
 50
45.0
 51
135.0
  0
LWPOLYLINE
  5
C8
100
AcDbEntity
  8
外形
  6
CONTINUOUS
100
AcDbPolyline
 90
        6
 70
     1
 43
0.0
 10
110.194357
 20
132.074579
 10
111.212431
 20
130.67332
 10
112.934994
 20
130.854369
 10
113.639482
 20
132.436676
 10
112.621408
 20
133.837935
 10
110.898846
 20
133.656886
  0
CIRCLE
  5
C9
100
AcDbEntity
  8
外形
  6
CONTINUOUS
100
AcDbCircle
 10
111.91692
 20
132.255628
 30
0.0
 40
3.3235
  0
CIRCLE
  5
CA
100
AcDbEntity
  8
外形
  6
CONTINUOUS
100
AcDbCircle
 10
111.91692
 20
132.255628
 30
0.0
 40
4.0
  0
LINE
  5
CB
100
AcDbEntity
  8
外形
  6
CONTINUOUS
100
AcDbLine
 10
120.112323
 20
150.81734
 30
0.0
 11
120.112323
 21
125.81734
 31
0.0
  0
LINE
  5
CC
100
AcDbEntity
  8
外形
  6
CONTINUOUS
100
AcDbLine
 10
120.112323
 20
125.81734
 30
0.0
 11
119.584887
 21
150.81734
 31
0.0
  0
LINE
  5
CE
100
AcDbEntity
  8
外形
  6
CONTINUOUS
100
AcDbLine
 10
120.112323
 20
125.81734
 30
0.0
 11
118.517957
 21
119.867084
 31
0.0
  0
LINE
  5
CF
100
AcDbEntity
  8
外形
  6
CONTINUOUS
100
AcDbLine
 10
92.042612
 20
172.90568
 30
0.0
 11
71.013044
 21
193.935249
 31
0.0
  0
LINE
  5
D0
100
AcDbEntity
  8
外形
  6
CONTINUOUS
100
AcDbLine
 10
71.013044
 20
193.935249
 30
0.0
 11
47.728729
 21
170.650934
 31
0.0
  0
LINE
  5
D1
100
AcDbEntity
  8
外形
  6
CONTINUOUS
100
AcDbLine
 10
61.996039
 20
156.22413
 30
0.0
 11
60.082268
 21
158.763791
 31
0.0
  0
LINE
  5
D2
100
AcDbEntity
  8
外形
  6
CONTINUOUS
100
AcDbLine
 10
70.284685
 20
166.451863
 30
0.0
 11
59.816296
 21
158.563367
 31
0.0
  0
LINE
  5
D3
100
AcDbEntity
  8
外形
  6
CONTINUOUS
100
AcDbLine
 10
59.816296
 20
158.563367
 30
0.0
 11
47.728729
 21
170.650934
 31
0.0
  0
LINE
  5
D4
100
AcDbEntity
  8
外形
  6
CONTINUOUS
100
AcDbLine
 10
72.198456
 20
163.912202
 30
0.0
 11
70.284685
 21
166.451863
 31
0.0
  0
LINE
  5
D5
100
AcDbEntity
  8
外形
  6
CONTINUOUS
100
AcDbLine
 10
72.218422
 20
163.927248
 30
0.0
 11
61.976074
 21
156.209084
 31
0.0
  0
LINE
  5
D6
100
AcDbEntity
  8
外形
  6
CONTINUOUS
100
AcDbLine
 10
75.083062
 20
160.125743
 30
0.0
 11
72.218422
 21
163.927248
 31
0.0
  0
DIMENSION
  5
D7
100
AcDbEntity
  8
寸法
  6
CONTINUOUS
100
AcDbDimension
  2
*D8
 10
247.780952
 20
125.81734
 30
0.0
 11
245.280952
 21
138.31734
 31
0.0
 70
    32
  3
STANDARD
100
AcDbAlignedDimension
 13
240.112323
 23
150.81734
 33
0.0
 14
240.112323
 24
125.81734
 34
0.0
 50
90.0
100
AcDbRotatedDimension
1001
ACAD
1000
DSTYLE
1002
{
1070
    40
1040
1.0
1002
}
  0
LINE
  5
E4
100
AcDbEntity
  8
外形
100
AcDbLine
 10
240.112323
 20
150.81734
 30
0.0
 11
240.112323
 21
125.81734
 31
0.0
  0
LINE
  5
E5
100
AcDbEntity
  8
寸法
  6
CONTINUOUS
100
AcDbLine
 10
89.780952
 20
127.46734
 30
0.0
 11
41.05749
 21
78.743878
 31
0.0
  0
LINE
  5
F6
100
AcDbEntity
  8
外形
  6
CONTINUOUS
100
AcDbLine
 10
240.112323
 20
73.535165
 30
0.0
 11
120.112323
 21
73.535165
 31
0.0
  0
LINE
  5
F7
100
AcDbEntity
  8
外形
  6
CONTINUOUS
100
AcDbLine
 10
240.112323
 20
48.535165
 30
0.0
 11
90.780952
 21
48.535165
 31
0.0
  0
LINE
  5
F8
100
AcDbEntity
  8
外形
  6
CONTINUOUS
100
AcDbLine
 10
23.87982
 20
60.566208
 30
0.0
 11
41.548451
 21
42.897578
 31
0.0
  0
LINE
  5
F9
100
AcDbEntity
  8
外形
  6
CONTINUOUS
100
AcDbLine
 10
37.709339
 20
75.360372
 30
0.0
 11
35.46074
 21
73.111772
 31
0.0
  0
LINE
  5
FA
100
AcDbEntity
  8
外形
  6
CONTINUOUS
100
AcDbLine
 10
35.46074
 20
73.111772
 30
0.0
 11
44.40564
 21
64.166871
 31
0.0
  0
LINE
  5
FB
100
AcDbEntity
  8
外形
  6
CONTINUOUS
100
AcDbLine
 10
43.543318
 20
65.029194
 30
0.0
 11
31.480076
 21
52.965952
 31
0.0
  0
LINE
  5
FC
100
AcDbEntity
  8
外形
  6
CONTINUOUS
100
AcDbLine
 10
35.943062
 20
72.62945
 30
0.0
 11
23.87982
 21
60.566208
 31
0.0
  0
TEXT
  5
FD
100
AcDbEntity
  8
外形
  6
CONTINUOUS
 62
     2
100
AcDbText
 10
99.126931
 20
26.993712
 30
0.0
 40
6.0
  1
ＰＳＳＮ　Ｒ２５２５－４３
100
AcDbText
  0
LINE
  5
FE
100
AcDbEntity
  8
外形
  6
CONTINUOUS
100
AcDbLine
 10
120.112323
 20
74.352725
 30
0.0
 11
120.112323
 21
48.535165
 31
0.0
  0
LINE
  5
FF
100
AcDbEntity
  8
外形
  6
CONTINUOUS
100
AcDbLine
 10
119.584887
 20
76.321142
 30
0.0
 11
119.584887
 21
48.508464
 31
0.0
  0
LINE
  5
100
100
AcDbEntity
  8
外形
  6
CONTINUOUS
100
AcDbLine
 10
98.381208
 20
66.368787
 30
0.0
 11
98.381208
 21
48.535165
 31
0.0
  0
LINE
  5
101
100
AcDbEntity
  8
外形
  6
CONTINUOUS
100
AcDbLine
 10
90.780952
 20
65.650351
 30
0.0
 11
90.780952
 21
48.535165
 31
0.0
  0
LINE
  5
110
100
AcDbEntity
  8
外形
  6
CONTINUOUS
100
AcDbLine
 10
46.65424
 20
66.415471
 30
0.0
 11
44.40564
 21
64.166871
 31
0.0
  0
DIMENSION
  5
111
100
AcDbEntity
  8
寸法
  6
CONTINUOUS
100
AcDbDimension
  2
*D9
 10
80.213199
 20
48.535165
 30
0.0
 11
77.713199
 21
61.035165
 31
0.0
 70
    32
  3
STANDARD
100
AcDbAlignedDimension
 13
90.112323
 23
73.535165
 33
0.0
 14
91.112323
 24
48.535165
 34
0.0
 50
90.0
100
AcDbRotatedDimension
1001
ACAD
1000
DSTYLE
1002
{
1070
    40
1040
1.0
1002
}
  0
LINE
  5
11E
100
AcDbEntity
  8
外形
  6
CONTINUOUS
100
AcDbLine
 10
41.05749
 20
78.743878
 30
0.0
 11
59.22612
 21
60.575247
 31
0.0
  0
LINE
  5
11F
100
AcDbEntity
  8
外形
  6
CONTINUOUS
100
AcDbLine
 10
59.22612
 20
60.575247
 30
0.0
 11
41.548451
 21
42.897578
 31
0.0
  0
LINE
  5
120
100
AcDbEntity
  8
外形
  6
CONTINUOUS
100
AcDbLine
 10
50.037746
 20
69.763622
 30
0.0
 11
46.671918
 21
66.397793
 31
0.0
  0
LINE
  5
121
100
AcDbEntity
  8
外形
  6
CONTINUOUS
100
AcDbLine
 10
41.05749
 20
78.743878
 30
0.0
 11
37.691662
 21
75.378049
 31
0.0
  0
LINE
  5
122
100
AcDbEntity
  8
外形
  6
CONTINUOUS
100
AcDbLine
 10
37.691662
 20
75.378049
 30
0.0
 11
46.671918
 21
66.397793
 31
0.0
  0
LINE
  5
123
100
AcDbEntity
  8
外形
  6
CONTINUOUS
100
AcDbLine
 10
90.112323
 20
73.535165
 30
0.0
 11
119.584887
 21
76.321142
 31
0.0
  0
DIMENSION
  5
124
100
AcDbEntity
  8
寸法
  6
CONTINUOUS
100
AcDbDimension
  2
*D10
 10
120.112323
 20
83.25584
 30
0.0
 11
105.112323
 21
85.75584
 31
0.0
 70
    32
  3
STANDARD
100
AcDbAlignedDimension
 13
90.112323
 23
73.535165
 33
0.0
 14
120.112323
 24
74.352725
 34
0.0
100
AcDbRotatedDimension
1001
ACAD
1000
DSTYLE
1002
{
1070
    40
1040
1.0
1002
}
  0
LINE
  5
13F
100
AcDbEntity
  8
外形
  6
CONTINUOUS
100
AcDbLine
 10
90.560279
 20
68.79629
 30
0.0
 11
99.209164
 21
69.61385
 31
0.0
  0
LINE
  5
140
100
AcDbEntity
  8
外形
  6
CONTINUOUS
100
AcDbLine
 10
90.780952
 20
65.622974
 30
0.0
 11
99.483539
 21
66.44561
 31
0.0
  0
LINE
  5
141
100
AcDbEntity
  8
外形
  6
CONTINUOUS
100
AcDbLine
 10
90.112323
 20
73.535165
 30
0.0
 11
90.560279
 21
68.79629
 31
0.0
  0
LINE
  5
142
100
AcDbEntity
  8
外形
  6
CONTINUOUS
100
AcDbLine
 10
90.585168
 20
68.798643
 30
0.0
 11
90.884432
 21
65.632756
 31
0.0
  0
LINE
  5
143
100
AcDbEntity
  8
外形
  6
CONTINUOUS
100
AcDbLine
 10
98.761208
 20
74.352725
 30
0.0
 11
99.209164
 21
69.61385
 31
0.0
  0
LINE
  5
144
100
AcDbEntity
  8
外形
  6
CONTINUOUS
100
AcDbLine
 10
99.184275
 20
69.611498
 30
0.0
 11
99.483539
 21
66.44561
 31
0.0
  0
LINE
  5
145
100
AcDbEntity
  8
外形
  6
CONTINUOUS
100
AcDbLine
 10
120.112323
 20
74.352725
 30
0.0
 11
119.584887
 21
76.321142
 31
0.0
  0
LINE
  5
146
100
AcDbEntity
  8
外形
  6
CONTINUOUS
100
AcDbLine
 10
240.112323
 20
73.535165
 30
0.0
 11
240.112323
 21
48.535165
 31
0.0
  0
DIMENSION
  5
147
100
AcDbEntity
  8
寸法
  6
CONTINUOUS
100
AcDbDimension
  2
*D11
 10
248.112323
 20
48.455165
 30
0.0
 11
245.612323
 21
60.955165
 31
0.0
 70
    32
  3
STANDARD
100
AcDbAlignedDimension
 13
240.112323
 23
73.455165
 33
0.0
 14
240.112323
 24
48.455165
 34
0.0
 50
90.0
100
AcDbRotatedDimension
1001
ACAD
1000
DSTYLE
1002
{
1070
    40
1040
1.0
1002
}
  0
INSERT
  5
16C
100
AcDbEntity
  8
寸法
  6
CONTINUOUS
100
AcDbBlockReference
  2
A$C67F24B59
 10
26.634766
 20
65.42998
 30
0.0
  0
ENDSEC
  0
SECTION
  2
OBJECTS
  0
DICTIONARY
  5
1E
102
{ACAD_XDICTIONARY
360
1F
102
}
100
AcDbDictionary
  3
ACAD_GROUP
350
1C
  3
ACAD_MLINESTYLE
350
1D
  0
DICTIONARY
  5
3B
100
AcDbDictionary
280
     1
  3
ACAD_XREC_ROUNDTRIP
360
3C
  0
DICTIONARY
  5
24
100
AcDbDictionary
280
     1
  3
ACAD_XREC_ROUNDTRIP
360
25
  0
DICTIONARY
  5
3
100
AcDbDictionary
280
     1
  3
ACAD_LAYOUTSELFREF
360
4
  0
DICTIONARY
  5
A
100
AcDbDictionary
280
     1
  3
ACAD_LAYOUTSELFREF
360
B
  0
DICTIONARY
  5
1F
100
AcDbDictionary
280
     1
  3
ACAD_XREC_ROUNDTRIP
360
20
  0
DICTIONARY
  5
1C
102
{ACAD_REACTORS
330
1E
102
}
100
AcDbDictionary
  0
DICTIONARY
  5
1D
102
{ACAD_REACTORS
330
1E
102
}
100
AcDbDictionary
  3
STANDARD
350
22
  0
XRECORD
  5
3C
102
{ACAD_REACTORS
330
3B
102
}
100
AcDbXrecord
102
PLOTBIT
280
     0
  0
XRECORD
  5
25
102
{ACAD_REACTORS
330
24
102
}
100
AcDbXrecord
102
ACADR14ROUNDTRIP
1000
DSTYLE
1002
{
1070
   341
340
0
1070
   343
340
0
1070
   344
340
0
1002
}
  0
XRECORD
  5
4
102
{ACAD_REACTORS
330
3
102
}
100
AcDbXrecord
340
2
  0
XRECORD
  5
B
102
{ACAD_REACTORS
330
A
102
}
100
AcDbXrecord
340
9
  0
XRECORD
  5
20
102
{ACAD_REACTORS
330
1F
102
}
100
AcDbXrecord
102
EXTNAMES
  1
ACDBVARIABLEDICTIONARY
  2
AcDbVariableDictionary
  1
ACMDICTIONARY
  2
AcmDictionary
  1
ACMESYSVARMANAGER
  2
AcmeSysVarManager
  0
MLINESTYLE
  5
22
102
{ACAD_REACTORS
330
1D
102
}
100
AcDbMlineStyle
  2
STANDARD
 70
     0
  3

 62
     0
 51
90.0
 52
90.0
 71
     2
 49
0.5
 62
   256
  6
BYLAYER
 49
-0.5
 62
   256
  6
BYLAYER
  0
ENDSEC
  0
EOF
