  0
SECTION
  2
HEADER
  9
$ACADVER
  1
AC1014
  9
$ACADMAINTVER
 70
     0
  9
$DWGCODEPAGE
  3
ANSI_932
  9
$INSBASE
 10
562.932569
 20
-348.524955
 30
0.0
  9
$EXTMIN
 10
615.947946
 20
-318.753614
 30
0.0
  9
$EXTMAX
 10
770.267341
 20
-214.776331
 30
0.0
  9
$LIMMIN
 10
-587.250952
 20
327.890188
  9
$LIMMAX
 10
600.749048
 20
957.890188
  9
$ORTHOMODE
 70
     1
  9
$REGENMODE
 70
     1
  9
$FILLMODE
 70
     1
  9
$QTEXTMODE
 70
     0
  9
$MIRRTEXT
 70
     1
  9
$DRAGMODE
 70
     2
  9
$LTSCALE
 40
5.0
  9
$OSMODE
 70
    37
  9
$ATTMODE
 70
     1
  9
$TEXTSIZE
 40
4.0
  9
$TRACEWID
 40
0.05
  9
$TEXTSTYLE
  7
STANDARD
  9
$CLAYER
  8
外形
  9
$CELTYPE
  6
CONTINUOUS
  9
$CECOLOR
 62
   256
  9
$CELTSCALE
 40
1.0
  9
$DELOBJ
 70
     1
  9
$DISPSILH
 70
     0
  9
$DIMSCALE
 40
1.0
  9
$DIMASZ
 40
2.0
  9
$DIMEXO
 40
1.0
  9
$DIMDLI
 40
8.0
  9
$DIMRND
 40
0.0
  9
$DIMDLE
 40
0.0
  9
$DIMEXE
 40
1.5
  9
$DIMTP
 40
0.0
  9
$DIMTM
 40
0.0
  9
$DIMTXT
 40
3.0
  9
$DIMCEN
 40
-1.0
  9
$DIMTSZ
 40
0.0
  9
$DIMTOL
 70
     0
  9
$DIMLIM
 70
     0
  9
$DIMTIH
 70
     0
  9
$DIMTOH
 70
     0
  9
$DIMSE1
 70
     0
  9
$DIMSE2
 70
     0
  9
$DIMTAD
 70
     1
  9
$DIMZIN
 70
     8
  9
$DIMBLK
  1

  9
$DIMASO
 70
     1
  9
$DIMSHO
 70
     1
  9
$DIMPOST
  1

  9
$DIMAPOST
  1

  9
$DIMALT
 70
     0
  9
$DIMALTD
 70
     2
  9
$DIMALTF
 40
25.4
  9
$DIMLFAC
 40
1.0
  9
$DIMTOFL
 70
     1
  9
$DIMTVP
 40
0.0
  9
$DIMTIX
 70
     0
  9
$DIMSOXD
 70
     0
  9
$DIMSAH
 70
     1
  9
$DIMBLK1
  1
_OPEN30
  9
$DIMBLK2
  1
_OPEN30
  9
$DIMSTYLE
  2
STANDARD
  9
$DIMCLRD
 70
     1
  9
$DIMCLRE
 70
     1
  9
$DIMCLRT
 70
     3
  9
$DIMTFAC
 40
1.0
  9
$DIMGAP
 40
1.0
  9
$DIMJUST
 70
     0
  9
$DIMSD1
 70
     0
  9
$DIMSD2
 70
     0
  9
$DIMTOLJ
 70
     1
  9
$DIMTZIN
 70
     8
  9
$DIMALTZ
 70
     0
  9
$DIMALTTZ
 70
     0
  9
$DIMFIT
 70
     3
  9
$DIMUPT
 70
     0
  9
$DIMUNIT
 70
     2
  9
$DIMDEC
 70
     3
  9
$DIMTDEC
 70
     4
  9
$DIMALTU
 70
     2
  9
$DIMALTTD
 70
     2
  9
$DIMTXSTY
  7
STANDARD
  9
$DIMAUNIT
 70
     0
  9
$LUNITS
 70
     2
  9
$LUPREC
 70
     4
  9
$SKETCHINC
 40
0.1
  9
$FILLETRAD
 40
1.0
  9
$AUNITS
 70
     0
  9
$AUPREC
 70
     0
  9
$MENU
  1
acad
  9
$ELEVATION
 40
0.0
  9
$PELEVATION
 40
0.0
  9
$THICKNESS
 40
0.0
  9
$LIMCHECK
 70
     0
  9
$BLIPMODE
 70
     1
  9
$CHAMFERA
 40
0.0
  9
$CHAMFERB
 40
0.0
  9
$CHAMFERC
 40
0.0
  9
$CHAMFERD
 40
0.0
  9
$SKPOLY
 70
     0
  9
$TDCREATE
 40
2450751.535399305
  9
$TDUPDATE
 40
2451930.468275462
  9
$TDINDWG
 40
1.7843032407
  9
$TDUSRTIMER
 40
1.7843032407
  9
$USRTIMER
 70
     1
  9
$ANGBASE
 50
0.0
  9
$ANGDIR
 70
     0
  9
$PDMODE
 70
     0
  9
$PDSIZE
 40
0.0
  9
$PLINEWID
 40
0.0
  9
$COORDS
 70
     1
  9
$SPLFRAME
 70
     0
  9
$SPLINETYPE
 70
     5
  9
$SPLINESEGS
 70
     8
  9
$ATTDIA
 70
     0
  9
$ATTREQ
 70
     1
  9
$HANDLING
 70
     1
  9
$HANDSEED
  5
3D0
  9
$SURFTAB1
 70
     6
  9
$SURFTAB2
 70
     6
  9
$SURFTYPE
 70
     6
  9
$SURFU
 70
     6
  9
$SURFV
 70
     6
  9
$UCSNAME
  2

  9
$UCSORG
 10
0.0
 20
0.0
 30
0.0
  9
$UCSXDIR
 10
1.0
 20
0.0
 30
0.0
  9
$UCSYDIR
 10
0.0
 20
1.0
 30
0.0
  9
$PUCSNAME
  2

  9
$PUCSORG
 10
0.0
 20
0.0
 30
0.0
  9
$PUCSXDIR
 10
1.0
 20
0.0
 30
0.0
  9
$PUCSYDIR
 10
0.0
 20
1.0
 30
0.0
  9
$USERI1
 70
     0
  9
$USERI2
 70
     0
  9
$USERI3
 70
     0
  9
$USERI4
 70
     0
  9
$USERI5
 70
     0
  9
$USERR1
 40
0.0
  9
$USERR2
 40
0.0
  9
$USERR3
 40
0.0
  9
$USERR4
 40
0.0
  9
$USERR5
 40
0.0
  9
$WORLDVIEW
 70
     1
  9
$SHADEDGE
 70
     3
  9
$SHADEDIF
 70
    70
  9
$TILEMODE
 70
     1
  9
$MAXACTVP
 70
    16
  9
$PINSBASE
 10
0.0
 20
0.0
 30
0.0
  9
$PLIMCHECK
 70
     0
  9
$PEXTMIN
 10
1.000000E+20
 20
1.000000E+20
 30
1.000000E+20
  9
$PEXTMAX
 10
-1.000000E+20
 20
-1.000000E+20
 30
-1.000000E+20
  9
$PLIMMIN
 10
0.0
 20
0.0
  9
$PLIMMAX
 10
12.0
 20
9.0
  9
$UNITMODE
 70
     0
  9
$VISRETAIN
 70
     0
  9
$PLINEGEN
 70
     0
  9
$PSLTSCALE
 70
     1
  9
$TREEDEPTH
 70
  3020
  9
$PICKSTYLE
 70
     1
  9
$CMLSTYLE
  2
STANDARD
  9
$CMLJUST
 70
     0
  9
$CMLSCALE
 40
1.0
  9
$PROXYGRAPHICS
 70
     1
  9
$MEASUREMENT
 70
     0
  0
ENDSEC
  0
SECTION
  2
CLASSES
  0
CLASS
  1
LWPOLYLINE
  2
AcDbPolyline
  3
"AutoCAD"
 90
        0
280
     0
281
     1
  0
ENDSEC
  0
SECTION
  2
TABLES
  0
TABLE
  2
VPORT
  5
12
100
AcDbSymbolTable
 70
     1
  0
VPORT
  5
3CB
100
AcDbSymbolTableRecord
100
AcDbViewportTableRecord
  2
*ACTIVE
 70
     0
 10
0.0
 20
0.0
 11
1.0
 21
1.0
 12
695.37494
 22
-267.298195
 13
0.0
 23
0.0
 14
0.05
 24
0.05
 15
10.0
 25
10.0
 16
0.0
 26
0.0
 36
1.0
 17
0.0
 27
0.0
 37
0.0
 40
119.26446
 41
1.710425
 42
50.0
 43
0.0
 44
0.0
 50
0.0
 51
0.0
 71
     0
 72
   100
 73
     1
 74
     1
 75
     0
 76
     0
 77
     0
 78
     0
  0
ENDTAB
  0
TABLE
  2
LTYPE
  5
D
100
AcDbSymbolTable
 70
     1
  0
LTYPE
  5
E
100
AcDbSymbolTableRecord
100
AcDbLinetypeTableRecord
  2
BYBLOCK
 70
     0
  3

 72
    65
 73
     0
 40
0.0
  0
LTYPE
  5
F
100
AcDbSymbolTableRecord
100
AcDbLinetypeTableRecord
  2
BYLAYER
 70
     0
  3

 72
    65
 73
     0
 40
0.0
  0
LTYPE
  5
5
100
AcDbSymbolTableRecord
100
AcDbLinetypeTableRecord
  2
CONTINUOUS
 70
     0
  3
Solid line
 72
    65
 73
     0
 40
0.0
  0
ENDTAB
  0
TABLE
  2
LAYER
  5
A
100
AcDbSymbolTable
 70
     5
  0
LAYER
  5
4
100
AcDbSymbolTableRecord
100
AcDbLayerTableRecord
  2
0
 70
     0
 62
     7
  6
CONTINUOUS
  0
LAYER
  5
26
100
AcDbSymbolTableRecord
100
AcDbLayerTableRecord
  2
外形
 70
     0
 62
     3
  6
CONTINUOUS
  0
LAYER
  5
34
100
AcDbSymbolTableRecord
100
AcDbLayerTableRecord
  2
DEFPOINTS
 70
     0
 62
     7
  6
CONTINUOUS
  0
LAYER
  5
1B
100
AcDbSymbolTableRecord
100
AcDbLayerTableRecord
  2
寸法
 70
     0
 62
     1
  6
CONTINUOUS
  0
LAYER
  5
3C
100
AcDbSymbolTableRecord
100
AcDbLayerTableRecord
  2
画層1
 70
     0
 62
     7
  6
CONTINUOUS
  0
ENDTAB
  0
TABLE
  2
STYLE
  5
B
100
AcDbSymbolTable
 70
     1
  0
STYLE
  5
C
100
AcDbSymbolTableRecord
100
AcDbTextStyleTableRecord
  2
STANDARD
 70
     0
 40
0.0
 41
1.0
 50
0.0
 71
     0
 42
4.0
  3
MONOTXT
  4
BIGFONT
  0
ENDTAB
  0
TABLE
  2
VIEW
  5
10
100
AcDbSymbolTable
 70
     0
  0
ENDTAB
  0
TABLE
  2
UCS
  5
11
100
AcDbSymbolTable
 70
     0
  0
ENDTAB
  0
TABLE
  2
APPID
  5
14
100
AcDbSymbolTable
 70
     1
  0
APPID
  5
15
100
AcDbSymbolTableRecord
100
AcDbRegAppTableRecord
  2
ACAD
 70
     0
  0
ENDTAB
  0
TABLE
  2
DIMSTYLE
  5
16
100
AcDbSymbolTable
 70
     1
  0
DIMSTYLE
105
1D
102
{ACAD_REACTORS
330
83
330
2A
330
95
330
E6
330
AE
330
75
330
117
330
D5
330
68
102
}
100
AcDbSymbolTableRecord
100
AcDbDimStyleTableRecord
  2
STANDARD
 70
     0
  3

  4

  5

  6
_OPEN30
  7
_OPEN30
 40
1.0
 41
2.0
 42
1.0
 43
8.0
 44
1.5
 45
0.0
 46
0.0
 47
0.0
 48
0.0
140
3.0
141
-1.0
142
0.0
143
25.4
144
1.0
145
0.0
146
1.0
147
1.0
 71
     0
 72
     0
 73
     0
 74
     0
 75
     0
 76
     0
 77
     1
 78
     8
170
     0
171
     2
172
     1
173
     1
174
     0
175
     0
176
     1
177
     1
178
     3
270
     2
271
     3
272
     4
273
     2
274
     2
340
C
275
     0
280
     0
281
     0
282
     0
283
     1
284
     8
285
     0
286
     0
287
     3
288
     0
  0
ENDTAB
  0
TABLE
  2
BLOCK_RECORD
  5
1
100
AcDbSymbolTable
 70
    30
  0
BLOCK_RECORD
  5
2
100
AcDbSymbolTableRecord
100
AcDbBlockTableRecord
  2
*MODEL_SPACE
  0
BLOCK_RECORD
  5
7
100
AcDbSymbolTableRecord
100
AcDbBlockTableRecord
  2
*PAPER_SPACE
  0
BLOCK_RECORD
  5
1E
100
AcDbSymbolTableRecord
100
AcDbBlockTableRecord
  2
_DOTSMALL
  0
BLOCK_RECORD
  5
140
100
AcDbSymbolTableRecord
100
AcDbBlockTableRecord
  2
_OPEN30
  0
BLOCK_RECORD
  5
146
100
AcDbSymbolTableRecord
100
AcDbBlockTableRecord
  2
*D16
  0
BLOCK_RECORD
  5
17A
100
AcDbSymbolTableRecord
100
AcDbBlockTableRecord
  2
*D20
  0
BLOCK_RECORD
  5
186
100
AcDbSymbolTableRecord
100
AcDbBlockTableRecord
  2
*D21
  0
BLOCK_RECORD
  5
193
100
AcDbSymbolTableRecord
100
AcDbBlockTableRecord
  2
*D22
  0
BLOCK_RECORD
  5
19F
100
AcDbSymbolTableRecord
100
AcDbBlockTableRecord
  2
*D23
  0
BLOCK_RECORD
  5
1AB
100
AcDbSymbolTableRecord
100
AcDbBlockTableRecord
  2
*D24
  0
BLOCK_RECORD
  5
1C5
100
AcDbSymbolTableRecord
100
AcDbBlockTableRecord
  2
*D26
  0
BLOCK_RECORD
  5
1D7
100
AcDbSymbolTableRecord
100
AcDbBlockTableRecord
  2
*D27
  0
BLOCK_RECORD
  5
1F1
100
AcDbSymbolTableRecord
100
AcDbBlockTableRecord
  2
*D29
  0
ENDTAB
  0
ENDSEC
  0
SECTION
  2
BLOCKS
  0
BLOCK
  5
3
100
AcDbEntity
  8
0
100
AcDbBlockBegin
  2
*MODEL_SPACE
 70
     0
 10
0.0
 20
0.0
 30
0.0
  3
*MODEL_SPACE
  1

  0
ENDBLK
  5
6
100
AcDbEntity
  8
0
100
AcDbBlockEnd
  0
BLOCK
  5
8
100
AcDbEntity
 67
     1
  8
0
100
AcDbBlockBegin
  2
*PAPER_SPACE
 70
     0
 10
0.0
 20
0.0
 30
0.0
  3
*PAPER_SPACE
  1

  0
ENDBLK
  5
9
100
AcDbEntity
 67
     1
  8
0
100
AcDbBlockEnd
  0
BLOCK
  5
23
100
AcDbEntity
  8
0
100
AcDbBlockBegin
  2
_DOTSMALL
 70
     0
 10
0.0
 20
0.0
 30
0.0
  3
_DOTSMALL
  1

  0
POLYLINE
  5
1F
100
AcDbEntity
  8
0
  6
BYBLOCK
 62
     0
100
AcDb2dPolyline
 66
     1
 10
0.0
 20
0.0
 30
0.0
 70
     1
 40
0.5
 41
0.5
  0
VERTEX
  5
20
100
AcDbEntity
  8
0
  6
BYBLOCK
 62
     0
100
AcDbVertex
100
AcDb2dVertex
 10
-0.0625
 20
0.0
 30
0.0
 42
1.0
  0
VERTEX
  5
21
100
AcDbEntity
  8
0
  6
BYBLOCK
 62
     0
100
AcDbVertex
100
AcDb2dVertex
 10
0.0625
 20
0.0
 30
0.0
 42
1.0
  0
SEQEND
  5
22
100
AcDbEntity
  8
0
  6
BYBLOCK
 62
     0
  0
ENDBLK
  5
24
100
AcDbEntity
  8
0
100
AcDbBlockEnd
  0
BLOCK
  5
141
100
AcDbEntity
  8
0
100
AcDbBlockBegin
  2
_OPEN30
 70
     0
 10
0.0
 20
0.0
 30
0.0
  3
_OPEN30
  1

  0
LINE
  5
142
100
AcDbEntity
  8
0
  6
BYBLOCK
 62
     0
100
AcDbLine
 10
-1.0
 20
0.267949
 30
0.0
 11
0.0
 21
0.0
 31
0.0
  0
LINE
  5
143
100
AcDbEntity
  8
0
  6
BYBLOCK
 62
     0
100
AcDbLine
 10
0.0
 20
0.0
 30
0.0
 11
-1.0
 21
-0.267949
 31
0.0
  0
LINE
  5
144
100
AcDbEntity
  8
0
  6
BYBLOCK
 62
     0
100
AcDbLine
 10
0.0
 20
0.0
 30
0.0
 11
-1.0
 21
0.0
 31
0.0
  0
ENDBLK
  5
145
100
AcDbEntity
  8
0
100
AcDbBlockEnd
  0
BLOCK
  5
365
100
AcDbEntity
  8
0
100
AcDbBlockBegin
  2
*D16
 70
     1
 10
0.0
 20
0.0
 30
0.0
  3
*D16
  1

  0
LINE
  5
366
100
AcDbEntity
  8
0
  6
BYBLOCK
 62
     1
100
AcDbLine
 10
631.86079
 20
-241.633184
 30
0.0
 11
630.720283
 21
-254.669244
 31
0.0
  0
ARC
  5
367
100
AcDbEntity
  8
0
  6
BYBLOCK
 62
     1
100
AcDbCircle
 10
631.947946
 20
-240.63699
 30
0.0
 40
12.585855
100
AcDbArc
 50
246.712899
 51
265.0
  0
LINE
  5
368
100
AcDbEntity
  8
0
  6
BYBLOCK
 62
     1
100
AcDbLine
 10
626.97227
 20
-252.197543
 30
0.0
 11
619.072866
 21
-248.79763
 31
0.0
  0
ARC
  5
369
100
AcDbEntity
  8
0
  6
BYBLOCK
 62
     1
100
AcDbCircle
 10
631.947946
 20
-240.63699
 30
0.0
 40
12.585855
100
AcDbArc
 50
246.771207
 51
255.885603
  0
ARC
  5
36A
100
AcDbEntity
  8
0
  6
BYBLOCK
 62
     1
100
AcDbCircle
 10
631.947946
 20
-240.63699
 30
0.0
 40
12.585855
100
AcDbArc
 50
279.114397
 51
288.228793
  0
ARC
  5
36B
100
AcDbEntity
  8
0
  6
BYBLOCK
 62
     1
100
AcDbCircle
 10
631.947946
 20
-240.63699
 30
0.0
 40
12.585855
100
AcDbArc
 50
265.0
 51
270.0
  0
INSERT
  5
36C
100
AcDbEntity
  8
0
  6
BYBLOCK
 62
     1
100
AcDbBlockReference
  2
_OPEN30
 10
630.851017
 20
-253.174952
 30
0.0
 41
2.0
 42
2.0
 43
2.0
 50
350.442802
  0
INSERT
  5
36D
100
AcDbEntity
  8
0
  6
BYBLOCK
 62
     1
100
AcDbBlockReference
  2
_OPEN30
 10
631.947946
 20
-253.222845
 30
0.0
 41
2.0
 42
2.0
 43
2.0
 50
184.557198
  0
MTEXT
  5
36E
100
AcDbEntity
  8
0
  6
BYBLOCK
 62
     3
100
AcDbMText
 10
624.010915
 20
-248.201248
 30
0.0
 40
3.0
 41
0.0
 71
     5
 72
     1
  1
\A1;5°
 11
0.918535
 21
-0.395339
 31
0.0
  0
POINT
  5
36F
100
AcDbEntity
  8
DEFPOINTS
  6
BYBLOCK
 62
     0
100
AcDbPoint
 10
631.58189
 20
-253.21752
 30
0.0
  0
POINT
  5
370
100
AcDbEntity
  8
DEFPOINTS
  6
BYBLOCK
 62
     0
100
AcDbPoint
 10
631.947946
 20
-240.63699
 30
0.0
  0
POINT
  5
371
100
AcDbEntity
  8
DEFPOINTS
  6
BYBLOCK
 62
     0
100
AcDbPoint
 10
634.210461
 20
-214.776331
 30
0.0
  0
POINT
  5
372
100
AcDbEntity
  8
DEFPOINTS
  6
BYBLOCK
 62
     0
100
AcDbPoint
 10
632.809856
 20
-230.785313
 30
0.0
  0
POINT
  5
373
100
AcDbEntity
  8
DEFPOINTS
  6
BYBLOCK
 62
     0
100
AcDbPoint
 10
631.947946
 20
-254.614265
 30
0.0
  0
ENDBLK
  5
374
100
AcDbEntity
  8
0
100
AcDbBlockEnd
  0
BLOCK
  5
3B5
100
AcDbEntity
  8
0
100
AcDbBlockBegin
  2
*D20
 70
     1
 10
0.0
 20
0.0
 30
0.0
  3
*D20
  1

  0
LINE
  5
3B6
100
AcDbEntity
  8
0
  6
BYBLOCK
 62
     1
100
AcDbLine
 10
759.385439
 20
-220.630396
 30
0.0
 11
769.114344
 21
-220.630396
 31
0.0
  0
LINE
  5
3B7
100
AcDbEntity
  8
0
  6
BYBLOCK
 62
     1
100
AcDbLine
 10
759.385439
 20
-236.630396
 30
0.0
 11
769.114344
 21
-236.630396
 31
0.0
  0
LINE
  5
3B8
100
AcDbEntity
  8
0
  6
BYBLOCK
 62
     1
100
AcDbLine
 10
767.614344
 20
-222.630396
 30
0.0
 11
767.614344
 21
-234.630396
 31
0.0
  0
INSERT
  5
3B9
100
AcDbEntity
  8
0
  6
BYBLOCK
 62
     1
100
AcDbBlockReference
  2
_OPEN30
 10
767.614344
 20
-220.630396
 30
0.0
 41
2.0
 42
2.0
 43
2.0
 50
90.0
  0
INSERT
  5
3BA
100
AcDbEntity
  8
0
  6
BYBLOCK
 62
     1
100
AcDbBlockReference
  2
_OPEN30
 10
767.614344
 20
-236.630396
 30
0.0
 41
2.0
 42
2.0
 43
2.0
 50
270.0
  0
MTEXT
  5
3BB
100
AcDbEntity
  8
0
  6
BYBLOCK
 62
     3
100
AcDbMText
 10
765.114344
 20
-228.630396
 30
0.0
 40
3.0
 41
0.0
 71
     5
 72
     1
  1
\A1;16
 11
0.0
 21
1.0
 31
0.0
  0
POINT
  5
3BC
100
AcDbEntity
  8
DEFPOINTS
  6
BYBLOCK
 62
     0
100
AcDbPoint
 10
758.385439
 20
-220.630396
 30
0.0
  0
POINT
  5
3BD
100
AcDbEntity
  8
DEFPOINTS
  6
BYBLOCK
 62
     0
100
AcDbPoint
 10
758.385439
 20
-236.630396
 30
0.0
  0
POINT
  5
3BE
100
AcDbEntity
  8
DEFPOINTS
  6
BYBLOCK
 62
     0
100
AcDbPoint
 10
767.614344
 20
-236.630396
 30
0.0
  0
ENDBLK
  5
3BF
100
AcDbEntity
  8
0
100
AcDbBlockEnd
  0
BLOCK
  5
39C
100
AcDbEntity
  8
0
100
AcDbBlockBegin
  2
*D21
 70
     1
 10
0.0
 20
0.0
 30
0.0
  3
*D21
  1

  0
LINE
  5
39D
100
AcDbEntity
  8
0
  6
BYBLOCK
 62
     1
100
AcDbLine
 10
655.700716
 20
-240.630396
 30
0.0
 11
647.740566
 21
-240.630396
 31
0.0
  0
ARC
  5
39E
100
AcDbEntity
  8
0
  6
BYBLOCK
 62
     1
100
AcDbCircle
 10
658.371355
 20
-240.630396
 30
0.0
 40
9.130788
100
AcDbArc
 50
63.849514
 51
76.424757
  0
ARC
  5
39F
100
AcDbEntity
  8
0
  6
BYBLOCK
 62
     1
100
AcDbCircle
 10
658.371355
 20
-240.630396
 30
0.0
 40
9.130788
100
AcDbArc
 50
192.575243
 51
205.150486
  0
ARC
  5
3A0
100
AcDbEntity
  8
0
  6
BYBLOCK
 62
     1
100
AcDbCircle
 10
658.371355
 20
-240.630396
 30
0.0
 40
9.130788
100
AcDbArc
 50
89.0
 51
180.0
  0
INSERT
  5
3A1
100
AcDbEntity
  8
0
  6
BYBLOCK
 62
     1
100
AcDbBlockReference
  2
_OPEN30
 10
658.530709
 20
-231.500998
 30
0.0
 41
2.0
 42
2.0
 43
2.0
 50
172.712378
  0
INSERT
  5
3A2
100
AcDbEntity
  8
0
  6
BYBLOCK
 62
     1
100
AcDbBlockReference
  2
_OPEN30
 10
649.240566
 20
-240.630396
 30
0.0
 41
2.0
 42
2.0
 43
2.0
 50
96.287622
  0
MTEXT
  5
3A3
100
AcDbEntity
  8
0
  6
BYBLOCK
 62
     3
100
AcDbMText
 10
650.219227
 20
-232.334731
 30
0.0
 40
3.0
 41
0.0
 71
     5
 72
     1
  1
\A1;91°
 11
0.71325
 21
0.700909
 31
0.0
  0
POINT
  5
3A4
100
AcDbEntity
  8
DEFPOINTS
  6
BYBLOCK
 62
     0
100
AcDbPoint
 10
653.898275
 20
-232.670317
 30
0.0
  0
POINT
  5
3A5
100
AcDbEntity
  8
DEFPOINTS
  6
BYBLOCK
 62
     0
100
AcDbPoint
 10
658.385561
 20
-239.816524
 30
0.0
  0
POINT
  5
3A6
100
AcDbEntity
  8
DEFPOINTS
  6
BYBLOCK
 62
     0
100
AcDbPoint
 10
658.385439
 20
-240.630396
 30
0.0
  0
POINT
  5
3A7
100
AcDbEntity
  8
DEFPOINTS
  6
BYBLOCK
 62
     0
100
AcDbPoint
 10
656.700716
 20
-240.630396
 30
0.0
  0
POINT
  5
3A8
100
AcDbEntity
  8
DEFPOINTS
  6
BYBLOCK
 62
     0
100
AcDbPoint
 10
658.625121
 20
-226.092112
 30
0.0
  0
ENDBLK
  5
3A9
100
AcDbEntity
  8
0
100
AcDbBlockEnd
  0
BLOCK
  5
3C0
100
AcDbEntity
  8
0
100
AcDbBlockBegin
  2
*D22
 70
     1
 10
0.0
 20
0.0
 30
0.0
  3
*D22
  1

  0
LINE
  5
3C1
100
AcDbEntity
  8
0
  6
BYBLOCK
 62
     1
100
AcDbLine
 10
663.888001
 20
-220.630396
 30
0.0
 11
641.879379
 21
-220.630396
 31
0.0
  0
LINE
  5
3C2
100
AcDbEntity
  8
0
  6
BYBLOCK
 62
     1
100
AcDbLine
 10
657.385439
 20
-240.630396
 30
0.0
 11
641.879379
 21
-240.630396
 31
0.0
  0
LINE
  5
3C3
100
AcDbEntity
  8
0
  6
BYBLOCK
 62
     1
100
AcDbLine
 10
643.379379
 20
-222.630396
 30
0.0
 11
643.379379
 21
-238.630396
 31
0.0
  0
INSERT
  5
3C4
100
AcDbEntity
  8
0
  6
BYBLOCK
 62
     1
100
AcDbBlockReference
  2
_OPEN30
 10
643.379379
 20
-220.630396
 30
0.0
 41
2.0
 42
2.0
 43
2.0
 50
90.0
  0
INSERT
  5
3C5
100
AcDbEntity
  8
0
  6
BYBLOCK
 62
     1
100
AcDbBlockReference
  2
_OPEN30
 10
643.379379
 20
-240.630396
 30
0.0
 41
2.0
 42
2.0
 43
2.0
 50
270.0
  0
MTEXT
  5
3C6
100
AcDbEntity
  8
0
  6
BYBLOCK
 62
     3
100
AcDbMText
 10
640.879379
 20
-230.630396
 30
0.0
 40
3.0
 41
0.0
 71
     5
 72
     1
  1
\A1;20
 11
0.0
 21
1.0
 31
0.0
  0
POINT
  5
3C7
100
AcDbEntity
  8
DEFPOINTS
  6
BYBLOCK
 62
     0
100
AcDbPoint
 10
664.888001
 20
-220.630396
 30
0.0
  0
POINT
  5
3C8
100
AcDbEntity
  8
DEFPOINTS
  6
BYBLOCK
 62
     0
100
AcDbPoint
 10
658.385439
 20
-240.630396
 30
0.0
  0
POINT
  5
3C9
100
AcDbEntity
  8
DEFPOINTS
  6
BYBLOCK
 62
     0
100
AcDbPoint
 10
643.379379
 20
-240.630396
 30
0.0
  0
ENDBLK
  5
3CA
100
AcDbEntity
  8
0
100
AcDbBlockEnd
  0
BLOCK
  5
34F
100
AcDbEntity
  8
0
100
AcDbBlockBegin
  2
*D23
 70
     1
 10
0.0
 20
0.0
 30
0.0
  3
*D23
  1

  0
LINE
  5
350
100
AcDbEntity
  8
0
  6
BYBLOCK
 62
     1
100
AcDbLine
 10
658.385439
 20
-241.630396
 30
0.0
 11
658.385439
 21
-249.858365
 31
0.0
  0
LINE
  5
351
100
AcDbEntity
  8
0
  6
BYBLOCK
 62
     1
100
AcDbLine
 10
758.385439
 20
-236.630396
 30
0.0
 11
758.385439
 21
-249.858365
 31
0.0
  0
LINE
  5
352
100
AcDbEntity
  8
0
  6
BYBLOCK
 62
     1
100
AcDbLine
 10
660.385439
 20
-248.358365
 30
0.0
 11
756.385439
 21
-248.358365
 31
0.0
  0
INSERT
  5
353
100
AcDbEntity
  8
0
  6
BYBLOCK
 62
     1
100
AcDbBlockReference
  2
_OPEN30
 10
658.385439
 20
-248.358365
 30
0.0
 41
2.0
 42
2.0
 43
2.0
 50
180.0
  0
INSERT
  5
354
100
AcDbEntity
  8
0
  6
BYBLOCK
 62
     1
100
AcDbBlockReference
  2
_OPEN30
 10
758.385439
 20
-248.358365
 30
0.0
 41
2.0
 42
2.0
 43
2.0
  0
MTEXT
  5
355
100
AcDbEntity
  8
0
  6
BYBLOCK
 62
     3
100
AcDbMText
 10
708.385439
 20
-245.858365
 30
0.0
 40
3.0
 41
0.0
 71
     5
 72
     1
  1
\A1;100
  0
POINT
  5
356
100
AcDbEntity
  8
DEFPOINTS
  6
BYBLOCK
 62
     0
100
AcDbPoint
 10
658.385439
 20
-240.630396
 30
0.0
  0
POINT
  5
357
100
AcDbEntity
  8
DEFPOINTS
  6
BYBLOCK
 62
     0
100
AcDbPoint
 10
758.385439
 20
-235.630396
 30
0.0
  0
POINT
  5
358
100
AcDbEntity
  8
DEFPOINTS
  6
BYBLOCK
 62
     0
100
AcDbPoint
 10
758.385439
 20
-248.358365
 30
0.0
  0
ENDBLK
  5
359
100
AcDbEntity
  8
0
100
AcDbBlockEnd
  0
BLOCK
  5
35A
100
AcDbEntity
  8
0
100
AcDbBlockBegin
  2
*D24
 70
     1
 10
0.0
 20
0.0
 30
0.0
  3
*D24
  1

  0
LINE
  5
35B
100
AcDbEntity
  8
0
  6
BYBLOCK
 62
     1
100
AcDbLine
 10
657.385439
 20
-281.697616
 30
0.0
 11
644.657093
 21
-281.697616
 31
0.0
  0
LINE
  5
35C
100
AcDbEntity
  8
0
  6
BYBLOCK
 62
     1
100
AcDbLine
 10
658.285439
 20
-297.697616
 30
0.0
 11
644.657093
 21
-297.697616
 31
0.0
  0
LINE
  5
35D
100
AcDbEntity
  8
0
  6
BYBLOCK
 62
     1
100
AcDbLine
 10
646.157093
 20
-283.697616
 30
0.0
 11
646.157093
 21
-295.697616
 31
0.0
  0
INSERT
  5
35E
100
AcDbEntity
  8
0
  6
BYBLOCK
 62
     1
100
AcDbBlockReference
  2
_OPEN30
 10
646.157093
 20
-281.697616
 30
0.0
 41
2.0
 42
2.0
 43
2.0
 50
90.0
  0
INSERT
  5
35F
100
AcDbEntity
  8
0
  6
BYBLOCK
 62
     1
100
AcDbBlockReference
  2
_OPEN30
 10
646.157093
 20
-297.697616
 30
0.0
 41
2.0
 42
2.0
 43
2.0
 50
270.0
  0
MTEXT
  5
360
100
AcDbEntity
  8
0
  6
BYBLOCK
 62
     3
100
AcDbMText
 10
643.657093
 20
-289.697616
 30
0.0
 40
3.0
 41
0.0
 71
     5
 72
     1
  1
\A1;16
 11
0.0
 21
1.0
 31
0.0
  0
POINT
  5
361
100
AcDbEntity
  8
DEFPOINTS
  6
BYBLOCK
 62
     0
100
AcDbPoint
 10
658.385439
 20
-281.697616
 30
0.0
  0
POINT
  5
362
100
AcDbEntity
  8
DEFPOINTS
  6
BYBLOCK
 62
     0
100
AcDbPoint
 10
659.285439
 20
-297.697616
 30
0.0
  0
POINT
  5
363
100
AcDbEntity
  8
DEFPOINTS
  6
BYBLOCK
 62
     0
100
AcDbPoint
 10
646.157093
 20
-297.697616
 30
0.0
  0
ENDBLK
  5
364
100
AcDbEntity
  8
0
100
AcDbBlockEnd
  0
BLOCK
  5
380
100
AcDbEntity
  8
0
100
AcDbBlockBegin
  2
*D26
 70
     1
 10
0.0
 20
0.0
 30
0.0
  3
*D26
  1

  0
LINE
  5
381
100
AcDbEntity
  8
0
  6
BYBLOCK
 62
     1
100
AcDbLine
 10
656.385439
 20
-281.697616
 30
0.0
 11
648.436688
 21
-281.697616
 31
0.0
  0
LINE
  5
382
100
AcDbEntity
  8
0
  6
BYBLOCK
 62
     1
100
AcDbLine
 10
657.389244
 20
-281.784771
 30
0.0
 11
648.474546
 21
-282.564706
 31
0.0
  0
ARC
  5
383
100
AcDbEntity
  8
0
  6
BYBLOCK
 62
     1
100
AcDbCircle
 10
658.385439
 20
-281.697616
 30
0.0
 40
8.448751
100
AcDbArc
 50
152.61377
 51
180.0
  0
LINE
  5
384
100
AcDbEntity
  8
0
  6
BYBLOCK
 62
     1
100
AcDbLine
 10
650.883574
 20
-277.811305
 30
0.0
 11
654.839457
 21
-270.175142
 31
0.0
  0
ARC
  5
385
100
AcDbEntity
  8
0
  6
BYBLOCK
 62
     1
100
AcDbCircle
 10
658.385439
 20
-281.697616
 30
0.0
 40
8.448751
100
AcDbArc
 50
152.809987
 51
166.404994
  0
ARC
  5
386
100
AcDbEntity
  8
0
  6
BYBLOCK
 62
     1
100
AcDbCircle
 10
658.385439
 20
-281.697616
 30
0.0
 40
8.448751
100
AcDbArc
 50
198.595006
 51
212.190013
  0
ARC
  5
387
100
AcDbEntity
  8
0
  6
BYBLOCK
 62
     1
100
AcDbCircle
 10
658.385439
 20
-281.697616
 30
0.0
 40
8.448751
100
AcDbArc
 50
180.0
 51
185.0
  0
INSERT
  5
388
100
AcDbEntity
  8
0
  6
BYBLOCK
 62
     1
100
AcDbBlockReference
  2
_OPEN30
 10
649.936688
 20
-281.697616
 30
0.0
 41
2.0
 42
2.0
 43
2.0
 50
263.202497
  0
INSERT
  5
389
100
AcDbEntity
  8
0
  6
BYBLOCK
 62
     1
100
AcDbBlockReference
  2
_OPEN30
 10
649.968838
 20
-282.433973
 30
0.0
 41
2.0
 42
2.0
 43
2.0
 50
101.797503
  0
MTEXT
  5
38A
100
AcDbEntity
  8
0
  6
BYBLOCK
 62
     3
100
AcDbMText
 10
655.08133
 20
-275.14319
 30
0.0
 40
3.0
 41
0.0
 71
     5
 72
     1
  1
\A1;5°
 11
-0.459986
 21
-0.887926
 31
0.0
  0
POINT
  5
38B
100
AcDbEntity
  8
DEFPOINTS
  6
BYBLOCK
 62
     0
100
AcDbPoint
 10
649.950982
 20
-282.188867
 30
0.0
  0
POINT
  5
38C
100
AcDbEntity
  8
DEFPOINTS
  6
BYBLOCK
 62
     0
100
AcDbPoint
 10
658.385439
 20
-281.697616
 30
0.0
  0
POINT
  5
38D
100
AcDbEntity
  8
DEFPOINTS
  6
BYBLOCK
 62
     0
100
AcDbPoint
 10
677.927328
 20
-279.987922
 30
0.0
  0
POINT
  5
38E
100
AcDbEntity
  8
DEFPOINTS
  6
BYBLOCK
 62
     0
100
AcDbPoint
 10
658.385439
 20
-281.697616
 30
0.0
  0
POINT
  5
38F
100
AcDbEntity
  8
DEFPOINTS
  6
BYBLOCK
 62
     0
100
AcDbPoint
 10
657.385439
 20
-281.697616
 30
0.0
  0
ENDBLK
  5
390
100
AcDbEntity
  8
0
100
AcDbBlockEnd
  0
BLOCK
  5
375
100
AcDbEntity
  8
0
100
AcDbBlockBegin
  2
*D27
 70
     1
 10
0.0
 20
0.0
 30
0.0
  3
*D27
  1

  0
LINE
  5
376
100
AcDbEntity
  8
0
  6
BYBLOCK
 62
     1
100
AcDbLine
 10
678.385439
 20
-280.338872
 30
0.0
 11
678.385439
 21
-270.595496
 31
0.0
  0
LINE
  5
377
100
AcDbEntity
  8
0
  6
BYBLOCK
 62
     1
100
AcDbLine
 10
658.385439
 20
-280.697616
 30
0.0
 11
658.385439
 21
-270.595496
 31
0.0
  0
LINE
  5
378
100
AcDbEntity
  8
0
  6
BYBLOCK
 62
     1
100
AcDbLine
 10
676.385439
 20
-272.095496
 30
0.0
 11
660.385439
 21
-272.095496
 31
0.0
  0
INSERT
  5
379
100
AcDbEntity
  8
0
  6
BYBLOCK
 62
     1
100
AcDbBlockReference
  2
_OPEN30
 10
678.385439
 20
-272.095496
 30
0.0
 41
2.0
 42
2.0
 43
2.0
  0
INSERT
  5
37A
100
AcDbEntity
  8
0
  6
BYBLOCK
 62
     1
100
AcDbBlockReference
  2
_OPEN30
 10
658.385439
 20
-272.095496
 30
0.0
 41
2.0
 42
2.0
 43
2.0
 50
180.0
  0
MTEXT
  5
37B
100
AcDbEntity
  8
0
  6
BYBLOCK
 62
     3
100
AcDbMText
 10
668.385439
 20
-269.595496
 30
0.0
 40
3.0
 41
0.0
 71
     5
 72
     1
  1
\A1;20
  0
POINT
  5
37C
100
AcDbEntity
  8
DEFPOINTS
  6
BYBLOCK
 62
     0
100
AcDbPoint
 10
678.385439
 20
-281.338872
 30
0.0
  0
POINT
  5
37D
100
AcDbEntity
  8
DEFPOINTS
  6
BYBLOCK
 62
     0
100
AcDbPoint
 10
658.385439
 20
-281.697616
 30
0.0
  0
POINT
  5
37E
100
AcDbEntity
  8
DEFPOINTS
  6
BYBLOCK
 62
     0
100
AcDbPoint
 10
658.385439
 20
-272.095496
 30
0.0
  0
ENDBLK
  5
37F
100
AcDbEntity
  8
0
100
AcDbBlockEnd
  0
BLOCK
  5
3AA
100
AcDbEntity
  8
0
100
AcDbBlockBegin
  2
*D29
 70
     1
 10
0.0
 20
0.0
 30
0.0
  3
*D29
  1

  0
LINE
  5
3AB
100
AcDbEntity
  8
0
  6
BYBLOCK
 62
     1
100
AcDbLine
 10
759.385439
 20
-281.697616
 30
0.0
 11
770.267341
 21
-281.697616
 31
0.0
  0
LINE
  5
3AC
100
AcDbEntity
  8
0
  6
BYBLOCK
 62
     1
100
AcDbLine
 10
759.385439
 20
-297.697616
 30
0.0
 11
770.267341
 21
-297.697616
 31
0.0
  0
LINE
  5
3AD
100
AcDbEntity
  8
0
  6
BYBLOCK
 62
     1
100
AcDbLine
 10
768.767341
 20
-283.697616
 30
0.0
 11
768.767341
 21
-295.697616
 31
0.0
  0
INSERT
  5
3AE
100
AcDbEntity
  8
0
  6
BYBLOCK
 62
     1
100
AcDbBlockReference
  2
_OPEN30
 10
768.767341
 20
-281.697616
 30
0.0
 41
2.0
 42
2.0
 43
2.0
 50
90.0
  0
INSERT
  5
3AF
100
AcDbEntity
  8
0
  6
BYBLOCK
 62
     1
100
AcDbBlockReference
  2
_OPEN30
 10
768.767341
 20
-297.697616
 30
0.0
 41
2.0
 42
2.0
 43
2.0
 50
270.0
  0
MTEXT
  5
3B0
100
AcDbEntity
  8
0
  6
BYBLOCK
 62
     3
100
AcDbMText
 10
766.267341
 20
-289.697616
 30
0.0
 40
3.0
 41
0.0
 71
     5
 72
     1
  1
\A1;16
 11
0.0
 21
1.0
 31
0.0
  0
POINT
  5
3B1
100
AcDbEntity
  8
DEFPOINTS
  6
BYBLOCK
 62
     0
100
AcDbPoint
 10
758.385439
 20
-281.697616
 30
0.0
  0
POINT
  5
3B2
100
AcDbEntity
  8
DEFPOINTS
  6
BYBLOCK
 62
     0
100
AcDbPoint
 10
758.385439
 20
-297.697616
 30
0.0
  0
POINT
  5
3B3
100
AcDbEntity
  8
DEFPOINTS
  6
BYBLOCK
 62
     0
100
AcDbPoint
 10
768.767341
 20
-297.697616
 30
0.0
  0
ENDBLK
  5
3B4
100
AcDbEntity
  8
0
100
AcDbBlockEnd
  0
ENDSEC
  0
SECTION
  2
ENTITIES
  0
LINE
  5
25
100
AcDbEntity
  8
外形
  6
CONTINUOUS
100
AcDbLine
 10
633.698296
 20
-220.630396
 30
0.0
 11
631.947946
 21
-240.63699
 31
0.0
  0
LINE
  5
27
100
AcDbEntity
  8
外形
  6
CONTINUOUS
100
AcDbLine
 10
628.547341
 20
-224.891212
 30
0.0
 11
627.206059
 21
-240.222128
 31
0.0
  0
LINE
  5
28
100
AcDbEntity
  8
外形
  6
CONTINUOUS
100
AcDbLine
 10
625.848996
 20
-224.754409
 30
0.0
 11
624.524953
 21
-239.888291
 31
0.0
  0
LINE
  5
29
100
AcDbEntity
  8
外形
  6
CONTINUOUS
100
AcDbLine
 10
615.947946
 20
-220.630396
 30
0.0
 11
615.947946
 21
-239.136558
 31
0.0
  0
DIMENSION
  5
2A
100
AcDbEntity
  8
寸法
  6
CONTINUOUS
100
AcDbDimension
  2
*D16
 10
631.947946
 20
-254.614265
 30
0.0
 11
624.010915
 21
-248.201248
 31
0.0
 70
    34
  3
STANDARD
100
AcDb2LineAngularDimension
 13
634.210461
 23
-214.776331
 33
0.0
 14
632.809856
 24
-230.785313
 34
0.0
 15
631.947946
 25
-240.63699
 35
0.0
 16
631.58189
 26
-253.21752
 36
0.0
1001
ACAD
1000
DSTYLE
1002
{
1002
}
  0
LINE
  5
66
100
AcDbEntity
  8
外形
  6
CONTINUOUS
100
AcDbLine
 10
658.385317
 20
-239.830484
 30
0.0
 11
658.625121
 21
-226.092112
 31
0.0
  0
DIMENSION
  5
68
100
AcDbEntity
  8
寸法
  6
CONTINUOUS
100
AcDbDimension
  2
*D20
 10
767.614344
 20
-236.630396
 30
0.0
 11
765.114344
 21
-228.630396
 31
0.0
 70
    32
  3
STANDARD
100
AcDbAlignedDimension
 13
758.385439
 23
-220.630396
 33
0.0
 14
758.385439
 24
-236.630396
 34
0.0
 50
90.0
100
AcDbRotatedDimension
1001
ACAD
1000
DSTYLE
1002
{
1002
}
  0
DIMENSION
  5
75
100
AcDbEntity
  8
寸法
  6
CONTINUOUS
100
AcDbDimension
  2
*D21
 10
658.625121
 20
-226.092112
 30
0.0
 11
650.219227
 21
-232.334731
 31
0.0
 70
    34
  3
STANDARD
100
AcDb2LineAngularDimension
 13
658.385439
 23
-240.630396
 33
0.0
 14
656.700716
 24
-240.630396
 34
0.0
 15
658.385561
 25
-239.816524
 35
0.0
 16
653.898275
 26
-232.670317
 36
0.0
1001
ACAD
1000
DSTYLE
1002
{
1002
}
  0
DIMENSION
  5
83
100
AcDbEntity
  8
寸法
  6
CONTINUOUS
100
AcDbDimension
  2
*D22
 10
643.379379
 20
-240.630396
 30
0.0
 11
640.879379
 21
-230.630396
 31
0.0
 70
    32
  3
STANDARD
100
AcDbAlignedDimension
 13
664.888001
 23
-220.630396
 33
0.0
 14
658.385439
 24
-240.630396
 34
0.0
 50
90.0
100
AcDbRotatedDimension
1001
ACAD
1000
DSTYLE
1002
{
1002
}
  0
LINE
  5
90
100
AcDbEntity
  8
外形
  6
CONTINUOUS
100
AcDbLine
 10
659.83703
 20
-225.42034
 30
0.0
 11
672.790665
 21
-233.203669
 31
0.0
  0
LINE
  5
91
100
AcDbEntity
  8
外形
  6
CONTINUOUS
100
AcDbLine
 10
677.927328
 20
-220.630396
 30
0.0
 11
678.385439
 21
-236.98914
 31
0.0
  0
LINE
  5
92
100
AcDbEntity
  8
外形
  6
CONTINUOUS
100
AcDbLine
 10
758.385439
 20
-236.630396
 30
0.0
 11
758.385439
 21
-220.630396
 31
0.0
  0
LINE
  5
93
100
AcDbEntity
  8
外形
  6
CONTINUOUS
100
AcDbLine
 10
678.385439
 20
-220.630396
 30
0.0
 11
678.385439
 21
-236.98914
 31
0.0
  0
LINE
  5
94
100
AcDbEntity
  8
外形
  6
CONTINUOUS
100
AcDbLine
 10
659.83703
 20
-225.42034
 30
0.0
 11
671.602939
 21
-232.490011
 31
0.0
  0
DIMENSION
  5
95
100
AcDbEntity
  8
寸法
  6
CONTINUOUS
100
AcDbDimension
  2
*D23
 10
758.385439
 20
-248.358365
 30
0.0
 11
708.385439
 21
-245.858365
 31
0.0
 70
    32
  3
STANDARD
100
AcDbAlignedDimension
 13
658.385439
 23
-240.630396
 33
0.0
 14
758.385439
 24
-235.630396
 34
0.0
 50
360.0
100
AcDbRotatedDimension
1001
ACAD
1000
DSTYLE
1002
{
1002
}
  0
LINE
  5
A2
100
AcDbEntity
  8
外形
  6
CONTINUOUS
100
AcDbLine
 10
659.285439
 20
-297.697616
 30
0.0
 11
758.385439
 21
-297.697616
 31
0.0
  0
LINE
  5
A3
100
AcDbEntity
  8
外形
  6
CONTINUOUS
100
AcDbLine
 10
758.385439
 20
-236.630396
 30
0.0
 11
679.152766
 21
-236.630396
 31
0.0
  0
LINE
  5
A4
100
AcDbEntity
  8
外形
  6
CONTINUOUS
100
AcDbLine
 10
679.152766
 20
-281.697616
 30
0.0
 11
758.385439
 21
-281.697616
 31
0.0
  0
LINE
  5
A5
100
AcDbEntity
  8
外形
  6
CONTINUOUS
100
AcDbLine
 10
659.285439
 20
-297.697616
 30
0.0
 11
758.385439
 21
-297.697616
 31
0.0
  0
LINE
  5
A6
100
AcDbEntity
  8
外形
  6
CONTINUOUS
100
AcDbLine
 10
659.285439
 20
-297.697616
 30
0.0
 11
758.385439
 21
-297.697616
 31
0.0
  0
LINE
  5
A7
100
AcDbEntity
  8
外形
  6
CONTINUOUS
100
AcDbLine
 10
659.285439
 20
-297.697616
 30
0.0
 11
758.385439
 21
-297.697616
 31
0.0
  0
LINE
  5
A8
100
AcDbEntity
  8
外形
  6
CONTINUOUS
100
AcDbLine
 10
659.285439
 20
-297.697616
 30
0.0
 11
758.385439
 21
-297.697616
 31
0.0
  0
LINE
  5
A9
100
AcDbEntity
  8
寸法
  6
CONTINUOUS
100
AcDbLine
 10
631.947946
 20
-240.63699
 30
0.0
 11
643.535629
 21
-240.630396
 31
0.0
  0
LINE
  5
AA
100
AcDbEntity
  8
外形
  6
CONTINUOUS
100
AcDbLine
 10
624.590721
 20
-239.136558
 30
0.0
 11
615.947946
 21
-239.136558
 31
0.0
  0
LINE
  5
AB
100
AcDbEntity
  8
寸法
  6
CONTINUOUS
100
AcDbLine
 10
631.947946
 20
-240.63699
 30
0.0
 11
631.947946
 21
-254.614265
 31
0.0
  0
LINE
  5
AC
100
AcDbEntity
  8
外形
  6
CONTINUOUS
100
AcDbLine
 10
631.947946
 20
-240.63699
 30
0.0
 11
627.206059
 21
-240.222128
 31
0.0
  0
LINE
  5
AD
100
AcDbEntity
  8
外形
  6
CONTINUOUS
100
AcDbLine
 10
627.214678
 20
-240.123612
 30
0.0
 11
624.524953
 21
-239.888291
 31
0.0
  0
DIMENSION
  5
AE
100
AcDbEntity
  8
寸法
  6
CONTINUOUS
100
AcDbDimension
  2
*D24
 10
646.157093
 20
-297.697616
 30
0.0
 11
643.657093
 21
-289.697616
 31
0.0
 70
    32
  3
STANDARD
100
AcDbAlignedDimension
 13
658.385439
 23
-281.697616
 33
0.0
 14
659.285439
 24
-297.697616
 34
0.0
 50
90.0
100
AcDbRotatedDimension
1001
ACAD
1000
DSTYLE
1002
{
1002
}
  0
LINE
  5
BB
100
AcDbEntity
  8
外形
  6
CONTINUOUS
100
AcDbLine
 10
678.385439
 20
-281.338872
 30
0.0
 11
678.385439
 21
-297.697616
 31
0.0
  0
LINE
  5
BC
100
AcDbEntity
  8
外形
  6
CONTINUOUS
100
AcDbLine
 10
677.927328
 20
-279.987922
 30
0.0
 11
677.927328
 21
-297.697616
 31
0.0
  0
LINE
  5
BD
100
AcDbEntity
  8
外形
  6
CONTINUOUS
100
AcDbLine
 10
668.246098
 20
-280.83492
 30
0.0
 11
668.246098
 21
-297.697616
 31
0.0
  0
LINE
  5
BE
100
AcDbEntity
  8
外形
  6
CONTINUOUS
100
AcDbLine
 10
664.023958
 20
-285.982492
 30
0.0
 11
658.8003
 21
-286.439502
 31
0.0
  0
LINE
  5
BF
100
AcDbEntity
  8
外形
  6
CONTINUOUS
100
AcDbLine
 10
658.385439
 20
-281.697616
 30
0.0
 11
658.8003
 21
-286.439502
 31
0.0
  0
LINE
  5
C0
100
AcDbEntity
  8
外形
  6
CONTINUOUS
100
AcDbLine
 10
664.261762
 20
-288.700605
 30
0.0
 11
663.609096
 21
-281.240605
 31
0.0
  0
LINE
  5
C1
100
AcDbEntity
  8
外形
  6
CONTINUOUS
100
AcDbLine
 10
664.643399
 20
-288.638611
 30
0.0
 11
663.993217
 21
-281.206999
 31
0.0
  0
TEXT
  5
C2
100
AcDbEntity
  8
外形
  6
CONTINUOUS
 62
     2
100
AcDbText
 10
647.0595
 20
-318.753614
 30
0.0
 40
6.0
  1
PTFN R1616-33
 50
360.0
100
AcDbText
  0
LINE
  5
C3
100
AcDbEntity
  8
外形
  6
CONTINUOUS
100
AcDbLine
 10
664.643399
 20
-288.638611
 30
0.0
 11
659.134138
 21
-289.120609
 31
0.0
  0
LINE
  5
C4
100
AcDbEntity
  8
外形
  6
CONTINUOUS
100
AcDbLine
 10
658.898817
 20
-286.430883
 30
0.0
 11
659.134138
 21
-289.120609
 31
0.0
  0
LINE
  5
C5
100
AcDbEntity
  8
外形
  6
CONTINUOUS
100
AcDbLine
 10
659.285439
 20
-297.697616
 30
0.0
 11
659.285439
 21
-289.107372
 31
0.0
  0
DIMENSION
  5
D5
100
AcDbEntity
  8
寸法
  6
CONTINUOUS
100
AcDbDimension
  2
*D26
 10
657.385439
 20
-281.697616
 30
0.0
 11
655.08133
 21
-275.14319
 31
0.0
 70
    34
  3
STANDARD
100
AcDb2LineAngularDimension
 13
677.927328
 23
-279.987922
 33
0.0
 14
658.385439
 24
-281.697616
 34
0.0
 15
658.385439
 25
-281.697616
 35
0.0
 16
649.950982
 26
-282.188867
 36
0.0
  0
DIMENSION
  5
E6
100
AcDbEntity
  8
寸法
  6
CONTINUOUS
100
AcDbDimension
  2
*D27
 10
658.385439
 20
-272.095496
 30
0.0
 11
668.385439
 21
-269.595496
 31
0.0
 70
    32
  3
STANDARD
100
AcDbAlignedDimension
 13
678.385439
 23
-281.338872
 33
0.0
 14
658.385439
 24
-281.697616
 34
0.0
 50
360.0
100
AcDbRotatedDimension
1001
ACAD
1000
DSTYLE
1002
{
1002
}
  0
LINE
  5
F3
100
AcDbEntity
  8
外形
  6
CONTINUOUS
100
AcDbLine
 10
677.927328
 20
-279.987922
 30
0.0
 11
658.385439
 21
-281.697616
 31
0.0
  0
LINE
  5
F4
100
AcDbEntity
  8
寸法
  6
CONTINUOUS
100
AcDbLine
 10
658.385439
 20
-281.697616
 30
0.0
 11
657.385439
 21
-281.697616
 31
0.0
  0
LINE
  5
F5
100
AcDbEntity
  8
外形
  6
CONTINUOUS
100
AcDbLine
 10
678.18684
 20
-280.956435
 30
0.0
 11
677.927328
 21
-279.987922
 31
0.0
  0
ARC
  5
F6
100
AcDbEntity
  8
外形
  6
CONTINUOUS
100
AcDbCircle
 10
679.152766
 20
-280.697616
 30
0.0
 40
1.0
100
AcDbArc
 50
195.0
 51
270.0
  0
LINE
  5
F7
100
AcDbEntity
  8
外形
  6
CONTINUOUS
100
AcDbLine
 10
661.031369
 20
-239.721953
 30
0.0
 11
668.22167
 21
-239.721953
 31
0.0
  0
LINE
  5
F8
100
AcDbEntity
  8
外形
  6
CONTINUOUS
100
AcDbLine
 10
663.376098
 20
-238.422249
 30
0.0
 11
663.970257
 21
-239.721953
 31
0.0
  0
LINE
  5
108
100
AcDbEntity
  8
外形
  6
CONTINUOUS
100
AcDbLine
 10
671.578756
 20
-233.875441
 30
0.0
 11
659.573287
 21
-240.530182
 31
0.0
  0
CIRCLE
  5
109
100
AcDbEntity
  8
外形
  6
CONTINUOUS
100
AcDbCircle
 10
663.267116
 20
-233.037435
 30
0.0
 40
1.905
  0
LINE
  5
10F
100
AcDbEntity
  8
寸法
  6
CONTINUOUS
100
AcDbLine
 10
658.385439
 20
-240.630396
 30
0.0
 11
656.700716
 21
-240.630396
 31
0.0
  0
ARC
  5
110
100
AcDbEntity
  8
外形
  6
CONTINUOUS
100
AcDbCircle
 10
659.185439
 20
-239.830486
 30
0.0
 40
0.8
100
AcDbArc
 50
179.0
 51
299.0
  0
LINE
  5
111
100
AcDbEntity
  8
外形
  6
CONTINUOUS
100
AcDbLine
 10
668.22167
 20
-239.721953
 30
0.0
 11
677.781157
 21
-238.885607
 31
0.0
  0
LINE
  5
112
100
AcDbEntity
  8
外形
  6
CONTINUOUS
100
AcDbLine
 10
668.75097
 20
-235.442909
 30
0.0
 11
670.730513
 21
-236.632338
 31
0.0
  0
ARC
  5
113
100
AcDbEntity
  8
外形
  6
CONTINUOUS
100
AcDbCircle
 10
671.760589
 20
-234.918004
 30
0.0
 40
2.0
100
AcDbArc
 50
239.0
 51
59.0
  0
ARC
  5
114
100
AcDbEntity
  8
外形
  6
CONTINUOUS
100
AcDbCircle
 10
671.190909
 20
-233.175745
 30
0.0
 40
0.8
100
AcDbArc
 50
299.0
 51
59.0
  0
LINE
  5
115
100
AcDbEntity
  8
外形
  6
CONTINUOUS
100
AcDbLine
 10
678.18684
 20
-237.371577
 30
0.0
 11
677.781157
 21
-238.885607
 31
0.0
  0
ARC
  5
116
100
AcDbEntity
  8
外形
  6
CONTINUOUS
100
AcDbCircle
 10
679.152766
 20
-237.630396
 30
0.0
 40
1.0
100
AcDbArc
 50
90.0
 51
165.0
  0
DIMENSION
  5
117
100
AcDbEntity
  8
寸法
  6
CONTINUOUS
100
AcDbDimension
  2
*D29
 10
768.767341
 20
-297.697616
 30
0.0
 11
766.267341
 21
-289.697616
 31
0.0
 70
    32
  3
STANDARD
100
AcDbAlignedDimension
 13
758.385439
 23
-281.697616
 33
0.0
 14
758.385439
 24
-297.697616
 34
0.0
 50
90.0
100
AcDbRotatedDimension
1001
ACAD
1000
DSTYLE
1002
{
1002
}
  0
LINE
  5
124
100
AcDbEntity
  8
外形
  6
CONTINUOUS
100
AcDbLine
 10
758.385439
 20
-281.697616
 30
0.0
 11
758.385439
 21
-297.697616
 31
0.0
  0
LINE
  5
125
100
AcDbEntity
  8
外形
  6
CONTINUOUS
100
AcDbLine
 10
758.385439
 20
-281.697616
 30
0.0
 11
758.385439
 21
-297.697616
 31
0.0
  0
LINE
  5
126
100
AcDbEntity
  8
外形
  6
CONTINUOUS
100
AcDbLine
 10
758.385439
 20
-281.697616
 30
0.0
 11
758.385439
 21
-297.697616
 31
0.0
  0
LINE
  5
127
100
AcDbEntity
  8
外形
  6
CONTINUOUS
100
AcDbLine
 10
758.385439
 20
-281.697616
 30
0.0
 11
758.385439
 21
-297.697616
 31
0.0
  0
LINE
  5
128
100
AcDbEntity
  8
外形
  6
CONTINUOUS
100
AcDbLine
 10
758.385439
 20
-281.697616
 30
0.0
 11
758.385439
 21
-297.697616
 31
0.0
  0
LINE
  5
129
100
AcDbEntity
  8
外形
  6
CONTINUOUS
100
AcDbLine
 10
758.385439
 20
-220.630396
 30
0.0
 11
668.43066
 21
-220.630396
 31
0.0
  0
LINE
  5
12A
100
AcDbEntity
  8
外形
  6
CONTINUOUS
100
AcDbLine
 10
758.385439
 20
-220.630396
 30
0.0
 11
664.888001
 21
-220.630396
 31
0.0
  0
LINE
  5
12B
100
AcDbEntity
  8
外形
  6
CONTINUOUS
100
AcDbLine
 10
758.385439
 20
-220.630396
 30
0.0
 11
668.43066
 21
-220.630396
 31
0.0
  0
LINE
  5
12C
100
AcDbEntity
  8
外形
  6
CONTINUOUS
100
AcDbLine
 10
615.947946
 20
-220.630396
 30
0.0
 11
633.698296
 21
-220.630396
 31
0.0
  0
LINE
  5
12D
100
AcDbEntity
  8
外形
  6
CONTINUOUS
100
AcDbLine
 10
633.698296
 20
-220.630396
 30
0.0
 11
615.947946
 21
-220.630396
 31
0.0
  0
LINE
  5
12E
100
AcDbEntity
  8
外形
  6
CONTINUOUS
100
AcDbLine
 10
633.43583
 20
-223.630396
 30
0.0
 11
615.947946
 21
-223.630396
 31
0.0
  0
LINE
  5
12F
100
AcDbEntity
  8
外形
  6
CONTINUOUS
100
AcDbLine
 10
633.289227
 20
-225.306074
 30
0.0
 11
628.547341
 21
-224.891212
 31
0.0
  0
LINE
  5
130
100
AcDbEntity
  8
外形
  6
CONTINUOUS
100
AcDbLine
 10
628.538722
 20
-224.989729
 30
0.0
 11
625.848996
 21
-224.754409
 31
0.0
  0
LINE
  5
131
100
AcDbEntity
  8
外形
  6
CONTINUOUS
100
AcDbLine
 10
664.888001
 20
-220.630396
 30
0.0
 11
659.691849
 21
-223.630396
 31
0.0
  0
LINE
  5
132
100
AcDbEntity
  8
外形
  6
CONTINUOUS
100
AcDbLine
 10
659.691849
 20
-223.630396
 30
0.0
 11
659.647145
 21
-225.337535
 31
0.0
  0
ARC
  5
133
100
AcDbEntity
  8
外形
  6
CONTINUOUS
100
AcDbCircle
 10
659.424999
 20
-226.106074
 30
0.0
 40
0.8
100
AcDbArc
 50
59.0
 51
179.0
  0
LWPOLYLINE
  5
134
100
AcDbEntity
  8
外形
  6
CONTINUOUS
100
AcDbPolyline
 90
        6
 70
     1
 43
0.0
 10
669.750255
 20
-226.28329
 10
669.9636
 20
-227.710811
 10
671.306542
 20
-228.23981
 10
672.436139
 20
-227.341287
 10
672.222795
 20
-225.913766
 10
670.879853
 20
-225.384767
  0
CIRCLE
  5
135
100
AcDbEntity
  8
外形
  6
CONTINUOUS
100
AcDbCircle
 10
671.093197
 20
-226.812289
 30
0.0
 40
2.4585
  0
CIRCLE
  5
136
100
AcDbEntity
  8
外形
  6
CONTINUOUS
100
AcDbCircle
 10
671.093197
 20
-226.812289
 30
0.0
 40
3.0
  0
ENDSEC
  0
SECTION
  2
OBJECTS
  0
DICTIONARY
  5
1A
100
AcDbDictionary
  3
ACAD_GROUP
350
18
  3
ACAD_MLINESTYLE
350
19
  0
DICTIONARY
  5
18
102
{ACAD_REACTORS
330
1A
102
}
100
AcDbDictionary
  0
DICTIONARY
  5
19
102
{ACAD_REACTORS
330
1A
102
}
100
AcDbDictionary
  3
STANDARD
350
1C
  0
MLINESTYLE
  5
1C
102
{ACAD_REACTORS
330
19
102
}
100
AcDbMlineStyle
  2
STANDARD
 70
     0
  3

 62
     0
 51
90.0
 52
90.0
 71
     2
 49
0.5
 62
   256
  6
BYLAYER
 49
-0.5
 62
   256
  6
BYLAYER
  0
ENDSEC
  0
EOF
