  0
SECTION
  2
HEADER
  9
$ACADVER
  1
AC1014
  9
$ACADMAINTVER
 70
     0
  9
$DWGCODEPAGE
  3
ANSI_932
  9
$INSBASE
 10
-31.067431
 20
-138.524955
 30
0.0
  9
$EXTMIN
 10
0.0
 20
-113.996071
 30
0.0
  9
$EXTMAX
 10
206.374643
 20
0.854065
 30
0.0
  9
$LIMMIN
 10
-587.250952
 20
327.890188
  9
$LIMMAX
 10
600.749048
 20
957.890188
  9
$ORTHOMODE
 70
     1
  9
$REGENMODE
 70
     1
  9
$FILLMODE
 70
     1
  9
$QTEXTMODE
 70
     0
  9
$MIRRTEXT
 70
     1
  9
$DRAGMODE
 70
     2
  9
$LTSCALE
 40
5.0
  9
$OSMODE
 70
    37
  9
$ATTMODE
 70
     1
  9
$TEXTSIZE
 40
4.0
  9
$TRACEWID
 40
0.05
  9
$TEXTSTYLE
  7
STANDARD
  9
$CLAYER
  8
外形
  9
$CELTYPE
  6
CONTINUOUS
  9
$CECOLOR
 62
   256
  9
$CELTSCALE
 40
1.0
  9
$DELOBJ
 70
     1
  9
$DISPSILH
 70
     0
  9
$DIMSCALE
 40
1.0
  9
$DIMASZ
 40
2.0
  9
$DIMEXO
 40
1.0
  9
$DIMDLI
 40
8.0
  9
$DIMRND
 40
0.0
  9
$DIMDLE
 40
0.0
  9
$DIMEXE
 40
1.5
  9
$DIMTP
 40
0.0
  9
$DIMTM
 40
0.0
  9
$DIMTXT
 40
3.0
  9
$DIMCEN
 40
-1.0
  9
$DIMTSZ
 40
0.0
  9
$DIMTOL
 70
     0
  9
$DIMLIM
 70
     0
  9
$DIMTIH
 70
     0
  9
$DIMTOH
 70
     0
  9
$DIMSE1
 70
     0
  9
$DIMSE2
 70
     0
  9
$DIMTAD
 70
     1
  9
$DIMZIN
 70
     8
  9
$DIMBLK
  1

  9
$DIMASO
 70
     1
  9
$DIMSHO
 70
     1
  9
$DIMPOST
  1

  9
$DIMAPOST
  1

  9
$DIMALT
 70
     0
  9
$DIMALTD
 70
     2
  9
$DIMALTF
 40
25.4
  9
$DIMLFAC
 40
1.0
  9
$DIMTOFL
 70
     1
  9
$DIMTVP
 40
0.0
  9
$DIMTIX
 70
     0
  9
$DIMSOXD
 70
     0
  9
$DIMSAH
 70
     1
  9
$DIMBLK1
  1
_OPEN30
  9
$DIMBLK2
  1
_OPEN30
  9
$DIMSTYLE
  2
STANDARD
  9
$DIMCLRD
 70
     1
  9
$DIMCLRE
 70
     1
  9
$DIMCLRT
 70
     3
  9
$DIMTFAC
 40
1.0
  9
$DIMGAP
 40
1.0
  9
$DIMJUST
 70
     0
  9
$DIMSD1
 70
     0
  9
$DIMSD2
 70
     0
  9
$DIMTOLJ
 70
     1
  9
$DIMTZIN
 70
     8
  9
$DIMALTZ
 70
     0
  9
$DIMALTTZ
 70
     0
  9
$DIMFIT
 70
     3
  9
$DIMUPT
 70
     0
  9
$DIMUNIT
 70
     2
  9
$DIMDEC
 70
     3
  9
$DIMTDEC
 70
     4
  9
$DIMALTU
 70
     2
  9
$DIMALTTD
 70
     2
  9
$DIMTXSTY
  7
STANDARD
  9
$DIMAUNIT
 70
     0
  9
$LUNITS
 70
     2
  9
$LUPREC
 70
     4
  9
$SKETCHINC
 40
0.1
  9
$FILLETRAD
 40
1.0
  9
$AUNITS
 70
     0
  9
$AUPREC
 70
     0
  9
$MENU
  1
acad
  9
$ELEVATION
 40
0.0
  9
$PELEVATION
 40
0.0
  9
$THICKNESS
 40
0.0
  9
$LIMCHECK
 70
     0
  9
$BLIPMODE
 70
     1
  9
$CHAMFERA
 40
0.0
  9
$CHAMFERB
 40
0.0
  9
$CHAMFERC
 40
0.0
  9
$CHAMFERD
 40
0.0
  9
$SKPOLY
 70
     0
  9
$TDCREATE
 40
2450751.535399305
  9
$TDUPDATE
 40
2451930.469027777
  9
$TDINDWG
 40
1.7812824074
  9
$TDUSRTIMER
 40
1.7812824074
  9
$USRTIMER
 70
     1
  9
$ANGBASE
 50
0.0
  9
$ANGDIR
 70
     0
  9
$PDMODE
 70
     0
  9
$PDSIZE
 40
0.0
  9
$PLINEWID
 40
0.0
  9
$COORDS
 70
     1
  9
$SPLFRAME
 70
     0
  9
$SPLINETYPE
 70
     5
  9
$SPLINESEGS
 70
     8
  9
$ATTDIA
 70
     0
  9
$ATTREQ
 70
     1
  9
$HANDLING
 70
     1
  9
$HANDSEED
  5
26C
  9
$SURFTAB1
 70
     6
  9
$SURFTAB2
 70
     6
  9
$SURFTYPE
 70
     6
  9
$SURFU
 70
     6
  9
$SURFV
 70
     6
  9
$UCSNAME
  2

  9
$UCSORG
 10
0.0
 20
0.0
 30
0.0
  9
$UCSXDIR
 10
1.0
 20
0.0
 30
0.0
  9
$UCSYDIR
 10
0.0
 20
1.0
 30
0.0
  9
$PUCSNAME
  2

  9
$PUCSORG
 10
0.0
 20
0.0
 30
0.0
  9
$PUCSXDIR
 10
1.0
 20
0.0
 30
0.0
  9
$PUCSYDIR
 10
0.0
 20
1.0
 30
0.0
  9
$USERI1
 70
     0
  9
$USERI2
 70
     0
  9
$USERI3
 70
     0
  9
$USERI4
 70
     0
  9
$USERI5
 70
     0
  9
$USERR1
 40
0.0
  9
$USERR2
 40
0.0
  9
$USERR3
 40
0.0
  9
$USERR4
 40
0.0
  9
$USERR5
 40
0.0
  9
$WORLDVIEW
 70
     1
  9
$SHADEDGE
 70
     3
  9
$SHADEDIF
 70
    70
  9
$TILEMODE
 70
     1
  9
$MAXACTVP
 70
    16
  9
$PINSBASE
 10
0.0
 20
0.0
 30
0.0
  9
$PLIMCHECK
 70
     0
  9
$PEXTMIN
 10
1.000000E+20
 20
1.000000E+20
 30
1.000000E+20
  9
$PEXTMAX
 10
-1.000000E+20
 20
-1.000000E+20
 30
-1.000000E+20
  9
$PLIMMIN
 10
0.0
 20
0.0
  9
$PLIMMAX
 10
12.0
 20
9.0
  9
$UNITMODE
 70
     0
  9
$VISRETAIN
 70
     0
  9
$PLINEGEN
 70
     0
  9
$PSLTSCALE
 70
     1
  9
$TREEDEPTH
 70
  3020
  9
$PICKSTYLE
 70
     1
  9
$CMLSTYLE
  2
STANDARD
  9
$CMLJUST
 70
     0
  9
$CMLSCALE
 40
1.0
  9
$PROXYGRAPHICS
 70
     1
  9
$MEASUREMENT
 70
     0
  0
ENDSEC
  0
SECTION
  2
CLASSES
  0
CLASS
  1
LWPOLYLINE
  2
AcDbPolyline
  3
"AutoCAD"
 90
        0
280
     0
281
     1
  0
ENDSEC
  0
SECTION
  2
TABLES
  0
TABLE
  2
VPORT
  5
12
100
AcDbSymbolTable
 70
     1
  0
VPORT
  5
267
100
AcDbSymbolTableRecord
100
AcDbViewportTableRecord
  2
*ACTIVE
 70
     0
 10
0.0
 20
0.0
 11
1.0
 21
1.0
 12
109.476959
 22
-51.330718
 13
0.0
 23
0.0
 14
0.05
 24
0.05
 15
10.0
 25
10.0
 16
0.0
 26
0.0
 36
1.0
 17
0.0
 27
0.0
 37
0.0
 40
137.189084
 41
1.710425
 42
50.0
 43
0.0
 44
0.0
 50
0.0
 51
0.0
 71
     0
 72
   100
 73
     1
 74
     1
 75
     0
 76
     0
 77
     0
 78
     0
  0
ENDTAB
  0
TABLE
  2
LTYPE
  5
D
100
AcDbSymbolTable
 70
     1
  0
LTYPE
  5
E
100
AcDbSymbolTableRecord
100
AcDbLinetypeTableRecord
  2
BYBLOCK
 70
     0
  3

 72
    65
 73
     0
 40
0.0
  0
LTYPE
  5
F
100
AcDbSymbolTableRecord
100
AcDbLinetypeTableRecord
  2
BYLAYER
 70
     0
  3

 72
    65
 73
     0
 40
0.0
  0
LTYPE
  5
5
100
AcDbSymbolTableRecord
100
AcDbLinetypeTableRecord
  2
CONTINUOUS
 70
     0
  3
Solid line
 72
    65
 73
     0
 40
0.0
  0
ENDTAB
  0
TABLE
  2
LAYER
  5
A
100
AcDbSymbolTable
 70
     4
  0
LAYER
  5
4
100
AcDbSymbolTableRecord
100
AcDbLayerTableRecord
  2
0
 70
     0
 62
     7
  6
CONTINUOUS
  0
LAYER
  5
26
100
AcDbSymbolTableRecord
100
AcDbLayerTableRecord
  2
外形
 70
     0
 62
     3
  6
CONTINUOUS
  0
LAYER
  5
35
100
AcDbSymbolTableRecord
100
AcDbLayerTableRecord
  2
DEFPOINTS
 70
     0
 62
     7
  6
CONTINUOUS
  0
LAYER
  5
1B
100
AcDbSymbolTableRecord
100
AcDbLayerTableRecord
  2
寸法
 70
     0
 62
     1
  6
CONTINUOUS
  0
ENDTAB
  0
TABLE
  2
STYLE
  5
B
100
AcDbSymbolTable
 70
     1
  0
STYLE
  5
C
100
AcDbSymbolTableRecord
100
AcDbTextStyleTableRecord
  2
STANDARD
 70
     0
 40
0.0
 41
1.0
 50
0.0
 71
     0
 42
4.0
  3
MONOTXT
  4
BIGFONT
  0
ENDTAB
  0
TABLE
  2
VIEW
  5
10
100
AcDbSymbolTable
 70
     0
  0
ENDTAB
  0
TABLE
  2
UCS
  5
11
100
AcDbSymbolTable
 70
     0
  0
ENDTAB
  0
TABLE
  2
APPID
  5
14
100
AcDbSymbolTable
 70
     1
  0
APPID
  5
15
100
AcDbSymbolTableRecord
100
AcDbRegAppTableRecord
  2
ACAD
 70
     0
  0
ENDTAB
  0
TABLE
  2
DIMSTYLE
  5
16
100
AcDbSymbolTable
 70
     1
  0
DIMSTYLE
105
1D
102
{ACAD_REACTORS
330
5A
330
F3
330
6C
330
A8
330
B8
330
11A
330
40
330
8B
330
4D
102
}
100
AcDbSymbolTableRecord
100
AcDbDimStyleTableRecord
  2
STANDARD
 70
     0
  3

  4

  5

  6
_OPEN30
  7
_OPEN30
 40
1.0
 41
2.0
 42
1.0
 43
8.0
 44
1.5
 45
0.0
 46
0.0
 47
0.0
 48
0.0
140
3.0
141
-1.0
142
0.0
143
25.4
144
1.0
145
0.0
146
1.0
147
1.0
 71
     0
 72
     0
 73
     0
 74
     0
 75
     0
 76
     0
 77
     1
 78
     8
170
     0
171
     2
172
     1
173
     1
174
     0
175
     0
176
     1
177
     1
178
     3
270
     2
271
     3
272
     4
273
     2
274
     2
340
C
275
     0
280
     0
281
     0
282
     0
283
     1
284
     8
285
     0
286
     0
287
     3
288
     0
  0
ENDTAB
  0
TABLE
  2
BLOCK_RECORD
  5
1
100
AcDbSymbolTable
 70
    30
  0
BLOCK_RECORD
  5
2
100
AcDbSymbolTableRecord
100
AcDbBlockTableRecord
  2
*MODEL_SPACE
  0
BLOCK_RECORD
  5
7
100
AcDbSymbolTableRecord
100
AcDbBlockTableRecord
  2
*PAPER_SPACE
  0
BLOCK_RECORD
  5
1E
100
AcDbSymbolTableRecord
100
AcDbBlockTableRecord
  2
_DOTSMALL
  0
BLOCK_RECORD
  5
138
100
AcDbSymbolTableRecord
100
AcDbBlockTableRecord
  2
_OPEN30
  0
BLOCK_RECORD
  5
14E
100
AcDbSymbolTableRecord
100
AcDbBlockTableRecord
  2
*D17
  0
BLOCK_RECORD
  5
15A
100
AcDbSymbolTableRecord
100
AcDbBlockTableRecord
  2
*D18
  0
BLOCK_RECORD
  5
166
100
AcDbSymbolTableRecord
100
AcDbBlockTableRecord
  2
*D19
  0
BLOCK_RECORD
  5
175
100
AcDbSymbolTableRecord
100
AcDbBlockTableRecord
  2
*D20
  0
BLOCK_RECORD
  5
18D
100
AcDbSymbolTableRecord
100
AcDbBlockTableRecord
  2
*D22
  0
BLOCK_RECORD
  5
1A9
100
AcDbSymbolTableRecord
100
AcDbBlockTableRecord
  2
*D24
  0
BLOCK_RECORD
  5
1B5
100
AcDbSymbolTableRecord
100
AcDbBlockTableRecord
  2
*D25
  0
BLOCK_RECORD
  5
1DD
100
AcDbSymbolTableRecord
100
AcDbBlockTableRecord
  2
*D28
  0
BLOCK_RECORD
  5
1EA
100
AcDbSymbolTableRecord
100
AcDbBlockTableRecord
  2
*D29
  0
ENDTAB
  0
ENDSEC
  0
SECTION
  2
BLOCKS
  0
BLOCK
  5
3
100
AcDbEntity
  8
0
100
AcDbBlockBegin
  2
*MODEL_SPACE
 70
     0
 10
0.0
 20
0.0
 30
0.0
  3
*MODEL_SPACE
  1

  0
ENDBLK
  5
6
100
AcDbEntity
  8
0
100
AcDbBlockEnd
  0
BLOCK
  5
8
100
AcDbEntity
 67
     1
  8
0
100
AcDbBlockBegin
  2
*PAPER_SPACE
 70
     0
 10
0.0
 20
0.0
 30
0.0
  3
*PAPER_SPACE
  1

  0
ENDBLK
  5
9
100
AcDbEntity
 67
     1
  8
0
100
AcDbBlockEnd
  0
BLOCK
  5
23
100
AcDbEntity
  8
0
100
AcDbBlockBegin
  2
_DOTSMALL
 70
     0
 10
0.0
 20
0.0
 30
0.0
  3
_DOTSMALL
  1

  0
POLYLINE
  5
1F
100
AcDbEntity
  8
0
  6
BYBLOCK
 62
     0
100
AcDb2dPolyline
 66
     1
 10
0.0
 20
0.0
 30
0.0
 70
     1
 40
0.5
 41
0.5
  0
VERTEX
  5
20
100
AcDbEntity
  8
0
  6
BYBLOCK
 62
     0
100
AcDbVertex
100
AcDb2dVertex
 10
-0.0625
 20
0.0
 30
0.0
 42
1.0
  0
VERTEX
  5
21
100
AcDbEntity
  8
0
  6
BYBLOCK
 62
     0
100
AcDbVertex
100
AcDb2dVertex
 10
0.0625
 20
0.0
 30
0.0
 42
1.0
  0
SEQEND
  5
22
100
AcDbEntity
  8
0
  6
BYBLOCK
 62
     0
  0
ENDBLK
  5
24
100
AcDbEntity
  8
0
100
AcDbBlockEnd
  0
BLOCK
  5
139
100
AcDbEntity
  8
0
100
AcDbBlockBegin
  2
_OPEN30
 70
     0
 10
0.0
 20
0.0
 30
0.0
  3
_OPEN30
  1

  0
LINE
  5
13A
100
AcDbEntity
  8
0
  6
BYBLOCK
 62
     0
100
AcDbLine
 10
-1.0
 20
0.267949
 30
0.0
 11
0.0
 21
0.0
 31
0.0
  0
LINE
  5
13B
100
AcDbEntity
  8
0
  6
BYBLOCK
 62
     0
100
AcDbLine
 10
0.0
 20
0.0
 30
0.0
 11
-1.0
 21
-0.267949
 31
0.0
  0
LINE
  5
13C
100
AcDbEntity
  8
0
  6
BYBLOCK
 62
     0
100
AcDbLine
 10
0.0
 20
0.0
 30
0.0
 11
-1.0
 21
0.0
 31
0.0
  0
ENDBLK
  5
13D
100
AcDbEntity
  8
0
100
AcDbBlockEnd
  0
BLOCK
  5
251
100
AcDbEntity
  8
0
100
AcDbBlockBegin
  2
*D17
 70
     1
 10
0.0
 20
0.0
 30
0.0
  3
*D17
  1

  0
LINE
  5
252
100
AcDbEntity
  8
0
  6
BYBLOCK
 62
     1
100
AcDbLine
 10
195.49274
 20
0.0
 30
0.0
 11
205.750434
 21
0.0
 31
0.0
  0
LINE
  5
253
100
AcDbEntity
  8
0
  6
BYBLOCK
 62
     1
100
AcDbLine
 10
195.49274
 20
-20.0
 30
0.0
 11
205.750434
 21
-20.0
 31
0.0
  0
LINE
  5
254
100
AcDbEntity
  8
0
  6
BYBLOCK
 62
     1
100
AcDbLine
 10
204.250434
 20
-2.0
 30
0.0
 11
204.250434
 21
-18.0
 31
0.0
  0
INSERT
  5
255
100
AcDbEntity
  8
0
  6
BYBLOCK
 62
     1
100
AcDbBlockReference
  2
_OPEN30
 10
204.250434
 20
0.0
 30
0.0
 41
2.0
 42
2.0
 43
2.0
 50
90.0
  0
INSERT
  5
256
100
AcDbEntity
  8
0
  6
BYBLOCK
 62
     1
100
AcDbBlockReference
  2
_OPEN30
 10
204.250434
 20
-20.0
 30
0.0
 41
2.0
 42
2.0
 43
2.0
 50
270.0
  0
MTEXT
  5
257
100
AcDbEntity
  8
0
  6
BYBLOCK
 62
     3
100
AcDbMText
 10
201.750434
 20
-10.0
 30
0.0
 40
3.0
 41
0.0
 71
     5
 72
     1
  1
\A1;20
 11
0.0
 21
1.0
 31
0.0
  0
POINT
  5
258
100
AcDbEntity
  8
DEFPOINTS
  6
BYBLOCK
 62
     0
100
AcDbPoint
 10
194.49274
 20
0.0
 30
0.0
  0
POINT
  5
259
100
AcDbEntity
  8
DEFPOINTS
  6
BYBLOCK
 62
     0
100
AcDbPoint
 10
194.49274
 20
-20.0
 30
0.0
  0
POINT
  5
25A
100
AcDbEntity
  8
DEFPOINTS
  6
BYBLOCK
 62
     0
100
AcDbPoint
 10
204.250434
 20
-20.0
 30
0.0
  0
ENDBLK
  5
25B
100
AcDbEntity
  8
0
100
AcDbBlockEnd
  0
BLOCK
  5
211
100
AcDbEntity
  8
0
100
AcDbBlockBegin
  2
*D18
 70
     1
 10
0.0
 20
0.0
 30
0.0
  3
*D18
  1

  0
LINE
  5
212
100
AcDbEntity
  8
0
  6
BYBLOCK
 62
     1
100
AcDbLine
 10
87.196899
 20
0.0
 30
0.0
 11
52.98668
 21
0.0
 31
0.0
  0
LINE
  5
213
100
AcDbEntity
  8
0
  6
BYBLOCK
 62
     1
100
AcDbLine
 10
68.49274
 20
-25.0
 30
0.0
 11
52.98668
 21
-25.0
 31
0.0
  0
LINE
  5
214
100
AcDbEntity
  8
0
  6
BYBLOCK
 62
     1
100
AcDbLine
 10
54.48668
 20
-2.0
 30
0.0
 11
54.48668
 21
-23.0
 31
0.0
  0
INSERT
  5
215
100
AcDbEntity
  8
0
  6
BYBLOCK
 62
     1
100
AcDbBlockReference
  2
_OPEN30
 10
54.48668
 20
0.0
 30
0.0
 41
2.0
 42
2.0
 43
2.0
 50
90.0
  0
INSERT
  5
216
100
AcDbEntity
  8
0
  6
BYBLOCK
 62
     1
100
AcDbBlockReference
  2
_OPEN30
 10
54.48668
 20
-25.0
 30
0.0
 41
2.0
 42
2.0
 43
2.0
 50
270.0
  0
MTEXT
  5
217
100
AcDbEntity
  8
0
  6
BYBLOCK
 62
     3
100
AcDbMText
 10
51.98668
 20
-12.5
 30
0.0
 40
3.0
 41
0.0
 71
     5
 72
     1
  1
\A1;25
 11
0.0
 21
1.0
 31
0.0
  0
POINT
  5
218
100
AcDbEntity
  8
DEFPOINTS
  6
BYBLOCK
 62
     0
100
AcDbPoint
 10
88.196899
 20
0.0
 30
0.0
  0
POINT
  5
219
100
AcDbEntity
  8
DEFPOINTS
  6
BYBLOCK
 62
     0
100
AcDbPoint
 10
69.49274
 20
-25.0
 30
0.0
  0
POINT
  5
21A
100
AcDbEntity
  8
DEFPOINTS
  6
BYBLOCK
 62
     0
100
AcDbPoint
 10
54.48668
 20
-25.0
 30
0.0
  0
ENDBLK
  5
21B
100
AcDbEntity
  8
0
100
AcDbBlockEnd
  0
BLOCK
  5
201
100
AcDbEntity
  8
0
100
AcDbBlockBegin
  2
*D19
 70
     1
 10
0.0
 20
0.0
 30
0.0
  3
*D19
  1

  0
LINE
  5
202
100
AcDbEntity
  8
0
  6
BYBLOCK
 62
     1
100
AcDbLine
 10
19.912844
 20
-26.002789
 30
0.0
 11
18.772337
 21
-39.038848
 31
0.0
  0
ARC
  5
203
100
AcDbEntity
  8
0
  6
BYBLOCK
 62
     1
100
AcDbCircle
 10
20.0
 20
-25.006594
 30
0.0
 40
12.585855
100
AcDbArc
 50
246.712899
 51
265.0
  0
LINE
  5
204
100
AcDbEntity
  8
0
  6
BYBLOCK
 62
     1
100
AcDbLine
 10
15.024324
 20
-36.567147
 30
0.0
 11
7.12492
 21
-33.167234
 31
0.0
  0
ARC
  5
205
100
AcDbEntity
  8
0
  6
BYBLOCK
 62
     1
100
AcDbCircle
 10
20.0
 20
-25.006594
 30
0.0
 40
12.585855
100
AcDbArc
 50
246.771207
 51
255.885603
  0
ARC
  5
206
100
AcDbEntity
  8
0
  6
BYBLOCK
 62
     1
100
AcDbCircle
 10
20.0
 20
-25.006594
 30
0.0
 40
12.585855
100
AcDbArc
 50
279.114397
 51
288.228793
  0
ARC
  5
207
100
AcDbEntity
  8
0
  6
BYBLOCK
 62
     1
100
AcDbCircle
 10
20.0
 20
-25.006594
 30
0.0
 40
12.585855
100
AcDbArc
 50
265.0
 51
270.0
  0
INSERT
  5
208
100
AcDbEntity
  8
0
  6
BYBLOCK
 62
     1
100
AcDbBlockReference
  2
_OPEN30
 10
18.90307
 20
-37.544556
 30
0.0
 41
2.0
 42
2.0
 43
2.0
 50
350.442802
  0
INSERT
  5
209
100
AcDbEntity
  8
0
  6
BYBLOCK
 62
     1
100
AcDbBlockReference
  2
_OPEN30
 10
20.0
 20
-37.592449
 30
0.0
 41
2.0
 42
2.0
 43
2.0
 50
184.557198
  0
MTEXT
  5
20A
100
AcDbEntity
  8
0
  6
BYBLOCK
 62
     3
100
AcDbMText
 10
12.062969
 20
-32.570852
 30
0.0
 40
3.0
 41
0.0
 71
     5
 72
     1
  1
\A1;5°
 11
0.918535
 21
-0.395339
 31
0.0
  0
POINT
  5
20B
100
AcDbEntity
  8
DEFPOINTS
  6
BYBLOCK
 62
     0
100
AcDbPoint
 10
19.633944
 20
-37.587124
 30
0.0
  0
POINT
  5
20C
100
AcDbEntity
  8
DEFPOINTS
  6
BYBLOCK
 62
     0
100
AcDbPoint
 10
20.0
 20
-25.006594
 30
0.0
  0
POINT
  5
20D
100
AcDbEntity
  8
DEFPOINTS
  6
BYBLOCK
 62
     0
100
AcDbPoint
 10
22.262514
 20
0.854065
 30
0.0
  0
POINT
  5
20E
100
AcDbEntity
  8
DEFPOINTS
  6
BYBLOCK
 62
     0
100
AcDbPoint
 10
20.86191
 20
-15.154917
 30
0.0
  0
POINT
  5
20F
100
AcDbEntity
  8
DEFPOINTS
  6
BYBLOCK
 62
     0
100
AcDbPoint
 10
20.0
 20
-38.983869
 30
0.0
  0
ENDBLK
  5
210
100
AcDbEntity
  8
0
100
AcDbBlockEnd
  0
BLOCK
  5
1F6
100
AcDbEntity
  8
0
100
AcDbBlockBegin
  2
*D20
 70
     1
 10
0.0
 20
0.0
 30
0.0
  3
*D20
  1

  0
LINE
  5
1F7
100
AcDbEntity
  8
0
  6
BYBLOCK
 62
     1
100
AcDbLine
 10
69.49274
 20
-26.0
 30
0.0
 11
69.49274
 21
-34.22797
 31
0.0
  0
LINE
  5
1F8
100
AcDbEntity
  8
0
  6
BYBLOCK
 62
     1
100
AcDbLine
 10
194.49274
 20
-21.0
 30
0.0
 11
194.49274
 21
-34.22797
 31
0.0
  0
LINE
  5
1F9
100
AcDbEntity
  8
0
  6
BYBLOCK
 62
     1
100
AcDbLine
 10
71.49274
 20
-32.72797
 30
0.0
 11
192.49274
 21
-32.72797
 31
0.0
  0
INSERT
  5
1FA
100
AcDbEntity
  8
0
  6
BYBLOCK
 62
     1
100
AcDbBlockReference
  2
_OPEN30
 10
69.49274
 20
-32.72797
 30
0.0
 41
2.0
 42
2.0
 43
2.0
 50
180.0
  0
INSERT
  5
1FB
100
AcDbEntity
  8
0
  6
BYBLOCK
 62
     1
100
AcDbBlockReference
  2
_OPEN30
 10
194.49274
 20
-32.72797
 30
0.0
 41
2.0
 42
2.0
 43
2.0
  0
MTEXT
  5
1FC
100
AcDbEntity
  8
0
  6
BYBLOCK
 62
     3
100
AcDbMText
 10
131.99274
 20
-30.22797
 30
0.0
 40
3.0
 41
0.0
 71
     5
 72
     1
  1
\A1;125
  0
POINT
  5
1FD
100
AcDbEntity
  8
DEFPOINTS
  6
BYBLOCK
 62
     0
100
AcDbPoint
 10
69.49274
 20
-25.0
 30
0.0
  0
POINT
  5
1FE
100
AcDbEntity
  8
DEFPOINTS
  6
BYBLOCK
 62
     0
100
AcDbPoint
 10
194.49274
 20
-20.0
 30
0.0
  0
POINT
  5
1FF
100
AcDbEntity
  8
DEFPOINTS
  6
BYBLOCK
 62
     0
100
AcDbPoint
 10
194.49274
 20
-32.72797
 30
0.0
  0
ENDBLK
  5
200
100
AcDbEntity
  8
0
100
AcDbBlockEnd
  0
BLOCK
  5
227
100
AcDbEntity
  8
0
100
AcDbBlockBegin
  2
*D22
 70
     1
 10
0.0
 20
0.0
 30
0.0
  3
*D22
  1

  0
LINE
  5
228
100
AcDbEntity
  8
0
  6
BYBLOCK
 62
     1
100
AcDbLine
 10
67.49274
 20
-66.06722
 30
0.0
 11
60.502275
 21
-66.06722
 31
0.0
  0
LINE
  5
229
100
AcDbEntity
  8
0
  6
BYBLOCK
 62
     1
100
AcDbLine
 10
68.496546
 20
-66.154376
 30
0.0
 11
60.536487
 21
-66.850791
 31
0.0
  0
ARC
  5
22A
100
AcDbEntity
  8
0
  6
BYBLOCK
 62
     1
100
AcDbCircle
 10
69.49274
 20
-66.06722
 30
0.0
 40
7.490465
100
AcDbArc
 50
149.027618
 51
180.0
  0
LINE
  5
22B
100
AcDbEntity
  8
0
  6
BYBLOCK
 62
     1
100
AcDbLine
 10
63.0703
 20
-62.212441
 30
0.0
 11
67.496074
 21
-54.838668
 31
0.0
  0
ARC
  5
22C
100
AcDbEntity
  8
0
  6
BYBLOCK
 62
     1
100
AcDbCircle
 10
69.49274
 20
-66.06722
 30
0.0
 40
7.490465
100
AcDbArc
 50
149.311728
 51
164.655864
  0
ARC
  5
22D
100
AcDbEntity
  8
0
  6
BYBLOCK
 62
     1
100
AcDbCircle
 10
69.49274
 20
-66.06722
 30
0.0
 40
7.490465
100
AcDbArc
 50
200.344136
 51
215.688272
  0
ARC
  5
22E
100
AcDbEntity
  8
0
  6
BYBLOCK
 62
     1
100
AcDbCircle
 10
69.49274
 20
-66.06722
 30
0.0
 40
7.490465
100
AcDbArc
 50
180.0
 51
185.0
  0
INSERT
  5
22F
100
AcDbEntity
  8
0
  6
BYBLOCK
 62
     1
100
AcDbBlockReference
  2
_OPEN30
 10
62.002275
 20
-66.06722
 30
0.0
 41
2.0
 42
2.0
 43
2.0
 50
262.327932
  0
INSERT
  5
230
100
AcDbEntity
  8
0
  6
BYBLOCK
 62
     1
100
AcDbBlockReference
  2
_OPEN30
 10
62.030779
 20
-66.720057
 30
0.0
 41
2.0
 42
2.0
 43
2.0
 50
102.672068
  0
MTEXT
  5
231
100
AcDbEntity
  8
0
  6
BYBLOCK
 62
     3
100
AcDbMText
 10
67.426725
 20
-59.812116
 30
0.0
 40
3.0
 41
0.0
 71
     5
 72
     1
  1
\A1;5°
 11
-0.514625
 21
-0.857415
 31
0.0
  0
POINT
  5
232
100
AcDbEntity
  8
DEFPOINTS
  6
BYBLOCK
 62
     0
100
AcDbPoint
 10
62.014948
 20
-66.502752
 30
0.0
  0
POINT
  5
233
100
AcDbEntity
  8
DEFPOINTS
  6
BYBLOCK
 62
     0
100
AcDbPoint
 10
68.49274
 20
-66.06722
 30
0.0
  0
POINT
  5
234
100
AcDbEntity
  8
DEFPOINTS
  6
BYBLOCK
 62
     0
100
AcDbPoint
 10
89.034629
 20
-64.357526
 30
0.0
  0
POINT
  5
235
100
AcDbEntity
  8
DEFPOINTS
  6
BYBLOCK
 62
     0
100
AcDbPoint
 10
69.49274
 20
-66.06722
 30
0.0
  0
POINT
  5
236
100
AcDbEntity
  8
DEFPOINTS
  6
BYBLOCK
 62
     0
100
AcDbPoint
 10
69.49274
 20
-66.06722
 30
0.0
  0
ENDBLK
  5
237
100
AcDbEntity
  8
0
100
AcDbBlockEnd
  0
BLOCK
  5
21C
100
AcDbEntity
  8
0
100
AcDbBlockBegin
  2
*D24
 70
     1
 10
0.0
 20
0.0
 30
0.0
  3
*D24
  1

  0
LINE
  5
21D
100
AcDbEntity
  8
0
  6
BYBLOCK
 62
     1
100
AcDbLine
 10
89.49274
 20
-64.708476
 30
0.0
 11
89.49274
 21
-54.9651
 31
0.0
  0
LINE
  5
21E
100
AcDbEntity
  8
0
  6
BYBLOCK
 62
     1
100
AcDbLine
 10
69.49274
 20
-65.06722
 30
0.0
 11
69.49274
 21
-54.9651
 31
0.0
  0
LINE
  5
21F
100
AcDbEntity
  8
0
  6
BYBLOCK
 62
     1
100
AcDbLine
 10
87.49274
 20
-56.4651
 30
0.0
 11
71.49274
 21
-56.4651
 31
0.0
  0
INSERT
  5
220
100
AcDbEntity
  8
0
  6
BYBLOCK
 62
     1
100
AcDbBlockReference
  2
_OPEN30
 10
89.49274
 20
-56.4651
 30
0.0
 41
2.0
 42
2.0
 43
2.0
  0
INSERT
  5
221
100
AcDbEntity
  8
0
  6
BYBLOCK
 62
     1
100
AcDbBlockReference
  2
_OPEN30
 10
69.49274
 20
-56.4651
 30
0.0
 41
2.0
 42
2.0
 43
2.0
 50
180.0
  0
MTEXT
  5
222
100
AcDbEntity
  8
0
  6
BYBLOCK
 62
     3
100
AcDbMText
 10
79.49274
 20
-53.9651
 30
0.0
 40
3.0
 41
0.0
 71
     5
 72
     1
  1
\A1;20
  0
POINT
  5
223
100
AcDbEntity
  8
DEFPOINTS
  6
BYBLOCK
 62
     0
100
AcDbPoint
 10
89.49274
 20
-65.708476
 30
0.0
  0
POINT
  5
224
100
AcDbEntity
  8
DEFPOINTS
  6
BYBLOCK
 62
     0
100
AcDbPoint
 10
69.49274
 20
-66.06722
 30
0.0
  0
POINT
  5
225
100
AcDbEntity
  8
DEFPOINTS
  6
BYBLOCK
 62
     0
100
AcDbPoint
 10
69.49274
 20
-56.4651
 30
0.0
  0
ENDBLK
  5
226
100
AcDbEntity
  8
0
100
AcDbBlockEnd
  0
BLOCK
  5
238
100
AcDbEntity
  8
0
100
AcDbBlockBegin
  2
*D25
 70
     1
 10
0.0
 20
0.0
 30
0.0
  3
*D25
  1

  0
LINE
  5
239
100
AcDbEntity
  8
0
  6
BYBLOCK
 62
     1
100
AcDbLine
 10
68.49274
 20
-66.06722
 30
0.0
 11
55.764394
 21
-66.06722
 31
0.0
  0
LINE
  5
23A
100
AcDbEntity
  8
0
  6
BYBLOCK
 62
     1
100
AcDbLine
 10
69.39274
 20
-86.06722
 30
0.0
 11
55.764394
 21
-86.06722
 31
0.0
  0
LINE
  5
23B
100
AcDbEntity
  8
0
  6
BYBLOCK
 62
     1
100
AcDbLine
 10
57.264394
 20
-68.06722
 30
0.0
 11
57.264394
 21
-84.06722
 31
0.0
  0
INSERT
  5
23C
100
AcDbEntity
  8
0
  6
BYBLOCK
 62
     1
100
AcDbBlockReference
  2
_OPEN30
 10
57.264394
 20
-66.06722
 30
0.0
 41
2.0
 42
2.0
 43
2.0
 50
90.0
  0
INSERT
  5
23D
100
AcDbEntity
  8
0
  6
BYBLOCK
 62
     1
100
AcDbBlockReference
  2
_OPEN30
 10
57.264394
 20
-86.06722
 30
0.0
 41
2.0
 42
2.0
 43
2.0
 50
270.0
  0
MTEXT
  5
23E
100
AcDbEntity
  8
0
  6
BYBLOCK
 62
     3
100
AcDbMText
 10
54.764394
 20
-76.06722
 30
0.0
 40
3.0
 41
0.0
 71
     5
 72
     1
  1
\A1;20
 11
0.0
 21
1.0
 31
0.0
  0
POINT
  5
23F
100
AcDbEntity
  8
DEFPOINTS
  6
BYBLOCK
 62
     0
100
AcDbPoint
 10
69.49274
 20
-66.06722
 30
0.0
  0
POINT
  5
240
100
AcDbEntity
  8
DEFPOINTS
  6
BYBLOCK
 62
     0
100
AcDbPoint
 10
70.39274
 20
-86.06722
 30
0.0
  0
POINT
  5
241
100
AcDbEntity
  8
DEFPOINTS
  6
BYBLOCK
 62
     0
100
AcDbPoint
 10
57.264394
 20
-86.06722
 30
0.0
  0
ENDBLK
  5
242
100
AcDbEntity
  8
0
100
AcDbBlockEnd
  0
BLOCK
  5
243
100
AcDbEntity
  8
0
100
AcDbBlockBegin
  2
*D28
 70
     1
 10
0.0
 20
0.0
 30
0.0
  3
*D28
  1

  0
LINE
  5
244
100
AcDbEntity
  8
0
  6
BYBLOCK
 62
     1
100
AcDbLine
 10
66.808017
 20
-25.0
 30
0.0
 11
58.847868
 21
-25.0
 31
0.0
  0
ARC
  5
245
100
AcDbEntity
  8
0
  6
BYBLOCK
 62
     1
100
AcDbCircle
 10
69.478656
 20
-25.0
 30
0.0
 40
9.130788
100
AcDbArc
 50
63.849514
 51
76.424757
  0
ARC
  5
246
100
AcDbEntity
  8
0
  6
BYBLOCK
 62
     1
100
AcDbCircle
 10
69.478656
 20
-25.0
 30
0.0
 40
9.130788
100
AcDbArc
 50
192.575243
 51
205.150486
  0
ARC
  5
247
100
AcDbEntity
  8
0
  6
BYBLOCK
 62
     1
100
AcDbCircle
 10
69.478656
 20
-25.0
 30
0.0
 40
9.130788
100
AcDbArc
 50
89.0
 51
180.0
  0
INSERT
  5
248
100
AcDbEntity
  8
0
  6
BYBLOCK
 62
     1
100
AcDbBlockReference
  2
_OPEN30
 10
69.63801
 20
-15.870602
 30
0.0
 41
2.0
 42
2.0
 43
2.0
 50
172.712378
  0
INSERT
  5
249
100
AcDbEntity
  8
0
  6
BYBLOCK
 62
     1
100
AcDbBlockReference
  2
_OPEN30
 10
60.347868
 20
-25.0
 30
0.0
 41
2.0
 42
2.0
 43
2.0
 50
96.287622
  0
MTEXT
  5
24A
100
AcDbEntity
  8
0
  6
BYBLOCK
 62
     3
100
AcDbMText
 10
61.326529
 20
-16.704335
 30
0.0
 40
3.0
 41
0.0
 71
     5
 72
     1
  1
\A1;91°
 11
0.71325
 21
0.700909
 31
0.0
  0
POINT
  5
24B
100
AcDbEntity
  8
DEFPOINTS
  6
BYBLOCK
 62
     0
100
AcDbPoint
 10
65.005577
 20
-17.039921
 30
0.0
  0
POINT
  5
24C
100
AcDbEntity
  8
DEFPOINTS
  6
BYBLOCK
 62
     0
100
AcDbPoint
 10
69.492862
 20
-24.186128
 30
0.0
  0
POINT
  5
24D
100
AcDbEntity
  8
DEFPOINTS
  6
BYBLOCK
 62
     0
100
AcDbPoint
 10
69.49274
 20
-25.0
 30
0.0
  0
POINT
  5
24E
100
AcDbEntity
  8
DEFPOINTS
  6
BYBLOCK
 62
     0
100
AcDbPoint
 10
67.808017
 20
-25.0
 30
0.0
  0
POINT
  5
24F
100
AcDbEntity
  8
DEFPOINTS
  6
BYBLOCK
 62
     0
100
AcDbPoint
 10
69.732423
 20
-10.461716
 30
0.0
  0
ENDBLK
  5
250
100
AcDbEntity
  8
0
100
AcDbBlockEnd
  0
BLOCK
  5
25C
100
AcDbEntity
  8
0
100
AcDbBlockBegin
  2
*D29
 70
     1
 10
0.0
 20
0.0
 30
0.0
  3
*D29
  1

  0
LINE
  5
25D
100
AcDbEntity
  8
0
  6
BYBLOCK
 62
     1
100
AcDbLine
 10
195.49274
 20
-66.06722
 30
0.0
 11
206.374643
 21
-66.06722
 31
0.0
  0
LINE
  5
25E
100
AcDbEntity
  8
0
  6
BYBLOCK
 62
     1
100
AcDbLine
 10
195.49274
 20
-86.06722
 30
0.0
 11
206.374643
 21
-86.06722
 31
0.0
  0
LINE
  5
25F
100
AcDbEntity
  8
0
  6
BYBLOCK
 62
     1
100
AcDbLine
 10
204.874643
 20
-68.06722
 30
0.0
 11
204.874643
 21
-84.06722
 31
0.0
  0
INSERT
  5
260
100
AcDbEntity
  8
0
  6
BYBLOCK
 62
     1
100
AcDbBlockReference
  2
_OPEN30
 10
204.874643
 20
-66.06722
 30
0.0
 41
2.0
 42
2.0
 43
2.0
 50
90.0
  0
INSERT
  5
261
100
AcDbEntity
  8
0
  6
BYBLOCK
 62
     1
100
AcDbBlockReference
  2
_OPEN30
 10
204.874643
 20
-86.06722
 30
0.0
 41
2.0
 42
2.0
 43
2.0
 50
270.0
  0
MTEXT
  5
262
100
AcDbEntity
  8
0
  6
BYBLOCK
 62
     3
100
AcDbMText
 10
202.374643
 20
-76.06722
 30
0.0
 40
3.0
 41
0.0
 71
     5
 72
     1
  1
\A1;20
 11
0.0
 21
1.0
 31
0.0
  0
POINT
  5
263
100
AcDbEntity
  8
DEFPOINTS
  6
BYBLOCK
 62
     0
100
AcDbPoint
 10
194.49274
 20
-66.06722
 30
0.0
  0
POINT
  5
264
100
AcDbEntity
  8
DEFPOINTS
  6
BYBLOCK
 62
     0
100
AcDbPoint
 10
194.49274
 20
-86.06722
 30
0.0
  0
POINT
  5
265
100
AcDbEntity
  8
DEFPOINTS
  6
BYBLOCK
 62
     0
100
AcDbPoint
 10
204.874643
 20
-86.06722
 30
0.0
  0
ENDBLK
  5
266
100
AcDbEntity
  8
0
100
AcDbBlockEnd
  0
ENDSEC
  0
SECTION
  2
ENTITIES
  0
LINE
  5
25
100
AcDbEntity
  8
外形
  6
CONTINUOUS
100
AcDbLine
 10
22.187793
 20
0.0
 30
0.0
 11
20.0
 21
-25.006594
 31
0.0
  0
LINE
  5
27
100
AcDbEntity
  8
外形
  6
CONTINUOUS
100
AcDbLine
 10
13.90105
 20
-9.124013
 30
0.0
 11
12.577007
 21
-24.257895
 31
0.0
  0
LINE
  5
28
100
AcDbEntity
  8
外形
  6
CONTINUOUS
100
AcDbLine
 10
16.590775
 20
-9.359333
 30
0.0
 11
13.90105
 21
-9.124013
 31
0.0
  0
LINE
  5
29
100
AcDbEntity
  8
外形
  6
CONTINUOUS
100
AcDbLine
 10
0.0
 20
0.0
 30
0.0
 11
0.0
 21
-23.506162
 31
0.0
  0
LINE
  5
2A
100
AcDbEntity
  8
外形
  6
CONTINUOUS
100
AcDbLine
 10
70.877341
 20
-5.572058
 30
0.0
 11
70.769641
 21
-9.684979
 31
0.0
  0
CIRCLE
  5
3C
100
AcDbEntity
  8
外形
  6
CONTINUOUS
100
AcDbCircle
 10
82.200499
 20
-11.181893
 30
0.0
 40
2.4585
  0
CIRCLE
  5
3D
100
AcDbEntity
  8
外形
  6
CONTINUOUS
100
AcDbCircle
 10
82.200499
 20
-11.181893
 30
0.0
 40
3.0
  0
LINE
  5
3E
100
AcDbEntity
  8
外形
  6
CONTINUOUS
100
AcDbLine
 10
89.49274
 20
0.0
 30
0.0
 11
89.49274
 21
-20.349206
 31
0.0
  0
LINE
  5
3F
100
AcDbEntity
  8
外形
  6
CONTINUOUS
100
AcDbLine
 10
89.034629
 20
0.0
 30
0.0
 11
89.437984
 21
-20.419151
 31
0.0
  0
DIMENSION
  5
40
100
AcDbEntity
  8
寸法
  6
CONTINUOUS
100
AcDbDimension
  2
*D17
 10
204.250434
 20
-20.0
 30
0.0
 11
201.750434
 21
-10.0
 31
0.0
 70
    32
  3
STANDARD
100
AcDbAlignedDimension
 13
194.49274
 23
0.0
 33
0.0
 14
194.49274
 24
-20.0
 34
0.0
 50
90.0
100
AcDbRotatedDimension
1001
ACAD
1000
DSTYLE
1002
{
1002
}
  0
DIMENSION
  5
4D
100
AcDbEntity
  8
寸法
  6
CONTINUOUS
100
AcDbDimension
  2
*D18
 10
54.48668
 20
-25.0
 30
0.0
 11
51.98668
 21
-12.5
 31
0.0
 70
    32
  3
STANDARD
100
AcDbAlignedDimension
 13
88.196899
 23
0.0
 33
0.0
 14
69.49274
 24
-25.0
 34
0.0
 50
90.0
100
AcDbRotatedDimension
1001
ACAD
1000
DSTYLE
1002
{
1002
}
  0
DIMENSION
  5
5A
100
AcDbEntity
  8
寸法
  6
CONTINUOUS
100
AcDbDimension
  2
*D19
 10
20.0
 20
-38.983869
 30
0.0
 11
12.062969
 21
-32.570852
 31
0.0
 70
    34
  3
STANDARD
100
AcDb2LineAngularDimension
 13
22.262514
 23
0.854065
 33
0.0
 14
20.86191
 24
-15.154917
 34
0.0
 15
20.0
 25
-25.006594
 35
0.0
 16
19.633944
 26
-37.587124
 36
0.0
1001
ACAD
1000
DSTYLE
1002
{
1002
}
  0
LINE
  5
6A
100
AcDbEntity
  8
外形
  6
CONTINUOUS
100
AcDbLine
 10
194.49274
 20
-20.0
 30
0.0
 11
194.49274
 21
0.0
 31
0.0
  0
LINE
  5
6B
100
AcDbEntity
  8
外形
  6
CONTINUOUS
100
AcDbLine
 10
194.49274
 20
-20.0
 30
0.0
 11
90.251995
 21
-20.0
 31
0.0
  0
DIMENSION
  5
6C
100
AcDbEntity
  8
寸法
  6
CONTINUOUS
100
AcDbDimension
  2
*D20
 10
194.49274
 20
-32.72797
 30
0.0
 11
131.99274
 21
-30.22797
 31
0.0
 70
    32
  3
STANDARD
100
AcDbAlignedDimension
 13
69.49274
 23
-25.0
 33
0.0
 14
194.49274
 24
-20.0
 34
0.0
 50
360.0
100
AcDbRotatedDimension
1001
ACAD
1000
DSTYLE
1002
{
1002
}
  0
LINE
  5
79
100
AcDbEntity
  8
外形
  6
CONTINUOUS
100
AcDbLine
 10
70.39274
 20
-86.06722
 30
0.0
 11
194.49274
 21
-86.06722
 31
0.0
  0
LINE
  5
7A
100
AcDbEntity
  8
外形
  6
CONTINUOUS
100
AcDbLine
 10
70.39274
 20
-86.06722
 30
0.0
 11
194.49274
 21
-86.06722
 31
0.0
  0
LINE
  5
7B
100
AcDbEntity
  8
外形
  6
CONTINUOUS
100
AcDbLine
 10
90.260067
 20
-66.06722
 30
0.0
 11
194.49274
 21
-66.06722
 31
0.0
  0
LINE
  5
7C
100
AcDbEntity
  8
外形
  6
CONTINUOUS
100
AcDbLine
 10
70.39274
 20
-86.06722
 30
0.0
 11
194.49274
 21
-86.06722
 31
0.0
  0
TEXT
  5
7D
100
AcDbEntity
  8
外形
  6
CONTINUOUS
 62
     2
100
AcDbText
 10
53.0595
 20
-113.996071
 30
0.0
 40
6.0
  1
PTFN 2020-33
 50
360.0
100
AcDbText
  0
DIMENSION
  5
8B
100
AcDbEntity
  8
寸法
  6
CONTINUOUS
100
AcDbDimension
  2
*D22
 10
69.49274
 20
-66.06722
 30
0.0
 11
67.426725
 21
-59.812116
 31
0.0
 70
    34
  3
STANDARD
100
AcDb2LineAngularDimension
 13
89.034629
 23
-64.357526
 33
0.0
 14
69.49274
 24
-66.06722
 34
0.0
 15
68.49274
 25
-66.06722
 35
0.0
 16
62.014948
 26
-66.502752
 36
0.0
  0
LINE
  5
9C
100
AcDbEntity
  8
外形
  6
CONTINUOUS
100
AcDbLine
 10
79.353033
 20
-24.07822
 30
0.0
 11
88.608893
 21
-23.268438
 31
0.0
  0
DIMENSION
  5
A8
100
AcDbEntity
  8
寸法
  6
CONTINUOUS
100
AcDbDimension
  2
*D24
 10
69.49274
 20
-56.4651
 30
0.0
 11
79.49274
 21
-53.9651
 31
0.0
 70
    32
  3
STANDARD
100
AcDbAlignedDimension
 13
89.49274
 23
-65.708476
 33
0.0
 14
69.49274
 24
-66.06722
 34
0.0
 50
360.0
100
AcDbRotatedDimension
1001
ACAD
1000
DSTYLE
1002
{
1002
}
  0
ARC
  5
B5
100
AcDbEntity
  8
外形
  6
CONTINUOUS
100
AcDbCircle
 10
82.86789
 20
-19.287608
 30
0.0
 40
2.0
100
AcDbArc
 50
239.0
 51
59.0
  0
LINE
  5
B6
100
AcDbEntity
  8
外形
  6
CONTINUOUS
100
AcDbLine
 10
70.944331
 20
-9.789944
 30
0.0
 11
83.897966
 21
-17.573273
 31
0.0
  0
LINE
  5
B7
100
AcDbEntity
  8
外形
  6
CONTINUOUS
100
AcDbLine
 10
89.034629
 20
-64.357526
 30
0.0
 11
69.49274
 21
-66.06722
 31
0.0
  0
DIMENSION
  5
B8
100
AcDbEntity
  8
寸法
  6
CONTINUOUS
100
AcDbDimension
  2
*D25
 10
57.264394
 20
-86.06722
 30
0.0
 11
54.764394
 21
-76.06722
 31
0.0
 70
    32
  3
STANDARD
100
AcDbAlignedDimension
 13
69.49274
 23
-66.06722
 33
0.0
 14
70.39274
 24
-86.06722
 34
0.0
 50
90.0
100
AcDbRotatedDimension
1001
ACAD
1000
DSTYLE
1002
{
1002
}
  0
LINE
  5
C5
100
AcDbEntity
  8
外形
  6
CONTINUOUS
100
AcDbLine
 10
79.353399
 20
-65.204524
 30
0.0
 11
79.353399
 21
-86.06722
 31
0.0
  0
LINE
  5
C6
100
AcDbEntity
  8
外形
  6
CONTINUOUS
100
AcDbLine
 10
70.39274
 20
-86.06722
 30
0.0
 11
70.39274
 21
-73.476976
 31
0.0
  0
LINE
  5
C7
100
AcDbEntity
  8
外形
  6
CONTINUOUS
100
AcDbLine
 10
75.131259
 20
-70.352096
 30
0.0
 11
69.907602
 21
-70.809107
 31
0.0
  0
LINE
  5
C8
100
AcDbEntity
  8
外形
  6
CONTINUOUS
100
AcDbLine
 10
75.7507
 20
-73.008215
 30
0.0
 11
70.241439
 21
-73.490213
 31
0.0
  0
LINE
  5
C9
100
AcDbEntity
  8
寸法
  6
CONTINUOUS
100
AcDbLine
 10
68.49274
 20
-66.06722
 30
0.0
 11
69.49274
 21
-66.06722
 31
0.0
  0
LINE
  5
CA
100
AcDbEntity
  8
外形
  6
CONTINUOUS
100
AcDbLine
 10
69.49274
 20
-66.06722
 30
0.0
 11
69.907602
 21
-70.809107
 31
0.0
  0
LINE
  5
CB
100
AcDbEntity
  8
外形
  6
CONTINUOUS
100
AcDbLine
 10
70.006118
 20
-70.800488
 30
0.0
 11
70.241439
 21
-73.490213
 31
0.0
  0
LINE
  5
CC
100
AcDbEntity
  8
外形
  6
CONTINUOUS
100
AcDbLine
 10
75.369063
 20
-73.070209
 30
0.0
 11
74.716398
 21
-65.610209
 31
0.0
  0
LINE
  5
CD
100
AcDbEntity
  8
外形
  6
CONTINUOUS
100
AcDbLine
 10
75.7507
 20
-73.008215
 30
0.0
 11
75.100519
 21
-65.576603
 31
0.0
  0
LINE
  5
CE
100
AcDbEntity
  8
寸法
  6
CONTINUOUS
100
AcDbLine
 10
20.0
 20
-25.006594
 30
0.0
 11
54.33043
 21
-25.0
 31
0.0
  0
LINE
  5
CF
100
AcDbEntity
  8
寸法
  6
CONTINUOUS
100
AcDbLine
 10
20.0
 20
-25.006594
 30
0.0
 11
20.0
 21
-38.983869
 31
0.0
  0
LINE
  5
D0
100
AcDbEntity
  8
外形
  6
CONTINUOUS
100
AcDbLine
 10
15.266732
 20
-24.493216
 30
0.0
 11
12.577007
 21
-24.257895
 31
0.0
  0
LINE
  5
D1
100
AcDbEntity
  8
外形
  6
CONTINUOUS
100
AcDbLine
 10
12.642775
 20
-23.506162
 30
0.0
 11
0.0
 21
-23.506162
 31
0.0
  0
LINE
  5
D2
100
AcDbEntity
  8
外形
  6
CONTINUOUS
100
AcDbLine
 10
16.599395
 20
-9.260817
 30
0.0
 11
15.258113
 21
-24.591733
 31
0.0
  0
LINE
  5
D3
100
AcDbEntity
  8
外形
  6
CONTINUOUS
100
AcDbLine
 10
20.0
 20
-25.006594
 30
0.0
 11
15.258113
 21
-24.591733
 31
0.0
  0
LINE
  5
D4
100
AcDbEntity
  8
外形
  6
CONTINUOUS
100
AcDbLine
 10
21.341281
 20
-9.675678
 30
0.0
 11
16.599395
 21
-9.260817
 31
0.0
  0
DIMENSION
  5
F3
100
AcDbEntity
  8
寸法
  6
CONTINUOUS
100
AcDbDimension
  2
*D28
 10
69.732423
 20
-10.461716
 30
0.0
 11
61.326529
 21
-16.704335
 31
0.0
 70
    34
  3
STANDARD
100
AcDb2LineAngularDimension
 13
69.49274
 23
-25.0
 33
0.0
 14
67.808017
 24
-25.0
 34
0.0
 15
69.492862
 25
-24.186128
 35
0.0
 16
65.005577
 26
-17.039921
 36
0.0
1001
ACAD
1000
DSTYLE
1002
{
1002
}
  0
LINE
  5
102
100
AcDbEntity
  8
外形
  6
CONTINUOUS
100
AcDbLine
 10
74.50746
 20
-22.778516
 30
0.0
 11
75.101619
 21
-24.07822
 31
0.0
  0
LINE
  5
103
100
AcDbEntity
  8
外形
  6
CONTINUOUS
100
AcDbLine
 10
82.686058
 20
-18.245045
 30
0.0
 11
70.680588
 21
-24.899786
 31
0.0
  0
LINE
  5
104
100
AcDbEntity
  8
外形
  6
CONTINUOUS
100
AcDbLine
 10
69.492862
 20
-24.186128
 30
0.0
 11
69.732423
 21
-10.461716
 31
0.0
  0
ARC
  5
109
100
AcDbEntity
  8
外形
  6
CONTINUOUS
100
AcDbCircle
 10
70.29274
 20
-24.20009
 30
0.0
 40
0.8
100
AcDbArc
 50
179.0
 51
299.0
  0
LINE
  5
10A
100
AcDbEntity
  8
寸法
  6
CONTINUOUS
100
AcDbLine
 10
69.49274
 20
-25.0
 30
0.0
 11
67.808017
 21
-25.0
 31
0.0
  0
LINE
  5
10B
100
AcDbEntity
  8
外形
  6
CONTINUOUS
100
AcDbLine
 10
72.162731
 20
-24.07822
 30
0.0
 11
79.353033
 21
-24.07822
 31
0.0
  0
ARC
  5
10D
100
AcDbEntity
  8
外形
  6
CONTINUOUS
100
AcDbCircle
 10
70.532301
 20
-10.475678
 30
0.0
 40
0.8
100
AcDbArc
 50
59.0
 51
179.0
  0
LWPOLYLINE
  5
10F
100
AcDbEntity
  8
外形
  6
CONTINUOUS
100
AcDbPolyline
 90
        6
 70
     1
 43
0.0
 10
80.857557
 20
-10.652894
 10
81.070901
 20
-12.080415
 10
82.413843
 20
-12.609414
 10
83.543441
 20
-11.710892
 10
83.330096
 20
-10.28337
 10
81.987154
 20
-9.754371
  0
LINE
  5
111
100
AcDbEntity
  8
外形
  6
CONTINUOUS
100
AcDbLine
 10
79.858271
 20
-19.812513
 30
0.0
 11
81.837814
 21
-21.001942
 31
0.0
  0
ARC
  5
112
100
AcDbEntity
  8
外形
  6
CONTINUOUS
100
AcDbCircle
 10
82.29821
 20
-17.545349
 30
0.0
 40
0.8
100
AcDbArc
 50
299.0
 51
59.0
  0
CIRCLE
  5
113
100
AcDbEntity
  8
外形
  6
CONTINUOUS
100
AcDbCircle
 10
74.374417
 20
-17.407039
 30
0.0
 40
1.905
  0
LINE
  5
114
100
AcDbEntity
  8
外形
  6
CONTINUOUS
100
AcDbLine
 10
89.294142
 20
-65.326039
 30
0.0
 11
89.034629
 21
-64.357526
 31
0.0
  0
LINE
  5
115
100
AcDbEntity
  8
外形
  6
CONTINUOUS
100
AcDbLine
 10
89.034629
 20
-64.357526
 30
0.0
 11
89.034629
 21
-86.06722
 31
0.0
  0
LINE
  5
116
100
AcDbEntity
  8
外形
  6
CONTINUOUS
100
AcDbLine
 10
89.49274
 20
-65.708476
 30
0.0
 11
89.49274
 21
-86.06722
 31
0.0
  0
ARC
  5
117
100
AcDbEntity
  8
外形
  6
CONTINUOUS
100
AcDbCircle
 10
90.260067
 20
-65.06722
 30
0.0
 40
1.0
100
AcDbArc
 50
195.0
 51
270.0
  0
LINE
  5
118
100
AcDbEntity
  8
外形
  6
CONTINUOUS
100
AcDbLine
 10
89.286069
 20
-20.741181
 30
0.0
 11
88.608893
 21
-23.268438
 31
0.0
  0
ARC
  5
119
100
AcDbEntity
  8
外形
  6
CONTINUOUS
100
AcDbCircle
 10
90.251995
 20
-21.0
 30
0.0
 40
1.0
100
AcDbArc
 50
90.0
 51
165.0
  0
DIMENSION
  5
11A
100
AcDbEntity
  8
寸法
  6
CONTINUOUS
100
AcDbDimension
  2
*D29
 10
204.874643
 20
-86.06722
 30
0.0
 11
202.374643
 21
-76.06722
 31
0.0
 70
    32
  3
STANDARD
100
AcDbAlignedDimension
 13
194.49274
 23
-66.06722
 33
0.0
 14
194.49274
 24
-86.06722
 34
0.0
 50
90.0
100
AcDbRotatedDimension
1001
ACAD
1000
DSTYLE
1002
{
1002
}
  0
LINE
  5
127
100
AcDbEntity
  8
外形
  6
CONTINUOUS
100
AcDbLine
 10
194.49274
 20
-66.06722
 30
0.0
 11
194.49274
 21
-86.06722
 31
0.0
  0
LINE
  5
128
100
AcDbEntity
  8
外形
  6
CONTINUOUS
100
AcDbLine
 10
194.49274
 20
-66.06722
 30
0.0
 11
194.49274
 21
-86.06722
 31
0.0
  0
LINE
  5
129
100
AcDbEntity
  8
外形
  6
CONTINUOUS
100
AcDbLine
 10
194.49274
 20
-66.06722
 30
0.0
 11
194.49274
 21
-86.06722
 31
0.0
  0
LINE
  5
12A
100
AcDbEntity
  8
外形
  6
CONTINUOUS
100
AcDbLine
 10
194.49274
 20
0.0
 30
0.0
 11
80.52843
 21
0.0
 31
0.0
  0
LINE
  5
12B
100
AcDbEntity
  8
外形
  6
CONTINUOUS
100
AcDbLine
 10
194.49274
 20
0.0
 30
0.0
 11
80.52843
 21
0.0
 31
0.0
  0
LINE
  5
12C
100
AcDbEntity
  8
外形
  6
CONTINUOUS
100
AcDbLine
 10
0.0
 20
0.0
 30
0.0
 11
22.187793
 21
0.0
 31
0.0
  0
LINE
  5
12D
100
AcDbEntity
  8
外形
  6
CONTINUOUS
100
AcDbLine
 10
0.0
 20
-5.0
 30
0.0
 11
21.75035
 21
-5.0
 31
0.0
  0
LINE
  5
12E
100
AcDbEntity
  8
外形
  6
CONTINUOUS
100
AcDbLine
 10
80.52843
 20
0.0
 30
0.0
 11
70.877341
 21
-5.572058
 31
0.0
  0
ENDSEC
  0
SECTION
  2
OBJECTS
  0
DICTIONARY
  5
1A
100
AcDbDictionary
  3
ACAD_GROUP
350
18
  3
ACAD_MLINESTYLE
350
19
  0
DICTIONARY
  5
18
102
{ACAD_REACTORS
330
1A
102
}
100
AcDbDictionary
  0
DICTIONARY
  5
19
102
{ACAD_REACTORS
330
1A
102
}
100
AcDbDictionary
  3
STANDARD
350
1C
  0
MLINESTYLE
  5
1C
102
{ACAD_REACTORS
330
19
102
}
100
AcDbMlineStyle
  2
STANDARD
 70
     0
  3

 62
     0
 51
90.0
 52
90.0
 71
     2
 49
0.5
 62
   256
  6
BYLAYER
 49
-0.5
 62
   256
  6
BYLAYER
  0
ENDSEC
  0
EOF
