  0
SECTION
  2
HEADER
  9
$ACADVER
  1
AC1014
  9
$ACADMAINTVER
 70
     0
  9
$DWGCODEPAGE
  3
ANSI_932
  9
$INSBASE
 10
265.932569
 20
71.475045
 30
0.0
  9
$EXTMIN
 10
290.418223
 20
98.838364
 30
0.0
  9
$EXTMAX
 10
516.286543
 20
204.014135
 30
0.0
  9
$LIMMIN
 10
-587.250952
 20
327.890188
  9
$LIMMAX
 10
600.749048
 20
957.890188
  9
$ORTHOMODE
 70
     1
  9
$REGENMODE
 70
     1
  9
$FILLMODE
 70
     1
  9
$QTEXTMODE
 70
     0
  9
$MIRRTEXT
 70
     1
  9
$DRAGMODE
 70
     2
  9
$LTSCALE
 40
5.0
  9
$OSMODE
 70
    37
  9
$ATTMODE
 70
     1
  9
$TEXTSIZE
 40
4.0
  9
$TRACEWID
 40
0.05
  9
$TEXTSTYLE
  7
STANDARD
  9
$CLAYER
  8
外形
  9
$CELTYPE
  6
CONTINUOUS
  9
$CECOLOR
 62
   256
  9
$CELTSCALE
 40
1.0
  9
$DELOBJ
 70
     1
  9
$DISPSILH
 70
     0
  9
$DIMSCALE
 40
1.0
  9
$DIMASZ
 40
2.0
  9
$DIMEXO
 40
1.0
  9
$DIMDLI
 40
8.0
  9
$DIMRND
 40
0.0
  9
$DIMDLE
 40
0.0
  9
$DIMEXE
 40
1.5
  9
$DIMTP
 40
0.0
  9
$DIMTM
 40
0.0
  9
$DIMTXT
 40
3.0
  9
$DIMCEN
 40
-1.0
  9
$DIMTSZ
 40
0.0
  9
$DIMTOL
 70
     0
  9
$DIMLIM
 70
     0
  9
$DIMTIH
 70
     0
  9
$DIMTOH
 70
     0
  9
$DIMSE1
 70
     0
  9
$DIMSE2
 70
     0
  9
$DIMTAD
 70
     1
  9
$DIMZIN
 70
     8
  9
$DIMBLK
  1

  9
$DIMASO
 70
     1
  9
$DIMSHO
 70
     1
  9
$DIMPOST
  1

  9
$DIMAPOST
  1

  9
$DIMALT
 70
     0
  9
$DIMALTD
 70
     2
  9
$DIMALTF
 40
25.4
  9
$DIMLFAC
 40
1.0
  9
$DIMTOFL
 70
     1
  9
$DIMTVP
 40
0.0
  9
$DIMTIX
 70
     0
  9
$DIMSOXD
 70
     0
  9
$DIMSAH
 70
     1
  9
$DIMBLK1
  1
_OPEN30
  9
$DIMBLK2
  1
_OPEN30
  9
$DIMSTYLE
  2
STANDARD
  9
$DIMCLRD
 70
     1
  9
$DIMCLRE
 70
     1
  9
$DIMCLRT
 70
     3
  9
$DIMTFAC
 40
1.0
  9
$DIMGAP
 40
1.0
  9
$DIMJUST
 70
     0
  9
$DIMSD1
 70
     0
  9
$DIMSD2
 70
     0
  9
$DIMTOLJ
 70
     1
  9
$DIMTZIN
 70
     8
  9
$DIMALTZ
 70
     0
  9
$DIMALTTZ
 70
     0
  9
$DIMFIT
 70
     3
  9
$DIMUPT
 70
     0
  9
$DIMUNIT
 70
     2
  9
$DIMDEC
 70
     3
  9
$DIMTDEC
 70
     4
  9
$DIMALTU
 70
     2
  9
$DIMALTTD
 70
     2
  9
$DIMTXSTY
  7
STANDARD
  9
$DIMAUNIT
 70
     0
  9
$LUNITS
 70
     2
  9
$LUPREC
 70
     4
  9
$SKETCHINC
 40
0.1
  9
$FILLETRAD
 40
1.0
  9
$AUNITS
 70
     0
  9
$AUPREC
 70
     0
  9
$MENU
  1
acad
  9
$ELEVATION
 40
0.0
  9
$PELEVATION
 40
0.0
  9
$THICKNESS
 40
0.0
  9
$LIMCHECK
 70
     0
  9
$BLIPMODE
 70
     1
  9
$CHAMFERA
 40
0.0
  9
$CHAMFERB
 40
0.0
  9
$CHAMFERC
 40
0.0
  9
$CHAMFERD
 40
0.0
  9
$SKPOLY
 70
     0
  9
$TDCREATE
 40
2450751.535399305
  9
$TDUPDATE
 40
2451930.471041666
  9
$TDINDWG
 40
1.7813287037
  9
$TDUSRTIMER
 40
1.7813287037
  9
$USRTIMER
 70
     1
  9
$ANGBASE
 50
0.0
  9
$ANGDIR
 70
     0
  9
$PDMODE
 70
     0
  9
$PDSIZE
 40
0.0
  9
$PLINEWID
 40
0.0
  9
$COORDS
 70
     1
  9
$SPLFRAME
 70
     0
  9
$SPLINETYPE
 70
     5
  9
$SPLINESEGS
 70
     8
  9
$ATTDIA
 70
     0
  9
$ATTREQ
 70
     1
  9
$HANDLING
 70
     1
  9
$HANDSEED
  5
27F
  9
$SURFTAB1
 70
     6
  9
$SURFTAB2
 70
     6
  9
$SURFTYPE
 70
     6
  9
$SURFU
 70
     6
  9
$SURFV
 70
     6
  9
$UCSNAME
  2

  9
$UCSORG
 10
0.0
 20
0.0
 30
0.0
  9
$UCSXDIR
 10
1.0
 20
0.0
 30
0.0
  9
$UCSYDIR
 10
0.0
 20
1.0
 30
0.0
  9
$PUCSNAME
  2

  9
$PUCSORG
 10
0.0
 20
0.0
 30
0.0
  9
$PUCSXDIR
 10
1.0
 20
0.0
 30
0.0
  9
$PUCSYDIR
 10
0.0
 20
1.0
 30
0.0
  9
$USERI1
 70
     0
  9
$USERI2
 70
     0
  9
$USERI3
 70
     0
  9
$USERI4
 70
     0
  9
$USERI5
 70
     0
  9
$USERR1
 40
0.0
  9
$USERR2
 40
0.0
  9
$USERR3
 40
0.0
  9
$USERR4
 40
0.0
  9
$USERR5
 40
0.0
  9
$WORLDVIEW
 70
     1
  9
$SHADEDGE
 70
     3
  9
$SHADEDIF
 70
    70
  9
$TILEMODE
 70
     1
  9
$MAXACTVP
 70
    16
  9
$PINSBASE
 10
0.0
 20
0.0
 30
0.0
  9
$PLIMCHECK
 70
     0
  9
$PEXTMIN
 10
1.000000E+20
 20
1.000000E+20
 30
1.000000E+20
  9
$PEXTMAX
 10
-1.000000E+20
 20
-1.000000E+20
 30
-1.000000E+20
  9
$PLIMMIN
 10
0.0
 20
0.0
  9
$PLIMMAX
 10
12.0
 20
9.0
  9
$UNITMODE
 70
     0
  9
$VISRETAIN
 70
     0
  9
$PLINEGEN
 70
     0
  9
$PSLTSCALE
 70
     1
  9
$TREEDEPTH
 70
  3020
  9
$PICKSTYLE
 70
     1
  9
$CMLSTYLE
  2
STANDARD
  9
$CMLJUST
 70
     0
  9
$CMLSCALE
 40
1.0
  9
$PROXYGRAPHICS
 70
     1
  9
$MEASUREMENT
 70
     0
  0
ENDSEC
  0
SECTION
  2
CLASSES
  0
CLASS
  1
LWPOLYLINE
  2
AcDbPolyline
  3
"AutoCAD"
 90
        0
280
     0
281
     1
  0
ENDSEC
  0
SECTION
  2
TABLES
  0
TABLE
  2
VPORT
  5
12
100
AcDbSymbolTable
 70
     1
  0
VPORT
  5
27A
100
AcDbSymbolTableRecord
100
AcDbViewportTableRecord
  2
*ACTIVE
 70
     0
 10
0.0
 20
0.0
 11
1.0
 21
1.0
 12
409.146718
 22
155.318649
 13
0.0
 23
0.0
 14
0.05
 24
0.05
 15
10.0
 25
10.0
 16
0.0
 26
0.0
 36
1.0
 17
0.0
 27
0.0
 37
0.0
 40
146.318829
 41
1.710425
 42
50.0
 43
0.0
 44
0.0
 50
0.0
 51
0.0
 71
     0
 72
   100
 73
     1
 74
     1
 75
     0
 76
     0
 77
     0
 78
     0
  0
ENDTAB
  0
TABLE
  2
LTYPE
  5
D
100
AcDbSymbolTable
 70
     1
  0
LTYPE
  5
E
100
AcDbSymbolTableRecord
100
AcDbLinetypeTableRecord
  2
BYBLOCK
 70
     0
  3

 72
    65
 73
     0
 40
0.0
  0
LTYPE
  5
F
100
AcDbSymbolTableRecord
100
AcDbLinetypeTableRecord
  2
BYLAYER
 70
     0
  3

 72
    65
 73
     0
 40
0.0
  0
LTYPE
  5
5
100
AcDbSymbolTableRecord
100
AcDbLinetypeTableRecord
  2
CONTINUOUS
 70
     0
  3
Solid line
 72
    65
 73
     0
 40
0.0
  0
ENDTAB
  0
TABLE
  2
LAYER
  5
A
100
AcDbSymbolTable
 70
     4
  0
LAYER
  5
4
100
AcDbSymbolTableRecord
100
AcDbLayerTableRecord
  2
0
 70
     0
 62
     7
  6
CONTINUOUS
  0
LAYER
  5
56
100
AcDbSymbolTableRecord
100
AcDbLayerTableRecord
  2
外形
 70
     0
 62
     3
  6
CONTINUOUS
  0
LAYER
  5
2F
100
AcDbSymbolTableRecord
100
AcDbLayerTableRecord
  2
DEFPOINTS
 70
     0
 62
     7
  6
CONTINUOUS
  0
LAYER
  5
1B
100
AcDbSymbolTableRecord
100
AcDbLayerTableRecord
  2
寸法
 70
     0
 62
     1
  6
CONTINUOUS
  0
ENDTAB
  0
TABLE
  2
STYLE
  5
B
100
AcDbSymbolTable
 70
     1
  0
STYLE
  5
C
100
AcDbSymbolTableRecord
100
AcDbTextStyleTableRecord
  2
STANDARD
 70
     0
 40
0.0
 41
1.0
 50
0.0
 71
     0
 42
4.0
  3
MONOTXT
  4
BIGFONT
  0
ENDTAB
  0
TABLE
  2
VIEW
  5
10
100
AcDbSymbolTable
 70
     0
  0
ENDTAB
  0
TABLE
  2
UCS
  5
11
100
AcDbSymbolTable
 70
     0
  0
ENDTAB
  0
TABLE
  2
APPID
  5
14
100
AcDbSymbolTable
 70
     1
  0
APPID
  5
15
100
AcDbSymbolTableRecord
100
AcDbRegAppTableRecord
  2
ACAD
 70
     0
  0
ENDTAB
  0
TABLE
  2
DIMSTYLE
  5
16
100
AcDbSymbolTable
 70
     1
  0
DIMSTYLE
105
1D
102
{ACAD_REACTORS
330
E4
330
8D
330
11C
330
80
330
10E
330
B1
330
C5
330
57
330
43
102
}
100
AcDbSymbolTableRecord
100
AcDbDimStyleTableRecord
  2
STANDARD
 70
     0
  3

  4

  5

  6
_OPEN30
  7
_OPEN30
 40
1.0
 41
2.0
 42
1.0
 43
8.0
 44
1.5
 45
0.0
 46
0.0
 47
0.0
 48
0.0
140
3.0
141
-1.0
142
0.0
143
25.4
144
1.0
145
0.0
146
1.0
147
1.0
 71
     0
 72
     0
 73
     0
 74
     0
 75
     0
 76
     0
 77
     1
 78
     8
170
     0
171
     2
172
     1
173
     1
174
     0
175
     0
176
     1
177
     1
178
     3
270
     2
271
     3
272
     4
273
     2
274
     2
340
C
275
     0
280
     0
281
     0
282
     0
283
     1
284
     8
285
     0
286
     0
287
     3
288
     0
  0
ENDTAB
  0
TABLE
  2
BLOCK_RECORD
  5
1
100
AcDbSymbolTable
 70
    29
  0
BLOCK_RECORD
  5
2
100
AcDbSymbolTableRecord
100
AcDbBlockTableRecord
  2
*MODEL_SPACE
  0
BLOCK_RECORD
  5
7
100
AcDbSymbolTableRecord
100
AcDbBlockTableRecord
  2
*PAPER_SPACE
  0
BLOCK_RECORD
  5
1E
100
AcDbSymbolTableRecord
100
AcDbBlockTableRecord
  2
_DOTSMALL
  0
BLOCK_RECORD
  5
14E
100
AcDbSymbolTableRecord
100
AcDbBlockTableRecord
  2
_OPEN30
  0
BLOCK_RECORD
  5
16D
100
AcDbSymbolTableRecord
100
AcDbBlockTableRecord
  2
*D17
  0
BLOCK_RECORD
  5
17F
100
AcDbSymbolTableRecord
100
AcDbBlockTableRecord
  2
*D18
  0
BLOCK_RECORD
  5
1A3
100
AcDbSymbolTableRecord
100
AcDbBlockTableRecord
  2
*D21
  0
BLOCK_RECORD
  5
1AF
100
AcDbSymbolTableRecord
100
AcDbBlockTableRecord
  2
*D22
  0
BLOCK_RECORD
  5
1C9
100
AcDbSymbolTableRecord
100
AcDbBlockTableRecord
  2
*D24
  0
BLOCK_RECORD
  5
1D5
100
AcDbSymbolTableRecord
100
AcDbBlockTableRecord
  2
*D25
  0
BLOCK_RECORD
  5
1E4
100
AcDbSymbolTableRecord
100
AcDbBlockTableRecord
  2
*D26
  0
BLOCK_RECORD
  5
1F1
100
AcDbSymbolTableRecord
100
AcDbBlockTableRecord
  2
*D27
  0
BLOCK_RECORD
  5
1FD
100
AcDbSymbolTableRecord
100
AcDbBlockTableRecord
  2
*D28
  0
ENDTAB
  0
ENDSEC
  0
SECTION
  2
BLOCKS
  0
BLOCK
  5
3
100
AcDbEntity
  8
0
100
AcDbBlockBegin
  2
*MODEL_SPACE
 70
     0
 10
0.0
 20
0.0
 30
0.0
  3
*MODEL_SPACE
  1

  0
ENDBLK
  5
6
100
AcDbEntity
  8
0
100
AcDbBlockEnd
  0
BLOCK
  5
8
100
AcDbEntity
 67
     1
  8
0
100
AcDbBlockBegin
  2
*PAPER_SPACE
 70
     0
 10
0.0
 20
0.0
 30
0.0
  3
*PAPER_SPACE
  1

  0
ENDBLK
  5
9
100
AcDbEntity
 67
     1
  8
0
100
AcDbBlockEnd
  0
BLOCK
  5
23
100
AcDbEntity
  8
0
100
AcDbBlockBegin
  2
_DOTSMALL
 70
     0
 10
0.0
 20
0.0
 30
0.0
  3
_DOTSMALL
  1

  0
POLYLINE
  5
1F
100
AcDbEntity
  8
0
  6
BYBLOCK
 62
     0
100
AcDb2dPolyline
 66
     1
 10
0.0
 20
0.0
 30
0.0
 70
     1
 40
0.5
 41
0.5
  0
VERTEX
  5
20
100
AcDbEntity
  8
0
  6
BYBLOCK
 62
     0
100
AcDbVertex
100
AcDb2dVertex
 10
-0.0625
 20
0.0
 30
0.0
 42
1.0
  0
VERTEX
  5
21
100
AcDbEntity
  8
0
  6
BYBLOCK
 62
     0
100
AcDbVertex
100
AcDb2dVertex
 10
0.0625
 20
0.0
 30
0.0
 42
1.0
  0
SEQEND
  5
22
100
AcDbEntity
  8
0
  6
BYBLOCK
 62
     0
  0
ENDBLK
  5
24
100
AcDbEntity
  8
0
100
AcDbBlockEnd
  0
BLOCK
  5
14F
100
AcDbEntity
  8
0
100
AcDbBlockBegin
  2
_OPEN30
 70
     0
 10
0.0
 20
0.0
 30
0.0
  3
_OPEN30
  1

  0
LINE
  5
150
100
AcDbEntity
  8
0
  6
BYBLOCK
 62
     0
100
AcDbLine
 10
-1.0
 20
0.267949
 30
0.0
 11
0.0
 21
0.0
 31
0.0
  0
LINE
  5
151
100
AcDbEntity
  8
0
  6
BYBLOCK
 62
     0
100
AcDbLine
 10
0.0
 20
0.0
 30
0.0
 11
-1.0
 21
-0.267949
 31
0.0
  0
LINE
  5
152
100
AcDbEntity
  8
0
  6
BYBLOCK
 62
     0
100
AcDbLine
 10
0.0
 20
0.0
 30
0.0
 11
-1.0
 21
0.0
 31
0.0
  0
ENDBLK
  5
153
100
AcDbEntity
  8
0
100
AcDbBlockEnd
  0
BLOCK
  5
21F
100
AcDbEntity
  8
0
100
AcDbBlockBegin
  2
*D17
 70
     1
 10
0.0
 20
0.0
 30
0.0
  3
*D17
  1

  0
LINE
  5
220
100
AcDbEntity
  8
0
  6
BYBLOCK
 62
     1
100
AcDbLine
 10
351.923063
 20
146.747874
 30
0.0
 11
342.914884
 21
146.747874
 31
0.0
  0
LINE
  5
221
100
AcDbEntity
  8
0
  6
BYBLOCK
 62
     1
100
AcDbLine
 10
352.926869
 20
146.660718
 30
0.0
 11
342.956774
 21
145.788448
 31
0.0
  0
ARC
  5
222
100
AcDbEntity
  8
0
  6
BYBLOCK
 62
     1
100
AcDbCircle
 10
353.923063
 20
146.747874
 30
0.0
 40
9.508179
100
AcDbArc
 50
155.714833
 51
180.0
  0
LINE
  5
223
100
AcDbEntity
  8
0
  6
BYBLOCK
 62
     1
100
AcDbLine
 10
345.256265
 20
150.658383
 30
0.0
 11
348.793259
 21
158.497367
 31
0.0
  0
ARC
  5
224
100
AcDbEntity
  8
0
  6
BYBLOCK
 62
     1
100
AcDbCircle
 10
353.923063
 20
146.747874
 30
0.0
 40
9.508179
100
AcDbArc
 50
155.851554
 51
167.925777
  0
ARC
  5
225
100
AcDbEntity
  8
0
  6
BYBLOCK
 62
     1
100
AcDbCircle
 10
353.923063
 20
146.747874
 30
0.0
 40
9.508179
100
AcDbArc
 50
197.074223
 51
209.148446
  0
ARC
  5
226
100
AcDbEntity
  8
0
  6
BYBLOCK
 62
     1
100
AcDbCircle
 10
353.923063
 20
146.747874
 30
0.0
 40
9.508179
100
AcDbArc
 50
180.0
 51
185.0
  0
INSERT
  5
227
100
AcDbEntity
  8
0
  6
BYBLOCK
 62
     1
100
AcDbBlockReference
  2
_OPEN30
 10
344.414884
 20
146.747874
 30
0.0
 41
2.0
 42
2.0
 43
2.0
 50
263.962889
  0
INSERT
  5
228
100
AcDbEntity
  8
0
  6
BYBLOCK
 62
     1
100
AcDbBlockReference
  2
_OPEN30
 10
344.451066
 20
145.919181
 30
0.0
 41
2.0
 42
2.0
 43
2.0
 50
101.037111
  0
MTEXT
  5
229
100
AcDbEntity
  8
0
  6
BYBLOCK
 62
     3
100
AcDbMText
 10
349.303537
 20
153.549679
 30
0.0
 40
3.0
 41
0.0
 71
     5
 72
     1
  1
\A1;5°
 11
-0.411278
 21
-0.91151
 31
0.0
  0
POINT
  5
22A
100
AcDbEntity
  8
DEFPOINTS
  6
BYBLOCK
 62
     0
100
AcDbPoint
 10
344.430971
 20
146.195022
 30
0.0
  0
POINT
  5
22B
100
AcDbEntity
  8
DEFPOINTS
  6
BYBLOCK
 62
     0
100
AcDbPoint
 10
353.923063
 20
146.747874
 30
0.0
  0
POINT
  5
22C
100
AcDbEntity
  8
DEFPOINTS
  6
BYBLOCK
 62
     0
100
AcDbPoint
 10
378.350425
 20
148.884991
 30
0.0
  0
POINT
  5
22D
100
AcDbEntity
  8
DEFPOINTS
  6
BYBLOCK
 62
     0
100
AcDbPoint
 10
353.923063
 20
146.747874
 30
0.0
  0
POINT
  5
22E
100
AcDbEntity
  8
DEFPOINTS
  6
BYBLOCK
 62
     0
100
AcDbPoint
 10
352.923063
 20
146.747874
 30
0.0
  0
ENDBLK
  5
22F
100
AcDbEntity
  8
0
100
AcDbBlockEnd
  0
BLOCK
  5
214
100
AcDbEntity
  8
0
100
AcDbBlockBegin
  2
*D18
 70
     1
 10
0.0
 20
0.0
 30
0.0
  3
*D18
  1

  0
LINE
  5
215
100
AcDbEntity
  8
0
  6
BYBLOCK
 62
     1
100
AcDbLine
 10
378.923063
 20
148.106618
 30
0.0
 11
378.923063
 21
155.540871
 31
0.0
  0
LINE
  5
216
100
AcDbEntity
  8
0
  6
BYBLOCK
 62
     1
100
AcDbLine
 10
353.923063
 20
147.747874
 30
0.0
 11
353.923063
 21
155.540871
 31
0.0
  0
LINE
  5
217
100
AcDbEntity
  8
0
  6
BYBLOCK
 62
     1
100
AcDbLine
 10
376.923063
 20
154.040871
 30
0.0
 11
355.923063
 21
154.040871
 31
0.0
  0
INSERT
  5
218
100
AcDbEntity
  8
0
  6
BYBLOCK
 62
     1
100
AcDbBlockReference
  2
_OPEN30
 10
378.923063
 20
154.040871
 30
0.0
 41
2.0
 42
2.0
 43
2.0
  0
INSERT
  5
219
100
AcDbEntity
  8
0
  6
BYBLOCK
 62
     1
100
AcDbBlockReference
  2
_OPEN30
 10
353.923063
 20
154.040871
 30
0.0
 41
2.0
 42
2.0
 43
2.0
 50
180.0
  0
MTEXT
  5
21A
100
AcDbEntity
  8
0
  6
BYBLOCK
 62
     3
100
AcDbMText
 10
366.423063
 20
156.540871
 30
0.0
 40
3.0
 41
0.0
 71
     5
 72
     1
  1
\A1;25
  0
POINT
  5
21B
100
AcDbEntity
  8
DEFPOINTS
  6
BYBLOCK
 62
     0
100
AcDbPoint
 10
378.923063
 20
147.106618
 30
0.0
  0
POINT
  5
21C
100
AcDbEntity
  8
DEFPOINTS
  6
BYBLOCK
 62
     0
100
AcDbPoint
 10
353.923063
 20
146.747874
 30
0.0
  0
POINT
  5
21D
100
AcDbEntity
  8
DEFPOINTS
  6
BYBLOCK
 62
     0
100
AcDbPoint
 10
353.923063
 20
154.040871
 30
0.0
  0
ENDBLK
  5
21E
100
AcDbEntity
  8
0
100
AcDbBlockEnd
  0
BLOCK
  5
209
100
AcDbEntity
  8
0
100
AcDbBlockBegin
  2
*D21
 70
     1
 10
0.0
 20
0.0
 30
0.0
  3
*D21
  1

  0
LINE
  5
20A
100
AcDbEntity
  8
0
  6
BYBLOCK
 62
     1
100
AcDbLine
 10
353.923063
 20
171.014135
 30
0.0
 11
353.923063
 21
162.879251
 31
0.0
  0
LINE
  5
20B
100
AcDbEntity
  8
0
  6
BYBLOCK
 62
     1
100
AcDbLine
 10
503.923063
 20
178.014135
 30
0.0
 11
503.923063
 21
162.879251
 31
0.0
  0
LINE
  5
20C
100
AcDbEntity
  8
0
  6
BYBLOCK
 62
     1
100
AcDbLine
 10
355.923063
 20
164.379251
 30
0.0
 11
501.923063
 21
164.379251
 31
0.0
  0
INSERT
  5
20D
100
AcDbEntity
  8
0
  6
BYBLOCK
 62
     1
100
AcDbBlockReference
  2
_OPEN30
 10
353.923063
 20
164.379251
 30
0.0
 41
2.0
 42
2.0
 43
2.0
 50
180.0
  0
INSERT
  5
20E
100
AcDbEntity
  8
0
  6
BYBLOCK
 62
     1
100
AcDbBlockReference
  2
_OPEN30
 10
503.923063
 20
164.379251
 30
0.0
 41
2.0
 42
2.0
 43
2.0
  0
MTEXT
  5
20F
100
AcDbEntity
  8
0
  6
BYBLOCK
 62
     3
100
AcDbMText
 10
428.923063
 20
166.879251
 30
0.0
 40
3.0
 41
0.0
 71
     5
 72
     1
  1
\A1;150
  0
POINT
  5
210
100
AcDbEntity
  8
DEFPOINTS
  6
BYBLOCK
 62
     0
100
AcDbPoint
 10
353.923063
 20
172.014135
 30
0.0
  0
POINT
  5
211
100
AcDbEntity
  8
DEFPOINTS
  6
BYBLOCK
 62
     0
100
AcDbPoint
 10
503.923063
 20
179.014135
 30
0.0
  0
POINT
  5
212
100
AcDbEntity
  8
DEFPOINTS
  6
BYBLOCK
 62
     0
100
AcDbPoint
 10
503.923063
 20
164.379251
 30
0.0
  0
ENDBLK
  5
213
100
AcDbEntity
  8
0
100
AcDbBlockEnd
  0
BLOCK
  5
24E
100
AcDbEntity
  8
0
100
AcDbBlockBegin
  2
*D22
 70
     1
 10
0.0
 20
0.0
 30
0.0
  3
*D22
  1

  0
LINE
  5
24F
100
AcDbEntity
  8
0
  6
BYBLOCK
 62
     1
100
AcDbLine
 10
366.582222
 20
204.014135
 30
0.0
 11
335.11828
 21
204.014135
 31
0.0
  0
LINE
  5
250
100
AcDbEntity
  8
0
  6
BYBLOCK
 62
     1
100
AcDbLine
 10
352.923063
 20
172.014135
 30
0.0
 11
335.11828
 21
172.014135
 31
0.0
  0
LINE
  5
251
100
AcDbEntity
  8
0
  6
BYBLOCK
 62
     1
100
AcDbLine
 10
336.61828
 20
202.014135
 30
0.0
 11
336.61828
 21
174.014135
 31
0.0
  0
INSERT
  5
252
100
AcDbEntity
  8
0
  6
BYBLOCK
 62
     1
100
AcDbBlockReference
  2
_OPEN30
 10
336.61828
 20
204.014135
 30
0.0
 41
2.0
 42
2.0
 43
2.0
 50
90.0
  0
INSERT
  5
253
100
AcDbEntity
  8
0
  6
BYBLOCK
 62
     1
100
AcDbBlockReference
  2
_OPEN30
 10
336.61828
 20
172.014135
 30
0.0
 41
2.0
 42
2.0
 43
2.0
 50
270.0
  0
MTEXT
  5
254
100
AcDbEntity
  8
0
  6
BYBLOCK
 62
     3
100
AcDbMText
 10
334.11828
 20
188.014135
 30
0.0
 40
3.0
 41
0.0
 71
     5
 72
     1
  1
\A1;32
 11
0.0
 21
1.0
 31
0.0
  0
POINT
  5
255
100
AcDbEntity
  8
DEFPOINTS
  6
BYBLOCK
 62
     0
100
AcDbPoint
 10
367.582222
 20
204.014135
 30
0.0
  0
POINT
  5
256
100
AcDbEntity
  8
DEFPOINTS
  6
BYBLOCK
 62
     0
100
AcDbPoint
 10
353.923063
 20
172.014135
 30
0.0
  0
POINT
  5
257
100
AcDbEntity
  8
DEFPOINTS
  6
BYBLOCK
 62
     0
100
AcDbPoint
 10
336.61828
 20
172.014135
 30
0.0
  0
ENDBLK
  5
258
100
AcDbEntity
  8
0
100
AcDbBlockEnd
  0
BLOCK
  5
259
100
AcDbEntity
  8
0
100
AcDbBlockBegin
  2
*D24
 70
     1
 10
0.0
 20
0.0
 30
0.0
  3
*D24
  1

  0
LINE
  5
25A
100
AcDbEntity
  8
0
  6
BYBLOCK
 62
     1
100
AcDbLine
 10
352.923063
 20
146.747874
 30
0.0
 11
336.594884
 21
146.747874
 31
0.0
  0
LINE
  5
25B
100
AcDbEntity
  8
0
  6
BYBLOCK
 62
     1
100
AcDbLine
 10
353.823063
 20
121.747874
 30
0.0
 11
336.594884
 21
121.747874
 31
0.0
  0
LINE
  5
25C
100
AcDbEntity
  8
0
  6
BYBLOCK
 62
     1
100
AcDbLine
 10
338.094884
 20
144.747874
 30
0.0
 11
338.094884
 21
123.747874
 31
0.0
  0
INSERT
  5
25D
100
AcDbEntity
  8
0
  6
BYBLOCK
 62
     1
100
AcDbBlockReference
  2
_OPEN30
 10
338.094884
 20
146.747874
 30
0.0
 41
2.0
 42
2.0
 43
2.0
 50
90.0
  0
INSERT
  5
25E
100
AcDbEntity
  8
0
  6
BYBLOCK
 62
     1
100
AcDbBlockReference
  2
_OPEN30
 10
338.094884
 20
121.747874
 30
0.0
 41
2.0
 42
2.0
 43
2.0
 50
270.0
  0
MTEXT
  5
25F
100
AcDbEntity
  8
0
  6
BYBLOCK
 62
     3
100
AcDbMText
 10
335.594884
 20
134.247874
 30
0.0
 40
3.0
 41
0.0
 71
     5
 72
     1
  1
\A1;25
 11
0.0
 21
1.0
 31
0.0
  0
POINT
  5
260
100
AcDbEntity
  8
DEFPOINTS
  6
BYBLOCK
 62
     0
100
AcDbPoint
 10
353.923063
 20
146.747874
 30
0.0
  0
POINT
  5
261
100
AcDbEntity
  8
DEFPOINTS
  6
BYBLOCK
 62
     0
100
AcDbPoint
 10
354.823063
 20
121.747874
 30
0.0
  0
POINT
  5
262
100
AcDbEntity
  8
DEFPOINTS
  6
BYBLOCK
 62
     0
100
AcDbPoint
 10
338.094884
 20
121.747874
 30
0.0
  0
ENDBLK
  5
263
100
AcDbEntity
  8
0
100
AcDbBlockEnd
  0
BLOCK
  5
23E
100
AcDbEntity
  8
0
100
AcDbBlockBegin
  2
*D25
 70
     1
 10
0.0
 20
0.0
 30
0.0
  3
*D25
  1

  0
LINE
  5
23F
100
AcDbEntity
  8
0
  6
BYBLOCK
 62
     1
100
AcDbLine
 10
315.331067
 20
171.01794
 30
0.0
 11
314.469572
 21
161.171001
 31
0.0
  0
ARC
  5
240
100
AcDbEntity
  8
0
  6
BYBLOCK
 62
     1
100
AcDbCircle
 10
315.418223
 20
172.014135
 30
0.0
 40
9.384553
100
AcDbArc
 50
240.389937
 51
265.0
  0
LINE
  5
241
100
AcDbEntity
  8
0
  6
BYBLOCK
 62
     1
100
AcDbLine
 10
310.781367
 20
163.855128
 30
0.0
 11
303.304456
 21
168.104342
 31
0.0
  0
ARC
  5
242
100
AcDbEntity
  8
0
  6
BYBLOCK
 62
     1
100
AcDbCircle
 10
315.418223
 20
172.014135
 30
0.0
 40
9.384553
100
AcDbArc
 50
240.532231
 51
252.766115
  0
ARC
  5
243
100
AcDbEntity
  8
0
  6
BYBLOCK
 62
     1
100
AcDbCircle
 10
315.418223
 20
172.014135
 30
0.0
 40
9.384553
100
AcDbArc
 50
282.233885
 51
294.467769
  0
ARC
  5
244
100
AcDbEntity
  8
0
  6
BYBLOCK
 62
     1
100
AcDbCircle
 10
315.418223
 20
172.014135
 30
0.0
 40
9.384553
100
AcDbArc
 50
265.0
 51
270.0
  0
INSERT
  5
245
100
AcDbEntity
  8
0
  6
BYBLOCK
 62
     1
100
AcDbBlockReference
  2
_OPEN30
 10
314.600305
 20
162.665293
 30
0.0
 41
2.0
 42
2.0
 43
2.0
 50
348.883058
  0
INSERT
  5
246
100
AcDbEntity
  8
0
  6
BYBLOCK
 62
     1
100
AcDbBlockReference
  2
_OPEN30
 10
315.418223
 20
162.629582
 30
0.0
 41
2.0
 42
2.0
 43
2.0
 50
186.116942
  0
MTEXT
  5
247
100
AcDbEntity
  8
0
  6
BYBLOCK
 62
     3
100
AcDbMText
 10
308.278148
 20
168.153255
 30
0.0
 40
3.0
 41
0.0
 71
     5
 72
     1
  1
\A1;5°
 11
0.869408
 21
-0.494095
 31
0.0
  0
POINT
  5
248
100
AcDbEntity
  8
DEFPOINTS
  6
BYBLOCK
 62
     0
100
AcDbPoint
 10
315.145276
 20
162.633553
 30
0.0
  0
POINT
  5
249
100
AcDbEntity
  8
DEFPOINTS
  6
BYBLOCK
 62
     0
100
AcDbPoint
 10
315.418223
 20
161.174938
 30
0.0
  0
POINT
  5
24A
100
AcDbEntity
  8
DEFPOINTS
  6
BYBLOCK
 62
     0
100
AcDbPoint
 10
318.21786
 20
204.014135
 30
0.0
  0
POINT
  5
24B
100
AcDbEntity
  8
DEFPOINTS
  6
BYBLOCK
 62
     0
100
AcDbPoint
 10
315.418223
 20
172.014135
 30
0.0
  0
POINT
  5
24C
100
AcDbEntity
  8
DEFPOINTS
  6
BYBLOCK
 62
     0
100
AcDbPoint
 10
315.418223
 20
172.014135
 30
0.0
  0
ENDBLK
  5
24D
100
AcDbEntity
  8
0
100
AcDbBlockEnd
  0
BLOCK
  5
230
100
AcDbEntity
  8
0
100
AcDbBlockBegin
  2
*D26
 70
     1
 10
0.0
 20
0.0
 30
0.0
  3
*D26
  1

  0
LINE
  5
231
100
AcDbEntity
  8
0
  6
BYBLOCK
 62
     1
100
AcDbLine
 10
352.909234
 20
172.014135
 30
0.0
 11
343.683095
 21
172.014135
 31
0.0
  0
ARC
  5
232
100
AcDbEntity
  8
0
  6
BYBLOCK
 62
     1
100
AcDbCircle
 10
353.909234
 20
172.014135
 30
0.0
 40
8.726139
100
AcDbArc
 50
62.678193
 51
75.839097
  0
ARC
  5
233
100
AcDbEntity
  8
0
  6
BYBLOCK
 62
     1
100
AcDbCircle
 10
353.909234
 20
172.014135
 30
0.0
 40
8.726139
100
AcDbArc
 50
193.160903
 51
206.321807
  0
ARC
  5
234
100
AcDbEntity
  8
0
  6
BYBLOCK
 62
     1
100
AcDbCircle
 10
353.909234
 20
172.014135
 30
0.0
 40
8.726139
100
AcDbArc
 50
89.0
 51
180.0
  0
INSERT
  5
235
100
AcDbEntity
  8
0
  6
BYBLOCK
 62
     1
100
AcDbBlockReference
  2
_OPEN30
 10
354.061526
 20
180.738945
 30
0.0
 41
2.0
 42
2.0
 43
2.0
 50
172.419548
  0
INSERT
  5
236
100
AcDbEntity
  8
0
  6
BYBLOCK
 62
     1
100
AcDbBlockReference
  2
_OPEN30
 10
345.183095
 20
172.014135
 30
0.0
 41
2.0
 42
2.0
 43
2.0
 50
96.580452
  0
MTEXT
  5
237
100
AcDbEntity
  8
0
  6
BYBLOCK
 62
     3
100
AcDbMText
 10
346.040729
 20
180.021183
 30
0.0
 40
3.0
 41
0.0
 71
     5
 72
     1
  1
\A1;91°
 11
0.71325
 21
0.700909
 31
0.0
  0
POINT
  5
238
100
AcDbEntity
  8
DEFPOINTS
  6
BYBLOCK
 62
     0
100
AcDbPoint
 10
349.634388
 20
179.621447
 30
0.0
  0
POINT
  5
239
100
AcDbEntity
  8
DEFPOINTS
  6
BYBLOCK
 62
     0
100
AcDbPoint
 10
353.923185
 20
172.813402
 30
0.0
  0
POINT
  5
23A
100
AcDbEntity
  8
DEFPOINTS
  6
BYBLOCK
 62
     0
100
AcDbPoint
 10
354.570432
 20
172.014135
 30
0.0
  0
POINT
  5
23B
100
AcDbEntity
  8
DEFPOINTS
  6
BYBLOCK
 62
     0
100
AcDbPoint
 10
353.923063
 20
172.014135
 30
0.0
  0
POINT
  5
23C
100
AcDbEntity
  8
DEFPOINTS
  6
BYBLOCK
 62
     0
100
AcDbPoint
 10
354.258721
 20
192.036238
 30
0.0
  0
ENDBLK
  5
23D
100
AcDbEntity
  8
0
100
AcDbBlockEnd
  0
BLOCK
  5
26F
100
AcDbEntity
  8
0
100
AcDbBlockBegin
  2
*D27
 70
     1
 10
0.0
 20
0.0
 30
0.0
  3
*D27
  1

  0
LINE
  5
270
100
AcDbEntity
  8
0
  6
BYBLOCK
 62
     1
100
AcDbLine
 10
504.923063
 20
146.747874
 30
0.0
 11
514.793474
 21
146.747874
 31
0.0
  0
LINE
  5
271
100
AcDbEntity
  8
0
  6
BYBLOCK
 62
     1
100
AcDbLine
 10
504.923063
 20
121.747874
 30
0.0
 11
514.793474
 21
121.747874
 31
0.0
  0
LINE
  5
272
100
AcDbEntity
  8
0
  6
BYBLOCK
 62
     1
100
AcDbLine
 10
513.293474
 20
144.747874
 30
0.0
 11
513.293474
 21
123.747874
 31
0.0
  0
INSERT
  5
273
100
AcDbEntity
  8
0
  6
BYBLOCK
 62
     1
100
AcDbBlockReference
  2
_OPEN30
 10
513.293474
 20
146.747874
 30
0.0
 41
2.0
 42
2.0
 43
2.0
 50
90.0
  0
INSERT
  5
274
100
AcDbEntity
  8
0
  6
BYBLOCK
 62
     1
100
AcDbBlockReference
  2
_OPEN30
 10
513.293474
 20
121.747874
 30
0.0
 41
2.0
 42
2.0
 43
2.0
 50
270.0
  0
MTEXT
  5
275
100
AcDbEntity
  8
0
  6
BYBLOCK
 62
     3
100
AcDbMText
 10
510.793474
 20
134.247874
 30
0.0
 40
3.0
 41
0.0
 71
     5
 72
     1
  1
\A1;25
 11
0.0
 21
1.0
 31
0.0
  0
POINT
  5
276
100
AcDbEntity
  8
DEFPOINTS
  6
BYBLOCK
 62
     0
100
AcDbPoint
 10
503.923063
 20
146.747874
 30
0.0
  0
POINT
  5
277
100
AcDbEntity
  8
DEFPOINTS
  6
BYBLOCK
 62
     0
100
AcDbPoint
 10
503.923063
 20
121.747874
 30
0.0
  0
POINT
  5
278
100
AcDbEntity
  8
DEFPOINTS
  6
BYBLOCK
 62
     0
100
AcDbPoint
 10
513.293474
 20
121.747874
 30
0.0
  0
ENDBLK
  5
279
100
AcDbEntity
  8
0
100
AcDbBlockEnd
  0
BLOCK
  5
264
100
AcDbEntity
  8
0
100
AcDbBlockBegin
  2
*D28
 70
     1
 10
0.0
 20
0.0
 30
0.0
  3
*D28
  1

  0
LINE
  5
265
100
AcDbEntity
  8
0
  6
BYBLOCK
 62
     1
100
AcDbLine
 10
504.923063
 20
204.014135
 30
0.0
 11
516.286543
 21
204.014135
 31
0.0
  0
LINE
  5
266
100
AcDbEntity
  8
0
  6
BYBLOCK
 62
     1
100
AcDbLine
 10
504.923063
 20
179.014135
 30
0.0
 11
516.286543
 21
179.014135
 31
0.0
  0
LINE
  5
267
100
AcDbEntity
  8
0
  6
BYBLOCK
 62
     1
100
AcDbLine
 10
514.786543
 20
202.014135
 30
0.0
 11
514.786543
 21
181.014135
 31
0.0
  0
INSERT
  5
268
100
AcDbEntity
  8
0
  6
BYBLOCK
 62
     1
100
AcDbBlockReference
  2
_OPEN30
 10
514.786543
 20
204.014135
 30
0.0
 41
2.0
 42
2.0
 43
2.0
 50
90.0
  0
INSERT
  5
269
100
AcDbEntity
  8
0
  6
BYBLOCK
 62
     1
100
AcDbBlockReference
  2
_OPEN30
 10
514.786543
 20
179.014135
 30
0.0
 41
2.0
 42
2.0
 43
2.0
 50
270.0
  0
MTEXT
  5
26A
100
AcDbEntity
  8
0
  6
BYBLOCK
 62
     3
100
AcDbMText
 10
512.286543
 20
191.514135
 30
0.0
 40
3.0
 41
0.0
 71
     5
 72
     1
  1
\A1;25
 11
0.0
 21
1.0
 31
0.0
  0
POINT
  5
26B
100
AcDbEntity
  8
DEFPOINTS
  6
BYBLOCK
 62
     0
100
AcDbPoint
 10
503.923063
 20
204.014135
 30
0.0
  0
POINT
  5
26C
100
AcDbEntity
  8
DEFPOINTS
  6
BYBLOCK
 62
     0
100
AcDbPoint
 10
503.923063
 20
179.014135
 30
0.0
  0
POINT
  5
26D
100
AcDbEntity
  8
DEFPOINTS
  6
BYBLOCK
 62
     0
100
AcDbPoint
 10
514.786543
 20
179.014135
 30
0.0
  0
ENDBLK
  5
26E
100
AcDbEntity
  8
0
100
AcDbBlockEnd
  0
ENDSEC
  0
SECTION
  2
ENTITIES
  0
DIMENSION
  5
43
100
AcDbEntity
  8
寸法
  6
CONTINUOUS
100
AcDbDimension
  2
*D17
 10
352.923063
 20
146.747874
 30
0.0
 11
349.303537
 21
153.549679
 31
0.0
 70
    34
  3
STANDARD
100
AcDb2LineAngularDimension
 13
378.350425
 23
148.884991
 33
0.0
 14
353.923063
 24
146.747874
 34
0.0
 15
353.923063
 25
146.747874
 35
0.0
 16
344.430971
 26
146.195022
 36
0.0
  0
LINE
  5
55
100
AcDbEntity
  8
外形
  6
CONTINUOUS
100
AcDbLine
 10
367.582222
 20
204.014135
 30
0.0
 11
355.453896
 21
197.011842
 31
0.0
  0
DIMENSION
  5
57
100
AcDbEntity
  8
寸法
  6
CONTINUOUS
100
AcDbDimension
  2
*D18
 10
353.923063
 20
154.040871
 30
0.0
 11
366.423063
 21
156.540871
 31
0.0
 70
    32
  3
STANDARD
100
AcDbAlignedDimension
 13
378.923063
 23
147.106618
 33
0.0
 14
353.923063
 24
146.747874
 34
0.0
 50
360.0
100
AcDbRotatedDimension
1001
ACAD
1000
DSTYLE
1002
{
1002
}
  0
LINE
  5
73
100
AcDbEntity
  8
外形
  6
CONTINUOUS
100
AcDbLine
 10
356.593054
 20
172.921309
 30
0.0
 11
364.923063
 21
172.921309
 31
0.0
  0
LINE
  5
74
100
AcDbEntity
  8
外形
  6
CONTINUOUS
100
AcDbLine
 10
371.926143
 20
181.420579
 30
0.0
 11
355.110911
 21
172.099744
 31
0.0
  0
DIMENSION
  5
80
100
AcDbEntity
  8
寸法
  6
CONTINUOUS
100
AcDbDimension
  2
*D21
 10
503.923063
 20
164.379251
 30
0.0
 11
428.923063
 21
166.879251
 31
0.0
 70
    32
  3
STANDARD
100
AcDbAlignedDimension
 13
353.923063
 23
172.014135
 33
0.0
 14
503.923063
 24
179.014135
 34
0.0
 50
360.0
100
AcDbRotatedDimension
1001
ACAD
1000
DSTYLE
1002
{
1002
}
  0
DIMENSION
  5
8D
100
AcDbEntity
  8
寸法
  6
CONTINUOUS
100
AcDbDimension
  2
*D22
 10
336.61828
 20
172.014135
 30
0.0
 11
334.11828
 21
188.014135
 31
0.0
 70
    32
  3
STANDARD
100
AcDbAlignedDimension
 13
367.582222
 23
204.014135
 33
0.0
 14
353.923063
 24
172.014135
 34
0.0
 50
90.0
100
AcDbRotatedDimension
1001
ACAD
1000
DSTYLE
1002
{
1002
}
  0
LINE
  5
9B
100
AcDbEntity
  8
外形
  6
CONTINUOUS
100
AcDbLine
 10
361.627584
 20
147.421932
 30
0.0
 11
362.321344
 21
139.492222
 31
0.0
  0
LINE
  5
9C
100
AcDbEntity
  8
外形
  6
CONTINUOUS
100
AcDbLine
 10
362.321344
 20
139.492222
 30
0.0
 11
354.861097
 21
138.839535
 31
0.0
  0
LINE
  5
9D
100
AcDbEntity
  8
外形
  6
CONTINUOUS
100
AcDbLine
 10
378.350425
 20
148.884991
 30
0.0
 11
353.923063
 21
146.747874
 31
0.0
  0
LINE
  5
9E
100
AcDbEntity
  8
外形
  6
CONTINUOUS
100
AcDbLine
 10
354.823063
 20
121.747874
 30
0.0
 11
503.923063
 21
121.747874
 31
0.0
  0
LINE
  5
9F
100
AcDbEntity
  8
外形
  6
CONTINUOUS
100
AcDbLine
 10
355.47063
 20
192.708009
 30
0.0
 11
373.138052
 21
182.092351
 31
0.0
  0
CIRCLE
  5
A0
100
AcDbEntity
  8
外形
  6
CONTINUOUS
100
AcDbCircle
 10
360.439986
 20
182.313997
 30
0.0
 40
2.58
  0
TEXT
  5
A1
100
AcDbEntity
  8
外形
  6
CONTINUOUS
 62
     2
100
AcDbText
 10
350.0595
 20
98.838364
 30
0.0
 40
6.0
  1
PTFN R2525-43
 50
360.0
100
AcDbText
  0
DIMENSION
  5
B1
100
AcDbEntity
  8
寸法
  6
CONTINUOUS
100
AcDbDimension
  2
*D24
 10
338.094884
 20
121.747874
 30
0.0
 11
335.594884
 21
134.247874
 31
0.0
 70
    32
  3
STANDARD
100
AcDbAlignedDimension
 13
353.923063
 23
146.747874
 33
0.0
 14
354.823063
 24
121.747874
 34
0.0
 50
90.0
100
AcDbRotatedDimension
1001
ACAD
1000
DSTYLE
1002
{
1002
}
  0
LINE
  5
BE
100
AcDbEntity
  8
外形
  6
CONTINUOUS
100
AcDbLine
 10
354.823063
 20
121.747874
 30
0.0
 11
354.823063
 21
139.274258
 31
0.0
  0
LINE
  5
BF
100
AcDbEntity
  8
外形
  6
CONTINUOUS
100
AcDbLine
 10
360.89596
 20
147.357923
 30
0.0
 11
361.58972
 21
139.428213
 31
0.0
  0
LINE
  5
C0
100
AcDbEntity
  8
外形
  6
CONTINUOUS
100
AcDbLine
 10
353.923063
 20
146.747874
 30
0.0
 11
354.337925
 21
142.005987
 31
0.0
  0
LINE
  5
C1
100
AcDbEntity
  8
外形
  6
CONTINUOUS
100
AcDbLine
 10
354.582198
 20
142.027358
 30
0.0
 11
354.861097
 21
138.839535
 31
0.0
  0
LINE
  5
C2
100
AcDbEntity
  8
外形
  6
CONTINUOUS
100
AcDbLine
 10
361.310821
 20
142.616036
 30
0.0
 11
354.337925
 21
142.005987
 31
0.0
  0
LINE
  5
C3
100
AcDbEntity
  8
寸法
  6
CONTINUOUS
100
AcDbLine
 10
353.923063
 20
146.747874
 30
0.0
 11
352.923063
 21
146.747874
 31
0.0
  0
LINE
  5
C4
100
AcDbEntity
  8
寸法
  6
CONTINUOUS
100
AcDbLine
 10
315.418223
 20
172.014135
 30
0.0
 11
335.11828
 21
172.014135
 31
0.0
  0
DIMENSION
  5
C5
100
AcDbEntity
  8
寸法
  6
CONTINUOUS
100
AcDbDimension
  2
*D25
 10
315.418223
 20
172.014135
 30
0.0
 11
308.278148
 21
168.153255
 31
0.0
 70
    34
  3
STANDARD
100
AcDb2LineAngularDimension
 13
318.21786
 23
204.014135
 33
0.0
 14
315.418223
 24
172.014135
 34
0.0
 15
315.418223
 25
161.174938
 35
0.0
 16
315.145276
 26
162.633553
 36
0.0
1001
ACAD
1000
DSTYLE
1002
{
1002
}
  0
LINE
  5
D5
100
AcDbEntity
  8
外形
  6
CONTINUOUS
100
AcDbLine
 10
317.237838
 20
192.812426
 30
0.0
 11
312.495951
 21
193.227288
 31
0.0
  0
LINE
  5
D6
100
AcDbEntity
  8
外形
  6
CONTINUOUS
100
AcDbLine
 10
290.418223
 20
197.014135
 30
0.0
 11
317.60544
 21
197.014135
 31
0.0
  0
LINE
  5
D7
100
AcDbEntity
  8
外形
  6
CONTINUOUS
100
AcDbLine
 10
318.21786
 20
204.014135
 30
0.0
 11
290.418223
 21
204.014135
 31
0.0
  0
LINE
  5
D8
100
AcDbEntity
  8
外形
  6
CONTINUOUS
100
AcDbLine
 10
318.21786
 20
204.014135
 30
0.0
 11
315.418223
 21
172.014135
 31
0.0
  0
LINE
  5
D9
100
AcDbEntity
  8
外形
  6
CONTINUOUS
100
AcDbLine
 10
309.292328
 20
193.334562
 30
0.0
 11
307.509106
 21
172.952236
 31
0.0
  0
LINE
  5
DA
100
AcDbEntity
  8
外形
  6
CONTINUOUS
100
AcDbLine
 10
312.495951
 20
193.227288
 30
0.0
 11
310.676336
 21
172.428996
 31
0.0
  0
LINE
  5
DB
100
AcDbEntity
  8
外形
  6
CONTINUOUS
100
AcDbLine
 10
290.418223
 20
173.494135
 30
0.0
 11
290.418223
 21
204.014135
 31
0.0
  0
LINE
  5
DC
100
AcDbEntity
  8
外形
  6
CONTINUOUS
100
AcDbLine
 10
290.418223
 20
173.494135
 30
0.0
 11
307.556516
 21
173.494135
 31
0.0
  0
LINE
  5
DD
100
AcDbEntity
  8
寸法
  6
CONTINUOUS
100
AcDbLine
 10
315.418223
 20
161.174938
 30
0.0
 11
315.418223
 21
172.014135
 31
0.0
  0
LINE
  5
DE
100
AcDbEntity
  8
外形
  6
CONTINUOUS
100
AcDbLine
 10
310.697707
 20
172.67327
 30
0.0
 11
307.509884
 21
172.952168
 31
0.0
  0
LINE
  5
DF
100
AcDbEntity
  8
外形
  6
CONTINUOUS
100
AcDbLine
 10
315.418223
 20
172.014135
 30
0.0
 11
310.676336
 21
172.428996
 31
0.0
  0
LINE
  5
E0
100
AcDbEntity
  8
外形
  6
CONTINUOUS
100
AcDbLine
 10
312.48093
 20
193.055595
 30
0.0
 11
309.292328
 21
193.334562
 31
0.0
  0
LINE
  5
E3
100
AcDbEntity
  8
外形
  6
CONTINUOUS
100
AcDbLine
 10
353.923185
 20
172.813402
 30
0.0
 11
354.258721
 21
192.036238
 31
0.0
  0
DIMENSION
  5
E4
100
AcDbEntity
  8
寸法
  6
CONTINUOUS
100
AcDbDimension
  2
*D26
 10
354.258721
 20
192.036238
 30
0.0
 11
346.040729
 21
180.021183
 31
0.0
 70
    34
  3
STANDARD
100
AcDb2LineAngularDimension
 13
354.570432
 23
172.014135
 33
0.0
 14
353.923063
 24
172.014135
 34
0.0
 15
353.923185
 25
172.813402
 35
0.0
 16
349.634388
 26
179.621447
 36
0.0
1001
ACAD
1000
DSTYLE
1002
{
1002
}
  0
LINE
  5
F2
100
AcDbEntity
  8
外形
  6
CONTINUOUS
100
AcDbLine
 10
360.706997
 20
175.201705
 30
0.0
 11
361.627584
 21
172.921309
 31
0.0
  0
ARC
  5
F7
100
AcDbEntity
  8
外形
  6
CONTINUOUS
100
AcDbCircle
 10
354.723063
 20
172.79944
 30
0.0
 40
0.8
100
AcDbArc
 50
179.0
 51
299.0
  0
LINE
  5
F8
100
AcDbEntity
  8
外形
  6
CONTINUOUS
100
AcDbLine
 10
355.342822
 20
192.770084
 30
0.0
 11
355.453896
 21
197.011842
 31
0.0
  0
ARC
  5
F9
100
AcDbEntity
  8
外形
  6
CONTINUOUS
100
AcDbCircle
 10
355.058599
 20
192.022276
 30
0.0
 40
0.8
100
AcDbArc
 50
59.0
 51
179.0
  0
LINE
  5
FA
100
AcDbEntity
  8
外形
  6
CONTINUOUS
100
AcDbLine
 10
354.933451
 20
192.812426
 30
0.0
 11
354.932913
 21
192.812426
 31
0.0
  0
LINE
  5
FB
100
AcDbEntity
  8
外形
  6
CONTINUOUS
100
AcDbLine
 10
503.923063
 20
179.014135
 30
0.0
 11
379.843878
 21
179.014135
 31
0.0
  0
LINE
  5
FC
100
AcDbEntity
  8
外形
  6
CONTINUOUS
100
AcDbLine
 10
503.923063
 20
146.747874
 30
0.0
 11
379.69039
 21
146.747874
 31
0.0
  0
LINE
  5
FD
100
AcDbEntity
  8
外形
  6
CONTINUOUS
100
AcDbLine
 10
503.923063
 20
204.014135
 30
0.0
 11
367.582222
 21
204.014135
 31
0.0
  0
LINE
  5
FE
100
AcDbEntity
  8
外形
  6
CONTINUOUS
100
AcDbLine
 10
364.923063
 20
121.747874
 30
0.0
 11
364.923063
 21
147.710249
 31
0.0
  0
LINE
  5
FF
100
AcDbEntity
  8
外形
  6
CONTINUOUS
100
AcDbLine
 10
378.350425
 20
121.747874
 30
0.0
 11
378.350425
 21
148.884991
 31
0.0
  0
LINE
  5
100
100
AcDbEntity
  8
外形
  6
CONTINUOUS
100
AcDbLine
 10
378.923063
 20
147.106618
 30
0.0
 11
378.923063
 21
121.747874
 31
0.0
  0
ARC
  5
101
100
AcDbEntity
  8
外形
  6
CONTINUOUS
100
AcDbCircle
 10
379.69039
 20
147.747874
 30
0.0
 40
1.0
100
AcDbArc
 50
195.0
 51
270.0
  0
LINE
  5
102
100
AcDbEntity
  8
外形
  6
CONTINUOUS
100
AcDbLine
 10
378.350425
 20
148.884991
 30
0.0
 11
378.724465
 21
147.489055
 31
0.0
  0
LINE
  5
103
100
AcDbEntity
  8
外形
  6
CONTINUOUS
100
AcDbLine
 10
378.923063
 20
178.441309
 30
0.0
 11
378.923063
 21
204.014135
 31
0.0
  0
LINE
  5
104
100
AcDbEntity
  8
外形
  6
CONTINUOUS
100
AcDbLine
 10
378.350425
 20
204.014135
 30
0.0
 11
378.846214
 21
178.154503
 31
0.0
  0
LINE
  5
105
100
AcDbEntity
  8
外形
  6
CONTINUOUS
100
AcDbLine
 10
364.923063
 20
172.921309
 30
0.0
 11
377.744552
 21
174.043044
 31
0.0
  0
ARC
  5
106
100
AcDbEntity
  8
外形
  6
CONTINUOUS
100
AcDbCircle
 10
371.850457
 20
179.949433
 30
0.0
 40
2.5
100
AcDbArc
 50
239.0
 51
59.0
  0
LINE
  5
107
100
AcDbEntity
  8
外形
  6
CONTINUOUS
100
AcDbLine
 10
368.088432
 20
179.293302
 30
0.0
 11
370.562861
 21
177.806515
 31
0.0
  0
ARC
  5
108
100
AcDbEntity
  8
外形
  6
CONTINUOUS
100
AcDbCircle
 10
371.538295
 20
182.120275
 30
0.0
 40
0.8
100
AcDbArc
 50
299.0
 51
59.0
  0
ARC
  5
109
100
AcDbEntity
  8
外形
  6
CONTINUOUS
100
AcDbCircle
 10
379.843878
 20
178.014135
 30
0.0
 40
1.0
100
AcDbArc
 50
90.0
 51
165.0
  0
LINE
  5
10A
100
AcDbEntity
  8
外形
  6
CONTINUOUS
100
AcDbLine
 10
377.744552
 20
174.043044
 30
0.0
 11
378.877953
 21
178.272954
 31
0.0
  0
CIRCLE
  5
10B
100
AcDbEntity
  8
外形
  6
CONTINUOUS
100
AcDbCircle
 10
371.3965
 20
191.029202
 30
0.0
 40
4.0
  0
CIRCLE
  5
10C
100
AcDbEntity
  8
外形
  6
CONTINUOUS
100
AcDbCircle
 10
371.3965
 20
191.029202
 30
0.0
 40
3.3235
  0
LWPOLYLINE
  5
10D
100
AcDbEntity
  8
外形
  6
CONTINUOUS
100
AcDbPolyline
 90
        6
 70
     1
 43
0.0
 10
369.78497
 20
191.664001
 10
370.040983
 20
189.950975
 10
371.652514
 20
189.316176
 10
373.008031
 20
190.394403
 10
372.752017
 20
192.107429
 10
371.140487
 20
192.742227
  0
DIMENSION
  5
10E
100
AcDbEntity
  8
寸法
  6
CONTINUOUS
100
AcDbDimension
  2
*D27
 10
513.293474
 20
121.747874
 30
0.0
 11
510.793474
 21
134.247874
 31
0.0
 70
    32
  3
STANDARD
100
AcDbAlignedDimension
 13
503.923063
 23
146.747874
 33
0.0
 14
503.923063
 24
121.747874
 34
0.0
 50
90.0
100
AcDbRotatedDimension
1001
ACAD
1000
DSTYLE
1002
{
1002
}
  0
LINE
  5
11B
100
AcDbEntity
  8
外形
  6
CONTINUOUS
100
AcDbLine
 10
503.923063
 20
121.747874
 30
0.0
 11
503.923063
 21
146.747874
 31
0.0
  0
DIMENSION
  5
11C
100
AcDbEntity
  8
寸法
  6
CONTINUOUS
100
AcDbDimension
  2
*D28
 10
514.786543
 20
179.014135
 30
0.0
 11
512.286543
 21
191.514135
 31
0.0
 70
    32
  3
STANDARD
100
AcDbAlignedDimension
 13
503.923063
 23
204.014135
 33
0.0
 14
503.923063
 24
179.014135
 34
0.0
 50
90.0
100
AcDbRotatedDimension
1001
ACAD
1000
DSTYLE
1002
{
1002
}
  0
LINE
  5
129
100
AcDbEntity
  8
外形
  6
CONTINUOUS
100
AcDbLine
 10
503.923063
 20
179.014135
 30
0.0
 11
503.923063
 21
204.014135
 31
0.0
  0
ENDSEC
  0
SECTION
  2
OBJECTS
  0
DICTIONARY
  5
1A
100
AcDbDictionary
  3
ACAD_GROUP
350
18
  3
ACAD_MLINESTYLE
350
19
  0
DICTIONARY
  5
18
102
{ACAD_REACTORS
330
1A
102
}
100
AcDbDictionary
  0
DICTIONARY
  5
19
102
{ACAD_REACTORS
330
1A
102
}
100
AcDbDictionary
  3
STANDARD
350
1C
  0
MLINESTYLE
  5
1C
102
{ACAD_REACTORS
330
19
102
}
100
AcDbMlineStyle
  2
STANDARD
 70
     0
  3

 62
     0
 51
90.0
 52
90.0
 71
     2
 49
0.5
 62
   256
  6
BYLAYER
 49
-0.5
 62
   256
  6
BYLAYER
  0
ENDSEC
  0
EOF
