  0
SECTION
  2
HEADER
  9
$ACADVER
  1
AC1014
  9
$ACADMAINTVER
 70
     0
  9
$DWGCODEPAGE
  3
ANSI_932
  9
$INSBASE
 10
265.932569
 20
-138.524955
 30
0.0
  9
$EXTMIN
 10
284.550775
 20
-126.531243
 30
0.0
  9
$EXTMAX
 10
528.33135
 20
-1.609897
 30
0.0
  9
$LIMMIN
 10
-587.250952
 20
327.890188
  9
$LIMMAX
 10
600.749048
 20
957.890188
  9
$ORTHOMODE
 70
     1
  9
$REGENMODE
 70
     1
  9
$FILLMODE
 70
     1
  9
$QTEXTMODE
 70
     0
  9
$MIRRTEXT
 70
     1
  9
$DRAGMODE
 70
     2
  9
$LTSCALE
 40
5.0
  9
$OSMODE
 70
    37
  9
$ATTMODE
 70
     1
  9
$TEXTSIZE
 40
4.0
  9
$TRACEWID
 40
0.05
  9
$TEXTSTYLE
  7
STANDARD
  9
$CLAYER
  8
外形
  9
$CELTYPE
  6
CONTINUOUS
  9
$CECOLOR
 62
   256
  9
$CELTSCALE
 40
1.0
  9
$DELOBJ
 70
     1
  9
$DISPSILH
 70
     0
  9
$DIMSCALE
 40
1.0
  9
$DIMASZ
 40
2.0
  9
$DIMEXO
 40
1.0
  9
$DIMDLI
 40
8.0
  9
$DIMRND
 40
0.0
  9
$DIMDLE
 40
0.0
  9
$DIMEXE
 40
1.5
  9
$DIMTP
 40
0.0
  9
$DIMTM
 40
0.0
  9
$DIMTXT
 40
3.0
  9
$DIMCEN
 40
-1.0
  9
$DIMTSZ
 40
0.0
  9
$DIMTOL
 70
     0
  9
$DIMLIM
 70
     0
  9
$DIMTIH
 70
     0
  9
$DIMTOH
 70
     0
  9
$DIMSE1
 70
     0
  9
$DIMSE2
 70
     0
  9
$DIMTAD
 70
     1
  9
$DIMZIN
 70
     8
  9
$DIMBLK
  1

  9
$DIMASO
 70
     1
  9
$DIMSHO
 70
     1
  9
$DIMPOST
  1

  9
$DIMAPOST
  1

  9
$DIMALT
 70
     0
  9
$DIMALTD
 70
     2
  9
$DIMALTF
 40
25.4
  9
$DIMLFAC
 40
1.0
  9
$DIMTOFL
 70
     1
  9
$DIMTVP
 40
0.0
  9
$DIMTIX
 70
     0
  9
$DIMSOXD
 70
     0
  9
$DIMSAH
 70
     1
  9
$DIMBLK1
  1
_OPEN30
  9
$DIMBLK2
  1
_OPEN30
  9
$DIMSTYLE
  2
STANDARD
  9
$DIMCLRD
 70
     1
  9
$DIMCLRE
 70
     1
  9
$DIMCLRT
 70
     3
  9
$DIMTFAC
 40
1.0
  9
$DIMGAP
 40
1.0
  9
$DIMJUST
 70
     0
  9
$DIMSD1
 70
     0
  9
$DIMSD2
 70
     0
  9
$DIMTOLJ
 70
     1
  9
$DIMTZIN
 70
     8
  9
$DIMALTZ
 70
     0
  9
$DIMALTTZ
 70
     0
  9
$DIMFIT
 70
     3
  9
$DIMUPT
 70
     0
  9
$DIMUNIT
 70
     2
  9
$DIMDEC
 70
     3
  9
$DIMTDEC
 70
     4
  9
$DIMALTU
 70
     2
  9
$DIMALTTD
 70
     2
  9
$DIMTXSTY
  7
STANDARD
  9
$DIMAUNIT
 70
     0
  9
$LUNITS
 70
     2
  9
$LUPREC
 70
     4
  9
$SKETCHINC
 40
0.1
  9
$FILLETRAD
 40
1.0
  9
$AUNITS
 70
     0
  9
$AUPREC
 70
     0
  9
$MENU
  1
acad
  9
$ELEVATION
 40
0.0
  9
$PELEVATION
 40
0.0
  9
$THICKNESS
 40
0.0
  9
$LIMCHECK
 70
     0
  9
$BLIPMODE
 70
     1
  9
$CHAMFERA
 40
0.0
  9
$CHAMFERB
 40
0.0
  9
$CHAMFERC
 40
0.0
  9
$CHAMFERD
 40
0.0
  9
$SKPOLY
 70
     0
  9
$TDCREATE
 40
2450751.535399305
  9
$TDUPDATE
 40
2451930.472488426
  9
$TDINDWG
 40
1.7805532407
  9
$TDUSRTIMER
 40
1.7805532407
  9
$USRTIMER
 70
     1
  9
$ANGBASE
 50
0.0
  9
$ANGDIR
 70
     0
  9
$PDMODE
 70
     0
  9
$PDSIZE
 40
0.0
  9
$PLINEWID
 40
0.0
  9
$COORDS
 70
     1
  9
$SPLFRAME
 70
     0
  9
$SPLINETYPE
 70
     5
  9
$SPLINESEGS
 70
     8
  9
$ATTDIA
 70
     0
  9
$ATTREQ
 70
     1
  9
$HANDLING
 70
     1
  9
$HANDSEED
  5
268
  9
$SURFTAB1
 70
     6
  9
$SURFTAB2
 70
     6
  9
$SURFTYPE
 70
     6
  9
$SURFU
 70
     6
  9
$SURFV
 70
     6
  9
$UCSNAME
  2

  9
$UCSORG
 10
0.0
 20
0.0
 30
0.0
  9
$UCSXDIR
 10
1.0
 20
0.0
 30
0.0
  9
$UCSYDIR
 10
0.0
 20
1.0
 30
0.0
  9
$PUCSNAME
  2

  9
$PUCSORG
 10
0.0
 20
0.0
 30
0.0
  9
$PUCSXDIR
 10
1.0
 20
0.0
 30
0.0
  9
$PUCSYDIR
 10
0.0
 20
1.0
 30
0.0
  9
$USERI1
 70
     0
  9
$USERI2
 70
     0
  9
$USERI3
 70
     0
  9
$USERI4
 70
     0
  9
$USERI5
 70
     0
  9
$USERR1
 40
0.0
  9
$USERR2
 40
0.0
  9
$USERR3
 40
0.0
  9
$USERR4
 40
0.0
  9
$USERR5
 40
0.0
  9
$WORLDVIEW
 70
     1
  9
$SHADEDGE
 70
     3
  9
$SHADEDIF
 70
    70
  9
$TILEMODE
 70
     1
  9
$MAXACTVP
 70
    16
  9
$PINSBASE
 10
0.0
 20
0.0
 30
0.0
  9
$PLIMCHECK
 70
     0
  9
$PEXTMIN
 10
1.000000E+20
 20
1.000000E+20
 30
1.000000E+20
  9
$PEXTMAX
 10
-1.000000E+20
 20
-1.000000E+20
 30
-1.000000E+20
  9
$PLIMMIN
 10
0.0
 20
0.0
  9
$PLIMMAX
 10
12.0
 20
9.0
  9
$UNITMODE
 70
     0
  9
$VISRETAIN
 70
     0
  9
$PLINEGEN
 70
     0
  9
$PSLTSCALE
 70
     1
  9
$TREEDEPTH
 70
  3020
  9
$PICKSTYLE
 70
     1
  9
$CMLSTYLE
  2
STANDARD
  9
$CMLJUST
 70
     0
  9
$CMLSCALE
 40
1.0
  9
$PROXYGRAPHICS
 70
     1
  9
$MEASUREMENT
 70
     0
  0
ENDSEC
  0
SECTION
  2
CLASSES
  0
CLASS
  1
LWPOLYLINE
  2
AcDbPolyline
  3
"AutoCAD"
 90
        0
280
     0
281
     1
  0
ENDSEC
  0
SECTION
  2
TABLES
  0
TABLE
  2
VPORT
  5
12
100
AcDbSymbolTable
 70
     1
  0
VPORT
  5
263
100
AcDbSymbolTableRecord
100
AcDbViewportTableRecord
  2
*ACTIVE
 70
     0
 10
0.0
 20
0.0
 11
1.0
 21
1.0
 12
411.448216
 22
-55.650197
 13
0.0
 23
0.0
 14
0.05
 24
0.05
 15
10.0
 25
10.0
 16
0.0
 26
0.0
 36
1.0
 17
0.0
 27
0.0
 37
0.0
 40
156.902313
 41
1.710425
 42
50.0
 43
0.0
 44
0.0
 50
0.0
 51
0.0
 71
     0
 72
   100
 73
     1
 74
     1
 75
     0
 76
     0
 77
     0
 78
     0
  0
ENDTAB
  0
TABLE
  2
LTYPE
  5
D
100
AcDbSymbolTable
 70
     1
  0
LTYPE
  5
E
100
AcDbSymbolTableRecord
100
AcDbLinetypeTableRecord
  2
BYBLOCK
 70
     0
  3

 72
    65
 73
     0
 40
0.0
  0
LTYPE
  5
F
100
AcDbSymbolTableRecord
100
AcDbLinetypeTableRecord
  2
BYLAYER
 70
     0
  3

 72
    65
 73
     0
 40
0.0
  0
LTYPE
  5
5
100
AcDbSymbolTableRecord
100
AcDbLinetypeTableRecord
  2
CONTINUOUS
 70
     0
  3
Solid line
 72
    65
 73
     0
 40
0.0
  0
ENDTAB
  0
TABLE
  2
LAYER
  5
A
100
AcDbSymbolTable
 70
     4
  0
LAYER
  5
4
100
AcDbSymbolTableRecord
100
AcDbLayerTableRecord
  2
0
 70
     0
 62
     7
  6
CONTINUOUS
  0
LAYER
  5
26
100
AcDbSymbolTableRecord
100
AcDbLayerTableRecord
  2
外形
 70
     0
 62
     3
  6
CONTINUOUS
  0
LAYER
  5
32
100
AcDbSymbolTableRecord
100
AcDbLayerTableRecord
  2
DEFPOINTS
 70
     0
 62
     7
  6
CONTINUOUS
  0
LAYER
  5
1B
100
AcDbSymbolTableRecord
100
AcDbLayerTableRecord
  2
寸法
 70
     0
 62
     1
  6
CONTINUOUS
  0
ENDTAB
  0
TABLE
  2
STYLE
  5
B
100
AcDbSymbolTable
 70
     1
  0
STYLE
  5
C
100
AcDbSymbolTableRecord
100
AcDbTextStyleTableRecord
  2
STANDARD
 70
     0
 40
0.0
 41
1.0
 50
0.0
 71
     0
 42
4.0
  3
MONOTXT
  4
BIGFONT
  0
ENDTAB
  0
TABLE
  2
VIEW
  5
10
100
AcDbSymbolTable
 70
     0
  0
ENDTAB
  0
TABLE
  2
UCS
  5
11
100
AcDbSymbolTable
 70
     0
  0
ENDTAB
  0
TABLE
  2
APPID
  5
14
100
AcDbSymbolTable
 70
     1
  0
APPID
  5
15
100
AcDbSymbolTableRecord
100
AcDbRegAppTableRecord
  2
ACAD
 70
     0
  0
ENDTAB
  0
TABLE
  2
DIMSTYLE
  5
16
100
AcDbSymbolTable
 70
     1
  0
DIMSTYLE
105
1D
102
{ACAD_REACTORS
330
7C
330
A5
330
98
330
5A
330
B8
330
28
330
F4
330
11B
330
4D
102
}
100
AcDbSymbolTableRecord
100
AcDbDimStyleTableRecord
  2
STANDARD
 70
     0
  3

  4

  5

  6
_OPEN30
  7
_OPEN30
 40
1.0
 41
2.0
 42
1.0
 43
8.0
 44
1.5
 45
0.0
 46
0.0
 47
0.0
 48
0.0
140
3.0
141
-1.0
142
0.0
143
25.4
144
1.0
145
0.0
146
1.0
147
1.0
 71
     0
 72
     0
 73
     0
 74
     0
 75
     0
 76
     0
 77
     1
 78
     8
170
     0
171
     2
172
     1
173
     1
174
     0
175
     0
176
     1
177
     1
178
     3
270
     2
271
     3
272
     4
273
     2
274
     2
340
C
275
     0
280
     0
281
     0
282
     0
283
     1
284
     8
285
     0
286
     0
287
     3
288
     0
  0
ENDTAB
  0
TABLE
  2
BLOCK_RECORD
  5
1
100
AcDbSymbolTable
 70
    30
  0
BLOCK_RECORD
  5
2
100
AcDbSymbolTableRecord
100
AcDbBlockTableRecord
  2
*MODEL_SPACE
  0
BLOCK_RECORD
  5
7
100
AcDbSymbolTableRecord
100
AcDbBlockTableRecord
  2
*PAPER_SPACE
  0
BLOCK_RECORD
  5
1E
100
AcDbSymbolTableRecord
100
AcDbBlockTableRecord
  2
_DOTSMALL
  0
BLOCK_RECORD
  5
136
100
AcDbSymbolTableRecord
100
AcDbBlockTableRecord
  2
_OPEN30
  0
BLOCK_RECORD
  5
13C
100
AcDbSymbolTableRecord
100
AcDbBlockTableRecord
  2
*D16
  0
BLOCK_RECORD
  5
159
100
AcDbSymbolTableRecord
100
AcDbBlockTableRecord
  2
*D18
  0
BLOCK_RECORD
  5
165
100
AcDbSymbolTableRecord
100
AcDbBlockTableRecord
  2
*D19
  0
BLOCK_RECORD
  5
17D
100
AcDbSymbolTableRecord
100
AcDbBlockTableRecord
  2
*D21
  0
BLOCK_RECORD
  5
199
100
AcDbSymbolTableRecord
100
AcDbBlockTableRecord
  2
*D23
  0
BLOCK_RECORD
  5
1A5
100
AcDbSymbolTableRecord
100
AcDbBlockTableRecord
  2
*D24
  0
BLOCK_RECORD
  5
1B1
100
AcDbSymbolTableRecord
100
AcDbBlockTableRecord
  2
*D25
  0
BLOCK_RECORD
  5
1D9
100
AcDbSymbolTableRecord
100
AcDbBlockTableRecord
  2
*D28
  0
BLOCK_RECORD
  5
1E6
100
AcDbSymbolTableRecord
100
AcDbBlockTableRecord
  2
*D29
  0
ENDTAB
  0
ENDSEC
  0
SECTION
  2
BLOCKS
  0
BLOCK
  5
3
100
AcDbEntity
  8
0
100
AcDbBlockBegin
  2
*MODEL_SPACE
 70
     0
 10
0.0
 20
0.0
 30
0.0
  3
*MODEL_SPACE
  1

  0
ENDBLK
  5
6
100
AcDbEntity
  8
0
100
AcDbBlockEnd
  0
BLOCK
  5
8
100
AcDbEntity
 67
     1
  8
0
100
AcDbBlockBegin
  2
*PAPER_SPACE
 70
     0
 10
0.0
 20
0.0
 30
0.0
  3
*PAPER_SPACE
  1

  0
ENDBLK
  5
9
100
AcDbEntity
 67
     1
  8
0
100
AcDbBlockEnd
  0
BLOCK
  5
23
100
AcDbEntity
  8
0
100
AcDbBlockBegin
  2
_DOTSMALL
 70
     0
 10
0.0
 20
0.0
 30
0.0
  3
_DOTSMALL
  1

  0
POLYLINE
  5
1F
100
AcDbEntity
  8
0
  6
BYBLOCK
 62
     0
100
AcDb2dPolyline
 66
     1
 10
0.0
 20
0.0
 30
0.0
 70
     1
 40
0.5
 41
0.5
  0
VERTEX
  5
20
100
AcDbEntity
  8
0
  6
BYBLOCK
 62
     0
100
AcDbVertex
100
AcDb2dVertex
 10
-0.0625
 20
0.0
 30
0.0
 42
1.0
  0
VERTEX
  5
21
100
AcDbEntity
  8
0
  6
BYBLOCK
 62
     0
100
AcDbVertex
100
AcDb2dVertex
 10
0.0625
 20
0.0
 30
0.0
 42
1.0
  0
SEQEND
  5
22
100
AcDbEntity
  8
0
  6
BYBLOCK
 62
     0
  0
ENDBLK
  5
24
100
AcDbEntity
  8
0
100
AcDbBlockEnd
  0
BLOCK
  5
137
100
AcDbEntity
  8
0
100
AcDbBlockBegin
  2
_OPEN30
 70
     0
 10
0.0
 20
0.0
 30
0.0
  3
_OPEN30
  1

  0
LINE
  5
138
100
AcDbEntity
  8
0
  6
BYBLOCK
 62
     0
100
AcDbLine
 10
-1.0
 20
0.267949
 30
0.0
 11
0.0
 21
0.0
 31
0.0
  0
LINE
  5
139
100
AcDbEntity
  8
0
  6
BYBLOCK
 62
     0
100
AcDbLine
 10
0.0
 20
0.0
 30
0.0
 11
-1.0
 21
-0.267949
 31
0.0
  0
LINE
  5
13A
100
AcDbEntity
  8
0
  6
BYBLOCK
 62
     0
100
AcDbLine
 10
0.0
 20
0.0
 30
0.0
 11
-1.0
 21
0.0
 31
0.0
  0
ENDBLK
  5
13B
100
AcDbEntity
  8
0
100
AcDbBlockEnd
  0
BLOCK
  5
208
100
AcDbEntity
  8
0
100
AcDbBlockBegin
  2
*D16
 70
     1
 10
0.0
 20
0.0
 30
0.0
  3
*D16
  1

  0
LINE
  5
209
100
AcDbEntity
  8
0
  6
BYBLOCK
 62
     1
100
AcDbLine
 10
316.463619
 20
-34.762342
 30
0.0
 11
315.602124
 21
-44.609281
 31
0.0
  0
ARC
  5
20A
100
AcDbEntity
  8
0
  6
BYBLOCK
 62
     1
100
AcDbCircle
 10
316.550775
 20
-33.766147
 30
0.0
 40
9.384553
100
AcDbArc
 50
240.389937
 51
265.0
  0
LINE
  5
20B
100
AcDbEntity
  8
0
  6
BYBLOCK
 62
     1
100
AcDbLine
 10
311.913918
 20
-41.925154
 30
0.0
 11
304.437008
 21
-37.675941
 31
0.0
  0
ARC
  5
20C
100
AcDbEntity
  8
0
  6
BYBLOCK
 62
     1
100
AcDbCircle
 10
316.550775
 20
-33.766147
 30
0.0
 40
9.384553
100
AcDbArc
 50
240.532231
 51
252.766115
  0
ARC
  5
20D
100
AcDbEntity
  8
0
  6
BYBLOCK
 62
     1
100
AcDbCircle
 10
316.550775
 20
-33.766147
 30
0.0
 40
9.384553
100
AcDbArc
 50
282.233885
 51
294.467769
  0
ARC
  5
20E
100
AcDbEntity
  8
0
  6
BYBLOCK
 62
     1
100
AcDbCircle
 10
316.550775
 20
-33.766147
 30
0.0
 40
9.384553
100
AcDbArc
 50
265.0
 51
270.0
  0
INSERT
  5
20F
100
AcDbEntity
  8
0
  6
BYBLOCK
 62
     1
100
AcDbBlockReference
  2
_OPEN30
 10
315.732857
 20
-43.114989
 30
0.0
 41
2.0
 42
2.0
 43
2.0
 50
348.883058
  0
INSERT
  5
210
100
AcDbEntity
  8
0
  6
BYBLOCK
 62
     1
100
AcDbBlockReference
  2
_OPEN30
 10
316.550775
 20
-43.1507
 30
0.0
 41
2.0
 42
2.0
 43
2.0
 50
186.116942
  0
MTEXT
  5
211
100
AcDbEntity
  8
0
  6
BYBLOCK
 62
     3
100
AcDbMText
 10
309.4107
 20
-37.627027
 30
0.0
 40
3.0
 41
0.0
 71
     5
 72
     1
  1
\A1;5°
 11
0.869408
 21
-0.494095
 31
0.0
  0
POINT
  5
212
100
AcDbEntity
  8
DEFPOINTS
  6
BYBLOCK
 62
     0
100
AcDbPoint
 10
316.277828
 20
-43.14673
 30
0.0
  0
POINT
  5
213
100
AcDbEntity
  8
DEFPOINTS
  6
BYBLOCK
 62
     0
100
AcDbPoint
 10
316.550775
 20
-44.605344
 30
0.0
  0
POINT
  5
214
100
AcDbEntity
  8
DEFPOINTS
  6
BYBLOCK
 62
     0
100
AcDbPoint
 10
319.350412
 20
-1.766147
 30
0.0
  0
POINT
  5
215
100
AcDbEntity
  8
DEFPOINTS
  6
BYBLOCK
 62
     0
100
AcDbPoint
 10
316.550775
 20
-33.766147
 30
0.0
  0
POINT
  5
216
100
AcDbEntity
  8
DEFPOINTS
  6
BYBLOCK
 62
     0
100
AcDbPoint
 10
316.550775
 20
-33.766147
 30
0.0
  0
ENDBLK
  5
217
100
AcDbEntity
  8
0
100
AcDbBlockEnd
  0
BLOCK
  5
24D
100
AcDbEntity
  8
0
100
AcDbBlockBegin
  2
*D18
 70
     1
 10
0.0
 20
0.0
 30
0.0
  3
*D18
  1

  0
LINE
  5
24E
100
AcDbEntity
  8
0
  6
BYBLOCK
 62
     1
100
AcDbLine
 10
516.967871
 20
-1.609897
 30
0.0
 11
528.33135
 21
-1.609897
 31
0.0
  0
LINE
  5
24F
100
AcDbEntity
  8
0
  6
BYBLOCK
 62
     1
100
AcDbLine
 10
516.967871
 20
-26.609897
 30
0.0
 11
528.33135
 21
-26.609897
 31
0.0
  0
LINE
  5
250
100
AcDbEntity
  8
0
  6
BYBLOCK
 62
     1
100
AcDbLine
 10
526.83135
 20
-3.609897
 30
0.0
 11
526.83135
 21
-24.609897
 31
0.0
  0
INSERT
  5
251
100
AcDbEntity
  8
0
  6
BYBLOCK
 62
     1
100
AcDbBlockReference
  2
_OPEN30
 10
526.83135
 20
-1.609897
 30
0.0
 41
2.0
 42
2.0
 43
2.0
 50
90.0
  0
INSERT
  5
252
100
AcDbEntity
  8
0
  6
BYBLOCK
 62
     1
100
AcDbBlockReference
  2
_OPEN30
 10
526.83135
 20
-26.609897
 30
0.0
 41
2.0
 42
2.0
 43
2.0
 50
270.0
  0
MTEXT
  5
253
100
AcDbEntity
  8
0
  6
BYBLOCK
 62
     3
100
AcDbMText
 10
524.33135
 20
-14.109897
 30
0.0
 40
3.0
 41
0.0
 71
     5
 72
     1
  1
\A1;25
 11
0.0
 21
1.0
 31
0.0
  0
POINT
  5
254
100
AcDbEntity
  8
DEFPOINTS
  6
BYBLOCK
 62
     0
100
AcDbPoint
 10
515.967871
 20
-1.609897
 30
0.0
  0
POINT
  5
255
100
AcDbEntity
  8
DEFPOINTS
  6
BYBLOCK
 62
     0
100
AcDbPoint
 10
515.967871
 20
-26.609897
 30
0.0
  0
POINT
  5
256
100
AcDbEntity
  8
DEFPOINTS
  6
BYBLOCK
 62
     0
100
AcDbPoint
 10
526.83135
 20
-26.609897
 30
0.0
  0
ENDBLK
  5
257
100
AcDbEntity
  8
0
100
AcDbBlockEnd
  0
BLOCK
  5
1FD
100
AcDbEntity
  8
0
100
AcDbBlockBegin
  2
*D19
 70
     1
 10
0.0
 20
0.0
 30
0.0
  3
*D19
  1

  0
LINE
  5
1FE
100
AcDbEntity
  8
0
  6
BYBLOCK
 62
     1
100
AcDbLine
 10
358.62703
 20
-1.609897
 30
0.0
 11
327.163088
 21
-1.609897
 31
0.0
  0
LINE
  5
1FF
100
AcDbEntity
  8
0
  6
BYBLOCK
 62
     1
100
AcDbLine
 10
344.967871
 20
-33.609897
 30
0.0
 11
327.163088
 21
-33.609897
 31
0.0
  0
LINE
  5
200
100
AcDbEntity
  8
0
  6
BYBLOCK
 62
     1
100
AcDbLine
 10
328.663088
 20
-3.609897
 30
0.0
 11
328.663088
 21
-31.609897
 31
0.0
  0
INSERT
  5
201
100
AcDbEntity
  8
0
  6
BYBLOCK
 62
     1
100
AcDbBlockReference
  2
_OPEN30
 10
328.663088
 20
-1.609897
 30
0.0
 41
2.0
 42
2.0
 43
2.0
 50
90.0
  0
INSERT
  5
202
100
AcDbEntity
  8
0
  6
BYBLOCK
 62
     1
100
AcDbBlockReference
  2
_OPEN30
 10
328.663088
 20
-33.609897
 30
0.0
 41
2.0
 42
2.0
 43
2.0
 50
270.0
  0
MTEXT
  5
203
100
AcDbEntity
  8
0
  6
BYBLOCK
 62
     3
100
AcDbMText
 10
326.163088
 20
-17.609897
 30
0.0
 40
3.0
 41
0.0
 71
     5
 72
     1
  1
\A1;32
 11
0.0
 21
1.0
 31
0.0
  0
POINT
  5
204
100
AcDbEntity
  8
DEFPOINTS
  6
BYBLOCK
 62
     0
100
AcDbPoint
 10
359.62703
 20
-1.609897
 30
0.0
  0
POINT
  5
205
100
AcDbEntity
  8
DEFPOINTS
  6
BYBLOCK
 62
     0
100
AcDbPoint
 10
345.967871
 20
-33.609897
 30
0.0
  0
POINT
  5
206
100
AcDbEntity
  8
DEFPOINTS
  6
BYBLOCK
 62
     0
100
AcDbPoint
 10
328.663088
 20
-33.609897
 30
0.0
  0
ENDBLK
  5
207
100
AcDbEntity
  8
0
100
AcDbBlockEnd
  0
BLOCK
  5
22E
100
AcDbEntity
  8
0
100
AcDbBlockBegin
  2
*D21
 70
     1
 10
0.0
 20
0.0
 30
0.0
  3
*D21
  1

  0
LINE
  5
22F
100
AcDbEntity
  8
0
  6
BYBLOCK
 62
     1
100
AcDbLine
 10
343.967871
 20
-58.876158
 30
0.0
 11
334.607615
 21
-58.876158
 31
0.0
  0
LINE
  5
230
100
AcDbEntity
  8
0
  6
BYBLOCK
 62
     1
100
AcDbLine
 10
344.971676
 20
-58.963314
 30
0.0
 11
334.650844
 21
-59.86627
 31
0.0
  0
ARC
  5
231
100
AcDbEntity
  8
0
  6
BYBLOCK
 62
     1
100
AcDbCircle
 10
345.967871
 20
-58.876158
 30
0.0
 40
9.860256
100
AcDbArc
 50
156.594477
 51
180.0
  0
LINE
  5
232
100
AcDbEntity
  8
0
  6
BYBLOCK
 62
     1
100
AcDbLine
 10
336.918953
 20
-54.959306
 30
0.0
 11
340.335185
 21
-47.066946
 31
0.0
  0
ARC
  5
233
100
AcDbEntity
  8
0
  6
BYBLOCK
 62
     1
100
AcDbCircle
 10
345.967871
 20
-58.876158
 30
0.0
 40
9.860256
100
AcDbArc
 50
156.71685
 51
168.358425
  0
ARC
  5
234
100
AcDbEntity
  8
0
  6
BYBLOCK
 62
     1
100
AcDbCircle
 10
345.967871
 20
-58.876158
 30
0.0
 40
9.860256
100
AcDbArc
 50
196.641575
 51
208.28315
  0
ARC
  5
235
100
AcDbEntity
  8
0
  6
BYBLOCK
 62
     1
100
AcDbCircle
 10
345.967871
 20
-58.876158
 30
0.0
 40
9.860256
100
AcDbArc
 50
180.0
 51
185.0
  0
INSERT
  5
236
100
AcDbEntity
  8
0
  6
BYBLOCK
 62
     1
100
AcDbBlockReference
  2
_OPEN30
 10
336.107615
 20
-58.876158
 30
0.0
 41
2.0
 42
2.0
 43
2.0
 50
264.179212
  0
INSERT
  5
237
100
AcDbEntity
  8
0
  6
BYBLOCK
 62
     1
100
AcDbBlockReference
  2
_OPEN30
 10
336.145136
 20
-59.735536
 30
0.0
 41
2.0
 42
2.0
 43
2.0
 50
100.820788
  0
MTEXT
  5
238
100
AcDbEntity
  8
0
  6
BYBLOCK
 62
     3
100
AcDbMText
 10
340.92136
 20
-52.006217
 30
0.0
 40
3.0
 41
0.0
 71
     5
 72
     1
  1
\A1;5°
 11
-0.397236
 21
-0.917716
 31
0.0
  0
POINT
  5
239
100
AcDbEntity
  8
DEFPOINTS
  6
BYBLOCK
 62
     0
100
AcDbPoint
 10
336.124297
 20
-59.449481
 30
0.0
  0
POINT
  5
23A
100
AcDbEntity
  8
DEFPOINTS
  6
BYBLOCK
 62
     0
100
AcDbPoint
 10
345.967871
 20
-58.876158
 30
0.0
  0
POINT
  5
23B
100
AcDbEntity
  8
DEFPOINTS
  6
BYBLOCK
 62
     0
100
AcDbPoint
 10
370.395232
 20
-56.739041
 30
0.0
  0
POINT
  5
23C
100
AcDbEntity
  8
DEFPOINTS
  6
BYBLOCK
 62
     0
100
AcDbPoint
 10
345.967871
 20
-58.876158
 30
0.0
  0
POINT
  5
23D
100
AcDbEntity
  8
DEFPOINTS
  6
BYBLOCK
 62
     0
100
AcDbPoint
 10
344.967871
 20
-58.876158
 30
0.0
  0
ENDBLK
  5
23E
100
AcDbEntity
  8
0
100
AcDbBlockEnd
  0
BLOCK
  5
1F2
100
AcDbEntity
  8
0
100
AcDbBlockBegin
  2
*D23
 70
     1
 10
0.0
 20
0.0
 30
0.0
  3
*D23
  1

  0
LINE
  5
1F3
100
AcDbEntity
  8
0
  6
BYBLOCK
 62
     1
100
AcDbLine
 10
345.967871
 20
-34.609897
 30
0.0
 11
345.967871
 21
-42.744781
 31
0.0
  0
LINE
  5
1F4
100
AcDbEntity
  8
0
  6
BYBLOCK
 62
     1
100
AcDbLine
 10
515.967871
 20
-27.609897
 30
0.0
 11
515.967871
 21
-42.744781
 31
0.0
  0
LINE
  5
1F5
100
AcDbEntity
  8
0
  6
BYBLOCK
 62
     1
100
AcDbLine
 10
347.967871
 20
-41.244781
 30
0.0
 11
513.967871
 21
-41.244781
 31
0.0
  0
INSERT
  5
1F6
100
AcDbEntity
  8
0
  6
BYBLOCK
 62
     1
100
AcDbBlockReference
  2
_OPEN30
 10
345.967871
 20
-41.244781
 30
0.0
 41
2.0
 42
2.0
 43
2.0
 50
180.0
  0
INSERT
  5
1F7
100
AcDbEntity
  8
0
  6
BYBLOCK
 62
     1
100
AcDbBlockReference
  2
_OPEN30
 10
515.967871
 20
-41.244781
 30
0.0
 41
2.0
 42
2.0
 43
2.0
  0
MTEXT
  5
1F8
100
AcDbEntity
  8
0
  6
BYBLOCK
 62
     3
100
AcDbMText
 10
430.967871
 20
-38.744781
 30
0.0
 40
3.0
 41
0.0
 71
     5
 72
     1
  1
\A1;170
  0
POINT
  5
1F9
100
AcDbEntity
  8
DEFPOINTS
  6
BYBLOCK
 62
     0
100
AcDbPoint
 10
345.967871
 20
-33.609897
 30
0.0
  0
POINT
  5
1FA
100
AcDbEntity
  8
DEFPOINTS
  6
BYBLOCK
 62
     0
100
AcDbPoint
 10
515.967871
 20
-26.609897
 30
0.0
  0
POINT
  5
1FB
100
AcDbEntity
  8
DEFPOINTS
  6
BYBLOCK
 62
     0
100
AcDbPoint
 10
515.967871
 20
-41.244781
 30
0.0
  0
ENDBLK
  5
1FC
100
AcDbEntity
  8
0
100
AcDbBlockEnd
  0
BLOCK
  5
223
100
AcDbEntity
  8
0
100
AcDbBlockBegin
  2
*D24
 70
     1
 10
0.0
 20
0.0
 30
0.0
  3
*D24
  1

  0
LINE
  5
224
100
AcDbEntity
  8
0
  6
BYBLOCK
 62
     1
100
AcDbLine
 10
370.967871
 20
-57.517414
 30
0.0
 11
370.967871
 21
-50.083161
 31
0.0
  0
LINE
  5
225
100
AcDbEntity
  8
0
  6
BYBLOCK
 62
     1
100
AcDbLine
 10
345.967871
 20
-57.876158
 30
0.0
 11
345.967871
 21
-50.083161
 31
0.0
  0
LINE
  5
226
100
AcDbEntity
  8
0
  6
BYBLOCK
 62
     1
100
AcDbLine
 10
368.967871
 20
-51.583161
 30
0.0
 11
347.967871
 21
-51.583161
 31
0.0
  0
INSERT
  5
227
100
AcDbEntity
  8
0
  6
BYBLOCK
 62
     1
100
AcDbBlockReference
  2
_OPEN30
 10
370.967871
 20
-51.583161
 30
0.0
 41
2.0
 42
2.0
 43
2.0
  0
INSERT
  5
228
100
AcDbEntity
  8
0
  6
BYBLOCK
 62
     1
100
AcDbBlockReference
  2
_OPEN30
 10
345.967871
 20
-51.583161
 30
0.0
 41
2.0
 42
2.0
 43
2.0
 50
180.0
  0
MTEXT
  5
229
100
AcDbEntity
  8
0
  6
BYBLOCK
 62
     3
100
AcDbMText
 10
358.467871
 20
-49.083161
 30
0.0
 40
3.0
 41
0.0
 71
     5
 72
     1
  1
\A1;25
  0
POINT
  5
22A
100
AcDbEntity
  8
DEFPOINTS
  6
BYBLOCK
 62
     0
100
AcDbPoint
 10
370.967871
 20
-58.517414
 30
0.0
  0
POINT
  5
22B
100
AcDbEntity
  8
DEFPOINTS
  6
BYBLOCK
 62
     0
100
AcDbPoint
 10
345.967871
 20
-58.876158
 30
0.0
  0
POINT
  5
22C
100
AcDbEntity
  8
DEFPOINTS
  6
BYBLOCK
 62
     0
100
AcDbPoint
 10
345.967871
 20
-51.583161
 30
0.0
  0
ENDBLK
  5
22D
100
AcDbEntity
  8
0
100
AcDbBlockEnd
  0
BLOCK
  5
218
100
AcDbEntity
  8
0
100
AcDbBlockBegin
  2
*D25
 70
     1
 10
0.0
 20
0.0
 30
0.0
  3
*D25
  1

  0
LINE
  5
219
100
AcDbEntity
  8
0
  6
BYBLOCK
 62
     1
100
AcDbLine
 10
344.967871
 20
-58.876158
 30
0.0
 11
328.639691
 21
-58.876158
 31
0.0
  0
LINE
  5
21A
100
AcDbEntity
  8
0
  6
BYBLOCK
 62
     1
100
AcDbLine
 10
345.867871
 20
-90.876158
 30
0.0
 11
328.639691
 21
-90.876158
 31
0.0
  0
LINE
  5
21B
100
AcDbEntity
  8
0
  6
BYBLOCK
 62
     1
100
AcDbLine
 10
330.139691
 20
-60.876158
 30
0.0
 11
330.139691
 21
-88.876158
 31
0.0
  0
INSERT
  5
21C
100
AcDbEntity
  8
0
  6
BYBLOCK
 62
     1
100
AcDbBlockReference
  2
_OPEN30
 10
330.139691
 20
-58.876158
 30
0.0
 41
2.0
 42
2.0
 43
2.0
 50
90.0
  0
INSERT
  5
21D
100
AcDbEntity
  8
0
  6
BYBLOCK
 62
     1
100
AcDbBlockReference
  2
_OPEN30
 10
330.139691
 20
-90.876158
 30
0.0
 41
2.0
 42
2.0
 43
2.0
 50
270.0
  0
MTEXT
  5
21E
100
AcDbEntity
  8
0
  6
BYBLOCK
 62
     3
100
AcDbMText
 10
327.639691
 20
-74.876158
 30
0.0
 40
3.0
 41
0.0
 71
     5
 72
     1
  1
\A1;32
 11
0.0
 21
1.0
 31
0.0
  0
POINT
  5
21F
100
AcDbEntity
  8
DEFPOINTS
  6
BYBLOCK
 62
     0
100
AcDbPoint
 10
345.967871
 20
-58.876158
 30
0.0
  0
POINT
  5
220
100
AcDbEntity
  8
DEFPOINTS
  6
BYBLOCK
 62
     0
100
AcDbPoint
 10
346.867871
 20
-90.876158
 30
0.0
  0
POINT
  5
221
100
AcDbEntity
  8
DEFPOINTS
  6
BYBLOCK
 62
     0
100
AcDbPoint
 10
330.139691
 20
-90.876158
 30
0.0
  0
ENDBLK
  5
222
100
AcDbEntity
  8
0
100
AcDbBlockEnd
  0
BLOCK
  5
23F
100
AcDbEntity
  8
0
100
AcDbBlockBegin
  2
*D28
 70
     1
 10
0.0
 20
0.0
 30
0.0
  3
*D28
  1

  0
LINE
  5
240
100
AcDbEntity
  8
0
  6
BYBLOCK
 62
     1
100
AcDbLine
 10
344.954041
 20
-33.609897
 30
0.0
 11
335.727903
 21
-33.609897
 31
0.0
  0
ARC
  5
241
100
AcDbEntity
  8
0
  6
BYBLOCK
 62
     1
100
AcDbCircle
 10
345.954041
 20
-33.609897
 30
0.0
 40
8.726139
100
AcDbArc
 50
62.678193
 51
75.839097
  0
ARC
  5
242
100
AcDbEntity
  8
0
  6
BYBLOCK
 62
     1
100
AcDbCircle
 10
345.954041
 20
-33.609897
 30
0.0
 40
8.726139
100
AcDbArc
 50
193.160903
 51
206.321807
  0
ARC
  5
243
100
AcDbEntity
  8
0
  6
BYBLOCK
 62
     1
100
AcDbCircle
 10
345.954041
 20
-33.609897
 30
0.0
 40
8.726139
100
AcDbArc
 50
89.0
 51
180.0
  0
INSERT
  5
244
100
AcDbEntity
  8
0
  6
BYBLOCK
 62
     1
100
AcDbBlockReference
  2
_OPEN30
 10
346.106334
 20
-24.885087
 30
0.0
 41
2.0
 42
2.0
 43
2.0
 50
172.419548
  0
INSERT
  5
245
100
AcDbEntity
  8
0
  6
BYBLOCK
 62
     1
100
AcDbBlockReference
  2
_OPEN30
 10
337.227903
 20
-33.609897
 30
0.0
 41
2.0
 42
2.0
 43
2.0
 50
96.580452
  0
MTEXT
  5
246
100
AcDbEntity
  8
0
  6
BYBLOCK
 62
     3
100
AcDbMText
 10
338.085537
 20
-25.602849
 30
0.0
 40
3.0
 41
0.0
 71
     5
 72
     1
  1
\A1;91°
 11
0.71325
 21
0.700909
 31
0.0
  0
POINT
  5
247
100
AcDbEntity
  8
DEFPOINTS
  6
BYBLOCK
 62
     0
100
AcDbPoint
 10
341.679196
 20
-26.002585
 30
0.0
  0
POINT
  5
248
100
AcDbEntity
  8
DEFPOINTS
  6
BYBLOCK
 62
     0
100
AcDbPoint
 10
345.967993
 20
-32.81063
 30
0.0
  0
POINT
  5
249
100
AcDbEntity
  8
DEFPOINTS
  6
BYBLOCK
 62
     0
100
AcDbPoint
 10
346.61524
 20
-33.609897
 30
0.0
  0
POINT
  5
24A
100
AcDbEntity
  8
DEFPOINTS
  6
BYBLOCK
 62
     0
100
AcDbPoint
 10
345.967871
 20
-33.609897
 30
0.0
  0
POINT
  5
24B
100
AcDbEntity
  8
DEFPOINTS
  6
BYBLOCK
 62
     0
100
AcDbPoint
 10
346.303529
 20
-13.587795
 30
0.0
  0
ENDBLK
  5
24C
100
AcDbEntity
  8
0
100
AcDbBlockEnd
  0
BLOCK
  5
258
100
AcDbEntity
  8
0
100
AcDbBlockBegin
  2
*D29
 70
     1
 10
0.0
 20
0.0
 30
0.0
  3
*D29
  1

  0
LINE
  5
259
100
AcDbEntity
  8
0
  6
BYBLOCK
 62
     1
100
AcDbLine
 10
516.967871
 20
-58.876158
 30
0.0
 11
526.838281
 21
-58.876158
 31
0.0
  0
LINE
  5
25A
100
AcDbEntity
  8
0
  6
BYBLOCK
 62
     1
100
AcDbLine
 10
516.967871
 20
-90.876158
 30
0.0
 11
526.838281
 21
-90.876158
 31
0.0
  0
LINE
  5
25B
100
AcDbEntity
  8
0
  6
BYBLOCK
 62
     1
100
AcDbLine
 10
525.338281
 20
-60.876158
 30
0.0
 11
525.338281
 21
-88.876158
 31
0.0
  0
INSERT
  5
25C
100
AcDbEntity
  8
0
  6
BYBLOCK
 62
     1
100
AcDbBlockReference
  2
_OPEN30
 10
525.338281
 20
-58.876158
 30
0.0
 41
2.0
 42
2.0
 43
2.0
 50
90.0
  0
INSERT
  5
25D
100
AcDbEntity
  8
0
  6
BYBLOCK
 62
     1
100
AcDbBlockReference
  2
_OPEN30
 10
525.338281
 20
-90.876158
 30
0.0
 41
2.0
 42
2.0
 43
2.0
 50
270.0
  0
MTEXT
  5
25E
100
AcDbEntity
  8
0
  6
BYBLOCK
 62
     3
100
AcDbMText
 10
522.838281
 20
-74.876158
 30
0.0
 40
3.0
 41
0.0
 71
     5
 72
     1
  1
\A1;32
 11
0.0
 21
1.0
 31
0.0
  0
POINT
  5
25F
100
AcDbEntity
  8
DEFPOINTS
  6
BYBLOCK
 62
     0
100
AcDbPoint
 10
515.967871
 20
-58.876158
 30
0.0
  0
POINT
  5
260
100
AcDbEntity
  8
DEFPOINTS
  6
BYBLOCK
 62
     0
100
AcDbPoint
 10
515.967871
 20
-90.876158
 30
0.0
  0
POINT
  5
261
100
AcDbEntity
  8
DEFPOINTS
  6
BYBLOCK
 62
     0
100
AcDbPoint
 10
525.338281
 20
-90.876158
 30
0.0
  0
ENDBLK
  5
262
100
AcDbEntity
  8
0
100
AcDbBlockEnd
  0
ENDSEC
  0
SECTION
  2
ENTITIES
  0
LINE
  5
25
100
AcDbEntity
  8
外形
  6
CONTINUOUS
100
AcDbLine
 10
319.350412
 20
-1.766147
 30
0.0
 11
316.550775
 21
-33.766147
 31
0.0
  0
LINE
  5
27
100
AcDbEntity
  8
外形
  6
CONTINUOUS
100
AcDbLine
 10
284.550775
 20
-32.286147
 30
0.0
 11
284.550775
 21
-1.766147
 31
0.0
  0
DIMENSION
  5
28
100
AcDbEntity
  8
寸法
  6
CONTINUOUS
100
AcDbDimension
  2
*D16
 10
316.550775
 20
-33.766147
 30
0.0
 11
309.4107
 21
-37.627027
 31
0.0
 70
    34
  3
STANDARD
100
AcDb2LineAngularDimension
 13
319.350412
 23
-1.766147
 33
0.0
 14
316.550775
 24
-33.766147
 34
0.0
 15
316.550775
 25
-44.605344
 35
0.0
 16
316.277828
 26
-43.14673
 36
0.0
1001
ACAD
1000
DSTYLE
1002
{
1002
}
  0
LINE
  5
4A
100
AcDbEntity
  8
外形
  6
CONTINUOUS
100
AcDbLine
 10
347.36414
 20
-12.845438
 30
0.0
 11
347.474628
 21
-8.62609
 31
0.0
  0
LINE
  5
4B
100
AcDbEntity
  8
外形
  6
CONTINUOUS
100
AcDbLine
 10
370.967871
 20
-27.174685
 30
0.0
 11
370.967871
 21
-1.609897
 31
0.0
  0
LINE
  5
4C
100
AcDbEntity
  8
外形
  6
CONTINUOUS
100
AcDbLine
 10
370.395232
 20
-1.609897
 30
0.0
 11
370.889583
 21
-27.4042
 31
0.0
  0
DIMENSION
  5
4D
100
AcDbEntity
  8
寸法
  6
CONTINUOUS
100
AcDbDimension
  2
*D18
 10
526.83135
 20
-26.609897
 30
0.0
 11
524.33135
 21
-14.109897
 31
0.0
 70
    32
  3
STANDARD
100
AcDbAlignedDimension
 13
515.967871
 23
-1.609897
 33
0.0
 14
515.967871
 24
-26.609897
 34
0.0
 50
90.0
100
AcDbRotatedDimension
1001
ACAD
1000
DSTYLE
1002
{
1002
}
  0
DIMENSION
  5
5A
100
AcDbEntity
  8
寸法
  6
CONTINUOUS
100
AcDbDimension
  2
*D19
 10
328.663088
 20
-33.609897
 30
0.0
 11
326.163088
 21
-17.609897
 31
0.0
 70
    32
  3
STANDARD
100
AcDbAlignedDimension
 13
359.62703
 23
-1.609897
 33
0.0
 14
345.967871
 24
-33.609897
 34
0.0
 50
90.0
100
AcDbRotatedDimension
1001
ACAD
1000
DSTYLE
1002
{
1002
}
  0
LINE
  5
67
100
AcDbEntity
  8
外形
  6
CONTINUOUS
100
AcDbLine
 10
515.967871
 20
-26.609897
 30
0.0
 11
515.967871
 21
-1.609897
 31
0.0
  0
LINE
  5
68
100
AcDbEntity
  8
外形
  6
CONTINUOUS
100
AcDbLine
 10
515.967871
 20
-26.609897
 30
0.0
 11
515.967871
 21
-1.609897
 31
0.0
  0
CIRCLE
  5
76
100
AcDbEntity
  8
外形
  6
CONTINUOUS
100
AcDbCircle
 10
363.441308
 20
-14.59483
 30
0.0
 40
4.0
  0
CIRCLE
  5
77
100
AcDbEntity
  8
外形
  6
CONTINUOUS
100
AcDbCircle
 10
363.441308
 20
-14.59483
 30
0.0
 40
3.3235
  0
LWPOLYLINE
  5
78
100
AcDbEntity
  8
外形
  6
CONTINUOUS
100
AcDbPolyline
 90
        6
 70
     1
 43
0.0
 10
361.829777
 20
-13.960032
 10
362.085791
 20
-15.673057
 10
363.697321
 20
-16.307856
 10
365.052838
 20
-15.229629
 10
364.796825
 20
-13.516603
 10
363.185294
 20
-12.881805
  0
LINE
  5
7A
100
AcDbEntity
  8
外形
  6
CONTINUOUS
100
AcDbLine
 10
356.94381
 20
-32.71606
 30
0.0
 11
369.765298
 21
-31.594325
 31
0.0
  0
LINE
  5
7B
100
AcDbEntity
  8
外形
  6
CONTINUOUS
100
AcDbLine
 10
363.970951
 20
-24.203453
 30
0.0
 11
347.155719
 21
-33.524288
 31
0.0
  0
DIMENSION
  5
7C
100
AcDbEntity
  8
寸法
  6
CONTINUOUS
100
AcDbDimension
  2
*D21
 10
344.967871
 20
-58.876158
 30
0.0
 11
340.92136
 21
-52.006217
 31
0.0
 70
    34
  3
STANDARD
100
AcDb2LineAngularDimension
 13
370.395232
 23
-56.739041
 33
0.0
 14
345.967871
 24
-58.876158
 34
0.0
 15
345.967871
 25
-58.876158
 35
0.0
 16
336.124297
 26
-59.449481
 36
0.0
  0
DIMENSION
  5
98
100
AcDbEntity
  8
寸法
  6
CONTINUOUS
100
AcDbDimension
  2
*D23
 10
515.967871
 20
-41.244781
 30
0.0
 11
430.967871
 21
-38.744781
 31
0.0
 70
    32
  3
STANDARD
100
AcDbAlignedDimension
 13
345.967871
 23
-33.609897
 33
0.0
 14
515.967871
 24
-26.609897
 34
0.0
 50
360.0
100
AcDbRotatedDimension
1001
ACAD
1000
DSTYLE
1002
{
1002
}
  0
DIMENSION
  5
A5
100
AcDbEntity
  8
寸法
  6
CONTINUOUS
100
AcDbDimension
  2
*D24
 10
345.967871
 20
-51.583161
 30
0.0
 11
358.467871
 21
-49.083161
 31
0.0
 70
    32
  3
STANDARD
100
AcDbAlignedDimension
 13
370.967871
 23
-58.517414
 33
0.0
 14
345.967871
 24
-58.876158
 34
0.0
 50
360.0
100
AcDbRotatedDimension
1001
ACAD
1000
DSTYLE
1002
{
1002
}
  0
TEXT
  5
B2
100
AcDbEntity
  8
外形
  6
CONTINUOUS
 62
     2
100
AcDbText
 10
350.0595
 20
-126.531243
 30
0.0
 40
6.0
  1
PTFN R3225-43
 50
360.0
100
AcDbText
  0
LINE
  5
B3
100
AcDbEntity
  8
外形
  6
CONTINUOUS
100
AcDbLine
 10
346.867871
 20
-90.876158
 30
0.0
 11
515.967871
 21
-90.876158
 31
0.0
  0
LINE
  5
B4
100
AcDbEntity
  8
外形
  6
CONTINUOUS
100
AcDbLine
 10
360.13324
 20
-26.33073
 30
0.0
 11
362.607669
 21
-27.817517
 31
0.0
  0
LINE
  5
B5
100
AcDbEntity
  8
外形
  6
CONTINUOUS
100
AcDbLine
 10
370.395232
 20
-56.739041
 30
0.0
 11
345.967871
 21
-58.876158
 31
0.0
  0
LINE
  5
B6
100
AcDbEntity
  8
外形
  6
CONTINUOUS
100
AcDbLine
 10
346.867871
 20
-90.876158
 30
0.0
 11
515.967871
 21
-90.876158
 31
0.0
  0
LINE
  5
B7
100
AcDbEntity
  8
外形
  6
CONTINUOUS
100
AcDbLine
 10
347.515437
 20
-12.916023
 30
0.0
 11
365.182859
 21
-23.531681
 31
0.0
  0
DIMENSION
  5
B8
100
AcDbEntity
  8
寸法
  6
CONTINUOUS
100
AcDbDimension
  2
*D25
 10
330.139691
 20
-90.876158
 30
0.0
 11
327.639691
 21
-74.876158
 31
0.0
 70
    32
  3
STANDARD
100
AcDbAlignedDimension
 13
345.967871
 23
-58.876158
 33
0.0
 14
346.867871
 24
-90.876158
 34
0.0
 50
90.0
100
AcDbRotatedDimension
1001
ACAD
1000
DSTYLE
1002
{
1002
}
  0
LINE
  5
C5
100
AcDbEntity
  8
外形
  6
CONTINUOUS
100
AcDbLine
 10
356.967871
 20
-57.913783
 30
0.0
 11
356.967871
 21
-90.876158
 31
0.0
  0
LINE
  5
C6
100
AcDbEntity
  8
外形
  6
CONTINUOUS
100
AcDbLine
 10
346.627006
 20
-63.596674
 30
0.0
 11
346.905904
 21
-66.784497
 31
0.0
  0
LINE
  5
C7
100
AcDbEntity
  8
外形
  6
CONTINUOUS
100
AcDbLine
 10
353.672391
 20
-58.20585
 30
0.0
 11
354.365826
 21
-66.131838
 31
0.0
  0
LINE
  5
C8
100
AcDbEntity
  8
外形
  6
CONTINUOUS
100
AcDbLine
 10
352.940768
 20
-58.266109
 30
0.0
 11
353.634527
 21
-66.195819
 31
0.0
  0
LINE
  5
C9
100
AcDbEntity
  8
外形
  6
CONTINUOUS
100
AcDbLine
 10
346.867871
 20
-90.876158
 30
0.0
 11
346.867871
 21
-66.349774
 31
0.0
  0
LINE
  5
CA
100
AcDbEntity
  8
外形
  6
CONTINUOUS
100
AcDbLine
 10
354.365826
 20
-66.131838
 30
0.0
 11
346.905904
 21
-66.784497
 31
0.0
  0
LINE
  5
CB
100
AcDbEntity
  8
外形
  6
CONTINUOUS
100
AcDbLine
 10
316.550775
 20
-33.766147
 30
0.0
 11
311.808888
 21
-33.351286
 31
0.0
  0
LINE
  5
CC
100
AcDbEntity
  8
外形
  6
CONTINUOUS
100
AcDbLine
 10
318.37039
 20
-12.967856
 30
0.0
 11
313.628503
 21
-12.552995
 31
0.0
  0
LINE
  5
CD
100
AcDbEntity
  8
寸法
  6
CONTINUOUS
100
AcDbLine
 10
315.418223
 20
-44.449094
 30
0.0
 11
315.418223
 21
-33.609897
 31
0.0
  0
LINE
  5
CE
100
AcDbEntity
  8
外形
  6
CONTINUOUS
100
AcDbLine
 10
284.550775
 20
-32.286147
 30
0.0
 11
308.689068
 21
-32.286147
 31
0.0
  0
LINE
  5
CF
100
AcDbEntity
  8
外形
  6
CONTINUOUS
100
AcDbLine
 10
310.42488
 20
-12.44572
 30
0.0
 11
308.641658
 21
-32.828046
 31
0.0
  0
LINE
  5
D0
100
AcDbEntity
  8
外形
  6
CONTINUOUS
100
AcDbLine
 10
313.628503
 20
-12.552995
 30
0.0
 11
311.808888
 21
-33.351286
 31
0.0
  0
LINE
  5
D1
100
AcDbEntity
  8
外形
  6
CONTINUOUS
100
AcDbLine
 10
311.830259
 20
-33.107012
 30
0.0
 11
308.642436
 21
-32.828114
 31
0.0
  0
LINE
  5
D2
100
AcDbEntity
  8
外形
  6
CONTINUOUS
100
AcDbLine
 10
313.613482
 20
-12.724687
 30
0.0
 11
310.42488
 21
-12.44572
 31
0.0
  0
LINE
  5
F1
100
AcDbEntity
  8
外形
  6
CONTINUOUS
100
AcDbLine
 10
353.355629
 20
-63.007996
 30
0.0
 11
346.382732
 21
-63.618045
 31
0.0
  0
LINE
  5
F2
100
AcDbEntity
  8
寸法
  6
CONTINUOUS
100
AcDbLine
 10
345.967871
 20
-58.876158
 30
0.0
 11
344.967871
 21
-58.876158
 31
0.0
  0
LINE
  5
F3
100
AcDbEntity
  8
外形
  6
CONTINUOUS
100
AcDbLine
 10
345.967871
 20
-58.876158
 30
0.0
 11
346.382732
 21
-63.618045
 31
0.0
  0
DIMENSION
  5
F4
100
AcDbEntity
  8
寸法
  6
CONTINUOUS
100
AcDbDimension
  2
*D28
 10
346.303529
 20
-13.587795
 30
0.0
 11
338.085537
 21
-25.602849
 31
0.0
 70
    34
  3
STANDARD
100
AcDb2LineAngularDimension
 13
346.61524
 23
-33.609897
 33
0.0
 14
345.967871
 24
-33.609897
 34
0.0
 15
345.967993
 25
-32.81063
 35
0.0
 16
341.679196
 26
-26.002585
 36
0.0
1001
ACAD
1000
DSTYLE
1002
{
1002
}
  0
LINE
  5
102
100
AcDbEntity
  8
寸法
  6
CONTINUOUS
100
AcDbLine
 10
328.663088
 20
-33.766147
 30
0.0
 11
316.550775
 21
-33.766147
 31
0.0
  0
LINE
  5
104
100
AcDbEntity
  8
外形
  6
CONTINUOUS
100
AcDbLine
 10
345.967749
 20
-32.82459
 30
0.0
 11
346.303529
 21
-13.587795
 31
0.0
  0
CIRCLE
  5
106
100
AcDbEntity
  8
外形
  6
CONTINUOUS
100
AcDbCircle
 10
352.484793
 20
-23.310035
 30
0.0
 40
2.58
  0
LINE
  5
107
100
AcDbEntity
  8
外形
  6
CONTINUOUS
100
AcDbLine
 10
348.613801
 20
-32.71606
 30
0.0
 11
356.94381
 21
-32.71606
 31
0.0
  0
ARC
  5
10D
100
AcDbEntity
  8
外形
  6
CONTINUOUS
100
AcDbCircle
 10
346.767871
 20
-32.824592
 30
0.0
 40
0.8
100
AcDbArc
 50
179.0
 51
299.0
  0
LINE
  5
10E
100
AcDbEntity
  8
外形
  6
CONTINUOUS
100
AcDbLine
 10
352.727744
 20
-30.435664
 30
0.0
 11
353.64833
 21
-32.71606
 31
0.0
  0
LINE
  5
10F
100
AcDbEntity
  8
外形
  6
CONTINUOUS
100
AcDbLine
 10
346.978259
 20
-12.811606
 30
0.0
 11
346.97772
 21
-12.811606
 31
0.0
  0
ARC
  5
110
100
AcDbEntity
  8
外形
  6
CONTINUOUS
100
AcDbCircle
 10
347.103407
 20
-13.601757
 30
0.0
 40
0.8
100
AcDbArc
 50
59.0
 51
179.0
  0
LINE
  5
111
100
AcDbEntity
  8
外形
  6
CONTINUOUS
100
AcDbLine
 10
515.967871
 20
-26.609897
 30
0.0
 11
371.868199
 21
-26.609897
 31
0.0
  0
LINE
  5
112
100
AcDbEntity
  8
外形
  6
CONTINUOUS
100
AcDbLine
 10
515.967871
 20
-58.876158
 30
0.0
 11
371.735198
 21
-58.876158
 31
0.0
  0
LINE
  5
113
100
AcDbEntity
  8
外形
  6
CONTINUOUS
100
AcDbLine
 10
370.967871
 20
-58.517414
 30
0.0
 11
370.967871
 21
-90.876158
 31
0.0
  0
LINE
  5
114
100
AcDbEntity
  8
外形
  6
CONTINUOUS
100
AcDbLine
 10
370.395232
 20
-90.876158
 30
0.0
 11
370.395232
 21
-56.739041
 31
0.0
  0
LINE
  5
115
100
AcDbEntity
  8
外形
  6
CONTINUOUS
100
AcDbLine
 10
370.395232
 20
-56.739041
 30
0.0
 11
370.769272
 21
-58.134977
 31
0.0
  0
ARC
  5
116
100
AcDbEntity
  8
外形
  6
CONTINUOUS
100
AcDbCircle
 10
371.735198
 20
-57.876158
 30
0.0
 40
1.0
100
AcDbArc
 50
195.0
 51
270.0
  0
ARC
  5
117
100
AcDbEntity
  8
外形
  6
CONTINUOUS
100
AcDbCircle
 10
363.583103
 20
-23.503757
 30
0.0
 40
0.8
100
AcDbArc
 50
299.0
 51
59.0
  0
ARC
  5
118
100
AcDbEntity
  8
外形
  6
CONTINUOUS
100
AcDbCircle
 10
371.868199
 20
-27.609897
 30
0.0
 40
1.0
100
AcDbArc
 50
90.0
 51
165.0
  0
LINE
  5
119
100
AcDbEntity
  8
外形
  6
CONTINUOUS
100
AcDbLine
 10
369.765298
 20
-31.594325
 30
0.0
 11
370.902273
 21
-27.351078
 31
0.0
  0
ARC
  5
11A
100
AcDbEntity
  8
外形
  6
CONTINUOUS
100
AcDbCircle
 10
363.895264
 20
-25.674599
 30
0.0
 40
2.5
100
AcDbArc
 50
239.0
 51
59.0
  0
DIMENSION
  5
11B
100
AcDbEntity
  8
寸法
  6
CONTINUOUS
100
AcDbDimension
  2
*D29
 10
525.338281
 20
-90.876158
 30
0.0
 11
522.838281
 21
-74.876158
 31
0.0
 70
    32
  3
STANDARD
100
AcDbAlignedDimension
 13
515.967871
 23
-58.876158
 33
0.0
 14
515.967871
 24
-90.876158
 34
0.0
 50
90.0
100
AcDbRotatedDimension
1001
ACAD
1000
DSTYLE
1002
{
1002
}
  0
LINE
  5
128
100
AcDbEntity
  8
外形
  6
CONTINUOUS
100
AcDbLine
 10
515.967871
 20
-90.876158
 30
0.0
 11
515.967871
 21
-58.876158
 31
0.0
  0
LINE
  5
129
100
AcDbEntity
  8
外形
  6
CONTINUOUS
100
AcDbLine
 10
515.967871
 20
-1.609897
 30
0.0
 11
359.62703
 21
-1.609897
 31
0.0
  0
LINE
  5
12A
100
AcDbEntity
  8
外形
  6
CONTINUOUS
100
AcDbLine
 10
284.550775
 20
-8.766147
 30
0.0
 11
318.737991
 21
-8.766147
 31
0.0
  0
LINE
  5
12B
100
AcDbEntity
  8
外形
  6
CONTINUOUS
100
AcDbLine
 10
319.350412
 20
-1.766147
 30
0.0
 11
284.550775
 21
-1.766147
 31
0.0
  0
LINE
  5
12C
100
AcDbEntity
  8
外形
  6
CONTINUOUS
100
AcDbLine
 10
359.62703
 20
-1.609897
 30
0.0
 11
347.474628
 21
-8.62609
 31
0.0
  0
ENDSEC
  0
SECTION
  2
OBJECTS
  0
DICTIONARY
  5
1A
100
AcDbDictionary
  3
ACAD_GROUP
350
18
  3
ACAD_MLINESTYLE
350
19
  0
DICTIONARY
  5
18
102
{ACAD_REACTORS
330
1A
102
}
100
AcDbDictionary
  0
DICTIONARY
  5
19
102
{ACAD_REACTORS
330
1A
102
}
100
AcDbDictionary
  3
STANDARD
350
1C
  0
MLINESTYLE
  5
1C
102
{ACAD_REACTORS
330
19
102
}
100
AcDbMlineStyle
  2
STANDARD
 70
     0
  3

 62
     0
 51
90.0
 52
90.0
 71
     2
 49
0.5
 62
   256
  6
BYLAYER
 49
-0.5
 62
   256
  6
BYLAYER
  0
ENDSEC
  0
EOF
