  0
SECTION
  2
HEADER
  9
$ACADVER
  1
AC1014
  9
$ACADMAINTVER
 70
     0
  9
$DWGCODEPAGE
  3
ANSI_932
  9
$INSBASE
 10
495.108215
 20
-336.489309
 30
0.0
  9
$EXTMIN
 10
548.077263
 20
-296.370592
 30
0.0
  9
$EXTMAX
 10
707.504259
 20
-191.016833
 30
0.0
  9
$LIMMIN
 10
-587.250952
 20
327.890188
  9
$LIMMAX
 10
600.749048
 20
957.890188
  9
$ORTHOMODE
 70
     1
  9
$REGENMODE
 70
     1
  9
$FILLMODE
 70
     1
  9
$QTEXTMODE
 70
     0
  9
$MIRRTEXT
 70
     1
  9
$DRAGMODE
 70
     2
  9
$LTSCALE
 40
5.0
  9
$OSMODE
 70
    45
  9
$ATTMODE
 70
     1
  9
$TEXTSIZE
 40
4.0
  9
$TRACEWID
 40
0.05
  9
$TEXTSTYLE
  7
STANDARD
  9
$CLAYER
  8
外形
  9
$CELTYPE
  6
CONTINUOUS
  9
$CECOLOR
 62
   256
  9
$CELTSCALE
 40
1.0
  9
$DELOBJ
 70
     1
  9
$DISPSILH
 70
     0
  9
$DIMSCALE
 40
1.0
  9
$DIMASZ
 40
2.0
  9
$DIMEXO
 40
1.0
  9
$DIMDLI
 40
8.0
  9
$DIMRND
 40
0.0
  9
$DIMDLE
 40
0.0
  9
$DIMEXE
 40
1.5
  9
$DIMTP
 40
0.0
  9
$DIMTM
 40
0.0
  9
$DIMTXT
 40
3.0
  9
$DIMCEN
 40
-1.0
  9
$DIMTSZ
 40
0.0
  9
$DIMTOL
 70
     0
  9
$DIMLIM
 70
     0
  9
$DIMTIH
 70
     0
  9
$DIMTOH
 70
     0
  9
$DIMSE1
 70
     0
  9
$DIMSE2
 70
     0
  9
$DIMTAD
 70
     1
  9
$DIMZIN
 70
     8
  9
$DIMBLK
  1

  9
$DIMASO
 70
     1
  9
$DIMSHO
 70
     1
  9
$DIMPOST
  1

  9
$DIMAPOST
  1

  9
$DIMALT
 70
     0
  9
$DIMALTD
 70
     2
  9
$DIMALTF
 40
25.4
  9
$DIMLFAC
 40
1.0
  9
$DIMTOFL
 70
     1
  9
$DIMTVP
 40
0.0
  9
$DIMTIX
 70
     0
  9
$DIMSOXD
 70
     0
  9
$DIMSAH
 70
     1
  9
$DIMBLK1
  1
_OPEN30
  9
$DIMBLK2
  1
_OPEN30
  9
$DIMSTYLE
  2
STANDARD
  9
$DIMCLRD
 70
     1
  9
$DIMCLRE
 70
     1
  9
$DIMCLRT
 70
     3
  9
$DIMTFAC
 40
1.0
  9
$DIMGAP
 40
1.0
  9
$DIMJUST
 70
     0
  9
$DIMSD1
 70
     0
  9
$DIMSD2
 70
     0
  9
$DIMTOLJ
 70
     1
  9
$DIMTZIN
 70
     8
  9
$DIMALTZ
 70
     0
  9
$DIMALTTZ
 70
     0
  9
$DIMFIT
 70
     3
  9
$DIMUPT
 70
     0
  9
$DIMUNIT
 70
     2
  9
$DIMDEC
 70
     3
  9
$DIMTDEC
 70
     4
  9
$DIMALTU
 70
     2
  9
$DIMALTTD
 70
     2
  9
$DIMTXSTY
  7
STANDARD
  9
$DIMAUNIT
 70
     0
  9
$LUNITS
 70
     2
  9
$LUPREC
 70
     4
  9
$SKETCHINC
 40
0.1
  9
$FILLETRAD
 40
1.0
  9
$AUNITS
 70
     0
  9
$AUPREC
 70
     3
  9
$MENU
  1
acad
  9
$ELEVATION
 40
0.0
  9
$PELEVATION
 40
0.0
  9
$THICKNESS
 40
0.0
  9
$LIMCHECK
 70
     0
  9
$BLIPMODE
 70
     0
  9
$CHAMFERA
 40
0.0
  9
$CHAMFERB
 40
0.0
  9
$CHAMFERC
 40
0.0
  9
$CHAMFERD
 40
0.0
  9
$SKPOLY
 70
     0
  9
$TDCREATE
 40
2450751.535399305
  9
$TDUPDATE
 40
2451930.484525463
  9
$TDINDWG
 40
1.6263326389
  9
$TDUSRTIMER
 40
1.6263326389
  9
$USRTIMER
 70
     1
  9
$ANGBASE
 50
0.0
  9
$ANGDIR
 70
     0
  9
$PDMODE
 70
     0
  9
$PDSIZE
 40
0.0
  9
$PLINEWID
 40
0.0
  9
$COORDS
 70
     1
  9
$SPLFRAME
 70
     0
  9
$SPLINETYPE
 70
     5
  9
$SPLINESEGS
 70
     8
  9
$ATTDIA
 70
     0
  9
$ATTREQ
 70
     1
  9
$HANDLING
 70
     1
  9
$HANDSEED
  5
213
  9
$SURFTAB1
 70
     6
  9
$SURFTAB2
 70
     6
  9
$SURFTYPE
 70
     6
  9
$SURFU
 70
     6
  9
$SURFV
 70
     6
  9
$UCSNAME
  2

  9
$UCSORG
 10
0.0
 20
0.0
 30
0.0
  9
$UCSXDIR
 10
1.0
 20
0.0
 30
0.0
  9
$UCSYDIR
 10
0.0
 20
1.0
 30
0.0
  9
$PUCSNAME
  2

  9
$PUCSORG
 10
0.0
 20
0.0
 30
0.0
  9
$PUCSXDIR
 10
1.0
 20
0.0
 30
0.0
  9
$PUCSYDIR
 10
0.0
 20
1.0
 30
0.0
  9
$USERI1
 70
     0
  9
$USERI2
 70
     0
  9
$USERI3
 70
     0
  9
$USERI4
 70
     0
  9
$USERI5
 70
     0
  9
$USERR1
 40
0.0
  9
$USERR2
 40
0.0
  9
$USERR3
 40
0.0
  9
$USERR4
 40
0.0
  9
$USERR5
 40
0.0
  9
$WORLDVIEW
 70
     1
  9
$SHADEDGE
 70
     3
  9
$SHADEDIF
 70
    70
  9
$TILEMODE
 70
     1
  9
$MAXACTVP
 70
    16
  9
$PINSBASE
 10
0.0
 20
0.0
 30
0.0
  9
$PLIMCHECK
 70
     0
  9
$PEXTMIN
 10
1.000000E+20
 20
1.000000E+20
 30
1.000000E+20
  9
$PEXTMAX
 10
-1.000000E+20
 20
-1.000000E+20
 30
-1.000000E+20
  9
$PLIMMIN
 10
0.0
 20
0.0
  9
$PLIMMAX
 10
12.0
 20
9.0
  9
$UNITMODE
 70
     0
  9
$VISRETAIN
 70
     0
  9
$PLINEGEN
 70
     0
  9
$PSLTSCALE
 70
     1
  9
$TREEDEPTH
 70
  3020
  9
$PICKSTYLE
 70
     1
  9
$CMLSTYLE
  2
STANDARD
  9
$CMLJUST
 70
     0
  9
$CMLSCALE
 40
1.0
  9
$PROXYGRAPHICS
 70
     1
  9
$MEASUREMENT
 70
     0
  0
ENDSEC
  0
SECTION
  2
CLASSES
  0
CLASS
  1
LWPOLYLINE
  2
AcDbPolyline
  3
"AutoCAD"
 90
        0
280
     0
281
     1
  0
ENDSEC
  0
SECTION
  2
TABLES
  0
TABLE
  2
VPORT
  5
12
100
AcDbSymbolTable
 70
     1
  0
VPORT
  5
20E
100
AcDbSymbolTableRecord
100
AcDbViewportTableRecord
  2
*ACTIVE
 70
     0
 10
0.0
 20
0.0
 11
1.0
 21
1.0
 12
628.303846
 22
-241.011206
 13
0.0
 23
0.0
 14
0.05
 24
0.05
 15
10.0
 25
10.0
 16
0.0
 26
0.0
 36
1.0
 17
0.0
 27
0.0
 37
0.0
 40
119.628613
 41
1.710425
 42
50.0
 43
0.0
 44
0.0
 50
0.0
 51
0.0
 71
     0
 72
   100
 73
     1
 74
     1
 75
     0
 76
     0
 77
     0
 78
     0
  0
ENDTAB
  0
TABLE
  2
LTYPE
  5
D
100
AcDbSymbolTable
 70
     1
  0
LTYPE
  5
E
100
AcDbSymbolTableRecord
100
AcDbLinetypeTableRecord
  2
BYBLOCK
 70
     0
  3

 72
    65
 73
     0
 40
0.0
  0
LTYPE
  5
F
100
AcDbSymbolTableRecord
100
AcDbLinetypeTableRecord
  2
BYLAYER
 70
     0
  3

 72
    65
 73
     0
 40
0.0
  0
LTYPE
  5
5
100
AcDbSymbolTableRecord
100
AcDbLinetypeTableRecord
  2
CONTINUOUS
 70
     0
  3
Solid line
 72
    65
 73
     0
 40
0.0
  0
ENDTAB
  0
TABLE
  2
LAYER
  5
A
100
AcDbSymbolTable
 70
     4
  0
LAYER
  5
4
100
AcDbSymbolTableRecord
100
AcDbLayerTableRecord
  2
0
 70
     0
 62
     7
  6
CONTINUOUS
  0
LAYER
  5
89
100
AcDbSymbolTableRecord
100
AcDbLayerTableRecord
  2
外形
 70
     0
 62
     3
  6
CONTINUOUS
  0
LAYER
  5
2E
100
AcDbSymbolTableRecord
100
AcDbLayerTableRecord
  2
DEFPOINTS
 70
     0
 62
     7
  6
CONTINUOUS
  0
LAYER
  5
5D
100
AcDbSymbolTableRecord
100
AcDbLayerTableRecord
  2
寸法
 70
     0
 62
     1
  6
CONTINUOUS
  0
ENDTAB
  0
TABLE
  2
STYLE
  5
B
100
AcDbSymbolTable
 70
     1
  0
STYLE
  5
C
100
AcDbSymbolTableRecord
100
AcDbTextStyleTableRecord
  2
STANDARD
 70
     0
 40
0.0
 41
1.0
 50
0.0
 71
     0
 42
4.0
  3
MONOTXT
  4
BIGFONT
  0
ENDTAB
  0
TABLE
  2
VIEW
  5
10
100
AcDbSymbolTable
 70
     0
  0
ENDTAB
  0
TABLE
  2
UCS
  5
11
100
AcDbSymbolTable
 70
     0
  0
ENDTAB
  0
TABLE
  2
APPID
  5
14
100
AcDbSymbolTable
 70
     1
  0
APPID
  5
15
100
AcDbSymbolTableRecord
100
AcDbRegAppTableRecord
  2
ACAD
 70
     0
  0
ENDTAB
  0
TABLE
  2
DIMSTYLE
  5
16
100
AcDbSymbolTable
 70
     1
  0
DIMSTYLE
105
1D
102
{ACAD_REACTORS
330
12A
330
CB
330
6A
330
5C
330
A3
330
77
330
DB
330
10F
330
15C
102
}
100
AcDbSymbolTableRecord
100
AcDbDimStyleTableRecord
  2
STANDARD
 70
     0
  3

  4

  5

  6
_OPEN30
  7
_OPEN30
 40
1.0
 41
2.0
 42
1.0
 43
8.0
 44
1.5
 45
0.0
 46
0.0
 47
0.0
 48
0.0
140
3.0
141
-1.0
142
0.0
143
25.4
144
1.0
145
0.0
146
1.0
147
1.0
 71
     0
 72
     0
 73
     0
 74
     0
 75
     0
 76
     0
 77
     1
 78
     8
170
     0
171
     2
172
     1
173
     1
174
     0
175
     0
176
     1
177
     1
178
     3
270
     2
271
     3
272
     4
273
     2
274
     2
340
C
275
     0
280
     0
281
     0
282
     0
283
     1
284
     8
285
     0
286
     0
287
     3
288
     0
  0
ENDTAB
  0
TABLE
  2
BLOCK_RECORD
  5
1
100
AcDbSymbolTable
 70
    27
  0
BLOCK_RECORD
  5
2
100
AcDbSymbolTableRecord
100
AcDbBlockTableRecord
  2
*MODEL_SPACE
  0
BLOCK_RECORD
  5
7
100
AcDbSymbolTableRecord
100
AcDbBlockTableRecord
  2
*PAPER_SPACE
  0
BLOCK_RECORD
  5
1E
100
AcDbSymbolTableRecord
100
AcDbBlockTableRecord
  2
_DOTSMALL
  0
BLOCK_RECORD
  5
14C
100
AcDbSymbolTableRecord
100
AcDbBlockTableRecord
  2
*D17
  0
BLOCK_RECORD
  5
15D
100
AcDbSymbolTableRecord
100
AcDbBlockTableRecord
  2
_OPEN30
  0
BLOCK_RECORD
  5
163
100
AcDbSymbolTableRecord
100
AcDbBlockTableRecord
  2
*D19
  0
BLOCK_RECORD
  5
16F
100
AcDbSymbolTableRecord
100
AcDbBlockTableRecord
  2
*D20
  0
BLOCK_RECORD
  5
17B
100
AcDbSymbolTableRecord
100
AcDbBlockTableRecord
  2
*D21
  0
BLOCK_RECORD
  5
18A
100
AcDbSymbolTableRecord
100
AcDbBlockTableRecord
  2
*D22
  0
BLOCK_RECORD
  5
196
100
AcDbSymbolTableRecord
100
AcDbBlockTableRecord
  2
*D23
  0
BLOCK_RECORD
  5
1A2
100
AcDbSymbolTableRecord
100
AcDbBlockTableRecord
  2
*D24
  0
BLOCK_RECORD
  5
1AE
100
AcDbSymbolTableRecord
100
AcDbBlockTableRecord
  2
*D25
  0
BLOCK_RECORD
  5
1BB
100
AcDbSymbolTableRecord
100
AcDbBlockTableRecord
  2
*D26
  0
ENDTAB
  0
ENDSEC
  0
SECTION
  2
BLOCKS
  0
BLOCK
  5
3
100
AcDbEntity
  8
0
100
AcDbBlockBegin
  2
*MODEL_SPACE
 70
     0
 10
0.0
 20
0.0
 30
0.0
  3
*MODEL_SPACE
  1

  0
ENDBLK
  5
6
100
AcDbEntity
  8
0
100
AcDbBlockEnd
  0
BLOCK
  5
8
100
AcDbEntity
 67
     1
  8
0
100
AcDbBlockBegin
  2
*PAPER_SPACE
 70
     0
 10
0.0
 20
0.0
 30
0.0
  3
*PAPER_SPACE
  1

  0
ENDBLK
  5
9
100
AcDbEntity
 67
     1
  8
0
100
AcDbBlockEnd
  0
BLOCK
  5
23
100
AcDbEntity
  8
0
100
AcDbBlockBegin
  2
_DOTSMALL
 70
     0
 10
0.0
 20
0.0
 30
0.0
  3
_DOTSMALL
  1

  0
POLYLINE
  5
1F
100
AcDbEntity
  8
0
  6
BYBLOCK
 62
     0
100
AcDb2dPolyline
 66
     1
 10
0.0
 20
0.0
 30
0.0
 70
     1
 40
0.5
 41
0.5
  0
VERTEX
  5
20
100
AcDbEntity
  8
0
  6
BYBLOCK
 62
     0
100
AcDbVertex
100
AcDb2dVertex
 10
-0.0625
 20
0.0
 30
0.0
 42
1.0
  0
VERTEX
  5
21
100
AcDbEntity
  8
0
  6
BYBLOCK
 62
     0
100
AcDbVertex
100
AcDb2dVertex
 10
0.0625
 20
0.0
 30
0.0
 42
1.0
  0
SEQEND
  5
22
100
AcDbEntity
  8
0
  6
BYBLOCK
 62
     0
  0
ENDBLK
  5
24
100
AcDbEntity
  8
0
100
AcDbBlockEnd
  0
BLOCK
  5
1FF
100
AcDbEntity
  8
0
100
AcDbBlockBegin
  2
*D17
 70
     1
 10
0.0
 20
0.0
 30
0.0
  3
*D17
  1

  0
LINE
  5
200
100
AcDbEntity
  8
0
  6
BYBLOCK
 62
     1
100
AcDbLine
 10
594.515441
 20
-252.269785
 30
0.0
 11
585.346194
 21
-252.269785
 31
0.0
  0
LINE
  5
201
100
AcDbEntity
  8
0
  6
BYBLOCK
 62
     1
100
AcDbLine
 10
594.519246
 20
-252.356941
 30
0.0
 11
585.384891
 21
-253.156093
 31
0.0
  0
ARC
  5
202
100
AcDbEntity
  8
0
  6
BYBLOCK
 62
     1
100
AcDbCircle
 10
595.515441
 20
-252.269785
 30
0.0
 40
8.669248
100
AcDbArc
 50
153.504687
 51
166.752344
  0
ARC
  5
203
100
AcDbEntity
  8
0
  6
BYBLOCK
 62
     1
100
AcDbCircle
 10
595.515441
 20
-252.269785
 30
0.0
 40
8.669248
100
AcDbArc
 50
198.247656
 51
211.495313
  0
ARC
  5
204
100
AcDbEntity
  8
0
  6
BYBLOCK
 62
     1
100
AcDbCircle
 10
595.515441
 20
-252.269785
 30
0.0
 40
8.669248
100
AcDbArc
 50
180.0
 51
185.0
  0
INSERT
  5
205
100
AcDbEntity
  8
0
  6
BYBLOCK
 62
     1
100
AcDbBlockReference
  2
_OPEN30
 10
586.846194
 20
-252.269785
 30
0.0
 41
2.0
 42
2.0
 43
2.0
 50
263.376172
  0
INSERT
  5
206
100
AcDbEntity
  8
0
  6
BYBLOCK
 62
     1
100
AcDbBlockReference
  2
_OPEN30
 10
586.879183
 20
-253.02536
 30
0.0
 41
2.0
 42
2.0
 43
2.0
 50
101.623828
  0
MTEXT
  5
207
100
AcDbEntity
  8
0
  6
BYBLOCK
 62
     3
100
AcDbMText
 10
590.445621
 20
-242.317448
 30
0.0
 40
3.0
 41
0.0
 71
     5
 72
     1
  1
\A1;5°
 11
0.891048
 21
0.453909
 31
0.0
  0
POINT
  5
208
100
AcDbEntity
  8
DEFPOINTS
  6
BYBLOCK
 62
     0
100
AcDbPoint
 10
586.860861
 20
-252.773857
 30
0.0
  0
POINT
  5
209
100
AcDbEntity
  8
DEFPOINTS
  6
BYBLOCK
 62
     0
100
AcDbPoint
 10
695.515441
 20
-252.269785
 30
0.0
  0
POINT
  5
20A
100
AcDbEntity
  8
DEFPOINTS
  6
BYBLOCK
 62
     0
100
AcDbPoint
 10
615.05733
 20
-250.560091
 30
0.0
  0
POINT
  5
20B
100
AcDbEntity
  8
DEFPOINTS
  6
BYBLOCK
 62
     0
100
AcDbPoint
 10
595.515441
 20
-252.269785
 30
0.0
  0
POINT
  5
20C
100
AcDbEntity
  8
DEFPOINTS
  6
BYBLOCK
 62
     0
100
AcDbPoint
 10
616.282768
 20
-252.269785
 30
0.0
  0
ENDBLK
  5
20D
100
AcDbEntity
  8
0
100
AcDbBlockEnd
  0
BLOCK
  5
15E
100
AcDbEntity
  8
0
100
AcDbBlockBegin
  2
_OPEN30
 70
     0
 10
0.0
 20
0.0
 30
0.0
  3
_OPEN30
  1

  0
LINE
  5
15F
100
AcDbEntity
  8
0
  6
BYBLOCK
 62
     0
100
AcDbLine
 10
-1.0
 20
0.267949
 30
0.0
 11
0.0
 21
0.0
 31
0.0
  0
LINE
  5
160
100
AcDbEntity
  8
0
  6
BYBLOCK
 62
     0
100
AcDbLine
 10
0.0
 20
0.0
 30
0.0
 11
-1.0
 21
-0.267949
 31
0.0
  0
LINE
  5
161
100
AcDbEntity
  8
0
  6
BYBLOCK
 62
     0
100
AcDbLine
 10
0.0
 20
0.0
 30
0.0
 11
-1.0
 21
0.0
 31
0.0
  0
ENDBLK
  5
162
100
AcDbEntity
  8
0
100
AcDbBlockEnd
  0
BLOCK
  5
164
100
AcDbEntity
  8
0
100
AcDbBlockBegin
  2
*D19
 70
     1
 10
0.0
 20
0.0
 30
0.0
  3
*D19
  1

  0
LINE
  5
165
100
AcDbEntity
  8
0
  6
BYBLOCK
 62
     1
100
AcDbLine
 10
605.093138
 20
-196.016833
 30
0.0
 11
584.43987
 21
-196.016833
 31
0.0
  0
LINE
  5
166
100
AcDbEntity
  8
0
  6
BYBLOCK
 62
     1
100
AcDbLine
 10
594.515441
 20
-216.016833
 30
0.0
 11
584.43987
 21
-216.016833
 31
0.0
  0
LINE
  5
167
100
AcDbEntity
  8
0
  6
BYBLOCK
 62
     1
100
AcDbLine
 10
585.93987
 20
-198.016833
 30
0.0
 11
585.93987
 21
-214.016833
 31
0.0
  0
INSERT
  5
168
100
AcDbEntity
  8
0
  6
BYBLOCK
 62
     1
100
AcDbBlockReference
  2
_OPEN30
 10
585.93987
 20
-196.016833
 30
0.0
 41
2.0
 42
2.0
 43
2.0
 50
90.0
  0
INSERT
  5
169
100
AcDbEntity
  8
0
  6
BYBLOCK
 62
     1
100
AcDbBlockReference
  2
_OPEN30
 10
585.93987
 20
-216.016833
 30
0.0
 41
2.0
 42
2.0
 43
2.0
 50
270.0
  0
MTEXT
  5
16A
100
AcDbEntity
  8
0
  6
BYBLOCK
 62
     3
100
AcDbMText
 10
583.43987
 20
-206.016833
 30
0.0
 40
3.0
 41
0.0
 71
     5
 72
     1
  1
\A1;20
 11
0.0
 21
1.0
 31
0.0
  0
POINT
  5
16B
100
AcDbEntity
  8
DEFPOINTS
  6
BYBLOCK
 62
     0
100
AcDbPoint
 10
606.093138
 20
-196.016833
 30
0.0
  0
POINT
  5
16C
100
AcDbEntity
  8
DEFPOINTS
  6
BYBLOCK
 62
     0
100
AcDbPoint
 10
595.515441
 20
-216.016833
 30
0.0
  0
POINT
  5
16D
100
AcDbEntity
  8
DEFPOINTS
  6
BYBLOCK
 62
     0
100
AcDbPoint
 10
585.93987
 20
-216.016833
 30
0.0
  0
ENDBLK
  5
16E
100
AcDbEntity
  8
0
100
AcDbBlockEnd
  0
BLOCK
  5
170
100
AcDbEntity
  8
0
100
AcDbBlockBegin
  2
*D20
 70
     1
 10
0.0
 20
0.0
 30
0.0
  3
*D20
  1

  0
LINE
  5
171
100
AcDbEntity
  8
0
  6
BYBLOCK
 62
     1
100
AcDbLine
 10
696.515441
 20
-196.016833
 30
0.0
 11
707.504259
 21
-196.016833
 31
0.0
  0
LINE
  5
172
100
AcDbEntity
  8
0
  6
BYBLOCK
 62
     1
100
AcDbLine
 10
696.515441
 20
-212.016833
 30
0.0
 11
707.504259
 21
-212.016833
 31
0.0
  0
LINE
  5
173
100
AcDbEntity
  8
0
  6
BYBLOCK
 62
     1
100
AcDbLine
 10
706.004259
 20
-198.016833
 30
0.0
 11
706.004259
 21
-210.016833
 31
0.0
  0
INSERT
  5
174
100
AcDbEntity
  8
0
  6
BYBLOCK
 62
     1
100
AcDbBlockReference
  2
_OPEN30
 10
706.004259
 20
-196.016833
 30
0.0
 41
2.0
 42
2.0
 43
2.0
 50
90.0
  0
INSERT
  5
175
100
AcDbEntity
  8
0
  6
BYBLOCK
 62
     1
100
AcDbBlockReference
  2
_OPEN30
 10
706.004259
 20
-212.016833
 30
0.0
 41
2.0
 42
2.0
 43
2.0
 50
270.0
  0
MTEXT
  5
176
100
AcDbEntity
  8
0
  6
BYBLOCK
 62
     3
100
AcDbMText
 10
703.504259
 20
-204.016833
 30
0.0
 40
3.0
 41
0.0
 71
     5
 72
     1
  1
\A1;16
 11
0.0
 21
1.0
 31
0.0
  0
POINT
  5
177
100
AcDbEntity
  8
DEFPOINTS
  6
BYBLOCK
 62
     0
100
AcDbPoint
 10
695.515441
 20
-196.016833
 30
0.0
  0
POINT
  5
178
100
AcDbEntity
  8
DEFPOINTS
  6
BYBLOCK
 62
     0
100
AcDbPoint
 10
695.515441
 20
-212.016833
 30
0.0
  0
POINT
  5
179
100
AcDbEntity
  8
DEFPOINTS
  6
BYBLOCK
 62
     0
100
AcDbPoint
 10
706.004259
 20
-212.016833
 30
0.0
  0
ENDBLK
  5
17A
100
AcDbEntity
  8
0
100
AcDbBlockEnd
  0
BLOCK
  5
1D8
100
AcDbEntity
  8
0
100
AcDbBlockBegin
  2
*D21
 70
     1
 10
0.0
 20
0.0
 30
0.0
  3
*D21
  1

  0
LINE
  5
1D9
100
AcDbEntity
  8
0
  6
BYBLOCK
 62
     1
100
AcDbLine
 10
563.990107
 20
-217.013028
 30
0.0
 11
562.693109
 21
-231.837784
 31
0.0
  0
ARC
  5
1DA
100
AcDbEntity
  8
0
  6
BYBLOCK
 62
     1
100
AcDbCircle
 10
564.077263
 20
-216.016833
 30
0.0
 40
14.381384
100
AcDbArc
 50
249.012084
 51
265.0
  0
LINE
  5
1DB
100
AcDbEntity
  8
0
  6
BYBLOCK
 62
     1
100
AcDbLine
 10
558.926267
 20
-229.444099
 30
0.0
 11
550.896826
 21
-226.363828
 31
0.0
  0
ARC
  5
1DC
100
AcDbEntity
  8
0
  6
BYBLOCK
 62
     1
100
AcDbCircle
 10
564.077263
 20
-216.016833
 30
0.0
 40
14.381384
100
AcDbArc
 50
249.051034
 51
257.025517
  0
ARC
  5
1DD
100
AcDbEntity
  8
0
  6
BYBLOCK
 62
     1
100
AcDbCircle
 10
564.077263
 20
-216.016833
 30
0.0
 40
14.381384
100
AcDbArc
 50
277.974483
 51
285.948966
  0
ARC
  5
1DE
100
AcDbEntity
  8
0
  6
BYBLOCK
 62
     1
100
AcDbCircle
 10
564.077263
 20
-216.016833
 30
0.0
 40
14.381384
100
AcDbArc
 50
265.0
 51
270.0
  0
INSERT
  5
1DF
100
AcDbEntity
  8
0
  6
BYBLOCK
 62
     1
100
AcDbBlockReference
  2
_OPEN30
 10
562.823843
 20
-230.343492
 30
0.0
 41
2.0
 42
2.0
 43
2.0
 50
351.012759
  0
INSERT
  5
1E0
100
AcDbEntity
  8
0
  6
BYBLOCK
 62
     1
100
AcDbBlockReference
  2
_OPEN30
 10
564.077263
 20
-230.398217
 30
0.0
 41
2.0
 42
2.0
 43
2.0
 50
183.987241
  0
MTEXT
  5
1E1
100
AcDbEntity
  8
0
  6
BYBLOCK
 62
     3
100
AcDbMText
 10
555.806974
 20
-225.569823
 30
0.0
 40
3.0
 41
0.0
 71
     5
 72
     1
  1
\A1;5°
 11
0.933656
 21
-0.358171
 31
0.0
  0
POINT
  5
1E2
100
AcDbEntity
  8
DEFPOINTS
  6
BYBLOCK
 62
     0
100
AcDbPoint
 10
563.658984
 20
-230.392133
 30
0.0
  0
POINT
  5
1E3
100
AcDbEntity
  8
DEFPOINTS
  6
BYBLOCK
 62
     0
100
AcDbPoint
 10
564.077263
 20
-216.016833
 30
0.0
  0
POINT
  5
1E4
100
AcDbEntity
  8
DEFPOINTS
  6
BYBLOCK
 62
     0
100
AcDbPoint
 10
566.264479
 20
-191.016833
 30
0.0
  0
POINT
  5
1E5
100
AcDbEntity
  8
DEFPOINTS
  6
BYBLOCK
 62
     0
100
AcDbPoint
 10
564.077263
 20
-216.016833
 30
0.0
  0
POINT
  5
1E6
100
AcDbEntity
  8
DEFPOINTS
  6
BYBLOCK
 62
     0
100
AcDbPoint
 10
564.077263
 20
-231.79004
 30
0.0
  0
ENDBLK
  5
1E7
100
AcDbEntity
  8
0
100
AcDbBlockEnd
  0
BLOCK
  5
1E8
100
AcDbEntity
  8
0
100
AcDbBlockBegin
  2
*D22
 70
     1
 10
0.0
 20
0.0
 30
0.0
  3
*D22
  1

  0
LINE
  5
1E9
100
AcDbEntity
  8
0
  6
BYBLOCK
 62
     1
100
AcDbLine
 10
595.515441
 20
-217.016833
 30
0.0
 11
595.515441
 21
-236.395529
 31
0.0
  0
LINE
  5
1EA
100
AcDbEntity
  8
0
  6
BYBLOCK
 62
     1
100
AcDbLine
 10
695.515441
 20
-212.016833
 30
0.0
 11
695.515441
 21
-236.395529
 31
0.0
  0
LINE
  5
1EB
100
AcDbEntity
  8
0
  6
BYBLOCK
 62
     1
100
AcDbLine
 10
597.515441
 20
-234.895529
 30
0.0
 11
693.515441
 21
-234.895529
 31
0.0
  0
INSERT
  5
1EC
100
AcDbEntity
  8
0
  6
BYBLOCK
 62
     1
100
AcDbBlockReference
  2
_OPEN30
 10
595.515441
 20
-234.895529
 30
0.0
 41
2.0
 42
2.0
 43
2.0
 50
180.0
  0
INSERT
  5
1ED
100
AcDbEntity
  8
0
  6
BYBLOCK
 62
     1
100
AcDbBlockReference
  2
_OPEN30
 10
695.515441
 20
-234.895529
 30
0.0
 41
2.0
 42
2.0
 43
2.0
  0
MTEXT
  5
1EE
100
AcDbEntity
  8
0
  6
BYBLOCK
 62
     3
100
AcDbMText
 10
645.515441
 20
-232.395529
 30
0.0
 40
3.0
 41
0.0
 71
     5
 72
     1
  1
\A1;100
  0
POINT
  5
1EF
100
AcDbEntity
  8
DEFPOINTS
  6
BYBLOCK
 62
     0
100
AcDbPoint
 10
595.515441
 20
-216.016833
 30
0.0
  0
POINT
  5
1F0
100
AcDbEntity
  8
DEFPOINTS
  6
BYBLOCK
 62
     0
100
AcDbPoint
 10
695.515441
 20
-211.016833
 30
0.0
  0
POINT
  5
1F1
100
AcDbEntity
  8
DEFPOINTS
  6
BYBLOCK
 62
     0
100
AcDbPoint
 10
695.515441
 20
-234.895529
 30
0.0
  0
ENDBLK
  5
1F2
100
AcDbEntity
  8
0
100
AcDbBlockEnd
  0
BLOCK
  5
197
100
AcDbEntity
  8
0
100
AcDbBlockBegin
  2
*D23
 70
     1
 10
0.0
 20
0.0
 30
0.0
  3
*D23
  1

  0
LINE
  5
198
100
AcDbEntity
  8
0
  6
BYBLOCK
 62
     1
100
AcDbLine
 10
594.515441
 20
-252.269785
 30
0.0
 11
581.643031
 21
-252.269785
 31
0.0
  0
LINE
  5
199
100
AcDbEntity
  8
0
  6
BYBLOCK
 62
     1
100
AcDbLine
 10
595.409663
 20
-268.269785
 30
0.0
 11
581.643031
 21
-268.269785
 31
0.0
  0
LINE
  5
19A
100
AcDbEntity
  8
0
  6
BYBLOCK
 62
     1
100
AcDbLine
 10
583.143031
 20
-254.269785
 30
0.0
 11
583.143031
 21
-266.269785
 31
0.0
  0
INSERT
  5
19B
100
AcDbEntity
  8
0
  6
BYBLOCK
 62
     1
100
AcDbBlockReference
  2
_OPEN30
 10
583.143031
 20
-252.269785
 30
0.0
 41
2.0
 42
2.0
 43
2.0
 50
90.0
  0
INSERT
  5
19C
100
AcDbEntity
  8
0
  6
BYBLOCK
 62
     1
100
AcDbBlockReference
  2
_OPEN30
 10
583.143031
 20
-268.269785
 30
0.0
 41
2.0
 42
2.0
 43
2.0
 50
270.0
  0
MTEXT
  5
19D
100
AcDbEntity
  8
0
  6
BYBLOCK
 62
     3
100
AcDbMText
 10
580.643031
 20
-260.269785
 30
0.0
 40
3.0
 41
0.0
 71
     5
 72
     1
  1
\A1;16
 11
0.0
 21
1.0
 31
0.0
  0
POINT
  5
19E
100
AcDbEntity
  8
DEFPOINTS
  6
BYBLOCK
 62
     0
100
AcDbPoint
 10
595.515441
 20
-252.269785
 30
0.0
  0
POINT
  5
19F
100
AcDbEntity
  8
DEFPOINTS
  6
BYBLOCK
 62
     0
100
AcDbPoint
 10
596.409663
 20
-268.269785
 30
0.0
  0
POINT
  5
1A0
100
AcDbEntity
  8
DEFPOINTS
  6
BYBLOCK
 62
     0
100
AcDbPoint
 10
583.143031
 20
-268.269785
 30
0.0
  0
ENDBLK
  5
1A1
100
AcDbEntity
  8
0
100
AcDbBlockEnd
  0
BLOCK
  5
1A3
100
AcDbEntity
  8
0
100
AcDbBlockBegin
  2
*D24
 70
     1
 10
0.0
 20
0.0
 30
0.0
  3
*D24
  1

  0
LINE
  5
1A4
100
AcDbEntity
  8
0
  6
BYBLOCK
 62
     1
100
AcDbLine
 10
595.515441
 20
-251.269785
 30
0.0
 11
595.515441
 21
-242.57825
 31
0.0
  0
LINE
  5
1A5
100
AcDbEntity
  8
0
  6
BYBLOCK
 62
     1
100
AcDbLine
 10
615.515441
 20
-250.911041
 30
0.0
 11
615.515441
 21
-242.57825
 31
0.0
  0
LINE
  5
1A6
100
AcDbEntity
  8
0
  6
BYBLOCK
 62
     1
100
AcDbLine
 10
597.515441
 20
-244.07825
 30
0.0
 11
613.515441
 21
-244.07825
 31
0.0
  0
INSERT
  5
1A7
100
AcDbEntity
  8
0
  6
BYBLOCK
 62
     1
100
AcDbBlockReference
  2
_OPEN30
 10
595.515441
 20
-244.07825
 30
0.0
 41
2.0
 42
2.0
 43
2.0
 50
180.0
  0
INSERT
  5
1A8
100
AcDbEntity
  8
0
  6
BYBLOCK
 62
     1
100
AcDbBlockReference
  2
_OPEN30
 10
615.515441
 20
-244.07825
 30
0.0
 41
2.0
 42
2.0
 43
2.0
  0
MTEXT
  5
1A9
100
AcDbEntity
  8
0
  6
BYBLOCK
 62
     3
100
AcDbMText
 10
605.515441
 20
-241.57825
 30
0.0
 40
3.0
 41
0.0
 71
     5
 72
     1
  1
\A1;20
  0
POINT
  5
1AA
100
AcDbEntity
  8
DEFPOINTS
  6
BYBLOCK
 62
     0
100
AcDbPoint
 10
595.515441
 20
-252.269785
 30
0.0
  0
POINT
  5
1AB
100
AcDbEntity
  8
DEFPOINTS
  6
BYBLOCK
 62
     0
100
AcDbPoint
 10
615.515441
 20
-251.911041
 30
0.0
  0
POINT
  5
1AC
100
AcDbEntity
  8
DEFPOINTS
  6
BYBLOCK
 62
     0
100
AcDbPoint
 10
615.515441
 20
-244.07825
 30
0.0
  0
ENDBLK
  5
1AD
100
AcDbEntity
  8
0
100
AcDbBlockEnd
  0
BLOCK
  5
1F3
100
AcDbEntity
  8
0
100
AcDbBlockBegin
  2
*D25
 70
     1
 10
0.0
 20
0.0
 30
0.0
  3
*D25
  1

  0
LINE
  5
1F4
100
AcDbEntity
  8
0
  6
BYBLOCK
 62
     1
100
AcDbLine
 10
595.515441
 20
-228.351616
 30
0.0
 11
595.515441
 21
-229.942514
 31
0.0
  0
ARC
  5
1F5
100
AcDbEntity
  8
0
  6
BYBLOCK
 62
     1
100
AcDbCircle
 10
595.515441
 20
-216.030673
 30
0.0
 40
12.411841
100
AcDbArc
 50
279.242456
 51
351.757544
  0
INSERT
  5
1F6
100
AcDbEntity
  8
0
  6
BYBLOCK
 62
     1
100
AcDbBlockReference
  2
_OPEN30
 10
595.515441
 20
-228.442514
 30
0.0
 41
2.0
 42
2.0
 43
2.0
 50
184.621228
  0
INSERT
  5
1F7
100
AcDbEntity
  8
0
  6
BYBLOCK
 62
     1
100
AcDbBlockReference
  2
_OPEN30
 10
607.925391
 20
-215.814057
 30
0.0
 41
2.0
 42
2.0
 43
2.0
 50
86.378772
  0
MTEXT
  5
1F8
100
AcDbEntity
  8
0
  6
BYBLOCK
 62
     3
100
AcDbMText
 10
602.585066
 20
-222.977974
 30
0.0
 40
3.0
 41
0.0
 71
     5
 72
     1
  1
\A1;91°
 11
0.700909
 21
0.71325
 31
0.0
  0
POINT
  5
1F9
100
AcDbEntity
  8
DEFPOINTS
  6
BYBLOCK
 62
     0
100
AcDbPoint
 10
601.783791
 20
-226.743356
 30
0.0
  0
POINT
  5
1FA
100
AcDbEntity
  8
DEFPOINTS
  6
BYBLOCK
 62
     0
100
AcDbPoint
 10
594.929891
 20
-216.040894
 30
0.0
  0
POINT
  5
1FB
100
AcDbEntity
  8
DEFPOINTS
  6
BYBLOCK
 62
     0
100
AcDbPoint
 10
595.515441
 20
-216.016833
 30
0.0
  0
POINT
  5
1FC
100
AcDbEntity
  8
DEFPOINTS
  6
BYBLOCK
 62
     0
100
AcDbPoint
 10
595.515441
 20
-227.351616
 30
0.0
  0
POINT
  5
1FD
100
AcDbEntity
  8
DEFPOINTS
  6
BYBLOCK
 62
     0
100
AcDbPoint
 10
610.039733
 20
-215.777151
 30
0.0
  0
ENDBLK
  5
1FE
100
AcDbEntity
  8
0
100
AcDbBlockEnd
  0
BLOCK
  5
1BC
100
AcDbEntity
  8
0
100
AcDbBlockBegin
  2
*D26
 70
     1
 10
0.0
 20
0.0
 30
0.0
  3
*D26
  1

  0
LINE
  5
1BD
100
AcDbEntity
  8
0
  6
BYBLOCK
 62
     1
100
AcDbLine
 10
696.515441
 20
-252.269785
 30
0.0
 11
706.818286
 21
-252.269785
 31
0.0
  0
LINE
  5
1BE
100
AcDbEntity
  8
0
  6
BYBLOCK
 62
     1
100
AcDbLine
 10
696.515441
 20
-268.269785
 30
0.0
 11
706.818286
 21
-268.269785
 31
0.0
  0
LINE
  5
1BF
100
AcDbEntity
  8
0
  6
BYBLOCK
 62
     1
100
AcDbLine
 10
705.318286
 20
-254.269785
 30
0.0
 11
705.318286
 21
-266.269785
 31
0.0
  0
INSERT
  5
1C0
100
AcDbEntity
  8
0
  6
BYBLOCK
 62
     1
100
AcDbBlockReference
  2
_OPEN30
 10
705.318286
 20
-252.269785
 30
0.0
 41
2.0
 42
2.0
 43
2.0
 50
90.0
  0
INSERT
  5
1C1
100
AcDbEntity
  8
0
  6
BYBLOCK
 62
     1
100
AcDbBlockReference
  2
_OPEN30
 10
705.318286
 20
-268.269785
 30
0.0
 41
2.0
 42
2.0
 43
2.0
 50
270.0
  0
MTEXT
  5
1C2
100
AcDbEntity
  8
0
  6
BYBLOCK
 62
     3
100
AcDbMText
 10
702.818286
 20
-260.269785
 30
0.0
 40
3.0
 41
0.0
 71
     5
 72
     1
  1
\A1;16
 11
0.0
 21
1.0
 31
0.0
  0
POINT
  5
1C3
100
AcDbEntity
  8
DEFPOINTS
  6
BYBLOCK
 62
     0
100
AcDbPoint
 10
695.515441
 20
-252.269785
 30
0.0
  0
POINT
  5
1C4
100
AcDbEntity
  8
DEFPOINTS
  6
BYBLOCK
 62
     0
100
AcDbPoint
 10
695.515441
 20
-268.269785
 30
0.0
  0
POINT
  5
1C5
100
AcDbEntity
  8
DEFPOINTS
  6
BYBLOCK
 62
     0
100
AcDbPoint
 10
705.318286
 20
-268.269785
 30
0.0
  0
ENDBLK
  5
1C6
100
AcDbEntity
  8
0
100
AcDbBlockEnd
  0
ENDSEC
  0
SECTION
  2
ENTITIES
  0
DIMENSION
  5
5C
100
AcDbEntity
  8
寸法
  6
CONTINUOUS
100
AcDbDimension
  2
*D19
 10
585.93987
 20
-216.016833
 30
0.0
 11
583.43987
 21
-206.016833
 31
0.0
 70
    32
  3
STANDARD
100
AcDbAlignedDimension
 13
606.093138
 23
-196.016833
 33
0.0
 14
595.515441
 24
-216.016833
 34
0.0
 50
90.0
100
AcDbRotatedDimension
1001
ACAD
1000
DSTYLE
1002
{
1070
    40
1040
1.0
1002
}
  0
DIMENSION
  5
6A
100
AcDbEntity
  8
寸法
  6
CONTINUOUS
100
AcDbDimension
  2
*D20
 10
706.004259
 20
-212.016833
 30
0.0
 11
703.504259
 21
-204.016833
 31
0.0
 70
    32
  3
STANDARD
100
AcDbAlignedDimension
 13
695.515441
 23
-196.016833
 33
0.0
 14
695.515441
 24
-212.016833
 34
0.0
 50
90.0
100
AcDbRotatedDimension
1001
ACAD
1000
DSTYLE
1002
{
1070
    40
1040
1.0
1002
}
  0
DIMENSION
  5
77
100
AcDbEntity
  8
寸法
  6
CONTINUOUS
100
AcDbDimension
  2
*D21
 10
564.077263
 20
-231.79004
 30
0.0
 11
555.806974
 21
-225.569823
 31
0.0
 70
    34
  3
STANDARD
100
AcDb2LineAngularDimension
 13
566.264479
 23
-191.016833
 33
0.0
 14
564.077263
 24
-216.016833
 34
0.0
 15
564.077263
 25
-216.016833
 35
0.0
 16
563.658984
 26
-230.392133
 36
0.0
1001
ACAD
1000
DSTYLE
1002
{
1070
    40
1040
1.0
1002
}
  0
LINE
  5
88
100
AcDbEntity
  8
外形
  6
CONTINUOUS
100
AcDbLine
 10
615.05733
 20
-196.016833
 30
0.0
 11
615.515441
 21
-212.373278
 31
0.0
  0
LINE
  5
8A
100
AcDbEntity
  8
外形
  6
CONTINUOUS
100
AcDbLine
 10
610.711505
 20
-214.565242
 30
0.0
 11
602.928176
 21
-201.611607
 31
0.0
  0
LINE
  5
8B
100
AcDbEntity
  8
外形
  6
CONTINUOUS
100
AcDbLine
 10
548.077263
 20
-215.11683
 30
0.0
 11
548.077263
 21
-196.016833
 31
0.0
  0
LINE
  5
8C
100
AcDbEntity
  8
外形
  6
CONTINUOUS
100
AcDbLine
 10
695.515441
 20
-196.016833
 30
0.0
 11
695.515441
 21
-212.016833
 31
0.0
  0
LINE
  5
8D
100
AcDbEntity
  8
外形
  6
CONTINUOUS
100
AcDbLine
 10
596.409891
 20
-206.016833
 30
0.0
 11
596.409891
 21
-213.371315
 31
0.0
  0
LINE
  5
8E
100
AcDbEntity
  8
外形
  6
CONTINUOUS
100
AcDbLine
 10
602.256404
 20
-202.823516
 30
0.0
 11
595.601663
 21
-214.828985
 31
0.0
  0
LINE
  5
8F
100
AcDbEntity
  8
外形
  6
CONTINUOUS
100
AcDbLine
 10
610.711505
 20
-214.565242
 30
0.0
 11
603.641834
 21
-202.799333
 31
0.0
  0
CIRCLE
  5
90
100
AcDbEntity
  8
外形
  6
CONTINUOUS
100
AcDbCircle
 10
609.387614
 20
-203.363697
 30
0.0
 40
3.0
  0
LINE
  5
91
100
AcDbEntity
  8
外形
  6
CONTINUOUS
100
AcDbLine
 10
615.515441
 20
-212.373278
 30
0.0
 11
615.515441
 21
-196.016833
 31
0.0
  0
LINE
  5
92
100
AcDbEntity
  8
外形
  6
CONTINUOUS
100
AcDbLine
 10
565.827036
 20
-196.016833
 30
0.0
 11
564.077263
 21
-216.016833
 31
0.0
  0
DIMENSION
  5
A3
100
AcDbEntity
  8
寸法
  6
CONTINUOUS
100
AcDbDimension
  2
*D22
 10
695.515441
 20
-234.895529
 30
0.0
 11
645.515441
 21
-232.395529
 31
0.0
 70
    32
  3
STANDARD
100
AcDbAlignedDimension
 13
595.515441
 23
-216.016833
 33
0.0
 14
695.515441
 24
-211.016833
 34
0.0
100
AcDbRotatedDimension
1001
ACAD
1000
DSTYLE
1002
{
1070
    40
1040
1.0
1002
}
  0
LINE
  5
B0
100
AcDbEntity
  8
外形
  6
CONTINUOUS
100
AcDbLine
 10
695.515441
 20
-212.016833
 30
0.0
 11
616.280841
 21
-212.016833
 31
0.0
  0
LINE
  5
B1
100
AcDbEntity
  8
外形
  6
CONTINUOUS
100
AcDbLine
 10
596.409663
 20
-268.269785
 30
0.0
 11
695.515441
 21
-268.269785
 31
0.0
  0
LINE
  5
B2
100
AcDbEntity
  8
外形
  6
CONTINUOUS
100
AcDbLine
 10
695.515441
 20
-252.269785
 30
0.0
 11
616.282768
 21
-252.269785
 31
0.0
  0
TEXT
  5
B3
100
AcDbEntity
  8
外形
  6
CONTINUOUS
 62
     2
100
AcDbText
 10
579.235146
 20
-296.370592
 30
0.0
 40
6.0
  1
PTGN R1616-33
100
AcDbText
  0
LINE
  5
B4
100
AcDbEntity
  8
寸法
  6
CONTINUOUS
100
AcDbLine
 10
595.515441
 20
-216.016833
 30
0.0
 11
564.077263
 21
-216.016833
 31
0.0
  0
LINE
  5
B5
100
AcDbEntity
  8
外形
  6
CONTINUOUS
100
AcDbLine
 10
548.077263
 20
-215.11683
 30
0.0
 11
556.667507
 21
-215.11683
 31
0.0
  0
LINE
  5
B6
100
AcDbEntity
  8
寸法
  6
CONTINUOUS
100
AcDbLine
 10
564.077263
 20
-216.016833
 30
0.0
 11
564.077263
 21
-231.79004
 31
0.0
  0
LINE
  5
B7
100
AcDbEntity
  8
外形
  6
CONTINUOUS
100
AcDbLine
 10
564.077263
 20
-216.016833
 30
0.0
 11
559.335376
 21
-215.601972
 31
0.0
  0
LINE
  5
B8
100
AcDbEntity
  8
外形
  6
CONTINUOUS
100
AcDbLine
 10
564.559676
 20
-210.502829
 30
0.0
 11
557.161537
 21
-209.855575
 31
0.0
  0
LINE
  5
B9
100
AcDbEntity
  8
外形
  6
CONTINUOUS
100
AcDbLine
 10
564.593149
 20
-210.120226
 30
0.0
 11
557.19501
 21
-209.472972
 31
0.0
  0
LINE
  5
BA
100
AcDbEntity
  8
外形
  6
CONTINUOUS
100
AcDbLine
 10
557.161537
 20
-209.470044
 30
0.0
 11
556.64674
 21
-215.354199
 31
0.0
  0
LINE
  5
BB
100
AcDbEntity
  8
外形
  6
CONTINUOUS
100
AcDbLine
 10
559.817789
 20
-210.087967
 30
0.0
 11
559.335376
 21
-215.601972
 31
0.0
  0
LINE
  5
BC
100
AcDbEntity
  8
外形
  6
CONTINUOUS
100
AcDbLine
 10
559.336466
 20
-215.589519
 30
0.0
 11
556.64674
 21
-215.354199
 31
0.0
  0
DIMENSION
  5
CB
100
AcDbEntity
  8
寸法
  6
CONTINUOUS
100
AcDbDimension
  2
*D23
 10
583.143031
 20
-268.269785
 30
0.0
 11
580.643031
 21
-260.269785
 31
0.0
 70
    32
  3
STANDARD
100
AcDbAlignedDimension
 13
595.515441
 23
-252.269785
 33
0.0
 14
596.409663
 24
-268.269785
 34
0.0
 50
90.0
100
AcDbRotatedDimension
1001
ACAD
1000
DSTYLE
1002
{
1070
    40
1040
1.0
1002
}
  0
LINE
  5
D8
100
AcDbEntity
  8
外形
  6
CONTINUOUS
100
AcDbLine
 10
615.05733
 20
-250.560091
 30
0.0
 11
615.05733
 21
-268.269785
 31
0.0
  0
LINE
  5
D9
100
AcDbEntity
  8
外形
  6
CONTINUOUS
100
AcDbLine
 10
615.515441
 20
-251.911041
 30
0.0
 11
615.515441
 21
-268.269785
 31
0.0
  0
LINE
  5
DA
100
AcDbEntity
  8
外形
  6
CONTINUOUS
100
AcDbLine
 10
596.409663
 20
-259.680047
 30
0.0
 11
596.409663
 21
-268.269785
 31
0.0
  0
DIMENSION
  5
DB
100
AcDbEntity
  8
寸法
  6
CONTINUOUS
100
AcDbDimension
  2
*D24
 10
615.515441
 20
-244.07825
 30
0.0
 11
605.515441
 21
-241.57825
 31
0.0
 70
    32
  3
STANDARD
100
AcDbAlignedDimension
 13
595.515441
 23
-252.269785
 33
0.0
 14
615.515441
 24
-251.911041
 34
0.0
100
AcDbRotatedDimension
1001
ACAD
1000
DSTYLE
1002
{
1070
    40
1040
1.0
1002
}
  0
LINE
  5
E8
100
AcDbEntity
  8
外形
  6
CONTINUOUS
100
AcDbLine
 10
595.942755
 20
-257.010582
 30
0.0
 11
596.178075
 21
-259.700308
 31
0.0
  0
LINE
  5
E9
100
AcDbEntity
  8
外形
  6
CONTINUOUS
100
AcDbLine
 10
611.231551
 20
-255.672986
 30
0.0
 11
595.930302
 21
-257.011672
 31
0.0
  0
LINE
  5
EA
100
AcDbEntity
  8
外形
  6
CONTINUOUS
100
AcDbLine
 10
615.05733
 20
-250.560091
 30
0.0
 11
595.515441
 21
-252.269785
 31
0.0
  0
LINE
  5
F9
100
AcDbEntity
  8
外形
  6
CONTINUOUS
100
AcDbLine
 10
595.515441
 20
-252.269785
 30
0.0
 11
595.930302
 21
-257.011672
 31
0.0
  0
LINE
  5
FA
100
AcDbEntity
  8
外形
  6
CONTINUOUS
100
AcDbLine
 10
611.454419
 20
-258.363801
 30
0.0
 11
596.178075
 21
-259.700308
 31
0.0
  0
LINE
  5
FB
100
AcDbEntity
  8
外形
  6
CONTINUOUS
100
AcDbLine
 10
610.816689
 20
-250.931099
 30
0.0
 11
611.231551
 21
-255.672986
 31
0.0
  0
LINE
  5
FC
100
AcDbEntity
  8
外形
  6
CONTINUOUS
100
AcDbLine
 10
611.219098
 20
-255.674075
 30
0.0
 11
611.454419
 21
-258.363801
 31
0.0
  0
LINE
  5
FD
100
AcDbEntity
  8
外形
  6
CONTINUOUS
100
AcDbLine
 10
615.316842
 20
-251.528604
 30
0.0
 11
615.05733
 21
-250.560091
 31
0.0
  0
ARC
  5
FE
100
AcDbEntity
  8
外形
  6
CONTINUOUS
100
AcDbCircle
 10
616.282768
 20
-251.269785
 30
0.0
 40
1.0
100
AcDbArc
 50
195.0
 51
270.0
  0
DIMENSION
  5
10F
100
AcDbEntity
  8
寸法
  6
CONTINUOUS
100
AcDbDimension
  2
*D25
 10
610.039733
 20
-215.777151
 30
0.0
 11
602.585066
 21
-222.977974
 31
0.0
 70
    34
  3
STANDARD
100
AcDb2LineAngularDimension
 13
595.515441
 23
-216.016833
 33
0.0
 14
595.515441
 24
-227.351616
 34
0.0
 15
594.929891
 25
-216.040894
 35
0.0
 16
601.783791
 26
-226.743356
 36
0.0
1001
ACAD
1000
DSTYLE
1002
{
1070
    40
1040
1.0
1002
}
  0
ARC
  5
11D
100
AcDbEntity
  8
外形
  6
CONTINUOUS
100
AcDbCircle
 10
596.301359
 20
-215.216833
 30
0.0
 40
0.8
100
AcDbArc
 50
151.0
 51
271.0
  0
LINE
  5
11E
100
AcDbEntity
  8
寸法
  6
CONTINUOUS
100
AcDbLine
 10
595.515441
 20
-216.016833
 30
0.0
 11
595.515441
 21
-227.351616
 31
0.0
  0
LINE
  5
122
100
AcDbEntity
  8
外形
  6
CONTINUOUS
100
AcDbLine
 10
596.315321
 20
-216.016711
 30
0.0
 11
610.039733
 21
-215.777151
 31
0.0
  0
LINE
  5
123
100
AcDbEntity
  8
外形
  6
CONTINUOUS
100
AcDbLine
 10
597.847472
 20
-210.777438
 30
0.0
 11
596.409891
 21
-210.120226
 31
0.0
  0
CIRCLE
  5
125
100
AcDbEntity
  8
外形
  6
CONTINUOUS
100
AcDbCircle
 10
603.09441
 20
-211.135156
 30
0.0
 40
1.905
  0
LINE
  5
126
100
AcDbEntity
  8
外形
  6
CONTINUOUS
100
AcDbLine
 10
610.79316
 20
-214.764255
 30
0.0
 11
614.801719
 21
-214.673288
 31
0.0
  0
ARC
  5
127
100
AcDbEntity
  8
外形
  6
CONTINUOUS
100
AcDbCircle
 10
616.280841
 20
-213.016833
 30
0.0
 40
1.0
100
AcDbArc
 50
90.0
 51
165.0
  0
LINE
  5
128
100
AcDbEntity
  8
外形
  6
CONTINUOUS
100
AcDbLine
 10
615.314915
 20
-212.758014
 30
0.0
 11
614.801719
 21
-214.673288
 31
0.0
  0
ARC
  5
129
100
AcDbEntity
  8
外形
  6
CONTINUOUS
100
AcDbCircle
 10
610.025771
 20
-214.977272
 30
0.0
 40
0.8
100
AcDbArc
 50
271.0
 51
31.0
  0
DIMENSION
  5
12A
100
AcDbEntity
  8
寸法
  6
CONTINUOUS
100
AcDbDimension
  2
*D26
 10
705.318286
 20
-268.269785
 30
0.0
 11
702.818286
 21
-260.269785
 31
0.0
 70
    32
  3
STANDARD
100
AcDbAlignedDimension
 13
695.515441
 23
-252.269785
 33
0.0
 14
695.515441
 24
-268.269785
 34
0.0
 50
90.0
100
AcDbRotatedDimension
1001
ACAD
1000
DSTYLE
1002
{
1070
    40
1040
1.0
1002
}
  0
LINE
  5
137
100
AcDbEntity
  8
外形
  6
CONTINUOUS
100
AcDbLine
 10
695.515441
 20
-268.269785
 30
0.0
 11
695.515441
 21
-252.269785
 31
0.0
  0
LINE
  5
138
100
AcDbEntity
  8
外形
  6
CONTINUOUS
100
AcDbLine
 10
695.515441
 20
-196.016833
 30
0.0
 11
605.507589
 21
-196.016833
 31
0.0
  0
LINE
  5
139
100
AcDbEntity
  8
外形
  6
CONTINUOUS
100
AcDbLine
 10
564.952149
 20
-206.016833
 30
0.0
 11
548.077263
 21
-206.016833
 31
0.0
  0
LINE
  5
13A
100
AcDbEntity
  8
外形
  6
CONTINUOUS
100
AcDbLine
 10
548.077263
 20
-201.016833
 30
0.0
 11
565.389593
 21
-201.016833
 31
0.0
  0
LINE
  5
13B
100
AcDbEntity
  8
外形
  6
CONTINUOUS
100
AcDbLine
 10
548.077263
 20
-196.016833
 30
0.0
 11
565.827036
 21
-196.016833
 31
0.0
  0
CIRCLE
  5
13C
100
AcDbEntity
  8
外形
  6
CONTINUOUS
100
AcDbCircle
 10
609.387614
 20
-203.363697
 30
0.0
 40
2.4585
  0
ARC
  5
13D
100
AcDbEntity
  8
外形
  6
CONTINUOUS
100
AcDbCircle
 10
601.213841
 20
-202.641683
 30
0.0
 40
2.0
100
AcDbArc
 50
31.0
 51
211.0
  0
LINE
  5
13E
100
AcDbEntity
  8
外形
  6
CONTINUOUS
100
AcDbLine
 10
600.688936
 20
-205.651302
 30
0.0
 11
599.499507
 21
-203.671759
 31
0.0
  0
LINE
  5
13F
100
AcDbEntity
  8
外形
  6
CONTINUOUS
100
AcDbLine
 10
605.507589
 20
-196.016833
 30
0.0
 11
596.847335
 21
-201.016833
 31
0.0
  0
ARC
  5
140
100
AcDbEntity
  8
外形
  6
CONTINUOUS
100
AcDbCircle
 10
602.9561
 20
-203.211363
 30
0.0
 40
0.8
100
AcDbArc
 50
31.0
 51
151.0
  0
LINE
  5
141
100
AcDbEntity
  8
外形
  6
CONTINUOUS
100
AcDbLine
 10
596.847335
 20
-201.016833
 30
0.0
 11
596.409891
 21
-206.016833
 31
0.0
  0
LWPOLYLINE
  5
142
100
AcDbEntity
  8
外形
  6
CONTINUOUS
100
AcDbPolyline
 90
        6
 70
     1
 43
0.0
 10
607.966166
 20
-203.113057
 10
608.45983
 20
-204.469387
 10
609.881277
 20
-204.720026
 10
610.809061
 20
-203.614336
 10
610.315398
 20
-202.258007
 10
608.89395
 20
-202.007367
  0
DIMENSION
  5
15C
100
AcDbEntity
  8
寸法
  6
CONTINUOUS
100
AcDbDimension
  2
*D17
 10
616.282768
 20
-252.269785
 30
0.0
 11
591.580393
 21
-244.545068
 31
0.0
 70
   162
  3
STANDARD
100
AcDb2LineAngularDimension
 13
615.05733
 23
-250.560091
 33
0.0
 14
595.515441
 24
-252.269785
 34
0.0
 15
695.515441
 25
-252.269785
 35
0.0
 16
586.860861
 26
-252.773857
 36
0.0
  0
ENDSEC
  0
SECTION
  2
OBJECTS
  0
DICTIONARY
  5
1A
100
AcDbDictionary
  3
ACAD_GROUP
350
18
  3
ACAD_MLINESTYLE
350
19
  0
DICTIONARY
  5
18
102
{ACAD_REACTORS
330
1A
102
}
100
AcDbDictionary
  0
DICTIONARY
  5
19
102
{ACAD_REACTORS
330
1A
102
}
100
AcDbDictionary
  3
STANDARD
350
1C
  0
MLINESTYLE
  5
1C
102
{ACAD_REACTORS
330
19
102
}
100
AcDbMlineStyle
  2
STANDARD
 70
     0
  3

 62
     0
 51
90.0
 52
90.0
 71
     2
 49
0.5
 62
   256
  6
BYLAYER
 49
-0.5
 62
   256
  6
BYLAYER
  0
ENDSEC
  0
EOF
