  0
SECTION
  2
HEADER
  9
$ACADVER
  1
AC1014
  9
$ACADMAINTVER
 70
     0
  9
$DWGCODEPAGE
  3
ANSI_932
  9
$INSBASE
 10
198.108215
 20
-126.489309
 30
0.0
  9
$EXTMIN
 10
214.338914
 20
-114.495597
 30
0.0
  9
$EXTMAX
 10
454.5657
 20
25.861674
 30
0.0
  9
$LIMMIN
 10
-587.250952
 20
327.890188
  9
$LIMMAX
 10
600.749048
 20
957.890188
  9
$ORTHOMODE
 70
     1
  9
$REGENMODE
 70
     1
  9
$FILLMODE
 70
     1
  9
$QTEXTMODE
 70
     0
  9
$MIRRTEXT
 70
     1
  9
$DRAGMODE
 70
     2
  9
$LTSCALE
 40
5.0
  9
$OSMODE
 70
    45
  9
$ATTMODE
 70
     1
  9
$TEXTSIZE
 40
4.0
  9
$TRACEWID
 40
0.05
  9
$TEXTSTYLE
  7
STANDARD
  9
$CLAYER
  8
外形
  9
$CELTYPE
  6
CONTINUOUS
  9
$CECOLOR
 62
   256
  9
$CELTSCALE
 40
1.0
  9
$DELOBJ
 70
     1
  9
$DISPSILH
 70
     0
  9
$DIMSCALE
 40
1.0
  9
$DIMASZ
 40
2.0
  9
$DIMEXO
 40
1.0
  9
$DIMDLI
 40
8.0
  9
$DIMRND
 40
0.0
  9
$DIMDLE
 40
0.0
  9
$DIMEXE
 40
1.5
  9
$DIMTP
 40
0.0
  9
$DIMTM
 40
0.0
  9
$DIMTXT
 40
3.0
  9
$DIMCEN
 40
-1.0
  9
$DIMTSZ
 40
0.0
  9
$DIMTOL
 70
     0
  9
$DIMLIM
 70
     0
  9
$DIMTIH
 70
     0
  9
$DIMTOH
 70
     0
  9
$DIMSE1
 70
     0
  9
$DIMSE2
 70
     0
  9
$DIMTAD
 70
     1
  9
$DIMZIN
 70
     8
  9
$DIMBLK
  1

  9
$DIMASO
 70
     1
  9
$DIMSHO
 70
     1
  9
$DIMPOST
  1

  9
$DIMAPOST
  1

  9
$DIMALT
 70
     0
  9
$DIMALTD
 70
     2
  9
$DIMALTF
 40
25.4
  9
$DIMLFAC
 40
1.0
  9
$DIMTOFL
 70
     1
  9
$DIMTVP
 40
0.0
  9
$DIMTIX
 70
     0
  9
$DIMSOXD
 70
     0
  9
$DIMSAH
 70
     1
  9
$DIMBLK1
  1
_OPEN30
  9
$DIMBLK2
  1
_OPEN30
  9
$DIMSTYLE
  2
STANDARD
  9
$DIMCLRD
 70
     1
  9
$DIMCLRE
 70
     1
  9
$DIMCLRT
 70
     3
  9
$DIMTFAC
 40
1.0
  9
$DIMGAP
 40
1.0
  9
$DIMJUST
 70
     0
  9
$DIMSD1
 70
     0
  9
$DIMSD2
 70
     0
  9
$DIMTOLJ
 70
     1
  9
$DIMTZIN
 70
     8
  9
$DIMALTZ
 70
     0
  9
$DIMALTTZ
 70
     0
  9
$DIMFIT
 70
     3
  9
$DIMUPT
 70
     0
  9
$DIMUNIT
 70
     2
  9
$DIMDEC
 70
     3
  9
$DIMTDEC
 70
     4
  9
$DIMALTU
 70
     2
  9
$DIMALTTD
 70
     2
  9
$DIMTXSTY
  7
STANDARD
  9
$DIMAUNIT
 70
     0
  9
$LUNITS
 70
     2
  9
$LUPREC
 70
     4
  9
$SKETCHINC
 40
0.1
  9
$FILLETRAD
 40
1.0
  9
$AUNITS
 70
     0
  9
$AUPREC
 70
     3
  9
$MENU
  1
acad
  9
$ELEVATION
 40
0.0
  9
$PELEVATION
 40
0.0
  9
$THICKNESS
 40
0.0
  9
$LIMCHECK
 70
     0
  9
$BLIPMODE
 70
     0
  9
$CHAMFERA
 40
0.0
  9
$CHAMFERB
 40
0.0
  9
$CHAMFERC
 40
0.0
  9
$CHAMFERD
 40
0.0
  9
$SKPOLY
 70
     0
  9
$TDCREATE
 40
2450751.535399305
  9
$TDUPDATE
 40
2451930.498356481
  9
$TDINDWG
 40
1.6225016204
  9
$TDUSRTIMER
 40
1.6225016204
  9
$USRTIMER
 70
     1
  9
$ANGBASE
 50
0.0
  9
$ANGDIR
 70
     0
  9
$PDMODE
 70
     0
  9
$PDSIZE
 40
0.0
  9
$PLINEWID
 40
0.0
  9
$COORDS
 70
     1
  9
$SPLFRAME
 70
     0
  9
$SPLINETYPE
 70
     5
  9
$SPLINESEGS
 70
     8
  9
$ATTDIA
 70
     0
  9
$ATTREQ
 70
     1
  9
$HANDLING
 70
     1
  9
$HANDSEED
  5
251
  9
$SURFTAB1
 70
     6
  9
$SURFTAB2
 70
     6
  9
$SURFTYPE
 70
     6
  9
$SURFU
 70
     6
  9
$SURFV
 70
     6
  9
$UCSNAME
  2

  9
$UCSORG
 10
0.0
 20
0.0
 30
0.0
  9
$UCSXDIR
 10
1.0
 20
0.0
 30
0.0
  9
$UCSYDIR
 10
0.0
 20
1.0
 30
0.0
  9
$PUCSNAME
  2

  9
$PUCSORG
 10
0.0
 20
0.0
 30
0.0
  9
$PUCSXDIR
 10
1.0
 20
0.0
 30
0.0
  9
$PUCSYDIR
 10
0.0
 20
1.0
 30
0.0
  9
$USERI1
 70
     0
  9
$USERI2
 70
     0
  9
$USERI3
 70
     0
  9
$USERI4
 70
     0
  9
$USERI5
 70
     0
  9
$USERR1
 40
0.0
  9
$USERR2
 40
0.0
  9
$USERR3
 40
0.0
  9
$USERR4
 40
0.0
  9
$USERR5
 40
0.0
  9
$WORLDVIEW
 70
     1
  9
$SHADEDGE
 70
     3
  9
$SHADEDIF
 70
    70
  9
$TILEMODE
 70
     1
  9
$MAXACTVP
 70
    16
  9
$PINSBASE
 10
0.0
 20
0.0
 30
0.0
  9
$PLIMCHECK
 70
     0
  9
$PEXTMIN
 10
1.000000E+20
 20
1.000000E+20
 30
1.000000E+20
  9
$PEXTMAX
 10
-1.000000E+20
 20
-1.000000E+20
 30
-1.000000E+20
  9
$PLIMMIN
 10
0.0
 20
0.0
  9
$PLIMMAX
 10
12.0
 20
9.0
  9
$UNITMODE
 70
     0
  9
$VISRETAIN
 70
     0
  9
$PLINEGEN
 70
     0
  9
$PSLTSCALE
 70
     1
  9
$TREEDEPTH
 70
  3020
  9
$PICKSTYLE
 70
     1
  9
$CMLSTYLE
  2
STANDARD
  9
$CMLJUST
 70
     0
  9
$CMLSCALE
 40
1.0
  9
$PROXYGRAPHICS
 70
     1
  9
$MEASUREMENT
 70
     0
  0
ENDSEC
  0
SECTION
  2
CLASSES
  0
CLASS
  1
LWPOLYLINE
  2
AcDbPolyline
  3
"AutoCAD"
 90
        0
280
     0
281
     1
  0
ENDSEC
  0
SECTION
  2
TABLES
  0
TABLE
  2
VPORT
  5
12
100
AcDbSymbolTable
 70
     3
  0
VPORT
  5
250
100
AcDbSymbolTableRecord
100
AcDbViewportTableRecord
  2
*ACTIVE
 70
     0
 10
0.0
 20
0.0
 11
1.0
 21
1.0
 12
343.792897
 22
-52.082503
 13
0.0
 23
0.0
 14
0.05
 24
0.05
 15
10.0
 25
10.0
 16
0.0
 26
0.0
 36
1.0
 17
0.0
 27
0.0
 37
0.0
 40
157.858648
 41
1.710425
 42
50.0
 43
0.0
 44
0.0
 50
0.0
 51
0.0
 71
     0
 72
   100
 73
     1
 74
     1
 75
     0
 76
     0
 77
     0
 78
     0
  0
ENDTAB
  0
TABLE
  2
LTYPE
  5
D
100
AcDbSymbolTable
 70
     1
  0
LTYPE
  5
E
100
AcDbSymbolTableRecord
100
AcDbLinetypeTableRecord
  2
BYBLOCK
 70
     0
  3

 72
    65
 73
     0
 40
0.0
  0
LTYPE
  5
F
100
AcDbSymbolTableRecord
100
AcDbLinetypeTableRecord
  2
BYLAYER
 70
     0
  3

 72
    65
 73
     0
 40
0.0
  0
LTYPE
  5
5
100
AcDbSymbolTableRecord
100
AcDbLinetypeTableRecord
  2
CONTINUOUS
 70
     0
  3
Solid line
 72
    65
 73
     0
 40
0.0
  0
ENDTAB
  0
TABLE
  2
LAYER
  5
A
100
AcDbSymbolTable
 70
     5
  0
LAYER
  5
4
100
AcDbSymbolTableRecord
100
AcDbLayerTableRecord
  2
0
 70
     0
 62
     7
  6
CONTINUOUS
  0
LAYER
  5
61
100
AcDbSymbolTableRecord
100
AcDbLayerTableRecord
  2
外形
 70
     0
 62
     3
  6
CONTINUOUS
  0
LAYER
  5
2E
100
AcDbSymbolTableRecord
100
AcDbLayerTableRecord
  2
DEFPOINTS
 70
     0
 62
     7
  6
CONTINUOUS
  0
LAYER
  5
36
100
AcDbSymbolTableRecord
100
AcDbLayerTableRecord
  2
寸法
 70
     0
 62
     1
  6
CONTINUOUS
  0
ENDTAB
  0
TABLE
  2
STYLE
  5
B
100
AcDbSymbolTable
 70
     1
  0
STYLE
  5
C
100
AcDbSymbolTableRecord
100
AcDbTextStyleTableRecord
  2
STANDARD
 70
     0
 40
0.0
 41
1.0
 50
0.0
 71
     0
 42
4.0
  3
MONOTXT
  4
BIGFONT
  0
ENDTAB
  0
TABLE
  2
VIEW
  5
10
100
AcDbSymbolTable
 70
     0
  0
ENDTAB
  0
TABLE
  2
UCS
  5
11
100
AcDbSymbolTable
 70
     0
  0
ENDTAB
  0
TABLE
  2
APPID
  5
14
100
AcDbSymbolTable
 70
     1
  0
APPID
  5
15
100
AcDbSymbolTableRecord
100
AcDbRegAppTableRecord
  2
ACAD
 70
     0
  0
ENDTAB
  0
TABLE
  2
DIMSTYLE
  5
16
100
AcDbSymbolTable
 70
     1
  0
DIMSTYLE
105
1D
102
{ACAD_REACTORS
330
50
330
9D
330
43
330
CC
330
90
330
10A
330
134
330
35
330
230
102
}
100
AcDbSymbolTableRecord
100
AcDbDimStyleTableRecord
  2
STANDARD
 70
     0
  3

  4

  5

  6
_OPEN30
  7
_OPEN30
 40
1.0
 41
2.0
 42
1.0
 43
8.0
 44
1.5
 45
0.0
 46
0.0
 47
0.0
 48
0.0
140
3.0
141
-1.0
142
0.0
143
25.4
144
1.0
145
0.0
146
1.0
147
1.0
 71
     0
 72
     0
 73
     0
 74
     0
 75
     0
 76
     0
 77
     1
 78
     8
170
     0
171
     2
172
     1
173
     1
174
     0
175
     0
176
     1
177
     1
178
     3
270
     2
271
     3
272
     4
273
     2
274
     2
340
C
275
     0
280
     0
281
     0
282
     0
283
     1
284
     8
285
     0
286
     0
287
     3
288
     0
  0
ENDTAB
  0
TABLE
  2
BLOCK_RECORD
  5
1
100
AcDbSymbolTable
 70
    27
  0
BLOCK_RECORD
  5
2
100
AcDbSymbolTableRecord
100
AcDbBlockTableRecord
  2
*MODEL_SPACE
  0
BLOCK_RECORD
  5
7
100
AcDbSymbolTableRecord
100
AcDbBlockTableRecord
  2
*PAPER_SPACE
  0
BLOCK_RECORD
  5
1E
100
AcDbSymbolTableRecord
100
AcDbBlockTableRecord
  2
_DOTSMALL
  0
BLOCK_RECORD
  5
51
100
AcDbSymbolTableRecord
100
AcDbBlockTableRecord
  2
*D1
  0
BLOCK_RECORD
  5
10B
100
AcDbSymbolTableRecord
100
AcDbBlockTableRecord
  2
*D2
  0
BLOCK_RECORD
  5
37
100
AcDbSymbolTableRecord
100
AcDbBlockTableRecord
  2
*D3
  0
BLOCK_RECORD
  5
135
100
AcDbSymbolTableRecord
100
AcDbBlockTableRecord
  2
*D4
  0
BLOCK_RECORD
  5
CD
100
AcDbSymbolTableRecord
100
AcDbBlockTableRecord
  2
*D5
  0
BLOCK_RECORD
  5
44
100
AcDbSymbolTableRecord
100
AcDbBlockTableRecord
  2
*D6
  0
BLOCK_RECORD
  5
9E
100
AcDbSymbolTableRecord
100
AcDbBlockTableRecord
  2
*D7
  0
BLOCK_RECORD
  5
91
100
AcDbSymbolTableRecord
100
AcDbBlockTableRecord
  2
*D8
  0
BLOCK_RECORD
  5
FC
100
AcDbSymbolTableRecord
100
AcDbBlockTableRecord
  2
*D9
  0
BLOCK_RECORD
  5
ED
100
AcDbSymbolTableRecord
100
AcDbBlockTableRecord
  2
*D10
  0
BLOCK_RECORD
  5
84
100
AcDbSymbolTableRecord
100
AcDbBlockTableRecord
  2
*D11
  0
BLOCK_RECORD
  5
74
100
AcDbSymbolTableRecord
100
AcDbBlockTableRecord
  2
*D12
  0
BLOCK_RECORD
  5
B1
100
AcDbSymbolTableRecord
100
AcDbBlockTableRecord
  2
*D13
  0
BLOCK_RECORD
  5
BF
100
AcDbSymbolTableRecord
100
AcDbBlockTableRecord
  2
*D14
  0
BLOCK_RECORD
  5
69
100
AcDbSymbolTableRecord
100
AcDbBlockTableRecord
  2
*D15
  0
BLOCK_RECORD
  5
26
100
AcDbSymbolTableRecord
100
AcDbBlockTableRecord
  2
*D16
  0
BLOCK_RECORD
  5
14D
100
AcDbSymbolTableRecord
100
AcDbBlockTableRecord
  2
_OPEN30
  0
BLOCK_RECORD
  5
153
100
AcDbSymbolTableRecord
100
AcDbBlockTableRecord
  2
*D18
  0
BLOCK_RECORD
  5
15F
100
AcDbSymbolTableRecord
100
AcDbBlockTableRecord
  2
*D19
  0
BLOCK_RECORD
  5
16B
100
AcDbSymbolTableRecord
100
AcDbBlockTableRecord
  2
*D20
  0
BLOCK_RECORD
  5
17A
100
AcDbSymbolTableRecord
100
AcDbBlockTableRecord
  2
*D21
  0
BLOCK_RECORD
  5
186
100
AcDbSymbolTableRecord
100
AcDbBlockTableRecord
  2
*D22
  0
BLOCK_RECORD
  5
192
100
AcDbSymbolTableRecord
100
AcDbBlockTableRecord
  2
*D23
  0
BLOCK_RECORD
  5
19E
100
AcDbSymbolTableRecord
100
AcDbBlockTableRecord
  2
*D24
  0
BLOCK_RECORD
  5
1AA
100
AcDbSymbolTableRecord
100
AcDbBlockTableRecord
  2
*D25
  0
BLOCK_RECORD
  5
21E
100
AcDbSymbolTableRecord
100
AcDbBlockTableRecord
  2
*D26
  0
ENDTAB
  0
ENDSEC
  0
SECTION
  2
BLOCKS
  0
BLOCK
  5
3
100
AcDbEntity
  8
0
100
AcDbBlockBegin
  2
*MODEL_SPACE
 70
     0
 10
0.0
 20
0.0
 30
0.0
  3
*MODEL_SPACE
  1

  0
ENDBLK
  5
6
100
AcDbEntity
  8
0
100
AcDbBlockEnd
  0
BLOCK
  5
8
100
AcDbEntity
 67
     1
  8
0
100
AcDbBlockBegin
  2
*PAPER_SPACE
 70
     0
 10
0.0
 20
0.0
 30
0.0
  3
*PAPER_SPACE
  1

  0
ENDBLK
  5
9
100
AcDbEntity
 67
     1
  8
0
100
AcDbBlockEnd
  0
BLOCK
  5
23
100
AcDbEntity
  8
0
100
AcDbBlockBegin
  2
_DOTSMALL
 70
     0
 10
0.0
 20
0.0
 30
0.0
  3
_DOTSMALL
  1

  0
POLYLINE
  5
1F
100
AcDbEntity
  8
0
  6
BYBLOCK
 62
     0
100
AcDb2dPolyline
 66
     1
 10
0.0
 20
0.0
 30
0.0
 70
     1
 40
0.5
 41
0.5
  0
VERTEX
  5
20
100
AcDbEntity
  8
0
  6
BYBLOCK
 62
     0
100
AcDbVertex
100
AcDb2dVertex
 10
-0.0625
 20
0.0
 30
0.0
 42
1.0
  0
VERTEX
  5
21
100
AcDbEntity
  8
0
  6
BYBLOCK
 62
     0
100
AcDbVertex
100
AcDb2dVertex
 10
0.0625
 20
0.0
 30
0.0
 42
1.0
  0
SEQEND
  5
22
100
AcDbEntity
  8
0
  6
BYBLOCK
 62
     0
  0
ENDBLK
  5
24
100
AcDbEntity
  8
0
100
AcDbBlockEnd
  0
BLOCK
  5
5E
100
AcDbEntity
  8
0
100
AcDbBlockBegin
  2
*D1
 70
     1
 10
0.0
 20
0.0
 30
0.0
  3
*D1
  1

  0
LINE
  5
52
100
AcDbEntity
  8
0
  6
BYBLOCK
 62
     1
100
AcDbLine
 10
-227.107408
 20
876.331663
 30
0.0
 11
-228.43183
 21
861.193458
 31
0.0
  0
ARC
  5
53
100
AcDbEntity
  8
0
  6
BYBLOCK
 62
     1
100
AcDbCircle
 10
-227.020253
 20
877.327858
 30
0.0
 40
14.696031
100
AcDbArc
 50
255.241397
 51
265.0
  0
LINE
  5
54
100
AcDbEntity
  8
0
  6
BYBLOCK
 62
     1
100
AcDbLine
 10
-230.764025
 20
863.116683
 30
0.0
 11
-239.080291
 21
865.307509
 31
0.0
  0
ARC
  5
55
100
AcDbEntity
  8
0
  6
BYBLOCK
 62
     1
100
AcDbCircle
 10
-227.020253
 20
877.327858
 30
0.0
 40
14.696031
100
AcDbArc
 50
265.0
 51
270.0
  0
INSERT
  5
56
100
AcDbEntity
  8
0
  6
BYBLOCK
 62
     1
100
AcDbBlockReference
  2
_DOTSMALL
 10
-228.301096
 20
862.68775
 30
0.0
 41
2.5
 42
2.5
 43
2.5
 50
175.0
  0
INSERT
  5
57
100
AcDbEntity
  8
0
  6
BYBLOCK
 62
     1
100
AcDbBlockReference
  2
_DOTSMALL
 10
-227.020253
 20
862.631827
 30
0.0
 41
2.5
 42
2.5
 43
2.5
 50
360.0
  0
MTEXT
  5
58
100
AcDbEntity
  8
0
  6
BYBLOCK
 62
     3
100
AcDbMText
 10
-234.28529
 20
866.629615
 30
0.0
 40
3.0
 41
0.0
 71
     5
 72
     1
  1
\A1;5°
 11
0.967008
 21
-0.254747
 31
0.0
  0
POINT
  5
59
100
AcDbEntity
  8
DEFPOINTS
  6
BYBLOCK
 62
     0
100
AcDbPoint
 10
-227.447683
 20
862.638045
 30
0.0
  0
POINT
  5
5A
100
AcDbEntity
  8
DEFPOINTS
  6
BYBLOCK
 62
     0
100
AcDbPoint
 10
-224.220616
 20
909.327858
 30
0.0
  0
POINT
  5
5B
100
AcDbEntity
  8
DEFPOINTS
  6
BYBLOCK
 62
     0
100
AcDbPoint
 10
-227.020253
 20
877.327858
 30
0.0
  0
POINT
  5
5C
100
AcDbEntity
  8
DEFPOINTS
  6
BYBLOCK
 62
     0
100
AcDbPoint
 10
-227.020253
 20
860.67966
 30
0.0
  0
POINT
  5
5D
100
AcDbEntity
  8
DEFPOINTS
  6
BYBLOCK
 62
     0
100
AcDbPoint
 10
-227.020253
 20
877.327858
 30
0.0
  0
ENDBLK
  5
5F
100
AcDbEntity
  8
0
100
AcDbBlockEnd
  0
BLOCK
  5
115
100
AcDbEntity
  8
0
100
AcDbBlockBegin
  2
*D2
 70
     1
 10
0.0
 20
0.0
 30
0.0
  3
*D2
  1

  0
ARC
  5
10C
100
AcDbEntity
  8
0
  6
BYBLOCK
 62
     1
100
AcDbCircle
 10
-201.912294
 20
877.314039
 30
0.0
 40
14.57153
100
AcDbArc
 50
270.0
 51
1.0
  0
INSERT
  5
10D
100
AcDbEntity
  8
0
  6
BYBLOCK
 62
     1
100
AcDbBlockReference
  2
_DOTSMALL
 10
-201.912294
 20
862.742508
 30
0.0
 41
2.5
 42
2.5
 43
2.5
 50
180.0
  0
INSERT
  5
10E
100
AcDbEntity
  8
0
  6
BYBLOCK
 62
     1
100
AcDbBlockReference
  2
_DOTSMALL
 10
-187.342983
 20
877.568347
 30
0.0
 41
2.5
 42
2.5
 43
2.5
 50
91.0
  0
MTEXT
  5
10F
100
AcDbEntity
  8
0
  6
BYBLOCK
 62
     3
100
AcDbMText
 10
-193.30227
 20
868.852991
 30
0.0
 40
3.0
 41
0.0
 71
     5
 72
     1
  1
\A1;91°
 11
0.700909
 21
0.71325
 31
0.0
  0
POINT
  5
110
100
AcDbEntity
  8
DEFPOINTS
  6
BYBLOCK
 62
     0
100
AcDbPoint
 10
-194.553237
 20
864.737323
 30
0.0
  0
POINT
  5
111
100
AcDbEntity
  8
DEFPOINTS
  6
BYBLOCK
 62
     0
100
AcDbPoint
 10
-201.912294
 20
877.327858
 30
0.0
  0
POINT
  5
112
100
AcDbEntity
  8
DEFPOINTS
  6
BYBLOCK
 62
     0
100
AcDbPoint
 10
-201.113611
 20
877.32798
 30
0.0
  0
POINT
  5
113
100
AcDbEntity
  8
DEFPOINTS
  6
BYBLOCK
 62
     0
100
AcDbPoint
 10
-181.890775
 20
877.663516
 30
0.0
  0
POINT
  5
114
100
AcDbEntity
  8
DEFPOINTS
  6
BYBLOCK
 62
     0
100
AcDbPoint
 10
-201.912294
 20
860.443787
 30
0.0
  0
ENDBLK
  5
116
100
AcDbEntity
  8
0
100
AcDbBlockEnd
  0
BLOCK
  5
41
100
AcDbEntity
  8
0
100
AcDbBlockBegin
  2
*D3
 70
     1
 10
0.0
 20
0.0
 30
0.0
  3
*D3
  1

  0
LINE
  5
38
100
AcDbEntity
  8
0
  6
BYBLOCK
 62
     1
100
AcDbLine
 10
-30.912294
 20
909.327858
 30
0.0
 11
-18.793467
 21
909.327858
 31
0.0
  0
LINE
  5
39
100
AcDbEntity
  8
0
  6
BYBLOCK
 62
     1
100
AcDbLine
 10
-30.912294
 20
884.327858
 30
0.0
 11
-18.793467
 21
884.327858
 31
0.0
  0
LINE
  5
3A
100
AcDbEntity
  8
0
  6
BYBLOCK
 62
     1
100
AcDbLine
 10
-20.293467
 20
909.327858
 30
0.0
 11
-20.293467
 21
884.327858
 31
0.0
  0
INSERT
  5
3B
100
AcDbEntity
  8
0
  6
BYBLOCK
 62
     1
100
AcDbBlockReference
  2
_DOTSMALL
 10
-20.293467
 20
909.327858
 30
0.0
 41
2.5
 42
2.5
 43
2.5
 50
90.0
  0
INSERT
  5
3C
100
AcDbEntity
  8
0
  6
BYBLOCK
 62
     1
100
AcDbBlockReference
  2
_DOTSMALL
 10
-20.293467
 20
884.327858
 30
0.0
 41
2.5
 42
2.5
 43
2.5
 50
270.0
  0
MTEXT
  5
3D
100
AcDbEntity
  8
0
  6
BYBLOCK
 62
     3
100
AcDbMText
 10
-22.793467
 20
896.827858
 30
0.0
 40
3.0
 41
0.0
 71
     5
 72
     1
  1
\A1;25
 11
0.0
 21
1.0
 31
0.0
  0
POINT
  5
3E
100
AcDbEntity
  8
DEFPOINTS
  6
BYBLOCK
 62
     0
100
AcDbPoint
 10
-31.912294
 20
909.327858
 30
0.0
  0
POINT
  5
3F
100
AcDbEntity
  8
DEFPOINTS
  6
BYBLOCK
 62
     0
100
AcDbPoint
 10
-31.912294
 20
884.327858
 30
0.0
  0
POINT
  5
40
100
AcDbEntity
  8
DEFPOINTS
  6
BYBLOCK
 62
     0
100
AcDbPoint
 10
-20.293467
 20
884.327858
 30
0.0
  0
ENDBLK
  5
42
100
AcDbEntity
  8
0
100
AcDbBlockEnd
  0
BLOCK
  5
13F
100
AcDbEntity
  8
0
100
AcDbBlockBegin
  2
*D4
 70
     1
 10
0.0
 20
0.0
 30
0.0
  3
*D4
  1

  0
LINE
  5
136
100
AcDbEntity
  8
0
  6
BYBLOCK
 62
     1
100
AcDbLine
 10
-30.912294
 20
844.407765
 30
0.0
 11
-19.945733
 21
844.407765
 31
0.0
  0
LINE
  5
137
100
AcDbEntity
  8
0
  6
BYBLOCK
 62
     1
100
AcDbLine
 10
-30.912294
 20
812.407765
 30
0.0
 11
-19.945733
 21
812.407765
 31
0.0
  0
LINE
  5
138
100
AcDbEntity
  8
0
  6
BYBLOCK
 62
     1
100
AcDbLine
 10
-21.445733
 20
844.407765
 30
0.0
 11
-21.445733
 21
812.407765
 31
0.0
  0
INSERT
  5
139
100
AcDbEntity
  8
0
  6
BYBLOCK
 62
     1
100
AcDbBlockReference
  2
_DOTSMALL
 10
-21.445733
 20
844.407765
 30
0.0
 41
2.5
 42
2.5
 43
2.5
 50
90.0
  0
INSERT
  5
13A
100
AcDbEntity
  8
0
  6
BYBLOCK
 62
     1
100
AcDbBlockReference
  2
_DOTSMALL
 10
-21.445733
 20
812.407765
 30
0.0
 41
2.5
 42
2.5
 43
2.5
 50
270.0
  0
MTEXT
  5
13B
100
AcDbEntity
  8
0
  6
BYBLOCK
 62
     3
100
AcDbMText
 10
-23.945733
 20
828.407765
 30
0.0
 40
3.0
 41
0.0
 71
     5
 72
     1
  1
\A1;32
 11
0.0
 21
1.0
 31
0.0
  0
POINT
  5
13C
100
AcDbEntity
  8
DEFPOINTS
  6
BYBLOCK
 62
     0
100
AcDbPoint
 10
-31.912294
 20
844.407765
 30
0.0
  0
POINT
  5
13D
100
AcDbEntity
  8
DEFPOINTS
  6
BYBLOCK
 62
     0
100
AcDbPoint
 10
-31.912294
 20
812.407765
 30
0.0
  0
POINT
  5
13E
100
AcDbEntity
  8
DEFPOINTS
  6
BYBLOCK
 62
     0
100
AcDbPoint
 10
-21.445733
 20
812.407765
 30
0.0
  0
ENDBLK
  5
140
100
AcDbEntity
  8
0
100
AcDbBlockEnd
  0
BLOCK
  5
D7
100
AcDbEntity
  8
0
100
AcDbBlockBegin
  2
*D5
 70
     1
 10
0.0
 20
0.0
 30
0.0
  3
*D5
  1

  0
LINE
  5
CE
100
AcDbEntity
  8
0
  6
BYBLOCK
 62
     1
100
AcDbLine
 10
-202.912294
 20
844.407765
 30
0.0
 11
-212.328704
 21
844.407765
 31
0.0
  0
LINE
  5
CF
100
AcDbEntity
  8
0
  6
BYBLOCK
 62
     1
100
AcDbLine
 10
-202.019041
 20
812.407765
 30
0.0
 11
-212.328704
 21
812.407765
 31
0.0
  0
LINE
  5
D0
100
AcDbEntity
  8
0
  6
BYBLOCK
 62
     1
100
AcDbLine
 10
-210.828704
 20
844.407765
 30
0.0
 11
-210.828704
 21
812.407765
 31
0.0
  0
INSERT
  5
D1
100
AcDbEntity
  8
0
  6
BYBLOCK
 62
     1
100
AcDbBlockReference
  2
_DOTSMALL
 10
-210.828704
 20
844.407765
 30
0.0
 41
2.5
 42
2.5
 43
2.5
 50
90.0
  0
INSERT
  5
D2
100
AcDbEntity
  8
0
  6
BYBLOCK
 62
     1
100
AcDbBlockReference
  2
_DOTSMALL
 10
-210.828704
 20
812.407765
 30
0.0
 41
2.5
 42
2.5
 43
2.5
 50
270.0
  0
MTEXT
  5
D3
100
AcDbEntity
  8
0
  6
BYBLOCK
 62
     3
100
AcDbMText
 10
-213.328704
 20
828.407765
 30
0.0
 40
3.0
 41
0.0
 71
     5
 72
     1
  1
\A1;32
 11
0.0
 21
1.0
 31
0.0
  0
POINT
  5
D4
100
AcDbEntity
  8
DEFPOINTS
  6
BYBLOCK
 62
     0
100
AcDbPoint
 10
-201.912294
 20
844.407765
 30
0.0
  0
POINT
  5
D5
100
AcDbEntity
  8
DEFPOINTS
  6
BYBLOCK
 62
     0
100
AcDbPoint
 10
-201.019041
 20
812.407765
 30
0.0
  0
POINT
  5
D6
100
AcDbEntity
  8
DEFPOINTS
  6
BYBLOCK
 62
     0
100
AcDbPoint
 10
-210.828704
 20
812.407765
 30
0.0
  0
ENDBLK
  5
D8
100
AcDbEntity
  8
0
100
AcDbBlockEnd
  0
BLOCK
  5
4E
100
AcDbEntity
  8
0
100
AcDbBlockBegin
  2
*D6
 70
     1
 10
0.0
 20
0.0
 30
0.0
  3
*D6
  1

  0
LINE
  5
45
100
AcDbEntity
  8
0
  6
BYBLOCK
 62
     1
100
AcDbLine
 10
-187.11277
 20
909.327858
 30
0.0
 11
-216.331898
 21
909.327858
 31
0.0
  0
LINE
  5
46
100
AcDbEntity
  8
0
  6
BYBLOCK
 62
     1
100
AcDbLine
 10
-202.912294
 20
877.327858
 30
0.0
 11
-216.331898
 21
877.327858
 31
0.0
  0
LINE
  5
47
100
AcDbEntity
  8
0
  6
BYBLOCK
 62
     1
100
AcDbLine
 10
-214.831898
 20
909.327858
 30
0.0
 11
-214.831898
 21
877.327858
 31
0.0
  0
INSERT
  5
48
100
AcDbEntity
  8
0
  6
BYBLOCK
 62
     1
100
AcDbBlockReference
  2
_DOTSMALL
 10
-214.831898
 20
909.327858
 30
0.0
 41
2.5
 42
2.5
 43
2.5
 50
90.0
  0
INSERT
  5
49
100
AcDbEntity
  8
0
  6
BYBLOCK
 62
     1
100
AcDbBlockReference
  2
_DOTSMALL
 10
-214.831898
 20
877.327858
 30
0.0
 41
2.5
 42
2.5
 43
2.5
 50
270.0
  0
MTEXT
  5
4A
100
AcDbEntity
  8
0
  6
BYBLOCK
 62
     3
100
AcDbMText
 10
-217.331898
 20
893.327858
 30
0.0
 40
3.0
 41
0.0
 71
     5
 72
     1
  1
\A1;32
 11
0.0
 21
1.0
 31
0.0
  0
POINT
  5
4B
100
AcDbEntity
  8
DEFPOINTS
  6
BYBLOCK
 62
     0
100
AcDbPoint
 10
-186.11277
 20
909.327858
 30
0.0
  0
POINT
  5
4C
100
AcDbEntity
  8
DEFPOINTS
  6
BYBLOCK
 62
     0
100
AcDbPoint
 10
-201.912294
 20
877.327858
 30
0.0
  0
POINT
  5
4D
100
AcDbEntity
  8
DEFPOINTS
  6
BYBLOCK
 62
     0
100
AcDbPoint
 10
-214.831898
 20
877.327858
 30
0.0
  0
ENDBLK
  5
4F
100
AcDbEntity
  8
0
100
AcDbBlockEnd
  0
BLOCK
  5
A8
100
AcDbEntity
  8
0
100
AcDbBlockBegin
  2
*D7
 70
     1
 10
0.0
 20
0.0
 30
0.0
  3
*D7
  1

  0
LINE
  5
9F
100
AcDbEntity
  8
0
  6
BYBLOCK
 62
     1
100
AcDbLine
 10
-201.912294
 20
876.327858
 30
0.0
 11
-201.912294
 21
856.810193
 31
0.0
  0
LINE
  5
A0
100
AcDbEntity
  8
0
  6
BYBLOCK
 62
     1
100
AcDbLine
 10
-31.912294
 20
883.327858
 30
0.0
 11
-31.912294
 21
856.810193
 31
0.0
  0
LINE
  5
A1
100
AcDbEntity
  8
0
  6
BYBLOCK
 62
     1
100
AcDbLine
 10
-201.912294
 20
858.310193
 30
0.0
 11
-31.912294
 21
858.310193
 31
0.0
  0
INSERT
  5
A2
100
AcDbEntity
  8
0
  6
BYBLOCK
 62
     1
100
AcDbBlockReference
  2
_DOTSMALL
 10
-201.912294
 20
858.310193
 30
0.0
 41
2.5
 42
2.5
 43
2.5
 50
180.0
  0
INSERT
  5
A3
100
AcDbEntity
  8
0
  6
BYBLOCK
 62
     1
100
AcDbBlockReference
  2
_DOTSMALL
 10
-31.912294
 20
858.310193
 30
0.0
 41
2.5
 42
2.5
 43
2.5
  0
MTEXT
  5
A4
100
AcDbEntity
  8
0
  6
BYBLOCK
 62
     3
100
AcDbMText
 10
-116.912294
 20
860.810193
 30
0.0
 40
3.0
 41
0.0
 71
     5
 72
     1
  1
\A1;170
  0
POINT
  5
A5
100
AcDbEntity
  8
DEFPOINTS
  6
BYBLOCK
 62
     0
100
AcDbPoint
 10
-201.912294
 20
877.327858
 30
0.0
  0
POINT
  5
A6
100
AcDbEntity
  8
DEFPOINTS
  6
BYBLOCK
 62
     0
100
AcDbPoint
 10
-31.912294
 20
884.327858
 30
0.0
  0
POINT
  5
A7
100
AcDbEntity
  8
DEFPOINTS
  6
BYBLOCK
 62
     0
100
AcDbPoint
 10
-31.912294
 20
858.310193
 30
0.0
  0
ENDBLK
  5
A9
100
AcDbEntity
  8
0
100
AcDbBlockEnd
  0
BLOCK
  5
9B
100
AcDbEntity
  8
0
100
AcDbBlockBegin
  2
*D8
 70
     1
 10
0.0
 20
0.0
 30
0.0
  3
*D8
  1

  0
LINE
  5
92
100
AcDbEntity
  8
0
  6
BYBLOCK
 62
     1
100
AcDbLine
 10
-201.912294
 20
845.407765
 30
0.0
 11
-201.912294
 21
852.953449
 31
0.0
  0
LINE
  5
93
100
AcDbEntity
  8
0
  6
BYBLOCK
 62
     1
100
AcDbLine
 10
-173.912294
 20
845.766509
 30
0.0
 11
-173.912294
 21
852.953449
 31
0.0
  0
LINE
  5
94
100
AcDbEntity
  8
0
  6
BYBLOCK
 62
     1
100
AcDbLine
 10
-201.912294
 20
851.453449
 30
0.0
 11
-173.912294
 21
851.453449
 31
0.0
  0
INSERT
  5
95
100
AcDbEntity
  8
0
  6
BYBLOCK
 62
     1
100
AcDbBlockReference
  2
_DOTSMALL
 10
-201.912294
 20
851.453449
 30
0.0
 41
2.5
 42
2.5
 43
2.5
 50
180.0
  0
INSERT
  5
96
100
AcDbEntity
  8
0
  6
BYBLOCK
 62
     1
100
AcDbBlockReference
  2
_DOTSMALL
 10
-173.912294
 20
851.453449
 30
0.0
 41
2.5
 42
2.5
 43
2.5
  0
MTEXT
  5
97
100
AcDbEntity
  8
0
  6
BYBLOCK
 62
     3
100
AcDbMText
 10
-187.912294
 20
853.953449
 30
0.0
 40
3.0
 41
0.0
 71
     5
 72
     1
  1
\A1;28
  0
POINT
  5
98
100
AcDbEntity
  8
DEFPOINTS
  6
BYBLOCK
 62
     0
100
AcDbPoint
 10
-201.912294
 20
844.407765
 30
0.0
  0
POINT
  5
99
100
AcDbEntity
  8
DEFPOINTS
  6
BYBLOCK
 62
     0
100
AcDbPoint
 10
-173.912294
 20
844.766509
 30
0.0
  0
POINT
  5
9A
100
AcDbEntity
  8
DEFPOINTS
  6
BYBLOCK
 62
     0
100
AcDbPoint
 10
-173.912294
 20
851.453449
 30
0.0
  0
ENDBLK
  5
9C
100
AcDbEntity
  8
0
100
AcDbBlockEnd
  0
BLOCK
  5
108
100
AcDbEntity
  8
0
100
AcDbBlockBegin
  2
*D9
 70
     1
 10
0.0
 20
0.0
 30
0.0
  3
*D9
  1

  0
LINE
  5
FD
100
AcDbEntity
  8
0
  6
BYBLOCK
 62
     1
100
AcDbLine
 10
-203.499041
 20
877.303797
 30
0.0
 11
-209.252168
 21
877.303797
 31
0.0
  0
LINE
  5
FE
100
AcDbEntity
  8
0
  6
BYBLOCK
 62
     1
100
AcDbLine
 10
-202.019041
 20
878.203797
 30
0.0
 11
-209.252168
 21
878.203797
 31
0.0
  0
LINE
  5
FF
100
AcDbEntity
  8
0
  6
BYBLOCK
 62
     1
100
AcDbLine
 10
-207.752168
 20
877.303797
 30
0.0
 11
-207.752168
 21
874.803797
 31
0.0
  0
LINE
  5
100
100
AcDbEntity
  8
0
  6
BYBLOCK
 62
     1
100
AcDbLine
 10
-207.752168
 20
878.203797
 30
0.0
 11
-207.752168
 21
893.203797
 31
0.0
  0
LINE
  5
101
100
AcDbEntity
  8
0
  6
BYBLOCK
 62
     1
100
AcDbLine
 10
-207.752168
 20
877.303797
 30
0.0
 11
-207.752168
 21
878.203797
 31
0.0
  0
INSERT
  5
102
100
AcDbEntity
  8
0
  6
BYBLOCK
 62
     1
100
AcDbBlockReference
  2
_DOTSMALL
 10
-207.752168
 20
877.303797
 30
0.0
 41
2.5
 42
2.5
 43
2.5
 50
90.0
  0
INSERT
  5
103
100
AcDbEntity
  8
0
  6
BYBLOCK
 62
     1
100
AcDbBlockReference
  2
_DOTSMALL
 10
-207.752168
 20
878.203797
 30
0.0
 41
2.5
 42
2.5
 43
2.5
 50
270.0
  0
MTEXT
  5
104
100
AcDbEntity
  8
0
  6
BYBLOCK
 62
     3
100
AcDbMText
 10
-210.252168
 20
888.203797
 30
0.0
 40
3.0
 41
0.0
 71
     5
 72
     1
  1
\A1;0.9
 11
0.0
 21
1.0
 31
0.0
  0
POINT
  5
105
100
AcDbEntity
  8
DEFPOINTS
  6
BYBLOCK
 62
     0
100
AcDbPoint
 10
-202.499041
 20
877.303797
 30
0.0
  0
POINT
  5
106
100
AcDbEntity
  8
DEFPOINTS
  6
BYBLOCK
 62
     0
100
AcDbPoint
 10
-201.019041
 20
878.203797
 30
0.0
  0
POINT
  5
107
100
AcDbEntity
  8
DEFPOINTS
  6
BYBLOCK
 62
     0
100
AcDbPoint
 10
-207.752168
 20
878.203797
 30
0.0
  0
ENDBLK
  5
109
100
AcDbEntity
  8
0
100
AcDbBlockEnd
  0
BLOCK
  5
F9
100
AcDbEntity
  8
0
100
AcDbBlockBegin
  2
*D10
 70
     1
 10
0.0
 20
0.0
 30
0.0
  3
*D10
  1

  0
LINE
  5
EE
100
AcDbEntity
  8
0
  6
BYBLOCK
 62
     1
100
AcDbLine
 10
-201.019041
 20
877.203797
 30
0.0
 11
-201.019041
 21
868.413389
 31
0.0
  0
LINE
  5
EF
100
AcDbEntity
  8
0
  6
BYBLOCK
 62
     1
100
AcDbLine
 10
-202.498812
 20
876.295078
 30
0.0
 11
-202.498812
 21
868.413389
 31
0.0
  0
LINE
  5
F0
100
AcDbEntity
  8
0
  6
BYBLOCK
 62
     1
100
AcDbLine
 10
-201.019041
 20
869.913389
 30
0.0
 11
-198.519041
 21
869.913389
 31
0.0
  0
LINE
  5
F1
100
AcDbEntity
  8
0
  6
BYBLOCK
 62
     1
100
AcDbLine
 10
-202.498812
 20
869.913389
 30
0.0
 11
-220.498812
 21
869.913389
 31
0.0
  0
LINE
  5
F2
100
AcDbEntity
  8
0
  6
BYBLOCK
 62
     1
100
AcDbLine
 10
-201.019041
 20
869.913389
 30
0.0
 11
-202.498812
 21
869.913389
 31
0.0
  0
INSERT
  5
F3
100
AcDbEntity
  8
0
  6
BYBLOCK
 62
     1
100
AcDbBlockReference
  2
_DOTSMALL
 10
-201.019041
 20
869.913389
 30
0.0
 41
2.5
 42
2.5
 43
2.5
 50
180.0
  0
INSERT
  5
F4
100
AcDbEntity
  8
0
  6
BYBLOCK
 62
     1
100
AcDbBlockReference
  2
_DOTSMALL
 10
-202.498812
 20
869.913389
 30
0.0
 41
2.5
 42
2.5
 43
2.5
  0
MTEXT
  5
F5
100
AcDbEntity
  8
0
  6
BYBLOCK
 62
     3
100
AcDbMText
 10
-213.998812
 20
872.413389
 30
0.0
 40
3.0
 41
0.0
 71
     5
 72
     1
  1
\A1;1.48
  0
POINT
  5
F6
100
AcDbEntity
  8
DEFPOINTS
  6
BYBLOCK
 62
     0
100
AcDbPoint
 10
-201.019041
 20
878.203797
 30
0.0
  0
POINT
  5
F7
100
AcDbEntity
  8
DEFPOINTS
  6
BYBLOCK
 62
     0
100
AcDbPoint
 10
-202.498812
 20
877.295078
 30
0.0
  0
POINT
  5
F8
100
AcDbEntity
  8
DEFPOINTS
  6
BYBLOCK
 62
     0
100
AcDbPoint
 10
-202.498812
 20
869.913389
 30
0.0
  0
ENDBLK
  5
FA
100
AcDbEntity
  8
0
100
AcDbBlockEnd
  0
BLOCK
  5
8E
100
AcDbEntity
  8
0
100
AcDbBlockBegin
  2
*D11
 70
     1
 10
0.0
 20
0.0
 30
0.0
  3
*D11
  1

  0
LINE
  5
85
100
AcDbEntity
  8
0
  6
BYBLOCK
 62
     1
100
AcDbLine
 10
-190.83587
 20
883.21546
 30
0.0
 11
-175.00996
 21
870.399891
 31
0.0
  0
LINE
  5
86
100
AcDbEntity
  8
0
  6
BYBLOCK
 62
     1
100
AcDbLine
 10
-182.025384
 20
894.095504
 30
0.0
 11
-166.199475
 21
881.279935
 31
0.0
  0
LINE
  5
87
100
AcDbEntity
  8
0
  6
BYBLOCK
 62
     1
100
AcDbLine
 10
-176.175679
 20
871.343872
 30
0.0
 11
-167.365194
 21
882.223915
 31
0.0
  0
INSERT
  5
88
100
AcDbEntity
  8
0
  6
BYBLOCK
 62
     1
100
AcDbBlockReference
  2
_DOTSMALL
 10
-176.175679
 20
871.343872
 30
0.0
 41
2.5
 42
2.5
 43
2.5
 50
231.0
  0
INSERT
  5
89
100
AcDbEntity
  8
0
  6
BYBLOCK
 62
     1
100
AcDbBlockReference
  2
_DOTSMALL
 10
-167.365194
 20
882.223915
 30
0.0
 41
2.5
 42
2.5
 43
2.5
 50
51.0
  0
MTEXT
  5
8A
100
AcDbEntity
  8
0
  6
BYBLOCK
 62
     3
100
AcDbMText
 10
-173.713301
 20
878.357194
 30
0.0
 40
3.0
 41
0.0
 71
     5
 72
     1
  1
\A1;14
 11
0.62932
 21
0.777146
 31
0.0
  0
POINT
  5
8B
100
AcDbEntity
  8
DEFPOINTS
  6
BYBLOCK
 62
     0
100
AcDbPoint
 10
-191.613016
 20
883.844781
 30
0.0
  0
POINT
  5
8C
100
AcDbEntity
  8
DEFPOINTS
  6
BYBLOCK
 62
     0
100
AcDbPoint
 10
-182.80253
 20
894.724824
 30
0.0
  0
POINT
  5
8D
100
AcDbEntity
  8
DEFPOINTS
  6
BYBLOCK
 62
     0
100
AcDbPoint
 10
-167.365194
 20
882.223915
 30
0.0
  0
ENDBLK
  5
8F
100
AcDbEntity
  8
0
100
AcDbBlockEnd
  0
BLOCK
  5
81
100
AcDbEntity
  8
0
100
AcDbBlockBegin
  2
*D12
 70
     1
 10
0.0
 20
0.0
 30
0.0
  3
*D12
  1

  0
LINE
  5
75
100
AcDbEntity
  8
0
  6
BYBLOCK
 62
     1
100
AcDbLine
 10
-173.557455
 20
846.888492
 30
0.0
 11
-159.705465
 21
848.100384
 31
0.0
  0
ARC
  5
76
100
AcDbEntity
  8
0
  6
BYBLOCK
 62
     1
100
AcDbCircle
 10
-201.912294
 20
844.407765
 30
0.0
 40
40.868053
100
AcDbArc
 50
356.494529
 51
360.0
  0
LINE
  5
77
100
AcDbEntity
  8
0
  6
BYBLOCK
 62
     1
100
AcDbLine
 10
-161.120707
 20
841.908934
 30
0.0
 11
-161.646544
 21
833.325025
 31
0.0
  0
ARC
  5
78
100
AcDbEntity
  8
0
  6
BYBLOCK
 62
     1
100
AcDbCircle
 10
-201.912294
 20
844.407765
 30
0.0
 40
40.868053
100
AcDbArc
 50
360.0
 51
5.0
  0
INSERT
  5
79
100
AcDbEntity
  8
0
  6
BYBLOCK
 62
     1
100
AcDbBlockReference
  2
_DOTSMALL
 10
-161.044242
 20
844.407765
 30
0.0
 41
2.5
 42
2.5
 43
2.5
 50
270.0
  0
INSERT
  5
7A
100
AcDbEntity
  8
0
  6
BYBLOCK
 62
     1
100
AcDbBlockReference
  2
_DOTSMALL
 10
-161.199757
 20
847.96965
 30
0.0
 41
2.5
 42
2.5
 43
2.5
 50
95.0
  0
MTEXT
  5
7B
100
AcDbEntity
  8
0
  6
BYBLOCK
 62
     3
100
AcDbMText
 10
-158.888303
 20
837.46412
 30
0.0
 40
3.0
 41
0.0
 71
     5
 72
     1
  1
\A1;5°
 11
-0.061144
 21
-0.998129
 31
0.0
  0
POINT
  5
7C
100
AcDbEntity
  8
DEFPOINTS
  6
BYBLOCK
 62
     0
100
AcDbPoint
 10
-161.113384
 20
846.784031
 30
0.0
  0
POINT
  5
7D
100
AcDbEntity
  8
DEFPOINTS
  6
BYBLOCK
 62
     0
100
AcDbPoint
 10
-174.55365
 20
846.801336
 30
0.0
  0
POINT
  5
7E
100
AcDbEntity
  8
DEFPOINTS
  6
BYBLOCK
 62
     0
100
AcDbPoint
 10
-51.912294
 20
844.407765
 30
0.0
  0
POINT
  5
7F
100
AcDbEntity
  8
DEFPOINTS
  6
BYBLOCK
 62
     0
100
AcDbPoint
 10
-173.144967
 20
844.407765
 30
0.0
  0
POINT
  5
80
100
AcDbEntity
  8
DEFPOINTS
  6
BYBLOCK
 62
     0
100
AcDbPoint
 10
-181.113682
 20
846.227407
 30
0.0
  0
ENDBLK
  5
82
100
AcDbEntity
  8
0
100
AcDbBlockEnd
  0
BLOCK
  5
BC
100
AcDbEntity
  8
0
100
AcDbBlockBegin
  2
*D13
 70
     1
 10
0.0
 20
0.0
 30
0.0
  3
*D13
  1

  0
LINE
  5
B2
100
AcDbEntity
  8
0
  6
BYBLOCK
 62
     1
100
AcDbLine
 10
-202.493628
 20
839.578722
 30
0.0
 11
-208.251433
 21
839.07498
 31
0.0
  0
LINE
  5
B3
100
AcDbEntity
  8
0
  6
BYBLOCK
 62
     1
100
AcDbLine
 10
-202.908489
 20
844.320609
 30
0.0
 11
-208.666294
 21
843.816866
 31
0.0
  0
LINE
  5
B4
100
AcDbEntity
  8
0
  6
BYBLOCK
 62
     1
100
AcDbLine
 10
-206.757141
 20
839.205713
 30
0.0
 11
-207.172002
 21
843.9476
 31
0.0
  0
LINE
  5
B5
100
AcDbEntity
  8
0
  6
BYBLOCK
 62
     1
100
AcDbLine
 10
-207.172002
 20
843.9476
 30
0.0
 11
-208.522916
 21
859.388618
 31
0.0
  0
INSERT
  5
B6
100
AcDbEntity
  8
0
  6
BYBLOCK
 62
     1
100
AcDbBlockReference
  2
_DOTSMALL
 10
-206.757141
 20
839.205713
 30
0.0
 41
2.5
 42
2.5
 43
2.5
 50
275.0
  0
INSERT
  5
B7
100
AcDbEntity
  8
0
  6
BYBLOCK
 62
     1
100
AcDbBlockReference
  2
_DOTSMALL
 10
-207.172002
 20
843.9476
 30
0.0
 41
2.5
 42
2.5
 43
2.5
 50
95.0
  0
MTEXT
  5
B8
100
AcDbEntity
  8
0
  6
BYBLOCK
 62
     3
100
AcDbMText
 10
-205.465917
 20
853.131242
 30
0.0
 40
3.0
 41
0.0
 71
     5
 72
     1
  1
\A1;4.76
 11
0.087156
 21
-0.996195
 31
0.0
  0
POINT
  5
B9
100
AcDbEntity
  8
DEFPOINTS
  6
BYBLOCK
 62
     0
100
AcDbPoint
 10
-201.497433
 20
839.665878
 30
0.0
  0
POINT
  5
BA
100
AcDbEntity
  8
DEFPOINTS
  6
BYBLOCK
 62
     0
100
AcDbPoint
 10
-201.912294
 20
844.407765
 30
0.0
  0
POINT
  5
BB
100
AcDbEntity
  8
DEFPOINTS
  6
BYBLOCK
 62
     0
100
AcDbPoint
 10
-207.172002
 20
843.9476
 30
0.0
  0
ENDBLK
  5
BD
100
AcDbEntity
  8
0
100
AcDbBlockEnd
  0
BLOCK
  5
CA
100
AcDbEntity
  8
0
100
AcDbBlockBegin
  2
*D14
 70
     1
 10
0.0
 20
0.0
 30
0.0
  3
*D14
  1

  0
LINE
  5
C0
100
AcDbEntity
  8
0
  6
BYBLOCK
 62
     1
100
AcDbLine
 10
-202.468723
 20
839.580901
 30
0.0
 11
-208.251433
 21
839.07498
 31
0.0
  0
LINE
  5
C1
100
AcDbEntity
  8
0
  6
BYBLOCK
 62
     1
100
AcDbLine
 10
-202.191568
 20
836.413002
 30
0.0
 11
-207.974278
 21
835.90708
 31
0.0
  0
LINE
  5
C2
100
AcDbEntity
  8
0
  6
BYBLOCK
 62
     1
100
AcDbLine
 10
-206.757141
 20
839.205713
 30
0.0
 11
-206.479986
 21
836.037814
 31
0.0
  0
LINE
  5
C3
100
AcDbEntity
  8
0
  6
BYBLOCK
 62
     1
100
AcDbLine
 10
-206.479986
 20
836.037814
 30
0.0
 11
-205.129072
 21
820.596796
 31
0.0
  0
INSERT
  5
C4
100
AcDbEntity
  8
0
  6
BYBLOCK
 62
     1
100
AcDbBlockReference
  2
_DOTSMALL
 10
-206.757141
 20
839.205713
 30
0.0
 41
2.5
 42
2.5
 43
2.5
 50
95.0
  0
INSERT
  5
C5
100
AcDbEntity
  8
0
  6
BYBLOCK
 62
     1
100
AcDbBlockReference
  2
_DOTSMALL
 10
-206.479986
 20
836.037814
 30
0.0
 41
2.5
 42
2.5
 43
2.5
 50
275.0
  0
MTEXT
  5
C6
100
AcDbEntity
  8
0
  6
BYBLOCK
 62
     3
100
AcDbMText
 10
-203.205097
 20
827.289951
 30
0.0
 40
3.0
 41
0.0
 71
     5
 72
     1
  1
\A1;3.18
 11
0.087156
 21
-0.996195
 31
0.0
  0
POINT
  5
C7
100
AcDbEntity
  8
DEFPOINTS
  6
BYBLOCK
 62
     0
100
AcDbPoint
 10
-201.472528
 20
839.668057
 30
0.0
  0
POINT
  5
C8
100
AcDbEntity
  8
DEFPOINTS
  6
BYBLOCK
 62
     0
100
AcDbPoint
 10
-201.195373
 20
836.500158
 30
0.0
  0
POINT
  5
C9
100
AcDbEntity
  8
DEFPOINTS
  6
BYBLOCK
 62
     0
100
AcDbPoint
 10
-206.479986
 20
836.037814
 30
0.0
  0
ENDBLK
  5
CB
100
AcDbEntity
  8
0
100
AcDbBlockEnd
  0
BLOCK
  5
71
100
AcDbEntity
  8
0
100
AcDbBlockBegin
  2
*D15
 70
     1
 10
0.0
 20
0.0
 30
0.0
  3
*D15
  1

  0
LINE
  5
6A
100
AcDbEntity
  8
0
  6
BYBLOCK
 62
     1
100
AcDbLine
 10
-164.915263
 20
889.782163
 30
0.0
 11
-185.414452
 21
885.223295
 31
0.0
  0
MTEXT
  5
6B
100
AcDbEntity
  8
0
  6
BYBLOCK
 62
     3
100
AcDbMText
 10
-173.2672
 20
890.485831
 30
0.0
 40
3.0
 41
0.0
 71
     5
 72
     1
  1
\A1;\U+220512.7
 11
0.976152
 21
0.217089
 31
0.0
  0
LINE
  5
6C
100
AcDbEntity
  8
0
  6
BYBLOCK
 62
     1
100
AcDbLine
 10
-197.81158
 20
882.466266
 30
0.0
 11
-185.414452
 21
885.223295
 31
0.0
  0
INSERT
  5
6D
100
AcDbEntity
  8
0
  6
BYBLOCK
 62
     1
100
AcDbBlockReference
  2
_DOTSMALL
 10
-197.81158
 20
882.466266
 30
0.0
 41
2.5
 42
2.5
 43
2.5
 50
12.538111
  0
INSERT
  5
6E
100
AcDbEntity
  8
0
  6
BYBLOCK
 62
     1
100
AcDbBlockReference
  2
_DOTSMALL
 10
-185.414452
 20
885.223295
 30
0.0
 41
2.5
 42
2.5
 43
2.5
 50
192.538111
  0
POINT
  5
6F
100
AcDbEntity
  8
DEFPOINTS
  6
BYBLOCK
 62
     0
100
AcDbPoint
 10
-185.414452
 20
885.223295
 30
0.0
  0
POINT
  5
70
100
AcDbEntity
  8
DEFPOINTS
  6
BYBLOCK
 62
     0
100
AcDbPoint
 10
-197.81158
 20
882.466266
 30
0.0
  0
ENDBLK
  5
72
100
AcDbEntity
  8
0
100
AcDbBlockEnd
  0
BLOCK
  5
33
100
AcDbEntity
  8
0
100
AcDbBlockBegin
  2
*D16
 70
     1
 10
0.0
 20
0.0
 30
0.0
  3
*D16
  1

  0
LINE
  5
27
100
AcDbEntity
  8
0
  6
BYBLOCK
 62
     1
100
AcDbLine
 10
-180.890927
 20
877.680968
 30
0.0
 11
-149.092025
 21
878.23602
 31
0.0
  0
LINE
  5
28
100
AcDbEntity
  8
0
  6
BYBLOCK
 62
     1
100
AcDbLine
 10
-182.17321
 20
895.50197
 30
0.0
 11
-166.782818
 21
914.507521
 31
0.0
  0
ARC
  5
29
100
AcDbEntity
  8
0
  6
BYBLOCK
 62
     1
100
AcDbCircle
 10
-196.829664
 20
877.402756
 30
0.0
 40
46.244911
100
AcDbArc
 50
1.0
 51
51.0
  0
INSERT
  5
2A
100
AcDbEntity
  8
0
  6
BYBLOCK
 62
     1
100
AcDbBlockReference
  2
_DOTSMALL
 10
-150.591797
 20
878.209841
 30
0.0
 41
2.5
 42
2.5
 43
2.5
 50
271.0
  0
INSERT
  5
2B
100
AcDbEntity
  8
0
  6
BYBLOCK
 62
     1
100
AcDbBlockReference
  2
_DOTSMALL
 10
-167.726799
 20
913.341802
 30
0.0
 41
2.5
 42
2.5
 43
2.5
 50
141.0
  0
MTEXT
  5
2C
100
AcDbEntity
  8
0
  6
BYBLOCK
 62
     3
100
AcDbMText
 10
-153.018028
 20
898.771119
 30
0.0
 40
3.0
 41
0.0
 71
     5
 72
     1
  1
\A1;50°
 11
0.438371
 21
-0.898794
 31
0.0
  0
POINT
  5
2D
100
AcDbEntity
  8
DEFPOINTS
  6
BYBLOCK
 62
     0
100
AcDbPoint
 10
-152.765747
 20
891.437105
 30
0.0
  0
POINT
  5
2F
100
AcDbEntity
  8
DEFPOINTS
  6
BYBLOCK
 62
     0
100
AcDbPoint
 10
-201.113611
 20
877.32798
 30
0.0
  0
POINT
  5
30
100
AcDbEntity
  8
DEFPOINTS
  6
BYBLOCK
 62
     0
100
AcDbPoint
 10
-191.613016
 20
883.844781
 30
0.0
  0
POINT
  5
31
100
AcDbEntity
  8
DEFPOINTS
  6
BYBLOCK
 62
     0
100
AcDbPoint
 10
-182.80253
 20
894.724824
 30
0.0
  0
POINT
  5
32
100
AcDbEntity
  8
DEFPOINTS
  6
BYBLOCK
 62
     0
100
AcDbPoint
 10
-181.890775
 20
877.663516
 30
0.0
  0
ENDBLK
  5
34
100
AcDbEntity
  8
0
100
AcDbBlockEnd
  0
BLOCK
  5
14E
100
AcDbEntity
  8
0
100
AcDbBlockBegin
  2
_OPEN30
 70
     0
 10
0.0
 20
0.0
 30
0.0
  3
_OPEN30
  1

  0
LINE
  5
14F
100
AcDbEntity
  8
0
  6
BYBLOCK
 62
     0
100
AcDbLine
 10
-1.0
 20
0.267949
 30
0.0
 11
0.0
 21
0.0
 31
0.0
  0
LINE
  5
150
100
AcDbEntity
  8
0
  6
BYBLOCK
 62
     0
100
AcDbLine
 10
0.0
 20
0.0
 30
0.0
 11
-1.0
 21
-0.267949
 31
0.0
  0
LINE
  5
151
100
AcDbEntity
  8
0
  6
BYBLOCK
 62
     0
100
AcDbLine
 10
0.0
 20
0.0
 30
0.0
 11
-1.0
 21
0.0
 31
0.0
  0
ENDBLK
  5
152
100
AcDbEntity
  8
0
100
AcDbBlockEnd
  0
BLOCK
  5
1FD
100
AcDbEntity
  8
0
100
AcDbBlockBegin
  2
*D18
 70
     1
 10
0.0
 20
0.0
 30
0.0
  3
*D18
  1

  0
LINE
  5
1FE
100
AcDbEntity
  8
0
  6
BYBLOCK
 62
     1
100
AcDbLine
 10
442.446872
 20
19.948361
 30
0.0
 11
454.5657
 21
19.948361
 31
0.0
  0
LINE
  5
1FF
100
AcDbEntity
  8
0
  6
BYBLOCK
 62
     1
100
AcDbLine
 10
442.446872
 20
-5.051639
 30
0.0
 11
454.5657
 21
-5.051639
 31
0.0
  0
LINE
  5
200
100
AcDbEntity
  8
0
  6
BYBLOCK
 62
     1
100
AcDbLine
 10
453.0657
 20
17.948361
 30
0.0
 11
453.0657
 21
-3.051639
 31
0.0
  0
INSERT
  5
201
100
AcDbEntity
  8
0
  6
BYBLOCK
 62
     1
100
AcDbBlockReference
  2
_OPEN30
 10
453.0657
 20
19.948361
 30
0.0
 41
2.0
 42
2.0
 43
2.0
 50
90.0
  0
INSERT
  5
202
100
AcDbEntity
  8
0
  6
BYBLOCK
 62
     1
100
AcDbBlockReference
  2
_OPEN30
 10
453.0657
 20
-5.051639
 30
0.0
 41
2.0
 42
2.0
 43
2.0
 50
270.0
  0
MTEXT
  5
203
100
AcDbEntity
  8
0
  6
BYBLOCK
 62
     3
100
AcDbMText
 10
450.5657
 20
7.448361
 30
0.0
 40
3.0
 41
0.0
 71
     5
 72
     1
  1
\A1;25
 11
0.0
 21
1.0
 31
0.0
  0
POINT
  5
204
100
AcDbEntity
  8
DEFPOINTS
  6
BYBLOCK
 62
     0
100
AcDbPoint
 10
441.446872
 20
19.948361
 30
0.0
  0
POINT
  5
205
100
AcDbEntity
  8
DEFPOINTS
  6
BYBLOCK
 62
     0
100
AcDbPoint
 10
441.446872
 20
-5.051639
 30
0.0
  0
POINT
  5
206
100
AcDbEntity
  8
DEFPOINTS
  6
BYBLOCK
 62
     0
100
AcDbPoint
 10
453.0657
 20
-5.051639
 30
0.0
  0
ENDBLK
  5
207
100
AcDbEntity
  8
0
100
AcDbBlockEnd
  0
BLOCK
  5
1D7
100
AcDbEntity
  8
0
100
AcDbBlockBegin
  2
*D19
 70
     1
 10
0.0
 20
0.0
 30
0.0
  3
*D19
  1

  0
LINE
  5
1D8
100
AcDbEntity
  8
0
  6
BYBLOCK
 62
     1
100
AcDbLine
 10
286.246397
 20
19.948361
 30
0.0
 11
257.027268
 21
19.948361
 31
0.0
  0
LINE
  5
1D9
100
AcDbEntity
  8
0
  6
BYBLOCK
 62
     1
100
AcDbLine
 10
270.446872
 20
-12.051639
 30
0.0
 11
257.027268
 21
-12.051639
 31
0.0
  0
LINE
  5
1DA
100
AcDbEntity
  8
0
  6
BYBLOCK
 62
     1
100
AcDbLine
 10
258.527268
 20
17.948361
 30
0.0
 11
258.527268
 21
-10.051639
 31
0.0
  0
INSERT
  5
1DB
100
AcDbEntity
  8
0
  6
BYBLOCK
 62
     1
100
AcDbBlockReference
  2
_OPEN30
 10
258.527268
 20
19.948361
 30
0.0
 41
2.0
 42
2.0
 43
2.0
 50
90.0
  0
INSERT
  5
1DC
100
AcDbEntity
  8
0
  6
BYBLOCK
 62
     1
100
AcDbBlockReference
  2
_OPEN30
 10
258.527268
 20
-12.051639
 30
0.0
 41
2.0
 42
2.0
 43
2.0
 50
270.0
  0
MTEXT
  5
1DD
100
AcDbEntity
  8
0
  6
BYBLOCK
 62
     3
100
AcDbMText
 10
256.027268
 20
3.948361
 30
0.0
 40
3.0
 41
0.0
 71
     5
 72
     1
  1
\A1;32
 11
0.0
 21
1.0
 31
0.0
  0
POINT
  5
1DE
100
AcDbEntity
  8
DEFPOINTS
  6
BYBLOCK
 62
     0
100
AcDbPoint
 10
287.246397
 20
19.948361
 30
0.0
  0
POINT
  5
1DF
100
AcDbEntity
  8
DEFPOINTS
  6
BYBLOCK
 62
     0
100
AcDbPoint
 10
271.446872
 20
-12.051639
 30
0.0
  0
POINT
  5
1E0
100
AcDbEntity
  8
DEFPOINTS
  6
BYBLOCK
 62
     0
100
AcDbPoint
 10
258.527268
 20
-12.051639
 30
0.0
  0
ENDBLK
  5
1E1
100
AcDbEntity
  8
0
100
AcDbBlockEnd
  0
BLOCK
  5
1E2
100
AcDbEntity
  8
0
100
AcDbBlockBegin
  2
*D20
 70
     1
 10
0.0
 20
0.0
 30
0.0
  3
*D20
  1

  0
LINE
  5
1E3
100
AcDbEntity
  8
0
  6
BYBLOCK
 62
     1
100
AcDbLine
 10
246.251758
 20
-13.047834
 30
0.0
 11
244.927337
 21
-28.186039
 31
0.0
  0
ARC
  5
1E4
100
AcDbEntity
  8
0
  6
BYBLOCK
 62
     1
100
AcDbCircle
 10
246.338914
 20
-12.051639
 30
0.0
 40
14.696031
100
AcDbArc
 50
249.356557
 51
265.0
  0
LINE
  5
1E5
100
AcDbEntity
  8
0
  6
BYBLOCK
 62
     1
100
AcDbLine
 10
241.157809
 20
-25.804074
 30
0.0
 11
233.109994
 21
-22.772133
 31
0.0
  0
ARC
  5
1E6
100
AcDbEntity
  8
0
  6
BYBLOCK
 62
     1
100
AcDbCircle
 10
246.338914
 20
-12.051639
 30
0.0
 40
14.696031
100
AcDbArc
 50
249.393041
 51
257.19652
  0
ARC
  5
1E7
100
AcDbEntity
  8
0
  6
BYBLOCK
 62
     1
100
AcDbCircle
 10
246.338914
 20
-12.051639
 30
0.0
 40
14.696031
100
AcDbArc
 50
277.80348
 51
285.606959
  0
ARC
  5
1E8
100
AcDbEntity
  8
0
  6
BYBLOCK
 62
     1
100
AcDbCircle
 10
246.338914
 20
-12.051639
 30
0.0
 40
14.696031
100
AcDbArc
 50
265.0
 51
270.0
  0
INSERT
  5
1E9
100
AcDbEntity
  8
0
  6
BYBLOCK
 62
     1
100
AcDbBlockReference
  2
_OPEN30
 10
245.058071
 20
-26.691747
 30
0.0
 41
2.0
 42
2.0
 43
2.0
 50
351.09826
  0
INSERT
  5
1EA
100
AcDbEntity
  8
0
  6
BYBLOCK
 62
     1
100
AcDbBlockReference
  2
_OPEN30
 10
246.338914
 20
-26.74767
 30
0.0
 41
2.0
 42
2.0
 43
2.0
 50
183.90174
  0
MTEXT
  5
1EB
100
AcDbEntity
  8
0
  6
BYBLOCK
 62
     3
100
AcDbMText
 10
238.01528
 20
-21.948622
 30
0.0
 40
3.0
 41
0.0
 71
     5
 72
     1
  1
\A1;5°
 11
0.935792
 21
-0.352551
 31
0.0
  0
POINT
  5
1EC
100
AcDbEntity
  8
DEFPOINTS
  6
BYBLOCK
 62
     0
100
AcDbPoint
 10
245.911484
 20
-26.741452
 30
0.0
  0
POINT
  5
1ED
100
AcDbEntity
  8
DEFPOINTS
  6
BYBLOCK
 62
     0
100
AcDbPoint
 10
249.138551
 20
19.948361
 30
0.0
  0
POINT
  5
1EE
100
AcDbEntity
  8
DEFPOINTS
  6
BYBLOCK
 62
     0
100
AcDbPoint
 10
246.338914
 20
-12.051639
 30
0.0
  0
POINT
  5
1EF
100
AcDbEntity
  8
DEFPOINTS
  6
BYBLOCK
 62
     0
100
AcDbPoint
 10
246.338914
 20
-28.699837
 30
0.0
  0
POINT
  5
1F0
100
AcDbEntity
  8
DEFPOINTS
  6
BYBLOCK
 62
     0
100
AcDbPoint
 10
246.338914
 20
-12.051639
 30
0.0
  0
ENDBLK
  5
1F1
100
AcDbEntity
  8
0
100
AcDbBlockEnd
  0
BLOCK
  5
1CC
100
AcDbEntity
  8
0
100
AcDbBlockBegin
  2
*D21
 70
     1
 10
0.0
 20
0.0
 30
0.0
  3
*D21
  1

  0
LINE
  5
1CD
100
AcDbEntity
  8
0
  6
BYBLOCK
 62
     1
100
AcDbLine
 10
271.446872
 20
-43.971732
 30
0.0
 11
271.446872
 21
-36.426048
 31
0.0
  0
LINE
  5
1CE
100
AcDbEntity
  8
0
  6
BYBLOCK
 62
     1
100
AcDbLine
 10
299.446872
 20
-43.612988
 30
0.0
 11
299.446872
 21
-36.426048
 31
0.0
  0
LINE
  5
1CF
100
AcDbEntity
  8
0
  6
BYBLOCK
 62
     1
100
AcDbLine
 10
273.446872
 20
-37.926048
 30
0.0
 11
297.446872
 21
-37.926048
 31
0.0
  0
INSERT
  5
1D0
100
AcDbEntity
  8
0
  6
BYBLOCK
 62
     1
100
AcDbBlockReference
  2
_OPEN30
 10
271.446872
 20
-37.926048
 30
0.0
 41
2.0
 42
2.0
 43
2.0
 50
180.0
  0
INSERT
  5
1D1
100
AcDbEntity
  8
0
  6
BYBLOCK
 62
     1
100
AcDbBlockReference
  2
_OPEN30
 10
299.446872
 20
-37.926048
 30
0.0
 41
2.0
 42
2.0
 43
2.0
  0
MTEXT
  5
1D2
100
AcDbEntity
  8
0
  6
BYBLOCK
 62
     3
100
AcDbMText
 10
285.446872
 20
-35.426048
 30
0.0
 40
3.0
 41
0.0
 71
     5
 72
     1
  1
\A1;28
  0
POINT
  5
1D3
100
AcDbEntity
  8
DEFPOINTS
  6
BYBLOCK
 62
     0
100
AcDbPoint
 10
271.446872
 20
-44.971732
 30
0.0
  0
POINT
  5
1D4
100
AcDbEntity
  8
DEFPOINTS
  6
BYBLOCK
 62
     0
100
AcDbPoint
 10
299.446872
 20
-44.612988
 30
0.0
  0
POINT
  5
1D5
100
AcDbEntity
  8
DEFPOINTS
  6
BYBLOCK
 62
     0
100
AcDbPoint
 10
299.446872
 20
-37.926048
 30
0.0
  0
ENDBLK
  5
1D6
100
AcDbEntity
  8
0
100
AcDbBlockEnd
  0
BLOCK
  5
1B6
100
AcDbEntity
  8
0
100
AcDbBlockBegin
  2
*D22
 70
     1
 10
0.0
 20
0.0
 30
0.0
  3
*D22
  1

  0
LINE
  5
1B7
100
AcDbEntity
  8
0
  6
BYBLOCK
 62
     1
100
AcDbLine
 10
271.446872
 20
-13.051639
 30
0.0
 11
271.446872
 21
-32.569305
 31
0.0
  0
LINE
  5
1B8
100
AcDbEntity
  8
0
  6
BYBLOCK
 62
     1
100
AcDbLine
 10
441.446872
 20
-6.051639
 30
0.0
 11
441.446872
 21
-32.569305
 31
0.0
  0
LINE
  5
1B9
100
AcDbEntity
  8
0
  6
BYBLOCK
 62
     1
100
AcDbLine
 10
273.446872
 20
-31.069305
 30
0.0
 11
439.446872
 21
-31.069305
 31
0.0
  0
INSERT
  5
1BA
100
AcDbEntity
  8
0
  6
BYBLOCK
 62
     1
100
AcDbBlockReference
  2
_OPEN30
 10
271.446872
 20
-31.069305
 30
0.0
 41
2.0
 42
2.0
 43
2.0
 50
180.0
  0
INSERT
  5
1BB
100
AcDbEntity
  8
0
  6
BYBLOCK
 62
     1
100
AcDbBlockReference
  2
_OPEN30
 10
441.446872
 20
-31.069305
 30
0.0
 41
2.0
 42
2.0
 43
2.0
  0
MTEXT
  5
1BC
100
AcDbEntity
  8
0
  6
BYBLOCK
 62
     3
100
AcDbMText
 10
356.446872
 20
-28.569305
 30
0.0
 40
3.0
 41
0.0
 71
     5
 72
     1
  1
\A1;170
  0
POINT
  5
1BD
100
AcDbEntity
  8
DEFPOINTS
  6
BYBLOCK
 62
     0
100
AcDbPoint
 10
271.446872
 20
-12.051639
 30
0.0
  0
POINT
  5
1BE
100
AcDbEntity
  8
DEFPOINTS
  6
BYBLOCK
 62
     0
100
AcDbPoint
 10
441.446872
 20
-5.051639
 30
0.0
  0
POINT
  5
1BF
100
AcDbEntity
  8
DEFPOINTS
  6
BYBLOCK
 62
     0
100
AcDbPoint
 10
441.446872
 20
-31.069305
 30
0.0
  0
ENDBLK
  5
1C0
100
AcDbEntity
  8
0
100
AcDbBlockEnd
  0
BLOCK
  5
213
100
AcDbEntity
  8
0
100
AcDbBlockBegin
  2
*D23
 70
     1
 10
0.0
 20
0.0
 30
0.0
  3
*D23
  1

  0
LINE
  5
214
100
AcDbEntity
  8
0
  6
BYBLOCK
 62
     1
100
AcDbLine
 10
270.446872
 20
-44.971732
 30
0.0
 11
252.325113
 21
-44.971732
 31
0.0
  0
LINE
  5
215
100
AcDbEntity
  8
0
  6
BYBLOCK
 62
     1
100
AcDbLine
 10
271.340126
 20
-76.971732
 30
0.0
 11
252.325113
 21
-76.971732
 31
0.0
  0
LINE
  5
216
100
AcDbEntity
  8
0
  6
BYBLOCK
 62
     1
100
AcDbLine
 10
253.825113
 20
-46.971732
 30
0.0
 11
253.825113
 21
-74.971732
 31
0.0
  0
INSERT
  5
217
100
AcDbEntity
  8
0
  6
BYBLOCK
 62
     1
100
AcDbBlockReference
  2
_OPEN30
 10
253.825113
 20
-44.971732
 30
0.0
 41
2.0
 42
2.0
 43
2.0
 50
90.0
  0
INSERT
  5
218
100
AcDbEntity
  8
0
  6
BYBLOCK
 62
     1
100
AcDbBlockReference
  2
_OPEN30
 10
253.825113
 20
-76.971732
 30
0.0
 41
2.0
 42
2.0
 43
2.0
 50
270.0
  0
MTEXT
  5
219
100
AcDbEntity
  8
0
  6
BYBLOCK
 62
     3
100
AcDbMText
 10
251.325113
 20
-60.971732
 30
0.0
 40
3.0
 41
0.0
 71
     5
 72
     1
  1
\A1;32
 11
0.0
 21
1.0
 31
0.0
  0
POINT
  5
21A
100
AcDbEntity
  8
DEFPOINTS
  6
BYBLOCK
 62
     0
100
AcDbPoint
 10
271.446872
 20
-44.971732
 30
0.0
  0
POINT
  5
21B
100
AcDbEntity
  8
DEFPOINTS
  6
BYBLOCK
 62
     0
100
AcDbPoint
 10
272.340126
 20
-76.971732
 30
0.0
  0
POINT
  5
21C
100
AcDbEntity
  8
DEFPOINTS
  6
BYBLOCK
 62
     0
100
AcDbPoint
 10
253.825113
 20
-76.971732
 30
0.0
  0
ENDBLK
  5
21D
100
AcDbEntity
  8
0
100
AcDbBlockEnd
  0
BLOCK
  5
1C1
100
AcDbEntity
  8
0
100
AcDbBlockBegin
  2
*D24
 70
     1
 10
0.0
 20
0.0
 30
0.0
  3
*D24
  1

  0
ARC
  5
1C2
100
AcDbEntity
  8
0
  6
BYBLOCK
 62
     1
100
AcDbCircle
 10
271.446872
 20
-12.065458
 30
0.0
 40
14.57153
100
AcDbArc
 50
277.870258
 51
353.129742
  0
INSERT
  5
1C3
100
AcDbEntity
  8
0
  6
BYBLOCK
 62
     1
100
AcDbBlockReference
  2
_OPEN30
 10
271.446872
 20
-26.636989
 30
0.0
 41
2.0
 42
2.0
 43
2.0
 50
183.935129
  0
INSERT
  5
1C4
100
AcDbEntity
  8
0
  6
BYBLOCK
 62
     1
100
AcDbBlockReference
  2
_OPEN30
 10
286.016183
 20
-11.81115
 30
0.0
 41
2.0
 42
2.0
 43
2.0
 50
87.064871
  0
MTEXT
  5
1C5
100
AcDbEntity
  8
0
  6
BYBLOCK
 62
     3
100
AcDbMText
 10
280.056897
 20
-20.526506
 30
0.0
 40
3.0
 41
0.0
 71
     5
 72
     1
  1
\A1;91°
 11
0.700909
 21
0.71325
 31
0.0
  0
POINT
  5
1C6
100
AcDbEntity
  8
DEFPOINTS
  6
BYBLOCK
 62
     0
100
AcDbPoint
 10
278.80593
 20
-24.642174
 30
0.0
  0
POINT
  5
1C7
100
AcDbEntity
  8
DEFPOINTS
  6
BYBLOCK
 62
     0
100
AcDbPoint
 10
271.446872
 20
-12.051639
 30
0.0
  0
POINT
  5
1C8
100
AcDbEntity
  8
DEFPOINTS
  6
BYBLOCK
 62
     0
100
AcDbPoint
 10
272.245556
 20
-12.051517
 30
0.0
  0
POINT
  5
1C9
100
AcDbEntity
  8
DEFPOINTS
  6
BYBLOCK
 62
     0
100
AcDbPoint
 10
291.468392
 20
-11.715981
 30
0.0
  0
POINT
  5
1CA
100
AcDbEntity
  8
DEFPOINTS
  6
BYBLOCK
 62
     0
100
AcDbPoint
 10
271.446872
 20
-28.93571
 30
0.0
  0
ENDBLK
  5
1CB
100
AcDbEntity
  8
0
100
AcDbBlockEnd
  0
BLOCK
  5
208
100
AcDbEntity
  8
0
100
AcDbBlockBegin
  2
*D25
 70
     1
 10
0.0
 20
0.0
 30
0.0
  3
*D25
  1

  0
LINE
  5
209
100
AcDbEntity
  8
0
  6
BYBLOCK
 62
     1
100
AcDbLine
 10
442.446872
 20
-44.971732
 30
0.0
 11
453.413434
 21
-44.971732
 31
0.0
  0
LINE
  5
20A
100
AcDbEntity
  8
0
  6
BYBLOCK
 62
     1
100
AcDbLine
 10
442.446872
 20
-76.971732
 30
0.0
 11
453.413434
 21
-76.971732
 31
0.0
  0
LINE
  5
20B
100
AcDbEntity
  8
0
  6
BYBLOCK
 62
     1
100
AcDbLine
 10
451.913434
 20
-46.971732
 30
0.0
 11
451.913434
 21
-74.971732
 31
0.0
  0
INSERT
  5
20C
100
AcDbEntity
  8
0
  6
BYBLOCK
 62
     1
100
AcDbBlockReference
  2
_OPEN30
 10
451.913434
 20
-44.971732
 30
0.0
 41
2.0
 42
2.0
 43
2.0
 50
90.0
  0
INSERT
  5
20D
100
AcDbEntity
  8
0
  6
BYBLOCK
 62
     1
100
AcDbBlockReference
  2
_OPEN30
 10
451.913434
 20
-76.971732
 30
0.0
 41
2.0
 42
2.0
 43
2.0
 50
270.0
  0
MTEXT
  5
20E
100
AcDbEntity
  8
0
  6
BYBLOCK
 62
     3
100
AcDbMText
 10
449.413434
 20
-60.971732
 30
0.0
 40
3.0
 41
0.0
 71
     5
 72
     1
  1
\A1;32
 11
0.0
 21
1.0
 31
0.0
  0
POINT
  5
20F
100
AcDbEntity
  8
DEFPOINTS
  6
BYBLOCK
 62
     0
100
AcDbPoint
 10
441.446872
 20
-44.971732
 30
0.0
  0
POINT
  5
210
100
AcDbEntity
  8
DEFPOINTS
  6
BYBLOCK
 62
     0
100
AcDbPoint
 10
441.446872
 20
-76.971732
 30
0.0
  0
POINT
  5
211
100
AcDbEntity
  8
DEFPOINTS
  6
BYBLOCK
 62
     0
100
AcDbPoint
 10
451.913434
 20
-76.971732
 30
0.0
  0
ENDBLK
  5
212
100
AcDbEntity
  8
0
100
AcDbBlockEnd
  0
BLOCK
  5
241
100
AcDbEntity
  8
0
100
AcDbBlockBegin
  2
*D26
 70
     1
 10
0.0
 20
0.0
 30
0.0
  3
*D26
  1

  0
LINE
  5
242
100
AcDbEntity
  8
0
  6
BYBLOCK
 62
     1
100
AcDbLine
 10
270.446872
 20
-44.971732
 30
0.0
 11
259.301864
 21
-44.971732
 31
0.0
  0
LINE
  5
243
100
AcDbEntity
  8
0
  6
BYBLOCK
 62
     1
100
AcDbLine
 10
270.450678
 20
-45.058888
 30
0.0
 11
259.348079
 21
-46.03024
 31
0.0
  0
ARC
  5
244
100
AcDbEntity
  8
0
  6
BYBLOCK
 62
     1
100
AcDbCircle
 10
271.446872
 20
-44.971732
 30
0.0
 40
10.645009
100
AcDbArc
 50
158.438576
 51
169.219288
  0
ARC
  5
245
100
AcDbEntity
  8
0
  6
BYBLOCK
 62
     1
100
AcDbCircle
 10
271.446872
 20
-44.971732
 30
0.0
 40
10.645009
100
AcDbArc
 50
195.780712
 51
206.561424
  0
ARC
  5
246
100
AcDbEntity
  8
0
  6
BYBLOCK
 62
     1
100
AcDbCircle
 10
271.446872
 20
-44.971732
 30
0.0
 40
10.645009
100
AcDbArc
 50
180.0
 51
185.0
  0
INSERT
  5
247
100
AcDbEntity
  8
0
  6
BYBLOCK
 62
     1
100
AcDbBlockReference
  2
_OPEN30
 10
260.801864
 20
-44.971732
 30
0.0
 41
2.0
 42
2.0
 43
2.0
 50
264.609644
  0
INSERT
  5
248
100
AcDbEntity
  8
0
  6
BYBLOCK
 62
     1
100
AcDbBlockReference
  2
_OPEN30
 10
260.842371
 20
-45.899506
 30
0.0
 41
2.0
 42
2.0
 43
2.0
 50
100.390356
  0
MTEXT
  5
249
100
AcDbEntity
  8
0
  6
BYBLOCK
 62
     3
100
AcDbMText
 10
262.680924
 20
-35.176356
 30
0.0
 40
3.0
 41
0.0
 71
     5
 72
     1
  1
\A1;5°
 11
0.745178
 21
0.666865
 31
0.0
  0
POINT
  5
24A
100
AcDbEntity
  8
DEFPOINTS
  6
BYBLOCK
 62
     0
100
AcDbPoint
 10
260.819873
 20
-45.590685
 30
0.0
  0
POINT
  5
24B
100
AcDbEntity
  8
DEFPOINTS
  6
BYBLOCK
 62
     0
100
AcDbPoint
 10
441.446872
 20
-44.971732
 30
0.0
  0
POINT
  5
24C
100
AcDbEntity
  8
DEFPOINTS
  6
BYBLOCK
 62
     0
100
AcDbPoint
 10
292.245484
 20
-43.15209
 30
0.0
  0
POINT
  5
24D
100
AcDbEntity
  8
DEFPOINTS
  6
BYBLOCK
 62
     0
100
AcDbPoint
 10
271.446872
 20
-44.971732
 30
0.0
  0
POINT
  5
24E
100
AcDbEntity
  8
DEFPOINTS
  6
BYBLOCK
 62
     0
100
AcDbPoint
 10
300.214199
 20
-44.971732
 30
0.0
  0
ENDBLK
  5
24F
100
AcDbEntity
  8
0
100
AcDbBlockEnd
  0
ENDSEC
  0
SECTION
  2
ENTITIES
  0
DIMENSION
  5
35
100
AcDbEntity
  8
寸法
  6
CONTINUOUS
100
AcDbDimension
  2
*D18
 10
453.0657
 20
-5.051639
 30
0.0
 11
450.5657
 21
7.448361
 31
0.0
 70
    32
  3
STANDARD
100
AcDbAlignedDimension
 13
441.446872
 23
19.948361
 33
0.0
 14
441.446872
 24
-5.051639
 34
0.0
 50
90.0
100
AcDbRotatedDimension
1001
ACAD
1000
DSTYLE
1002
{
1002
}
  0
DIMENSION
  5
43
100
AcDbEntity
  8
寸法
  6
CONTINUOUS
100
AcDbDimension
  2
*D19
 10
258.527268
 20
-12.051639
 30
0.0
 11
256.027268
 21
3.948361
 31
0.0
 70
    32
  3
STANDARD
100
AcDbAlignedDimension
 13
287.246397
 23
19.948361
 33
0.0
 14
271.446872
 24
-12.051639
 34
0.0
 50
90.0
100
AcDbRotatedDimension
1001
ACAD
1000
DSTYLE
1002
{
1002
}
  0
DIMENSION
  5
50
100
AcDbEntity
  8
寸法
  6
CONTINUOUS
100
AcDbDimension
  2
*D20
 10
246.338914
 20
-12.051639
 30
0.0
 11
238.01528
 21
-21.948622
 31
0.0
 70
    34
  3
STANDARD
100
AcDb2LineAngularDimension
 13
246.338914
 23
-12.051639
 33
0.0
 14
246.338914
 24
-28.699837
 34
0.0
 15
249.138551
 25
19.948361
 35
0.0
 16
245.911484
 26
-26.741452
 36
0.0
1001
ACAD
1000
DSTYLE
1002
{
1002
}
  0
LINE
  5
60
100
AcDbEntity
  8
外形
  6
CONTINUOUS
100
AcDbLine
 10
298.805517
 20
19.948361
 30
0.0
 11
299.446872
 21
-5.410383
 31
0.0
  0
LINE
  5
62
100
AcDbEntity
  8
外形
  6
CONTINUOUS
100
AcDbLine
 10
214.338914
 20
-11.151639
 30
0.0
 11
214.338914
 21
19.948361
 31
0.0
  0
LINE
  5
63
100
AcDbEntity
  8
外形
  6
CONTINUOUS
100
AcDbLine
 10
441.446872
 20
-5.051639
 30
0.0
 11
441.446872
 21
19.948361
 31
0.0
  0
LINE
  5
64
100
AcDbEntity
  8
外形
  6
CONTINUOUS
100
AcDbLine
 10
441.446872
 20
-5.051639
 30
0.0
 11
441.446872
 21
19.948361
 31
0.0
  0
LINE
  5
65
100
AcDbEntity
  8
外形
  6
CONTINUOUS
100
AcDbLine
 10
299.446872
 20
19.948361
 30
0.0
 11
299.446872
 21
-5.410383
 31
0.0
  0
LINE
  5
66
100
AcDbEntity
  8
外形
  6
CONTINUOUS
100
AcDbLine
 10
287.246397
 20
19.948361
 30
0.0
 11
273.38999
 21
11.948361
 31
0.0
  0
LINE
  5
67
100
AcDbEntity
  8
外形
  6
CONTINUOUS
100
AcDbLine
 10
249.138551
 20
19.948361
 30
0.0
 11
246.338914
 21
-12.051639
 31
0.0
  0
DIMENSION
  5
90
100
AcDbEntity
  8
寸法
  6
CONTINUOUS
100
AcDbDimension
  2
*D21
 10
299.446872
 20
-37.926048
 30
0.0
 11
285.446872
 21
-35.426048
 31
0.0
 70
    32
  3
STANDARD
100
AcDbAlignedDimension
 13
271.446872
 23
-44.971732
 33
0.0
 14
299.446872
 24
-44.612988
 34
0.0
100
AcDbRotatedDimension
1001
ACAD
1000
DSTYLE
1002
{
1002
}
  0
DIMENSION
  5
9D
100
AcDbEntity
  8
寸法
  6
CONTINUOUS
100
AcDbDimension
  2
*D22
 10
441.446872
 20
-31.069305
 30
0.0
 11
356.446872
 21
-28.569305
 31
0.0
 70
    32
  3
STANDARD
100
AcDbAlignedDimension
 13
271.446872
 23
-12.051639
 33
0.0
 14
441.446872
 24
-5.051639
 34
0.0
100
AcDbRotatedDimension
1001
ACAD
1000
DSTYLE
1002
{
1002
}
  0
LINE
  5
AA
100
AcDbEntity
  8
外形
  6
CONTINUOUS
100
AcDbLine
 10
272.340126
 20
-76.971732
 30
0.0
 11
441.446872
 21
-76.971732
 31
0.0
  0
CIRCLE
  5
AB
100
AcDbEntity
  8
外形
  6
CONTINUOUS
100
AcDbCircle
 10
290.556636
 20
5.345327
 30
0.0
 40
4.0
  0
LINE
  5
AC
100
AcDbEntity
  8
外形
  6
CONTINUOUS
100
AcDbLine
 10
292.230757
 20
-10.654846
 30
0.0
 11
297.985878
 21
-10.504142
 31
0.0
  0
LINE
  5
AD
100
AcDbEntity
  8
外形
  6
CONTINUOUS
100
AcDbLine
 10
298.805517
 20
-42.578161
 30
0.0
 11
292.245484
 21
-43.15209
 31
0.0
  0
LINE
  5
AE
100
AcDbEntity
  8
外形
  6
CONTINUOUS
100
AcDbLine
 10
272.340126
 20
-76.971732
 30
0.0
 11
441.446872
 21
-76.971732
 31
0.0
  0
TEXT
  5
AF
100
AcDbEntity
  8
外形
  6
CONTINUOUS
 62
     2
100
AcDbText
 10
282.235146
 20
-114.495597
 30
0.0
 40
6.0
  1
PTGN R3225-43
100
AcDbText
  0
DIMENSION
  5
CC
100
AcDbEntity
  8
寸法
  6
CONTINUOUS
100
AcDbDimension
  2
*D23
 10
253.825113
 20
-76.971732
 30
0.0
 11
251.325113
 21
-60.971732
 31
0.0
 70
    32
  3
STANDARD
100
AcDbAlignedDimension
 13
271.446872
 23
-44.971732
 33
0.0
 14
272.340126
 24
-76.971732
 34
0.0
 50
90.0
100
AcDbRotatedDimension
1001
ACAD
1000
DSTYLE
1002
{
1002
}
  0
LINE
  5
D9
100
AcDbEntity
  8
外形
  6
CONTINUOUS
100
AcDbLine
 10
272.340126
 20
-52.863912
 30
0.0
 11
272.340126
 21
-76.971732
 31
0.0
  0
LINE
  5
DA
100
AcDbEntity
  8
外形
  6
CONTINUOUS
100
AcDbLine
 10
292.245484
 20
-43.15209
 30
0.0
 11
271.446872
 21
-44.971732
 31
0.0
  0
LINE
  5
DB
100
AcDbEntity
  8
外形
  6
CONTINUOUS
100
AcDbLine
 10
292.660346
 20
-47.893976
 30
0.0
 11
271.861734
 21
-49.713619
 31
0.0
  0
LINE
  5
DC
100
AcDbEntity
  8
外形
  6
CONTINUOUS
100
AcDbLine
 10
292.912596
 20
-51.064054
 30
0.0
 11
272.163794
 21
-52.879339
 31
0.0
  0
LINE
  5
DD
100
AcDbEntity
  8
外形
  6
CONTINUOUS
100
AcDbLine
 10
271.446872
 20
-44.971732
 30
0.0
 11
271.861734
 21
-49.713619
 31
0.0
  0
LINE
  5
DE
100
AcDbEntity
  8
外形
  6
CONTINUOUS
100
AcDbLine
 10
271.886639
 20
-49.71144
 30
0.0
 11
272.163794
 21
-52.879339
 31
0.0
  0
LINE
  5
DF
100
AcDbEntity
  8
外形
  6
CONTINUOUS
100
AcDbLine
 10
292.635441
 20
-47.896155
 30
0.0
 11
292.912596
 21
-51.064054
 31
0.0
  0
LINE
  5
E0
100
AcDbEntity
  8
外形
  6
CONTINUOUS
100
AcDbLine
 10
292.245484
 20
-43.15209
 30
0.0
 11
292.660346
 21
-47.893976
 31
0.0
  0
LINE
  5
E1
100
AcDbEntity
  8
寸法
  6
CONTINUOUS
100
AcDbLine
 10
271.446872
 20
-12.051639
 30
0.0
 11
246.338914
 21
-12.051639
 31
0.0
  0
LINE
  5
E2
100
AcDbEntity
  8
外形
  6
CONTINUOUS
100
AcDbLine
 10
214.338914
 20
11.948361
 30
0.0
 11
248.438642
 21
11.948361
 31
0.0
  0
LINE
  5
E3
100
AcDbEntity
  8
寸法
  6
CONTINUOUS
100
AcDbLine
 10
246.338914
 20
-12.051639
 30
0.0
 11
246.338914
 21
-28.699837
 31
0.0
  0
LINE
  5
E4
100
AcDbEntity
  8
外形
  6
CONTINUOUS
100
AcDbLine
 10
214.338914
 20
-11.151639
 30
0.0
 11
238.447356
 21
-11.151639
 31
0.0
  0
LINE
  5
E5
100
AcDbEntity
  8
外形
  6
CONTINUOUS
100
AcDbLine
 10
214.338914
 20
-0.051639
 30
0.0
 11
247.388778
 21
-0.051639
 31
0.0
  0
LINE
  5
E6
100
AcDbEntity
  8
外形
  6
CONTINUOUS
100
AcDbLine
 10
242.21521
 20
-4.570911
 30
0.0
 11
241.597027
 21
-11.636778
 31
0.0
  0
LINE
  5
E7
100
AcDbEntity
  8
外形
  6
CONTINUOUS
100
AcDbLine
 10
239.109639
 20
-3.351871
 30
0.0
 11
238.411383
 21
-11.332975
 31
0.0
  0
LINE
  5
E8
100
AcDbEntity
  8
外形
  6
CONTINUOUS
100
AcDbLine
 10
241.599206
 20
-11.611873
 30
0.0
 11
238.411383
 21
-11.332975
 31
0.0
  0
LINE
  5
E9
100
AcDbEntity
  8
外形
  6
CONTINUOUS
100
AcDbLine
 10
246.338914
 20
-12.051639
 30
0.0
 11
241.597027
 21
-11.636778
 31
0.0
  0
LINE
  5
EA
100
AcDbEntity
  8
外形
  6
CONTINUOUS
100
AcDbLine
 10
246.957097
 20
-4.985773
 30
0.0
 11
239.027387
 21
-4.292013
 31
0.0
  0
LINE
  5
EB
100
AcDbEntity
  8
外形
  6
CONTINUOUS
100
AcDbLine
 10
247.039349
 20
-4.045631
 30
0.0
 11
239.109639
 21
-3.351871
 31
0.0
  0
DIMENSION
  5
10A
100
AcDbEntity
  8
寸法
  6
CONTINUOUS
100
AcDbDimension
  2
*D24
 10
271.446872
 20
-28.93571
 30
0.0
 11
280.056897
 21
-20.526506
 31
0.0
 70
    34
  3
STANDARD
100
AcDb2LineAngularDimension
 13
272.245556
 23
-12.051517
 33
0.0
 14
291.468392
 24
-11.715981
 34
0.0
 15
271.446872
 25
-12.051639
 35
0.0
 16
278.80593
 26
-24.642174
 36
0.0
1001
ACAD
1000
DSTYLE
1002
{
1002
}
  0
ARC
  5
117
100
AcDbEntity
  8
外形
  6
CONTINUOUS
100
AcDbCircle
 10
272.231594
 20
-11.251639
 30
0.0
 40
0.8
100
AcDbArc
 50
151.0
 51
271.0
  0
LINE
  5
118
100
AcDbEntity
  8
寸法
  6
CONTINUOUS
100
AcDbLine
 10
271.446872
 20
-12.051639
 30
0.0
 11
271.446872
 21
-28.93571
 31
0.0
  0
LINE
  5
11A
100
AcDbEntity
  8
外形
  6
CONTINUOUS
100
AcDbLine
 10
272.340126
 20
-0.051639
 30
0.0
 11
273.38999
 21
11.948361
 31
0.0
  0
LINE
  5
11B
100
AcDbEntity
  8
外形
  6
CONTINUOUS
100
AcDbLine
 10
292.140164
 20
-10.504073
 30
0.0
 11
281.524505
 21
7.163349
 31
0.0
  0
LINE
  5
11C
100
AcDbEntity
  8
外形
  6
CONTINUOUS
100
AcDbLine
 10
280.852733
 20
5.951441
 30
0.0
 11
271.531898
 21
-10.863791
 31
0.0
  0
LINE
  5
11F
100
AcDbEntity
  8
外形
  6
CONTINUOUS
100
AcDbLine
 10
272.245556
 20
-12.051517
 30
0.0
 11
291.468392
 21
-11.715981
 31
0.0
  0
CIRCLE
  5
120
100
AcDbEntity
  8
外形
  6
CONTINUOUS
100
AcDbCircle
 10
281.746151
 20
-5.534717
 30
0.0
 40
2.58
  0
LINE
  5
124
100
AcDbEntity
  8
外形
  6
CONTINUOUS
100
AcDbLine
 10
272.340126
 20
-4.045631
 30
0.0
 11
274.767932
 21
-5.025832
 31
0.0
  0
LINE
  5
125
100
AcDbEntity
  8
外形
  6
CONTINUOUS
100
AcDbLine
 10
272.340126
 20
-0.051639
 30
0.0
 11
272.340126
 21
-9.405709
 31
0.0
  0
ARC
  5
126
100
AcDbEntity
  8
外形
  6
CONTINUOUS
100
AcDbCircle
 10
291.45443
 20
-10.916103
 30
0.0
 40
0.8
100
AcDbArc
 50
271.0
 51
31.0
  0
ARC
  5
127
100
AcDbEntity
  8
外形
  6
CONTINUOUS
100
AcDbCircle
 10
281.552429
 20
5.563593
 30
0.0
 40
0.8
100
AcDbArc
 50
31.0
 51
151.0
  0
LINE
  5
128
100
AcDbEntity
  8
外形
  6
CONTINUOUS
100
AcDbLine
 10
278.725456
 20
2.11373
 30
0.0
 11
277.238669
 21
4.588159
 31
0.0
  0
ARC
  5
129
100
AcDbEntity
  8
外形
  6
CONTINUOUS
100
AcDbCircle
 10
279.381587
 20
5.875754
 30
0.0
 40
2.5
100
AcDbArc
 50
31.0
 51
211.0
  0
LWPOLYLINE
  5
12A
100
AcDbEntity
  8
外形
  6
CONTINUOUS
100
AcDbPolyline
 90
        6
 70
     1
 43
0.0
 10
288.850899
 20
5.646094
 10
289.443296
 20
4.018499
 10
291.149033
 20
3.717732
 10
292.262373
 20
5.044559
 10
291.669977
 20
6.672155
 10
289.96424
 20
6.972922
  0
CIRCLE
  5
12B
100
AcDbEntity
  8
外形
  6
CONTINUOUS
100
AcDbCircle
 10
290.556636
 20
5.345327
 30
0.0
 40
3.3235
  0
LINE
  5
12C
100
AcDbEntity
  8
外形
  6
CONTINUOUS
100
AcDbLine
 10
441.446872
 20
-5.051639
 30
0.0
 11
300.214199
 21
-5.051639
 31
0.0
  0
LINE
  5
12D
100
AcDbEntity
  8
外形
  6
CONTINUOUS
100
AcDbLine
 10
441.446872
 20
-44.971732
 30
0.0
 11
300.214199
 21
-44.971732
 31
0.0
  0
LINE
  5
12E
100
AcDbEntity
  8
外形
  6
CONTINUOUS
100
AcDbLine
 10
298.805517
 20
-42.578161
 30
0.0
 11
298.805517
 21
-76.971732
 31
0.0
  0
LINE
  5
12F
100
AcDbEntity
  8
外形
  6
CONTINUOUS
100
AcDbLine
 10
299.446872
 20
-44.612988
 30
0.0
 11
299.446872
 21
-76.971732
 31
0.0
  0
LINE
  5
130
100
AcDbEntity
  8
外形
  6
CONTINUOUS
100
AcDbLine
 10
298.805517
 20
-42.578161
 30
0.0
 11
299.248273
 21
-44.230551
 31
0.0
  0
ARC
  5
131
100
AcDbEntity
  8
外形
  6
CONTINUOUS
100
AcDbCircle
 10
300.214199
 20
-43.971732
 30
0.0
 40
1.0
100
AcDbArc
 50
195.0
 51
270.0
  0
LINE
  5
132
100
AcDbEntity
  8
外形
  6
CONTINUOUS
100
AcDbLine
 10
299.248273
 20
-5.79282
 30
0.0
 11
297.985878
 21
-10.504142
 31
0.0
  0
ARC
  5
133
100
AcDbEntity
  8
外形
  6
CONTINUOUS
100
AcDbCircle
 10
300.214199
 20
-6.051639
 30
0.0
 40
1.0
100
AcDbArc
 50
90.0
 51
165.0
  0
DIMENSION
  5
134
100
AcDbEntity
  8
寸法
  6
CONTINUOUS
100
AcDbDimension
  2
*D25
 10
451.913434
 20
-76.971732
 30
0.0
 11
449.413434
 21
-60.971732
 31
0.0
 70
    32
  3
STANDARD
100
AcDbAlignedDimension
 13
441.446872
 23
-44.971732
 33
0.0
 14
441.446872
 24
-76.971732
 34
0.0
 50
90.0
100
AcDbRotatedDimension
1001
ACAD
1000
DSTYLE
1002
{
1002
}
  0
LINE
  5
141
100
AcDbEntity
  8
外形
  6
CONTINUOUS
100
AcDbLine
 10
441.446872
 20
-76.971732
 30
0.0
 11
441.446872
 21
-44.971732
 31
0.0
  0
LINE
  5
142
100
AcDbEntity
  8
外形
  6
CONTINUOUS
100
AcDbLine
 10
441.446872
 20
19.948361
 30
0.0
 11
287.246397
 21
19.948361
 31
0.0
  0
LINE
  5
143
100
AcDbEntity
  8
外形
  6
CONTINUOUS
100
AcDbLine
 10
214.338914
 20
19.948361
 30
0.0
 11
249.138551
 21
19.948361
 31
0.0
  0
DIMENSION
  5
230
100
AcDbEntity
  8
寸法
  6
CONTINUOUS
100
AcDbDimension
  2
*D26
 10
300.214199
 20
-44.971732
 30
0.0
 11
264.348087
 21
-37.039302
 31
0.0
 70
   162
  3
STANDARD
100
AcDb2LineAngularDimension
 13
292.245484
 23
-43.15209
 33
0.0
 14
271.446872
 24
-44.971732
 34
0.0
 15
441.446872
 25
-44.971732
 35
0.0
 16
260.819873
 26
-45.590685
 36
0.0
1001
ACAD
1000
DSTYLE
1002
{
1002
}
  0
ENDSEC
  0
SECTION
  2
OBJECTS
  0
DICTIONARY
  5
1A
100
AcDbDictionary
  3
ACAD_GROUP
350
18
  3
ACAD_MLINESTYLE
350
19
  0
DICTIONARY
  5
18
102
{ACAD_REACTORS
330
1A
102
}
100
AcDbDictionary
  0
DICTIONARY
  5
19
102
{ACAD_REACTORS
330
1A
102
}
100
AcDbDictionary
  3
STANDARD
350
1C
  0
MLINESTYLE
  5
1C
102
{ACAD_REACTORS
330
19
102
}
100
AcDbMlineStyle
  2
STANDARD
 70
     0
  3

 62
     0
 51
90.0
 52
90.0
 71
     2
 49
0.5
 62
   256
  6
BYLAYER
 49
-0.5
 62
   256
  6
BYLAYER
  0
ENDSEC
  0
EOF
