  0
SECTION
  2
HEADER
  9
$ACADVER
  1
AC1014
  9
$ACADMAINTVER
 70
     0
  9
$DWGCODEPAGE
  3
ANSI_932
  9
$INSBASE
 10
495.108215
 20
-126.489309
 30
0.0
  9
$EXTMIN
 10
496.923212
 20
-114.495597
 30
0.0
  9
$EXTMAX
 10
759.298357
 20
35.164784
 30
0.0
  9
$LIMMIN
 10
-587.250952
 20
327.890188
  9
$LIMMAX
 10
600.749048
 20
957.890188
  9
$ORTHOMODE
 70
     1
  9
$REGENMODE
 70
     1
  9
$FILLMODE
 70
     1
  9
$QTEXTMODE
 70
     0
  9
$MIRRTEXT
 70
     1
  9
$DRAGMODE
 70
     2
  9
$LTSCALE
 40
5.0
  9
$OSMODE
 70
    45
  9
$ATTMODE
 70
     1
  9
$TEXTSIZE
 40
4.0
  9
$TRACEWID
 40
0.05
  9
$TEXTSTYLE
  7
STANDARD
  9
$CLAYER
  8
外形
  9
$CELTYPE
  6
CONTINUOUS
  9
$CECOLOR
 62
   256
  9
$CELTSCALE
 40
1.0
  9
$DELOBJ
 70
     1
  9
$DISPSILH
 70
     0
  9
$DIMSCALE
 40
1.0
  9
$DIMASZ
 40
2.0
  9
$DIMEXO
 40
1.0
  9
$DIMDLI
 40
8.0
  9
$DIMRND
 40
0.0
  9
$DIMDLE
 40
0.0
  9
$DIMEXE
 40
1.5
  9
$DIMTP
 40
0.0
  9
$DIMTM
 40
0.0
  9
$DIMTXT
 40
3.0
  9
$DIMCEN
 40
-1.0
  9
$DIMTSZ
 40
0.0
  9
$DIMTOL
 70
     0
  9
$DIMLIM
 70
     0
  9
$DIMTIH
 70
     0
  9
$DIMTOH
 70
     0
  9
$DIMSE1
 70
     0
  9
$DIMSE2
 70
     0
  9
$DIMTAD
 70
     1
  9
$DIMZIN
 70
     8
  9
$DIMBLK
  1

  9
$DIMASO
 70
     1
  9
$DIMSHO
 70
     1
  9
$DIMPOST
  1

  9
$DIMAPOST
  1

  9
$DIMALT
 70
     0
  9
$DIMALTD
 70
     2
  9
$DIMALTF
 40
25.4
  9
$DIMLFAC
 40
1.0
  9
$DIMTOFL
 70
     1
  9
$DIMTVP
 40
0.0
  9
$DIMTIX
 70
     0
  9
$DIMSOXD
 70
     0
  9
$DIMSAH
 70
     1
  9
$DIMBLK1
  1
_OPEN30
  9
$DIMBLK2
  1
_OPEN30
  9
$DIMSTYLE
  2
STANDARD
  9
$DIMCLRD
 70
     1
  9
$DIMCLRE
 70
     1
  9
$DIMCLRT
 70
     3
  9
$DIMTFAC
 40
1.0
  9
$DIMGAP
 40
1.0
  9
$DIMJUST
 70
     0
  9
$DIMSD1
 70
     0
  9
$DIMSD2
 70
     0
  9
$DIMTOLJ
 70
     1
  9
$DIMTZIN
 70
     8
  9
$DIMALTZ
 70
     0
  9
$DIMALTTZ
 70
     0
  9
$DIMFIT
 70
     3
  9
$DIMUPT
 70
     0
  9
$DIMUNIT
 70
     2
  9
$DIMDEC
 70
     3
  9
$DIMTDEC
 70
     4
  9
$DIMALTU
 70
     2
  9
$DIMALTTD
 70
     2
  9
$DIMTXSTY
  7
STANDARD
  9
$DIMAUNIT
 70
     0
  9
$LUNITS
 70
     2
  9
$LUPREC
 70
     4
  9
$SKETCHINC
 40
0.1
  9
$FILLETRAD
 40
1.0
  9
$AUNITS
 70
     0
  9
$AUPREC
 70
     3
  9
$MENU
  1
acad
  9
$ELEVATION
 40
0.0
  9
$PELEVATION
 40
0.0
  9
$THICKNESS
 40
0.0
  9
$LIMCHECK
 70
     0
  9
$BLIPMODE
 70
     0
  9
$CHAMFERA
 40
0.0
  9
$CHAMFERB
 40
0.0
  9
$CHAMFERC
 40
0.0
  9
$CHAMFERD
 40
0.0
  9
$SKPOLY
 70
     0
  9
$TDCREATE
 40
2450751.535399305
  9
$TDUPDATE
 40
2451930.498981481
  9
$TDINDWG
 40
1.6255108796
  9
$TDUSRTIMER
 40
1.6255108796
  9
$USRTIMER
 70
     1
  9
$ANGBASE
 50
0.0
  9
$ANGDIR
 70
     0
  9
$PDMODE
 70
     0
  9
$PDSIZE
 40
0.0
  9
$PLINEWID
 40
0.0
  9
$COORDS
 70
     1
  9
$SPLFRAME
 70
     0
  9
$SPLINETYPE
 70
     5
  9
$SPLINESEGS
 70
     8
  9
$ATTDIA
 70
     0
  9
$ATTREQ
 70
     1
  9
$HANDLING
 70
     1
  9
$HANDSEED
  5
2AE
  9
$SURFTAB1
 70
     6
  9
$SURFTAB2
 70
     6
  9
$SURFTYPE
 70
     6
  9
$SURFU
 70
     6
  9
$SURFV
 70
     6
  9
$UCSNAME
  2

  9
$UCSORG
 10
0.0
 20
0.0
 30
0.0
  9
$UCSXDIR
 10
1.0
 20
0.0
 30
0.0
  9
$UCSYDIR
 10
0.0
 20
1.0
 30
0.0
  9
$PUCSNAME
  2

  9
$PUCSORG
 10
0.0
 20
0.0
 30
0.0
  9
$PUCSXDIR
 10
1.0
 20
0.0
 30
0.0
  9
$PUCSYDIR
 10
0.0
 20
1.0
 30
0.0
  9
$USERI1
 70
     0
  9
$USERI2
 70
     0
  9
$USERI3
 70
     0
  9
$USERI4
 70
     0
  9
$USERI5
 70
     0
  9
$USERR1
 40
0.0
  9
$USERR2
 40
0.0
  9
$USERR3
 40
0.0
  9
$USERR4
 40
0.0
  9
$USERR5
 40
0.0
  9
$WORLDVIEW
 70
     1
  9
$SHADEDGE
 70
     3
  9
$SHADEDIF
 70
    70
  9
$TILEMODE
 70
     1
  9
$MAXACTVP
 70
    16
  9
$PINSBASE
 10
0.0
 20
0.0
 30
0.0
  9
$PLIMCHECK
 70
     0
  9
$PEXTMIN
 10
1.000000E+20
 20
1.000000E+20
 30
1.000000E+20
  9
$PEXTMAX
 10
-1.000000E+20
 20
-1.000000E+20
 30
-1.000000E+20
  9
$PLIMMIN
 10
0.0
 20
0.0
  9
$PLIMMAX
 10
12.0
 20
9.0
  9
$UNITMODE
 70
     0
  9
$VISRETAIN
 70
     0
  9
$PLINEGEN
 70
     0
  9
$PSLTSCALE
 70
     1
  9
$TREEDEPTH
 70
  3020
  9
$PICKSTYLE
 70
     1
  9
$CMLSTYLE
  2
STANDARD
  9
$CMLJUST
 70
     0
  9
$CMLSCALE
 40
1.0
  9
$PROXYGRAPHICS
 70
     1
  9
$MEASUREMENT
 70
     0
  0
ENDSEC
  0
SECTION
  2
CLASSES
  0
CLASS
  1
LWPOLYLINE
  2
AcDbPolyline
  3
"AutoCAD"
 90
        0
280
     0
281
     1
  0
ENDSEC
  0
SECTION
  2
TABLES
  0
TABLE
  2
VPORT
  5
12
100
AcDbSymbolTable
 70
     2
  0
VPORT
  5
2AD
100
AcDbSymbolTableRecord
100
AcDbViewportTableRecord
  2
*ACTIVE
 70
     0
 10
0.0
 20
0.0
 11
1.0
 21
1.0
 12
632.725631
 22
-36.788224
 13
0.0
 23
0.0
 14
0.05
 24
0.05
 15
10.0
 25
10.0
 16
0.0
 26
0.0
 36
1.0
 17
0.0
 27
0.0
 37
0.0
 40
169.718441
 41
1.710425
 42
50.0
 43
0.0
 44
0.0
 50
0.0
 51
0.0
 71
     0
 72
   100
 73
     1
 74
     1
 75
     0
 76
     0
 77
     0
 78
     0
  0
ENDTAB
  0
TABLE
  2
LTYPE
  5
D
100
AcDbSymbolTable
 70
     1
  0
LTYPE
  5
E
100
AcDbSymbolTableRecord
100
AcDbLinetypeTableRecord
  2
BYBLOCK
 70
     0
  3

 72
    65
 73
     0
 40
0.0
  0
LTYPE
  5
F
100
AcDbSymbolTableRecord
100
AcDbLinetypeTableRecord
  2
BYLAYER
 70
     0
  3

 72
    65
 73
     0
 40
0.0
  0
LTYPE
  5
5
100
AcDbSymbolTableRecord
100
AcDbLinetypeTableRecord
  2
CONTINUOUS
 70
     0
  3
Solid line
 72
    65
 73
     0
 40
0.0
  0
ENDTAB
  0
TABLE
  2
LAYER
  5
A
100
AcDbSymbolTable
 70
     4
  0
LAYER
  5
4
100
AcDbSymbolTableRecord
100
AcDbLayerTableRecord
  2
0
 70
     0
 62
     7
  6
CONTINUOUS
  0
LAYER
  5
26
100
AcDbSymbolTableRecord
100
AcDbLayerTableRecord
  2
外形
 70
     0
 62
     3
  6
CONTINUOUS
  0
LAYER
  5
49
100
AcDbSymbolTableRecord
100
AcDbLayerTableRecord
  2
DEFPOINTS
 70
     0
 62
     7
  6
CONTINUOUS
  0
LAYER
  5
31
100
AcDbSymbolTableRecord
100
AcDbLayerTableRecord
  2
寸法
 70
     0
 62
     1
  6
CONTINUOUS
  0
ENDTAB
  0
TABLE
  2
STYLE
  5
B
100
AcDbSymbolTable
 70
     1
  0
STYLE
  5
C
100
AcDbSymbolTableRecord
100
AcDbTextStyleTableRecord
  2
STANDARD
 70
     0
 40
0.0
 41
1.0
 50
0.0
 71
     0
 42
4.0
  3
MONOTXT
  4
BIGFONT
  0
ENDTAB
  0
TABLE
  2
VIEW
  5
10
100
AcDbSymbolTable
 70
     0
  0
ENDTAB
  0
TABLE
  2
UCS
  5
11
100
AcDbSymbolTable
 70
     0
  0
ENDTAB
  0
TABLE
  2
APPID
  5
14
100
AcDbSymbolTable
 70
     1
  0
APPID
  5
15
100
AcDbSymbolTableRecord
100
AcDbRegAppTableRecord
  2
ACAD
 70
     0
  0
ENDTAB
  0
TABLE
  2
DIMSTYLE
  5
16
100
AcDbSymbolTable
 70
     1
  0
DIMSTYLE
105
1D
102
{ACAD_REACTORS
330
6D
330
60
330
134
330
50
330
AB
330
8E
330
F8
330
C6
330
282
102
}
100
AcDbSymbolTableRecord
100
AcDbDimStyleTableRecord
  2
STANDARD
 70
     0
  3

  4

  5

  6
_OPEN30
  7
_OPEN30
 40
1.0
 41
2.0
 42
1.0
 43
8.0
 44
1.5
 45
0.0
 46
0.0
 47
0.0
 48
0.0
140
3.0
141
-1.0
142
0.0
143
25.4
144
1.0
145
0.0
146
1.0
147
1.0
 71
     0
 72
     0
 73
     0
 74
     0
 75
     0
 76
     0
 77
     1
 78
     8
170
     0
171
     2
172
     1
173
     1
174
     0
175
     0
176
     1
177
     1
178
     3
270
     2
271
     3
272
     4
273
     2
274
     2
340
C
275
     0
280
     0
281
     0
282
     0
283
     1
284
     8
285
     0
286
     0
287
     3
288
     0
  0
ENDTAB
  0
TABLE
  2
BLOCK_RECORD
  5
1
100
AcDbSymbolTable
 70
    27
  0
BLOCK_RECORD
  5
2
100
AcDbSymbolTableRecord
100
AcDbBlockTableRecord
  2
*MODEL_SPACE
  0
BLOCK_RECORD
  5
7
100
AcDbSymbolTableRecord
100
AcDbBlockTableRecord
  2
*PAPER_SPACE
  0
BLOCK_RECORD
  5
1E
100
AcDbSymbolTableRecord
100
AcDbBlockTableRecord
  2
_DOTSMALL
  0
BLOCK_RECORD
  5
14C
100
AcDbSymbolTableRecord
100
AcDbBlockTableRecord
  2
_OPEN30
  0
BLOCK_RECORD
  5
152
100
AcDbSymbolTableRecord
100
AcDbBlockTableRecord
  2
*D18
  0
BLOCK_RECORD
  5
161
100
AcDbSymbolTableRecord
100
AcDbBlockTableRecord
  2
*D19
  0
BLOCK_RECORD
  5
16D
100
AcDbSymbolTableRecord
100
AcDbBlockTableRecord
  2
*D20
  0
BLOCK_RECORD
  5
179
100
AcDbSymbolTableRecord
100
AcDbBlockTableRecord
  2
*D21
  0
BLOCK_RECORD
  5
185
100
AcDbSymbolTableRecord
100
AcDbBlockTableRecord
  2
*D22
  0
BLOCK_RECORD
  5
192
100
AcDbSymbolTableRecord
100
AcDbBlockTableRecord
  2
*D23
  0
BLOCK_RECORD
  5
19E
100
AcDbSymbolTableRecord
100
AcDbBlockTableRecord
  2
*D24
  0
BLOCK_RECORD
  5
1AA
100
AcDbSymbolTableRecord
100
AcDbBlockTableRecord
  2
*D25
  0
BLOCK_RECORD
  5
270
100
AcDbSymbolTableRecord
100
AcDbBlockTableRecord
  2
*D26
  0
ENDTAB
  0
ENDSEC
  0
SECTION
  2
BLOCKS
  0
BLOCK
  5
3
100
AcDbEntity
  8
0
100
AcDbBlockBegin
  2
*MODEL_SPACE
 70
     0
 10
0.0
 20
0.0
 30
0.0
  3
*MODEL_SPACE
  1

  0
ENDBLK
  5
6
100
AcDbEntity
  8
0
100
AcDbBlockEnd
  0
BLOCK
  5
8
100
AcDbEntity
 67
     1
  8
0
100
AcDbBlockBegin
  2
*PAPER_SPACE
 70
     0
 10
0.0
 20
0.0
 30
0.0
  3
*PAPER_SPACE
  1

  0
ENDBLK
  5
9
100
AcDbEntity
 67
     1
  8
0
100
AcDbBlockEnd
  0
BLOCK
  5
23
100
AcDbEntity
  8
0
100
AcDbBlockBegin
  2
_DOTSMALL
 70
     0
 10
0.0
 20
0.0
 30
0.0
  3
_DOTSMALL
  1

  0
POLYLINE
  5
1F
100
AcDbEntity
  8
0
  6
BYBLOCK
 62
     0
100
AcDb2dPolyline
 66
     1
 10
0.0
 20
0.0
 30
0.0
 70
     1
 40
0.5
 41
0.5
  0
VERTEX
  5
20
100
AcDbEntity
  8
0
  6
BYBLOCK
 62
     0
100
AcDbVertex
100
AcDb2dVertex
 10
-0.0625
 20
0.0
 30
0.0
 42
1.0
  0
VERTEX
  5
21
100
AcDbEntity
  8
0
  6
BYBLOCK
 62
     0
100
AcDbVertex
100
AcDb2dVertex
 10
0.0625
 20
0.0
 30
0.0
 42
1.0
  0
SEQEND
  5
22
100
AcDbEntity
  8
0
  6
BYBLOCK
 62
     0
  0
ENDBLK
  5
24
100
AcDbEntity
  8
0
100
AcDbBlockEnd
  0
BLOCK
  5
14D
100
AcDbEntity
  8
0
100
AcDbBlockBegin
  2
_OPEN30
 70
     0
 10
0.0
 20
0.0
 30
0.0
  3
_OPEN30
  1

  0
LINE
  5
14E
100
AcDbEntity
  8
0
  6
BYBLOCK
 62
     0
100
AcDbLine
 10
-1.0
 20
0.267949
 30
0.0
 11
0.0
 21
0.0
 31
0.0
  0
LINE
  5
14F
100
AcDbEntity
  8
0
  6
BYBLOCK
 62
     0
100
AcDbLine
 10
0.0
 20
0.0
 30
0.0
 11
-1.0
 21
-0.267949
 31
0.0
  0
LINE
  5
150
100
AcDbEntity
  8
0
  6
BYBLOCK
 62
     0
100
AcDbLine
 10
0.0
 20
0.0
 30
0.0
 11
-1.0
 21
0.0
 31
0.0
  0
ENDBLK
  5
151
100
AcDbEntity
  8
0
100
AcDbBlockEnd
  0
BLOCK
  5
233
100
AcDbEntity
  8
0
100
AcDbBlockBegin
  2
*D18
 70
     1
 10
0.0
 20
0.0
 30
0.0
  3
*D18
  1

  0
LINE
  5
234
100
AcDbEntity
  8
0
  6
BYBLOCK
 62
     1
100
AcDbLine
 10
536.836053
 20
-15.831411
 30
0.0
 11
535.451347
 21
-31.658674
 31
0.0
  0
ARC
  5
235
100
AcDbEntity
  8
0
  6
BYBLOCK
 62
     1
100
AcDbCircle
 10
536.923209
 20
-14.835216
 30
0.0
 40
15.387721
100
AcDbArc
 50
250.063847
 51
265.0
  0
LINE
  5
236
100
AcDbEntity
  8
0
  6
BYBLOCK
 62
     1
100
AcDbLine
 10
531.676415
 20
-29.300799
 30
0.0
 11
523.591786
 21
-26.368433
 31
0.0
  0
ARC
  5
237
100
AcDbEntity
  8
0
  6
BYBLOCK
 62
     1
100
AcDbCircle
 10
536.923209
 20
-14.835216
 30
0.0
 40
15.387721
100
AcDbArc
 50
250.0956
 51
257.5478
  0
ARC
  5
238
100
AcDbEntity
  8
0
  6
BYBLOCK
 62
     1
100
AcDbCircle
 10
536.923209
 20
-14.835216
 30
0.0
 40
15.387721
100
AcDbArc
 50
277.4522
 51
284.9044
  0
ARC
  5
239
100
AcDbEntity
  8
0
  6
BYBLOCK
 62
     1
100
AcDbCircle
 10
536.923209
 20
-14.835216
 30
0.0
 40
15.387721
100
AcDbArc
 50
265.0
 51
270.0
  0
INSERT
  5
23A
100
AcDbEntity
  8
0
  6
BYBLOCK
 62
     1
100
AcDbBlockReference
  2
_OPEN30
 10
535.582081
 20
-30.164382
 30
0.0
 41
2.0
 42
2.0
 43
2.0
 50
351.2739
  0
INSERT
  5
23B
100
AcDbEntity
  8
0
  6
BYBLOCK
 62
     1
100
AcDbBlockReference
  2
_OPEN30
 10
536.923209
 20
-30.222937
 30
0.0
 41
2.0
 42
2.0
 43
2.0
 50
183.7261
  0
MTEXT
  5
23C
100
AcDbEntity
  8
0
  6
BYBLOCK
 62
     3
100
AcDbMText
 10
528.486532
 20
-25.484433
 30
0.0
 40
3.0
 41
0.0
 71
     5
 72
     1
  1
\A1;5°
 11
0.940073
 21
-0.340973
 31
0.0
  0
POINT
  5
23D
100
AcDbEntity
  8
DEFPOINTS
  6
BYBLOCK
 62
     0
100
AcDbPoint
 10
536.475662
 20
-30.216427
 30
0.0
  0
POINT
  5
23E
100
AcDbEntity
  8
DEFPOINTS
  6
BYBLOCK
 62
     0
100
AcDbPoint
 10
536.923209
 20
-14.835216
 30
0.0
  0
POINT
  5
23F
100
AcDbEntity
  8
DEFPOINTS
  6
BYBLOCK
 62
     0
100
AcDbPoint
 10
541.297642
 20
35.164784
 30
0.0
  0
POINT
  5
240
100
AcDbEntity
  8
DEFPOINTS
  6
BYBLOCK
 62
     0
100
AcDbPoint
 10
536.923209
 20
-14.835216
 30
0.0
  0
POINT
  5
241
100
AcDbEntity
  8
DEFPOINTS
  6
BYBLOCK
 62
     0
100
AcDbPoint
 10
536.923209
 20
-31.873897
 30
0.0
  0
ENDBLK
  5
242
100
AcDbEntity
  8
0
100
AcDbBlockEnd
  0
BLOCK
  5
265
100
AcDbEntity
  8
0
100
AcDbBlockBegin
  2
*D19
 70
     1
 10
0.0
 20
0.0
 30
0.0
  3
*D19
  1

  0
LINE
  5
266
100
AcDbEntity
  8
0
  6
BYBLOCK
 62
     1
100
AcDbLine
 10
750.863595
 20
35.164784
 30
0.0
 11
758.926185
 21
35.164784
 31
0.0
  0
LINE
  5
267
100
AcDbEntity
  8
0
  6
BYBLOCK
 62
     1
100
AcDbLine
 10
750.863595
 20
-4.835216
 30
0.0
 11
758.926185
 21
-4.835216
 31
0.0
  0
LINE
  5
268
100
AcDbEntity
  8
0
  6
BYBLOCK
 62
     1
100
AcDbLine
 10
757.426185
 20
33.164784
 30
0.0
 11
757.426185
 21
-2.835216
 31
0.0
  0
INSERT
  5
269
100
AcDbEntity
  8
0
  6
BYBLOCK
 62
     1
100
AcDbBlockReference
  2
_OPEN30
 10
757.426185
 20
35.164784
 30
0.0
 41
2.0
 42
2.0
 43
2.0
 50
90.0
  0
INSERT
  5
26A
100
AcDbEntity
  8
0
  6
BYBLOCK
 62
     1
100
AcDbBlockReference
  2
_OPEN30
 10
757.426185
 20
-4.835216
 30
0.0
 41
2.0
 42
2.0
 43
2.0
 50
270.0
  0
MTEXT
  5
26B
100
AcDbEntity
  8
0
  6
BYBLOCK
 62
     3
100
AcDbMText
 10
754.926185
 20
15.164784
 30
0.0
 40
3.0
 41
0.0
 71
     5
 72
     1
  1
\A1;40
 11
0.0
 21
1.0
 31
0.0
  0
POINT
  5
26C
100
AcDbEntity
  8
DEFPOINTS
  6
BYBLOCK
 62
     0
100
AcDbPoint
 10
749.863595
 20
35.164784
 30
0.0
  0
POINT
  5
26D
100
AcDbEntity
  8
DEFPOINTS
  6
BYBLOCK
 62
     0
100
AcDbPoint
 10
749.863595
 20
-4.835216
 30
0.0
  0
POINT
  5
26E
100
AcDbEntity
  8
DEFPOINTS
  6
BYBLOCK
 62
     0
100
AcDbPoint
 10
757.426185
 20
-4.835216
 30
0.0
  0
ENDBLK
  5
26F
100
AcDbEntity
  8
0
100
AcDbBlockEnd
  0
BLOCK
  5
228
100
AcDbEntity
  8
0
100
AcDbBlockBegin
  2
*D20
 70
     1
 10
0.0
 20
0.0
 30
0.0
  3
*D20
  1

  0
LINE
  5
229
100
AcDbEntity
  8
0
  6
BYBLOCK
 62
     1
100
AcDbLine
 10
590.272453
 20
35.164784
 30
0.0
 11
543.302253
 21
35.164784
 31
0.0
  0
LINE
  5
22A
100
AcDbEntity
  8
0
  6
BYBLOCK
 62
     1
100
AcDbLine
 10
548.863595
 20
-14.835216
 30
0.0
 11
543.302253
 21
-14.835216
 31
0.0
  0
LINE
  5
22B
100
AcDbEntity
  8
0
  6
BYBLOCK
 62
     1
100
AcDbLine
 10
544.802253
 20
33.164784
 30
0.0
 11
544.802253
 21
-12.835216
 31
0.0
  0
INSERT
  5
22C
100
AcDbEntity
  8
0
  6
BYBLOCK
 62
     1
100
AcDbBlockReference
  2
_OPEN30
 10
544.802253
 20
35.164784
 30
0.0
 41
2.0
 42
2.0
 43
2.0
 50
90.0
  0
INSERT
  5
22D
100
AcDbEntity
  8
0
  6
BYBLOCK
 62
     1
100
AcDbBlockReference
  2
_OPEN30
 10
544.802253
 20
-14.835216
 30
0.0
 41
2.0
 42
2.0
 43
2.0
 50
270.0
  0
MTEXT
  5
22E
100
AcDbEntity
  8
0
  6
BYBLOCK
 62
     3
100
AcDbMText
 10
542.302253
 20
10.164784
 30
0.0
 40
3.0
 41
0.0
 71
     5
 72
     1
  1
\A1;50
 11
0.0
 21
1.0
 31
0.0
  0
POINT
  5
22F
100
AcDbEntity
  8
DEFPOINTS
  6
BYBLOCK
 62
     0
100
AcDbPoint
 10
591.272453
 20
35.164784
 30
0.0
  0
POINT
  5
230
100
AcDbEntity
  8
DEFPOINTS
  6
BYBLOCK
 62
     0
100
AcDbPoint
 10
549.863595
 20
-14.835216
 30
0.0
  0
POINT
  5
231
100
AcDbEntity
  8
DEFPOINTS
  6
BYBLOCK
 62
     0
100
AcDbPoint
 10
544.802253
 20
-14.835216
 30
0.0
  0
ENDBLK
  5
232
100
AcDbEntity
  8
0
100
AcDbBlockEnd
  0
BLOCK
  5
212
100
AcDbEntity
  8
0
100
AcDbBlockBegin
  2
*D21
 70
     1
 10
0.0
 20
0.0
 30
0.0
  3
*D21
  1

  0
LINE
  5
213
100
AcDbEntity
  8
0
  6
BYBLOCK
 62
     1
100
AcDbLine
 10
549.863595
 20
-15.835216
 30
0.0
 11
549.863595
 21
-35.823192
 31
0.0
  0
LINE
  5
214
100
AcDbEntity
  8
0
  6
BYBLOCK
 62
     1
100
AcDbLine
 10
749.863595
 20
-7.835216
 30
0.0
 11
749.863595
 21
-35.823192
 31
0.0
  0
LINE
  5
215
100
AcDbEntity
  8
0
  6
BYBLOCK
 62
     1
100
AcDbLine
 10
551.863595
 20
-34.323192
 30
0.0
 11
747.863595
 21
-34.323192
 31
0.0
  0
INSERT
  5
216
100
AcDbEntity
  8
0
  6
BYBLOCK
 62
     1
100
AcDbBlockReference
  2
_OPEN30
 10
549.863595
 20
-34.323192
 30
0.0
 41
2.0
 42
2.0
 43
2.0
 50
180.0
  0
INSERT
  5
217
100
AcDbEntity
  8
0
  6
BYBLOCK
 62
     1
100
AcDbBlockReference
  2
_OPEN30
 10
749.863595
 20
-34.323192
 30
0.0
 41
2.0
 42
2.0
 43
2.0
  0
MTEXT
  5
218
100
AcDbEntity
  8
0
  6
BYBLOCK
 62
     3
100
AcDbMText
 10
649.863595
 20
-31.823192
 30
0.0
 40
3.0
 41
0.0
 71
     5
 72
     1
  1
\A1;200
  0
POINT
  5
219
100
AcDbEntity
  8
DEFPOINTS
  6
BYBLOCK
 62
     0
100
AcDbPoint
 10
549.863595
 20
-14.835216
 30
0.0
  0
POINT
  5
21A
100
AcDbEntity
  8
DEFPOINTS
  6
BYBLOCK
 62
     0
100
AcDbPoint
 10
749.863595
 20
-6.835216
 30
0.0
  0
POINT
  5
21B
100
AcDbEntity
  8
DEFPOINTS
  6
BYBLOCK
 62
     0
100
AcDbPoint
 10
749.863595
 20
-34.323192
 30
0.0
  0
ENDBLK
  5
21C
100
AcDbEntity
  8
0
100
AcDbBlockEnd
  0
BLOCK
  5
24E
100
AcDbEntity
  8
0
100
AcDbBlockBegin
  2
*D22
 70
     1
 10
0.0
 20
0.0
 30
0.0
  3
*D22
  1

  0
LINE
  5
24F
100
AcDbEntity
  8
0
  6
BYBLOCK
 62
     1
100
AcDbLine
 10
549.863595
 20
-15.855994
 30
0.0
 11
549.863595
 21
-27.815696
 31
0.0
  0
ARC
  5
250
100
AcDbEntity
  8
0
  6
BYBLOCK
 62
     1
100
AcDbCircle
 10
549.863595
 20
-14.855994
 30
0.0
 40
11.459702
100
AcDbArc
 50
280.012257
 51
350.987743
  0
INSERT
  5
251
100
AcDbEntity
  8
0
  6
BYBLOCK
 62
     1
100
AcDbBlockReference
  2
_OPEN30
 10
549.863595
 20
-26.315696
 30
0.0
 41
2.0
 42
2.0
 43
2.0
 50
185.006129
  0
INSERT
  5
252
100
AcDbEntity
  8
0
  6
BYBLOCK
 62
     1
100
AcDbBlockReference
  2
_OPEN30
 10
561.321552
 20
-14.655994
 30
0.0
 41
2.0
 42
2.0
 43
2.0
 50
85.993871
  0
MTEXT
  5
253
100
AcDbEntity
  8
0
  6
BYBLOCK
 62
     3
100
AcDbMText
 10
556.254106
 20
-21.135932
 30
0.0
 40
3.0
 41
0.0
 71
     5
 72
     1
  1
\A1;91°
 11
0.700909
 21
0.71325
 31
0.0
  0
POINT
  5
254
100
AcDbEntity
  8
DEFPOINTS
  6
BYBLOCK
 62
     0
100
AcDbPoint
 10
555.651086
 20
-24.746885
 30
0.0
  0
POINT
  5
255
100
AcDbEntity
  8
DEFPOINTS
  6
BYBLOCK
 62
     0
100
AcDbPoint
 10
549.863595
 20
-14.835216
 30
0.0
  0
POINT
  5
256
100
AcDbEntity
  8
DEFPOINTS
  6
BYBLOCK
 62
     0
100
AcDbPoint
 10
548.986293
 20
-14.871307
 30
0.0
  0
POINT
  5
257
100
AcDbEntity
  8
DEFPOINTS
  6
BYBLOCK
 62
     0
100
AcDbPoint
 10
574.400268
 20
-14.427705
 30
0.0
  0
POINT
  5
258
100
AcDbEntity
  8
DEFPOINTS
  6
BYBLOCK
 62
     0
100
AcDbPoint
 10
549.863595
 20
-13.853929
 30
0.0
  0
ENDBLK
  5
259
100
AcDbEntity
  8
0
100
AcDbBlockEnd
  0
BLOCK
  5
243
100
AcDbEntity
  8
0
100
AcDbBlockBegin
  2
*D23
 70
     1
 10
0.0
 20
0.0
 30
0.0
  3
*D23
  1

  0
LINE
  5
244
100
AcDbEntity
  8
0
  6
BYBLOCK
 62
     1
100
AcDbLine
 10
549.863595
 20
-47.984285
 30
0.0
 11
549.863595
 21
-38.604488
 31
0.0
  0
LINE
  5
245
100
AcDbEntity
  8
0
  6
BYBLOCK
 62
     1
100
AcDbLine
 10
582.863595
 20
-47.984285
 30
0.0
 11
582.863595
 21
-38.604488
 31
0.0
  0
LINE
  5
246
100
AcDbEntity
  8
0
  6
BYBLOCK
 62
     1
100
AcDbLine
 10
551.863595
 20
-40.104488
 30
0.0
 11
580.863595
 21
-40.104488
 31
0.0
  0
INSERT
  5
247
100
AcDbEntity
  8
0
  6
BYBLOCK
 62
     1
100
AcDbBlockReference
  2
_OPEN30
 10
549.863595
 20
-40.104488
 30
0.0
 41
2.0
 42
2.0
 43
2.0
 50
180.0
  0
INSERT
  5
248
100
AcDbEntity
  8
0
  6
BYBLOCK
 62
     1
100
AcDbBlockReference
  2
_OPEN30
 10
582.863595
 20
-40.104488
 30
0.0
 41
2.0
 42
2.0
 43
2.0
  0
MTEXT
  5
249
100
AcDbEntity
  8
0
  6
BYBLOCK
 62
     3
100
AcDbMText
 10
566.363595
 20
-37.604488
 30
0.0
 40
3.0
 41
0.0
 71
     5
 72
     1
  1
\A1;33
  0
POINT
  5
24A
100
AcDbEntity
  8
DEFPOINTS
  6
BYBLOCK
 62
     0
100
AcDbPoint
 10
549.863595
 20
-48.984285
 30
0.0
  0
POINT
  5
24B
100
AcDbEntity
  8
DEFPOINTS
  6
BYBLOCK
 62
     0
100
AcDbPoint
 10
582.863595
 20
-48.984285
 30
0.0
  0
POINT
  5
24C
100
AcDbEntity
  8
DEFPOINTS
  6
BYBLOCK
 62
     0
100
AcDbPoint
 10
582.863595
 20
-40.104488
 30
0.0
  0
ENDBLK
  5
24D
100
AcDbEntity
  8
0
100
AcDbBlockEnd
  0
BLOCK
  5
29D
100
AcDbEntity
  8
0
100
AcDbBlockBegin
  2
*D24
 70
     1
 10
0.0
 20
0.0
 30
0.0
  3
*D24
  1

  0
LINE
  5
29E
100
AcDbEntity
  8
0
  6
BYBLOCK
 62
     1
100
AcDbLine
 10
548.863595
 20
-48.984285
 30
0.0
 11
528.046468
 21
-48.984285
 31
0.0
  0
LINE
  5
29F
100
AcDbEntity
  8
0
  6
BYBLOCK
 62
     1
100
AcDbLine
 10
549.466522
 20
-88.984282
 30
0.0
 11
528.046468
 21
-88.984282
 31
0.0
  0
LINE
  5
2A0
100
AcDbEntity
  8
0
  6
BYBLOCK
 62
     1
100
AcDbLine
 10
529.546468
 20
-50.984285
 30
0.0
 11
529.546468
 21
-86.984282
 31
0.0
  0
INSERT
  5
2A1
100
AcDbEntity
  8
0
  6
BYBLOCK
 62
     1
100
AcDbBlockReference
  2
_OPEN30
 10
529.546468
 20
-48.984285
 30
0.0
 41
2.0
 42
2.0
 43
2.0
 50
90.0
  0
INSERT
  5
2A2
100
AcDbEntity
  8
0
  6
BYBLOCK
 62
     1
100
AcDbBlockReference
  2
_OPEN30
 10
529.546468
 20
-88.984282
 30
0.0
 41
2.0
 42
2.0
 43
2.0
 50
270.0
  0
MTEXT
  5
2A3
100
AcDbEntity
  8
0
  6
BYBLOCK
 62
     3
100
AcDbMText
 10
527.046468
 20
-68.984284
 30
0.0
 40
3.0
 41
0.0
 71
     5
 72
     1
  1
\A1;40
 11
0.0
 21
1.0
 31
0.0
  0
POINT
  5
2A4
100
AcDbEntity
  8
DEFPOINTS
  6
BYBLOCK
 62
     0
100
AcDbPoint
 10
549.863595
 20
-48.984285
 30
0.0
  0
POINT
  5
2A5
100
AcDbEntity
  8
DEFPOINTS
  6
BYBLOCK
 62
     0
100
AcDbPoint
 10
550.466522
 20
-88.984282
 30
0.0
  0
POINT
  5
2A6
100
AcDbEntity
  8
DEFPOINTS
  6
BYBLOCK
 62
     0
100
AcDbPoint
 10
529.546468
 20
-88.984282
 30
0.0
  0
ENDBLK
  5
2A7
100
AcDbEntity
  8
0
100
AcDbBlockEnd
  0
BLOCK
  5
25A
100
AcDbEntity
  8
0
100
AcDbBlockBegin
  2
*D25
 70
     1
 10
0.0
 20
0.0
 30
0.0
  3
*D25
  1

  0
LINE
  5
25B
100
AcDbEntity
  8
0
  6
BYBLOCK
 62
     1
100
AcDbLine
 10
750.863595
 20
-48.984282
 30
0.0
 11
759.298357
 21
-48.984282
 31
0.0
  0
LINE
  5
25C
100
AcDbEntity
  8
0
  6
BYBLOCK
 62
     1
100
AcDbLine
 10
750.863595
 20
-88.984282
 30
0.0
 11
759.298357
 21
-88.984282
 31
0.0
  0
LINE
  5
25D
100
AcDbEntity
  8
0
  6
BYBLOCK
 62
     1
100
AcDbLine
 10
757.798357
 20
-50.984282
 30
0.0
 11
757.798357
 21
-86.984282
 31
0.0
  0
INSERT
  5
25E
100
AcDbEntity
  8
0
  6
BYBLOCK
 62
     1
100
AcDbBlockReference
  2
_OPEN30
 10
757.798357
 20
-48.984282
 30
0.0
 41
2.0
 42
2.0
 43
2.0
 50
90.0
  0
INSERT
  5
25F
100
AcDbEntity
  8
0
  6
BYBLOCK
 62
     1
100
AcDbBlockReference
  2
_OPEN30
 10
757.798357
 20
-88.984282
 30
0.0
 41
2.0
 42
2.0
 43
2.0
 50
270.0
  0
MTEXT
  5
260
100
AcDbEntity
  8
0
  6
BYBLOCK
 62
     3
100
AcDbMText
 10
755.298357
 20
-68.984282
 30
0.0
 40
3.0
 41
0.0
 71
     5
 72
     1
  1
\A1;40
 11
0.0
 21
1.0
 31
0.0
  0
POINT
  5
261
100
AcDbEntity
  8
DEFPOINTS
  6
BYBLOCK
 62
     0
100
AcDbPoint
 10
749.863595
 20
-48.984282
 30
0.0
  0
POINT
  5
262
100
AcDbEntity
  8
DEFPOINTS
  6
BYBLOCK
 62
     0
100
AcDbPoint
 10
749.863595
 20
-88.984282
 30
0.0
  0
POINT
  5
263
100
AcDbEntity
  8
DEFPOINTS
  6
BYBLOCK
 62
     0
100
AcDbPoint
 10
757.798357
 20
-88.984282
 30
0.0
  0
ENDBLK
  5
264
100
AcDbEntity
  8
0
100
AcDbBlockEnd
  0
BLOCK
  5
28E
100
AcDbEntity
  8
0
100
AcDbBlockBegin
  2
*D26
 70
     1
 10
0.0
 20
0.0
 30
0.0
  3
*D26
  1

  0
LINE
  5
28F
100
AcDbEntity
  8
0
  6
BYBLOCK
 62
     1
100
AcDbLine
 10
548.863631
 20
-48.984282
 30
0.0
 11
537.346714
 21
-48.984282
 31
0.0
  0
LINE
  5
290
100
AcDbEntity
  8
0
  6
BYBLOCK
 62
     1
100
AcDbLine
 10
548.8674
 20
-49.071441
 30
0.0
 11
537.394345
 21
-50.075203
 31
0.0
  0
ARC
  5
291
100
AcDbEntity
  8
0
  6
BYBLOCK
 62
     1
100
AcDbCircle
 10
549.863631
 20
-48.984282
 30
0.0
 40
11.016917
100
AcDbArc
 50
159.168491
 51
169.584246
  0
ARC
  5
292
100
AcDbEntity
  8
0
  6
BYBLOCK
 62
     1
100
AcDbCircle
 10
549.863631
 20
-48.984282
 30
0.0
 40
11.016917
100
AcDbArc
 50
195.415754
 51
205.831509
  0
ARC
  5
293
100
AcDbEntity
  8
0
  6
BYBLOCK
 62
     1
100
AcDbCircle
 10
549.863631
 20
-48.984282
 30
0.0
 40
11.016917
100
AcDbArc
 50
180.0
 51
185.0
  0
INSERT
  5
294
100
AcDbEntity
  8
0
  6
BYBLOCK
 62
     1
100
AcDbBlockReference
  2
_OPEN30
 10
538.846714
 20
-48.984282
 30
0.0
 41
2.0
 42
2.0
 43
2.0
 50
264.792123
  0
INSERT
  5
295
100
AcDbEntity
  8
0
  6
BYBLOCK
 62
     1
100
AcDbBlockReference
  2
_OPEN30
 10
538.888637
 20
-49.94447
 30
0.0
 41
2.0
 42
2.0
 43
2.0
 50
100.207877
  0
MTEXT
  5
296
100
AcDbEntity
  8
0
  6
BYBLOCK
 62
     3
100
AcDbMText
 10
540.570126
 20
-39.1691
 30
0.0
 40
3.0
 41
0.0
 71
     5
 72
     1
  1
\A1;5°
 11
0.726141
 21
0.687546
 31
0.0
  0
POINT
  5
297
100
AcDbEntity
  8
DEFPOINTS
  6
BYBLOCK
 62
     0
100
AcDbPoint
 10
538.865353
 20
-49.624859
 30
0.0
  0
POINT
  5
298
100
AcDbEntity
  8
DEFPOINTS
  6
BYBLOCK
 62
     0
100
AcDbPoint
 10
575.567421
 20
-46.735492
 30
0.0
  0
POINT
  5
299
100
AcDbEntity
  8
DEFPOINTS
  6
BYBLOCK
 62
     0
100
AcDbPoint
 10
749.863595
 20
-48.984282
 30
0.0
  0
POINT
  5
29A
100
AcDbEntity
  8
DEFPOINTS
  6
BYBLOCK
 62
     0
100
AcDbPoint
 10
583.630922
 20
-48.984282
 30
0.0
  0
POINT
  5
29B
100
AcDbEntity
  8
DEFPOINTS
  6
BYBLOCK
 62
     0
100
AcDbPoint
 10
549.863595
 20
-48.984285
 30
0.0
  0
ENDBLK
  5
29C
100
AcDbEntity
  8
0
100
AcDbBlockEnd
  0
ENDSEC
  0
SECTION
  2
ENTITIES
  0
LINE
  5
25
100
AcDbEntity
  8
外形
  6
CONTINUOUS
100
AcDbLine
 10
496.923212
 20
-13.725216
 30
0.0
 11
496.923212
 21
35.164784
 31
0.0
  0
LINE
  5
27
100
AcDbEntity
  8
外形
  6
CONTINUOUS
100
AcDbLine
 10
541.297642
 20
35.164784
 30
0.0
 11
536.923209
 21
-14.835216
 31
0.0
  0
LINE
  5
28
100
AcDbEntity
  8
外形
  6
CONTINUOUS
100
AcDbLine
 10
530.598462
 20
-14.269324
 30
0.0
 11
525.856575
 21
-13.854463
 31
0.0
  0
LINE
  5
29
100
AcDbEntity
  8
外形
  6
CONTINUOUS
100
AcDbLine
 10
526.810716
 20
-2.948582
 30
0.0
 11
525.856575
 21
-13.854463
 31
0.0
  0
LINE
  5
2A
100
AcDbEntity
  8
外形
  6
CONTINUOUS
100
AcDbLine
 10
496.923212
 20
-3.916883
 30
0.0
 11
526.726001
 21
-3.916883
 31
0.0
  0
LINE
  5
2B
100
AcDbEntity
  8
外形
  6
CONTINUOUS
100
AcDbLine
 10
496.923212
 20
13.364784
 30
0.0
 11
539.390389
 21
13.364784
 31
0.0
  0
LINE
  5
2C
100
AcDbEntity
  8
外形
  6
CONTINUOUS
100
AcDbLine
 10
496.923212
 20
-13.725216
 30
0.0
 11
525.867883
 21
-13.725216
 31
0.0
  0
LINE
  5
2D
100
AcDbEntity
  8
外形
  6
CONTINUOUS
100
AcDbLine
 10
531.353842
 20
-5.635296
 30
0.0
 11
530.597373
 21
-14.281777
 31
0.0
  0
LINE
  5
2E
100
AcDbEntity
  8
外形
  6
CONTINUOUS
100
AcDbLine
 10
550.466522
 20
-12.200905
 30
0.0
 11
550.466522
 21
-3.916883
 31
0.0
  0
LINE
  5
2F
100
AcDbEntity
  8
外形
  6
CONTINUOUS
100
AcDbLine
 10
561.309109
 20
7.359641
 30
0.0
 11
549.993951
 21
-13.053444
 31
0.0
  0
LINE
  5
30
100
AcDbEntity
  8
寸法
  6
CONTINUOUS
100
AcDbLine
 10
549.842652
 20
-14.835216
 30
0.0
 11
536.923209
 21
-14.835216
 31
0.0
  0
ARC
  5
32
100
AcDbEntity
  8
外形
  6
CONTINUOUS
100
AcDbCircle
 10
551.043495
 20
-13.635216
 30
0.0
 40
1.2
100
AcDbArc
 50
151.0
 51
271.0
  0
LINE
  5
33
100
AcDbEntity
  8
外形
  6
CONTINUOUS
100
AcDbLine
 10
536.923209
 20
-14.835216
 30
0.0
 11
530.597373
 21
-14.281777
 31
0.0
  0
LINE
  5
37
100
AcDbEntity
  8
外形
  6
CONTINUOUS
100
AcDbLine
 10
537.679678
 20
-6.188735
 30
0.0
 11
526.611955
 21
-5.220435
 31
0.0
  0
LINE
  5
38
100
AcDbEntity
  8
外形
  6
CONTINUOUS
100
AcDbLine
 10
537.878439
 20
-3.916883
 30
0.0
 11
526.810716
 21
-2.948582
 31
0.0
  0
LINE
  5
39
100
AcDbEntity
  8
外形
  6
CONTINUOUS
100
AcDbLine
 10
550.466522
 20
-3.916883
 30
0.0
 11
553.513746
 21
13.364784
 31
0.0
  0
CIRCLE
  5
3A
100
AcDbEntity
  8
外形
  6
CONTINUOUS
100
AcDbCircle
 10
562.593824
 20
-6.695078
 30
0.0
 40
3.175
  0
LINE
  5
3B
100
AcDbEntity
  8
外形
  6
CONTINUOUS
100
AcDbLine
 10
553.799122
 20
-6.188735
 30
0.0
 11
550.466522
 21
-3.916883
 31
0.0
  0
ARC
  5
3C
100
AcDbEntity
  8
外形
  6
CONTINUOUS
100
AcDbCircle
 10
562.358653
 20
6.77787
 30
0.0
 40
1.2
100
AcDbArc
 50
31.0
 51
151.0
  0
ARC
  5
3D
100
AcDbEntity
  8
外形
  6
CONTINUOUS
100
AcDbCircle
 10
559.745265
 20
7.63239
 30
0.0
 40
3.0
100
AcDbArc
 50
31.0
 51
211.0
  0
LINE
  5
3E
100
AcDbEntity
  8
外形
  6
CONTINUOUS
100
AcDbLine
 10
558.957908
 20
3.117961
 30
0.0
 11
557.173763
 21
6.087276
 31
0.0
  0
LINE
  5
3F
100
AcDbEntity
  8
外形
  6
CONTINUOUS
100
AcDbLine
 10
541.297642
 20
35.164784
 30
0.0
 11
496.923212
 21
35.164784
 31
0.0
  0
DIMENSION
  5
50
100
AcDbEntity
  8
寸法
  6
CONTINUOUS
100
AcDbDimension
  2
*D18
 10
536.923209
 20
-31.873897
 30
0.0
 11
528.486532
 21
-25.484433
 31
0.0
 70
    34
  3
STANDARD
100
AcDb2LineAngularDimension
 13
541.297642
 23
35.164784
 33
0.0
 14
536.923209
 24
-14.835216
 34
0.0
 15
536.923209
 25
-14.835216
 35
0.0
 16
536.475662
 26
-30.216427
 36
0.0
1001
ACAD
1000
DSTYLE
1002
{
1002
}
  0
DIMENSION
  5
60
100
AcDbEntity
  8
寸法
  6
CONTINUOUS
100
AcDbDimension
  2
*D19
 10
757.426185
 20
-4.835216
 30
0.0
 11
754.926185
 21
15.164784
 31
0.0
 70
    32
  3
STANDARD
100
AcDbAlignedDimension
 13
749.863595
 23
35.164784
 33
0.0
 14
749.863595
 24
-4.835216
 34
0.0
 50
90.0
100
AcDbRotatedDimension
1001
ACAD
1000
DSTYLE
1002
{
1002
}
  0
DIMENSION
  5
6D
100
AcDbEntity
  8
寸法
  6
CONTINUOUS
100
AcDbDimension
  2
*D20
 10
544.802253
 20
-14.835216
 30
0.0
 11
542.302253
 21
10.164784
 31
0.0
 70
    32
  3
STANDARD
100
AcDbAlignedDimension
 13
591.272453
 23
35.164784
 33
0.0
 14
549.863595
 24
-14.835216
 34
0.0
 50
90.0
100
AcDbRotatedDimension
1001
ACAD
1000
DSTYLE
1002
{
1002
}
  0
LINE
  5
7A
100
AcDbEntity
  8
外形
  6
CONTINUOUS
100
AcDbLine
 10
582.107712
 20
29.873518
 30
0.0
 11
582.863595
 21
-5.190867
 31
0.0
  0
LINE
  5
7B
100
AcDbEntity
  8
外形
  6
CONTINUOUS
100
AcDbLine
 10
749.863595
 20
-4.835216
 30
0.0
 11
749.863595
 21
35.164784
 31
0.0
  0
LINE
  5
7C
100
AcDbEntity
  8
外形
  6
CONTINUOUS
100
AcDbLine
 10
582.863595
 20
-5.190867
 30
0.0
 11
582.863595
 21
30.309927
 31
0.0
  0
LINE
  5
7D
100
AcDbEntity
  8
外形
  6
CONTINUOUS
100
AcDbLine
 10
553.513746
 20
13.364784
 30
0.0
 11
591.272453
 21
35.164784
 31
0.0
  0
DIMENSION
  5
8E
100
AcDbEntity
  8
寸法
  6
CONTINUOUS
100
AcDbDimension
  2
*D21
 10
749.863595
 20
-34.323192
 30
0.0
 11
649.863595
 21
-31.823192
 31
0.0
 70
    32
  3
STANDARD
100
AcDbAlignedDimension
 13
549.863595
 23
-14.835216
 33
0.0
 14
749.863595
 24
-6.835216
 34
0.0
100
AcDbRotatedDimension
1001
ACAD
1000
DSTYLE
1002
{
1002
}
  0
LINE
  5
9B
100
AcDbEntity
  8
外形
  6
CONTINUOUS
100
AcDbLine
 10
749.863595
 20
-4.835216
 30
0.0
 11
583.628326
 21
-4.835216
 31
0.0
  0
LINE
  5
9C
100
AcDbEntity
  8
外形
  6
CONTINUOUS
100
AcDbLine
 10
550.466522
 20
-88.984282
 30
0.0
 11
749.863595
 21
-88.984282
 31
0.0
  0
LINE
  5
9D
100
AcDbEntity
  8
外形
  6
CONTINUOUS
100
AcDbLine
 10
749.863595
 20
-48.984282
 30
0.0
 11
583.630922
 21
-48.984282
 31
0.0
  0
LINE
  5
9E
100
AcDbEntity
  8
外形
  6
CONTINUOUS
100
AcDbLine
 10
550.466522
 20
-88.984282
 30
0.0
 11
749.863595
 21
-88.984282
 31
0.0
  0
TEXT
  5
9F
100
AcDbEntity
  8
外形
  6
CONTINUOUS
 62
     2
100
AcDbText
 10
579.235146
 20
-114.495597
 30
0.0
 40
6.0
  1
PTGN R4040-54
100
AcDbText
  0
DIMENSION
  5
AB
100
AcDbEntity
  8
寸法
  6
CONTINUOUS
100
AcDbDimension
  2
*D22
 10
549.863595
 20
-13.853929
 30
0.0
 11
556.254106
 21
-21.135932
 31
0.0
 70
    34
  3
STANDARD
100
AcDb2LineAngularDimension
 13
548.986293
 23
-14.871307
 33
0.0
 14
574.400268
 24
-14.427705
 34
0.0
 15
549.863595
 25
-14.835216
 35
0.0
 16
555.651086
 26
-24.746885
 36
0.0
  0
DIMENSION
  5
C6
100
AcDbEntity
  8
寸法
  6
CONTINUOUS
100
AcDbDimension
  2
*D23
 10
582.863595
 20
-40.104488
 30
0.0
 11
566.363595
 21
-37.604488
 31
0.0
 70
    32
  3
STANDARD
100
AcDbAlignedDimension
 13
549.863595
 23
-48.984285
 33
0.0
 14
582.863595
 24
-48.984285
 34
0.0
100
AcDbRotatedDimension
1001
ACAD
1000
DSTYLE
1002
{
1002
}
  0
LINE
  5
D3
100
AcDbEntity
  8
外形
  6
CONTINUOUS
100
AcDbLine
 10
575.567421
 20
-46.735492
 30
0.0
 11
549.863595
 21
-48.984285
 31
0.0
  0
LINE
  5
D4
100
AcDbEntity
  8
外形
  6
CONTINUOUS
100
AcDbLine
 10
576.12086
 20
-53.061328
 30
0.0
 11
550.417034
 21
-55.310122
 31
0.0
  0
LINE
  5
D5
100
AcDbEntity
  8
外形
  6
CONTINUOUS
100
AcDbLine
 10
576.523269
 20
-57.804304
 30
0.0
 11
550.466522
 21
-60.083974
 31
0.0
  0
LWPOLYLINE
  5
D7
100
AcDbEntity
  8
外形
  6
CONTINUOUS
100
AcDbPolyline
 90
        6
 70
     1
 43
0.0
 10
570.957213
 20
6.040025
 10
571.54961
 20
4.41243
 10
573.255347
 20
4.111662
 10
574.368687
 20
5.43849
 10
573.776291
 20
7.066086
 10
572.070554
 20
7.366853
  0
CIRCLE
  5
D8
100
AcDbEntity
  8
外形
  6
CONTINUOUS
100
AcDbCircle
 10
572.66295
 20
5.739258
 30
0.0
 40
4.0
  0
CIRCLE
  5
D9
100
AcDbEntity
  8
外形
  6
CONTINUOUS
100
AcDbCircle
 10
572.66295
 20
5.739258
 30
0.0
 40
3.3235
  0
LINE
  5
DA
100
AcDbEntity
  8
外形
  6
CONTINUOUS
100
AcDbLine
 10
551.064438
 20
-14.835033
 30
0.0
 11
574.400268
 21
-14.427705
 31
0.0
  0
LINE
  5
DB
100
AcDbEntity
  8
外形
  6
CONTINUOUS
100
AcDbLine
 10
575.407925
 20
-12.609842
 30
0.0
 11
562.316767
 21
9.177504
 31
0.0
  0
DIMENSION
  5
F8
100
AcDbEntity
  8
寸法
  6
CONTINUOUS
100
AcDbDimension
  2
*D24
 10
529.546468
 20
-88.984282
 30
0.0
 11
527.046468
 21
-68.984284
 31
0.0
 70
    32
  3
STANDARD
100
AcDbAlignedDimension
 13
549.863595
 23
-48.984285
 33
0.0
 14
550.466522
 24
-88.984282
 34
0.0
 50
90.0
100
AcDbRotatedDimension
1001
ACAD
1000
DSTYLE
1002
{
1002
}
  0
LINE
  5
105
100
AcDbEntity
  8
外形
  6
CONTINUOUS
100
AcDbLine
 10
550.466522
 20
-60.083974
 30
0.0
 11
550.466522
 21
-88.984282
 31
0.0
  0
LINE
  5
106
100
AcDbEntity
  8
外形
  6
CONTINUOUS
100
AcDbLine
 10
549.863595
 20
-48.984285
 30
0.0
 11
550.417034
 21
-55.310122
 31
0.0
  0
LINE
  5
107
100
AcDbEntity
  8
外形
  6
CONTINUOUS
100
AcDbLine
 10
550.429486
 20
-55.309032
 30
0.0
 11
550.844348
 21
-60.050919
 31
0.0
  0
LINE
  5
127
100
AcDbEntity
  8
寸法
  6
CONTINUOUS
100
AcDbLine
 10
536.923209
 20
-14.835216
 30
0.0
 11
536.923209
 21
-31.873897
 31
0.0
  0
LINE
  5
129
100
AcDbEntity
  8
外形
  6
CONTINUOUS
100
AcDbLine
 10
582.107712
 20
-46.163291
 30
0.0
 11
582.107712
 21
-88.984282
 31
0.0
  0
LINE
  5
12A
100
AcDbEntity
  8
外形
  6
CONTINUOUS
100
AcDbLine
 10
582.863595
 20
-48.625538
 30
0.0
 11
582.863595
 21
-88.984282
 31
0.0
  0
LINE
  5
12B
100
AcDbEntity
  8
外形
  6
CONTINUOUS
100
AcDbLine
 10
576.108408
 20
-53.062418
 30
0.0
 11
576.523269
 21
-57.804304
 31
0.0
  0
LINE
  5
12C
100
AcDbEntity
  8
外形
  6
CONTINUOUS
100
AcDbLine
 10
575.567421
 20
-46.735492
 30
0.0
 11
576.12086
 21
-53.061328
 31
0.0
  0
LINE
  5
12D
100
AcDbEntity
  8
外形
  6
CONTINUOUS
100
AcDbLine
 10
582.107712
 20
-46.163291
 30
0.0
 11
582.664996
 21
-48.243101
 31
0.0
  0
ARC
  5
12E
100
AcDbEntity
  8
外形
  6
CONTINUOUS
100
AcDbCircle
 10
583.630922
 20
-47.984282
 30
0.0
 40
1.0
100
AcDbArc
 50
195.0
 51
270.0
  0
LINE
  5
12F
100
AcDbEntity
  8
外形
  6
CONTINUOUS
100
AcDbLine
 10
582.107712
 20
-46.163291
 30
0.0
 11
575.567421
 21
-46.735492
 31
0.0
  0
LINE
  5
130
100
AcDbEntity
  8
外形
  6
CONTINUOUS
100
AcDbLine
 10
582.6624
 20
-5.576397
 30
0.0
 11
580.596198
 21
-13.287569
 31
0.0
  0
ARC
  5
131
100
AcDbEntity
  8
外形
  6
CONTINUOUS
100
AcDbCircle
 10
574.379325
 20
-13.227887
 30
0.0
 40
1.2
100
AcDbArc
 50
271.0
 51
31.0
  0
LINE
  5
132
100
AcDbEntity
  8
外形
  6
CONTINUOUS
100
AcDbLine
 10
575.566669
 20
-13.401705
 30
0.0
 11
580.596198
 21
-13.287569
 31
0.0
  0
ARC
  5
133
100
AcDbEntity
  8
外形
  6
CONTINUOUS
100
AcDbCircle
 10
583.628326
 20
-5.835216
 30
0.0
 40
1.0
100
AcDbArc
 50
90.0
 51
165.0
  0
DIMENSION
  5
134
100
AcDbEntity
  8
寸法
  6
CONTINUOUS
100
AcDbDimension
  2
*D25
 10
757.798357
 20
-88.984282
 30
0.0
 11
755.298357
 21
-68.984282
 31
0.0
 70
    32
  3
STANDARD
100
AcDbAlignedDimension
 13
749.863595
 23
-48.984282
 33
0.0
 14
749.863595
 24
-88.984282
 34
0.0
 50
90.0
100
AcDbRotatedDimension
1001
ACAD
1000
DSTYLE
1002
{
1002
}
  0
LINE
  5
141
100
AcDbEntity
  8
外形
  6
CONTINUOUS
100
AcDbLine
 10
749.863595
 20
-88.984282
 30
0.0
 11
749.863595
 21
-48.984282
 31
0.0
  0
LINE
  5
142
100
AcDbEntity
  8
外形
  6
CONTINUOUS
100
AcDbLine
 10
749.863595
 20
35.164784
 30
0.0
 11
591.272453
 21
35.164784
 31
0.0
  0
DIMENSION
  5
282
100
AcDbEntity
  8
寸法
  6
CONTINUOUS
100
AcDbDimension
  2
*D26
 10
549.863595
 20
-48.984285
 30
0.0
 11
542.288991
 21
-40.984451
 31
0.0
 70
   162
  3
STANDARD
100
AcDb2LineAngularDimension
 13
749.863595
 23
-48.984282
 33
0.0
 14
583.630922
 24
-48.984282
 34
0.0
 15
575.567421
 25
-46.735492
 35
0.0
 16
538.865353
 26
-49.624859
 36
0.0
  0
ENDSEC
  0
SECTION
  2
OBJECTS
  0
DICTIONARY
  5
1A
100
AcDbDictionary
  3
ACAD_GROUP
350
18
  3
ACAD_MLINESTYLE
350
19
  0
DICTIONARY
  5
18
102
{ACAD_REACTORS
330
1A
102
}
100
AcDbDictionary
  0
DICTIONARY
  5
19
102
{ACAD_REACTORS
330
1A
102
}
100
AcDbDictionary
  3
STANDARD
350
1C
  0
MLINESTYLE
  5
1C
102
{ACAD_REACTORS
330
19
102
}
100
AcDbMlineStyle
  2
STANDARD
 70
     0
  3

 62
     0
 51
90.0
 52
90.0
 71
     2
 49
0.5
 62
   256
  6
BYLAYER
 49
-0.5
 62
   256
  6
BYLAYER
  0
ENDSEC
  0
EOF
