  0
SECTION
  2
HEADER
  9
$ACADVER
  1
AC1015
  9
$ACADMAINTVER
 70
     6
  9
$DWGCODEPAGE
  3
ANSI_932
  9
$INSBASE
 10
0.0
 20
0.0
 30
0.0
  9
$EXTMIN
 10
-52.30815352458473
 20
-63.03284187428384
 30
0.0
  9
$EXTMAX
 10
120.0
 20
81.0
 30
0.0
  9
$LIMMIN
 10
0.0
 20
0.0
  9
$LIMMAX
 10
400.0
 20
273.0
  9
$ORTHOMODE
 70
     0
  9
$REGENMODE
 70
     1
  9
$FILLMODE
 70
     1
  9
$QTEXTMODE
 70
     0
  9
$MIRRTEXT
 70
     1
  9
$LTSCALE
 40
1.0
  9
$ATTMODE
 70
     1
  9
$TEXTSIZE
 40
3.0
  9
$TRACEWID
 40
0.5
  9
$TEXTSTYLE
  7
STANDARD
  9
$CLAYER
  8
0
  9
$CELTYPE
  6
ByLayer
  9
$CECOLOR
 62
   256
  9
$CELTSCALE
 40
1.0
  9
$DISPSILH
 70
     0
  9
$DIMSCALE
 40
1.0
  9
$DIMASZ
 40
3.0
  9
$DIMEXO
 40
1.0
  9
$DIMDLI
 40
5.0
  9
$DIMRND
 40
0.0
  9
$DIMDLE
 40
3.0
  9
$DIMEXE
 40
2.0
  9
$DIMTP
 40
0.0
  9
$DIMTM
 40
0.0
  9
$DIMTXT
 40
5.0
  9
$DIMCEN
 40
2.0
  9
$DIMTSZ
 40
0.0
  9
$DIMTOL
 70
     0
  9
$DIMLIM
 70
     0
  9
$DIMTIH
 70
     0
  9
$DIMTOH
 70
     0
  9
$DIMSE1
 70
     0
  9
$DIMSE2
 70
     0
  9
$DIMTAD
 70
     1
  9
$DIMZIN
 70
     8
  9
$DIMBLK
  1

  9
$DIMASO
 70
     1
  9
$DIMSHO
 70
     0
  9
$DIMPOST
  1

  9
$DIMAPOST
  1

  9
$DIMALT
 70
     0
  9
$DIMALTD
 70
     4
  9
$DIMALTF
 40
25.4
  9
$DIMLFAC
 40
1.0
  9
$DIMTOFL
 70
     1
  9
$DIMTVP
 40
1.0
  9
$DIMTIX
 70
     0
  9
$DIMSOXD
 70
     0
  9
$DIMSAH
 70
     0
  9
$DIMBLK1
  1

  9
$DIMBLK2
  1

  9
$DIMSTYLE
  2
Standard
  9
$DIMCLRD
 70
     0
  9
$DIMCLRE
 70
     0
  9
$DIMCLRT
 70
     0
  9
$DIMTFAC
 40
1.0
  9
$DIMGAP
 40
0.09
  9
$DIMJUST
 70
     0
  9
$DIMSD1
 70
     0
  9
$DIMSD2
 70
     0
  9
$DIMTOLJ
 70
     1
  9
$DIMTZIN
 70
     0
  9
$DIMALTZ
 70
     0
  9
$DIMALTTZ
 70
     0
  9
$DIMUPT
 70
     0
  9
$DIMDEC
 70
     4
  9
$DIMTDEC
 70
     4
  9
$DIMALTU
 70
     2
  9
$DIMALTTD
 70
     2
  9
$DIMTXSTY
  7
STANDARD
  9
$DIMAUNIT
 70
     0
  9
$DIMADEC
 70
     0
  9
$DIMALTRND
 40
0.0
  9
$DIMAZIN
 70
     0
  9
$DIMDSEP
 70
    46
  9
$DIMATFIT
 70
     3
  9
$DIMFRAC
 70
     0
  9
$DIMLDRBLK
  1

  9
$DIMLUNIT
 70
     2
  9
$DIMLWD
 70
    -2
  9
$DIMLWE
 70
    -2
  9
$DIMTMOVE
 70
     0
  9
$LUNITS
 70
     2
  9
$LUPREC
 70
     4
  9
$SKETCHINC
 40
1.0
  9
$FILLETRAD
 40
0.0
  9
$AUNITS
 70
     0
  9
$AUPREC
 70
     0
  9
$MENU
  1
acad
  9
$ELEVATION
 40
0.0
  9
$PELEVATION
 40
0.0
  9
$THICKNESS
 40
0.0
  9
$LIMCHECK
 70
     0
  9
$CHAMFERA
 40
0.0
  9
$CHAMFERB
 40
0.0
  9
$CHAMFERC
 40
0.0
  9
$CHAMFERD
 40
0.0
  9
$SKPOLY
 70
     0
  9
$TDCREATE
 40
2453969.537916667
  9
$TDUCREATE
 40
2453969.162916667
  9
$TDUPDATE
 40
2455482.46359772
  9
$TDUUPDATE
 40
2455482.08859772
  9
$TDINDWG
 40
0.0091572569
  9
$TDUSRTIMER
 40
0.0091568981
  9
$USRTIMER
 70
     1
  9
$ANGBASE
 50
0.0
  9
$ANGDIR
 70
     0
  9
$PDMODE
 70
     0
  9
$PDSIZE
 40
0.0
  9
$PLINEWID
 40
0.0
  9
$SPLFRAME
 70
     0
  9
$SPLINETYPE
 70
     6
  9
$SPLINESEGS
 70
    16
  9
$HANDSEED
  5
528
  9
$SURFTAB1
 70
     6
  9
$SURFTAB2
 70
     6
  9
$SURFTYPE
 70
     6
  9
$SURFU
 70
     6
  9
$SURFV
 70
     6
  9
$UCSBASE
  2

  9
$UCSNAME
  2

  9
$UCSORG
 10
0.0
 20
0.0
 30
0.0
  9
$UCSXDIR
 10
1.0
 20
0.0
 30
0.0
  9
$UCSYDIR
 10
0.0
 20
1.0
 30
0.0
  9
$UCSORTHOREF
  2

  9
$UCSORTHOVIEW
 70
     0
  9
$UCSORGTOP
 10
0.0
 20
0.0
 30
0.0
  9
$UCSORGBOTTOM
 10
0.0
 20
0.0
 30
0.0
  9
$UCSORGLEFT
 10
0.0
 20
0.0
 30
0.0
  9
$UCSORGRIGHT
 10
0.0
 20
0.0
 30
0.0
  9
$UCSORGFRONT
 10
0.0
 20
0.0
 30
0.0
  9
$UCSORGBACK
 10
0.0
 20
0.0
 30
0.0
  9
$PUCSBASE
  2

  9
$PUCSNAME
  2

  9
$PUCSORG
 10
0.0
 20
0.0
 30
0.0
  9
$PUCSXDIR
 10
1.0
 20
0.0
 30
0.0
  9
$PUCSYDIR
 10
0.0
 20
1.0
 30
0.0
  9
$PUCSORTHOREF
  2

  9
$PUCSORTHOVIEW
 70
     0
  9
$PUCSORGTOP
 10
0.0
 20
0.0
 30
0.0
  9
$PUCSORGBOTTOM
 10
0.0
 20
0.0
 30
0.0
  9
$PUCSORGLEFT
 10
0.0
 20
0.0
 30
0.0
  9
$PUCSORGRIGHT
 10
0.0
 20
0.0
 30
0.0
  9
$PUCSORGFRONT
 10
0.0
 20
0.0
 30
0.0
  9
$PUCSORGBACK
 10
0.0
 20
0.0
 30
0.0
  9
$USERI1
 70
     0
  9
$USERI2
 70
     0
  9
$USERI3
 70
     0
  9
$USERI4
 70
     0
  9
$USERI5
 70
     0
  9
$USERR1
 40
0.0
  9
$USERR2
 40
0.0
  9
$USERR3
 40
0.0
  9
$USERR4
 40
0.0
  9
$USERR5
 40
0.0
  9
$WORLDVIEW
 70
     1
  9
$SHADEDGE
 70
     3
  9
$SHADEDIF
 70
    70
  9
$TILEMODE
 70
     1
  9
$MAXACTVP
 70
    64
  9
$PINSBASE
 10
0.0
 20
0.0
 30
0.0
  9
$PLIMCHECK
 70
     0
  9
$PEXTMIN
 10
1.000000000000000E+20
 20
1.000000000000000E+20
 30
1.000000000000000E+20
  9
$PEXTMAX
 10
-1.000000000000000E+20
 20
-1.000000000000000E+20
 30
-1.000000000000000E+20
  9
$PLIMMIN
 10
0.0
 20
0.0
  9
$PLIMMAX
 10
12.0
 20
9.0
  9
$UNITMODE
 70
     0
  9
$VISRETAIN
 70
     1
  9
$PLINEGEN
 70
     0
  9
$PSLTSCALE
 70
     1
  9
$TREEDEPTH
 70
  3020
  9
$CMLSTYLE
  2
Standard
  9
$CMLJUST
 70
     0
  9
$CMLSCALE
 40
1.0
  9
$PROXYGRAPHICS
 70
     1
  9
$MEASUREMENT
 70
     0
  9
$CELWEIGHT
370
    -1
  9
$ENDCAPS
280
     0
  9
$JOINSTYLE
280
     0
  9
$LWDISPLAY
290
     0
  9
$INSUNITS
 70
     0
  9
$HYPERLINKBASE
  1

  9
$STYLESHEET
  1
sei_cad.ctb
  9
$XEDIT
290
     1
  9
$CEPSNTYPE
380
     0
  9
$PSTYLEMODE
290
     1
  9
$FINGERPRINTGUID
  2
{880C3E9D-59DB-42E9-8888-78E9858FF914}
  9
$VERSIONGUID
  2
{FD48498B-3508-4643-B26B-1CE99BBB78BC}
  9
$EXTNAMES
290
     1
  9
$PSVPSCALE
 40
0.0
  9
$OLESTARTUP
290
     0
  0
ENDSEC
  0
SECTION
  2
CLASSES
  0
CLASS
  1
ACDBDICTIONARYWDFLT
  2
AcDbDictionaryWithDefault
  3
ObjectDBX Classes
 90
        0
280
     0
281
     0
  0
CLASS
  1
TABLESTYLE
  2
AcDbTableStyle
  3
ObjectDBX Classes
 90
     2047
280
     0
281
     0
  0
CLASS
  1
ACME_DOCUMENT
  2
AcMeDbDoc
  3
AcMeServices
 90
        0
280
     1
281
     0
  0
CLASS
  1
ACMESCOPE
  2
AcMeScope
  3
AcMeServices
 90
        0
280
     1
281
     0
  0
CLASS
  1
ACMECOMMANDHISTORY
  2
AcMeCommandHistory
  3
AcMeServices
 90
        0
280
     1
281
     0
  0
CLASS
  1
ACIMSYSVARMAN
  2
AcImSysVarManager
  3
AcMeServices
 90
        0
280
     1
281
     0
  0
CLASS
  1
ACIMINTSYSVAR
  2
AcImIntSysVar
  3
AcMeServices
 90
        0
280
     1
281
     0
  0
CLASS
  1
ACMEDRAWINGMAN
  2
AcMeDrawingMan
  3
AcMeServices
 90
        0
280
     1
281
     0
  0
CLASS
  1
ACMEVIEW
  2
AcMeView
  3
AcMeServices
 90
        0
280
     1
281
     0
  0
CLASS
  1
ACDBENTITYCACHE
  2
AcMeEntityCache
  3
AcMeServices
 90
        0
280
     1
281
     0
  0
CLASS
  1
GSMANAGER
  2
AcMeGSManager
  3
AcMeServices
 90
        0
280
     1
281
     0
  0
CLASS
  1
AMDTINTERNALREACTOR
  2
AmdtInternalReactor
  3
AcMeServices
 90
        0
280
     1
281
     0
  0
CLASS
  1
ACMESTATEMGR
  2
AcMeStateMgr
  3
AcMeServices
 90
        0
280
     1
281
     0
  0
CLASS
  1
ACGREFMASTER
  2
AcGrefMaster
  3
AcAttribServices
 90
        0
280
     1
281
     0
  0
CLASS
  1
AM_DRAWING_MGR
  2
AcDmDwgMgr
  3
AcMechDwgViewMgmt
 90
        0
280
     1
281
     0
  0
CLASS
  1
AM_DWG_DOCUMENT
  2
AcDmDwgDocument
  3
AcMechDwgViewMgmt
 90
        0
280
     1
281
     0
  0
CLASS
  1
AM_DWG_SHEET
  2
AcDmSheet
  3
AcMechDwgViewMgmt
 90
        0
280
     1
281
     0
  0
CLASS
  1
AM_VIEWDIMPARMAP
  2
AcDmViewDimParMap
  3
AcMechDwgViewMgmt
 90
        0
280
     1
281
     0
  0
CLASS
  1
ACIMREALSYSVAR
  2
AcImRealSysVar
  3
AcMeServices
 90
        0
280
     1
281
     0
  0
CLASS
  1
AM_DWGMGR_NAME
  2
AcDmDwgMgrName
  3
AcMechDwgViewMgmt
 90
        0
280
     1
281
     0
  0
CLASS
  1
ACME_DATABASE
  2
AcMeDbDatabase
  3
AcMeServices
 90
        0
280
     1
281
     0
  0
CLASS
  1
ACRFINSADJUSTERMGR
  2
AcRfInsAdjusterMgr
  3
AcMeServices
 90
        0
280
     1
281
     0
  0
CLASS
  1
ACGREFACADMASTER
  2
AcGrefacadMaster
  3
AcGrefServices
 90
        0
280
     1
281
     0
  0
CLASS
  1
AMDTMENUSTATEMGR
  2
AmdtMenuStateMgr
  3
McadcomServices
 90
        0
280
     1
281
     0
  0
CLASS
  1
AMDTMCOMMENUSTATE
  2
AmdtMcomMenuState
  3
McadcomServices
 90
        0
280
     1
281
     0
  0
CLASS
  1
AMIMASTER
  2
AmiMaster
  3
AmiServices
 90
        0
280
     1
281
     0
  0
CLASS
  1
AMGSETTINGSOBJ
  2
AmgSettingsObj
  3
"AcadM|Product Description: AutoCAD Mechanical 2000|Company: Autodesk"
 90
        0
280
     1
281
     0
  0
CLASS
  1
MAPIAMMOUDLE
  2
MApiAmModule
  3
MApiAmServices
 90
        0
280
     1
281
     0
  0
CLASS
  1
AMDTADMENUSTATE
  2
AmdtAdMenuState
  3
DesignerServices
 90
        0
280
     1
281
     0
  0
CLASS
  1
ADAPPL
  2
AcAdAppl
  3
DesignerServices
 90
        0
280
     1
281
     0
  0
CLASS
  1
DEPMGR
  2
AcAdDepMgr
  3
DesignerServices
 90
        0
280
     1
281
     0
  0
CLASS
  1
PARAMMGR
  2
AcAdParamMgr
  3
DesignerServices
 90
        0
280
     1
281
     0
  0
CLASS
  1
PARAMSCOPE
  2
AcAdParamScope
  3
DesignerServices
 90
        0
280
     1
281
     0
  0
CLASS
  1
NAMEDAPPL
  2
AcAdNamedAppl
  3
DesignerServices
 90
        0
280
     1
281
     0
  0
CLASS
  1
AMDTDMMENUSTATE
  2
AmdtDmMenuState
  3
AcMechDwgViewMgmt
 90
        0
280
     1
281
     0
  0
CLASS
  1
AMDTAMMENUSTATE
  2
AmdtAmMenuState
  3
DesignerAssemblies
 90
        0
280
     1
281
     0
  0
CLASS
  1
ACIMSTRSYSVAR
  2
AcImStrSysVar
  3
AcMeServices
 90
        0
280
     1
281
     0
  0
CLASS
  1
ACAMPROJECT
  2
AcAmProject
  3
DesignerAssemblies
 90
        0
280
     1
281
     0
  0
CLASS
  1
ACAMGRCOMPDEF
  2
AcAmGrCompDef
  3
DesignerAssemblies
 90
        0
280
     1
281
     0
  0
CLASS
  1
ACCMCONTEXT
  2
AcCmContext
  3
DesignerAssemblies
 90
        0
280
     1
281
     0
  0
CLASS
  1
ACAMCOMPDEF
  2
AcAmCompDef
  3
DesignerAssemblies
 90
        0
280
     1
281
     0
  0
CLASS
  1
ACAMCOMPDEFMGR
  2
AcAmCompDefMgr
  3
DesignerAssemblies
 90
        0
280
     1
281
     0
  0
CLASS
  1
AMCONTEXTMGR
  2
AcAmContextMgr
  3
DesignerAssemblies
 90
        0
280
     1
281
     0
  0
CLASS
  1
ACAMCONTEXTMODELER
  2
AcAmContextModeler
  3
DesignerAssemblies
 90
        0
280
     1
281
     0
  0
CLASS
  1
ACMDATADICTIONARY
  2
AcmDataDictionary
  3
"AcmSymBB|Product Description: AutoCAD Mechanical 2004 DX|Company: Autodesk"
 90
        0
280
     1
281
     0
  0
CLASS
  1
CATALOGSTATE
  2
AcAmCatalogState
  3
DesignerAssemblies
 90
        0
280
     1
281
     0
  0
CLASS
  1
ACAMGRCOMPDEFSET
  2
AcAmGrCompDefSet
  3
DesignerAssemblies
 90
        0
280
     1
281
     0
  0
CLASS
  1
AMDTBROWSERDBTAB
  2
AmdtBrowserDbTab
  3
McadcomServices
 90
        0
280
     1
281
     0
  0
CLASS
  1
CBROWSERAPPOBJECT
  2
CBrowserAppObject
  3
McadcomServices
 90
        0
280
     1
281
     0
  0
CLASS
  1
DM_PLACEHOLDER
  2
AcDmSelsetPlaceholder
  3
AcMechDwgViewMgmt
 90
        0
280
     1
281
     0
  0
CLASS
  1
ACMSTANDARDANSI
  2
AcmStandardANSI
  3
"Amdt_StdImp|Product Description: AutoCAD Mechanical 2004 DX|Company: Autodesk"
 90
        0
280
     1
281
     0
  0
CLASS
  1
AMGOBJPROPCFG
  2
AmgObjPropCfg
  3
"AmgLay|Product Description: AutoCAD Mechanical 2000|Company: Autodesk"
 90
        1
280
     1
281
     0
  0
CLASS
  1
ACMSURFSTANDARDANSI
  2
AcmSurfTextStdANSI
  3
"Amdt_StdImp|Product Description: AutoCAD Mechanical 2004 DX|Company: Autodesk"
 90
        0
280
     1
281
     0
  0
CLASS
  1
ACMFCFSTANDARDANSI
  2
AcmFCFStdANSI
  3
"Amdt_StdImp|Product Description: AutoCAD Mechanical 2004 DX|Company: Autodesk"
 90
        0
280
     1
281
     0
  0
CLASS
  1
ACMWELDSTANDARDANSI
  2
AcmWeldingStdANSI
  3
"Amdt_StdImp|Product Description: AutoCAD Mechanical 2004 DX|Company: Autodesk"
 90
        0
280
     1
281
     0
  0
CLASS
  1
ACMIDSTANDARDANSI
  2
AcmIdStdANSI
  3
"Amdt_StdImp|Product Description: AutoCAD Mechanical 2004 DX|Company: Autodesk"
 90
        0
280
     1
281
     0
  0
CLASS
  1
ACMDATUMSTANDARDANSI
  2
AcmDatumStdANSI
  3
"Amdt_StdImp|Product Description: AutoCAD Mechanical 2004 DX|Company: Autodesk"
 90
        0
280
     1
281
     0
  0
CLASS
  1
ACMBOMSTANDARDANSI
  2
AcmBOMStdANSI
  3
"Amdt_StdImp|Product Description: AutoCAD Mechanical 2004 DX|Company: Autodesk"
 90
        0
280
     1
281
     0
  0
CLASS
  1
ACMDETAILSTANDARDANSI
  2
AmdtDetailSymStdANSI
  3
"Amdt_StdImp|Product Description: AutoCAD Mechanical 2004 DX|Company: Autodesk"
 90
        0
280
     1
281
     0
  0
CLASS
  1
ACMSECTIONSTANDARDANSI
  2
AmdtSectionSymStdANSI
  3
"Amdt_StdImp|Product Description: AutoCAD Mechanical 2004 DX|Company: Autodesk"
 90
        0
280
     1
281
     0
  0
CLASS
  1
ACMCENTERLINESTANDARDANSI
  2
AmdtCenterLineStdANSI
  3
"Amdt_StdImp|Product Description: AutoCAD Mechanical 2004 DX|Company: Autodesk"
 90
        0
280
     1
281
     0
  0
CLASS
  1
ACMTHREADLINESTANDARDANSI
  2
AmdtThreadLineStdANSI
  3
"Amdt_StdImp|Product Description: AutoCAD Mechanical 2004 DX|Company: Autodesk"
 90
        0
280
     1
281
     0
  0
CLASS
  1
ACMNOTESTANDARDANSI
  2
AmdtNoteStdANSI
  3
"Amdt_StdImp|Product Description: AutoCAD Mechanical 2004 DX|Company: Autodesk"
 90
        0
280
     1
281
     0
  0
CLASS
  1
AMDTNOTETEMPLATEDB
  2
AmdtNoteTemplateDB
  3
AMDT_STDIMP_MODULE_NAME
 90
        0
280
     1
281
     0
  0
CLASS
  1
ACAMGLAYSTD
  2
AcAmgLayStd
  3
"AcAmgLayStd|Product Description: AutoCAD Mechanical 2000|Company: Autodesk"
 90
        0
280
     1
281
     0
  0
CLASS
  1
ACAMGDIMSTD
  2
AcAmgDimStd
  3
"AcAmgDimStd|Product Description: AutoCAD Mechanical 2000|Company: Autodesk"
 90
        0
280
     1
281
     0
  0
CLASS
  1
ACAMGHOLECHARTSTDANSI
  2
AcAmgHoleChartStdANSI
  3
ACMSYMBB_MODULE_NAME
 90
        0
280
     1
281
     0
  0
CLASS
  1
ACAMGTITLESTD
  2
AcAmgTitleStd
  3
"TITLEAPP"
 90
        0
280
     1
281
     0
  0
CLASS
  1
ACAMGFILTERDAT
  2
AcAmgFilterDat
  3
"AcadM|Product Description: AutoCAD Mechanical 2000|Company: Autodesk"
 90
        0
280
     1
281
     0
  0
CLASS
  1
DICTIONARYVAR
  2
AcDbDictionaryVar
  3
ObjectDBX Classes
 90
        0
280
     0
281
     0
  0
CLASS
  1
AMDTNOTE
  2
AmdtNote
  3
"AcmSymBB|Product Description: AutoCAD Mechanical 2004 DX|Company: Autodesk"
 90
     1023
280
     1
281
     1
  0
CLASS
  1
ACMSTANDARDJIS
  2
AcmStandardJIS
  3
"Amdt_StdImp|Product Description: AutoCAD Mechanical 2004 DX|Company: Autodesk"
 90
        0
280
     1
281
     0
  0
CLASS
  1
ACMSURFSTANDARDJIS
  2
AcmSurfTextStdJIS
  3
"Amdt_StdImp|Product Description: AutoCAD Mechanical 2004 DX|Company: Autodesk"
 90
        0
280
     1
281
     0
  0
CLASS
  1
ACMFCFSTANDARDJIS
  2
AcmFCFStdJIS
  3
"Amdt_StdImp|Product Description: AutoCAD Mechanical 2004 DX|Company: Autodesk"
 90
        0
280
     1
281
     0
  0
CLASS
  1
ACMWELDSTANDARDJIS
  2
AcmWeldingStdJIS
  3
"Amdt_StdImp|Product Description: AutoCAD Mechanical 2004 DX|Company: Autodesk"
 90
        0
280
     1
281
     0
  0
CLASS
  1
ACMIDSTANDARDJIS
  2
AcmIdStdJIS
  3
"Amdt_StdImp|Product Description: AutoCAD Mechanical 2004 DX|Company: Autodesk"
 90
        0
280
     1
281
     0
  0
CLASS
  1
ACMDATUMSTANDARDJIS
  2
AcmDatumStdJIS
  3
"Amdt_StdImp|Product Description: AutoCAD Mechanical 2004 DX|Company: Autodesk"
 90
        0
280
     1
281
     0
  0
CLASS
  1
ACMBOMSTANDARDJIS
  2
AcmBOMStdJIS
  3
"Amdt_StdImp|Product Description: AutoCAD Mechanical 2004 DX|Company: Autodesk"
 90
        0
280
     1
281
     0
  0
CLASS
  1
ACMDETAILSTANDARDJIS
  2
AmdtDetailSymStdJIS
  3
"Amdt_StdImp|Product Description: AutoCAD Mechanical 2004 DX|Company: Autodesk"
 90
        0
280
     1
281
     0
  0
CLASS
  1
ACMSECTIONSTANDARDJIS
  2
AmdtSectionSymStdJIS
  3
"Amdt_StdImp|Product Description: AutoCAD Mechanical 2004 DX|Company: Autodesk"
 90
        0
280
     1
281
     0
  0
CLASS
  1
ACMCENTERLINESTANDARDJIS
  2
AmdtCenterLineStdJIS
  3
"Amdt_StdImp|Product Description: AutoCAD Mechanical 2004 DX|Company: Autodesk"
 90
        0
280
     1
281
     0
  0
CLASS
  1
ACMTHREADLINESTANDARDJIS
  2
AmdtThreadLineStdJIS
  3
"Amdt_StdImp|Product Description: AutoCAD Mechanical 2004 DX|Company: Autodesk"
 90
        0
280
     1
281
     0
  0
CLASS
  1
ACMNOTESTANDARDJIS
  2
AmdtNoteStdJIS
  3
"Amdt_StdImp|Product Description: AutoCAD Mechanical 2004 DX|Company: Autodesk"
 90
        0
280
     1
281
     0
  0
CLASS
  1
ACAMGHOLECHARTSTDJIS
  2
AcAmgHoleChartStdJIS
  3
ACMSYMBB_MODULE_NAME
 90
        0
280
     1
281
     0
  0
CLASS
  1
ACMDATAENTRYBLOCK
  2
AcmDataEntryBlock
  3
"AcmSymBB|Product Description: AutoCAD Mechanical 2004 DX|Company: Autodesk"
 90
        0
280
     1
281
     0
  0
CLASS
  1
ACDBPLACEHOLDER
  2
AcDbPlaceHolder
  3
ObjectDBX Classes
 90
        0
280
     0
281
     0
  0
CLASS
  1
LAYOUT
  2
AcDbLayout
  3
ObjectDBX Classes
 90
        0
280
     0
281
     0
  0
ENDSEC
  0
SECTION
  2
TABLES
  0
TABLE
  2
VPORT
  5
8
330
0
100
AcDbSymbolTable
 70
     3
  0
VPORT
  5
522
330
8
100
AcDbSymbolTableRecord
100
AcDbViewportTableRecord
  2
*Active
 70
     0
 10
0.0
 20
0.0
 11
1.0
 21
1.0
 12
69.22037718980235
 22
7.420403005694439
 13
0.0
 23
0.0
 14
0.5
 24
0.5
 15
0.0
 25
0.0
 16
0.0
 26
0.0
 36
1.0
 17
0.0
 27
0.0
 37
0.0
 40
232.1797751873448
 41
1.610603290676417
 42
50.0
 43
0.0
 44
0.0
 50
0.0
 51
0.0
 71
     0
 72
 10000
 73
     1
 74
     1
 75
     0
 76
     0
 77
     0
 78
     0
281
     0
 65
     0
110
0.0
120
0.0
130
0.0
111
1.0
121
0.0
131
0.0
112
0.0
122
1.0
132
0.0
 79
     0
146
0.0
  0
ENDTAB
  0
TABLE
  2
LTYPE
  5
5
330
0
100
AcDbSymbolTable
 70
    19
  0
LTYPE
  5
13
330
5
100
AcDbSymbolTableRecord
100
AcDbLinetypeTableRecord
  2
ByBlock
 70
     0
  3

 72
    65
 73
     0
 40
0.0
  0
LTYPE
  5
14
330
5
100
AcDbSymbolTableRecord
100
AcDbLinetypeTableRecord
  2
ByLayer
 70
     0
  3

 72
    65
 73
     0
 40
0.0
  0
LTYPE
  5
15
330
5
100
AcDbSymbolTableRecord
100
AcDbLinetypeTableRecord
  2
CONTINUOUS
 70
     0
  3
solid line
 72
    65
 73
     0
 40
0.0
  0
LTYPE
  5
28
330
5
100
AcDbSymbolTableRecord
100
AcDbLinetypeTableRecord
  2
CENTER
 70
     0
  3
--- - --- - --- - --- - --- - 
 72
    65
 73
     4
 40
6.0
 49
3.0
 74
     0
 49
-1.0
 74
     0
 49
1.0
 74
     0
 49
-1.0
 74
     0
  0
LTYPE
  5
236
330
5
100
AcDbSymbolTableRecord
100
AcDbLinetypeTableRecord
  2
HIDDEN
 70
     0
  3
Hidden __ __ __ __ __ __ __ __ __ __ __ __ __ _
 72
    65
 73
     2
 40
0.375
 49
0.25
 74
     0
 49
-0.125
 74
     0
  0
LTYPE
  5
237
330
5
100
AcDbSymbolTableRecord
100
AcDbLinetypeTableRecord
  2
PHANTOM2
 70
     0
  3
Phantom (.5x) ___ _ _ ___ _ _ ___ _ _ ___ _ _
 72
    65
 73
     6
 40
1.25
 49
0.625
 74
     0
 49
-0.125
 74
     0
 49
0.125
 74
     0
 49
-0.125
 74
     0
 49
0.125
 74
     0
 49
-0.125
 74
     0
  0
LTYPE
  5
272
330
5
100
AcDbSymbolTableRecord
100
AcDbLinetypeTableRecord
  2
Amconstr
 70
     0
  3
_______________________
 72
    65
 73
     2
 40
9999.0
 49
9999.0
 74
     0
 49
0.0
 74
     0
  0
LTYPE
  5
278
330
5
100
AcDbSymbolTableRecord
100
AcDbLinetypeTableRecord
  2
CENTER2
 70
     0
  3
Center (.5x) ___ _ ___ _ ___ _ ___ _ ___ _ ___
 72
    65
 73
     4
 40
1.125
 49
0.75
 74
     0
 49
-0.125
 74
     0
 49
0.125
 74
     0
 49
-0.125
 74
     0
  0
LTYPE
  5
279
330
5
100
AcDbSymbolTableRecord
100
AcDbLinetypeTableRecord
  2
HIDDEN2
 70
     0
  3
Hidden (.5x) _ _ _ _ _ _ _ _ _ _ _ _ _ _ _ _ _
 72
    65
 73
     2
 40
0.1875
 49
0.125
 74
     0
 49
-0.0625
 74
     0
  0
LTYPE
  5
27A
330
5
100
AcDbSymbolTableRecord
100
AcDbLinetypeTableRecord
  2
Amzigzag2
 70
     0
  3
/\/-/\/-/\/-/\/-/\/-/\/
 72
    65
 73
     2
 40
0.4401
 49
0.0001
 74
     4
 75
   135
340
276
 46
0.0016
 50
0.0
 44
0.0
 45
0.0
 49
-0.44
 74
     0
  0
LTYPE
  5
288
330
5
100
AcDbSymbolTableRecord
100
AcDbLinetypeTableRecord
  2
ACANSTGB
 70
     0
  3
__ . . __ . .
 72
    65
 73
     6
 40
0.35433070866
 49
0.15748031496
 74
     0
 49
-0.03937007874
 74
     0
 49
0.03937007874
 74
     0
 49
-0.03937007874
 74
     0
 49
0.03937007874
 74
     0
 49
-0.03937007874
 74
     0
  0
LTYPE
  5
289
330
5
100
AcDbSymbolTableRecord
100
AcDbLinetypeTableRecord
  2
ACANSTGL
 70
     0
  3
_ _ _ _ _
 72
    65
 73
     2
 40
0.11811023622
 49
0.07874015748
 74
     0
 49
-0.03937007874
 74
     0
  0
LTYPE
  5
2D8
330
5
100
AcDbSymbolTableRecord
100
AcDbLinetypeTableRecord
  2
ACJISTGB
 70
     0
  3
__ . . __ . .
 72
    65
 73
     6
 40
9.0
 49
4.0
 74
     0
 49
-1.0
 74
     0
 49
1.0
 74
     0
 49
-1.0
 74
     0
 49
1.0
 74
     0
 49
-1.0
 74
     0
  0
LTYPE
  5
2D9
330
5
100
AcDbSymbolTableRecord
100
AcDbLinetypeTableRecord
  2
ACJISTGL
 70
     0
  3
_ _ _ _ _
 72
    65
 73
     2
 40
3.0
 49
2.0
 74
     0
 49
-1.0
 74
     0
  0
ENDTAB
  0
TABLE
  2
LAYER
  5
2
102
{ACAD_XDICTIONARY
360
2E7
102
}
330
0
100
AcDbSymbolTable
 70
     9
  0
LAYER
  5
10
330
2
100
AcDbSymbolTableRecord
100
AcDbLayerTableRecord
  2
0
 70
     0
 62
     7
  6
CONTINUOUS
370
    -3
390
F
  0
LAYER
  5
29
330
2
100
AcDbSymbolTableRecord
100
AcDbLayerTableRecord
  2
2
 70
     0
 62
     7
  6
CONTINUOUS
370
    -3
390
F
  0
LAYER
  5
2B
330
2
100
AcDbSymbolTableRecord
100
AcDbLayerTableRecord
  2
29
 70
     0
 62
     7
  6
CONTINUOUS
370
    -3
390
F
  0
LAYER
  5
2E
330
2
100
AcDbSymbolTableRecord
100
AcDbLayerTableRecord
  2
DEFPOINTS
 70
     0
 62
    -7
  6
CONTINUOUS
290
     0
370
    -3
390
F
  0
LAYER
  5
2DA
330
2
100
AcDbSymbolTableRecord
100
AcDbLayerTableRecord
  2
AM_5
 70
     0
 62
     3
  6
CONTINUOUS
370
    15
390
F
  0
LAYER
  5
2DB
330
2
100
AcDbSymbolTableRecord
100
AcDbLayerTableRecord
  2
AM_6
 70
     0
 62
     2
  6
CONTINUOUS
370
    30
390
F
  0
ENDTAB
  0
TABLE
  2
STYLE
  5
3
330
0
100
AcDbSymbolTable
 70
     7
  0
STYLE
  5
11
330
3
100
AcDbSymbolTableRecord
100
AcDbTextStyleTableRecord
  2
STANDARD
 70
     0
 40
0.0
 41
1.0
 50
0.0
 71
     0
 42
3.0
  3
txt
  4

  0
STYLE
  5
276
330
3
100
AcDbSymbolTableRecord
100
AcDbTextStyleTableRecord
  2

 70
     1
 40
0.0
 41
1.0
 50
0.0
 71
     0
 42
3.0
  3
ltypeshp.shx
  4

  0
STYLE
  5
27B
330
3
100
AcDbSymbolTableRecord
100
AcDbTextStyleTableRecord
  2
ACANSTS
 70
     0
 40
1.0
 41
1.0
 50
0.0
 71
     0
 42
3.0
  3
romans.shx
  4
extfont.shx
  0
STYLE
  5
287
330
3
100
AcDbSymbolTableRecord
100
AcDbTextStyleTableRecord
  2
ACANSGDT
 70
     0
 40
0.0
 41
1.0
 50
0.0
 71
     0
 42
3.0
  3
amgdtans.shx
  4

  0
STYLE
  5
2DC
330
3
100
AcDbSymbolTableRecord
100
AcDbTextStyleTableRecord
  2
ACJISTS
 70
     0
 40
1.0
 41
1.0
 50
0.0
 71
     0
 42
2.5
  3
isocp.shx
  4
bigfont.shx
  0
STYLE
  5
2DD
330
3
100
AcDbSymbolTableRecord
100
AcDbTextStyleTableRecord
  2
ACJISGDT
 70
     0
 40
0.0
 41
1.0
 50
0.0
 71
     0
 42
2.5
  3
amgdt.shx
  4

  0
ENDTAB
  0
TABLE
  2
VIEW
  5
6
330
0
100
AcDbSymbolTable
 70
     0
  0
ENDTAB
  0
TABLE
  2
UCS
  5
7
330
0
100
AcDbSymbolTable
 70
     0
  0
ENDTAB
  0
TABLE
  2
APPID
  5
9
330
0
100
AcDbSymbolTable
 70
    10
  0
APPID
  5
12
330
9
100
AcDbSymbolTableRecord
100
AcDbRegAppTableRecord
  2
ACAD
 70
     0
  0
APPID
  5
209
330
9
100
AcDbSymbolTableRecord
100
AcDbRegAppTableRecord
  2
MCAD_NO_VIS
 70
     0
  0
APPID
  5
20A
330
9
100
AcDbSymbolTableRecord
100
AcDbRegAppTableRecord
  2
ACAD_TEMP_GRAPHIC
 70
     0
  0
APPID
  5
239
330
9
100
AcDbSymbolTableRecord
100
AcDbRegAppTableRecord
  2
AD_DRAW
 70
     0
  0
APPID
  5
23C
330
9
100
AcDbSymbolTableRecord
100
AcDbRegAppTableRecord
  2
ACATTRIBSERVICES
 70
     0
  0
APPID
  5
25E
330
9
100
AcDbSymbolTableRecord
100
AcDbRegAppTableRecord
  2
DESIGNERASSEMBLIES
 70
     0
  0
APPID
  5
264
330
9
100
AcDbSymbolTableRecord
100
AcDbRegAppTableRecord
  2
ACADM_DIM_EDIT
 70
     0
  0
APPID
  5
265
330
9
100
AcDbSymbolTableRecord
100
AcDbRegAppTableRecord
  2
AMDT_DM_ADJ
 70
     0
  0
APPID
  5
2A8
330
9
100
AcDbSymbolTableRecord
100
AcDbRegAppTableRecord
  2
ACAD_PSEXT
 70
     0
  0
APPID
  5
385
330
9
100
AcDbSymbolTableRecord
100
AcDbRegAppTableRecord
  2
GENIUS_GENDTOL_13
 70
     0
  0
ENDTAB
  0
TABLE
  2
DIMSTYLE
  5
A
330
0
100
AcDbSymbolTable
 70
    18
100
AcDbDimStyleTable
  0
DIMSTYLE
105
206
330
A
100
AcDbSymbolTableRecord
100
AcDbDimStyleTableRecord
  2
Standard
 70
     0
340
11
  0
DIMSTYLE
105
294
330
A
100
AcDbSymbolTableRecord
100
AcDbDimStyleTableRecord
  2
AM_ANSI
 70
     0
  4
mm
 41
0.1
 42
0.05
 43
0.5
 44
0.1
 47
0.1
 48
0.1
 78
     7
 79
     2
140
0.12
141
0.0
146
0.71
147
0.06
176
   256
177
   256
178
     2
274
     4
284
     7
340
11
371
    -1
372
    -1
  0
DIMSTYLE
105
295
330
A
100
AcDbSymbolTableRecord
100
AcDbDimStyleTableRecord
  2
AM_ANSI$3
 70
     0
  4
mm
 41
0.1
 42
0.05
 43
0.5
 44
0.1
 47
0.1
 48
0.1
 78
     7
 79
     2
140
0.12
141
0.0
146
0.71
147
0.06
176
   256
177
   256
178
     2
274
     4
284
     7
288
     1
289
     0
340
11
371
    -1
372
    -1
  0
DIMSTYLE
105
296
330
A
100
AcDbSymbolTableRecord
100
AcDbDimStyleTableRecord
  2
AM_ANSI$4
 70
     0
  4
mm
 41
0.1
 42
0.05
 43
0.5
 44
0.1
 47
0.1
 48
0.1
 78
     7
 79
     2
140
0.12
141
0.0
146
0.71
147
0.06
176
   256
177
   256
178
     2
274
     4
284
     7
288
     1
289
     0
340
11
371
    -1
372
    -1
  0
DIMSTYLE
105
297
330
A
100
AcDbSymbolTableRecord
100
AcDbDimStyleTableRecord
  2
AM_ANSI$7
 70
     0
  4
mm
 41
0.1
 42
0.05
 43
0.5
 44
0.1
 47
0.1
 48
0.1
 78
     7
 79
     2
140
0.24
141
0.0
146
0.71
147
0.06
176
   256
177
   256
178
     2
274
     4
284
     7
340
11
371
    -1
372
    -1
  0
DIMSTYLE
105
298
330
A
100
AcDbSymbolTableRecord
100
AcDbDimStyleTableRecord
  2
AM_ANSI$SF
 70
     0
  4
mm
 41
0.1
 42
0.05
 43
0.5
 44
0.1
 47
0.1
 48
0.1
 75
     1
 76
     1
 78
     7
 79
     2
140
0.12
141
0.0
146
0.71
147
0.06
176
   256
177
   256
178
     2
274
     4
284
     7
340
11
371
    -1
372
    -1
  0
DIMSTYLE
105
29D
330
A
100
AcDbSymbolTableRecord
100
AcDbDimStyleTableRecord
  2
AM_ANSI$SH
 70
     0
  4
mm
 41
0.1
 42
0.05
 43
0.5
 44
0.1
 47
0.1
 48
0.1
 75
     1
 76
     1
 78
     7
 79
     2
140
0.12
141
0.0
146
0.71
147
0.06
173
     1
176
   256
177
   256
178
     2
274
     4
284
     7
340
11
343
299
371
    -1
372
    -1
  0
DIMSTYLE
105
2DE
330
A
100
AcDbSymbolTableRecord
100
AcDbDimStyleTableRecord
  2
AM_JIS
 70
     0
  4
"
 41
2.5
 42
0.0
 43
10.0
 44
1.0
 47
0.1
 48
0.1000000001
 73
     0
 74
     0
 77
     3
 78
     1
 79
     2
140
3.8
141
0.0
143
0.0393701
146
0.71
147
1.5
172
     1
176
   256
177
   256
178
     2
179
     1
271
     2
272
     2
275
     1
283
     0
284
     8
340
11
341
2D2
342
2D2
371
    -1
372
    -1
  0
DIMSTYLE
105
2DF
330
A
100
AcDbSymbolTableRecord
100
AcDbDimStyleTableRecord
  2
AM_JIS$3
 70
     0
  4
"
 41
2.5
 42
0.0
 43
10.0
 44
1.0
 47
0.1
 48
0.1000000001
 73
     0
 77
     3
 78
     1
 79
     2
140
3.8
141
0.0
143
0.0393701
146
0.71
147
1.5
172
     1
176
   256
177
   256
178
     2
179
     1
271
     2
272
     2
275
     1
283
     0
284
     8
288
     1
289
     0
340
11
341
2D2
342
2D2
371
    -1
372
    -1
  0
DIMSTYLE
105
2E0
330
A
100
AcDbSymbolTableRecord
100
AcDbDimStyleTableRecord
  2
AM_JIS$4
 70
     0
  4
"
 41
2.5
 42
0.0
 43
10.0
 44
1.0
 47
0.1
 48
0.1000000001
 73
     0
 77
     3
 78
     1
 79
     2
140
3.8
141
0.0
143
0.0393701
146
0.71
147
1.5
172
     1
176
   256
177
   256
178
     2
179
     1
271
     2
272
     2
275
     1
283
     0
284
     8
288
     1
289
     0
340
11
341
2D2
342
2D2
371
    -1
372
    -1
  0
DIMSTYLE
105
2E1
330
A
100
AcDbSymbolTableRecord
100
AcDbDimStyleTableRecord
  2
AM_JIS$6
 70
     0
  4
"
 41
2.5
 42
0.0
 43
10.0
 44
1.0
 47
0.1
 48
0.1000000001
 73
     0
 74
     0
 78
     1
 79
     2
140
3.8
141
0.0
143
0.0393701
146
0.71
147
1.5
172
     1
176
   256
177
   256
178
     2
179
     1
271
     2
272
     2
275
     1
283
     0
284
     8
340
11
341
2D2
342
2D2
371
    -1
372
    -1
  0
DIMSTYLE
105
2E2
330
A
100
AcDbSymbolTableRecord
100
AcDbDimStyleTableRecord
  2
AM_JIS$7
 70
     0
  4
"
 41
2.5
 42
0.0
 43
10.0
 44
1.0
 47
0.1
 48
0.1000000001
 73
     0
 74
     0
 77
     3
 78
     1
 79
     2
140
5.0
141
0.0
143
0.0393701
146
0.71
147
1.5
172
     1
176
   256
177
   256
178
     2
179
     1
271
     2
272
     2
275
     1
283
     0
284
     8
340
11
341
2D2
342
2D2
371
    -1
372
    -1
  0
DIMSTYLE
105
2E3
330
A
100
AcDbSymbolTableRecord
100
AcDbDimStyleTableRecord
  2
AM_JIS$SF
 70
     0
  4
"
 41
2.5
 42
1.0
 43
10.0
 44
1.0
 47
0.1
 48
0.1
 73
     0
 74
     0
 75
     1
 76
     1
 77
     3
 78
     8
 79
     2
140
3.5
141
0.0
143
0.0393701
146
0.71
147
1.5
176
   256
177
   256
178
     2
271
     2
272
     3
274
     4
340
11
341
2D2
342
2D2
343
2D2
344
2D2
371
    -1
372
    -1
  0
DIMSTYLE
105
2E4
330
A
100
AcDbSymbolTableRecord
100
AcDbDimStyleTableRecord
  2
AM_JIS$SH
 70
     0
  4
"
 41
2.5
 42
1.0
 43
10.0
 44
1.0
 47
0.1
 48
0.1
 73
     0
 74
     0
 75
     1
 76
     1
 77
     3
 78
     8
 79
     2
140
3.5
141
0.0
143
0.0393701
144
2.0
146
0.71
147
1.5
173
     1
176
   256
177
   256
178
     2
271
     2
272
     3
274
     4
340
11
341
2D2
342
2D2
343
299
344
2D2
371
    -1
372
    -1
  0
DIMSTYLE
105
2E5
330
A
100
AcDbSymbolTableRecord
100
AcDbDimStyleTableRecord
  2
AM_JIS$0
 70
     0
  4
"
 41
2.5
 42
0.0
 43
10.0
 44
1.0
 47
0.1
 48
0.1000000001
 73
     0
 74
     0
 77
     3
 78
     1
 79
     2
140
3.8
141
0.0
143
0.0393701
146
0.71
147
1.5
172
     1
176
     3
177
     3
178
     2
271
     2
272
     2
275
     1
283
     0
284
     8
289
     0
340
11
341
2D2
342
2D2
371
    13
372
    13
  0
DIMSTYLE
105
2E6
330
A
100
AcDbSymbolTableRecord
100
AcDbDimStyleTableRecord
  2
AM_JIS$2
 70
     0
  4
"
 41
2.5
 42
0.0
 43
10.0
 44
1.0
 47
0.1
 48
0.1000000001
 73
     0
 74
     0
 77
     3
 78
     1
 79
     2
140
3.8
141
0.0
143
0.0393701
146
0.71
147
1.5
172
     1
176
     3
177
     3
178
     2
271
     2
272
     2
275
     1
283
     0
284
     8
289
     0
340
11
341
2D2
342
2D2
371
    13
372
    13
  0
DIMSTYLE
105
343
102
{ACAD_REACTORS
330
347
330
36B
330
39E
330
41D
330
441
102
}
330
A
100
AcDbSymbolTableRecord
100
AcDbDimStyleTableRecord
  2
Standard$0
 70
     0
340
11
  0
DIMSTYLE
105
3C7
102
{ACAD_REACTORS
330
3C8
102
}
330
A
100
AcDbSymbolTableRecord
100
AcDbDimStyleTableRecord
  2
Standard$2
 70
     0
340
11
  0
ENDTAB
  0
TABLE
  2
BLOCK_RECORD
  5
1
330
0
100
AcDbSymbolTable
 70
    16
  0
BLOCK_RECORD
  5
22
330
1
100
AcDbSymbolTableRecord
100
AcDbBlockTableRecord
  2
*Model_Space
340
25
  0
BLOCK_RECORD
  5
1E
330
1
100
AcDbSymbolTableRecord
100
AcDbBlockTableRecord
  2
*Paper_Space
340
21
  0
BLOCK_RECORD
  5
FA
330
1
100
AcDbSymbolTableRecord
100
AcDbBlockTableRecord
  2
WS05-1_0001
340
0
102
{BLKREFS
331
1AE
102
}
  0
BLOCK_RECORD
  5
255
330
1
100
AcDbSymbolTableRecord
100
AcDbBlockTableRecord
  2
*U7
340
0
  0
BLOCK_RECORD
  5
299
330
1
100
AcDbSymbolTableRecord
100
AcDbBlockTableRecord
  2
GENAXEH
340
0
  0
BLOCK_RECORD
  5
2D2
330
1
100
AcDbSymbolTableRecord
100
AcDbBlockTableRecord
  2
_Open30
340
0
  0
BLOCK_RECORD
  5
348
330
1
100
AcDbSymbolTableRecord
100
AcDbBlockTableRecord
  2
*D10
340
0
  0
BLOCK_RECORD
  5
36C
330
1
100
AcDbSymbolTableRecord
100
AcDbBlockTableRecord
  2
*D11
340
0
  0
BLOCK_RECORD
  5
39F
330
1
100
AcDbSymbolTableRecord
100
AcDbBlockTableRecord
  2
*D12
340
0
  0
BLOCK_RECORD
  5
3C9
330
1
100
AcDbSymbolTableRecord
100
AcDbBlockTableRecord
  2
*D13
340
0
  0
BLOCK_RECORD
  5
41E
330
1
100
AcDbSymbolTableRecord
100
AcDbBlockTableRecord
  2
*D14
340
0
  0
BLOCK_RECORD
  5
442
330
1
100
AcDbSymbolTableRecord
100
AcDbBlockTableRecord
  2
*D15
340
0
  0
ENDTAB
  0
ENDSEC
  0
SECTION
  2
BLOCKS
  0
BLOCK
  5
23
330
22
100
AcDbEntity
  8
0
100
AcDbBlockBegin
  2
*Model_Space
 70
     0
 71
     0
 10
0.0
 20
0.0
 30
0.0
  3
*Model_Space
  1

  0
ENDBLK
  5
24
330
22
100
AcDbEntity
  8
0
100
AcDbBlockEnd
  0
BLOCK
  5
1F
330
1E
100
AcDbEntity
 67
     1
  8
0
100
AcDbBlockBegin
  2
*Paper_Space
 70
     0
 71
     0
 10
0.0
 20
0.0
 30
0.0
  3
*Paper_Space
  1

  0
ENDBLK
  5
20
330
1E
100
AcDbEntity
 67
     1
  8
0
100
AcDbBlockEnd
  0
BLOCK
  5
FB
330
FA
100
AcDbEntity
  8
29
100
AcDbBlockBegin
  2
WS05-1_0001
 70
     0
 71
     0
 10
0.0
 20
0.0
 30
0.0
  3
WS05-1_0001
  1

  0
CIRCLE
  5
FC
330
FA
100
AcDbEntity
  8
29
  6
Continuous
100
AcDbCircle
 10
-0.0000001517818387
 20
-0.0000004344581814
 30
0.0
 40
2.5
  0
LINE
  5
FD
330
FA
100
AcDbEntity
  8
29
  6
CENTER
100
AcDbLine
 10
1.643150177808005
 20
3.09031538432844
 30
0.0
 11
-1.643150481371682
 21
-3.090317206919119
 31
0.0
  0
LINE
  5
FE
330
FA
100
AcDbEntity
  8
29
  6
CENTER
100
AcDbLine
 10
-3.09031597056846
 20
1.643150848805979
 30
0.0
 11
3.090317574353415
 21
-1.643149810373709
 31
0.0
  0
CIRCLE
  5
FF
330
FA
100
AcDbEntity
  8
29
  6
Continuous
100
AcDbCircle
 10
-0.0000001517818387
 20
-0.0000004344581814
 30
0.0
 40
1.799999952316284
  0
POLYLINE
  5
100
330
FA
100
AcDbEntity
  8
29
  6
Continuous
100
AcDb2dPolyline
 66
     1
 10
0.0
 20
0.0
 30
0.0
  0
VERTEX
  5
101
330
100
100
AcDbEntity
  8
29
  6
Continuous
100
AcDbVertex
100
AcDb2dVertex
 10
0.6505192192508762
 20
1.223447365224436
 30
0.0
  0
VERTEX
  5
102
330
100
100
AcDbEntity
  8
29
  6
Continuous
100
AcDbVertex
100
AcDb2dVertex
 10
-0.7342778770015652
 20
1.175089401662424
 30
0.0
  0
VERTEX
  5
103
330
100
100
AcDbEntity
  8
29
  6
Continuous
100
AcDbVertex
100
AcDb2dVertex
 10
-1.384796294359964
 20
-0.0483574443458767
 30
0.0
  0
VERTEX
  5
104
330
100
100
AcDbEntity
  8
29
  6
Continuous
100
AcDbVertex
100
AcDb2dVertex
 10
-0.6505185691402371
 20
-1.223448234140799
 30
0.0
  0
VERTEX
  5
105
330
100
100
AcDbEntity
  8
29
  6
Continuous
100
AcDbVertex
100
AcDb2dVertex
 10
0.7342775734378879
 20
-1.175090270578787
 30
0.0
  0
VERTEX
  5
106
330
100
100
AcDbEntity
  8
29
  6
Continuous
100
AcDbVertex
100
AcDb2dVertex
 10
1.384796944470603
 20
0.0483584827781467
 30
0.0
  0
VERTEX
  5
107
330
100
100
AcDbEntity
  8
29
  6
Continuous
100
AcDbVertex
100
AcDb2dVertex
 10
0.6505192192508762
 20
1.223447365224436
 30
0.0
  0
SEQEND
  5
108
330
100
100
AcDbEntity
  8
29
  0
ENDBLK
  5
109
330
FA
100
AcDbEntity
  8
29
100
AcDbBlockEnd
  0
BLOCK
  5
256
330
255
100
AcDbEntity
  8
0
100
AcDbBlockBegin
  2
*U7
 70
     1
 71
     0
 10
0.0
 20
0.0
 30
0.0
  3
*U7
  1

  0
ENDBLK
  5
257
330
255
100
AcDbEntity
  8
0
100
AcDbBlockEnd
  0
BLOCK
  5
29B
330
299
100
AcDbEntity
  8
0
100
AcDbBlockBegin
  2
GENAXEH
 70
     0
 71
     0
 10
0.0
 20
0.0
 30
0.0
  3
GENAXEH
  1

  0
LINE
  5
29A
330
299
100
AcDbEntity
  8
0
100
AcDbLine
 10
-1.0
 20
0.0
 30
0.0
 11
1.0
 21
0.0
 31
0.0
  0
ENDBLK
  5
29C
330
299
100
AcDbEntity
  8
0
100
AcDbBlockEnd
  0
BLOCK
  5
2D3
330
2D2
100
AcDbEntity
  8
0
100
AcDbBlockBegin
  2
_Open30
 70
     0
 71
     0
 10
0.0
 20
0.0
 30
0.0
  3
_Open30
  1

  0
LINE
  5
2D4
330
2D2
100
AcDbEntity
  8
0
 62
     0
370
    -2
100
AcDbLine
 10
-1.0
 20
0.26794919
 30
0.0
 11
0.0
 21
0.0
 31
0.0
  0
LINE
  5
2D5
330
2D2
100
AcDbEntity
  8
0
 62
     0
370
    -2
100
AcDbLine
 10
0.0
 20
0.0
 30
0.0
 11
-1.0
 21
-0.26794919
 31
0.0
  0
LINE
  5
2D6
330
2D2
100
AcDbEntity
  8
0
 62
     0
370
    -2
100
AcDbLine
 10
0.0
 20
0.0
 30
0.0
 11
-1.0
 21
0.0
 31
0.0
  0
ENDBLK
  5
2D7
330
2D2
100
AcDbEntity
  8
0
100
AcDbBlockEnd
  0
BLOCK
  5
352
330
348
100
AcDbEntity
  8
0
100
AcDbBlockBegin
  2
*D10
 70
     1
 71
     0
 10
0.0
 20
0.0
 30
0.0
  3
*D10
  1

  0
LINE
  5
4C6
330
348
100
AcDbEntity
  8
AM_5
 62
     0
370
    -2
100
AcDbLine
 10
-1.000000000000114
 20
0.0000000000000003
 30
0.0
 11
-21.77740768185532
 21
0.0000000000000062
 31
0.0
  0
LINE
  5
4C7
330
348
100
AcDbEntity
  8
AM_5
 62
     0
370
    -2
100
AcDbLine
 10
1.800000000000011
 20
-20.0
 30
0.0
 11
-21.77740768185532
 21
-20.0
 31
0.0
  0
LINE
  5
4C8
330
348
100
AcDbEntity
  8
AM_5
 62
     0
370
    -2
100
AcDbLine
 10
-19.77740768185532
 20
-2.999999999999994
 30
0.0
 11
-19.77740768185532
 21
-17.0
 31
0.0
  0
SOLID
  5
4C9
330
348
100
AcDbEntity
  8
AM_5
 62
     0
100
AcDbTrace
 10
-20.27740768185532
 20
-2.999999999999994
 30
0.0
 11
-19.27740768185532
 21
-2.999999999999994
 31
0.0
 12
-19.77740768185532
 22
0.0000000000000056
 32
0.0
 13
-19.77740768185532
 23
0.0000000000000056
 33
0.0
  0
SOLID
  5
4CA
330
348
100
AcDbEntity
  8
AM_5
 62
     0
100
AcDbTrace
 10
-20.27740768185532
 20
-17.0
 30
0.0
 11
-19.27740768185532
 21
-17.0
 31
0.0
 12
-19.77740768185532
 22
-20.0
 32
0.0
 13
-19.77740768185532
 23
-20.0
 33
0.0
  0
MTEXT
  5
4CB
330
348
100
AcDbEntity
  8
AM_5
 62
     0
100
AcDbMText
 10
-22.36740768185532
 20
-9.999999999999998
 30
0.0
 40
5.0
 41
0.0
 71
     5
 72
     1
  1
\A1;20
 11
6.123031769111886E-17
 21
1.0
 31
0.0
 73
     1
 44
1.0
  0
POINT
  5
4CC
330
348
100
AcDbEntity
  8
DEFPOINTS
 62
     0
100
AcDbPoint
 10
-0.0000000000001137
 20
0.0
 30
0.0
  0
POINT
  5
4CD
330
348
100
AcDbEntity
  8
DEFPOINTS
 62
     0
100
AcDbPoint
 10
2.800000000000011
 20
-20.0
 30
0.0
  0
POINT
  5
4CE
330
348
100
AcDbEntity
  8
DEFPOINTS
 62
     0
100
AcDbPoint
 10
-19.77740768185532
 20
-20.0
 30
0.0
  0
ENDBLK
  5
353
330
348
100
AcDbEntity
  8
0
100
AcDbBlockEnd
  0
BLOCK
  5
376
330
36C
100
AcDbEntity
  8
0
100
AcDbBlockBegin
  2
*D11
 70
     1
 71
     0
 10
0.0
 20
0.0
 30
0.0
  3
*D11
  1

  0
LINE
  5
4CF
330
36C
100
AcDbEntity
  8
AM_5
 62
     0
370
    -2
100
AcDbLine
 10
18.0
 20
-19.12288846668409
 30
0.0
 11
18.0
 21
-30.8824830577947
 31
0.0
  0
LINE
  5
4D0
330
36C
100
AcDbEntity
  8
AM_5
 62
     0
370
    -2
100
AcDbLine
 10
0.8000000000000113
 20
-19.0
 30
0.0
 11
0.8000000000000106
 21
-30.8824830577947
 31
0.0
  0
LINE
  5
4D1
330
36C
100
AcDbEntity
  8
AM_5
 62
     0
370
    -2
100
AcDbLine
 10
15.0
 20
-28.8824830577947
 30
0.0
 11
3.800000000000011
 21
-28.8824830577947
 31
0.0
  0
SOLID
  5
4D2
330
36C
100
AcDbEntity
  8
AM_5
 62
     0
100
AcDbTrace
 10
15.0
 20
-28.3824830577947
 30
0.0
 11
15.0
 21
-29.3824830577947
 31
0.0
 12
18.0
 22
-28.8824830577947
 32
0.0
 13
18.0
 23
-28.8824830577947
 33
0.0
  0
SOLID
  5
4D3
330
36C
100
AcDbEntity
  8
AM_5
 62
     0
100
AcDbTrace
 10
3.800000000000011
 20
-28.3824830577947
 30
0.0
 11
3.800000000000011
 21
-29.3824830577947
 31
0.0
 12
0.8000000000000107
 22
-28.8824830577947
 32
0.0
 13
0.8000000000000107
 23
-28.8824830577947
 33
0.0
  0
MTEXT
  5
4D4
330
36C
100
AcDbEntity
  8
AM_5
 62
     0
100
AcDbMText
 10
9.400000000000006
 20
-26.2924830577947
 30
0.0
 40
5.0
 41
0.0
 71
     5
 72
     1
  1
\A1;18
 73
     1
 44
1.0
  0
POINT
  5
4D5
330
36C
100
AcDbEntity
  8
DEFPOINTS
 62
     0
100
AcDbPoint
 10
18.0
 20
-18.12288846668409
 30
0.0
  0
POINT
  5
4D6
330
36C
100
AcDbEntity
  8
DEFPOINTS
 62
     0
100
AcDbPoint
 10
0.8000000000000114
 20
-18.0
 30
0.0
  0
POINT
  5
4D7
330
36C
100
AcDbEntity
  8
DEFPOINTS
 62
     0
100
AcDbPoint
 10
0.8000000000000107
 20
-28.8824830577947
 30
0.0
  0
ENDBLK
  5
377
330
36C
100
AcDbEntity
  8
0
100
AcDbBlockEnd
  0
BLOCK
  5
3AB
330
39F
100
AcDbEntity
  8
0
100
AcDbBlockBegin
  2
*D12
 70
     1
 71
     0
 10
0.0
 20
0.0
 30
0.0
  3
*D12
  1

  0
LINE
  5
4D8
330
39F
100
AcDbEntity
  8
AM_5
 62
     0
370
    -2
100
AcDbLine
 10
16.71231067732219
 20
-20.0
 30
0.0
 11
29.66596104460592
 21
-20.0
 31
0.0
  0
LINE
  5
4D9
330
39F
100
AcDbEntity
  8
AM_5
 62
     0
370
    -2
100
AcDbLine
 10
23.6378381444124
 20
-16.0
 30
0.0
 11
29.66596104460592
 21
-16.0
 31
0.0
  0
LINE
  5
4DA
330
39F
100
AcDbEntity
  8
AM_5
 62
     0
370
    -2
100
AcDbLine
 10
27.66596104460592
 20
-13.0
 30
0.0
 11
27.66596104460592
 21
-10.0
 31
0.0
  0
LINE
  5
4DB
330
39F
100
AcDbEntity
  8
AM_5
 62
     0
370
    -2
100
AcDbLine
 10
27.66596104460592
 20
-23.0
 30
0.0
 11
27.66596104460592
 21
-29.51333333333339
 31
0.0
  0
LINE
  5
4DC
330
39F
100
AcDbEntity
  8
AM_5
 62
     0
370
    -2
100
AcDbLine
 10
27.66596104460592
 20
-16.0
 30
0.0
 11
27.66596104460592
 21
-20.0
 31
0.0
  0
SOLID
  5
4DD
330
39F
100
AcDbEntity
  8
AM_5
 62
     0
100
AcDbTrace
 10
27.16596104460592
 20
-13.0
 30
0.0
 11
28.16596104460592
 21
-13.0
 31
0.0
 12
27.66596104460592
 22
-16.0
 32
0.0
 13
27.66596104460592
 23
-16.0
 33
0.0
  0
SOLID
  5
4DE
330
39F
100
AcDbEntity
  8
AM_5
 62
     0
100
AcDbTrace
 10
27.16596104460592
 20
-23.0
 30
0.0
 11
28.16596104460592
 21
-23.0
 31
0.0
 12
27.66596104460592
 22
-20.0
 32
0.0
 13
27.66596104460592
 23
-20.0
 33
0.0
  0
MTEXT
  5
4DF
330
39F
100
AcDbEntity
  8
AM_5
 62
     0
100
AcDbMText
 10
25.07596104460592
 20
-27.75666666666672
 30
0.0
 40
5.0
 41
0.0
 71
     5
 72
     1
  1
\A1;4
 11
6.123031769111886E-17
 21
1.0
 31
0.0
 73
     1
 44
1.0
  0
POINT
  5
4E0
330
39F
100
AcDbEntity
  8
DEFPOINTS
 62
     0
100
AcDbPoint
 10
15.71231067732219
 20
-20.0
 30
0.0
  0
POINT
  5
4E1
330
39F
100
AcDbEntity
  8
DEFPOINTS
 62
     0
100
AcDbPoint
 10
22.6378381444124
 20
-16.0
 30
0.0
  0
POINT
  5
4E2
330
39F
100
AcDbEntity
  8
DEFPOINTS
 62
     0
100
AcDbPoint
 10
27.66596104460592
 20
-16.0
 30
0.0
  0
ENDBLK
  5
3AC
330
39F
100
AcDbEntity
  8
0
100
AcDbBlockEnd
  0
BLOCK
  5
3D7
330
3C9
100
AcDbEntity
  8
0
100
AcDbBlockBegin
  2
*D13
 70
     1
 71
     0
 10
0.0
 20
0.0
 30
0.0
  3
*D13
  1

  0
LINE
  5
4E3
330
3C9
100
AcDbEntity
  8
AM_5
 62
     0
370
    -2
100
AcDbLine
 10
15.45510549053251
 20
-2.572899735156817
 30
0.0
 11
20.18531171768203
 21
-3.40696271731845
 31
0.0
  0
LINE
  5
4E4
330
3C9
100
AcDbEntity
  8
AM_5
 62
     0
370
    -2
100
AcDbLine
 10
0.0000000000000924
 20
1.152252352519587
 30
0.0
 11
0.0000000000016591
 21
20.64895503986306
 31
0.0
  0
ARC
  5
4E5
330
3C9
100
AcDbEntity
  8
AM_5
 62
     0
370
    -2
100
AcDbCircle
 10
0.000000000000012
 20
0.152252352519587
 30
0.0
 40
18.49670268734348
100
AcDbArc
 50
359.3030797781686
 51
80.69692022182682
  0
SOLID
  5
4E6
330
3C9
100
AcDbEntity
  8
AM_5
 62
     0
100
AcDbTrace
 10
18.99315750008196
 20
-0.1193340771906577
 30
0.0
 11
17.99751128401775
 21
-0.0261213503932431
 31
0.0
 12
18.21569621165762
 22
-3.059666361984597
 32
0.0
 13
18.21569621165762
 23
-3.059666361984597
 33
0.0
  0
SOLID
  5
4E7
330
3C9
100
AcDbEntity
  8
AM_5
 62
     0
100
AcDbTrace
 10
2.94957123144906
 20
17.90731526839924
 30
0.0
 11
3.030666766440164
 21
18.90402160138027
 31
0.0
 12
0.0000000000014975
 22
18.64895503986306
 32
0.0
 13
0.0000000000014975
 23
18.64895503986306
 33
0.0
  0
MTEXT
  5
4E8
330
3C9
100
AcDbEntity
  8
AM_5
 62
     0
100
AcDbMText
 10
17.23572702804495
 20
17.01455326631497
 30
0.0
 40
5.0
 41
0.0
 71
     5
 72
     1
  1
\A1;100°
 11
0.6993209331516004
 21
-0.7148078290393684
 31
0.0
 73
     1
 44
1.0
  0
POINT
  5
4E9
330
3C9
100
AcDbEntity
  8
DEFPOINTS
 62
     0
100
AcDbPoint
 10
16.98397033169463
 20
7.478422025417993
 30
0.0
  0
POINT
  5
4EA
330
3C9
100
AcDbEntity
  8
DEFPOINTS
 62
     0
100
AcDbPoint
 10
0.9318766530674907
 20
-0.0120626441085108
 30
0.0
  0
POINT
  5
4EB
330
3C9
100
AcDbEntity
  8
DEFPOINTS
 62
     0
100
AcDbPoint
 10
0.0
 20
0.0
 30
0.0
  0
POINT
  5
4EC
330
3C9
100
AcDbEntity
  8
DEFPOINTS
 62
     0
100
AcDbPoint
 10
-0.0000000000001136
 20
-1.414175811535955
 30
0.0
  0
POINT
  5
4ED
330
3C9
100
AcDbEntity
  8
DEFPOINTS
 62
     0
100
AcDbPoint
 10
14.4702977375203
 20
-2.399251557489889
 30
0.0
  0
ENDBLK
  5
3D8
330
3C9
100
AcDbEntity
  8
0
100
AcDbBlockEnd
  0
BLOCK
  5
428
330
41E
100
AcDbEntity
  8
0
100
AcDbBlockBegin
  2
*D14
 70
     1
 71
     0
 10
0.0
 20
0.0
 30
0.0
  3
*D14
  1

  0
LINE
  5
4EE
330
41E
100
AcDbEntity
  8
AM_5
 62
     0
370
    -2
100
AcDbLine
 10
120.0
 20
-2.173407291506209
 30
0.0
 11
120.0
 21
33.84941039128833
 31
0.0
  0
LINE
  5
4EF
330
41E
100
AcDbEntity
  8
AM_5
 62
     0
370
    -2
100
AcDbLine
 10
0.0000000000000001
 20
1.0
 30
0.0
 11
0.0000000000000021
 21
33.84941039128833
 31
0.0
  0
LINE
  5
4F0
330
41E
100
AcDbEntity
  8
AM_5
 62
     0
370
    -2
100
AcDbLine
 10
117.0
 20
31.84941039128833
 30
0.0
 11
3.000000000000002
 21
31.84941039128833
 31
0.0
  0
SOLID
  5
4F1
330
41E
100
AcDbEntity
  8
AM_5
 62
     0
100
AcDbTrace
 10
117.0
 20
32.34941039128833
 30
0.0
 11
117.0
 21
31.34941039128833
 31
0.0
 12
120.0
 22
31.84941039128833
 32
0.0
 13
120.0
 23
31.84941039128833
 33
0.0
  0
SOLID
  5
4F2
330
41E
100
AcDbEntity
  8
AM_5
 62
     0
100
AcDbTrace
 10
3.000000000000002
 20
32.34941039128833
 30
0.0
 11
3.000000000000002
 21
31.34941039128833
 31
0.0
 12
0.000000000000002
 22
31.84941039128833
 32
0.0
 13
0.000000000000002
 23
31.84941039128833
 33
0.0
  0
MTEXT
  5
4F3
330
41E
100
AcDbEntity
  8
AM_5
 62
     0
100
AcDbMText
 10
60.0
 20
34.43941039128833
 30
0.0
 40
5.0
 41
0.0
 71
     5
 72
     1
  1
\A1;120
 73
     1
 44
1.0
  0
POINT
  5
4F4
330
41E
100
AcDbEntity
  8
DEFPOINTS
 62
     0
100
AcDbPoint
 10
120.0
 20
-3.173407291506209
 30
0.0
  0
POINT
  5
4F5
330
41E
100
AcDbEntity
  8
DEFPOINTS
 62
     0
100
AcDbPoint
 10
0.0
 20
0.0
 30
0.0
  0
POINT
  5
4F6
330
41E
100
AcDbEntity
  8
DEFPOINTS
 62
     0
100
AcDbPoint
 10
0.000000000000002
 20
31.84941039128833
 30
0.0
  0
ENDBLK
  5
429
330
41E
100
AcDbEntity
  8
0
100
AcDbBlockEnd
  0
BLOCK
  5
44C
330
442
100
AcDbEntity
  8
0
100
AcDbBlockBegin
  2
*D15
 70
     1
 71
     0
 10
0.0
 20
0.0
 30
0.0
  3
*D15
  1

  0
LINE
  5
4F7
330
442
100
AcDbEntity
  8
AM_5
 62
     0
370
    -2
100
AcDbLine
 10
0.3000000000000114
 20
81.0
 30
0.0
 11
-26.1340183347342
 21
81.0
 31
0.0
  0
LINE
  5
4F8
330
442
100
AcDbEntity
  8
AM_5
 62
     0
370
    -2
100
AcDbLine
 10
-1.0
 20
65.0
 30
0.0
 11
-26.13401833473421
 21
65.0
 31
0.0
  0
LINE
  5
4F9
330
442
100
AcDbEntity
  8
AM_5
 62
     0
370
    -2
100
AcDbLine
 10
-24.1340183347342
 20
78.0
 30
0.0
 11
-24.13401833473421
 21
68.0
 31
0.0
  0
SOLID
  5
4FA
330
442
100
AcDbEntity
  8
AM_5
 62
     0
100
AcDbTrace
 10
-24.6340183347342
 20
78.0
 30
0.0
 11
-23.6340183347342
 21
78.0
 31
0.0
 12
-24.1340183347342
 22
81.0
 32
0.0
 13
-24.1340183347342
 23
81.0
 33
0.0
  0
SOLID
  5
4FB
330
442
100
AcDbEntity
  8
AM_5
 62
     0
100
AcDbTrace
 10
-24.63401833473421
 20
68.0
 30
0.0
 11
-23.63401833473421
 21
68.0
 31
0.0
 12
-24.13401833473421
 22
65.0
 32
0.0
 13
-24.13401833473421
 23
65.0
 33
0.0
  0
MTEXT
  5
4FC
330
442
100
AcDbEntity
  8
AM_5
 62
     0
100
AcDbMText
 10
-26.72401833473422
 20
73.0
 30
0.0
 40
5.0
 41
0.0
 71
     5
 72
     1
  1
\A1;16
 11
6.123031769111886E-17
 21
1.0
 31
0.0
 73
     1
 44
1.0
  0
POINT
  5
4FD
330
442
100
AcDbEntity
  8
DEFPOINTS
 62
     0
100
AcDbPoint
 10
1.300000000000011
 20
81.0
 30
0.0
  0
POINT
  5
4FE
330
442
100
AcDbEntity
  8
DEFPOINTS
 62
     0
100
AcDbPoint
 10
0.0
 20
65.0
 30
0.0
  0
POINT
  5
4FF
330
442
100
AcDbEntity
  8
DEFPOINTS
 62
     0
100
AcDbPoint
 10
-24.13401833473421
 20
65.0
 30
0.0
  0
ENDBLK
  5
44D
330
442
100
AcDbEntity
  8
0
100
AcDbBlockEnd
  0
ENDSEC
  0
SECTION
  2
ENTITIES
  0
LINE
  5
170
330
22
100
AcDbEntity
  8
2
  6
Continuous
100
AcDbLine
 10
0.0
 20
65.0
 30
0.0
 11
15.04355696704863
 21
63.41885844930272
 31
0.0
  0
LINE
  5
171
330
22
100
AcDbEntity
  8
2
  6
Continuous
100
AcDbLine
 10
0.4975554851540096
 20
69.73392422195299
 30
0.0
 11
0.0
 21
65.0
 31
0.0
  0
LINE
  5
172
330
22
100
AcDbEntity
  8
2
  6
Continuous
100
AcDbLine
 10
0.8000000000000114
 20
69.70213602250981
 30
0.0
 11
15.93662887790748
 21
68.111212219797
 31
0.0
  0
LINE
  5
173
330
22
100
AcDbEntity
  8
2
  6
Continuous
100
AcDbLine
 10
15.09582119868242
 20
63.91611939698692
 30
0.0
 11
17.50273905231586
 21
63.66314213663341
 31
0.0
  0
LINE
  5
174
330
22
100
AcDbEntity
  8
2
  6
CENTER
100
AcDbLine
 10
12.62440457786931
 20
78.9283333744424
 30
0.0
 11
10.82000858748643
 21
61.76065230220181
 31
0.0
  0
LINE
  5
175
330
22
100
AcDbEntity
  8
2
  6
Continuous
100
AcDbLine
 10
20.0
 20
65.0
 30
0.0
 11
120.0
 21
64.99999999999997
 31
0.0
  0
LINE
  5
179
330
22
100
AcDbEntity
  8
2
  6
Continuous
100
AcDbLine
 10
17.50273905231586
 20
63.66314213663341
 30
0.0
 11
18.0
 21
64.1108779049996
 31
0.0
  0
LINE
  5
17E
330
22
100
AcDbEntity
  8
2
  6
Continuous
100
AcDbLine
 10
15.54111245220258
 20
68.15278267125571
 30
0.0
 11
15.04355696704863
 21
63.41885844930272
 31
0.0
  0
LINE
  5
17F
330
22
100
AcDbEntity
  8
2
  6
Continuous
100
AcDbLine
 10
0.8000000000000114
 20
80.5
 30
0.0
 11
0.8000000000000114
 21
69.70213602250981
 31
0.0
  0
LINE
  5
180
330
22
100
AcDbEntity
  8
2
  6
Continuous
100
AcDbLine
 10
0.8000000000000114
 20
69.70213602250981
 30
0.0
 11
0.4975554851540096
 21
69.73392422195299
 31
0.0
  0
LINE
  5
181
330
22
100
AcDbEntity
  8
2
  6
Continuous
100
AcDbLine
 10
20.0
 20
81.0
 30
0.0
 11
20.0
 21
65.0
 31
0.0
  0
LINE
  5
182
330
22
100
AcDbEntity
  8
2
  6
Continuous
100
AcDbLine
 10
18.0
 20
65.19999999999999
 30
0.0
 11
18.0
 21
64.1108779049996
 31
0.0
  0
LINE
  5
183
330
22
100
AcDbEntity
  8
2
  6
Continuous
100
AcDbLine
 10
15.93662887790748
 20
68.111212219797
 30
0.0
 11
15.49133762438731
 21
63.87454894552809
 31
0.0
  0
LINE
  5
184
330
22
100
AcDbEntity
  8
2
  6
Continuous
100
AcDbLine
 10
18.0
 20
65.19999999999999
 30
0.0
 11
20.0
 21
65.19999999999999
 31
0.0
  0
LINE
  5
185
330
22
100
AcDbEntity
  8
2
  6
Continuous
100
AcDbLine
 10
1.300000000000011
 20
81.0
 30
0.0
 11
120.0
 21
80.99999999999999
 31
0.0
  0
LINE
  5
186
330
22
100
AcDbEntity
  8
2
  6
Continuous
100
AcDbLine
 10
0.8000000000000114
 20
80.5
 30
0.0
 11
1.300000000000011
 21
81.0
 31
0.0
  0
LINE
  5
19F
330
22
100
AcDbEntity
  8
29
  6
Continuous
100
AcDbLine
 10
0.0
 20
0.0
 30
0.0
 11
0.7940000295639038
 21
0.0
 31
0.0
  0
ARC
  5
1A1
330
22
100
AcDbEntity
  8
29
  6
Continuous
100
AcDbCircle
 10
0.7939999999999827
 20
-0.7939999999999969
 30
0.0
 40
0.7940000000000855
100
AcDbArc
 50
79.99999999999996
 51
200.0
  0
LINE
  5
1A2
330
22
100
AcDbEntity
  8
29
  6
Continuous
100
AcDbLine
 10
0.0478840590959067
 20
-1.065563993800595
 30
0.0
 11
4.749725716588102
 21
-13.98376777761138
 31
0.0
  0
LINE
  5
1A3
330
22
100
AcDbEntity
  8
29
  6
Continuous
100
AcDbLine
 10
0.9318766530674907
 20
-0.0120626441085108
 30
0.0
 11
14.4702977375203
 21
-2.39925155748989
 31
0.0
  0
LINE
  5
1A4
330
22
100
AcDbEntity
  8
29
  6
Continuous
100
AcDbLine
 10
14.94066012391761
 20
-3.691562571470399
 30
0.0
 11
6.104080696956771
 21
-14.2225774418996
 31
0.0
  0
ARC
  5
1A5
330
22
100
AcDbEntity
  8
29
  6
Continuous
100
AcDbCircle
 10
5.495841657492008
 20
-13.71220378381079
 30
0.0
 40
0.7939999999999973
100
AcDbArc
 50
199.9999999999999
 51
319.9999721171841
  0
ARC
  5
1A6
330
22
100
AcDbEntity
  8
29
  6
Continuous
100
AcDbCircle
 10
14.33242108445279
 20
-3.18118891338159
 30
0.0
 40
0.7939999999999999
100
AcDbArc
 50
319.9999721171857
 51
80.00000000000019
  0
CIRCLE
  5
1A7
330
22
100
AcDbEntity
  8
29
  6
Continuous
100
AcDbCircle
 10
6.874095916748047
 20
-5.895803451538086
 30
0.0
 40
1.904999971389771
  0
CIRCLE
  5
1A8
330
22
100
AcDbEntity
  8
29
  6
Continuous
100
AcDbCircle
 10
6.874095916748047
 20
-5.895803451538086
 30
0.0
 40
2.404999971389771
  0
CIRCLE
  5
1A9
330
22
100
AcDbEntity
  8
29
  6
Continuous
100
AcDbCircle
 10
7.064229011535588
 20
-6.253397941589384
 30
0.0
 40
1.5
  0
LINE
  5
1AA
330
22
100
AcDbEntity
  8
29
  6
CENTER
100
AcDbLine
 10
12.74981307983398
 20
-16.94642066955569
 30
0.0
 11
5.901809215545654
 21
-4.067208766937284
 31
0.0
  0
LINE
  5
1AB
330
22
100
AcDbEntity
  8
29
  6
CENTER
100
AcDbLine
 10
3.920555099773083
 20
-5.375016530030393
 30
0.0
 11
10.25755004001582
 21
-6.492399714608183
 31
0.0
  0
LINE
  5
1AC
330
22
100
AcDbEntity
  8
29
  6
CENTER
100
AcDbLine
 10
7.477899137037525
 20
-2.471460387114831
 30
0.0
 11
6.232502027739656
 21
-9.53445837128001
 31
0.0
  0
INSERT
  5
1AE
330
22
100
AcDbEntity
  8
29
  6
Continuous
100
AcDbBlockReference
  2
WS05-1_0001
 10
11.09933963695033
 20
-13.84233422809831
 30
0.0
 41
-1.0
 50
180.0
  0
LINE
  5
1AF
330
22
100
AcDbEntity
  8
29
  6
Continuous
100
AcDbLine
 10
6.870948070478505
 20
-14.55174268458561
 30
0.0
 11
7.148451221778487
 21
-12.97794634702382
 31
0.0
  0
LINE
  5
1B0
330
22
100
AcDbEntity
  8
29
  6
Continuous
100
AcDbLine
 10
3.916524938199984
 20
-14.0307974327043
 30
0.0
 11
4.194028089499966
 21
-12.45700109514252
 31
0.0
  0
ARC
  5
1B1
330
22
100
AcDbEntity
  8
29
  6
Continuous
100
AcDbCircle
 10
5.393736504339302
 20
-14.2912700586449
 30
0.0
 40
1.500000000000001
100
AcDbArc
 50
169.9999860585927
 51
349.9999860585926
  0
LINE
  5
1B2
330
22
100
AcDbEntity
  8
29
  6
Continuous
100
AcDbLine
 10
21.5
 20
-16.0
 30
0.0
 11
119.0
 21
-16.00000000000003
 31
0.0
  0
LINE
  5
1B3
330
22
100
AcDbEntity
  8
29
  6
Continuous
100
AcDbLine
 10
14.94066012391761
 20
-3.691562571470399
 30
0.0
 11
15.5241161252024
 21
-2.996227473024419
 31
0.0
  0
LINE
  5
1B4
330
22
100
AcDbEntity
  8
29
  6
Continuous
100
AcDbLine
 10
20.0
 20
0.0
 30
0.0
 11
119.0
 21
-0.0000000000000284
 31
0.0
  0
LINE
  5
1B5
330
22
100
AcDbEntity
  8
29
  6
Continuous
100
AcDbLine
 10
120.0
 20
-1.000000000000028
 30
0.0
 11
120.0
 21
-15.00000000000003
 31
0.0
  0
LINE
  5
1B6
330
22
100
AcDbEntity
  8
29
  6
Continuous
100
AcDbLine
 10
119.0
 20
-16.00000000000003
 30
0.0
 11
120.0
 21
-15.00000000000003
 31
0.0
  0
LINE
  5
1B7
330
22
100
AcDbEntity
  8
29
  6
Continuous
100
AcDbLine
 10
120.0
 20
-1.000000000000028
 30
0.0
 11
119.0
 21
-0.0000000000000284
 31
0.0
  0
LINE
  5
1B8
330
22
100
AcDbEntity
  8
29
  6
Continuous
100
AcDbLine
 10
119.0
 20
-16.00000000000003
 30
0.0
 11
119.0
 21
-0.0000000000000284
 31
0.0
  0
LINE
  5
1B9
330
22
100
AcDbEntity
  8
29
  6
Continuous
100
AcDbLine
 10
18.0
 20
-2.279431835728673
 30
0.0
 11
18.0
 21
-19.5
 31
0.0
  0
LINE
  5
1CC
330
22
100
AcDbEntity
  8
29
  6
Continuous
100
AcDbLine
 10
2.800000000000011
 20
-20.0
 30
0.0
 11
17.5
 21
-20.0
 31
0.0
  0
LINE
  5
1CD
330
22
100
AcDbEntity
  8
29
  6
Continuous
100
AcDbLine
 10
17.5
 20
-20.0
 30
0.0
 11
18.0
 21
-19.5
 31
0.0
  0
LINE
  5
1D0
330
22
100
AcDbEntity
  8
29
  6
Continuous
100
AcDbLine
 10
0.8000000000000114
 20
-3.131985558246498
 30
0.0
 11
0.8000000000000114
 21
-18.0
 31
0.0
  0
LINE
  5
1D1
330
22
100
AcDbEntity
  8
29
  6
Continuous
100
AcDbLine
 10
2.800000000000011
 20
-20.0
 30
0.0
 11
0.8000000000000114
 21
-18.0
 31
0.0
  0
ARC
  5
1D2
330
22
100
AcDbEntity
  8
29
  6
Continuous
100
AcDbCircle
 10
15.41858558990793
 20
2.00265873353402
 30
0.0
 40
4.999999999999998
100
AcDbArc
 50
266.3742753004652
 51
336.3885752602176
  0
LINE
  5
1DB
330
22
100
AcDbEntity
  8
29
  6
Continuous
100
AcDbLine
 10
20.0
 20
-16.33772233983157
 30
0.0
 11
20.0
 21
0.0
 31
0.0
  0
ARC
  5
1DC
330
22
100
AcDbEntity
  8
29
  6
Continuous
100
AcDbCircle
 10
21.5
 20
-19.5
 30
0.0
 40
3.5
100
AcDbArc
 50
90.0
 51
180.0
  0
TEXT
  5
30E
330
22
100
AcDbEntity
  8
0
100
AcDbText
 10
6.24212380948984
 20
-62.0328418742838
 30
0.0
 40
5.0
  1
%%uPTXNR1616-X16X
100
AcDbText
  0
LINE
  5
31B
330
22
100
AcDbEntity
  8
0
100
AcDbLine
 10
120.0
 20
80.99999999999999
 30
0.0
 11
120.0
 21
64.99999999999997
 31
0.0
  0
LINE
  5
31C
330
22
100
AcDbEntity
  8
0
100
AcDbLine
 10
119.0
 20
80.99999999999999
 30
0.0
 11
119.0
 21
64.99999999999997
 31
0.0
  0
LINE
  5
333
330
22
100
AcDbEntity
  8
0
100
AcDbLine
 10
0.0
 20
0.0
 30
0.0
 11
-0.0000000000001137
 21
-1.414175811535955
 31
0.0
  0
DIMENSION
  5
347
330
22
100
AcDbEntity
  8
AM_5
100
AcDbDimension
  2
*D10
 10
-19.77740768185532
 20
-20.0
 30
0.0
 11
-22.36740768185532
 21
-9.999999999999998
 31
0.0
 70
    32
 71
     5
 42
20.0
  3
Standard$0
100
AcDbAlignedDimension
 13
-0.0000000000001137
 23
0.0
 33
0.0
 14
2.800000000000011
 24
-20.0
 34
0.0
 50
270.0
100
AcDbRotatedDimension
1001
ACAD
1000
DSTYLE
1002
{
1070
    41
1040
3.0
1070
    42
1040
1.0
1070
    43
1040
5.0
1070
    44
1040
2.0
1070
    46
1040
3.0
1070
    73
1070
     0
1070
    74
1070
     0
1070
    77
1070
     1
1070
    78
1070
     8
1070
   140
1040
5.0
1070
   141
1040
2.0
1070
   145
1040
1.0
1070
   171
1070
     4
1070
   172
1070
     1
1002
}
  0
DIMENSION
  5
36B
330
22
100
AcDbEntity
  8
AM_5
100
AcDbDimension
  2
*D11
 10
0.8000000000000107
 20
-28.8824830577947
 30
0.0
 11
9.400000000000006
 21
-26.2924830577947
 31
0.0
 70
    32
  1
18
 71
     5
 42
17.19999999999999
  3
Standard$0
100
AcDbAlignedDimension
 13
18.0
 23
-18.12288846668409
 33
0.0
 14
0.8000000000000114
 24
-18.0
 34
0.0
 50
180.0
100
AcDbRotatedDimension
1001
ACAD
1000
DSTYLE
1002
{
1070
    41
1040
3.0
1070
    42
1040
1.0
1070
    43
1040
5.0
1070
    44
1040
2.0
1070
    46
1040
3.0
1070
    73
1070
     0
1070
    74
1070
     0
1070
    77
1070
     1
1070
    78
1070
     8
1070
   140
1040
5.0
1070
   141
1040
2.0
1070
   145
1040
1.0
1070
   171
1070
     4
1070
   172
1070
     1
1002
}
  0
DIMENSION
  5
39E
330
22
100
AcDbEntity
  8
AM_5
100
AcDbDimension
  2
*D12
 10
27.66596104460592
 20
-16.0
 30
0.0
 11
27.66596104460592
 21
-27.75666666666672
 31
0.0
 70
   160
 71
     5
 42
4.000000000000002
  3
Standard$0
100
AcDbAlignedDimension
 13
15.71231067732219
 23
-20.0
 33
0.0
 14
22.6378381444124
 24
-16.0
 34
0.0
 50
270.0
100
AcDbRotatedDimension
1001
ACAD
1000
DSTYLE
1002
{
1070
    41
1040
3.0
1070
    42
1040
1.0
1070
    43
1040
5.0
1070
    44
1040
2.0
1070
    46
1040
3.0
1070
    73
1070
     0
1070
    74
1070
     0
1070
    77
1070
     1
1070
    78
1070
     8
1070
   140
1040
5.0
1070
   141
1040
2.0
1070
   145
1040
1.0
1070
   171
1070
     4
1070
   172
1070
     1
1002
}
  0
DIMENSION
  5
3C8
330
22
100
AcDbEntity
  8
AM_5
100
AcDbDimension
  2
*D13
 10
14.4702977375203
 20
-2.39925155748989
 30
0.0
 11
17.23572702804495
 21
17.01455326631497
 31
0.0
 70
   162
 71
     5
 42
1.745329251994248
  3
Standard$2
100
AcDb2LineAngularDimension
 13
0.0
 23
0.0
 33
0.0
 14
-0.0000000000001137
 24
-1.414175811535955
 34
0.0
 15
0.9318766530674907
 25
-0.0120626441085108
 35
0.0
 16
16.98397033169463
 26
7.478422025417993
 36
0.0
1001
ACAD
1000
DSTYLE
1002
{
1070
    41
1040
3.0
1070
    42
1040
1.0
1070
    43
1040
5.0
1070
    44
1040
2.0
1070
    46
1040
3.0
1070
    73
1070
     0
1070
    74
1070
     0
1070
    77
1070
     1
1070
    78
1070
     8
1070
   140
1040
5.0
1070
   141
1040
2.0
1070
   145
1040
1.0
1070
   171
1070
     4
1070
   172
1070
     1
1070
   279
1070
     2
1002
}
  0
DIMENSION
  5
41D
330
22
100
AcDbEntity
  8
AM_5
100
AcDbDimension
  2
*D14
 10
0.000000000000002
 20
31.84941039128833
 30
0.0
 11
60.0
 21
34.43941039128833
 31
0.0
 70
    32
 71
     5
 42
120.0
  3
Standard$0
100
AcDbAlignedDimension
 13
120.0
 23
-3.173407291506209
 33
0.0
 14
0.0
 24
0.0
 34
0.0
 50
180.0
100
AcDbRotatedDimension
1001
ACAD
1000
DSTYLE
1002
{
1070
    41
1040
3.0
1070
    42
1040
1.0
1070
    43
1040
5.0
1070
    44
1040
2.0
1070
    46
1040
3.0
1070
    73
1070
     0
1070
    74
1070
     0
1070
    77
1070
     1
1070
    78
1070
     8
1070
   140
1040
5.0
1070
   141
1040
2.0
1070
   145
1040
1.0
1070
   171
1070
     4
1070
   172
1070
     1
1002
}
  0
DIMENSION
  5
441
330
22
100
AcDbEntity
  8
AM_5
100
AcDbDimension
  2
*D15
 10
-24.13401833473421
 20
65.0
 30
0.0
 11
-26.72401833473422
 21
73.0
 31
0.0
 70
    32
 71
     5
 42
16.0
  3
Standard$0
100
AcDbAlignedDimension
 13
1.300000000000011
 23
81.0
 33
0.0
 14
0.0
 24
65.0
 34
0.0
 50
270.0
100
AcDbRotatedDimension
1001
ACAD
1000
DSTYLE
1002
{
1070
    41
1040
3.0
1070
    42
1040
1.0
1070
    43
1040
5.0
1070
    44
1040
2.0
1070
    46
1040
3.0
1070
    73
1070
     0
1070
    74
1070
     0
1070
    77
1070
     1
1070
    78
1070
     8
1070
   140
1040
5.0
1070
   141
1040
2.0
1070
   145
1040
1.0
1070
   171
1070
     4
1070
   172
1070
     1
1002
}
  0
ACAD_PROXY_ENTITY
  5
4C1
330
22
100
AcDbEntity
  8
AM_5
100
AcDbProxyEntity
 90
      498
 91
      570
 95
       25
 70
     0
 92
      668
310
9C020000270000000C00000016000000000000C00C00000013000000010000000C00000016000000000000C00C00000017000000FFFFFFFF3C0000000600000002000000B81BC757D9C549C0C071803CDD663A400000000000000000EB4EFA8A0C5946C0BB71803CDD663A4000000000000000000C00000016000000000000
310
C00C00000010000000FFFFFFFF0C00000012000000FFFFFFFF0C00000017000000000000000C00000014000000010000000C00000013000000020000000C00000016000000000000C00C00000017000000FFFFFFFF3C0000000600000002000000EB4EFA8A0C5946C0BB71803CDD663A400000000000000000B81BC757D9C5
310
44C0B871803CDD663A4000000000000000000C00000016000000000000C00C00000010000000FFFFFFFF0C00000012000000FFFFFFFF0C00000017000000000000000C00000014000000010000000C00000013000000030000000C00000016000000000000C00C00000017000000FFFFFFFF3C0000000600000002000000EB
310
4EFA8A0C5946C068EE011BB3FC39400000000000000000B81BC757D9C544C0B871803CDD663A4000000000000000000C00000016000000000000C00C00000010000000FFFFFFFF0C00000012000000FFFFFFFF0C00000017000000000000000C00000014000000010000000C00000013000000040000000C00000016000000
310
000000C00C00000017000000FFFFFFFF3C0000000600000002000000B81BC757D9C544C0B871803CDD663A400000000000000000EB4EFA8A0C5946C00DF5FE5D07D13A4000000000000000000C00000016000000000000C00C00000010000000FFFFFFFF0C00000012000000FFFFFFFF0C00000017000000000000000C0000
310
0014000000010000000C00000013000000050000000C00000016000000000000C0
 93
     1537
310
5DCB84934572D3D44C02E1C600F37598E90219FD350232B475AF0000000000000F0BF9197D350232B475AF2A54051F8000000C800AA2E06F1D5F67152700C071803CDD663A409018FFFFFFFF2E06F1D5F67151300B871803CDD663A40A8FFFFFFFF1FFFFFFFF170378EAFB38A93806038C01E6EB31D2045409C87028822DBE
310
3FFC48C0280F93426AB4CE102A465F4D408CA51D7BC0000000000003C2FE8333333333333094041D050000000000003C2FC000000000000F0BF40401015213500500
340
2F1
340
2FD
330
0
330
0
340
0
340
0
340
2DC
330
0
330
0
 94
        0
  0
ACAD_PROXY_ENTITY
  5
4C2
330
22
100
AcDbEntity
  8
AM_5
100
AcDbProxyEntity
 90
      498
 91
      570
 95
       25
 70
     0
 92
      668
310
9C020000270000000C00000016000000000000C00C00000013000000010000000C00000016000000000000C00C00000017000000FFFFFFFF3C0000000600000002000000B81BC757D9C549C0C071803CDD663A400000000000000000AD1BC757D9C549C0AD050D6B3BA0404000000000000000000C00000016000000000000
310
C00C00000010000000FFFFFFFF0C00000012000000FFFFFFFF0C00000017000000000000000C00000014000000010000000C00000013000000020000000C00000016000000000000C00C00000017000000FFFFFFFF3C0000000600000002000000AD1BC757D9C549C0AD050D6B3BA040400000000000000000A81BC757D9C5
310
49C0E038409E6E33424000000000000000000C00000016000000000000C00C00000010000000FFFFFFFF0C00000012000000FFFFFFFF0C00000017000000000000000C00000014000000010000000C00000013000000030000000C00000016000000000000C00C00000017000000FFFFFFFF3C000000060000000200000004
310
DA0747C49049C0AC050D6B3BA040400000000000000000A81BC757D9C549C0E038409E6E33424000000000000000000C00000016000000000000C00C00000010000000FFFFFFFF0C00000012000000FFFFFFFF0C00000017000000000000000C00000014000000010000000C00000013000000040000000C00000016000000
310
000000C00C00000017000000FFFFFFFF3C0000000600000002000000A81BC757D9C549C0E038409E6E3342400000000000000000565D8668EEFA49C0AE050D6B3BA0404000000000000000000C00000016000000000000C00C00000010000000FFFFFFFF0C00000012000000FFFFFFFF0C00000017000000000000000C0000
310
0014000000010000000C00000013000000050000000C00000016000000000000C0
 93
     1409
310
5DCA81BC757D9C549C03702B4E786AF109024CAE8A91194A3CDBC8CCE8A91194A3CD3C6A54051F8000000C800AA2E06F1D5F67152700C071803CDD663A409018FFFFFFFF2A06F1D5F67152700E038409E6E334240A8FFFFFFFF1FFFFFFFF170378EAFB38A93806038C01E6EB31D2045409C87028822DBE3FFC48C038292CDB
310
C43E8ED02A532BA2A446528F36F28333333333333094041D050000000000003C2FC000000000000F0BF40401015213500500
340
2F1
340
2FD
330
0
330
0
340
0
340
0
340
2DC
330
0
330
0
 94
        0
  0
TEXT
  5
4C3
330
22
100
AcDbEntity
  8
AM_6
100
AcDbText
 10
-38.9471744214581
 20
24.49168934835663
 30
0.0
 40
4.0
  1
-6%%D
100
AcDbText
  0
TEXT
  5
4C4
330
22
100
AcDbEntity
  8
AM_6
100
AcDbText
 10
-52.30815352458473
 20
39.61255905125418
 30
0.0
 40
4.0
  1
-6%%D
100
AcDbText
  0
ENDSEC
  0
SECTION
  2
OBJECTS
  0
DICTIONARY
  5
C
330
0
100
AcDbDictionary
281
     1
  3
ACAD_COLOR
350
1B
  3
ACAD_GROUP
350
D
  3
ACAD_LAYOUT
350
19
  3
ACAD_MATERIAL
350
1A
  3
ACAD_MLINESTYLE
350
16
  3
ACAD_PLOTSETTINGS
350
18
  3
ACAD_PLOTSTYLENAME
350
E
  3
ACAD_TABLESTYLE
350
1C
  3
AcAmCatalogState
350
261
  3
ACDBHEADERROUNDTRIPXREC
350
525
  3
AcDbVariableDictionary
350
2B2
  3
ACDMSYSVARMGR
350
21B
  3
ACGREF_MASTER
350
215
  3
ACGREFACAD_MASTER
350
23D
  3
AcmDictionary
350
25F
  3
ACME_BOM_MANAGER_NAME
350
20F
  3
ACME_COMMAND_HISTORY
350
20C
  3
ACME_SCOPE_NAME
350
20B
  3
ACMESTATEMGR
350
214
  3
AcmeSysVarManager
350
20D
  3
AcmSystemVariableManager
350
26A
  3
AD_APPL
350
24C
  3
ADSYSVARMGR
350
24B
  3
AmdtNamedDwgMgr
350
238
  3
AMG
350
241
  3
AMGSNAPSETTINGS
350
2A1
  3
AMI_MASTER
350
240
  3
AUTOCAD_ASSEMBLIES_PROJECT
350
254
  3
Designer_Assemblies_SysVars
350
24F
  3
GREFAM_MODULE
350
245
  0
DICTIONARY
  5
2E7
330
2
100
AcDbDictionary
280
     1
281
     1
  3
ACAD_LAYERSTATES
360
2E8
  0
DICTIONARY
  5
1B
102
{ACAD_REACTORS
330
C
102
}
330
C
100
AcDbDictionary
281
     1
  0
DICTIONARY
  5
D
102
{ACAD_REACTORS
330
C
102
}
330
C
100
AcDbDictionary
281
     1
  0
DICTIONARY
  5
19
102
{ACAD_REACTORS
330
C
102
}
330
C
100
AcDbDictionary
281
     1
  3
Model
350
25
  3
レイアウト1
350
21
  0
DICTIONARY
  5
1A
102
{ACAD_REACTORS
330
C
102
}
330
C
100
AcDbDictionary
281
     1
  0
DICTIONARY
  5
16
102
{ACAD_REACTORS
330
C
102
}
330
C
100
AcDbDictionary
281
     1
  3
Standard
350
17
  0
DICTIONARY
  5
18
102
{ACAD_REACTORS
330
C
102
}
330
C
100
AcDbDictionary
281
     1
  0
ACDBDICTIONARYWDFLT
  5
E
102
{ACAD_REACTORS
330
C
102
}
330
C
100
AcDbDictionary
281
     1
  3
Normal
350
F
100
AcDbDictionaryWithDefault
340
F
  0
DICTIONARY
  5
1C
102
{ACAD_REACTORS
330
C
102
}
330
C
100
AcDbDictionary
281
     1
  3
Standard
350
1D
  0
ACAD_PROXY_OBJECT
  5
261
102
{ACAD_REACTORS
330
C
102
}
330
C
100
AcDbProxyObject
 90
      499
 91
      545
 95
       25
 70
     0
 93
      504
310
3FFFFFFFE00A0281402992E2E21BA3239AE483ECB654563CBCEAE4AABC7C0483ECB652E487CC6F6CBB846A445F7AE41BDC1B341A12E272A25C83ECB65400AA
  0
DICTIONARY
  5
525
102
{ACAD_REACTORS
330
C
102
}
330
C
100
AcDbDictionary
281
     1
  3
COLORDICT
350
526
  3
MATERIALDICT
350
527
  0
DICTIONARY
  5
2B2
102
{ACAD_REACTORS
330
C
102
}
330
C
100
AcDbDictionary
281
     1
  3
CTABLESTYLE
350
2B3
  3
DIMASSOC
350
523
  3
HIDETEXT
350
524
  0
ACAD_PROXY_OBJECT
  5
21B
102
{ACAD_REACTORS
330
C
102
}
330
C
100
AcDbProxyObject
 90
      499
 91
      505
 95
       25
 70
     0
 93
      240
310
4C51A47A0000000000000000000000000000000000000000000000000000
330
21C
330
21D
330
21E
330
21F
330
220
330
221
330
222
330
223
330
224
330
225
330
226
330
227
330
228
330
229
330
22A
330
22B
330
22C
330
22D
330
22E
330
22F
330
230
330
231
330
232
330
233
330
234
330
235
 94
        0
  0
ACAD_PROXY_OBJECT
  5
215
102
{ACAD_REACTORS
330
C
102
}
330
C
100
AcDbProxyObject
 90
      499
 91
      513
 95
       25
 70
     0
 93
       34
310
0400004280
  0
ACAD_PROXY_OBJECT
  5
23D
102
{ACAD_REACTORS
330
C
102
}
330
C
100
AcDbProxyObject
 90
      499
 91
      522
 95
       25
 70
     0
 93
      114
310
04000041C080000000000000000000
  0
DICTIONARY
  5
25F
102
{ACAD_REACTORS
330
C
102
}
330
C
100
AcDbDictionary
281
     1
  3
AcmBOMDATA
350
260
  3
AcmStdDictionary
350
26C
  3
AMDTSECTSYM_ARROWCOLOR
350
28C
  0
ACAD_PROXY_OBJECT
  5
20F
102
{ACAD_REACTORS
330
C
102
}
330
C
100
AcDbProxyObject
 90
      499
 91
      507
 95
       25
 70
     0
 93
       50
310
00010040400000
330
0
330
0
330
210
 94
        0
  0
ACAD_PROXY_OBJECT
  5
20C
102
{ACAD_REACTORS
330
C
102
}
330
C
100
AcDbProxyObject
 90
      499
 91
      504
 95
       25
 70
     0
 93
     5932
310
47805044C494E4580504554E444F805054552415345408052D4D5347202D205050413A2020206465736B746F702E6172782046696C6556657273696F6E3A20392E322E302E34014B5354D1C80B481414104E88080819195CDADD1BDC0B985C9E08119A5B1955995C9CDA5BDB8E880E4B8C8B8C0B8D0050A414D504F5745524
310
4494D8050A414D504F57455244494D8050C475249505F535452455443488050653454C4543548050E414D504F57455244494D5F414E47404052D4D5347202D205050413A2020206465736B746F702E6172782046696C6556657273696F6E3A20392E322E302E3401435052511253551156151353D5916014290535413D5D15
310
49112536014191111151125520142111493D411D153D3601415454D05591501014B5354D1C80B481414104E88080819195CDADD1BDC0B985C9E08119A5B1955995C9CDA5BDB8E880E4B8C8B8C0B8D0050E414D4454524553455444424D4F4440805084E202D20554E444F014213880B4815539113C0504554E444F80504554
310
E444F80505455241534580506524F544154458050844524F5047454F4D805095041535445434C4950805044C494E4540805184D5347202D20436F6D6D616E642043414E43454C4C45442E014B5354D1C80B481414104E88080819195CDADD1BDC0B985C9E08119A5B1955995C9CDA5BDB8E880E4B8C8B8C0B8D005044D4F56
310
45805045A4F4F4D805055153415645404052D4D5347202D205050413A2020206465736B746F702E6172782046696C6556657273696F6E3A20392E322E302E3401415454D05591501014B5354D1C80B481414104E88080819195CDADD1BDC0B985C9E08119A5B1955995C9CDA5BDB8E880E4B8C8B8C0B8D0050E414D4454524
310
553455444424D4F4440805084E202D20554E444F014213880B4815539113C0504554E444F80504554E444F805055055524745805055153415645404052D4D5347202D205050413A2020206465736B746F702E6172782046696C6556657273696F6E3A20392E322E302E340
  0
ACAD_PROXY_OBJECT
  5
20B
102
{ACAD_REACTORS
330
C
102
}
330
C
100
AcDbProxyObject
 90
      499
 91
      503
 95
       25
 70
     0
 93
      546
310
090000464080000000000000000012F4CE0000000000000000000000000000000000000000000000000000000000000000000000000000000000000000000000AAA406AA80
360
20E
360
210
360
216
360
217
360
218
360
219
360
21C
360
21D
360
21E
360
21F
360
220
360
221
360
222
360
223
360
224
360
225
360
226
360
227
360
228
360
229
360
22A
360
22B
360
22C
360
22D
360
22E
360
22F
360
230
360
231
360
232
360
233
360
234
360
235
360
247
360
248
360
249
360
24A
360
250
360
251
360
252
360
253
360
258
360
259
360
25A
360
25B
360
25C
360
25D
360
26B
 94
        0
  0
ACAD_PROXY_OBJECT
  5
214
102
{ACAD_REACTORS
330
C
102
}
330
C
100
AcDbProxyObject
 90
      499
 91
      512
 95
       25
 70
     0
 93
       50
310
09000042641280
  0
ACAD_PROXY_OBJECT
  5
20D
102
{ACAD_REACTORS
330
C
102
}
330
C
100
AcDbProxyObject
 90
      499
 91
      505
 95
       25
 70
     0
 93
       32
310
90140A00
330
20E
 94
        0
  0
ACAD_PROXY_OBJECT
  5
26A
102
{ACAD_REACTORS
330
C
102
}
330
C
100
AcDbProxyObject
 90
      499
 91
      505
 95
       25
 70
     0
 93
       32
310
90140A00
330
26B
 94
        0
  0
ACAD_PROXY_OBJECT
  5
24C
102
{ACAD_REACTORS
330
C
102
}
330
C
100
AcDbProxyObject
 90
      499
 91
      533
 95
       25
 70
     0
 93
       42
310
000900004040
330
247
 94
        0
  0
ACAD_PROXY_OBJECT
  5
24B
102
{ACAD_REACTORS
330
C
102
}
330
C
100
AcDbProxyObject
 90
      499
 91
      505
 95
       25
 70
     0
 93
        8
310
AA
  0
ACAD_PROXY_OBJECT
  5
238
102
{ACAD_REACTORS
330
C
102
}
330
C
100
AcDbProxyObject
 90
      499
 91
      519
 95
       25
 70
     0
 93
       42
310
000100005E80
330
216
 94
        0
  0
DICTIONARY
  5
241
102
{ACAD_REACTORS
330
C
102
}
330
C
100
AcDbDictionary
281
     1
  3
AcMgSettings
350
242
  3
AMGLAYCFG
350
26E
  0
DICTIONARY
  5
2A1
102
{ACAD_REACTORS
330
C
102
}
330
C
100
AcDbDictionary
281
     1
  3
DIMENSION
350
2A6
  3
FEA
350
2A5
  3
HATCH (1)
350
2A2
  3
HATCH (2)
350
2A3
  3
SIMPLE WELD
350
2A7
  3
SYMBOLS
350
2A4
  0
ACAD_PROXY_OBJECT
  5
240
102
{ACAD_REACTORS
330
C
102
}
330
C
100
AcDbProxyObject
 90
      499
 91
      525
 95
       25
 70
     0
 93
       34
310
0500004280
  0
ACAD_PROXY_OBJECT
  5
254
102
{ACAD_REACTORS
330
C
102
}
330
C
100
AcDbProxyObject
 90
      499
 91
      537
 95
       25
 70
     0
 93
       98
310
0900004E400000000000000000
330
25B
330
0
330
25C
330
0
330
0
330
0
330
0
330
0
 94
        0
  0
ACAD_PROXY_OBJECT
  5
24F
102
{ACAD_REACTORS
330
C
102
}
330
C
100
AcDbProxyObject
 90
      499
 91
      505
 95
       25
 70
     0
 93
       56
310
90441600000000
330
250
330
251
330
252
330
253
 94
        0
  0
ACAD_PROXY_OBJECT
  5
245
102
{ACAD_REACTORS
330
C
102
}
330
C
100
AcDbProxyObject
 90
      499
 91
      527
 95
       25
 70
     0
 93
        8
310
05
  0
DICTIONARY
  5
2E8
102
{ACAD_REACTORS
330
2E7
102
}
330
2E7
100
AcDbDictionary
281
     1
  0
LAYOUT
  5
25
102
{ACAD_REACTORS
330
19
102
}
330
19
100
AcDbPlotSettings
  1

  2
Canon LBP-1420
  4
A4
  6

 40
5.873749732971191
 41
5.873747825622559
 42
5.873748779296875
 43
5.873748779296875
 44
209.9733276367188
 45
296.9259948730469
 46
0.0
 47
0.0
 48
0.0
 49
0.0
140
400.0
141
273.0
142
1.0
143
1.402630290955233
 70
 11952
 72
     1
 73
     1
 74
     4
  7
sei_cad.ctb
 75
     0
147
0.7129462456703186
148
0.0
149
0.0
100
AcDbLayout
  1
Model
 70
     1
 71
     0
 10
0.0
 20
0.0
 11
12.0
 21
9.0
 12
0.0
 22
0.0
 32
0.0
 14
0.0
 24
0.0
 34
0.0
 15
0.0
 25
0.0
 35
0.0
146
0.0
 13
0.0
 23
0.0
 33
0.0
 16
1.0
 26
0.0
 36
0.0
 17
0.0
 27
1.0
 37
0.0
 76
     0
330
22
1001
ACAD_PSEXT
1000
Canon LBP-1420
1000
Canon LASER SHOT LBP-1420
1000
10.254.89.243:lp
1000

1070
     0
  0
LAYOUT
  5
21
102
{ACAD_REACTORS
330
19
102
}
330
19
100
AcDbPlotSettings
  1

  2
Canon LBP-1420
  4

  6

 40
0.0
 41
0.0
 42
0.0
 43
0.0
 44
0.0
 45
0.0
 46
0.0
 47
0.0
 48
0.0
 49
0.0
140
0.0
141
0.0
142
1.0
143
1.0
 70
   688
 72
     0
 73
     0
 74
     5
  7
sei_cad.ctb
 75
    16
147
1.0
148
0.0
149
0.0
100
AcDbLayout
  1
レイアウト1
 70
     1
 71
     1
 10
0.0
 20
0.0
 11
12.0
 21
9.0
 12
0.0
 22
0.0
 32
0.0
 14
1.000000000000000E+20
 24
1.000000000000000E+20
 34
1.000000000000000E+20
 15
-1.000000000000000E+20
 25
-1.000000000000000E+20
 35
-1.000000000000000E+20
146
0.0
 13
0.0
 23
0.0
 33
0.0
 16
1.0
 26
0.0
 36
0.0
 17
0.0
 27
1.0
 37
0.0
 76
     0
330
1E
  0
MLINESTYLE
  5
17
102
{ACAD_REACTORS
330
16
102
}
330
16
100
AcDbMlineStyle
  2
STANDARD
 70
     0
  3

 62
   256
 51
90.0
 52
90.0
 71
     2
 49
0.5
 62
   256
  6
BYLAYER
 49
-0.5
 62
   256
  6
BYLAYER
  0
ACDBPLACEHOLDER
  5
F
102
{ACAD_REACTORS
330
E
102
}
330
E
  0
TABLESTYLE
  5
1D
102
{ACAD_REACTORS
330
1C
102
}
330
1C
100
AcDbTableStyle
  3
Standard
 70
     0
 71
     0
 40
0.06
 41
0.06
280
     0
281
     0
  7
STANDARD
140
0.18
170
     2
 62
     0
 63
     7
283
     0
274
    -2
284
     1
 64
     0
275
    -2
285
     1
 65
     0
276
    -2
286
     1
 66
     0
277
    -2
287
     1
 67
     0
278
    -2
288
     1
 68
     0
279
    -2
289
     1
 69
     0
  7
STANDARD
140
0.25
170
     5
 62
     0
 63
     7
283
     0
274
    -2
284
     1
 64
     0
275
    -2
285
     1
 65
     0
276
    -2
286
     1
 66
     0
277
    -2
287
     1
 67
     0
278
    -2
288
     1
 68
     0
279
    -2
289
     1
 69
     0
  7
STANDARD
140
0.18
170
     5
 62
     0
 63
     7
283
     0
274
    -2
284
     1
 64
     0
275
    -2
285
     1
 65
     0
276
    -2
286
     1
 66
     0
277
    -2
287
     1
 67
     0
278
    -2
288
     1
 68
     0
279
    -2
289
     1
 69
     0
  0
XRECORD
  5
526
102
{ACAD_REACTORS
330
525
102
}
330
525
100
AcDbXrecord
280
     1
340
1B
  0
XRECORD
  5
527
102
{ACAD_REACTORS
330
525
102
}
330
525
100
AcDbXrecord
280
     1
340
1A
  0
DICTIONARYVAR
  5
2B3
102
{ACAD_REACTORS
330
2B2
102
}
330
2B2
100
DictionaryVariables
280
     0
  1
STANDARD
  0
DICTIONARYVAR
  5
523
102
{ACAD_REACTORS
330
2B2
102
}
330
2B2
100
DictionaryVariables
280
     0
  1
1
  0
DICTIONARYVAR
  5
524
102
{ACAD_REACTORS
330
2B2
102
}
330
2B2
100
DictionaryVariables
280
     0
  1
0
  0
ACAD_PROXY_OBJECT
  5
260
102
{ACAD_REACTORS
330
25F
102
}
330
25F
100
AcDbProxyObject
 90
      499
 91
      544
 95
       25
 70
     0
 93
       76
310
90100057356C1D7740E0
  0
DICTIONARY
  5
26C
102
{ACAD_REACTORS
330
25F
102
}
330
25F
100
AcDbDictionary
281
     1
  3
ANSI
350
26D
  3
JIS
350
2F1
  0
XRECORD
  5
28C
102
{ACAD_REACTORS
330
25F
102
}
330
25F
100
AcDbXrecord
280
     1
 90
-1023410169
  0
ACAD_PROXY_OBJECT
  5
20E
330
20B
100
AcDbProxyObject
 90
      499
 91
      506
 95
       25
 70
     0
 93
      156
310
000101439050D35154D6535093D314D256915080
330
20B
 94
        0
  0
ACAD_PROXY_OBJECT
  5
210
330
20B
100
AcDbProxyObject
 90
      499
 91
      508
 95
       25
 70
     0
 93
      120
310
000101422565255A6557080C402B00
330
20B
330
0
330
0
 94
        0
  0
ACAD_PROXY_OBJECT
  5
216
330
20B
100
AcDbProxyObject
 90
      499
 91
      514
 95
       25
 70
     0
 93
      366
310
0001014124FEA55D00507392E322E302E32014124FEA55D00507392E322E302E3240501000041905394D24CCC658
330
20B
330
217
330
21B
 94
        0
  0
ACAD_PROXY_OBJECT
  5
217
330
20B
100
AcDbProxyObject
 90
      499
 91
      515
 95
       25
 70
     0
 93
       48
310
000190140A00
330
20B
330
218
 94
        0
  0
ACAD_PROXY_OBJECT
  5
218
330
20B
100
AcDbProxyObject
 90
      499
 91
      516
 95
       25
 70
     0
 93
       48
310
0001AA000000
330
20B
330
21
330
219
330
0
 94
        0
  0
ACAD_PROXY_OBJECT
  5
219
330
20B
100
AcDbProxyObject
 90
      499
 91
      517
 95
       25
 70
     0
 93
       28
310
0001AAA0
330
20B
 94
        0
  0
ACAD_PROXY_OBJECT
  5
21C
330
20B
100
AcDbProxyObject
 90
      499
 91
      506
 95
       25
 70
     0
 93
      108
310
000101421053521310D05310D010
330
20B
 94
        0
  0
ACAD_PROXY_OBJECT
  5
21D
330
20B
100
AcDbProxyObject
 90
      499
 91
      506
 95
       25
 70
     0
 93
      124
310
00010142905354915554D15112535010
330
20B
 94
        0
  0
ACAD_PROXY_OBJECT
  5
21E
330
20B
100
AcDbProxyObject
 90
      499
 91
      506
 95
       25
 70
     0
 93
      132
310
00010143105354D150D51253D391125360
330
20B
 94
        0
  0
ACAD_PROXY_OBJECT
  5
21F
330
20B
100
AcDbProxyObject
 90
      499
 91
      506
 95
       25
 70
     0
 93
      124
310
00010142905355941093D49111549010
330
20B
 94
        0
  0
ACAD_PROXY_OBJECT
  5
220
330
20B
100
AcDbProxyObject
 90
      499
 91
      506
 95
       25
 70
     0
 93
      116
310
0001014290535115D1D0D3D313D4A0
330
20B
 94
        0
  0
ACAD_PROXY_OBJECT
  5
221
330
20B
100
AcDbProxyObject
 90
      499
 91
      506
 95
       25
 70
     0
 93
      148
310
00010143505355925155D49151949154D21010
330
20B
 94
        0
  0
ACAD_PROXY_OBJECT
  5
222
330
20B
100
AcDbProxyObject
 90
      499
 91
      506
 95
       25
 70
     0
 93
      172
310
00010144105350539393D51154149154D15495915010
330
20B
 94
        0
  0
ACAD_PROXY_OBJECT
  5
223
330
20B
100
AcDbProxyObject
 90
      499
 91
      506
 95
       25
 70
     0
 93
      172
310
00010144105350555513D11253505494905391D15010
330
20B
 94
        0
  0
ACAD_PROXY_OBJECT
  5
224
330
20B
100
AcDbProxyObject
 90
      499
 91
      506
 95
       25
 70
     0
 93
      124
310
00010142D05351561514915191125360
330
20B
 94
        0
  0
ACAD_PROXY_OBJECT
  5
225
330
20B
100
AcDbProxyObject
 90
      499
 91
      506
 95
       25
 70
     0
 93
      132
310
00010142D05355105410539393D5115010
330
20B
 94
        0
  0
ACAD_PROXY_OBJECT
  5
226
330
20B
100
AcDbProxyObject
 90
      499
 91
      506
 95
       25
 70
     0
 93
      108
310
00010142105350555513D0D31010
330
20B
 94
        0
  0
ACAD_PROXY_OBJECT
  5
227
330
20B
100
AcDbProxyObject
 90
      499
 91
      506
 95
       25
 70
     0
 93
      108
310
00010142105350D3119150551050
330
20B
 94
        0
  0
ACAD_PROXY_OBJECT
  5
228
330
20B
100
AcDbProxyObject
 90
      499
 91
      506
 95
       25
 70
     0
 93
      108
310
00010142105350D315925155D3F0
330
20B
 94
        0
  0
ACAD_PROXY_OBJECT
  5
229
330
20B
100
AcDbProxyObject
 90
      499
 91
      506
 95
       25
 70
     0
 93
      148
310
0001014350535212511156915493D112535010
330
20B
 94
        0
  0
ACAD_PROXY_OBJECT
  5
22A
330
20B
100
AcDbProxyObject
 90
      499
 91
      506
 95
       25
 70
     0
 93
      124
310
00010142905352105510D21254D3D010
330
20B
 94
        0
  0
ACAD_PROXY_OBJECT
  5
22B
330
20B
100
AcDbProxyObject
 90
      499
 91
      506
 95
       25
 70
     0
 93
      148
310
00010143905354D25391D31152105513105660
330
20B
 94
        0
  0
ACAD_PROXY_OBJECT
  5
22C
330
20B
100
AcDbProxyObject
 90
      499
 91
      506
 95
       25
 70
     0
 93
      124
310
00010142D0535115D1D193111254D420
330
20B
 94
        0
  0
ACAD_PROXY_OBJECT
  5
22D
330
20B
100
AcDbProxyObject
 90
      499
 91
      506
 95
       25
 70
     0
 93
      100
310
00010142105350555513D213A0
330
20B
 94
        0
  0
ACAD_PROXY_OBJECT
  5
22E
330
20B
100
AcDbProxyObject
 90
      499
 91
      506
 95
       25
 70
     0
 93
      116
310
000101425053521390D3D553951010
330
20B
 94
        0
  0
ACAD_PROXY_OBJECT
  5
22F
330
20B
100
AcDbProxyObject
 90
      499
 91
      506
 95
       25
 70
     0
 93
      108
310
0001014210535213941493D29010
330
20B
 94
        0
  0
ACAD_PROXY_OBJECT
  5
230
330
20B
100
AcDbProxyObject
 90
      499
 91
      506
 95
       25
 70
     0
 93
      108
310
0001014210535213951654115070
330
20B
 94
        0
  0
ACAD_PROXY_OBJECT
  5
231
330
20B
100
AcDbProxyObject
 90
      499
 91
      506
 95
       25
 70
     0
 93
      108
310
000101421053521395925155D0F0
330
20B
 94
        0
  0
ACAD_PROXY_OBJECT
  5
232
330
20B
100
AcDbProxyObject
 90
      499
 91
      506
 95
       25
 70
     0
 93
      140
310
00010143505354D150D51253D390D3D41660
330
20B
 94
        0
  0
ACAD_PROXY_OBJECT
  5
233
330
20B
100
AcDbProxyObject
 90
      499
 91
      506
 95
       25
 70
     0
 93
      108
310
00010142105350D3141493D29030
330
20B
 94
        0
  0
ACAD_PROXY_OBJECT
  5
234
330
20B
100
AcDbProxyObject
 90
      499
 91
      518
 95
       25
 70
     0
 93
      212
310
00010143905350555513D2105510D21493D500000000000002E400
330
20B
 94
        0
  0
ACAD_PROXY_OBJECT
  5
235
330
20B
100
AcDbProxyObject
 90
      499
 91
      506
 95
       25
 70
     0
 93
      156
310
00010143905350555513D2105510D21111551010
330
20B
 94
        0
  0
ACAD_PROXY_OBJECT
  5
247
330
20B
100
AcDbProxyObject
 90
      499
 91
      529
 95
       25
 70
     0
 93
      698
310
0001000000009AA6A9AA4051E546875204175672032342030303A30343A333720323030362028555443290141CE4B8C8B8C0B8C80518547565204F63742031322031313A30373A333420323031300141CE4B8C8B8C0B8C80
330
20B
330
248
330
249
330
24B
330
0
 94
        0
  0
ACAD_PROXY_OBJECT
  5
248
330
20B
100
AcDbProxyObject
 90
      499
 91
      530
 95
       25
 70
     0
 93
       70
310
0001AAA80820000000
330
20B
330
248
330
248
 94
        0
  0
ACAD_PROXY_OBJECT
  5
249
330
20B
100
AcDbProxyObject
 90
      499
 91
      531
 95
       25
 70
     0
 93
       48
310
000100000000
330
20B
330
0
330
24A
330
0
330
0
 94
        0
  0
ACAD_PROXY_OBJECT
  5
24A
330
20B
100
AcDbProxyObject
 90
      499
 91
      532
 95
       25
 70
     0
 93
       40
310
000100AAAA
330
20B
330
0
 94
        0
  0
ACAD_PROXY_OBJECT
  5
250
330
20B
100
AcDbProxyObject
 90
      499
 91
      536
 95
       25
 70
     0
 93
      180
310
00010143105050D3D35411119390535140504434F4D500
330
20B
 94
        0
  0
ACAD_PROXY_OBJECT
  5
251
330
20B
100
AcDbProxyObject
 90
      499
 91
      536
 95
       25
 70
     0
 93
      212
310
0001014390505193D311115491119390535140506466F6C6465720
330
20B
 94
        0
  0
ACAD_PROXY_OBJECT
  5
252
330
20B
100
AcDbProxyObject
 90
      499
 91
      536
 95
       25
 70
     0
 93
      180
310
00010143105050539393D1119390535140504284156290
330
20B
 94
        0
  0
ACAD_PROXY_OBJECT
  5
253
330
20B
100
AcDbProxyObject
 90
      499
 91
      536
 95
       25
 70
     0
 93
      436
310
00010143905050D3D35415925155D31254D50052295BD96CA0A90B396CA0A894591A496CA0A8DB691A496CA0A89BA96CA0A95E28F95310
330
20B
 94
        0
  0
ACAD_PROXY_OBJECT
  5
258
330
20B
100
AcDbProxyObject
 90
      499
 91
      538
 95
       25
 70
     0
 93
       32
310
00010000
330
20B
340
255
330
25A
330
255
 94
        0
  0
ACAD_PROXY_OBJECT
  5
259
330
20B
100
AcDbProxyObject
 90
      499
 91
      539
 95
       25
 70
     0
 93
       18
310
000180
330
20B
 94
        0
  0
ACAD_PROXY_OBJECT
  5
25A
330
20B
100
AcDbProxyObject
 90
      499
 91
      540
 95
       25
 70
     0
 93
      202
310
0001014394151613948C4D8C4D8B560C4D961050055401550000
330
20B
330
258
330
259
 94
        0
  0
ACAD_PROXY_OBJECT
  5
25B
330
20B
100
AcDbProxyObject
 90
      499
 91
      541
 95
       25
 70
     0
 93
      178
310
000100AAAAAA9F5C76939940EA10698200E7934369A940
330
20B
330
25A
 94
        0
  0
ACAD_PROXY_OBJECT
  5
25C
330
20B
100
AcDbProxyObject
 90
      499
 91
      542
 95
       25
 70
     0
 93
      108
310
000190140A000000000000AAAAA0
330
20B
330
25D
330
25D
330
25D
330
25D
330
25D
330
0
 94
        0
  0
ACAD_PROXY_OBJECT
  5
25D
330
20B
100
AcDbProxyObject
 90
      499
 91
      543
 95
       25
 70
     0
 93
       51
310
00010000AAAA80
330
20B
330
25C
330
25A
 94
        0
  0
ACAD_PROXY_OBJECT
  5
26B
330
20B
100
AcDbProxyObject
 90
      499
 91
      536
 95
       25
 70
     0
 93
      148
310
00010142105350D55494D51100504414E53490
330
20B
 94
        0
  0
DICTIONARY
  5
242
102
{ACAD_REACTORS
330
241
102
}
330
241
100
AcDbDictionary
281
     1
  3
DWGSETTINGS
350
243
  3
Shaft
350
32B
  3
TRANSSETTINGS
350
244
  0
ACAD_PROXY_OBJECT
  5
26E
102
{ACAD_REACTORS
330
241
102
}
330
241
100
AcDbProxyObject
 90
      499
 91
      551
 95
       25
 70
     0
 93
    17920
310
41503491013041105357CC201C00030C011E441013141105357CC603800030C011E441013241105357CCA01400030C011E441013341105357CCE01800030C010F9013441105357CD200C00030C010F9013541105357CD600C00030C010F9013641105357CDA00800030C011E9013741105357CDE01000030C010F901384110
310
5357CE200400030C010F9013941105357CE63F400030C0241102324141505357CC4C201C00030C011E902344141505357CC4C600C00030C010F902495041505357CC4CA01C00030C011E40902304E41505357CC13A01C00030C011E902314E41505357CC53A03800030C011E902324E41505357CC93A01400030C011E90233
310
4E41505357CCD3A01800030C010F902344E41505357CD13A00C00030C010F902354E41505357CD53A00C00030C010F902364E41505357CD93A00800030C011E902374E41505357CDD3A01000030C010F902384E41505357CE13A00400030C010F902394E41505357CE53A3F400030C024110332414E41905357CC4C13A01C0
310
0030C011E90334414E41905357CC4C53A00C00030C010F90349504E41905357CC4C93A01C00030C011E409044B4C494E41505357D0D3200400030C010F42504494E464F42105357D410549151A01000030C010F42D055241484D3541905357D093D4A01C00030C011E425045649455742105357D5925155D4E00400030C010
310
F42D06424548494E4441905357D25395A3F400030C0243505545241494C41505357D514A00C00030C010F4250348494441905357D21251201C00030C010F4250356495341905357D59254E01C00030C011E4250650415244494D42505357D41054911253600C00030C010F4250652454644494D42505357D49151911253601
310
000030C010F425534110921395901398000000C0003FFFFFFFE415092139594D06424548494E448000000C0003FFFFFFFE411093D48C9055241484D358010000C30043E411093D48CD055241484D358020000C30047A411093D48D5055241484D358000000C0003FFFFFFFE4110D0530C901348000000C0003FFFFFFFE4110
310
D0530CD01348020000C30047A4110D0530D501348070000C30047A4110D0530DD013481E0000C3004F24110D15393901378000000C0003FFFFFFFE4110D15395D01378000000C0003FFFFFFFE4110D312539044B4C494E8000000C0003FFFFFFFE4110D3D38C501308000000C0003FFFFFFFD034110D3D38C901318000000C
310
0003FFFFFFFD034110D3D38CD01328000000C0003FFFFFFFD034110D3D38D101328000000C0003FFFFFFFD034111115510501348000000C0003FFFFFFFE4111125051D01358000000C0003FFFFFFFE4111125312501358000000C0003FFFFFFFE411112535410650415244494D8000000C0003FFFFFFFE4111125354906524
310
54644494D8000000C0003FFFFFFFE4111915353901388000000C0003FFFFFFFE415191535413901388030000C3003FFFFFFFE4151915354D410234418000000C0003FFFFFFFE4151915354D510234418030000C30043E415191535593901328000000C0003FFFFFFFE415191535595101328030000C30043E4112105510D01
310
388000000C0003FFFFFFFD014112125113901338000000C0003FFFFFFFD034112125115D01338000000C0003FFFFFFFD034112131253901348000000C0003FFFFFFFD01411213D0D3901378000000C0003FFFFFFFE411213D0D5D01378000000C0003FFFFFFFE4112539193D04494E464F8000000C0003FFFFFFFE41131150
310
51101358000000C0003FFFFFFFE419397D0921395902394E8000000C0003FFFFFFFE419397D0D3D38C502304E8000000C0003FFFFFFFD03419397D0D3D38C902314E8000000C0003FFFFFFFD03419397D0D3D38CD02324E8000000C0003FFFFFFFD03419397D0D3D38D102324E8000000C0003FFFFFFFD03419397D0D15393
310
902374E8000000C0003FFFFFFFE419397D0D15395D02374E8000000C0003FFFFFFFE419397D1125312502354E8000000C0003FFFFFFFE419397D2105510D02384E8000000C0003FFFFFFFD01419397D2125113902334E8000000C0003FFFFFFFD03419397D2125115D02334E8000000C0003FFFFFFFD03419397D311505110
310
2354E8000000C0003FFFFFFFE419397D391D25410349504E8000000C0003FFFFFFFE419397D412105390334414E8000000C0003FFFFFFFE419397D510D3D3902304E8000000C0003FFFFFFFD03419397D5121312502344E8000000C0003FFFFFFFD01419397D5131153902304E8000000C0003FFFFFFFD03419397D5941312
310
50332414E8000000C0003FFFFFFFE411391D25410249508000000C0003FFFFFFFE411410530C9055241484D358010000C30043E411410530CD055241484D358020000C30047A411410530D5055241484D358000000C0003FFFFFFFE411412105390234418000000C0003FFFFFFFE411413D4D3901358000000C0003FFFFFFF
310
E411490D1D3901378000000C0003FFFFFFFE411490D1D5D01378000000C0003FFFFFFFE4114D09492D01348070000C300479014114D150D5101348000000C0003FFFFFFFD014114D6508CD01358020000C30047A411354D653501358020000C30047A411510D3D3901308000000C0003FFFFFFFD0341151213125013480000
310
00C0003FFFFFFFD01411512550C9055241484D358010000C30043E411512550CD055241484D358020000C30047A411512550D5055241484D358000000C0003FFFFFFFE4115131153901308000000C0003FFFFFFFD03415514905253105545241494C8000000C0003FFFFFFFE4115149312501348000000C0003FFFFFFFD014
310
11516150C501368030000C30043E411516150C901368030000C30043E411516150CD01368000000C0003FFFFFFFE411516150D501368070000C30047A411516150DD013681E0000C3004F24115925155D04564945578000000C0003FFFFFFFE41159151121034849448000000C0003FFFFFFFD024115915115903564953800
310
0000C0003FFFFFFFD02411594131250232418000000C0003FFFFFFFE4116925690501348000000C0003FFFFFFFD01AAA3F400030C01013F90A4050F4091E40D0F4110F4151E4190F41D1E4391E4793C7F6
340
15
340
15
340
15
340
236
340
15
340
15
340
15
340
28
340
15
340
15
340
28
340
237
340
15
340
15
340
15
340
15
340
236
340
15
340
15
340
15
340
28
340
15
340
15
340
28
340
237
340
15
340
272
340
15
340
15
340
15
340
15
340
15
340
236
340
15
340
15
340
15
340
14
340
14
340
14
340
14
340
14
340
14
340
14
340
14
340
14
340
278
340
14
340
14
340
14
340
14
340
14
340
14
340
14
340
14
340
14
340
14
340
14
340
14
340
14
340
15
340
14
340
14
340
14
340
14
340
279
340
14
340
14
340
278
340
14
340
14
340
14
340
14
340
14
340
14
340
14
340
14
340
278
340
14
340
14
340
14
340
279
340
14
340
14
340
14
340
14
340
14
340
279
340
14
340
237
340
14
340
14
340
14
340
14
340
14
340
14
340
278
340
14
340
14
340
14
340
14
340
14
340
14
340
279
340
14
340
14
340
14
340
14
340
14
340
14
340
14
340
14
340
14
340
14
340
14
340
14
340
14
340
14
340
237
340
27A
 94
        0
  0
ACAD_PROXY_OBJECT
  5
2A6
102
{ACAD_REACTORS
330
2A1
102
}
330
2A1
100
AcDbProxyObject
 90
      499
 91
      568
 95
       25
 70
     0
 93
      253
310
43D1444494D454E53494F4E2C414D44545F2A5F44494D404A9012A404A9012A8
  0
ACAD_PROXY_OBJECT
  5
2A5
102
{ACAD_REACTORS
330
2A1
102
}
330
2A1
100
AcDbProxyObject
 90
      499
 91
      568
 95
       25
 70
     0
 93
      181
310
43D012A42D05357D191504B505357CA9012A404A9012A8
  0
ACAD_PROXY_OBJECT
  5
2A2
102
{ACAD_REACTORS
330
2A1
102
}
330
2A1
100
AcDbProxyObject
 90
      499
 91
      568
 95
       25
 70
     0
 93
      133
310
43D054841544348404A9012A404A9012A8
  0
ACAD_PROXY_OBJECT
  5
2A3
102
{ACAD_REACTORS
330
2A1
102
}
330
2A1
100
AcDbProxyObject
 90
      499
 91
      568
 95
       25
 70
     0
 93
      549
310
43D044C494E4549CE0B0E138B0A8B4E0B0A8B4E138B105357CE0B105357CE138B0A8B505357CE0B0A8B505357CE139012A404A910494E534552542C5354445041525432448
  0
ACAD_PROXY_OBJECT
  5
2A7
102
{ACAD_REACTORS
330
2A1
102
}
330
2A1
100
AcDbProxyObject
 90
      499
 91
      568
 95
       25
 70
     0
 93
      181
310
43D0341524341105357CD5012A404C906494E534552540
  0
ACAD_PROXY_OBJECT
  5
2A4
102
{ACAD_REACTORS
330
2A1
102
}
330
2A1
100
AcDbProxyObject
 90
      499
 91
      568
 95
       25
 70
     0
 93
     1053
310
43D7841434D46434652414D452C41434D444154554D5441524745542C41434D444154554D49442C41434D57454C4453594D2C41434D5355524653594D2C41434D4645415449442C41434D504152545245462C41434D42414C4C4F4F4E2C414D44544544474553594D2C414D47534352455743414C435441424C45404A9012A
310
404A9012A8
  0
ACAD_PROXY_OBJECT
  5
26D
102
{ACAD_REACTORS
330
26C
102
}
330
26C
100
AcDbProxyObject
 90
      499
 91
      550
 95
       25
 70
     0
 93
     2395
310
5DCB81E85EB51B8BE3F8030000C30041105394D2501640600800030C0200800030C00B81E85EB51B8BE3F48821E8720B1B6A9BAB9332A32BC3A29BA3220480A1282C6DA8C868CA6E8C88120286A0B1B6ABB2B63234B733A9BA3220480A1082C6DA92C8A6E8C88120285A0B1B6A230BA3AB6A9BA3220480A1282C6DA849E9AA
310
6E8C8812028820B6B23A2232BA30B4B629BCB6A9BA3220480A2282DAC8E8A6CAC6E8D2DEDCA6F2DAA6E8C88120288A0B6B23A21B2B73A32B92634B732A9BA3220480A2282DAC8E8A8D0E4CAC2C898D2DCCAA6E8C88120285A0B6B23A2737BA32A9BA3220480A1682C682DACE98C2F2A6E8C88120285A0B1A0B6B3A234B6A9B
310
A3220480A2282C682DACE90DED8CA86D0C2E4E8A6E8C88120286A0B1A0B6B3AA34BA3632A9BA3220480A02812020
340
27B
360
27C
360
27D
360
27E
360
27F
360
280
360
281
360
282
360
283
360
284
360
285
360
286
360
292
360
293
360
29E
360
29F
340
0
340
0
 94
        0
  0
ACAD_PROXY_OBJECT
  5
2F1
102
{ACAD_REACTORS
330
26C
102
}
330
26C
100
AcDbProxyObject
 90
      499
 91
      571
 95
       25
 70
     0
 93
     2379
310
5DC33333333333309408000000C00040D29254D01640600800030C0200800030C003333333333330940C8121E8720B1B6A9BAB9332A32BC3A29BA3220480A1282C6DA8C868CA6E8C88120286A0B1B6ABB2B63234B733A9BA3220480A1082C6DA92C8A6E8C88120285A0B1B6A230BA3AB6A9BA3220480A1282C6DA849E9AA6E
310
8C88120286A0B1A0B6B3AA34BA3632A9BA3220480A2082DAC8E888CAE8C2D2D8A6F2DAA6E8C88120288A0B6B23A29B2B1BA34B7B729BCB6A9BA3220480A2282DAC8E886CADCE8CAE498D2DCCAA6E8C88120288A0B6B23A2A343932B0B22634B732A9BA3220480A1682DAC8E89CDEE8CAA6E8C88120285A0B1A0B6B3A630BCA
310
9BA3220480A1682C682DACE88D2DAA6E8C88120288A0B1A0B6B3A437B632A1B430B93A29BA3220480C812020
340
2DC
360
2F2
360
2F3
360
2F4
360
2F5
360
2F6
360
2F7
360
2F8
360
2F9
360
2FA
360
2FB
360
2FC
360
2FD
360
303
360
304
360
305
340
0
340
0
 94
        0
  0
ACAD_PROXY_OBJECT
  5
243
102
{ACAD_REACTORS
330
242
102
}
330
242
100
AcDbProxyObject
 90
      499
 91
      526
 95
       25
 70
     0
 93
     2420
310
4050B44574753455454494E4753A1286829C8E82A4A482B282A0472608321A2A720A723A0A849A1ABE1C983E18999AA0C868A9C889282940000000000001C07E83A1A2A72224A0A9A0A8598171ABE1897183E18971AA0E868A9C8892A6A8940000000000001807E8321A2A72622A7250000000000000701FA0C868A9C9E8C8
310
C940000000000001C07E84A1A624A720A92920ACA0A87181718991ABE1817191ABE18171AA108698929C8AA8B2A082A0AB098929C8A84A22BA3AAA9A1A0A622A50A0E9882A6A89E849482A02608426A0A5A2AB24A2ABA7E8120CA0A68682988A0C00800010652455649534941501304154D0D0531150540CC4E8C50954494D
310
455354414D504A0003AC541792B734141D5915494D253D3905414C4D4B8C0C1107B44574753455454494E4753454E447D0
  0
ACAD_PROXY_OBJECT
  5
32B
102
{ACAD_REACTORS
330
242
102
}
330
242
100
AcDbProxyObject
 90
      499
 91
      526
 95
       25
 70
     0
 93
      199
310
405055368616674220F688AE8EA68AA8A8929C8EA68A9C88FA
  0
ACAD_PROXY_OBJECT
  5
244
102
{ACAD_REACTORS
330
242
102
}
330
242
100
AcDbProxyObject
 90
      499
 91
      526
 95
       25
 70
     0
 93
      852
310
4050D5452414E5353455454494E4753A2488A482AE929C8EA8A4829CA69882A8929E9C0C00800050D4F524947494E414C4C595F4F4E0600400008529A7AAA921A2A620A723A0A81A52827212AAA0A48AA68AA4AC8A0C0080001107B44574753455454494E4753454E447D0
  0
ACAD_PROXY_OBJECT
  5
27C
330
26D
100
AcDbProxyObject
 90
      499
 91
      552
 95
       25
 70
     0
 93
       96
310
5DC20E80A0280A0280A02808
  0
ACAD_PROXY_OBJECT
  5
27D
330
26D
100
AcDbProxyObject
 90
      499
 91
      553
 95
       25
 70
     0
 93
      332
310
5DD0E4050140501405014050140501405014050142501405014050140501405012000000000000000400
340
287
 94
        0
  0
ACAD_PROXY_OBJECT
  5
27E
330
26D
100
AcDbProxyObject
 90
      499
 91
      554
 95
       25
 70
     0
 93
      403
310
5DCC199999999999E99F91F4050140501405014050140501405014050140501405014050140501405014050140501405014040
340
0
 94
        0
  0
ACAD_PROXY_OBJECT
  5
27F
330
26D
100
AcDbProxyObject
 90
      499
 91
      555
 95
       25
 70
     0
 93
       10
310
5DC0
  0
ACAD_PROXY_OBJECT
  5
280
330
26D
100
AcDbProxyObject
 90
      499
 91
      556
 95
       25
 70
     0
 93
      257
310
5DE290EA22A7D90F49F9353333333333727F44D4CCCCCCCCCDC9FC010000618000
340
288
340
289
 94
        0
  0
ACAD_PROXY_OBJECT
  5
281
330
26D
100
AcDbProxyObject
 90
      499
 91
      557
 95
       25
 70
     0
 93
    13023
310
5DD0E411255115350141236025B6901405014069011309A4F2590CB64FD3347454E545241434F2C4A504E2C302C8D8096DA2C47454E54524154582C25732C2847454E4D53472067656E647767203232322940690120281A8AA2CA0282484A4BE52028120280A03202261349E4B2196C9FA668E8A9CA8A482869E5894A09C58
310
605921292F94588E8A9CA8A482A8B0584AE658508E8A9C9AA68E40CECADCC8EECE406464665280D202405044E414D454050496BC914F4051C40640A8B95C2E97CBE502404CD1D15395149050D3CB1294138B0C0B25AF2453CB11D15395149055160B095CCB0A11D1539354D1C819D95B991DD9C80C8C8D8A50192C3D494628
310
4953424C414E4B28504152543A4E414D45292C424C4F434B3A4E414D452C504152543A4E414D452940480A0A888AA686A480A09251B1DBE80A3A80C81D10782C06030180C8099A3A2A72A2920A1A7962528271618164946C76F9623A2A72A2920AA2C1612B9961423A2A726A9A39033B2B7323BB39019189B94A0248090142
310
14D51053911054911014122D2E29A50147501904A383BFDFEFF5FBFCFD3347454E545241434F2C4A504E2C302C8B4B8A692C47454E54524154582C25732C2847454E4D53472067656E64776720323138294049012028426A0AA22A924A0A62028246EF4BDFA028EA0320B41396D838E9017D9FA668E8A9CA8A482869E5894A
310
09C5860591BBD2F7E588E8A9CA8A482A8B0584AE658508E8A9C9AA68E40CECADCC8EECE406464625280D202405044E4F544540504928D8B4C4051D40641A8B95C2E97CBE5F23F4CD1D15395149050D3CB1294138B0C0B24A362D30B11D15395149055160B095CCB0A11D1539354D1C819D95B991DD9C80C8C8D4A501A40480
310
A0CAC8A9C889EA480A1106F1072706BF02B680A3A80C83D172B85D2F97CBE47E9BA3A2A72A2920A1A79625282716181641BC41C9C1AFC0AD9623A2A72A2920AA2C1612B9961423A2A726A9A39033B2B7323BB39019191A14A0348090141911154D0D48C90141A43825AF880C90147501908A20F0580C0603019013447454E5
310
45241434F2C4A504E2C302C90E096BE20322C47454E54524154582C25732C2847454E4D53472067656E6477672033362940490120284A9AA20A72220A922192028345A5C53490192028EA0321347077FBFDFEBF7F9FA6A8E8A9CA8A482869E5894A09C586059169714D24064588E8A9CA8A482A8B0584AE658508E8A9C9AA6
310
8E40CECADCC8EECE4064646052809202405094D4154455249414C32405068DDE97BF20324051D40642A8272DB071D202FB3F4D11D15395149050D3CB1294138B0C0B2377A5EFC80C8B11D15395149055160B095CCB0A11D1539354D1C819D95B991DD9C80D0C0A501240480A089A82A6A680A091D7F2F9480A3A80A0485A06
310
81172B85D2F97CBE47E9923A2A72A2920A1A796252827161816475FCBE51623A2A72A2920AA2C1612B9961423A2A726A9A39033B2B7323BB3901A1914A024809014154149250D150141226FE29A501475014090C409022E570BA5F2F97C8FD3247454E545241434F2C4A504E2C302C89BF8A692C47454E54524154582C2573
310
2C2847454E4D53472067656E6477672034332940490120281A224A6A02824850CB202028EA028121A81A045CAE174BE5F2F91FA648E8A9CA8A482869E5894A09C58605921432C80588E8A9CA8A482A8B0584AE658508E8A9C9AA68E40CECADCC8EECE406868528092024050E441022E07A17AD46E338FE07800030C0001018
310
ACD56AB55AADF63F2B355AAD56AB7D8FD073D3C4954454D3E405018ACD56AB55AADF63F2B355AAD56AB7D8FD073D3C4954454D3E40501890C7E3F1783CEE3F2431F8FC5E0F3B8FD073D3C4954454D3E40501890C7E3F1783CEE3F2431F8FC5E0F3B8FD073D3C4954454D3E405029012B355AAD56AB7D8FCACD56AB55AADF63
310
F41CF4F125511534F901418F4F1455164F9014062B355AAD56AB7D8FCACD56AB55AADF63F41CF4F125511534F9014061309A4F2590CBA4FC4C2693C96432E93F41CF4F125511534F901901002B355AAD56AB7D8FCACD56AB55AADF63FA2000000000000008204018000618048220681A048120280C88214844882034852034
310
8452028521485214814000000000000F0BF0000000000003C2FD018020000C3008070000C3000EF7D3E365DBA88FC3BDF4F8D976EA23F2E07A17AD46E2F8FF20341A405024150741A4069703D0BD6A3717C7F0040001860100400018601002000186002026280A02
340
0
340
0
 94
        0
  0
ACAD_PROXY_OBJECT
  5
282
330
26D
100
AcDbProxyObject
 90
      499
 91
      558
 95
       25
 70
     0
 93
      994
310
5DC0B81E85EB51B8CE3F4BCF511155105253080F11115510525317D3105091530F971414D0D05311480F11115510525317D05094D4D0D053114F92341C9A9999999999B93F26A666666666724FC000000000000E03F4000000000000004000000000000005100000000000000244081E0000C3002E07A17AD46E338FC0
340
237
340
27B
 94
        0
  0
ACAD_PROXY_OBJECT
  5
283
330
26D
100
AcDbProxyObject
 90
      499
 91
      559
 95
       25
 70
     0
 93
      823
310
5DC031703D0BD6A3719C7E999EA9A2A1AA24A7A7101E29A2A1AA24A7A72FA620A122A62FA324A929AA1F169E29A2A1AA24A7A72FA620A122A62FA620A9AA1F1353333333333B27E3FFFE01C00030C008840F000061801353333333333B27F1703D0BD6A3719C7E
340
237
340
27B
 94
        0
  0
ACAD_PROXY_OBJECT
  5
284
330
26D
100
AcDbProxyObject
 90
      499
 91
      560
 95
       25
 70
     0
 93
      280
310
5DC2B8716D9CEF7C33F0A5723F0BD4A2F0FC295C8FC2F528BC3FA199999999999F99FC
  0
ACAD_PROXY_OBJECT
  5
285
330
26D
100
AcDbProxyObject
 90
      499
 91
      561
 95
       25
 70
     0
 93
       14
310
5DE4
340
0
 94
        0
  0
ACAD_PROXY_OBJECT
  5
286
330
26D
100
AcDbProxyObject
 90
      499
 91
      562
 95
       25
 70
     0
 93
     7123
310
5DD084050BA4050AA405024050E836583938376838C815B8367203140405013D3C696628657175616C28486F6C653A7461707065642C223022292C22252563222C486F6C653A6E6F6D696E616C2022202220696628657175616C28486F6C653A756E6974732C223122292C2278222C222D222920222022293E3C6966286571
310
75616C28486F6C653A7461707065642C223022292C486F6C653A6469612C486F6C653A706974636864657363293E207B5C46414D4744543B787D203C696628657175616C28486F6C653A7465726D696E6174696F6E2C223022292C486F6C653A64657074682C228AD192CA22293E5C507B5C46414D4744543B767D2525633C
310
486F6C653A63746469613E207B5C46414D4744543B787D203C486F6C653A637464657074683E406901405034050E836583938376838C815B83672031405FE3D3C696628657175616C28486F6C653A7461707065642C223022292C22252563222C486F6C653A6E6F6D696E616C2022202220696628657175616C28486F6C653
310
A756E6974732C223122292C2278222C222D222920222022293E3C696628657175616C28486F6C653A7461707065642C223022292C486F6C653A6469612C486F6C653A706974636864657363293E207B5C46414D4744543B787D203C696628657175616C28486F6C653A7465726D696E6174696F6E2C223022292C486F6C653
310
A64657074682C228AD192CA22293E5C507B5C46414D4744543B777D2525633C486F6C653A63746469613E2058203C486F6C653A6374616E676C653E252564406901405014050E836583938376838C815B83672031405CF3D3C696628657175616C28486F6C653A7461707065642C223022292C22252563222C486F6C653A6E
310
6F6D696E616C2022202220696628657175616C28486F6C653A756E6974732C223122292C2278222C222D222920222022293E3C696628657175616C28486F6C653A7461707065642C223022292C486F6C653A6469612C486F6C653A706974636864657363293E5C507B5C46414D4744543B787D203C696628657175616C2848
310
6F6C653A7465726D696E6174696F6E2C223022292C486F6C653A64657074682C228AD192CA22293E4069014051E4090E836583938376838C815B83672032405173D3C535444503A444553433E203C535444503A5354443E40690E836583938376838C815B836720314050C3D3C535444503A444553433E40690240515AAABB
310
A060
360
290
330
290
360
291
330
291
360
28F
330
28F
360
28E
360
28D
330
28E
330
28D
 94
        0
  0
ACAD_PROXY_OBJECT
  5
292
330
26D
100
AcDbProxyObject
 90
      499
 91
      564
 95
       25
 70
     0
 93
       26
310
5DD02A80
340
26E
 94
        0
  0
ACAD_PROXY_OBJECT
  5
293
330
26D
100
AcDbProxyObject
 90
      499
 91
      565
 95
       25
 70
     0
 93
      258
310
5DD02000000000000380FC000000000000E03F408F0F9023C3E40DB18CCCFFFF80
340
294
340
343
340
3C7
340
295
340
296
340
0
340
297
340
298
340
29D
340
0
 94
        0
  0
ACAD_PROXY_OBJECT
  5
29E
330
26D
100
AcDbProxyObject
 90
      499
 91
      566
 95
       25
 70
     0
 93
    13993
310
5DD1D023FFFFFFFD010300002E07A17AD46E2F8FE00800030C01010300002E07A17AD46E2F8FE00800030C00050C8DC0955782CC838A83588367014ED1D15395149050D3CB1294138B0C0B23702555E0B320E2A0D620D9CB11D15395149055160B095CCB0A11D1539354D1C819D95B991A5B5E880CCC0A78000C0000000000
310
00000000000000000000007B14AE47E17AA43F2E07A17AD46E2F8FE00800030C007B14AE47E17AA43F2E07A17AD46E2F8FE00800030C020143CF4F111959985D5B1D151A5D1B194F8050A8C8A8365815B8375838B014E51D15395149050D3CB1294138B0C0B2322A0D96056E0DD60E2CB11D15395149055160B095CCB0A11D
310
1539354D1C819D95B991A5B5E880CCC4A78000C000000000000000000000000000000007B14AE47E17AA43F2E07A17AD46E2F8FE00800030C007B14AE47E17AA43F2E07A17AD46E2F8FE00800030C020143CF4F111959985D5B1D151A5D1B194F90D4410F4450240D0441507431014391244D05449074510C4350F00014123
310
2D24D7C053247454E545241434F2C4A504E2C302C8CB4935F2C47454E54524154582C25732C2847454E4D53472067656E64696D7A20312900010104002214000282465A49AF80A648E8A9CA8A482869E5894A09C586059196926BE588E8A9CA8A482A8B0584AE658508E8A9C9AA68E40CECADCC8D2DAF44062520002020800
310
43E80005028C8A014C11D15395149050D3CB1294138B0C0B23228B11D15395149055160B095CCB0A11D1539354D1C819D95B991A5B5E880C8A4054E3D3C4946284953424C414E4B28486F6C654974656D292C4F726967696E2C20486F6C654974656D293E3C4946284953424C414E4B28486F6C654974656D292C22222C204
310
86F6C65496E646578293E010104002234000280AC00A5E8E8A9CA8A482869E5894A09C586058B0588E8A9CA8A482A8B0584AE658508E8A9C9AA68E40CECADCC8D2DAF4406652000202000040A800050159014BD1D15395149050D3CB1294138B0C0B164B11D15395149055160B095CCB0A11D1539354D1C819D95B991A5B5E
310
880D0A4000404000081D0000A02A40297A3A2A72A2920A1A796252827161816291623A2A72A2920AA2C1612B9961423A2A726A9A39033B2B73234B6BD101B148000808000104A000140A0F4C053047454E545241434F2C4A504E2C302C83D32C47454E54524154582C25732C2847454E4D53472067656E64696D7A20372900
310
0101030020B400028141E980A608E8A9CA8A482869E5894A09C58605907A6588E8A9CA8A482A8B0584AE658508E8A9C9AA68E40CECADCC8D2DAF4407052000202020041E800050490E096BE014CD1D15395149050D3CB1294138B0C0B243825AF8B11D15395149055160B095CCB0A11D1539354D1C819D95B991A5B5E880C8
310
C0A400040010008650000A091B012DB40299A3A2A72A2920A1A79625282716181646C04B6D1623A2A72A2920AA2C1612B9961423A2A726A9A39033B2B73234B6BD10189A148000808280501A00014320D0E0E4E0D9A0D8A0D3A0D60053B47454E545241434F2C4A504E2C302C8343839383668362834E83582C47454E54524
310
154582C25732C2847454E4D53472067656E64696D7A203135290001010500A1D4000281464500A628E8A9CA8A482869E5894A09C5860591914588E8A9CA8A482A8B0584AE658508E8A9C9AA68E40CECADCC8D2DAF440626C52000202080044A800050E8C8A8343839383668362834E8358014F51D15395149050D3CB129413
310
8B0C0B2322A0D0E0E4E0D9A0D8A0D3A0D60B11D15395149055160B095CCB0A11D1539354D1C819D95B991A5B5E880C4DCA4000404140089D0000A0921292F940299A3A2A72A2920A1A796252827161816484A4BE51623A2A72A2920AA2C1612B9961423A2A726A9A39033B2B73234B6BD10189C948000808300114A0001412
310
2D2E29A4053347454E545241434F2C4A504E2C302C8B4B8A692C47454E54524154582C25732C2847454E4D53472067656E64696D7A20323129000100040021B4878030026A6666666667A4FE064D4CCCCCCCCCF49FC049A9999999999E93F809353333333333D27F0226A6666666667A4FE044D4CCCCCCCCCF49FC0D818000
310
00000000000810026A666666666764FE004D4CCCCCCCCCF49FC009A9999999999E93F801353333333333D27F032E07A17AD46E378FE0633B333333333032050F006004D4CCCCCCCCCF49FC0C9A9999999999E93F819353333333333D27F0326A6666666667A4FE064D4CCCCCCCCCF49FC0C9A9999999999E93F81B03000000
310
00000000102004D4CCCCCCCCCEC9FC009A9999999999E93F819353333333333D27F0026A6666666667A4FE065C0F42F5A8DC6F1FC0C6766666666660640A088800000021E000000890000002260000008220E000200890000002060002008100008000
340
0
340
0
340
0
340
0
340
27B
340
27B
 94
        0
  0
ACAD_PROXY_OBJECT
  5
29F
330
26D
100
AcDbProxyObject
 90
      499
 91
      567
 95
       25
 70
     0
 93
     5214
310
5DD9741105394D2506414E53495F4342905394D257D512551554D15414E53495F54525F5265766973696F6E6C697374614191143202831372E307832322E30696E63682941905394D257D0D1146202832382E307834302E30696E63682941905394D257D191142202831312E307831372E30696E63682941905394D257D091
310
144202832322E307833342E30696E63682941905394D257D111145202833342E307834342E30696E63682941905394D257D1510412028382E357831312E30696E63682941905394D257D050543905B9CDA482557247A25E4C81110D0C414E53495F5449544C45444343505B9CDA482557247A25E4C81050B414E53495F5449
310
544C454143905B9CDA482557247A25E4C81050D0C414E53495F5449544C454143425554C82557247A25E4D0A414E53495F544954555343505B9CDA482557247A25E4C81110B414E53495F5449544C454442110979A97F0838A8358836720415F42525F45505394D257D09497D4995D9A5CDA5BDB9B1A5CDD18510979A97F08
310
38A8358836720415F54525F45505394D257D51497D4995D9A5CDA5BDB9B1A5CDD18510979A97F0838A8358836720445F42525F45505394D257D09497D4995D9A5CDA5BDB9B1A5CDD19110979A97F0838A8358836720445F54525F45505394D257D51497D4995D9A5CDA5BDB9B1A5CDD19110979A97F0838A8358836720415F
310
424C5F45505394D257D09317D4995D9A5CDA5BDB9B1A5CDD18510979A97F0838A8358836720415F544C5F45505394D257D51317D4995D9A5CDA5BDB9B1A5CDD18510979A97F0838A8358836720445F424C5F45505394D257D09317D4995D9A5CDA5BDB9B1A5CDD19110979A97F0838A8358836720445F544C5F45505394D25
310
7D51317D4995D9A5CDA5BDB9B1A5CDD190
  0
ACAD_PROXY_OBJECT
  5
2F2
330
2F1
100
AcDbProxyObject
 90
      499
 91
      572
 95
       25
 70
     0
 93
       86
310
5DEA0C80A0280A0280A034
  0
ACAD_PROXY_OBJECT
  5
2F3
330
2F1
100
AcDbProxyObject
 90
      499
 91
      573
 95
       25
 70
     0
 93
      282
310
5DD0E4050140501405014050140501405014050141101405014041000000000000001000
340
2DD
 94
        0
  0
ACAD_PROXY_OBJECT
  5
2F4
330
2F1
100
AcDbProxyObject
 90
      499
 91
      574
 95
       25
 70
     0
 93
      323
310
5DCC199999999999E99F91740501405014050140501405014050140501405014050140501405014040
340
0
 94
        0
  0
ACAD_PROXY_OBJECT
  5
2F5
330
2F1
100
AcDbProxyObject
 90
      499
 91
      575
 95
       25
 70
     0
 93
       10
310
5DC0
  0
ACAD_PROXY_OBJECT
  5
2F6
330
2F1
100
AcDbProxyObject
 90
      499
 91
      576
 95
       25
 70
     0
 93
      257
310
5DE0C16A22A7D90F49F80000000000001081400000000000004204010000618000
340
2D8
340
2D9
 94
        0
  0
ACAD_PROXY_OBJECT
  5
2F7
330
2F1
100
AcDbProxyObject
 90
      499
 91
      577
 95
       25
 70
     0
 93
     5277
310
5DD06411255115350141236025B6901405014069010000000000000910240690120281A8AA2CA0282484A4BE52028120280A032020000000000001220480D202405044E414D454050496BC914F4051C40640A80000000000004E4090193C3D3C4946284953424C414E4B28504152543A4E414D45292C424C4F434B3A4E414D
310
452C504152543A4E414D45293E3C41435F44455343524950544E3E40480A109A82A88AA492829880A091BBD2F7E80A3A80C81D0E27A15AF46E08A81203480901411393D5115014124A363B7D0147501904A0000000000000F902406428F4F1050D7D393D5114F901202832B22A72227A92028366EF6EE06F582028EA0320B4
310
0000000000001F20480C879E9E20A1AFAB27222FA620A122A61F20240506445020000000000000490201C00030C00010180000000000003E400000000000000F901073D3C4954454D3E4050180000000000003E400000000000000F901073D3C4954454D3E40501800000000000034400000000000000D101073D3C4954454
310
D3E40501800000000000034400000000000000D101073D3C4954454D3E405029010000000000000F9000000000000003E4041CF4F125511534F901418F4F1455164F9014060000000000000F9000000000000003E4041CF4F125511534F901800000000000034400000000000000D101073D3C4954454D3E40640400000000
310
0000003E400000000000000F90288800000000000020810000001800120881A068120480A032208521122080D21480D211480A1485214852050000000000003C2FC000000000000F0BF40600800030C0200400030C00CDCCCCCCCCCCEC3F3373333333333B0FC3333333333330940C80D069014090341504901A1999999999
310
9984A040100006180400800061804010000618008098A02808
340
0
340
0
 94
        0
  0
ACAD_PROXY_OBJECT
  5
2F8
330
2F1
100
AcDbProxyObject
 90
      499
 91
      567
 95
       25
 70
     0
 93
     3042
310
5DD9740D29254D064A49535F413342929254D7D512551311505134A49535F42525F5265766973696F6E6C6973744190F4134522028323937783231306D6D2941D29254D7D04D1490E41312028353934783834316D6D2941929254D7D04C50E41332028323937783432306D6D2941929254D7D04CD0F41344C2028323130783
310
239376D6D2941D29254D7D04D1310E41322028343230783539346D6D2941929254D7D04C90F4130202838343178313138396D6D2941929254D7D04C10243129254C82557247A25E4C81050A4A49535F5449544C454143129254C82557247A25E4C81090A4A49535F5449544C45424110E979A97F0838A835883675F42525F4
310
4D29254D7D09497D4995D9A5CDA5BDB9B1A5CDD10E979A97F0838A835883675F54525F44D29254D7D51497D4995D9A5CDA5BDB9B1A5CDD10E979A97F0838A835883675F424C5F44D29254D7D09317D4995D9A5CDA5BDB9B1A5CDD10E979A97F0838A835883675F544C5F44D29254D7D51317D4995D9A5CDA5BDB9B1A5CDD00
  0
ACAD_PROXY_OBJECT
  5
2F9
330
2F1
100
AcDbProxyObject
 90
      499
 91
      578
 95
       25
 70
     0
 93
      898
310
5DC4000000000000124048CF4F11115510525317D3105091530F880A0F11115510525317D05094D4D0D053114F8A50241C9A9999999999B93F26A666666666724FC000000000000E03F400000000000000400000000000000510000000000000024408070000C300000000000000049000
340
15
340
2DC
 94
        0
  0
ACAD_PROXY_OBJECT
  5
2FA
330
2F1
100
AcDbProxyObject
 90
      499
 91
      579
 95
       25
 70
     0
 93
      823
310
5DC0B00000000000002480959E9E29A2A1AA24A7A72FA620A122A62FA324A929AA1F169E29A2A1AA24A7A72FA620A122A62FA620A9AA1F000000000000048803FFFE01C00030C008140380006180000000000000048800000000000000A2000000000000002480
340
28
340
2DC
 94
        0
  0
ACAD_PROXY_OBJECT
  5
2FB
330
2F1
100
AcDbProxyObject
 90
      499
 91
      580
 95
       25
 70
     0
 93
      152
310
5DE8273108AC1C5A0640A3D0A5723F0BD1F200
  0
ACAD_PROXY_OBJECT
  5
2FC
330
2F1
100
AcDbProxyObject
 90
      499
 91
      581
 95
       25
 70
     0
 93
       14
310
5DE0
340
0
 94
        0
  0
ACAD_PROXY_OBJECT
  5
2FD
330
2F1
100
AcDbProxyObject
 90
      499
 91
      582
 95
       25
 70
     0
 93
     6059
310
5DD084050BA4050AA405024050E836583938376838C815B83672031405983D3C486F6C653A6469613E3C696628657175616C28486F6C653A7465726D696E6174696F6E2C223022292C2220905B82B320222C22208368838A838B22293E3C696628657175616C28486F6C653A7465726D696E6174696F6E2C223022292C486F
310
6C653A64657074682C2222293E2C203C486F6C653A63746469613E2082B482AE82E882CC905B82B3203C486F6C653A637464657074683E406901405034050E836583938376838C815B83672031405EF3D3C486F6C653A6374616E676C653E252564202525633C486F6C653A63746469613E208E4D8C8A2C203C69662865717
310
5616C28486F6C653A7461707065642C223022292C22252563222C486F6C653A6E6F6D696E616C202220782022293E3C696628657175616C28486F6C653A7461707065642C223022292C486F6C653A6469612C486F6C653A706974636864657363293E203C696628657175616C28486F6C653A7465726D696E6174696F6E2C2
310
23022292C22905B82B320222C222022293E3C696628657175616C28486F6C653A7465726D696E6174696F6E2C223022292C486F6C653A64657074682C2222293E406901405014050E836583938376838C815B83672031405C73D3C696628657175616C28486F6C653A7461707065642C223022292C22252563222C486F6C65
310
3A6E6F6D696E616C202220782022293E3C696628657175616C28486F6C653A7461707065642C223022292C486F6C653A6469612C486F6C653A706974636864657363293E203C696628657175616C28486F6C653A7465726D696E6174696F6E2C223022292C22905B82B320222C222022293E3C696628657175616C28486F6C
310
653A7465726D696E6174696F6E2C223022292C486F6C653A64657074682C2222293E4069014051E4090E836583938376838C815B83672032405173D3C535444503A444553433E203C535444503A5354443E40690E836583938376838C815B836720314050C3D3C535444503A444553433E40690240515AAABBA120
360
2FE
330
2FE
360
2FF
330
2FF
360
300
330
300
360
301
360
302
330
301
330
302
 94
        0
  0
ACAD_PROXY_OBJECT
  5
303
330
2F1
100
AcDbProxyObject
 90
      499
 91
      564
 95
       25
 70
     0
 93
       26
310
5DD02A80
340
0
 94
        0
  0
ACAD_PROXY_OBJECT
  5
304
330
2F1
100
AcDbProxyObject
 90
      499
 91
      565
 95
       25
 70
     0
 93
      250
310
5DD020000000000000A1000000000000002440408F0F9023C3E409A0DCFFFF80
340
2DE
340
2E5
340
2E6
340
2DF
340
2E0
340
2E1
340
2E2
340
2E3
340
2E4
340
0
 94
        0
  0
ACAD_PROXY_OBJECT
  5
305
330
2F1
100
AcDbProxyObject
 90
      499
 91
      583
 95
       25
 70
     0
 93
    13889
310
5DD1D003FFFFFFFD030300030CCCCCCCCCCCC250200800030C01030300030CCCCCCCCCCCC250200800030C00050C8DC0955782CC838A83588367014ED1D15395149050D3CB1294138B0C0B23702555E0B320E2A0D620D9CB11D15395149055160B095CCB0A11D1539354D1C819D95B991A5B5E880CCC0A78000C0000000000
310
00000000000000000000010CCCCCCCCCCCC250200800030C010CCCCCCCCCCCC250200800030C020143CF4F111959985D5B1D151A5D1B194F8050A8C8A8365815B8375838B014E51D15395149050D3CB1294138B0C0B2322A0D96056E0DD60E2CB11D15395149055160B095CCB0A11D1539354D1C819D95B991A5B5E880CCC4
310
A78000C000000000000000000000000000000010CCCCCCCCCCCC250200800030C010CCCCCCCCCCCC250200800030C020143CF4F111959985D5B1D151A5D1B194F90D44111409034110541D0C4350F4050E44D03449074510F000141232D24D7C053247454E545241434F2C4A504E2C302C8CB4935F2C47454E54524154582C
310
25732C2847454E4D53472067656E64696D7A20312900010104002214000281464500A608E8A9CA8A482869E5894A09C5860591914588E8A9CA8A482A8B0584AE658508E8A9C9AA68E40CECADCC8D2DAF4406452029E9E9E27B934B3B4B71F1E24A31427A91424A9A12620A7259427B934B3B4B7149624A9A12620A7259424B
310
A32B6949496111116111711149F1E24BA32B69F00808200111A000140560052F47454E545241434F2C4A504E2C302C582C47454E54524154582C25732C2847454E4D53472067656E64696D7A20332900010100002054000280AC80A5E8E8A9CA8A482869E5894A09C586058B2588E8A9CA8A482A8B0584AE658508E8A9C9AA
310
68E40CECADCC8D2DAF4406852000202000040E800050152014BD1D15395149050D3CB1294138B0C0B148B11D15395149055160B095CCB0A11D1539354D1C819D95B991A5B5E880D8A400040400008250000A0507A6029823A2A72A2920A1A79625282716181641E99623A2A72A2920AA2C1612B9961423A2A726A9A39033B2
310
B73234B6BD101B948000808180105A000140A0F4C053047454E545241434F2C4A504E2C302C83D32C47454E54524154582C25732C2847454E4D53472067656E64696D7A203829000101010020F400028248704B5F00A668E8A9CA8A482869E5894A09C58605921C12D7C588E8A9CA8A482A8B0584AE658508E8A9C9AA68E40
310
CECADCC8D2DAF440646052000200080043280005048B4B8A69014CD1D15395149050D3CB1294138B0C0B22D2E29A4B11D15395149055160B095CCB0A11D1539354D1C819D95B991A5B5E880C8C4A4000400100086D0000A09196926BE029923A2A72A2920A1A796252827161816465A49AF9623A2A72A2920AA2C1612B9961
310
423A2A726A9A39033B2B73234B6BD10189480A02620202080043E80005048D8096DA014CD1D15395149050D3CB1294138B0C0B236025B68B11D15395149055160B095CCB0A11D1539354D1C819D95B991A5B5E880C4D0A4000404140280D0000A190687072706CD06C5069D06B0029DA3A2A72A2920A1A7962528271618164
310
1A1C1C9C1B341B141A741AC1623A2A72A2920AA2C1612B9961423A2A726A9A39033B2B73234B6BD10189A94800080820050EA000143A322A0D0E0E4E0D9A0D8A0D3A0D60053D47454E545241434F2C4A504E2C302C8C8A8343839383668362834E83582C47454E54524154582C25732C2847454E4D53472067656E64696D7A
310
2031372900010105002274000281464500A628E8A9CA8A482869E5894A09C5860591914588E8A9CA8A482A8B0584AE658508E8A9C9AA68E40CECADCC8D2DAF440626C52000202080044A8000504909497CA014CD1D15395149050D3CB1294138B0C0B242525F28B11D15395149055160B095CCB0A11D1539354D1C819D95B9
310
91A5B5E880C4E4A400040418008A521E000000000000001CA040C00000000000034408080000000000006881010000000000000D102040000000000001A204080000000000003440818000000000000728103000000000000125020600000000004028A040000000000000034408000000000000004881000000000000000D
310
102000000000000001A204000000000000003440818000000000000508143C0000000000000039408180000000000006881030000000000000D102060000000000001A2040C00000000000034408180000000000006881030000000000000E5020600000000000024A040C0000000000805140800000000000000688100000
310
00000000009102000000000000001A2040000000000000034408180000000000006881030000000000000A10284220000000878000002020000008380000020400000081800000208000000828000002028900000000
340
0
340
0
340
0
340
0
340
2DC
340
2DC
 94
        0
  0
ACAD_PROXY_OBJECT
  5
290
330
286
100
AcDbProxyObject
 90
      499
 91
      563
 95
       25
 70
     0
 93
     2256
310
5DE0143A0D960E4E0DDA0E32056E0D9C80C40405013D3C696628657175616C28486F6C653A7461707065642C223022292C22252563222C486F6C653A6E6F6D696E616C2022202220696628657175616C28486F6C653A756E6974732C223122292C2278222C222D222920222022293E3C696628657175616C28486F6C653A74
310
61707065642C223022292C486F6C653A6469612C486F6C653A706974636864657363293E207B5C46414D4744543B787D203C696628657175616C28486F6C653A7465726D696E6174696F6E2C223022292C486F6C653A64657074682C228AD192CA22293E5C507B5C46414D4744543B767D2525633C486F6C653A6374646961
310
3E207B5C46414D4744543B787D203C486F6C653A637464657074683E
  0
ACAD_PROXY_OBJECT
  5
291
330
286
100
AcDbProxyObject
 90
      499
 91
      563
 95
       25
 70
     0
 93
     2192
310
5DE0143A0D960E4E0DDA0E32056E0D9C80C405FE3D3C696628657175616C28486F6C653A7461707065642C223022292C22252563222C486F6C653A6E6F6D696E616C2022202220696628657175616C28486F6C653A756E6974732C223122292C2278222C222D222920222022293E3C696628657175616C28486F6C653A7461
310
707065642C223022292C486F6C653A6469612C486F6C653A706974636864657363293E207B5C46414D4744543B787D203C696628657175616C28486F6C653A7465726D696E6174696F6E2C223022292C486F6C653A64657074682C228AD192CA22293E5C507B5C46414D4744543B777D2525633C486F6C653A63746469613E
310
2058203C486F6C653A6374616E676C653E252564
  0
ACAD_PROXY_OBJECT
  5
28F
330
286
100
AcDbProxyObject
 90
      499
 91
      563
 95
       25
 70
     0
 93
     1816
310
5DE0143A0D960E4E0DDA0E32056E0D9C80C405CF3D3C696628657175616C28486F6C653A7461707065642C223022292C22252563222C486F6C653A6E6F6D696E616C2022202220696628657175616C28486F6C653A756E6974732C223122292C2278222C222D222920222022293E3C696628657175616C28486F6C653A7461
310
707065642C223022292C486F6C653A6469612C486F6C653A706974636864657363293E5C507B5C46414D4744543B787D203C696628657175616C28486F6C653A7465726D696E6174696F6E2C223022292C486F6C653A64657074682C228AD192CA22293E
  0
ACAD_PROXY_OBJECT
  5
28E
330
286
100
AcDbProxyObject
 90
      499
 91
      563
 95
       25
 70
     0
 93
      344
310
5DE0143A0D960E4E0DDA0E32056E0D9C80C805173D3C535444503A444553433E203C535444503A5354443E
  0
ACAD_PROXY_OBJECT
  5
28D
330
286
100
AcDbProxyObject
 90
      499
 91
      563
 95
       25
 70
     0
 93
      256
310
5DE0143A0D960E4E0DDA0E32056E0D9C80C4050C3D3C535444503A444553433E
  0
ACAD_PROXY_OBJECT
  5
2FE
330
2FD
100
AcDbProxyObject
 90
      499
 91
      563
 95
       25
 70
     0
 93
     1376
310
5DE0143A0D960E4E0DDA0E32056E0D9C80C405983D3C486F6C653A6469613E3C696628657175616C28486F6C653A7465726D696E6174696F6E2C223022292C2220905B82B320222C22208368838A838B22293E3C696628657175616C28486F6C653A7465726D696E6174696F6E2C223022292C486F6C653A64657074682C22
310
22293E2C203C486F6C653A63746469613E2082B482AE82E882CC905B82B3203C486F6C653A637464657074683E
  0
ACAD_PROXY_OBJECT
  5
2FF
330
2FD
100
AcDbProxyObject
 90
      499
 91
      563
 95
       25
 70
     0
 93
     2072
310
5DE0143A0D960E4E0DDA0E32056E0D9C80C405EF3D3C486F6C653A6374616E676C653E252564202525633C486F6C653A63746469613E208E4D8C8A2C203C696628657175616C28486F6C653A7461707065642C223022292C22252563222C486F6C653A6E6F6D696E616C202220782022293E3C696628657175616C28486F6C
310
653A7461707065642C223022292C486F6C653A6469612C486F6C653A706974636864657363293E203C696628657175616C28486F6C653A7465726D696E6174696F6E2C223022292C22905B82B320222C222022293E3C696628657175616C28486F6C653A7465726D696E6174696F6E2C223022292C486F6C653A6465707468
310
2C2222293E
  0
ACAD_PROXY_OBJECT
  5
300
330
2FD
100
AcDbProxyObject
 90
      499
 91
      563
 95
       25
 70
     0
 93
     1752
310
5DE0143A0D960E4E0DDA0E32056E0D9C80C405C73D3C696628657175616C28486F6C653A7461707065642C223022292C22252563222C486F6C653A6E6F6D696E616C202220782022293E3C696628657175616C28486F6C653A7461707065642C223022292C486F6C653A6469612C486F6C653A706974636864657363293E20
310
3C696628657175616C28486F6C653A7465726D696E6174696F6E2C223022292C22905B82B320222C222022293E3C696628657175616C28486F6C653A7465726D696E6174696F6E2C223022292C486F6C653A64657074682C2222293E
  0
ACAD_PROXY_OBJECT
  5
301
330
2FD
100
AcDbProxyObject
 90
      499
 91
      563
 95
       25
 70
     0
 93
      344
310
5DE0143A0D960E4E0DDA0E32056E0D9C80C805173D3C535444503A444553433E203C535444503A5354443E
  0
ACAD_PROXY_OBJECT
  5
302
330
2FD
100
AcDbProxyObject
 90
      499
 91
      563
 95
       25
 70
     0
 93
      256
310
5DE0143A0D960E4E0DDA0E32056E0D9C80C4050C3D3C535444503A444553433E
  0
ENDSEC
  0
EOF
