  0
SECTION
  2
HEADER
  9
$ACADVER
  1
AC1014
  9
$ACADMAINTVER
 70
     9
  9
$DWGCODEPAGE
  3
ANSI_932
  9
$INSBASE
 10
0.0
 20
0.0
 30
0.0
  9
$EXTMIN
 10
-114.5842819268432
 20
-37.9215130455966
 30
0.0
  9
$EXTMAX
 10
27.01030015914958
 20
42.64844566894494
 30
0.0
  9
$LIMMIN
 10
-142.6925177861539
 20
-50.29560996591095
  9
$LIMMAX
 10
41.89739476526983
 20
58.74816202632382
  9
$ORTHOMODE
 70
     0
  9
$REGENMODE
 70
     1
  9
$FILLMODE
 70
     1
  9
$QTEXTMODE
 70
     0
  9
$MIRRTEXT
 70
     0
  9
$DRAGMODE
 70
     2
  9
$LTSCALE
 40
1.0
  9
$OSMODE
 70
  2103
  9
$ATTMODE
 70
     1
  9
$TEXTSIZE
 40
2.5
  9
$TRACEWID
 40
1.0
  9
$TEXTSTYLE
  7
STANDARD
  9
$CLAYER
  8
AM_0
  9
$CELTYPE
  6
BYLAYER
  9
$CECOLOR
 62
   256
  9
$CELTSCALE
 40
1.0
  9
$DELOBJ
 70
     1
  9
$DISPSILH
 70
     0
  9
$DIMSCALE
 40
0.5
  9
$DIMASZ
 40
2.5
  9
$DIMEXO
 40
1.0
  9
$DIMDLI
 40
12.0
  9
$DIMRND
 40
0.0
  9
$DIMDLE
 40
0.0
  9
$DIMEXE
 40
1.0
  9
$DIMTP
 40
0.1
  9
$DIMTM
 40
0.1
  9
$DIMTXT
 40
3.2
  9
$DIMCEN
 40
0.0
  9
$DIMTSZ
 40
0.0
  9
$DIMTOL
 70
     0
  9
$DIMLIM
 70
     0
  9
$DIMTIH
 70
     0
  9
$DIMTOH
 70
     0
  9
$DIMSE1
 70
     0
  9
$DIMSE2
 70
     0
  9
$DIMTAD
 70
     3
  9
$DIMZIN
 70
     8
  9
$DIMBLK
  1
OPEN30
  9
$DIMASO
 70
     1
  9
$DIMSHO
 70
     1
  9
$DIMPOST
  1

  9
$DIMAPOST
  1
"
  9
$DIMALT
 70
     0
  9
$DIMALTD
 70
     2
  9
$DIMALTF
 40
0.0393701
  9
$DIMLFAC
 40
1.0
  9
$DIMTOFL
 70
     1
  9
$DIMTVP
 40
0.0
  9
$DIMTIX
 70
     0
  9
$DIMSOXD
 70
     0
  9
$DIMSAH
 70
     0
  9
$DIMBLK1
  1

  9
$DIMBLK2
  1

  9
$DIMSTYLE
  2
AM_JIS
  9
$DIMCLRD
 70
   256
  9
$DIMCLRE
 70
   256
  9
$DIMCLRT
 70
     2
  9
$DIMTFAC
 40
0.71
  9
$DIMGAP
 40
1.5
  9
$DIMJUST
 70
     0
  9
$DIMSD1
 70
     0
  9
$DIMSD2
 70
     0
  9
$DIMTOLJ
 70
     0
  9
$DIMTZIN
 70
     0
  9
$DIMALTZ
 70
     0
  9
$DIMALTTZ
 70
     0
  9
$DIMFIT
 70
     3
  9
$DIMUPT
 70
     0
  9
$DIMUNIT
 70
     2
  9
$DIMDEC
 70
     3
  9
$DIMTDEC
 70
     3
  9
$DIMALTU
 70
     2
  9
$DIMALTTD
 70
     2
  9
$DIMTXSTY
  7
ASAMI
  9
$DIMAUNIT
 70
     0
  9
$LUNITS
 70
     2
  9
$LUPREC
 70
     2
  9
$SKETCHINC
 40
1.0
  9
$FILLETRAD
 40
0.4
  9
$AUNITS
 70
     0
  9
$AUPREC
 70
     0
  9
$MENU
  1
.
  9
$ELEVATION
 40
0.0
  9
$PELEVATION
 40
0.0
  9
$THICKNESS
 40
0.0
  9
$LIMCHECK
 70
     1
  9
$BLIPMODE
 70
     0
  9
$CHAMFERA
 40
1.0
  9
$CHAMFERB
 40
1.0
  9
$CHAMFERC
 40
20.0
  9
$CHAMFERD
 40
0.0
  9
$SKPOLY
 70
     0
  9
$TDCREATE
 40
2452802.716478761
  9
$TDUPDATE
 40
2452941.604857847
  9
$TDINDWG
 40
0.7748721065
  9
$TDUSRTIMER
 40
0.7748721065
  9
$USRTIMER
 70
     1
  9
$ANGBASE
 50
0.0
  9
$ANGDIR
 70
     0
  9
$PDMODE
 70
     0
  9
$PDSIZE
 40
0.0
  9
$PLINEWID
 40
0.0
  9
$COORDS
 70
     0
  9
$SPLFRAME
 70
     0
  9
$SPLINETYPE
 70
     6
  9
$SPLINESEGS
 70
     8
  9
$ATTDIA
 70
     1
  9
$ATTREQ
 70
     1
  9
$HANDLING
 70
 12289
  9
$HANDSEED
  5
661F
  9
$SURFTAB1
 70
     6
  9
$SURFTAB2
 70
     6
  9
$SURFTYPE
 70
     6
  9
$SURFU
 70
     6
  9
$SURFV
 70
     6
  9
$UCSNAME
  2

  9
$UCSORG
 10
-0.0000000000002682
 20
0.000000000000161
 30
0.0
  9
$UCSXDIR
 10
1.0
 20
0.000000000000002
 30
0.0
  9
$UCSYDIR
 10
-0.000000000000002
 20
1.0
 30
0.0
  9
$PUCSNAME
  2

  9
$PUCSORG
 10
0.0
 20
0.0
 30
0.0
  9
$PUCSXDIR
 10
1.0
 20
0.0
 30
0.0
  9
$PUCSYDIR
 10
0.0
 20
1.0
 30
0.0
  9
$USERI1
 70
     0
  9
$USERI2
 70
     0
  9
$USERI3
 70
     0
  9
$USERI4
 70
     0
  9
$USERI5
 70
     0
  9
$USERR1
 40
0.0
  9
$USERR2
 40
0.0
  9
$USERR3
 40
0.0
  9
$USERR4
 40
0.0
  9
$USERR5
 40
0.0
  9
$WORLDVIEW
 70
     1
  9
$SHADEDGE
 70
     3
  9
$SHADEDIF
 70
    70
  9
$TILEMODE
 70
     1
  9
$MAXACTVP
 70
    64
  9
$PINSBASE
 10
0.0
 20
0.0
 30
0.0
  9
$PLIMCHECK
 70
     0
  9
$PEXTMIN
 10
1.000000000000000E+20
 20
1.000000000000000E+20
 30
1.000000000000000E+20
  9
$PEXTMAX
 10
-1.000000000000000E+20
 20
-1.000000000000000E+20
 30
-1.000000000000000E+20
  9
$PLIMMIN
 10
0.0
 20
0.0
  9
$PLIMMAX
 10
841.0
 20
594.0
  9
$UNITMODE
 70
     0
  9
$VISRETAIN
 70
     1
  9
$PLINEGEN
 70
     0
  9
$PSLTSCALE
 70
     0
  9
$TREEDEPTH
 70
  3020
  9
$PICKSTYLE
 70
     0
  9
$CMLSTYLE
  2
STANDARD
  9
$CMLJUST
 70
     0
  9
$CMLSCALE
 40
20.0
  9
$PROXYGRAPHICS
 70
     1
  9
$MEASUREMENT
 70
     1
  0
ENDSEC
  0
SECTION
  2
CLASSES
  0
CLASS
  1
ACDBDICTIONARYWDFLT
  2
AcDbDictionaryWithDefault
  3
AutoCAD 2000
 90
        0
280
     0
281
     0
  0
CLASS
  1
ACDBPLACEHOLDER
  2
AcDbPlaceHolder
  3
AutoCAD 2000
 90
        0
280
     0
281
     0
  0
CLASS
  1
LAYOUT
  2
AcDbLayout
  3
AutoCAD 2000
 90
        0
280
     0
281
     0
  0
CLASS
  1
AMGSETTINGSOBJ
  2
AmgSettingsObj
  3
"AcadM|Product Description: AutoCAD Mechanical 2000|Company: Autodesk"
 90
        0
280
     0
281
     0
  0
CLASS
  1
ACME_DOCUMENT
  2
AcMeDbDoc
  3
AcMeServices
 90
        0
280
     0
281
     0
  0
CLASS
  1
ACMESCOPE
  2
AcMeScope
  3
AcMeServices
 90
        0
280
     0
281
     0
  0
CLASS
  1
ACMECOMMANDHISTORY
  2
AcMeCommandHistory
  3
AcMeServices
 90
        0
280
     0
281
     0
  0
CLASS
  1
DICTIONARYVAR
  2
AcDbDictionaryVar
  3
AutoCAD 2000
 90
        0
280
     0
281
     0
  0
CLASS
  1
ACIMSYSVARMAN
  2
AcImSysVarManager
  3
AcMeServices
 90
        0
280
     0
281
     0
  0
CLASS
  1
ACIMREALSYSVAR
  2
AcImRealSysVar
  3
AcMeServices
 90
        0
280
     0
281
     0
  0
CLASS
  1
ACIMINTSYSVAR
  2
AcImIntSysVar
  3
AcMeServices
 90
        0
280
     0
281
     0
  0
CLASS
  1
ACMEDRAWINGMAN
  2
AcMeDrawingMan
  3
AcMeServices
 90
        0
280
     0
281
     0
  0
CLASS
  1
ACMEVIEW
  2
AcMeView
  3
AcMeServices
 90
        0
280
     0
281
     0
  0
CLASS
  1
ACDBENTITYCACHE
  2
AcMeEntityCache
  3
AcMeServices
 90
        0
280
     0
281
     0
  0
CLASS
  1
GSMANAGER
  2
AcMeGSManager
  3
AcMeServices
 90
        0
280
     0
281
     0
  0
CLASS
  1
AmdtInternalReactor
  2
AmdtInternalReactor
  3
AcMeServices
 90
        0
280
     0
281
     0
  0
CLASS
  1
ACMESTATEMGR
  2
AcMeStateMgr
  3
AcMeServices
 90
        0
280
     0
281
     0
  0
CLASS
  1
ACME_DATABASE
  2
AcMeDbDatabase
  3
AcMeServices
 90
        0
280
     0
281
     0
  0
CLASS
  1
ACRFINSADJUSTERMGR
  2
AcRfInsAdjusterMgr
  3
AcMeServices
 90
        0
280
     0
281
     0
  0
CLASS
  1
ACMDATADICTIONARY
  2
AcmDataDictionary
  3
"AcmSymBB|Product Description: AutoCAD Mechanical 2000|Company: Autodesk"
 90
        0
280
     0
281
     0
  0
CLASS
  1
ACMDATAENTRYBLOCK
  2
AcmDataEntryBlock
  3
"AcmSymBB|Product Description: AutoCAD Mechanical 2000|Company: Autodesk"
 90
        0
280
     0
281
     0
  0
CLASS
  1
AMGOBJPROPCFG
  2
AmgObjPropCfg
  3
"AmgLay|Product Description: AutoCAD Mechanical 2000|Company: Autodesk"
 90
        1
280
     0
281
     0
  0
CLASS
  1
ACAMGFILTERDAT
  2
AcAmgFilterDat
  3
"AcadM|Product Description: AutoCAD Mechanical 2000|Company: Autodesk"
 90
        0
280
     0
281
     0
  0
CLASS
  1
LAYER_INDEX
  2
AcDbLayerIndex
  3
AutoCAD 2000
 90
        0
280
     0
281
     0
  0
CLASS
  1
IDBUFFER
  2
AcDbIdBuffer
  3
AutoCAD 2000
 90
        0
280
     0
281
     0
  0
CLASS
  1
ACIMSTRSYSVAR
  2
AcImStrSysVar
  3
AcMeServices
 90
        0
280
     0
281
     0
  0
CLASS
  1
ACMSTANDARDJIS
  2
AcmStandardJIS
  3
"AcmSymBB|Product Description: AutoCAD Mechanical 2000|Company: Autodesk"
 90
        0
280
     0
281
     0
  0
CLASS
  1
ACMSURFSTANDARDJIS
  2
AcmSurfTextStdJIS
  3
"AcmSymBB|Product Description: AutoCAD Mechanical 2000|Company: Autodesk"
 90
        0
280
     0
281
     0
  0
CLASS
  1
ACMFCFSTANDARDJIS
  2
AcmFCFStdJIS
  3
"AcmSymBB|Product Description: AutoCAD Mechanical 2000|Company: Autodesk"
 90
        0
280
     0
281
     0
  0
CLASS
  1
ACMWELDSTANDARDJIS
  2
AcmWeldingStdJIS
  3
"AcmSymBB|Product Description: AutoCAD Mechanical 2000|Company: Autodesk"
 90
        0
280
     0
281
     0
  0
CLASS
  1
ACMIDSTANDARDJIS
  2
AcmIdStdJIS
  3
"AcmSymBB|Product Description: AutoCAD Mechanical 2000|Company: Autodesk"
 90
        0
280
     0
281
     0
  0
CLASS
  1
ACMDATUMSTANDARDJIS
  2
AcmDatumStdJIS
  3
"AcmSymBB|Product Description: AutoCAD Mechanical 2000|Company: Autodesk"
 90
        0
280
     0
281
     0
  0
CLASS
  1
ACMBOMSTANDARDJIS
  2
AcmBOMStdJIS
  3
"AcmSymBB|Product Description: AutoCAD Mechanical 2000|Company: Autodesk"
 90
        0
280
     0
281
     0
  0
CLASS
  1
ACMSTANDARDANSI
  2
AcmStandardANSI
  3
"AcmSymBB|Product Description: AutoCAD Mechanical 2000|Company: Autodesk"
 90
        0
280
     0
281
     0
  0
CLASS
  1
ACMSURFSTANDARDANSI
  2
AcmSurfTextStdANSI
  3
"AcmSymBB|Product Description: AutoCAD Mechanical 2000|Company: Autodesk"
 90
        0
280
     0
281
     0
  0
CLASS
  1
ACMFCFSTANDARDANSI
  2
AcmFCFStdANSI
  3
"AcmSymBB|Product Description: AutoCAD Mechanical 2000|Company: Autodesk"
 90
        0
280
     0
281
     0
  0
CLASS
  1
ACMWELDSTANDARDANSI
  2
AcmWeldingStdANSI
  3
"AcmSymBB|Product Description: AutoCAD Mechanical 2000|Company: Autodesk"
 90
        0
280
     0
281
     0
  0
CLASS
  1
ACMIDSTANDARDANSI
  2
AcmIdStdANSI
  3
"AcmSymBB|Product Description: AutoCAD Mechanical 2000|Company: Autodesk"
 90
        0
280
     0
281
     0
  0
CLASS
  1
ACMDATUMSTANDARDANSI
  2
AcmDatumStdANSI
  3
"AcmSymBB|Product Description: AutoCAD Mechanical 2000|Company: Autodesk"
 90
        0
280
     0
281
     0
  0
CLASS
  1
ACMBOMSTANDARDANSI
  2
AcmBOMStdANSI
  3
"AcmSymBB|Product Description: AutoCAD Mechanical 2000|Company: Autodesk"
 90
        0
280
     0
281
     0
  0
CLASS
  1
ACMSTANDARDBSI
  2
AcmStandardBSI
  3
"AcmSymBB|Product Description: AutoCAD Mechanical 2000|Company: Autodesk"
 90
        0
280
     0
281
     0
  0
CLASS
  1
ACMSURFSTANDARDBSI
  2
AcmSurfTextStdBSI
  3
"AcmSymBB|Product Description: AutoCAD Mechanical 2000|Company: Autodesk"
 90
        0
280
     0
281
     0
  0
CLASS
  1
ACMFCFSTANDARDBSI
  2
AcmFCFStdBSI
  3
"AcmSymBB|Product Description: AutoCAD Mechanical 2000|Company: Autodesk"
 90
        0
280
     0
281
     0
  0
CLASS
  1
ACMWELDSTANDARDBSI
  2
AcmWeldingStdBSI
  3
"AcmSymBB|Product Description: AutoCAD Mechanical 2000|Company: Autodesk"
 90
        0
280
     0
281
     0
  0
CLASS
  1
ACMIDSTANDARDBSI
  2
AcmIdStdBSI
  3
"AcmSymBB|Product Description: AutoCAD Mechanical 2000|Company: Autodesk"
 90
        0
280
     0
281
     0
  0
CLASS
  1
ACMDATUMSTANDARDBSI
  2
AcmDatumStdBSI
  3
"AcmSymBB|Product Description: AutoCAD Mechanical 2000|Company: Autodesk"
 90
        0
280
     0
281
     0
  0
CLASS
  1
ACMBOMSTANDARDBSI
  2
AcmBOMStdBSI
  3
"AcmSymBB|Product Description: AutoCAD Mechanical 2000|Company: Autodesk"
 90
        0
280
     0
281
     0
  0
CLASS
  1
STDPART2D
  2
AmgStdPart
  3
"AmgStdPart|Product Description: AutoCAD Mechanical 2000|Company: Autodesk"
 90
     1023
280
     0
281
     1
  0
CLASS
  1
PLOTSETTINGS
  2
AcDbPlotSettings
  3
AutoCAD 2000
 90
        0
280
     0
281
     0
  0
CLASS
  1
LONG_TRANSACTION
  2
AcDbLongTransaction
  3
AutoCAD 2000
 90
        0
280
     0
281
     0
  0
CLASS
  1
LWPOLYLINE
  2
AcDbPolyline
  3
AutoCAD 2000
 90
        0
280
     0
281
     1
  0
CLASS
  1
HATCH
  2
AcDbHatch
  3
AutoCAD 2000
 90
        0
280
     0
281
     1
  0
CLASS
  1
XRECORD
  2
AcDbXrecord
  3
AutoCAD 2000
 90
        0
280
     0
281
     0
  0
ENDSEC
  0
SECTION
  2
TABLES
  0
TABLE
  2
VPORT
  5
8
330
0
100
AcDbSymbolTable
 70
     3
  0
VPORT
  5
65BC
330
8
100
AcDbSymbolTableRecord
100
AcDbViewportTableRecord
  2
*ACTIVE
 70
     0
 10
0.0
 20
0.0
 11
1.0
 21
1.0
 12
-42.67973996194693
 22
6.767084139235706
 13
0.0
 23
0.0
 14
2.5
 24
2.5
 15
10.0
 25
10.0
 16
0.0
 26
0.0
 36
1.0
 17
0.0
 27
0.0
 37
0.0
 40
127.3532253943678
 41
1.609042553191489
 42
50.0
 43
0.0
 44
0.0
 50
0.0
 51
0.0
 71
     0
 72
   100
 73
     1
 74
     3
 75
     0
 76
     0
 77
     0
 78
     0
  0
ENDTAB
  0
TABLE
  2
LTYPE
  5
5
330
0
100
AcDbSymbolTable
 70
    10
  0
LTYPE
  5
14
330
5
100
AcDbSymbolTableRecord
100
AcDbLinetypeTableRecord
  2
BYBLOCK
 70
     0
  3

 72
    65
 73
     0
 40
0.0
  0
LTYPE
  5
15
330
5
100
AcDbSymbolTableRecord
100
AcDbLinetypeTableRecord
  2
BYLAYER
 70
     0
  3

 72
    65
 73
     0
 40
0.0
  0
LTYPE
  5
16
330
5
100
AcDbSymbolTableRecord
100
AcDbLinetypeTableRecord
  2
CONTINUOUS
 70
     0
  3
Solid line
 72
    65
 73
     0
 40
0.0
  0
LTYPE
  5
4B
330
5
100
AcDbSymbolTableRecord
100
AcDbLinetypeTableRecord
  2
AM_ISO02W050
 70
     0
  3
__ __ __ __ __ __ __ __ __ __ __ __ __ __ __
 72
    65
 73
     2
 40
7.5
 49
6.0
 74
     0
 49
-1.5
 74
     0
  0
LTYPE
  5
4C
330
5
100
AcDbSymbolTableRecord
100
AcDbLinetypeTableRecord
  2
AM_ISO08W050
 70
     0
  3
____ . ____ . ____ . ____ . ____ . ____ . ____
 72
    65
 73
     4
 40
18.0
 49
12.0
 74
     0
 49
-1.5
 74
     0
 49
3.0
 74
     0
 49
-1.5
 74
     0
  0
LTYPE
  5
4D
330
5
100
AcDbSymbolTableRecord
100
AcDbLinetypeTableRecord
  2
AM_ISO09W050
 70
     0
  3
_____ . . _____ . . _____ . . ____ .. ____
 72
    65
 73
     6
 40
22.5
 49
12.0
 74
     0
 49
-1.5
 74
     0
 49
3.0
 74
     0
 49
-1.5
 74
     0
 49
3.0
 74
     0
 49
-1.5
 74
     0
  0
LTYPE
  5
4E
330
5
100
AcDbSymbolTableRecord
100
AcDbLinetypeTableRecord
  2
AMCONSTR
 70
     0
  3
_______________________
 72
    65
 73
     2
 40
9999.0
 49
9999.0
 74
     0
 49
0.0
 74
     0
  0
LTYPE
  5
4F
330
5
100
AcDbSymbolTableRecord
100
AcDbLinetypeTableRecord
  2
AM_ISO02W050X2
 70
     0
  3
 _ _ _ _ _ _ _ _ _ _ _ _
 72
    65
 73
     2
 40
3.75
 49
3.0
 74
     0
 49
-0.75
 74
     0
  0
LTYPE
  5
50
330
5
100
AcDbSymbolTableRecord
100
AcDbLinetypeTableRecord
  2
AM_ISO08W050X2
 70
     0
  3
__ . __ . __ . __ . __ . __
 72
    65
 73
     4
 40
9.0
 49
6.0
 74
     0
 49
-0.75
 74
     0
 49
1.5
 74
     0
 49
-0.75
 74
     0
  0
LTYPE
  5
53
330
5
100
AcDbSymbolTableRecord
100
AcDbLinetypeTableRecord
  2
AMZIGZAG
 70
     0
  3
/\/-/\/-/\/-/\/-/\/-/\/
 72
    65
 73
     2
 40
11.00009999999999
 49
0.0001
 74
     4
 75
   135
340
52
 46
0.04
 50
0.0
 44
0.0
 45
0.0
 49
-11.0
 74
     0
  0
LTYPE
  5
166
330
5
100
AcDbSymbolTableRecord
100
AcDbLinetypeTableRecord
  2
ACJISTGL
 70
     0
  3
_ _ _ _ _
 72
    65
 73
     2
 40
3.0
 49
2.0
 74
     0
 49
-1.0
 74
     0
  0
LTYPE
  5
26A
330
5
100
AcDbSymbolTableRecord
100
AcDbLinetypeTableRecord
  2
ACJISTGB
 70
     0
  3
__ . . __ . .
 72
    65
 73
     6
 40
9.0
 49
4.0
 74
     0
 49
-1.0
 74
     0
 49
1.0
 74
     0
 49
-1.0
 74
     0
 49
1.0
 74
     0
 49
-1.0
 74
     0
  0
ENDTAB
  0
TABLE
  2
LAYER
  5
2
330
0
100
AcDbSymbolTable
 70
     9
  0
LAYER
  5
10
330
2
100
AcDbSymbolTableRecord
100
AcDbLayerTableRecord
  2
0
 70
     0
 62
     7
  6
CONTINUOUS
  0
LAYER
  5
3F9
330
2
100
AcDbSymbolTableRecord
100
AcDbLayerTableRecord
  2
AM_0
 70
     0
 62
     7
  6
CONTINUOUS
  0
LAYER
  5
BA4
330
2
100
AcDbSymbolTableRecord
100
AcDbLayerTableRecord
  2
AM_5
 70
     0
 62
     3
  6
CONTINUOUS
  0
LAYER
  5
BA5
330
2
100
AcDbSymbolTableRecord
100
AcDbLayerTableRecord
  2
AM_11
 70
     0
 62
     3
  6
AM_ISO09W050
  0
LAYER
  5
BA6
330
2
100
AcDbSymbolTableRecord
100
AcDbLayerTableRecord
  2
AM_7
 70
     0
 62
     4
  6
AM_ISO08W050
  0
LAYER
  5
E64
330
2
100
AcDbSymbolTableRecord
100
AcDbLayerTableRecord
  2
AM_6
 70
     0
 62
     2
  6
CONTINUOUS
  0
LAYER
  5
F4D
330
2
100
AcDbSymbolTableRecord
100
AcDbLayerTableRecord
  2
DEFPOINTS
 70
     0
 62
     7
  6
CONTINUOUS
  0
LAYER
  5
2382
330
2
100
AcDbSymbolTableRecord
100
AcDbLayerTableRecord
  2
AM_3
 70
     0
 62
     6
  6
ACJISTGL
  0
LAYER
  5
3B47
330
2
100
AcDbSymbolTableRecord
100
AcDbLayerTableRecord
  2
PV0001_1
 70
     0
 62
     7
  6
CONTINUOUS
  0
ENDTAB
  0
TABLE
  2
STYLE
  5
3
330
0
100
AcDbSymbolTable
 70
     5
  0
STYLE
  5
11
330
3
100
AcDbSymbolTableRecord
100
AcDbTextStyleTableRecord
  2
STANDARD
 70
     0
 40
0.0
 41
1.0
 50
0.0
 71
     0
 42
2.5
  3
simplex.shx
  4
EXTFONT.SHX
  0
STYLE
  5
52
330
3
100
AcDbSymbolTableRecord
100
AcDbTextStyleTableRecord
  2

 70
     1
 40
0.0
 41
1.0
 50
0.0
 71
     0
 42
2.5
  3
ltypeshp.shx
  4

  0
STYLE
  5
6B
330
3
100
AcDbSymbolTableRecord
100
AcDbTextStyleTableRecord
  2
ASAMI
 70
     0
 40
0.0
 41
1.0
 50
0.0
 71
     0
 42
2.5
  3
simplex.shx
  4
EXTFONT.SHX
  0
STYLE
  5
262
330
3
100
AcDbSymbolTableRecord
100
AcDbTextStyleTableRecord
  2
ACJISTS
 70
     0
 40
1.0
 41
1.0
 50
0.0
 71
     0
 42
2.5
  3
simplex.shx
  4
bigfont.shx
  0
STYLE
  5
269
330
3
100
AcDbSymbolTableRecord
100
AcDbTextStyleTableRecord
  2
ACJISGDT
 70
     0
 40
0.0
 41
1.0
 50
0.0
 71
     0
 42
2.5
  3
amgdtans.shx
  4

  0
ENDTAB
  0
TABLE
  2
VIEW
  5
6
330
0
100
AcDbSymbolTable
 70
     0
  0
ENDTAB
  0
TABLE
  2
UCS
  5
7
330
0
100
AcDbSymbolTable
 70
     0
  0
ENDTAB
  0
TABLE
  2
APPID
  5
9
330
0
100
AcDbSymbolTable
 70
    24
  0
APPID
  5
12
330
9
100
AcDbSymbolTableRecord
100
AcDbRegAppTableRecord
  2
ACAD
 70
     0
  0
APPID
  5
30
330
9
100
AcDbSymbolTableRecord
100
AcDbRegAppTableRecord
  2
MCAD_NO_VIS
 70
     0
  0
APPID
  5
31
330
9
100
AcDbSymbolTableRecord
100
AcDbRegAppTableRecord
  2
ACAD_TEMP_GRAPHIC
 70
     0
  0
APPID
  5
2C2
330
9
100
AcDbSymbolTableRecord
100
AcDbRegAppTableRecord
  2
GENIUS_GENDTOL_13
 70
     0
  0
APPID
  5
339
330
9
100
AcDbSymbolTableRecord
100
AcDbRegAppTableRecord
  2
GENIUS_GENODEF_13
 70
     0
  0
APPID
  5
33A
330
9
100
AcDbSymbolTableRecord
100
AcDbRegAppTableRecord
  2
GENIUS_GENOBJ-N-RSBK_13
 70
     0
  0
APPID
  5
33B
330
9
100
AcDbSymbolTableRecord
100
AcDbRegAppTableRecord
  2
GENIUS_GENOBJ-N-LIB_13
 70
     0
  0
APPID
  5
33C
330
9
100
AcDbSymbolTableRecord
100
AcDbRegAppTableRecord
  2
GENIUS_GENSCALE_13
 70
     0
  0
APPID
  5
378
330
9
100
AcDbSymbolTableRecord
100
AcDbRegAppTableRecord
  2
GENIUS_GENDIMSH_14
 70
     0
  0
APPID
  5
BB0
330
9
100
AcDbSymbolTableRecord
100
AcDbRegAppTableRecord
  2
GENIUS_GENOBJ-N-CEN_13
 70
     0
  0
APPID
  5
BB1
330
9
100
AcDbSymbolTableRecord
100
AcDbRegAppTableRecord
  2
GENIUS_GENFIL_13
 70
     0
  0
APPID
  5
BB2
330
9
100
AcDbSymbolTableRecord
100
AcDbRegAppTableRecord
  2
GENIUS_GENOBJ-N-CHA_13
 70
     0
  0
APPID
  5
1FAF
330
9
100
AcDbSymbolTableRecord
100
AcDbRegAppTableRecord
  2
GENIUS_GENOBJ-N-CRS_13
 70
     0
  0
APPID
  5
1FB0
330
9
100
AcDbSymbolTableRecord
100
AcDbRegAppTableRecord
  2
GENIUS_GENOENT_13
 70
     0
  0
APPID
  5
1FB1
330
9
100
AcDbSymbolTableRecord
100
AcDbRegAppTableRecord
  2
GENIUS_GENOREF_13
 70
     0
  0
APPID
  5
1FB2
330
9
100
AcDbSymbolTableRecord
100
AcDbRegAppTableRecord
  2
GENIUS_GENOLIS_13
 70
     0
  0
APPID
  5
1FB7
330
9
100
AcDbSymbolTableRecord
100
AcDbRegAppTableRecord
  2
GENIUS_GENOBJ-N-FIL_13
 70
     0
  0
APPID
  5
22A8
330
9
100
AcDbSymbolTableRecord
100
AcDbRegAppTableRecord
  2
GEVID1056506048
 70
     0
  0
APPID
  5
22A9
330
9
100
AcDbSymbolTableRecord
100
AcDbRegAppTableRecord
  2
GEVDC
 70
     0
  0
APPID
  5
22AC
330
9
100
AcDbSymbolTableRecord
100
AcDbRegAppTableRecord
  2
GENIUS_GENBH_13
 70
     0
  0
APPID
  5
22B8
330
9
100
AcDbSymbolTableRecord
100
AcDbRegAppTableRecord
  2
GENIUS_GENOBJ-NBEHI-BHF_13
 70
     0
  0
APPID
  5
22BA
330
9
100
AcDbSymbolTableRecord
100
AcDbRegAppTableRecord
  2
GENIUS_GENOBJ-NBEHI-BHB_13
 70
     0
  0
APPID
  5
35C9
330
9
100
AcDbSymbolTableRecord
100
AcDbRegAppTableRecord
  2
GENIUS_GENREC_14
 70
     0
  0
APPID
  5
35CA
330
9
100
AcDbSymbolTableRecord
100
AcDbRegAppTableRecord
  2
GENIUS_GENOBJ-N-REC_13
 70
     0
  0
ENDTAB
  0
TABLE
  2
DIMSTYLE
  5
A
330
0
100
AcDbSymbolTable
 70
    10
  0
DIMSTYLE
105
58
330
A
100
AcDbSymbolTableRecord
100
AcDbDimStyleTableRecord
  2
AM_JIS
 70
     0
  3

  4
"
  5
OPEN30
  6

  7

 40
0.5
 41
2.5
 42
1.0
 43
12.0
 44
1.0
 45
0.0
 46
0.0
 47
0.1
 48
0.1
140
3.2
141
0.0
142
0.0
143
0.0393701
144
1.0
145
0.0
146
0.71
147
1.5
 71
     0
 72
     0
 73
     0
 74
     0
 75
     0
 76
     0
 77
     3
 78
     8
170
     0
171
     2
172
     1
173
     0
174
     0
175
     0
176
   256
177
   256
178
     2
270
     2
271
     3
272
     3
273
     2
274
     2
340
6B
275
     0
280
     0
281
     0
282
     0
283
     0
284
     0
285
     0
286
     0
287
     3
288
     0
  0
DIMSTYLE
105
5F
330
A
100
AcDbSymbolTableRecord
100
AcDbDimStyleTableRecord
  2
AM_JIS$3
 70
     0
  3

  4
"
  5
OPEN30
  6

  7

 40
0.5
 41
2.5
 42
1.0
 43
10.0
 44
1.0
 45
0.0
 46
0.0
 47
0.1
 48
0.1
140
3.2
141
0.0
142
0.0
143
0.0393701
144
1.0
145
0.0
146
0.71
147
1.5
 71
     0
 72
     0
 73
     0
 74
     1
 75
     0
 76
     0
 77
     3
 78
     8
170
     0
171
     2
172
     0
173
     0
174
     0
175
     0
176
   256
177
   256
178
     2
270
     2
271
     2
272
     3
273
     2
274
     2
340
6B
275
     0
280
     0
281
     0
282
     0
283
     0
284
     0
285
     0
286
     0
287
     0
288
     1
  0
DIMSTYLE
105
60
330
A
100
AcDbSymbolTableRecord
100
AcDbDimStyleTableRecord
  2
AM_JIS$4
 70
     0
  3

  4
"
  5
OPEN30
  6

  7

 40
0.5
 41
2.5
 42
1.0
 43
10.0
 44
1.0
 45
0.0
 46
0.0
 47
0.1
 48
0.1
140
3.2
141
0.0
142
0.0
143
0.0393701
144
1.0
145
0.0
146
0.71
147
1.5
 71
     0
 72
     0
 73
     0
 74
     1
 75
     0
 76
     0
 77
     3
 78
     8
170
     0
171
     2
172
     0
173
     0
174
     0
175
     0
176
   256
177
   256
178
     2
270
     2
271
     2
272
     3
273
     2
274
     2
340
6B
275
     0
280
     0
281
     0
282
     0
283
     0
284
     0
285
     0
286
     0
287
     0
288
     1
  0
DIMSTYLE
105
61
330
A
100
AcDbSymbolTableRecord
100
AcDbDimStyleTableRecord
  2
AM_JIS$6
 70
     0
  3

  4
"
  5
OPEN30
  6

  7

 40
0.5
 41
2.5
 42
1.0
 43
10.0
 44
1.0
 45
0.0
 46
0.0
 47
0.1
 48
0.1
140
3.2
141
0.0
142
0.0
143
0.0393701
144
1.0
145
0.0
146
0.71
147
1.5
 71
     0
 72
     0
 73
     0
 74
     0
 75
     0
 76
     0
 77
     0
 78
     8
170
     0
171
     2
172
     1
173
     0
174
     0
175
     0
176
   256
177
   256
178
     2
270
     2
271
     2
272
     2
273
     2
274
     2
340
6B
275
     0
280
     0
281
     0
282
     0
283
     0
284
     0
285
     0
286
     0
287
     3
288
     0
  0
DIMSTYLE
105
62
330
A
100
AcDbSymbolTableRecord
100
AcDbDimStyleTableRecord
  2
AM_JIS$7
 70
     0
  3

  4
"
  5
OPEN30
  6

  7

 40
0.5
 41
2.5
 42
1.0
 43
10.0
 44
1.0
 45
0.0
 46
0.0
 47
0.1
 48
0.1
140
3.2
141
0.0
142
0.0
143
0.0393701
144
1.0
145
0.0
146
0.71
147
1.5
 71
     0
 72
     0
 73
     0
 74
     0
 75
     0
 76
     0
 77
     3
 78
     8
170
     0
171
     2
172
     1
173
     0
174
     0
175
     0
176
   256
177
   256
178
     2
270
     2
271
     2
272
     3
273
     2
274
     2
340
6B
275
     0
280
     0
281
     0
282
     0
283
     0
284
     0
285
     0
286
     0
287
     3
288
     0
  0
DIMSTYLE
105
63
330
A
100
AcDbSymbolTableRecord
100
AcDbDimStyleTableRecord
  2
AM_JIS$SF
 70
     0
  3

  4
"
  5
OPEN30
  6

  7

 40
0.5
 41
2.5
 42
1.0
 43
10.0
 44
1.0
 45
0.0
 46
0.0
 47
0.1
 48
0.1
140
3.2
141
0.0
142
0.0
143
0.0393701
144
1.0
145
0.0
146
0.71
147
1.5
 71
     0
 72
     0
 73
     0
 74
     0
 75
     1
 76
     1
 77
     3
 78
     8
170
     0
171
     2
172
     1
173
     0
174
     0
175
     0
176
   256
177
   256
178
     2
270
     2
271
     2
272
     2
273
     2
274
     2
340
6B
275
     0
280
     0
281
     0
282
     0
283
     0
284
     0
285
     0
286
     0
287
     3
288
     0
  0
DIMSTYLE
105
68
330
A
100
AcDbSymbolTableRecord
100
AcDbDimStyleTableRecord
  2
AM_JIS$SH
 70
     0
  3

  4
"
  5

  6
GENAXEH
  7
OPEN30
 40
0.5
 41
2.5
 42
1.0
 43
10.0
 44
1.0
 45
0.0
 46
0.0
 47
0.1
 48
0.1
140
3.2
141
0.0
142
0.0
143
0.0393701
144
2.0
145
0.0
146
0.71
147
1.5
 71
     0
 72
     0
 73
     0
 74
     0
 75
     1
 76
     1
 77
     3
 78
     8
170
     0
171
     2
172
     1
173
     1
174
     0
175
     0
176
   256
177
   256
178
     2
270
     2
271
     2
272
     2
273
     2
274
     2
340
6B
275
     0
280
     0
281
     0
282
     0
283
     0
284
     0
285
     0
286
     0
287
     3
288
     0
  0
DIMSTYLE
105
B34
102
{ACAD_REACTORS
330
62EA
102
}
330
A
100
AcDbSymbolTableRecord
100
AcDbDimStyleTableRecord
  2
AM_JIS$2
 70
     0
  3

  4
"
  5
OPEN30
  6

  7

 40
0.5
 41
2.5
 42
1.0
 43
12.0
 44
1.0
 45
0.0
 46
0.0
 47
0.1
 48
0.1
140
3.2
141
0.0
142
0.0
143
0.0393701
144
1.0
145
0.0
146
0.71
147
1.5
 71
     0
 72
     0
 73
     0
 74
     0
 75
     0
 76
     0
 77
     3
 78
     8
170
     0
171
     2
172
     1
173
     0
174
     0
175
     0
176
   256
177
   256
178
     2
270
     2
271
     3
272
     3
273
     2
274
     2
340
6B
275
     0
280
     0
281
     0
282
     0
283
     0
284
     0
285
     0
286
     0
287
     3
288
     0
  0
DIMSTYLE
105
3B48
102
{ACAD_REACTORS
330
6016
330
60E5
330
61B4
330
625C
330
63CC
102
}
330
A
100
AcDbSymbolTableRecord
100
AcDbDimStyleTableRecord
  2
AM_JIS$0
 70
     0
  3

  4
"
  5
OPEN30
  6

  7

 40
1.0
 41
2.5
 42
0.0
 43
10.0
 44
1.0
 45
0.0
 46
0.0
 47
0.1
 48
0.1000000001
140
3.799999999999999
141
0.0
142
0.0
143
0.0393701
144
1.0
145
0.0
146
0.71
147
1.5
 71
     0
 72
     0
 73
     0
 74
     0
 75
     0
 76
     0
 77
     3
 78
     1
170
     0
171
     2
172
     1
173
     0
174
     0
175
     0
176
     3
177
     3
178
     2
270
     2
271
     2
272
     2
273
     2
274
     2
340
11
275
     1
280
     0
281
     0
282
     0
283
     0
284
     8
285
     0
286
     0
287
     0
288
     0
  0
DIMSTYLE
105
4503
330
A
100
AcDbSymbolTableRecord
100
AcDbDimStyleTableRecord
  2
AM_JISORG0P5$0
 70
     0
  3

  4
"
  5
OPEN30
  6

  7

 40
1.0
 41
2.5
 42
0.0
 43
10.0
 44
1.0
 45
0.0
 46
0.0
 47
0.1
 48
0.1000000001
140
3.799999999999999
141
0.0
142
0.0
143
0.0393701
144
0.5000004533313375
145
0.0
146
0.71
147
1.5
 71
     0
 72
     0
 73
     0
 74
     0
 75
     0
 76
     0
 77
     3
 78
     1
170
     0
171
     2
172
     1
173
     0
174
     0
175
     0
176
     3
177
     3
178
     2
270
     2
271
     2
272
     2
273
     2
274
     2
340
11
275
     1
280
     0
281
     0
282
     0
283
     0
284
     8
285
     0
286
     0
287
     0
288
     0
  0
ENDTAB
  0
TABLE
  2
BLOCK_RECORD
  5
1
330
0
100
AcDbSymbolTable
 70
    13
  0
BLOCK_RECORD
  5
1F
102
{ACAD_XDICTIONARY
360
74
102
}
330
1
100
AcDbSymbolTableRecord
100
AcDbBlockTableRecord
  2
*MODEL_SPACE
  0
BLOCK_RECORD
  5
101
102
{ACAD_XDICTIONARY
360
65E5
102
}
330
1
100
AcDbSymbolTableRecord
100
AcDbBlockTableRecord
  2
*PAPER_SPACE
  0
BLOCK_RECORD
  5
59
330
1
100
AcDbSymbolTableRecord
100
AcDbBlockTableRecord
  2
_OPEN30
  0
BLOCK_RECORD
  5
64
330
1
100
AcDbSymbolTableRecord
100
AcDbBlockTableRecord
  2
GENAXEH
  0
BLOCK_RECORD
  5
5E69
330
1
100
AcDbSymbolTableRecord
100
AcDbBlockTableRecord
  2
*U5
  0
BLOCK_RECORD
  5
5E6D
330
1
100
AcDbSymbolTableRecord
100
AcDbBlockTableRecord
  2
*U6
  0
BLOCK_RECORD
  5
6017
330
1
100
AcDbSymbolTableRecord
100
AcDbBlockTableRecord
  2
*D7
  0
BLOCK_RECORD
  5
60E6
330
1
100
AcDbSymbolTableRecord
100
AcDbBlockTableRecord
  2
*D8
  0
BLOCK_RECORD
  5
61B5
330
1
100
AcDbSymbolTableRecord
100
AcDbBlockTableRecord
  2
*D9
  0
BLOCK_RECORD
  5
625D
330
1
100
AcDbSymbolTableRecord
100
AcDbBlockTableRecord
  2
*D10
  0
BLOCK_RECORD
  5
62EB
330
1
100
AcDbSymbolTableRecord
100
AcDbBlockTableRecord
  2
*D11
  0
BLOCK_RECORD
  5
63CD
330
1
100
AcDbSymbolTableRecord
100
AcDbBlockTableRecord
  2
*D12
  0
ENDTAB
  0
ENDSEC
  0
SECTION
  2
BLOCKS
  0
BLOCK
  5
20
330
1F
100
AcDbEntity
  8
0
100
AcDbBlockBegin
  2
*MODEL_SPACE
 70
     0
 10
0.0
 20
0.0
 30
0.0
  3
*MODEL_SPACE
  1

  0
ENDBLK
  5
21
330
1F
100
AcDbEntity
  8
0
100
AcDbBlockEnd
  0
BLOCK
  5
103
330
101
100
AcDbEntity
 67
     1
  8
0
100
AcDbBlockBegin
  2
*PAPER_SPACE
 70
     0
 10
0.0
 20
0.0
 30
0.0
  3
*PAPER_SPACE
  1

  0
ENDBLK
  5
104
330
101
100
AcDbEntity
 67
     1
  8
0
100
AcDbBlockEnd
  0
BLOCK
  5
5D
330
59
100
AcDbEntity
  8
0
100
AcDbBlockBegin
  2
_OPEN30
 70
     0
 10
0.0
 20
0.0
 30
0.0
  3
_OPEN30
  1

  0
LINE
  5
5A
330
59
100
AcDbEntity
  8
0
 62
     0
100
AcDbLine
 10
-1.0
 20
0.26794919
 30
0.0
 11
0.0
 21
0.0
 31
0.0
  0
LINE
  5
5B
330
59
100
AcDbEntity
  8
0
 62
     0
100
AcDbLine
 10
0.0
 20
0.0
 30
0.0
 11
-1.0
 21
-0.26794919
 31
0.0
  0
LINE
  5
5C
330
59
100
AcDbEntity
  8
0
 62
     0
100
AcDbLine
 10
0.0
 20
0.0
 30
0.0
 11
-1.0
 21
0.0
 31
0.0
  0
ENDBLK
  5
5E
330
59
100
AcDbEntity
  8
0
100
AcDbBlockEnd
  0
BLOCK
  5
66
330
64
100
AcDbEntity
  8
0
100
AcDbBlockBegin
  2
GENAXEH
 70
     0
 10
0.0
 20
0.0
 30
0.0
  3
GENAXEH
  1

  0
LINE
  5
65
330
64
100
AcDbEntity
  8
0
100
AcDbLine
 10
-1.0
 20
0.0
 30
0.0
 11
1.0
 21
0.0
 31
0.0
  0
ENDBLK
  5
67
330
64
100
AcDbEntity
  8
0
100
AcDbBlockEnd
  0
BLOCK
  5
5E6B
330
5E69
100
AcDbEntity
  8
0
100
AcDbBlockBegin
  2
*U5
 70
     1
 10
0.0
 20
0.0
 30
0.0
  3
*U5
  1

  0
LEADER
  5
5E6A
330
5E69
100
AcDbEntity
  8
0
  6
CONTINUOUS
 48
0.5
100
AcDbLeader
  3
AM_JIS$7
 76
     2
 10
-35.56723785400299
 20
61.482246398925
 30
0.0
 10
-35.56723785400299
 20
51.482246398925
 30
0.0
1001
ACAD
1000
DSTYLE
1002
{
1070
     6
1000
OPEN30
1070
   173
1070
     1
1070
   176
1070
     0
1070
   341
1005
59
1002
}
  0
ENDBLK
  5
5E6C
330
5E69
100
AcDbEntity
  8
0
100
AcDbBlockEnd
  0
BLOCK
  5
5E6F
330
5E6D
100
AcDbEntity
  8
0
100
AcDbBlockBegin
  2
*U6
 70
     1
 10
0.0
 20
0.0
 30
0.0
  3
*U6
  1

  0
LEADER
  5
5E6E
330
5E6D
100
AcDbEntity
  8
0
  6
CONTINUOUS
 48
0.5
100
AcDbLeader
  3
AM_JIS$7
 76
     2
 10
-25.567237854003
 20
51.482246398925
 30
0.0
 10
-35.56723785400299
 20
51.482246398925
 30
0.0
1001
ACAD
1000
DSTYLE
1002
{
1070
     6
1000
OPEN30
1070
   173
1070
     1
1070
   176
1070
     0
1070
   341
1005
59
1002
}
  0
ENDBLK
  5
5E70
330
5E6D
100
AcDbEntity
  8
0
100
AcDbBlockEnd
  0
BLOCK
  5
6021
330
6017
100
AcDbEntity
  8
0
100
AcDbBlockBegin
  2
*D7
 70
     1
 10
0.0
 20
0.0
 30
0.0
  3
*D7
  1

  0
LINE
  5
65E7
330
6017
100
AcDbEntity
  8
AM_5
100
AcDbLine
 10
-100.5000000000004
 20
42.64844566894452
 30
0.0
 11
-112.7342819268433
 21
42.64844566894449
 31
0.0
  0
LINE
  5
65E8
330
6017
100
AcDbEntity
  8
AM_5
100
AcDbLine
 10
-100.5000000000004
 20
26.78345543456952
 30
0.0
 11
-112.7342819268432
 21
26.7834554345695
 31
0.0
  0
LINE
  5
65E9
330
6017
100
AcDbEntity
  8
AM_5
100
AcDbLine
 10
-112.2342819268433
 20
41.39844566894449
 30
0.0
 11
-112.2342819268432
 21
28.0334554345695
 31
0.0
  0
INSERT
  5
65EA
330
6017
100
AcDbEntity
  8
AM_5
100
AcDbBlockReference
  2
_OPEN30
 10
-112.2342819268433
 20
42.64844566894449
 30
0.0
 41
1.25
 42
1.25
 43
1.25
 50
90.0000000000001
  0
INSERT
  5
65EB
330
6017
100
AcDbEntity
  8
AM_5
100
AcDbBlockReference
  2
_OPEN30
 10
-112.2342819268432
 20
26.7834554345695
 30
0.0
 41
1.25
 42
1.25
 43
1.25
 50
270.0000000000001
  0
MTEXT
  5
65EC
330
6017
100
AcDbEntity
  8
AM_5
 62
     2
100
AcDbMText
 10
-113.7842819268432
 20
34.715950551757
 30
0.0
 40
1.6
 41
0.0
 71
     5
 72
     1
  1
16
  7
ASAMI
 11
-0.000000000000002
 21
1.0
 31
0.0
  0
POINT
  5
65ED
330
6017
100
AcDbEntity
  8
DEFPOINTS
 62
     0
100
AcDbPoint
 10
-100.0000000000003
 20
42.64844566894474
 30
0.0
  0
POINT
  5
65EE
330
6017
100
AcDbEntity
  8
DEFPOINTS
 62
     0
100
AcDbPoint
 10
-100.0000000000003
 20
26.78345543456974
 30
0.0
  0
POINT
  5
65EF
330
6017
100
AcDbEntity
  8
DEFPOINTS
 62
     0
100
AcDbPoint
 10
-112.2342819268432
 20
26.78345543456975
 30
0.0
  0
ENDBLK
  5
6022
330
6017
100
AcDbEntity
  8
0
100
AcDbBlockEnd
  0
BLOCK
  5
60F0
330
60E6
100
AcDbEntity
  8
0
100
AcDbBlockBegin
  2
*D8
 70
     1
 10
0.0
 20
0.0
 30
0.0
  3
*D8
  1

  0
LINE
  5
65F0
330
60E6
100
AcDbEntity
  8
AM_5
100
AcDbLine
 10
-100.5000000000003
 20
-0.6350101530557267
 30
0.0
 11
-111.3833601567998
 21
-0.6350101530557479
 31
0.0
  0
LINE
  5
65F1
330
60E6
100
AcDbEntity
  8
AM_5
100
AcDbLine
 10
-100.5000000000002
 20
-16.50000038743072
 30
0.0
 11
-111.3833601567998
 21
-16.50000038743074
 31
0.0
  0
LINE
  5
65F2
330
60E6
100
AcDbEntity
  8
AM_5
100
AcDbLine
 10
-110.8833601567998
 20
-1.885010153055746
 30
0.0
 11
-110.8833601567998
 21
-15.25000038743073
 31
0.0
  0
INSERT
  5
65F3
330
60E6
100
AcDbEntity
  8
AM_5
100
AcDbBlockReference
  2
_OPEN30
 10
-110.8833601567998
 20
-0.6350101530557469
 30
0.0
 41
1.25
 42
1.25
 43
1.25
 50
90.0000000000001
  0
INSERT
  5
65F4
330
60E6
100
AcDbEntity
  8
AM_5
100
AcDbBlockReference
  2
_OPEN30
 10
-110.8833601567998
 20
-16.50000038743073
 30
0.0
 41
1.25
 42
1.25
 43
1.25
 50
270.0000000000001
  0
MTEXT
  5
65F5
330
60E6
100
AcDbEntity
  8
AM_5
 62
     2
100
AcDbMText
 10
-112.4333601567998
 20
-8.567505270243241
 30
0.0
 40
1.6
 41
0.0
 71
     5
 72
     1
  1
16
  7
ASAMI
 11
-0.000000000000002
 21
1.0
 31
0.0
  0
POINT
  5
65F6
330
60E6
100
AcDbEntity
  8
DEFPOINTS
 62
     0
100
AcDbPoint
 10
-100.0000000000003
 20
-0.6350101530555037
 30
0.0
  0
POINT
  5
65F7
330
60E6
100
AcDbEntity
  8
DEFPOINTS
 62
     0
100
AcDbPoint
 10
-100.0000000000002
 20
-16.50000038743049
 30
0.0
  0
POINT
  5
65F8
330
60E6
100
AcDbEntity
  8
DEFPOINTS
 62
     0
100
AcDbPoint
 10
-110.8833601567998
 20
-16.50000038743049
 30
0.0
  0
ENDBLK
  5
60F1
330
60E6
100
AcDbEntity
  8
0
100
AcDbBlockEnd
  0
BLOCK
  5
61BF
330
61B5
100
AcDbEntity
  8
0
100
AcDbBlockBegin
  2
*D9
 70
     1
 10
0.0
 20
0.0
 30
0.0
  3
*D9
  1

  0
LINE
  5
65F9
330
61B5
100
AcDbEntity
  8
AM_5
100
AcDbLine
 10
0.500016778707142
 20
26.64843803955092
 30
0.0
 11
13.10176516405534
 21
26.64843803955095
 31
0.0
  0
LINE
  5
65FA
330
61B5
100
AcDbEntity
  8
AM_5
100
AcDbLine
 10
0.0999999940390809
 20
42.64844566894491
 30
0.0
 11
13.10176516405531
 21
42.64844566894494
 31
0.0
  0
LINE
  5
65FB
330
61B5
100
AcDbEntity
  8
AM_5
100
AcDbLine
 10
12.60176516405534
 20
27.89843803955095
 30
0.0
 11
12.60176516405531
 21
41.39844566894494
 31
0.0
  0
INSERT
  5
65FC
330
61B5
100
AcDbEntity
  8
AM_5
100
AcDbBlockReference
  2
_OPEN30
 10
12.60176516405534
 20
26.64843803955095
 30
0.0
 41
1.25
 42
1.25
 43
1.25
 50
270.0000000000001
  0
INSERT
  5
65FD
330
61B5
100
AcDbEntity
  8
AM_5
100
AcDbBlockReference
  2
_OPEN30
 10
12.60176516405531
 20
42.64844566894494
 30
0.0
 41
1.25
 42
1.25
 43
1.25
 50
90.0000000000001
  0
MTEXT
  5
65FE
330
61B5
100
AcDbEntity
  8
AM_5
 62
     2
100
AcDbMText
 10
11.05176516405532
 20
34.64844185424794
 30
0.0
 40
1.6
 41
0.0
 71
     5
 72
     1
  1
16
  7
ASAMI
 11
-0.000000000000002
 21
1.0
 31
0.0
  0
POINT
  5
65FF
330
61B5
100
AcDbEntity
  8
DEFPOINTS
 62
     0
100
AcDbPoint
 10
0.0000167787072012
 20
26.64843803955092
 30
0.0
  0
POINT
  5
6600
330
61B5
100
AcDbEntity
  8
DEFPOINTS
 62
     0
100
AcDbPoint
 10
-0.4000000059608244
 20
42.64844566894491
 30
0.0
  0
POINT
  5
6601
330
61B5
100
AcDbEntity
  8
DEFPOINTS
 62
     0
100
AcDbPoint
 10
12.6017651640554
 20
42.64844566894491
 30
0.0
  0
ENDBLK
  5
61C0
330
61B5
100
AcDbEntity
  8
0
100
AcDbBlockEnd
  0
BLOCK
  5
6267
330
625D
100
AcDbEntity
  8
0
100
AcDbBlockBegin
  2
*D10
 70
     1
 10
0.0
 20
0.0
 30
0.0
  3
*D10
  1

  0
LINE
  5
6602
330
625D
100
AcDbEntity
  8
AM_5
100
AcDbLine
 10
-0.0000000000002683
 20
0.5000000000001564
 30
0.0
 11
-0.0000000000002713
 21
16.70987543241595
 31
0.0
  0
LINE
  5
6603
330
625D
100
AcDbEntity
  8
AM_5
100
AcDbLine
 10
-100.0000000000003
 20
-0.1350101530557058
 30
0.0
 11
-100.0000000000003
 21
16.70987543241592
 31
0.0
  0
LINE
  5
6604
330
625D
100
AcDbEntity
  8
AM_5
100
AcDbLine
 10
-1.250000000000271
 20
16.20987543241595
 30
0.0
 11
-98.7500000000003
 21
16.20987543241592
 31
0.0
  0
INSERT
  5
6605
330
625D
100
AcDbEntity
  8
AM_5
100
AcDbBlockReference
  2
_OPEN30
 10
-0.0000000000002712
 20
16.20987543241595
 30
0.0
 41
1.25
 42
1.25
 43
1.25
  0
INSERT
  5
6606
330
625D
100
AcDbEntity
  8
AM_5
100
AcDbBlockReference
  2
_OPEN30
 10
-100.0000000000003
 20
16.20987543241592
 30
0.0
 41
1.25
 42
1.25
 43
1.25
 50
180.0
  0
MTEXT
  5
6607
330
625D
100
AcDbEntity
  8
AM_5
 62
     2
100
AcDbMText
 10
-50.00000000000029
 20
17.75987543241593
 30
0.0
 40
1.6
 41
0.0
 71
     5
 72
     1
  1
100
  7
ASAMI
  0
POINT
  5
6608
330
625D
100
AcDbEntity
  8
DEFPOINTS
 62
     0
100
AcDbPoint
 10
-0.0000000000002682
 20
0.0000000000001563
 30
0.0
  0
POINT
  5
6609
330
625D
100
AcDbEntity
  8
DEFPOINTS
 62
     0
100
AcDbPoint
 10
-100.0000000000003
 20
-0.6350101530555037
 30
0.0
  0
POINT
  5
660A
330
625D
100
AcDbEntity
  8
DEFPOINTS
 62
     0
100
AcDbPoint
 10
-100.0000000000002
 20
16.20987543241612
 30
0.0
  0
ENDBLK
  5
6268
330
625D
100
AcDbEntity
  8
0
100
AcDbBlockEnd
  0
BLOCK
  5
62FB
330
62EB
100
AcDbEntity
  8
0
100
AcDbBlockBegin
  2
*D11
 70
     1
 10
0.0
 20
0.0
 30
0.0
  3
*D11
  1

  0
LINE
  5
660B
330
62EB
100
AcDbEntity
  8
AM_5
100
AcDbLine
 10
-0.0000000000002746
 20
0.50703498708125
 30
0.0
 11
-0.0000000000003881
 21
13.54554460834424
 31
0.0
  0
LINE
  5
660C
330
62EB
100
AcDbEntity
  8
AM_5
100
AcDbLine
 10
-10.51832442667359
 20
-0.1765637677575373
 30
0.0
 11
-13.53644762452546
 21
-0.2292455104570257
 31
0.0
  0
ARC
  5
660D
330
62EB
100
AcDbEntity
  8
AM_5
100
AcDbCircle
 10
-0.0000000000002703
 20
0.00703498708125
 30
0.0
 40
13.03850962126299
100
AcDbArc
 50
95.49504370722283
 51
175.5049602083377
  0
INSERT
  5
660E
330
62EB
100
AcDbEntity
  8
AM_5
100
AcDbBlockReference
  2
_OPEN30
 10
-0.0000000000003837
 20
13.04554460834424
 30
0.0
 41
1.25
 42
1.25
 43
1.25
 50
2.747521853611642
  0
INSERT
  5
660F
330
62EB
100
AcDbEntity
  8
AM_5
100
AcDbBlockReference
  2
_OPEN30
 10
-13.03652377754361
 20
-0.2205192730738794
 30
0.0
 41
1.25
 42
1.25
 43
1.25
 50
268.2524820619489
  0
MTEXT
  5
6610
330
62EB
100
AcDbEntity
  8
AM_5
 62
     2
100
AcDbMText
 10
-10.40526138924906
 20
10.23225617740721
 30
0.0
 40
1.6
 41
0.0
 71
     5
 72
     1
  1
90%%d
  7
ASAMI
 11
0.70090923992829
 21
0.7132504731040471
 31
0.0
  0
POINT
  5
6611
330
62EB
100
AcDbEntity
  8
DEFPOINTS
 62
     0
100
AcDbPoint
 10
-6.584836704750784
 20
11.26059703274208
 30
0.0
  0
POINT
  5
6612
330
62EB
100
AcDbEntity
  8
DEFPOINTS
 62
     0
100
AcDbPoint
 10
-10.01840057969174
 20
-0.1678375303743698
 30
0.0
  0
POINT
  5
6613
330
62EB
100
AcDbEntity
  8
DEFPOINTS
 62
     0
100
AcDbPoint
 10
-0.0000000000002675
 20
-0.4000000059603508
 30
0.0
  0
POINT
  5
6614
330
62EB
100
AcDbEntity
  8
DEFPOINTS
 62
     0
100
AcDbPoint
 10
-0.0000000000002682
 20
0.0000000000001563
 30
0.0
  0
POINT
  5
6615
330
62EB
100
AcDbEntity
  8
DEFPOINTS
 62
     0
100
AcDbPoint
 10
-0.406988531351762
 20
-0.0000690519803612
 30
0.0
  0
ENDBLK
  5
62FC
330
62EB
100
AcDbEntity
  8
0
100
AcDbBlockEnd
  0
BLOCK
  5
63D7
330
63CD
100
AcDbEntity
  8
0
100
AcDbBlockBegin
  2
*D12
 70
     1
 10
0.0
 20
0.0
 30
0.0
  3
*D12
  1

  0
LINE
  5
6616
330
63CD
100
AcDbEntity
  8
AM_5
100
AcDbLine
 10
0.4999999999997318
 20
0.0000000000001573
 30
0.0
 11
13.74995338466494
 21
0.000000000000183
 31
0.0
  0
LINE
  5
6617
330
63CD
100
AcDbEntity
  8
AM_5
100
AcDbLine
 10
-6.828199774027693
 20
-16.50000038743037
 30
0.0
 11
13.74995338466497
 21
-16.50000038743033
 31
0.0
  0
LINE
  5
6618
330
63CD
100
AcDbEntity
  8
AM_5
100
AcDbLine
 10
13.24995338466494
 20
-1.249999999999818
 30
0.0
 11
13.24995338466497
 21
-15.25000038743033
 31
0.0
  0
INSERT
  5
6619
330
63CD
100
AcDbEntity
  8
AM_5
100
AcDbBlockReference
  2
_OPEN30
 10
13.24995338466494
 20
0.000000000000182
 30
0.0
 41
1.25
 42
1.25
 43
1.25
 50
90.0000000000001
  0
INSERT
  5
661A
330
63CD
100
AcDbEntity
  8
AM_5
100
AcDbBlockReference
  2
_OPEN30
 10
13.24995338466497
 20
-16.50000038743033
 30
0.0
 41
1.25
 42
1.25
 43
1.25
 50
270.0000000000001
  0
MTEXT
  5
661B
330
63CD
100
AcDbEntity
  8
AM_5
 62
     2
100
AcDbMText
 10
11.69995338466495
 20
-8.250000193715079
 30
0.0
 40
1.6
 41
0.0
 71
     5
 72
     1
  1
16.5
  7
ASAMI
 11
-0.000000000000002
 21
1.0
 31
0.0
  0
POINT
  5
661C
330
63CD
100
AcDbEntity
  8
DEFPOINTS
 62
     0
100
AcDbPoint
 10
-0.0000000000002682
 20
0.0000000000001563
 30
0.0
  0
POINT
  5
661D
330
63CD
100
AcDbEntity
  8
DEFPOINTS
 62
     0
100
AcDbPoint
 10
-7.328199774027729
 20
-16.50000038743036
 30
0.0
  0
POINT
  5
661E
330
63CD
100
AcDbEntity
  8
DEFPOINTS
 62
     0
100
AcDbPoint
 10
13.24995338466494
 20
-16.50000038743036
 30
0.0
  0
ENDBLK
  5
63D8
330
63CD
100
AcDbEntity
  8
0
100
AcDbBlockEnd
  0
ENDSEC
  0
SECTION
  2
ENTITIES
  0
TEXT
  5
388D
330
1F
100
AcDbEntity
  8
AM_6
100
AcDbText
 10
-65.08912534388144
 20
-37.92151304559655
 30
0.0
 40
2.5
  1
STACR1616-11
 50
359.9999999999998
 51
359.9999999999998
 72
     4
 11
-51.93436343911955
 21
-36.67151304559658
 31
0.0
100
AcDbText
  0
MTEXT
  5
5E79
330
1F
100
AcDbEntity
  8
AM_6
100
AcDbMText
 10
24.16003825438768
 20
5.685057539750496
 30
0.0
 40
2.5
 41
0.0
 71
     4
 72
     5
  1
\T1.40;\W0.59;０°
1001
ACAD
1000
MTEXTBEGIN
1070
    73
1070
     1
1070
    44
1040
1.0
1070
    74
1070
     0
1000
MTEXTEND
  0
INSERT
  5
5E7A
330
1F
100
AcDbEntity
  8
AM_5
100
AcDbBlockReference
  2
*U6
 10
-10.86866342102493
 20
70.52062947305296
 30
0.0
 50
180.0000000000002
  0
INSERT
  5
5E7B
330
1F
100
AcDbEntity
  8
AM_5
100
AcDbBlockReference
  2
*U5
 10
-10.86866342102493
 20
70.52062947305296
 30
0.0
 50
180.0000000000002
  0
MTEXT
  5
5E7C
330
1F
100
AcDbEntity
  8
AM_6
100
AcDbMText
 10
10.65193724582071
 20
19.01926932698323
 30
0.0
 40
2.5
 41
0.0
 71
     4
 72
     5
  1
\T1.40;\W0.59;０°
1001
ACAD
1000
MTEXTBEGIN
1070
    73
1070
     1
1070
    44
1040
1.0
1070
    74
1070
     0
1000
MTEXTEND
  0
LINE
  5
5F39
330
1F
100
AcDbEntity
  8
AM_0
100
AcDbLine
 10
-10.40572968125376
 20
-0.6350101530553474
 30
0.0
 11
-100.0000000000003
 21
-0.6350101530555037
 31
0.0
  0
LINE
  5
5F3A
330
1F
100
AcDbEntity
  8
AM_0
100
AcDbLine
 10
-100.0000000000003
 20
42.64844566894477
 30
0.0
 11
-0.4000000059608244
 21
42.64844566894491
 31
0.0
  0
LINE
  5
5F3B
330
1F
100
AcDbEntity
  8
AM_0
100
AcDbLine
 10
-16.99999848008179
 20
26.78345543456988
 30
0.0
 11
-100.0000000000003
 21
26.78345543456974
 31
0.0
  0
LINE
  5
5F3C
330
1F
100
AcDbEntity
  8
AM_0
100
AcDbLine
 10
-100.0000000000002
 20
-16.5000003874305
 30
0.0
 11
-7.328199774027727
 21
-16.50000038743036
 31
0.0
  0
LINE
  5
5F40
330
1F
100
AcDbEntity
  8
AM_0
100
AcDbLine
 10
-10.3861831724648
 20
29.02844673706091
 30
0.0
 11
-0.2922119200237934
 21
29.02844673706091
 31
0.0
  0
LINE
  5
5F41
330
1F
100
AcDbEntity
  8
AM_0
100
AcDbLine
 10
-10.41142120957379
 20
26.64844566894491
 30
0.0
 11
-0.4208969175817903
 21
26.64844566894491
 31
0.0
  0
LINE
  5
5F42
330
1F
100
AcDbEntity
  8
AM_0
100
AcDbLine
 10
-8.538221746683808
 20
29.02844673706089
 30
0.0
 11
-8.538221746683822
 21
42.64844566894491
 31
0.0
  0
LINE
  5
5F43
330
1F
100
AcDbEntity
  8
AM_0
100
AcDbLine
 10
-0.4000000059608102
 20
29.02844673706091
 30
0.0
 11
-0.4000000059608244
 21
42.64844566894491
 31
0.0
  0
LINE
  5
5F44
330
1F
100
AcDbEntity
  8
AM_0
100
AcDbLine
 10
-0.4208969175817903
 20
26.64844566894491
 30
0.0
 11
0.0000015199182097
 21
26.64844566894491
 31
0.0
  0
LINE
  5
5F45
330
1F
100
AcDbEntity
  8
AM_0
100
AcDbLine
 10
0.0000167787072012
 20
26.64843803955092
 30
0.0
 11
-0.2922119200237934
 21
29.02844292236291
 31
0.0
  0
LINE
  5
5F46
330
1F
100
AcDbEntity
  8
AM_0
100
AcDbLine
 10
-10.37458649277779
 20
26.94843346191389
 30
0.0
 11
-16.83502045273879
 21
26.94843346191389
 31
0.0
  0
LINE
  5
5F47
330
1F
100
AcDbEntity
  8
AM_0
100
AcDbLine
 10
-10.3861831724648
 20
28.02844673706092
 30
0.0
 11
-10.2419723570348
 21
28.02844673706092
 31
0.0
  0
LINE
  5
5F48
330
1F
100
AcDbEntity
  8
AM_0
100
AcDbLine
 10
-10.3861831724648
 20
28.02844673706092
 30
0.0
 11
-10.3861831724648
 21
29.02844673706091
 31
0.0
  0
LINE
  5
5F49
330
1F
100
AcDbEntity
  8
AM_0
100
AcDbLine
 10
-10.5187896788128
 20
26.9484372766109
 30
0.0
 11
-10.3861831724648
 21
28.02844673706092
 31
0.0
  0
LINE
  5
5F4A
330
1F
100
AcDbEntity
  8
AM_0
100
AcDbLine
 10
-10.41141358017978
 20
26.64844566894491
 30
0.0
 11
-10.1191848814488
 21
29.02844673706091
 31
0.0
  0
LINE
  5
5F4B
330
1F
100
AcDbEntity
  8
AM_0
100
AcDbLine
 10
-17.00000229477979
 20
26.78345543456988
 30
0.0
 11
-16.83502426743579
 21
26.94843346191389
 31
0.0
  0
LINE
  5
5F4F
330
1F
100
AcDbEntity
  8
AM_0
100
AcDbLine
 10
-0.4000000059607391
 20
-12.50000038743034
 30
0.0
 11
-7.328207403421719
 21
-16.50000038743036
 31
0.0
  0
LINE
  5
5F50
330
1F
100
AcDbEntity
  8
AM_0
100
AcDbLine
 10
-16.83501663804073
 20
-16.50000038743037
 30
0.0
 11
-16.83501663804076
 21
-0.6350101530553758
 31
0.0
  0
LINE
  5
5F51
330
1F
100
AcDbEntity
  8
AM_0
100
AcDbLine
 10
-16.99999848008172
 20
-16.50000038743037
 30
0.0
 11
-16.99999848008175
 21
-0.6350101530553758
 31
0.0
  0
LINE
  5
5F52
330
1F
100
AcDbEntity
  8
AM_0
100
AcDbLine
 10
-10.01840057969174
 20
-0.1678375303743707
 30
0.0
 11
-0.406988531351762
 21
-0.0000690519803612
 31
0.0
  0
LINE
  5
5F53
330
1F
100
AcDbEntity
  8
AM_0
100
AcDbLine
 10
-10.35428467392974
 20
-0.7737850248813487
 30
0.0
 11
-5.40328064560973
 21
-9.013634115457364
 31
0.0
  0
CIRCLE
  5
5F59
330
1F
100
AcDbEntity
  8
AM_0
100
AcDbCircle
 10
-5.15727844834375
 20
-3.258469015359352
 30
0.0
 40
1.7250000238419
  0
LINE
  5
5F5A
330
1F
100
AcDbEntity
  8
AM_0
100
AcDbLine
 10
-0.4000000059607391
 20
-12.50000038743034
 30
0.0
 11
-0.4000000059607676
 21
-1.225069433450357
 31
0.0
  0
LINE
  5
5F5B
330
1F
100
AcDbEntity
  8
AM_7
100
AcDbLine
 10
-5.15727844834375
 20
-5.758469015359352
 30
0.0
 11
-5.15727844834375
 21
-0.7584690153593528
 31
0.0
  0
LINE
  5
5F5C
330
1F
100
AcDbEntity
  8
AM_0
100
AcDbLine
 10
-4.71056976914473
 20
-9.001541525125347
 30
0.0
 11
-0.0501541197307536
 21
-0.5939239561553507
 31
0.0
  0
LINE
  5
5F5D
330
1F
100
AcDbEntity
  8
AM_7
100
AcDbLine
 10
-2.65727844834375
 20
-3.258469015359352
 30
0.0
 11
-7.65727844834375
 21
-3.258469015359366
 31
0.0
  0
ARC
  5
5F5E
330
1F
100
AcDbEntity
  8
AM_0
100
AcDbCircle
 10
-0.4000000059607676
 20
-0.4000000059603508
 30
0.0
 40
0.4000000059605
100
AcDbArc
 50
331.0000053403253
 51
90.99999501924726
  0
ARC
  5
5F6F
330
1F
100
AcDbEntity
  8
AM_0
100
AcDbCircle
 10
-5.15727844834375
 20
-8.508469015359352
 30
0.0
 40
1.5
100
AcDbArc
 50
179.0000000077487
 51
359.0000106729515
  0
LINE
  5
5F70
330
1F
100
AcDbEntity
  8
AM_0
100
AcDbLine
 10
-6.657057195902742
 20
-8.482288748025368
 30
0.0
 11
-6.629454046488736
 21
-6.900694280862367
 31
0.0
  0
LINE
  5
5F71
330
1F
100
AcDbEntity
  8
AM_0
100
AcDbLine
 10
-3.657507330179744
 20
-8.534645467996355
 30
0.0
 11
-3.632948309183736
 21
-7.127754598855361
 31
0.0
  0
ARC
  5
5F72
330
1F
100
AcDbEntity
  8
AM_0
100
AcDbCircle
 10
-5.06041565537473
 20
-8.807617574930347
 30
0.0
 40
0.4000000059605
100
AcDbArc
 50
211.0000020010181
 51
331.0000053403253
  0
ARC
  5
5F74
330
1F
100
AcDbEntity
  8
AM_0
100
AcDbCircle
 10
-10.01141968369576
 20
-0.5677703917023678
 30
0.0
 40
0.4000000059605
100
AcDbArc
 50
90.99999183152723
 51
211.0000122463
  0
LINE
  5
5F77
330
1F
100
AcDbEntity
  8
AM_0
100
AcDbLine
 10
-100.0000000000003
 20
42.64844566894474
 30
0.0
 11
-100.0000000000003
 21
26.78345543456974
 31
0.0
  0
LINE
  5
5F78
330
1F
100
AcDbEntity
  8
AM_0
100
AcDbLine
 10
-100.0000000000003
 20
-0.6350101530555037
 30
0.0
 11
-100.0000000000002
 21
-16.5000003874305
 31
0.0
  0
DIMENSION
  5
6016
330
1F
100
AcDbEntity
  8
AM_5
100
AcDbDimension
  2
*D7
 10
-112.2342819268432
 20
26.78345543456975
 30
0.0
 11
-113.7842819268432
 21
34.71595055175723
 31
0.0
 70
    32
  1
<>
 51
359.9999999999998
  3
AM_JIS$0
100
AcDbAlignedDimension
 13
-100.0000000000003
 23
42.64844566894474
 33
0.0
 14
-100.0000000000003
 24
26.78345543456974
 34
0.0
 50
270.0000000000002
100
AcDbRotatedDimension
1001
GENIUS_GENDTOL_13
1000

1000
h7
1000

1040
0.0
1001
ACAD
1000
DSTYLE
1002
{
1070
   287
1070
     3
1070
    40
1040
0.5
1070
    42
1040
1.0
1070
    43
1040
12.0
1070
    48
1040
0.1
1070
    78
1070
     8
1070
   140
1040
3.2
1070
   176
1070
   256
1070
   177
1070
   256
1070
   271
1070
     0
1070
   272
1070
     3
1070
   275
1070
     0
1070
   284
1070
     0
1070
   289
1070
     3
1070
   340
1005
6B
1070
   371
1070
    -1
1070
   372
1070
    -1
1002
}
  0
DIMENSION
  5
60E5
330
1F
100
AcDbEntity
  8
AM_5
100
AcDbDimension
  2
*D8
 10
-110.8833601567998
 20
-16.50000038743049
 30
0.0
 11
-112.4333601567998
 21
-8.567505270243014
 31
0.0
 70
    32
  1
<>
 51
359.9999999999998
  3
AM_JIS$0
100
AcDbAlignedDimension
 13
-100.0000000000003
 23
-0.6350101530555037
 33
0.0
 14
-100.0000000000002
 24
-16.50000038743049
 34
0.0
 50
270.0000000000001
100
AcDbRotatedDimension
1001
GENIUS_GENDTOL_13
1000

1000
h7
1000

1040
0.0
1001
ACAD
1000
DSTYLE
1002
{
1070
   287
1070
     3
1070
    40
1040
0.5
1070
    42
1040
1.0
1070
    43
1040
12.0
1070
    48
1040
0.1
1070
    78
1070
     8
1070
   140
1040
3.2
1070
   176
1070
   256
1070
   177
1070
   256
1070
   271
1070
     0
1070
   272
1070
     3
1070
   275
1070
     0
1070
   284
1070
     0
1070
   289
1070
     3
1070
   340
1005
6B
1070
   371
1070
    -1
1070
   372
1070
    -1
1002
}
  0
DIMENSION
  5
61B4
330
1F
100
AcDbEntity
  8
AM_5
100
AcDbDimension
  2
*D9
 10
12.6017651640554
 20
42.64844566894491
 30
0.0
 11
11.05176516405539
 21
34.64844185424792
 31
0.0
 70
    32
  1
<>
 51
359.9999999999998
  3
AM_JIS$0
100
AcDbAlignedDimension
 13
0.0000167787072012
 23
26.64843803955092
 33
0.0
 14
-0.4000000059608244
 24
42.64844566894491
 34
0.0
 50
90.00000000000012
100
AcDbRotatedDimension
1001
GENIUS_GENDTOL_13
1000

1000
h7
1000

1040
0.0
1001
ACAD
1000
DSTYLE
1002
{
1070
   287
1070
     3
1070
    40
1040
0.5
1070
    42
1040
1.0
1070
    43
1040
12.0
1070
    48
1040
0.1
1070
    78
1070
     8
1070
   140
1040
3.2
1070
   176
1070
   256
1070
   177
1070
   256
1070
   271
1070
     0
1070
   272
1070
     3
1070
   275
1070
     0
1070
   284
1070
     0
1070
   289
1070
     3
1070
   340
1005
6B
1070
   371
1070
    -1
1070
   372
1070
    -1
1002
}
  0
LINE
  5
6252
330
1F
100
AcDbEntity
  8
AM_11
100
AcDbLine
 10
-0.4000000059607683
 20
0.0000000000001563
 30
0.0
 11
-0.0000000000002682
 21
0.0000000000001563
 31
0.0
  0
LINE
  5
6253
330
1F
100
AcDbEntity
  8
AM_11
100
AcDbLine
 10
-0.0000000000002676
 20
-0.4000000059603508
 30
0.0
 11
-0.0000000000002682
 21
0.0000000000001563
 31
0.0
  0
DIMENSION
  5
625C
330
1F
100
AcDbEntity
  8
AM_5
100
AcDbDimension
  2
*D10
 10
-100.0000000000002
 20
16.20987543241612
 30
0.0
 11
-50.00000000000025
 21
17.75987543241603
 31
0.0
 70
    32
  1
<>
 51
359.9999999999998
  3
AM_JIS$0
100
AcDbAlignedDimension
 13
-0.0000000000002682
 23
0.0000000000001563
 33
0.0
 14
-100.0000000000003
 24
-0.6350101530555037
 34
0.0
 50
180.0
100
AcDbRotatedDimension
1001
GENIUS_GENDTOL_13
1000

1000
h7
1000

1040
0.0
1001
ACAD
1000
DSTYLE
1002
{
1070
   287
1070
     3
1070
    40
1040
0.5
1070
    42
1040
1.0
1070
    43
1040
12.0
1070
    48
1040
0.1
1070
    78
1070
     8
1070
   140
1040
3.2
1070
   176
1070
   256
1070
   177
1070
   256
1070
   271
1070
     0
1070
   272
1070
     3
1070
   275
1070
     0
1070
   284
1070
     0
1070
   289
1070
     3
1070
   340
1005
6B
1070
   371
1070
    -1
1070
   372
1070
    -1
1002
}
  0
DIMENSION
  5
62EA
330
1F
100
AcDbEntity
  8
AM_5
100
AcDbDimension
  2
*D11
 10
-0.406988531351762
 20
-0.0000690519803612
 30
0.0
 11
-10.40526138924904
 21
10.23225617740723
 31
0.0
 70
    34
  1
90%%d
 51
359.9999999999998
  3
AM_JIS$2
100
AcDb2LineAngularDimension
 13
-0.0000000000002676
 23
-0.4000000059603508
 33
0.0
 14
-0.0000000000002682
 24
0.0000000000001563
 34
0.0
 15
-10.01840057969174
 25
-0.1678375303743707
 35
0.0
 16
-6.584836704750784
 26
11.26059703274208
 36
0.0
1001
GENIUS_GENDTOL_13
1000

1000
h7
1000

1040
0.0
1001
ACAD
1000
DSTYLE
1002
{
1070
   271
1070
     0
1002
}
  0
DIMENSION
  5
63CC
330
1F
100
AcDbEntity
  8
AM_5
100
AcDbDimension
  2
*D12
 10
13.24995338466494
 20
-16.50000038743036
 30
0.0
 11
11.69995338466494
 21
-8.250000193715102
 31
0.0
 70
    32
  1
<>
 51
359.9999999999998
  3
AM_JIS$0
100
AcDbAlignedDimension
 13
-0.0000000000002682
 23
0.0000000000001563
 33
0.0
 14
-7.328199774027729
 24
-16.50000038743036
 34
0.0
 50
89.99999999999998
100
AcDbRotatedDimension
1001
GENIUS_GENDTOL_13
1000

1000
h7
1000

1040
0.0
1001
ACAD
1000
DSTYLE
1002
{
1070
   287
1070
     3
1070
    40
1040
0.5
1070
    42
1040
1.0
1070
    43
1040
12.0
1070
    48
1040
0.1
1070
    78
1070
     8
1070
   140
1040
3.2
1070
   176
1070
   256
1070
   177
1070
   256
1070
   271
1070
     1
1070
   272
1070
     3
1070
   275
1070
     0
1070
   284
1070
     0
1070
   289
1070
     3
1070
   340
1005
6B
1070
   371
1070
    -1
1070
   372
1070
    -1
1002
}
  0
VIEWPORT
  5
110
330
101
100
AcDbEntity
 67
     1
  8
0
100
AcDbViewport
 10
420.5
 20
297.0
 30
0.0
 40
948.9782706766916
 41
628.452
 68
     1
 69
     1
1001
ACAD
1000
MVIEW
1002
{
1070
    16
1010
0.0
1020
0.0
1030
0.0
1010
0.0
1020
0.0
1030
1.0
1040
0.0
1040
628.452
1040
420.5
1040
297.0
1040
50.0
1040
0.0
1040
0.0
1070
     0
1070
   100
1070
     1
1070
     1
1070
     0
1070
     0
1070
     0
1070
     0
1040
0.0
1040
0.0
1040
0.0
1040
10.0
1040
10.0
1040
10.0
1040
10.0
1070
     0
1002
{
1002
}
1002
}
  0
ENDSEC
  0
SECTION
  2
OBJECTS
  0
DICTIONARY
  5
C
330
0
100
AcDbDictionary
  3
ACAD_GROUP
350
D
  3
ACAD_LAYOUT
350
1A
  3
ACAD_MLINESTYLE
350
17
  3
ACAD_PLOTSETTINGS
350
19
  3
ACAD_PLOTSTYLENAME
350
E
  3
ACDBVARIABLEDICTIONARY
350
34
  3
ACMDICTIONARY
350
43
  3
AMG
350
2B
  3
AMGSNAPSETTINGS
350
6E
  3
DWGPROPS
350
65AF
  3
ACDBHEADERROUNDTRIPXREC
350
65BD
  0
DICTIONARY
  5
74
330
1F
100
AcDbDictionary
280
     1
  3
ACAD_INDEX
360
65B1
  3
ACAD_LAYOUTSELFREF
360
65E0
  0
DICTIONARY
  5
65E5
330
101
100
AcDbDictionary
280
     1
  3
ACAD_LAYOUTSELFREF
360
65E6
  0
DICTIONARY
  5
D
102
{ACAD_REACTORS
330
C
102
}
330
C
100
AcDbDictionary
  0
DICTIONARY
  5
1A
102
{ACAD_REACTORS
330
C
102
}
330
C
100
AcDbDictionary
  0
DICTIONARY
  5
17
102
{ACAD_REACTORS
330
C
102
}
330
C
100
AcDbDictionary
  3
STANDARD
350
18
  0
DICTIONARY
  5
19
102
{ACAD_REACTORS
330
C
102
}
330
C
100
AcDbDictionary
  3
ASAMI
350
399D
  0
ACDBDICTIONARYWDFLT
  5
E
102
{ACAD_REACTORS
330
C
102
}
330
C
100
AcDbDictionary
281
     1
  3
Normal
350
F
100
AcDbDictionaryWithDefault
340
F
  0
DICTIONARY
  5
34
102
{ACAD_REACTORS
330
C
102
}
330
C
100
AcDbDictionary
  3
INDEXCTL
350
35
  3
SORTENTS
350
B5E
  0
DICTIONARY
  5
43
102
{ACAD_REACTORS
330
C
102
}
330
C
100
AcDbDictionary
  3
ACMSTDDICTIONARY
350
260
  0
DICTIONARY
  5
2B
102
{ACAD_REACTORS
330
C
102
}
330
C
100
AcDbDictionary
  3
ACMGSETTINGS
350
2C
  0
DICTIONARY
  5
6E
102
{ACAD_REACTORS
330
C
102
}
330
C
100
AcDbDictionary
  0
XRECORD
  5
65AF
102
{ACAD_REACTORS
330
C
102
}
330
C
100
AcDbXrecord
  1
DWGPROPS COOKIE
  2

  3

  4

  6

  7

  8

  9

300
AmdtFileType=82
301
=
302
=
303
=
304
=
305
=
306
=
307
=
308
=
309
=
 40
0.7748149537037037
 41
2452802.716478761
 42
2452938.485152453
  1

 90
        1
  0
DICTIONARY
  5
65BD
102
{ACAD_REACTORS
330
C
102
}
330
C
100
AcDbDictionary
  3
TSTACKALIGN
350
65BE
  3
TSTACKSIZE
350
65BF
  3
HYPERLINKBASE
350
65C0
  3
STYLESHEET
350
65C1
  3
LAYOUTDICT
350
65C2
  3
PLOTSETDICT
350
65C3
  3
PLOTSTYLNAMDICT
350
65C4
  3
LWETCUNION
350
65C5
  3
INSUNITS
350
65C6
  3
CEPSNTYPE
350
65C7
  3
FINGERPRINTGUID
350
65C8
  3
VERSIONGUID
350
65C9
  3
PSVPSCALE
350
65CA
  3
DIMSTYLEDATA
350
65CB
  3
PUCSORTHOREF
350
65CC
  3
PUCSORTHOVIEW
350
65CD
  3
PUCSBASE
350
65CE
  3
PUCSORGTOP
350
65CF
  3
PUCSORGBOTTOM
350
65D0
  3
PUCSORGLEFT
350
65D1
  3
PUCSORGRIGHT
350
65D2
  3
PUCSORGFRONT
350
65D3
  3
PUCSORGBACK
350
65D4
  3
UCSORTHOREF
350
65D5
  3
UCSORTHOVIEW
350
65D6
  3
UCSBASE
350
65D7
  3
UCSORGTOP
350
65D8
  3
UCSORGBOTTOM
350
65D9
  3
UCSORGLEFT
350
65DA
  3
UCSORGRIGHT
350
65DB
  3
UCSORGFRONT
350
65DC
  3
UCSORGBACK
350
65DD
  0
DICTIONARY
  5
65B1
102
{ACAD_REACTORS
330
74
102
}
330
74
100
AcDbDictionary
  3
*A1
350
65B2
  0
XRECORD
  5
65E0
102
{ACAD_REACTORS
330
74
102
}
330
74
100
AcDbXrecord
340
1F
  0
XRECORD
  5
65E6
102
{ACAD_REACTORS
330
65E5
102
}
330
65E5
100
AcDbXrecord
340
101
  0
MLINESTYLE
  5
18
102
{ACAD_REACTORS
330
17
102
}
330
17
100
AcDbMlineStyle
  2
STANDARD
 70
     0
  3

 62
   256
 51
90.0
 52
90.0
 71
     2
 49
0.5
 62
   256
  6
BYLAYER
 49
-0.5
 62
   256
  6
BYLAYER
  0
PLOTSETTINGS
  5
399D
102
{ACAD_REACTORS
330
19
102
}
330
19
100
AcDbPlotSettings
  1
asami
  2
RICOH imagio MF1540
  4
A4
  6

 40
5.831416606903076
 41
7.651742935180664
 42
4.90008544921875
 43
5.789077758789062
 44
296.9683227539062
 45
209.9733276367187
 46
0.0
 47
0.0
 48
-156.6707931774246
 49
-74.57609991074048
140
58.59973180214831
141
60.61068161925596
142
1.0
143
1.095343097833084
 70
  1712
 72
     1
 73
     1
 74
     4
  7
asami.ctb
 75
     0
147
0.9129559514076438
148
156.6707931774246
149
74.57609991074048
  0
ACDBPLACEHOLDER
  5
F
102
{ACAD_REACTORS
330
E
102
}
330
E
100
AcDbPlaceHolder
280
     0
  0
DICTIONARYVAR
  5
35
102
{ACAD_REACTORS
330
34
102
}
330
34
100
DictionaryVariables
280
     0
  1
1
  0
DICTIONARYVAR
  5
B5E
102
{ACAD_REACTORS
330
34
102
}
330
34
100
DictionaryVariables
280
     0
  1
96
  0
DICTIONARY
  5
260
102
{ACAD_REACTORS
330
43
102
}
330
43
100
AcDbDictionary
  0
DICTIONARY
  5
2C
102
{ACAD_REACTORS
330
2B
102
}
330
2B
100
AcDbDictionary
  3
DWGSETTINGS
350
2D
  0
XRECORD
  5
65BE
102
{ACAD_REACTORS
330
65BD
102
}
330
65BD
100
AcDbXrecord
 90
        1
  0
XRECORD
  5
65BF
102
{ACAD_REACTORS
330
65BD
102
}
330
65BD
100
AcDbXrecord
 90
       70
  0
XRECORD
  5
65C0
102
{ACAD_REACTORS
330
65BD
102
}
330
65BD
100
AcDbXrecord
  1

  0
XRECORD
  5
65C1
102
{ACAD_REACTORS
330
65BD
102
}
330
65BD
100
AcDbXrecord
  1
asami.ctb
  0
XRECORD
  5
65C2
102
{ACAD_REACTORS
330
65BD
102
}
330
65BD
100
AcDbXrecord
340
1A
  0
XRECORD
  5
65C3
102
{ACAD_REACTORS
330
65BD
102
}
330
65BD
100
AcDbXrecord
340
19
  0
XRECORD
  5
65C4
102
{ACAD_REACTORS
330
65BD
102
}
330
65BD
100
AcDbXrecord
340
E
  0
XRECORD
  5
65C5
102
{ACAD_REACTORS
330
65BD
102
}
330
65BD
100
AcDbXrecord
 90
    10781
  0
XRECORD
  5
65C6
102
{ACAD_REACTORS
330
65BD
102
}
330
65BD
100
AcDbXrecord
 90
        4
  0
XRECORD
  5
65C7
102
{ACAD_REACTORS
330
65BD
102
}
330
65BD
100
AcDbXrecord
 90
        0
  0
XRECORD
  5
65C8
102
{ACAD_REACTORS
330
65BD
102
}
330
65BD
100
AcDbXrecord
  1
{AFB28963-8C59-40AE-9337-C84526B81ACE}
  0
XRECORD
  5
65C9
102
{ACAD_REACTORS
330
65BD
102
}
330
65BD
100
AcDbXrecord
  1
{86509B9A-343A-4C77-93C7-9ACD65D4E14A}
  0
XRECORD
  5
65CA
102
{ACAD_REACTORS
330
65BD
102
}
330
65BD
100
AcDbXrecord
 40
0.0
  0
XRECORD
  5
65CB
102
{ACAD_REACTORS
330
65BD
102
}
330
65BD
100
AcDbXrecord
1000
DSTYLE
1002
{
1070
    79
 70
     2
1070
   341
340
59
1070
   342
340
59
1070
   371
 70
    -1
1070
   372
 70
    -1
1002
}
  0
XRECORD
  5
65CC
102
{ACAD_REACTORS
330
65BD
102
}
330
65BD
100
AcDbXrecord
340
0
  0
XRECORD
  5
65CD
102
{ACAD_REACTORS
330
65BD
102
}
330
65BD
100
AcDbXrecord
 70
     0
  0
XRECORD
  5
65CE
102
{ACAD_REACTORS
330
65BD
102
}
330
65BD
100
AcDbXrecord
340
0
  0
XRECORD
  5
65CF
102
{ACAD_REACTORS
330
65BD
102
}
330
65BD
100
AcDbXrecord
 10
0.0
 20
0.0
 30
0.0
  0
XRECORD
  5
65D0
102
{ACAD_REACTORS
330
65BD
102
}
330
65BD
100
AcDbXrecord
 10
0.0
 20
0.0
 30
0.0
  0
XRECORD
  5
65D1
102
{ACAD_REACTORS
330
65BD
102
}
330
65BD
100
AcDbXrecord
 10
0.0
 20
0.0
 30
0.0
  0
XRECORD
  5
65D2
102
{ACAD_REACTORS
330
65BD
102
}
330
65BD
100
AcDbXrecord
 10
0.0
 20
0.0
 30
0.0
  0
XRECORD
  5
65D3
102
{ACAD_REACTORS
330
65BD
102
}
330
65BD
100
AcDbXrecord
 10
0.0
 20
0.0
 30
0.0
  0
XRECORD
  5
65D4
102
{ACAD_REACTORS
330
65BD
102
}
330
65BD
100
AcDbXrecord
 10
0.0
 20
0.0
 30
0.0
  0
XRECORD
  5
65D5
102
{ACAD_REACTORS
330
65BD
102
}
330
65BD
100
AcDbXrecord
340
0
  0
XRECORD
  5
65D6
102
{ACAD_REACTORS
330
65BD
102
}
330
65BD
100
AcDbXrecord
 70
     0
  0
XRECORD
  5
65D7
102
{ACAD_REACTORS
330
65BD
102
}
330
65BD
100
AcDbXrecord
340
0
  0
XRECORD
  5
65D8
102
{ACAD_REACTORS
330
65BD
102
}
330
65BD
100
AcDbXrecord
 10
0.0
 20
0.0
 30
0.0
  0
XRECORD
  5
65D9
102
{ACAD_REACTORS
330
65BD
102
}
330
65BD
100
AcDbXrecord
 10
0.0
 20
0.0
 30
0.0
  0
XRECORD
  5
65DA
102
{ACAD_REACTORS
330
65BD
102
}
330
65BD
100
AcDbXrecord
 10
0.0
 20
0.0
 30
0.0
  0
XRECORD
  5
65DB
102
{ACAD_REACTORS
330
65BD
102
}
330
65BD
100
AcDbXrecord
 10
0.0
 20
0.0
 30
0.0
  0
XRECORD
  5
65DC
102
{ACAD_REACTORS
330
65BD
102
}
330
65BD
100
AcDbXrecord
 10
0.0
 20
0.0
 30
0.0
  0
XRECORD
  5
65DD
102
{ACAD_REACTORS
330
65BD
102
}
330
65BD
100
AcDbXrecord
 10
0.0
 20
0.0
 30
0.0
  0
LAYER_INDEX
  5
65B2
102
{ACAD_REACTORS
330
65B1
102
}
330
65B1
100
AcDbIndex
 40
2452941.604857847
100
AcDbLayerIndex
  8
0
360
65B3
 90
        0
  8
AM_0
360
65B4
 90
       32
  8
AM_5
360
65B5
 90
        8
  8
AM_11
360
65B6
 90
        2
  8
AM_7
360
65B7
 90
        2
  8
AM_6
360
65B8
 90
        3
  8
Defpoints
360
65B9
 90
        0
  8
AM_3
360
65BA
 90
        0
  8
PV0001_1
360
65BB
 90
        0
  0
XRECORD
  5
2D
102
{ACAD_REACTORS
330
2C
102
}
330
2C
100
AcDbXrecord
  1
VERSION
140
15.0
  1
PRODUCT
  2
AutoCAD Mechanical 2000
  0
IDBUFFER
  5
65B3
330
0
100
AcDbIdBuffer
  0
IDBUFFER
  5
65B4
330
0
100
AcDbIdBuffer
330
5F4F
330
5F50
330
5F51
330
5F52
330
5F53
330
5F59
330
5F5A
330
5F5C
330
5F5E
330
5F6F
330
5F70
330
5F71
330
5F72
330
5F74
330
5F77
330
5F78
330
5F39
330
5F3A
330
5F3B
330
5F3C
330
5F40
330
5F41
330
5F42
330
5F43
330
5F44
330
5F45
330
5F46
330
5F47
330
5F48
330
5F49
330
5F4A
330
5F4B
  0
IDBUFFER
  5
65B5
330
0
100
AcDbIdBuffer
330
5E7A
330
5E7B
330
6016
330
60E5
330
61B4
330
625C
330
62EA
330
63CC
  0
IDBUFFER
  5
65B6
330
0
100
AcDbIdBuffer
330
6252
330
6253
  0
IDBUFFER
  5
65B7
330
0
100
AcDbIdBuffer
330
5F5B
330
5F5D
  0
IDBUFFER
  5
65B8
330
0
100
AcDbIdBuffer
330
388D
330
5E79
330
5E7C
  0
IDBUFFER
  5
65B9
330
0
100
AcDbIdBuffer
  0
IDBUFFER
  5
65BA
330
0
100
AcDbIdBuffer
  0
IDBUFFER
  5
65BB
330
0
100
AcDbIdBuffer
  0
ENDSEC
  0
EOF
