  0
SECTION
  2
HEADER
  9
$ACADVER
  1
AC1014
  9
$ACADMAINTVER
 70
     9
  9
$DWGCODEPAGE
  3
ANSI_932
  9
$INSBASE
 10
0.0
 20
0.0
 30
0.0
  9
$EXTMIN
 10
-113.830097252443
 20
-32.79762737376964
 30
0.0
  9
$EXTMAX
 10
26.82102474283553
 20
29.51146360764213
 30
0.0
  9
$LIMMIN
 10
-122.0050106322274
 20
-43.11303024763427
  9
$LIMMAX
 10
36.85323799649211
 20
35.14197184576778
  9
$ORTHOMODE
 70
     0
  9
$REGENMODE
 70
     1
  9
$FILLMODE
 70
     1
  9
$QTEXTMODE
 70
     0
  9
$MIRRTEXT
 70
     0
  9
$DRAGMODE
 70
     2
  9
$LTSCALE
 40
1.0
  9
$OSMODE
 70
  2103
  9
$ATTMODE
 70
     1
  9
$TEXTSIZE
 40
2.5
  9
$TRACEWID
 40
1.0
  9
$TEXTSTYLE
  7
STANDARD
  9
$CLAYER
  8
AM_0
  9
$CELTYPE
  6
BYLAYER
  9
$CECOLOR
 62
   256
  9
$CELTSCALE
 40
1.0
  9
$DELOBJ
 70
     1
  9
$DISPSILH
 70
     0
  9
$DIMSCALE
 40
0.5
  9
$DIMASZ
 40
2.5
  9
$DIMEXO
 40
1.0
  9
$DIMDLI
 40
12.0
  9
$DIMRND
 40
0.0
  9
$DIMDLE
 40
0.0
  9
$DIMEXE
 40
1.0
  9
$DIMTP
 40
0.1
  9
$DIMTM
 40
0.1
  9
$DIMTXT
 40
3.2
  9
$DIMCEN
 40
0.0
  9
$DIMTSZ
 40
0.0
  9
$DIMTOL
 70
     0
  9
$DIMLIM
 70
     0
  9
$DIMTIH
 70
     0
  9
$DIMTOH
 70
     0
  9
$DIMSE1
 70
     0
  9
$DIMSE2
 70
     0
  9
$DIMTAD
 70
     3
  9
$DIMZIN
 70
     8
  9
$DIMBLK
  1
OPEN30
  9
$DIMASO
 70
     1
  9
$DIMSHO
 70
     1
  9
$DIMPOST
  1

  9
$DIMAPOST
  1
"
  9
$DIMALT
 70
     0
  9
$DIMALTD
 70
     2
  9
$DIMALTF
 40
0.0393701
  9
$DIMLFAC
 40
1.0
  9
$DIMTOFL
 70
     1
  9
$DIMTVP
 40
0.0
  9
$DIMTIX
 70
     0
  9
$DIMSOXD
 70
     0
  9
$DIMSAH
 70
     0
  9
$DIMBLK1
  1

  9
$DIMBLK2
  1

  9
$DIMSTYLE
  2
AM_JIS
  9
$DIMCLRD
 70
   256
  9
$DIMCLRE
 70
   256
  9
$DIMCLRT
 70
     2
  9
$DIMTFAC
 40
0.71
  9
$DIMGAP
 40
1.5
  9
$DIMJUST
 70
     0
  9
$DIMSD1
 70
     0
  9
$DIMSD2
 70
     0
  9
$DIMTOLJ
 70
     0
  9
$DIMTZIN
 70
     0
  9
$DIMALTZ
 70
     0
  9
$DIMALTTZ
 70
     0
  9
$DIMFIT
 70
     3
  9
$DIMUPT
 70
     0
  9
$DIMUNIT
 70
     2
  9
$DIMDEC
 70
     3
  9
$DIMTDEC
 70
     3
  9
$DIMALTU
 70
     2
  9
$DIMALTTD
 70
     2
  9
$DIMTXSTY
  7
ASAMI
  9
$DIMAUNIT
 70
     0
  9
$LUNITS
 70
     2
  9
$LUPREC
 70
     2
  9
$SKETCHINC
 40
1.0
  9
$FILLETRAD
 40
0.4
  9
$AUNITS
 70
     0
  9
$AUPREC
 70
     0
  9
$MENU
  1
.
  9
$ELEVATION
 40
0.0
  9
$PELEVATION
 40
0.0
  9
$THICKNESS
 40
0.0
  9
$LIMCHECK
 70
     1
  9
$BLIPMODE
 70
     0
  9
$CHAMFERA
 40
1.0
  9
$CHAMFERB
 40
1.0
  9
$CHAMFERC
 40
20.0
  9
$CHAMFERD
 40
0.0
  9
$SKPOLY
 70
     0
  9
$TDCREATE
 40
2452802.716478761
  9
$TDUPDATE
 40
2452941.605044294
  9
$TDINDWG
 40
0.7445284838
  9
$TDUSRTIMER
 40
0.7445284838
  9
$USRTIMER
 70
     1
  9
$ANGBASE
 50
0.0
  9
$ANGDIR
 70
     0
  9
$PDMODE
 70
     0
  9
$PDSIZE
 40
0.0
  9
$PLINEWID
 40
0.0
  9
$COORDS
 70
     0
  9
$SPLFRAME
 70
     0
  9
$SPLINETYPE
 70
     6
  9
$SPLINESEGS
 70
     8
  9
$ATTDIA
 70
     1
  9
$ATTREQ
 70
     1
  9
$HANDLING
 70
 12289
  9
$HANDSEED
  5
6168
  9
$SURFTAB1
 70
     6
  9
$SURFTAB2
 70
     6
  9
$SURFTYPE
 70
     6
  9
$SURFU
 70
     6
  9
$SURFV
 70
     6
  9
$UCSNAME
  2

  9
$UCSORG
 10
-0.0000000000002682
 20
0.000000000000161
 30
0.0
  9
$UCSXDIR
 10
1.0
 20
0.000000000000002
 30
0.0
  9
$UCSYDIR
 10
-0.000000000000002
 20
1.0
 30
0.0
  9
$PUCSNAME
  2

  9
$PUCSORG
 10
0.0
 20
0.0
 30
0.0
  9
$PUCSXDIR
 10
1.0
 20
0.0
 30
0.0
  9
$PUCSYDIR
 10
0.0
 20
1.0
 30
0.0
  9
$USERI1
 70
     0
  9
$USERI2
 70
     0
  9
$USERI3
 70
     0
  9
$USERI4
 70
     0
  9
$USERI5
 70
     0
  9
$USERR1
 40
0.0
  9
$USERR2
 40
0.0
  9
$USERR3
 40
0.0
  9
$USERR4
 40
0.0
  9
$USERR5
 40
0.0
  9
$WORLDVIEW
 70
     1
  9
$SHADEDGE
 70
     3
  9
$SHADEDIF
 70
    70
  9
$TILEMODE
 70
     1
  9
$MAXACTVP
 70
    64
  9
$PINSBASE
 10
0.0
 20
0.0
 30
0.0
  9
$PLIMCHECK
 70
     0
  9
$PEXTMIN
 10
1.000000000000000E+20
 20
1.000000000000000E+20
 30
1.000000000000000E+20
  9
$PEXTMAX
 10
-1.000000000000000E+20
 20
-1.000000000000000E+20
 30
-1.000000000000000E+20
  9
$PLIMMIN
 10
0.0
 20
0.0
  9
$PLIMMAX
 10
841.0
 20
594.0
  9
$UNITMODE
 70
     0
  9
$VISRETAIN
 70
     1
  9
$PLINEGEN
 70
     0
  9
$PSLTSCALE
 70
     0
  9
$TREEDEPTH
 70
  3020
  9
$PICKSTYLE
 70
     0
  9
$CMLSTYLE
  2
STANDARD
  9
$CMLJUST
 70
     0
  9
$CMLSCALE
 40
20.0
  9
$PROXYGRAPHICS
 70
     1
  9
$MEASUREMENT
 70
     1
  0
ENDSEC
  0
SECTION
  2
CLASSES
  0
CLASS
  1
ACDBDICTIONARYWDFLT
  2
AcDbDictionaryWithDefault
  3
AutoCAD 2000
 90
        0
280
     0
281
     0
  0
CLASS
  1
ACDBPLACEHOLDER
  2
AcDbPlaceHolder
  3
AutoCAD 2000
 90
        0
280
     0
281
     0
  0
CLASS
  1
LAYOUT
  2
AcDbLayout
  3
AutoCAD 2000
 90
        0
280
     0
281
     0
  0
CLASS
  1
AMGSETTINGSOBJ
  2
AmgSettingsObj
  3
"AcadM|Product Description: AutoCAD Mechanical 2000|Company: Autodesk"
 90
        0
280
     0
281
     0
  0
CLASS
  1
ACME_DOCUMENT
  2
AcMeDbDoc
  3
AcMeServices
 90
        0
280
     0
281
     0
  0
CLASS
  1
ACMESCOPE
  2
AcMeScope
  3
AcMeServices
 90
        0
280
     0
281
     0
  0
CLASS
  1
ACMECOMMANDHISTORY
  2
AcMeCommandHistory
  3
AcMeServices
 90
        0
280
     0
281
     0
  0
CLASS
  1
DICTIONARYVAR
  2
AcDbDictionaryVar
  3
AutoCAD 2000
 90
        0
280
     0
281
     0
  0
CLASS
  1
ACIMSYSVARMAN
  2
AcImSysVarManager
  3
AcMeServices
 90
        0
280
     0
281
     0
  0
CLASS
  1
ACIMREALSYSVAR
  2
AcImRealSysVar
  3
AcMeServices
 90
        0
280
     0
281
     0
  0
CLASS
  1
ACIMINTSYSVAR
  2
AcImIntSysVar
  3
AcMeServices
 90
        0
280
     0
281
     0
  0
CLASS
  1
ACMEDRAWINGMAN
  2
AcMeDrawingMan
  3
AcMeServices
 90
        0
280
     0
281
     0
  0
CLASS
  1
ACMEVIEW
  2
AcMeView
  3
AcMeServices
 90
        0
280
     0
281
     0
  0
CLASS
  1
ACDBENTITYCACHE
  2
AcMeEntityCache
  3
AcMeServices
 90
        0
280
     0
281
     0
  0
CLASS
  1
GSMANAGER
  2
AcMeGSManager
  3
AcMeServices
 90
        0
280
     0
281
     0
  0
CLASS
  1
AmdtInternalReactor
  2
AmdtInternalReactor
  3
AcMeServices
 90
        0
280
     0
281
     0
  0
CLASS
  1
ACMESTATEMGR
  2
AcMeStateMgr
  3
AcMeServices
 90
        0
280
     0
281
     0
  0
CLASS
  1
ACME_DATABASE
  2
AcMeDbDatabase
  3
AcMeServices
 90
        0
280
     0
281
     0
  0
CLASS
  1
ACRFINSADJUSTERMGR
  2
AcRfInsAdjusterMgr
  3
AcMeServices
 90
        0
280
     0
281
     0
  0
CLASS
  1
ACMDATADICTIONARY
  2
AcmDataDictionary
  3
"AcmSymBB|Product Description: AutoCAD Mechanical 2000|Company: Autodesk"
 90
        0
280
     0
281
     0
  0
CLASS
  1
ACMDATAENTRYBLOCK
  2
AcmDataEntryBlock
  3
"AcmSymBB|Product Description: AutoCAD Mechanical 2000|Company: Autodesk"
 90
        0
280
     0
281
     0
  0
CLASS
  1
AMGOBJPROPCFG
  2
AmgObjPropCfg
  3
"AmgLay|Product Description: AutoCAD Mechanical 2000|Company: Autodesk"
 90
        1
280
     0
281
     0
  0
CLASS
  1
ACAMGFILTERDAT
  2
AcAmgFilterDat
  3
"AcadM|Product Description: AutoCAD Mechanical 2000|Company: Autodesk"
 90
        0
280
     0
281
     0
  0
CLASS
  1
LAYER_INDEX
  2
AcDbLayerIndex
  3
AutoCAD 2000
 90
        0
280
     0
281
     0
  0
CLASS
  1
IDBUFFER
  2
AcDbIdBuffer
  3
AutoCAD 2000
 90
        0
280
     0
281
     0
  0
CLASS
  1
ACIMSTRSYSVAR
  2
AcImStrSysVar
  3
AcMeServices
 90
        0
280
     0
281
     0
  0
CLASS
  1
ACMSTANDARDJIS
  2
AcmStandardJIS
  3
"AcmSymBB|Product Description: AutoCAD Mechanical 2000|Company: Autodesk"
 90
        0
280
     0
281
     0
  0
CLASS
  1
ACMSURFSTANDARDJIS
  2
AcmSurfTextStdJIS
  3
"AcmSymBB|Product Description: AutoCAD Mechanical 2000|Company: Autodesk"
 90
        0
280
     0
281
     0
  0
CLASS
  1
ACMFCFSTANDARDJIS
  2
AcmFCFStdJIS
  3
"AcmSymBB|Product Description: AutoCAD Mechanical 2000|Company: Autodesk"
 90
        0
280
     0
281
     0
  0
CLASS
  1
ACMWELDSTANDARDJIS
  2
AcmWeldingStdJIS
  3
"AcmSymBB|Product Description: AutoCAD Mechanical 2000|Company: Autodesk"
 90
        0
280
     0
281
     0
  0
CLASS
  1
ACMIDSTANDARDJIS
  2
AcmIdStdJIS
  3
"AcmSymBB|Product Description: AutoCAD Mechanical 2000|Company: Autodesk"
 90
        0
280
     0
281
     0
  0
CLASS
  1
ACMDATUMSTANDARDJIS
  2
AcmDatumStdJIS
  3
"AcmSymBB|Product Description: AutoCAD Mechanical 2000|Company: Autodesk"
 90
        0
280
     0
281
     0
  0
CLASS
  1
ACMBOMSTANDARDJIS
  2
AcmBOMStdJIS
  3
"AcmSymBB|Product Description: AutoCAD Mechanical 2000|Company: Autodesk"
 90
        0
280
     0
281
     0
  0
CLASS
  1
ACMSTANDARDANSI
  2
AcmStandardANSI
  3
"AcmSymBB|Product Description: AutoCAD Mechanical 2000|Company: Autodesk"
 90
        0
280
     0
281
     0
  0
CLASS
  1
ACMSURFSTANDARDANSI
  2
AcmSurfTextStdANSI
  3
"AcmSymBB|Product Description: AutoCAD Mechanical 2000|Company: Autodesk"
 90
        0
280
     0
281
     0
  0
CLASS
  1
ACMFCFSTANDARDANSI
  2
AcmFCFStdANSI
  3
"AcmSymBB|Product Description: AutoCAD Mechanical 2000|Company: Autodesk"
 90
        0
280
     0
281
     0
  0
CLASS
  1
ACMWELDSTANDARDANSI
  2
AcmWeldingStdANSI
  3
"AcmSymBB|Product Description: AutoCAD Mechanical 2000|Company: Autodesk"
 90
        0
280
     0
281
     0
  0
CLASS
  1
ACMIDSTANDARDANSI
  2
AcmIdStdANSI
  3
"AcmSymBB|Product Description: AutoCAD Mechanical 2000|Company: Autodesk"
 90
        0
280
     0
281
     0
  0
CLASS
  1
ACMDATUMSTANDARDANSI
  2
AcmDatumStdANSI
  3
"AcmSymBB|Product Description: AutoCAD Mechanical 2000|Company: Autodesk"
 90
        0
280
     0
281
     0
  0
CLASS
  1
ACMBOMSTANDARDANSI
  2
AcmBOMStdANSI
  3
"AcmSymBB|Product Description: AutoCAD Mechanical 2000|Company: Autodesk"
 90
        0
280
     0
281
     0
  0
CLASS
  1
ACMSTANDARDBSI
  2
AcmStandardBSI
  3
"AcmSymBB|Product Description: AutoCAD Mechanical 2000|Company: Autodesk"
 90
        0
280
     0
281
     0
  0
CLASS
  1
ACMSURFSTANDARDBSI
  2
AcmSurfTextStdBSI
  3
"AcmSymBB|Product Description: AutoCAD Mechanical 2000|Company: Autodesk"
 90
        0
280
     0
281
     0
  0
CLASS
  1
ACMFCFSTANDARDBSI
  2
AcmFCFStdBSI
  3
"AcmSymBB|Product Description: AutoCAD Mechanical 2000|Company: Autodesk"
 90
        0
280
     0
281
     0
  0
CLASS
  1
ACMWELDSTANDARDBSI
  2
AcmWeldingStdBSI
  3
"AcmSymBB|Product Description: AutoCAD Mechanical 2000|Company: Autodesk"
 90
        0
280
     0
281
     0
  0
CLASS
  1
ACMIDSTANDARDBSI
  2
AcmIdStdBSI
  3
"AcmSymBB|Product Description: AutoCAD Mechanical 2000|Company: Autodesk"
 90
        0
280
     0
281
     0
  0
CLASS
  1
ACMDATUMSTANDARDBSI
  2
AcmDatumStdBSI
  3
"AcmSymBB|Product Description: AutoCAD Mechanical 2000|Company: Autodesk"
 90
        0
280
     0
281
     0
  0
CLASS
  1
ACMBOMSTANDARDBSI
  2
AcmBOMStdBSI
  3
"AcmSymBB|Product Description: AutoCAD Mechanical 2000|Company: Autodesk"
 90
        0
280
     0
281
     0
  0
CLASS
  1
STDPART2D
  2
AmgStdPart
  3
"AmgStdPart|Product Description: AutoCAD Mechanical 2000|Company: Autodesk"
 90
     1023
280
     0
281
     1
  0
CLASS
  1
PLOTSETTINGS
  2
AcDbPlotSettings
  3
AutoCAD 2000
 90
        0
280
     0
281
     0
  0
CLASS
  1
LONG_TRANSACTION
  2
AcDbLongTransaction
  3
AutoCAD 2000
 90
        0
280
     0
281
     0
  0
CLASS
  1
LWPOLYLINE
  2
AcDbPolyline
  3
AutoCAD 2000
 90
        0
280
     0
281
     1
  0
CLASS
  1
HATCH
  2
AcDbHatch
  3
AutoCAD 2000
 90
        0
280
     0
281
     1
  0
CLASS
  1
XRECORD
  2
AcDbXrecord
  3
AutoCAD 2000
 90
        0
280
     0
281
     0
  0
ENDSEC
  0
SECTION
  2
TABLES
  0
TABLE
  2
VPORT
  5
8
330
0
100
AcDbSymbolTable
 70
     3
  0
VPORT
  5
6104
330
8
100
AcDbSymbolTableRecord
100
AcDbViewportTableRecord
  2
*ACTIVE
 70
     0
 10
0.0
 20
0.0
 11
1.0
 21
1.0
 12
-41.53921101246715
 22
-1.641425273184466
 13
0.0
 23
0.0
 14
2.5
 24
2.5
 15
10.0
 25
10.0
 16
0.0
 26
0.0
 36
1.0
 17
0.0
 27
0.0
 37
0.0
 40
90.20247208214836
 41
1.609042553191489
 42
50.0
 43
0.0
 44
0.0
 50
0.0
 51
0.0
 71
     0
 72
   100
 73
     1
 74
     3
 75
     0
 76
     0
 77
     0
 78
     0
  0
ENDTAB
  0
TABLE
  2
LTYPE
  5
5
330
0
100
AcDbSymbolTable
 70
    10
  0
LTYPE
  5
14
330
5
100
AcDbSymbolTableRecord
100
AcDbLinetypeTableRecord
  2
BYBLOCK
 70
     0
  3

 72
    65
 73
     0
 40
0.0
  0
LTYPE
  5
15
330
5
100
AcDbSymbolTableRecord
100
AcDbLinetypeTableRecord
  2
BYLAYER
 70
     0
  3

 72
    65
 73
     0
 40
0.0
  0
LTYPE
  5
16
330
5
100
AcDbSymbolTableRecord
100
AcDbLinetypeTableRecord
  2
CONTINUOUS
 70
     0
  3
Solid line
 72
    65
 73
     0
 40
0.0
  0
LTYPE
  5
4B
330
5
100
AcDbSymbolTableRecord
100
AcDbLinetypeTableRecord
  2
AM_ISO02W050
 70
     0
  3
__ __ __ __ __ __ __ __ __ __ __ __ __ __ __
 72
    65
 73
     2
 40
7.5
 49
6.0
 74
     0
 49
-1.5
 74
     0
  0
LTYPE
  5
4C
330
5
100
AcDbSymbolTableRecord
100
AcDbLinetypeTableRecord
  2
AM_ISO08W050
 70
     0
  3
____ . ____ . ____ . ____ . ____ . ____ . ____
 72
    65
 73
     4
 40
18.0
 49
12.0
 74
     0
 49
-1.5
 74
     0
 49
3.0
 74
     0
 49
-1.5
 74
     0
  0
LTYPE
  5
4D
330
5
100
AcDbSymbolTableRecord
100
AcDbLinetypeTableRecord
  2
AM_ISO09W050
 70
     0
  3
_____ . . _____ . . _____ . . ____ .. ____
 72
    65
 73
     6
 40
22.5
 49
12.0
 74
     0
 49
-1.5
 74
     0
 49
3.0
 74
     0
 49
-1.5
 74
     0
 49
3.0
 74
     0
 49
-1.5
 74
     0
  0
LTYPE
  5
4E
330
5
100
AcDbSymbolTableRecord
100
AcDbLinetypeTableRecord
  2
AMCONSTR
 70
     0
  3
_______________________
 72
    65
 73
     2
 40
9999.0
 49
9999.0
 74
     0
 49
0.0
 74
     0
  0
LTYPE
  5
4F
330
5
100
AcDbSymbolTableRecord
100
AcDbLinetypeTableRecord
  2
AM_ISO02W050X2
 70
     0
  3
 _ _ _ _ _ _ _ _ _ _ _ _
 72
    65
 73
     2
 40
3.75
 49
3.0
 74
     0
 49
-0.75
 74
     0
  0
LTYPE
  5
50
330
5
100
AcDbSymbolTableRecord
100
AcDbLinetypeTableRecord
  2
AM_ISO08W050X2
 70
     0
  3
__ . __ . __ . __ . __ . __
 72
    65
 73
     4
 40
9.0
 49
6.0
 74
     0
 49
-0.75
 74
     0
 49
1.5
 74
     0
 49
-0.75
 74
     0
  0
LTYPE
  5
53
330
5
100
AcDbSymbolTableRecord
100
AcDbLinetypeTableRecord
  2
AMZIGZAG
 70
     0
  3
/\/-/\/-/\/-/\/-/\/-/\/
 72
    65
 73
     2
 40
11.00009999999999
 49
0.0001
 74
     4
 75
   135
340
52
 46
0.04
 50
0.0
 44
0.0
 45
0.0
 49
-11.0
 74
     0
  0
LTYPE
  5
166
330
5
100
AcDbSymbolTableRecord
100
AcDbLinetypeTableRecord
  2
ACJISTGL
 70
     0
  3
_ _ _ _ _
 72
    65
 73
     2
 40
3.0
 49
2.0
 74
     0
 49
-1.0
 74
     0
  0
LTYPE
  5
26A
330
5
100
AcDbSymbolTableRecord
100
AcDbLinetypeTableRecord
  2
ACJISTGB
 70
     0
  3
__ . . __ . .
 72
    65
 73
     6
 40
9.0
 49
4.0
 74
     0
 49
-1.0
 74
     0
 49
1.0
 74
     0
 49
-1.0
 74
     0
 49
1.0
 74
     0
 49
-1.0
 74
     0
  0
ENDTAB
  0
TABLE
  2
LAYER
  5
2
330
0
100
AcDbSymbolTable
 70
     7
  0
LAYER
  5
10
330
2
100
AcDbSymbolTableRecord
100
AcDbLayerTableRecord
  2
0
 70
     0
 62
     7
  6
CONTINUOUS
  0
LAYER
  5
3F9
330
2
100
AcDbSymbolTableRecord
100
AcDbLayerTableRecord
  2
AM_0
 70
     0
 62
     7
  6
CONTINUOUS
  0
LAYER
  5
BA4
330
2
100
AcDbSymbolTableRecord
100
AcDbLayerTableRecord
  2
AM_5
 70
     0
 62
     3
  6
CONTINUOUS
  0
LAYER
  5
BA5
330
2
100
AcDbSymbolTableRecord
100
AcDbLayerTableRecord
  2
AM_11
 70
     0
 62
     3
  6
AM_ISO09W050
  0
LAYER
  5
BA6
330
2
100
AcDbSymbolTableRecord
100
AcDbLayerTableRecord
  2
AM_7
 70
     0
 62
     4
  6
AM_ISO08W050
  0
LAYER
  5
E64
330
2
100
AcDbSymbolTableRecord
100
AcDbLayerTableRecord
  2
AM_6
 70
     0
 62
     2
  6
CONTINUOUS
  0
LAYER
  5
F4D
330
2
100
AcDbSymbolTableRecord
100
AcDbLayerTableRecord
  2
DEFPOINTS
 70
     0
 62
     7
  6
CONTINUOUS
  0
ENDTAB
  0
TABLE
  2
STYLE
  5
3
330
0
100
AcDbSymbolTable
 70
     5
  0
STYLE
  5
11
330
3
100
AcDbSymbolTableRecord
100
AcDbTextStyleTableRecord
  2
STANDARD
 70
     0
 40
0.0
 41
1.0
 50
0.0
 71
     0
 42
2.5
  3
simplex.shx
  4
EXTFONT.SHX
  0
STYLE
  5
52
330
3
100
AcDbSymbolTableRecord
100
AcDbTextStyleTableRecord
  2

 70
     1
 40
0.0
 41
1.0
 50
0.0
 71
     0
 42
2.5
  3
ltypeshp.shx
  4

  0
STYLE
  5
6B
330
3
100
AcDbSymbolTableRecord
100
AcDbTextStyleTableRecord
  2
ASAMI
 70
     0
 40
0.0
 41
1.0
 50
0.0
 71
     0
 42
2.5
  3
simplex.shx
  4
EXTFONT.SHX
  0
STYLE
  5
262
330
3
100
AcDbSymbolTableRecord
100
AcDbTextStyleTableRecord
  2
ACJISTS
 70
     0
 40
1.0
 41
1.0
 50
0.0
 71
     0
 42
2.5
  3
simplex.shx
  4
bigfont.shx
  0
STYLE
  5
269
330
3
100
AcDbSymbolTableRecord
100
AcDbTextStyleTableRecord
  2
ACJISGDT
 70
     0
 40
0.0
 41
1.0
 50
0.0
 71
     0
 42
2.5
  3
amgdtans.shx
  4

  0
ENDTAB
  0
TABLE
  2
VIEW
  5
6
330
0
100
AcDbSymbolTable
 70
     0
  0
ENDTAB
  0
TABLE
  2
UCS
  5
7
330
0
100
AcDbSymbolTable
 70
     0
  0
ENDTAB
  0
TABLE
  2
APPID
  5
9
330
0
100
AcDbSymbolTable
 70
    24
  0
APPID
  5
12
330
9
100
AcDbSymbolTableRecord
100
AcDbRegAppTableRecord
  2
ACAD
 70
     0
  0
APPID
  5
30
330
9
100
AcDbSymbolTableRecord
100
AcDbRegAppTableRecord
  2
MCAD_NO_VIS
 70
     0
  0
APPID
  5
31
330
9
100
AcDbSymbolTableRecord
100
AcDbRegAppTableRecord
  2
ACAD_TEMP_GRAPHIC
 70
     0
  0
APPID
  5
2C2
330
9
100
AcDbSymbolTableRecord
100
AcDbRegAppTableRecord
  2
GENIUS_GENDTOL_13
 70
     0
  0
APPID
  5
339
330
9
100
AcDbSymbolTableRecord
100
AcDbRegAppTableRecord
  2
GENIUS_GENODEF_13
 70
     0
  0
APPID
  5
33A
330
9
100
AcDbSymbolTableRecord
100
AcDbRegAppTableRecord
  2
GENIUS_GENOBJ-N-RSBK_13
 70
     0
  0
APPID
  5
33B
330
9
100
AcDbSymbolTableRecord
100
AcDbRegAppTableRecord
  2
GENIUS_GENOBJ-N-LIB_13
 70
     0
  0
APPID
  5
33C
330
9
100
AcDbSymbolTableRecord
100
AcDbRegAppTableRecord
  2
GENIUS_GENSCALE_13
 70
     0
  0
APPID
  5
378
330
9
100
AcDbSymbolTableRecord
100
AcDbRegAppTableRecord
  2
GENIUS_GENDIMSH_14
 70
     0
  0
APPID
  5
BB0
330
9
100
AcDbSymbolTableRecord
100
AcDbRegAppTableRecord
  2
GENIUS_GENOBJ-N-CEN_13
 70
     0
  0
APPID
  5
BB1
330
9
100
AcDbSymbolTableRecord
100
AcDbRegAppTableRecord
  2
GENIUS_GENFIL_13
 70
     0
  0
APPID
  5
BB2
330
9
100
AcDbSymbolTableRecord
100
AcDbRegAppTableRecord
  2
GENIUS_GENOBJ-N-CHA_13
 70
     0
  0
APPID
  5
1FAF
330
9
100
AcDbSymbolTableRecord
100
AcDbRegAppTableRecord
  2
GENIUS_GENOBJ-N-CRS_13
 70
     0
  0
APPID
  5
1FB0
330
9
100
AcDbSymbolTableRecord
100
AcDbRegAppTableRecord
  2
GENIUS_GENOENT_13
 70
     0
  0
APPID
  5
1FB1
330
9
100
AcDbSymbolTableRecord
100
AcDbRegAppTableRecord
  2
GENIUS_GENOREF_13
 70
     0
  0
APPID
  5
1FB2
330
9
100
AcDbSymbolTableRecord
100
AcDbRegAppTableRecord
  2
GENIUS_GENOLIS_13
 70
     0
  0
APPID
  5
1FB7
330
9
100
AcDbSymbolTableRecord
100
AcDbRegAppTableRecord
  2
GENIUS_GENOBJ-N-FIL_13
 70
     0
  0
APPID
  5
22A8
330
9
100
AcDbSymbolTableRecord
100
AcDbRegAppTableRecord
  2
GEVID1056506048
 70
     0
  0
APPID
  5
22A9
330
9
100
AcDbSymbolTableRecord
100
AcDbRegAppTableRecord
  2
GEVDC
 70
     0
  0
APPID
  5
22AC
330
9
100
AcDbSymbolTableRecord
100
AcDbRegAppTableRecord
  2
GENIUS_GENBH_13
 70
     0
  0
APPID
  5
22B8
330
9
100
AcDbSymbolTableRecord
100
AcDbRegAppTableRecord
  2
GENIUS_GENOBJ-NBEHI-BHF_13
 70
     0
  0
APPID
  5
22BA
330
9
100
AcDbSymbolTableRecord
100
AcDbRegAppTableRecord
  2
GENIUS_GENOBJ-NBEHI-BHB_13
 70
     0
  0
APPID
  5
35C9
330
9
100
AcDbSymbolTableRecord
100
AcDbRegAppTableRecord
  2
GENIUS_GENREC_14
 70
     0
  0
APPID
  5
35CA
330
9
100
AcDbSymbolTableRecord
100
AcDbRegAppTableRecord
  2
GENIUS_GENOBJ-N-REC_13
 70
     0
  0
ENDTAB
  0
TABLE
  2
DIMSTYLE
  5
A
330
0
100
AcDbSymbolTable
 70
     9
  0
DIMSTYLE
105
58
330
A
100
AcDbSymbolTableRecord
100
AcDbDimStyleTableRecord
  2
AM_JIS
 70
     0
  3

  4
"
  5
OPEN30
  6

  7

 40
0.5
 41
2.5
 42
1.0
 43
12.0
 44
1.0
 45
0.0
 46
0.0
 47
0.1
 48
0.1
140
3.2
141
0.0
142
0.0
143
0.0393701
144
1.0
145
0.0
146
0.71
147
1.5
 71
     0
 72
     0
 73
     0
 74
     0
 75
     0
 76
     0
 77
     3
 78
     8
170
     0
171
     2
172
     1
173
     0
174
     0
175
     0
176
   256
177
   256
178
     2
270
     2
271
     3
272
     3
273
     2
274
     2
340
6B
275
     0
280
     0
281
     0
282
     0
283
     0
284
     0
285
     0
286
     0
287
     3
288
     0
  0
DIMSTYLE
105
5F
330
A
100
AcDbSymbolTableRecord
100
AcDbDimStyleTableRecord
  2
AM_JIS$3
 70
     0
  3

  4
"
  5
OPEN30
  6

  7

 40
0.5
 41
2.5
 42
1.0
 43
10.0
 44
1.0
 45
0.0
 46
0.0
 47
0.1
 48
0.1
140
3.2
141
0.0
142
0.0
143
0.0393701
144
1.0
145
0.0
146
0.71
147
1.5
 71
     0
 72
     0
 73
     0
 74
     1
 75
     0
 76
     0
 77
     3
 78
     8
170
     0
171
     2
172
     0
173
     0
174
     0
175
     0
176
   256
177
   256
178
     2
270
     2
271
     2
272
     3
273
     2
274
     2
340
6B
275
     0
280
     0
281
     0
282
     0
283
     0
284
     0
285
     0
286
     0
287
     0
288
     1
  0
DIMSTYLE
105
60
330
A
100
AcDbSymbolTableRecord
100
AcDbDimStyleTableRecord
  2
AM_JIS$4
 70
     0
  3

  4
"
  5
OPEN30
  6

  7

 40
0.5
 41
2.5
 42
1.0
 43
10.0
 44
1.0
 45
0.0
 46
0.0
 47
0.1
 48
0.1
140
3.2
141
0.0
142
0.0
143
0.0393701
144
1.0
145
0.0
146
0.71
147
1.5
 71
     0
 72
     0
 73
     0
 74
     1
 75
     0
 76
     0
 77
     3
 78
     8
170
     0
171
     2
172
     0
173
     0
174
     0
175
     0
176
   256
177
   256
178
     2
270
     2
271
     2
272
     3
273
     2
274
     2
340
6B
275
     0
280
     0
281
     0
282
     0
283
     0
284
     0
285
     0
286
     0
287
     0
288
     1
  0
DIMSTYLE
105
61
330
A
100
AcDbSymbolTableRecord
100
AcDbDimStyleTableRecord
  2
AM_JIS$6
 70
     0
  3

  4
"
  5
OPEN30
  6

  7

 40
0.5
 41
2.5
 42
1.0
 43
10.0
 44
1.0
 45
0.0
 46
0.0
 47
0.1
 48
0.1
140
3.2
141
0.0
142
0.0
143
0.0393701
144
1.0
145
0.0
146
0.71
147
1.5
 71
     0
 72
     0
 73
     0
 74
     0
 75
     0
 76
     0
 77
     0
 78
     8
170
     0
171
     2
172
     1
173
     0
174
     0
175
     0
176
   256
177
   256
178
     2
270
     2
271
     2
272
     2
273
     2
274
     2
340
6B
275
     0
280
     0
281
     0
282
     0
283
     0
284
     0
285
     0
286
     0
287
     3
288
     0
  0
DIMSTYLE
105
62
330
A
100
AcDbSymbolTableRecord
100
AcDbDimStyleTableRecord
  2
AM_JIS$7
 70
     0
  3

  4
"
  5
OPEN30
  6

  7

 40
0.5
 41
2.5
 42
1.0
 43
10.0
 44
1.0
 45
0.0
 46
0.0
 47
0.1
 48
0.1
140
3.2
141
0.0
142
0.0
143
0.0393701
144
1.0
145
0.0
146
0.71
147
1.5
 71
     0
 72
     0
 73
     0
 74
     0
 75
     0
 76
     0
 77
     3
 78
     8
170
     0
171
     2
172
     1
173
     0
174
     0
175
     0
176
   256
177
   256
178
     2
270
     2
271
     2
272
     3
273
     2
274
     2
340
6B
275
     0
280
     0
281
     0
282
     0
283
     0
284
     0
285
     0
286
     0
287
     3
288
     0
  0
DIMSTYLE
105
63
330
A
100
AcDbSymbolTableRecord
100
AcDbDimStyleTableRecord
  2
AM_JIS$SF
 70
     0
  3

  4
"
  5
OPEN30
  6

  7

 40
0.5
 41
2.5
 42
1.0
 43
10.0
 44
1.0
 45
0.0
 46
0.0
 47
0.1
 48
0.1
140
3.2
141
0.0
142
0.0
143
0.0393701
144
1.0
145
0.0
146
0.71
147
1.5
 71
     0
 72
     0
 73
     0
 74
     0
 75
     1
 76
     1
 77
     3
 78
     8
170
     0
171
     2
172
     1
173
     0
174
     0
175
     0
176
   256
177
   256
178
     2
270
     2
271
     2
272
     2
273
     2
274
     2
340
6B
275
     0
280
     0
281
     0
282
     0
283
     0
284
     0
285
     0
286
     0
287
     3
288
     0
  0
DIMSTYLE
105
68
330
A
100
AcDbSymbolTableRecord
100
AcDbDimStyleTableRecord
  2
AM_JIS$SH
 70
     0
  3

  4
"
  5

  6
GENAXEH
  7
OPEN30
 40
0.5
 41
2.5
 42
1.0
 43
10.0
 44
1.0
 45
0.0
 46
0.0
 47
0.1
 48
0.1
140
3.2
141
0.0
142
0.0
143
0.0393701
144
2.0
145
0.0
146
0.71
147
1.5
 71
     0
 72
     0
 73
     0
 74
     0
 75
     1
 76
     1
 77
     3
 78
     8
170
     0
171
     2
172
     1
173
     1
174
     0
175
     0
176
   256
177
   256
178
     2
270
     2
271
     2
272
     2
273
     2
274
     2
340
6B
275
     0
280
     0
281
     0
282
     0
283
     0
284
     0
285
     0
286
     0
287
     3
288
     0
  0
DIMSTYLE
105
B34
102
{ACAD_REACTORS
330
5D64
330
5ED4
102
}
330
A
100
AcDbSymbolTableRecord
100
AcDbDimStyleTableRecord
  2
AM_JIS$2
 70
     0
  3

  4
"
  5
OPEN30
  6

  7

 40
0.5
 41
2.5
 42
1.0
 43
12.0
 44
1.0
 45
0.0
 46
0.0
 47
0.1
 48
0.1
140
3.2
141
0.0
142
0.0
143
0.0393701
144
1.0
145
0.0
146
0.71
147
1.5
 71
     0
 72
     0
 73
     0
 74
     0
 75
     0
 76
     0
 77
     3
 78
     8
170
     0
171
     2
172
     1
173
     0
174
     0
175
     0
176
   256
177
   256
178
     2
270
     2
271
     3
272
     3
273
     2
274
     2
340
6B
275
     0
280
     0
281
     0
282
     0
283
     0
284
     0
285
     0
286
     0
287
     3
288
     0
  0
DIMSTYLE
105
3B48
102
{ACAD_REACTORS
330
56DE
330
57B0
330
585B
330
5A17
330
5C34
102
}
330
A
100
AcDbSymbolTableRecord
100
AcDbDimStyleTableRecord
  2
AM_JIS$0
 70
     0
  3

  4
"
  5
OPEN30
  6

  7

 40
1.0
 41
2.5
 42
0.0
 43
10.0
 44
1.0
 45
0.0
 46
0.0
 47
0.1
 48
0.1000000001
140
3.799999999999999
141
0.0
142
0.0
143
0.0393701
144
1.0
145
0.0
146
0.71
147
1.5
 71
     0
 72
     0
 73
     0
 74
     0
 75
     0
 76
     0
 77
     3
 78
     1
170
     0
171
     2
172
     1
173
     0
174
     0
175
     0
176
     3
177
     3
178
     2
270
     2
271
     2
272
     2
273
     2
274
     2
340
11
275
     1
280
     0
281
     0
282
     0
283
     0
284
     8
285
     0
286
     0
287
     0
288
     0
  0
ENDTAB
  0
TABLE
  2
BLOCK_RECORD
  5
1
330
0
100
AcDbSymbolTable
 70
    14
  0
BLOCK_RECORD
  5
1F
102
{ACAD_XDICTIONARY
360
74
102
}
330
1
100
AcDbSymbolTableRecord
100
AcDbBlockTableRecord
  2
*MODEL_SPACE
  0
BLOCK_RECORD
  5
101
102
{ACAD_XDICTIONARY
360
612D
102
}
330
1
100
AcDbSymbolTableRecord
100
AcDbBlockTableRecord
  2
*PAPER_SPACE
  0
BLOCK_RECORD
  5
59
330
1
100
AcDbSymbolTableRecord
100
AcDbBlockTableRecord
  2
_OPEN30
  0
BLOCK_RECORD
  5
64
330
1
100
AcDbSymbolTableRecord
100
AcDbBlockTableRecord
  2
GENAXEH
  0
BLOCK_RECORD
  5
56DF
330
1
100
AcDbSymbolTableRecord
100
AcDbBlockTableRecord
  2
*D5
  0
BLOCK_RECORD
  5
57B1
330
1
100
AcDbSymbolTableRecord
100
AcDbBlockTableRecord
  2
*D6
  0
BLOCK_RECORD
  5
585C
330
1
100
AcDbSymbolTableRecord
100
AcDbBlockTableRecord
  2
*D7
  0
BLOCK_RECORD
  5
5A18
330
1
100
AcDbSymbolTableRecord
100
AcDbBlockTableRecord
  2
*D8
  0
BLOCK_RECORD
  5
5C35
330
1
100
AcDbSymbolTableRecord
100
AcDbBlockTableRecord
  2
*D9
  0
BLOCK_RECORD
  5
5D65
330
1
100
AcDbSymbolTableRecord
100
AcDbBlockTableRecord
  2
*D10
  0
BLOCK_RECORD
  5
5ED5
330
1
100
AcDbSymbolTableRecord
100
AcDbBlockTableRecord
  2
*D11
  0
BLOCK_RECORD
  5
6091
330
1
100
AcDbSymbolTableRecord
100
AcDbBlockTableRecord
  2
*U12
  0
BLOCK_RECORD
  5
6095
330
1
100
AcDbSymbolTableRecord
100
AcDbBlockTableRecord
  2
*U13
  0
ENDTAB
  0
ENDSEC
  0
SECTION
  2
BLOCKS
  0
BLOCK
  5
20
330
1F
100
AcDbEntity
  8
0
100
AcDbBlockBegin
  2
*MODEL_SPACE
 70
     0
 10
0.0
 20
0.0
 30
0.0
  3
*MODEL_SPACE
  1

  0
ENDBLK
  5
21
330
1F
100
AcDbEntity
  8
0
100
AcDbBlockEnd
  0
BLOCK
  5
103
330
101
100
AcDbEntity
 67
     1
  8
0
100
AcDbBlockBegin
  2
*PAPER_SPACE
 70
     0
 10
0.0
 20
0.0
 30
0.0
  3
*PAPER_SPACE
  1

  0
ENDBLK
  5
104
330
101
100
AcDbEntity
 67
     1
  8
0
100
AcDbBlockEnd
  0
BLOCK
  5
5D
330
59
100
AcDbEntity
  8
0
100
AcDbBlockBegin
  2
_OPEN30
 70
     0
 10
0.0
 20
0.0
 30
0.0
  3
_OPEN30
  1

  0
LINE
  5
5A
330
59
100
AcDbEntity
  8
0
 62
     0
100
AcDbLine
 10
-1.0
 20
0.26794919
 30
0.0
 11
0.0
 21
0.0
 31
0.0
  0
LINE
  5
5B
330
59
100
AcDbEntity
  8
0
 62
     0
100
AcDbLine
 10
0.0
 20
0.0
 30
0.0
 11
-1.0
 21
-0.26794919
 31
0.0
  0
LINE
  5
5C
330
59
100
AcDbEntity
  8
0
 62
     0
100
AcDbLine
 10
0.0
 20
0.0
 30
0.0
 11
-1.0
 21
0.0
 31
0.0
  0
ENDBLK
  5
5E
330
59
100
AcDbEntity
  8
0
100
AcDbBlockEnd
  0
BLOCK
  5
66
330
64
100
AcDbEntity
  8
0
100
AcDbBlockBegin
  2
GENAXEH
 70
     0
 10
0.0
 20
0.0
 30
0.0
  3
GENAXEH
  1

  0
LINE
  5
65
330
64
100
AcDbEntity
  8
0
100
AcDbLine
 10
-1.0
 20
0.0
 30
0.0
 11
1.0
 21
0.0
 31
0.0
  0
ENDBLK
  5
67
330
64
100
AcDbEntity
  8
0
100
AcDbBlockEnd
  0
BLOCK
  5
56E9
330
56DF
100
AcDbEntity
  8
0
100
AcDbBlockBegin
  2
*D5
 70
     1
 10
0.0
 20
0.0
 30
0.0
  3
*D5
  1

  0
LINE
  5
612F
330
56DF
100
AcDbEntity
  8
AM_5
100
AcDbLine
 10
-100.5000000000002
 20
-2.000000000000194
 30
0.0
 11
-111.9800972524431
 21
-2.000000000000216
 31
0.0
  0
LINE
  5
6130
330
56DF
100
AcDbEntity
  8
AM_5
100
AcDbLine
 10
-100.5000000000001
 20
-12.00000000000019
 30
0.0
 11
-111.980097252443
 21
-12.00000000000021
 31
0.0
  0
LINE
  5
6131
330
56DF
100
AcDbEntity
  8
AM_5
100
AcDbLine
 10
-111.480097252443
 20
-3.250000000000215
 30
0.0
 11
-111.480097252443
 21
-10.75000000000021
 31
0.0
  0
INSERT
  5
6132
330
56DF
100
AcDbEntity
  8
AM_5
100
AcDbBlockReference
  2
_OPEN30
 10
-111.480097252443
 20
-2.000000000000215
 30
0.0
 41
1.25
 42
1.25
 43
1.25
 50
90.0000000000001
  0
INSERT
  5
6133
330
56DF
100
AcDbEntity
  8
AM_5
100
AcDbBlockReference
  2
_OPEN30
 10
-111.480097252443
 20
-12.00000000000021
 30
0.0
 41
1.25
 42
1.25
 43
1.25
 50
270.0000000000001
  0
MTEXT
  5
6134
330
56DF
100
AcDbEntity
  8
AM_5
 62
     2
100
AcDbMText
 10
-113.030097252443
 20
-7.000000000000214
 30
0.0
 40
1.6
 41
0.0
 71
     5
 72
     1
  1
10
  7
ASAMI
 11
-0.000000000000002
 21
1.0
 31
0.0
  0
POINT
  5
6135
330
56DF
100
AcDbEntity
  8
DEFPOINTS
 62
     0
100
AcDbPoint
 10
-100.0000000000002
 20
-1.999999999999971
 30
0.0
  0
POINT
  5
6136
330
56DF
100
AcDbEntity
  8
DEFPOINTS
 62
     0
100
AcDbPoint
 10
-100.0000000000002
 20
-11.99999999999997
 30
0.0
  0
POINT
  5
6137
330
56DF
100
AcDbEntity
  8
DEFPOINTS
 62
     0
100
AcDbPoint
 10
-111.480097252443
 20
-11.99999999999997
 30
0.0
  0
ENDBLK
  5
56EA
330
56DF
100
AcDbEntity
  8
0
100
AcDbBlockEnd
  0
BLOCK
  5
57BB
330
57B1
100
AcDbEntity
  8
0
100
AcDbBlockBegin
  2
*D6
 70
     1
 10
0.0
 20
0.0
 30
0.0
  3
*D6
  1

  0
LINE
  5
6138
330
57B1
100
AcDbEntity
  8
AM_5
100
AcDbLine
 10
-100.5000000000004
 20
29.51146360764176
 30
0.0
 11
-111.5793964859811
 21
29.51146360764174
 31
0.0
  0
LINE
  5
6139
330
57B1
100
AcDbEntity
  8
AM_5
100
AcDbLine
 10
-100.5000000000003
 20
19.51146360764176
 30
0.0
 11
-111.5793964859811
 21
19.51146360764174
 31
0.0
  0
LINE
  5
613A
330
57B1
100
AcDbEntity
  8
AM_5
100
AcDbLine
 10
-111.0793964859811
 20
28.26146360764174
 30
0.0
 11
-111.0793964859811
 21
20.76146360764174
 31
0.0
  0
INSERT
  5
613B
330
57B1
100
AcDbEntity
  8
AM_5
100
AcDbBlockReference
  2
_OPEN30
 10
-111.0793964859811
 20
29.51146360764174
 30
0.0
 41
1.25
 42
1.25
 43
1.25
 50
90.0000000000001
  0
INSERT
  5
613C
330
57B1
100
AcDbEntity
  8
AM_5
100
AcDbBlockReference
  2
_OPEN30
 10
-111.0793964859811
 20
19.51146360764174
 30
0.0
 41
1.25
 42
1.25
 43
1.25
 50
270.0000000000001
  0
MTEXT
  5
613D
330
57B1
100
AcDbEntity
  8
AM_5
 62
     2
100
AcDbMText
 10
-112.6293964859811
 20
24.51146360764174
 30
0.0
 40
1.6
 41
0.0
 71
     5
 72
     1
  1
10
  7
ASAMI
 11
-0.000000000000002
 21
1.0
 31
0.0
  0
POINT
  5
613E
330
57B1
100
AcDbEntity
  8
DEFPOINTS
 62
     0
100
AcDbPoint
 10
-100.0000000000003
 20
29.51146360764198
 30
0.0
  0
POINT
  5
613F
330
57B1
100
AcDbEntity
  8
DEFPOINTS
 62
     0
100
AcDbPoint
 10
-100.0000000000002
 20
19.51146360764198
 30
0.0
  0
POINT
  5
6140
330
57B1
100
AcDbEntity
  8
DEFPOINTS
 62
     0
100
AcDbPoint
 10
-111.079396485981
 20
19.51146360764198
 30
0.0
  0
ENDBLK
  5
57BC
330
57B1
100
AcDbEntity
  8
0
100
AcDbBlockEnd
  0
BLOCK
  5
5866
330
585C
100
AcDbEntity
  8
0
100
AcDbBlockBegin
  2
*D7
 70
     1
 10
0.0
 20
0.0
 30
0.0
  3
*D7
  1

  0
LINE
  5
6141
330
585C
100
AcDbEntity
  8
AM_5
100
AcDbLine
 10
-100.0000000000002
 20
-1.500000000000173
 30
0.0
 11
-100.0000000000002
 21
13.36680267460826
 31
0.0
  0
LINE
  5
6142
330
585C
100
AcDbEntity
  8
AM_5
100
AcDbLine
 10
-0.0000000000002674
 20
0.5000000000001421
 30
0.0
 11
-0.0000000000002698
 21
13.36680267460829
 31
0.0
  0
LINE
  5
6143
330
585C
100
AcDbEntity
  8
AM_5
100
AcDbLine
 10
-98.75000000000026
 20
12.86680267460826
 30
0.0
 11
-1.250000000000269
 21
12.86680267460829
 31
0.0
  0
INSERT
  5
6144
330
585C
100
AcDbEntity
  8
AM_5
100
AcDbBlockReference
  2
_OPEN30
 10
-100.0000000000002
 20
12.86680267460826
 30
0.0
 41
1.25
 42
1.25
 43
1.25
 50
180.0
  0
INSERT
  5
6145
330
585C
100
AcDbEntity
  8
AM_5
100
AcDbBlockReference
  2
_OPEN30
 10
-0.0000000000002697
 20
12.86680267460829
 30
0.0
 41
1.25
 42
1.25
 43
1.25
  0
MTEXT
  5
6146
330
585C
100
AcDbEntity
  8
AM_5
 62
     2
100
AcDbMText
 10
-50.00000000000026
 20
14.41680267460828
 30
0.0
 40
1.6
 41
0.0
 71
     5
 72
     1
  1
100
  7
ASAMI
  0
POINT
  5
6147
330
585C
100
AcDbEntity
  8
DEFPOINTS
 62
     0
100
AcDbPoint
 10
-100.0000000000002
 20
-1.999999999999971
 30
0.0
  0
POINT
  5
6148
330
585C
100
AcDbEntity
  8
DEFPOINTS
 62
     0
100
AcDbPoint
 10
-0.0000000000002673
 20
0.0000000000001421
 30
0.0
  0
POINT
  5
6149
330
585C
100
AcDbEntity
  8
DEFPOINTS
 62
     0
100
AcDbPoint
 10
-0.0000000000002437
 20
12.86680267460829
 30
0.0
  0
ENDBLK
  5
5867
330
585C
100
AcDbEntity
  8
0
100
AcDbBlockEnd
  0
BLOCK
  5
5A22
330
5A18
100
AcDbEntity
  8
0
100
AcDbBlockBegin
  2
*D8
 70
     1
 10
0.0
 20
0.0
 30
0.0
  3
*D8
  1

  0
LINE
  5
614A
330
5A18
100
AcDbEntity
  8
AM_5
100
AcDbLine
 10
0.4999999999997318
 20
0.0000000000001573
 30
0.0
 11
11.25766197946067
 21
0.0000000000001781
 31
0.0
  0
LINE
  5
614B
330
5A18
100
AcDbEntity
  8
AM_5
100
AcDbLine
 10
-4.68368125431848
 20
-11.99999999999987
 30
0.0
 11
11.2576619794607
 21
-11.99999999999984
 31
0.0
  0
LINE
  5
614C
330
5A18
100
AcDbEntity
  8
AM_5
100
AcDbLine
 10
10.75766197946067
 20
-1.249999999999822
 30
0.0
 11
10.75766197946069
 21
-10.74999999999984
 31
0.0
  0
INSERT
  5
614D
330
5A18
100
AcDbEntity
  8
AM_5
100
AcDbBlockReference
  2
_OPEN30
 10
10.75766197946067
 20
0.0000000000001772
 30
0.0
 41
1.25
 42
1.25
 43
1.25
 50
90.0000000000001
  0
INSERT
  5
614E
330
5A18
100
AcDbEntity
  8
AM_5
100
AcDbBlockReference
  2
_OPEN30
 10
10.75766197946069
 20
-11.99999999999984
 30
0.0
 41
1.25
 42
1.25
 43
1.25
 50
270.0000000000001
  0
MTEXT
  5
614F
330
5A18
100
AcDbEntity
  8
AM_5
 62
     2
100
AcDbMText
 10
9.207661979460688
 20
-5.999999999999838
 30
0.0
 40
1.6
 41
0.0
 71
     5
 72
     1
  1
12
  7
ASAMI
 11
-0.000000000000002
 21
1.0
 31
0.0
  0
POINT
  5
6150
330
5A18
100
AcDbEntity
  8
DEFPOINTS
 62
     0
100
AcDbPoint
 10
-0.0000000000002682
 20
0.0000000000001563
 30
0.0
  0
POINT
  5
6151
330
5A18
100
AcDbEntity
  8
DEFPOINTS
 62
     0
100
AcDbPoint
 10
-5.183681254318507
 20
-11.99999999999986
 30
0.0
  0
POINT
  5
6152
330
5A18
100
AcDbEntity
  8
DEFPOINTS
 62
     0
100
AcDbPoint
 10
10.75766197946067
 20
-11.99999999999987
 30
0.0
  0
ENDBLK
  5
5A23
330
5A18
100
AcDbEntity
  8
0
100
AcDbBlockEnd
  0
BLOCK
  5
5C3F
330
5C35
100
AcDbEntity
  8
0
100
AcDbBlockBegin
  2
*D9
 70
     1
 10
0.0
 20
0.0
 30
0.0
  3
*D9
  1

  0
LINE
  5
6153
330
5C35
100
AcDbEntity
  8
AM_5
100
AcDbLine
 10
0.0000032855421639
 20
29.51146360764211
 30
0.0
 11
11.25766197946079
 21
29.51146360764213
 31
0.0
  0
LINE
  5
6154
330
5C35
100
AcDbEntity
  8
AM_5
100
AcDbLine
 10
0.4999999999996343
 20
19.51146360764055
 30
0.0
 11
11.25766197946081
 21
19.51146360764057
 31
0.0
  0
LINE
  5
6155
330
5C35
100
AcDbEntity
  8
AM_5
100
AcDbLine
 10
10.75766197946079
 20
28.26146360764213
 30
0.0
 11
10.7576619794608
 21
20.76146360764057
 31
0.0
  0
INSERT
  5
6156
330
5C35
100
AcDbEntity
  8
AM_5
100
AcDbBlockReference
  2
_OPEN30
 10
10.75766197946079
 20
29.51146360764213
 30
0.0
 41
1.25
 42
1.25
 43
1.25
 50
90.0000000000001
  0
INSERT
  5
6157
330
5C35
100
AcDbEntity
  8
AM_5
100
AcDbBlockReference
  2
_OPEN30
 10
10.75766197946081
 20
19.51146360764057
 30
0.0
 41
1.25
 42
1.25
 43
1.25
 50
270.0000000000001
  0
MTEXT
  5
6158
330
5C35
100
AcDbEntity
  8
AM_5
 62
     2
100
AcDbMText
 10
9.2076619794608
 20
24.51146360764135
 30
0.0
 40
1.6
 41
0.0
 71
     5
 72
     1
  1
10
  7
ASAMI
 11
-0.000000000000002
 21
1.0
 31
0.0
  0
POINT
  5
6159
330
5C35
100
AcDbEntity
  8
DEFPOINTS
 62
     0
100
AcDbPoint
 10
-0.4999967144577706
 20
29.51146360764211
 30
0.0
  0
POINT
  5
615A
330
5C35
100
AcDbEntity
  8
DEFPOINTS
 62
     0
100
AcDbPoint
 10
-0.0000000000003224
 20
19.51146360764055
 30
0.0
  0
POINT
  5
615B
330
5C35
100
AcDbEntity
  8
DEFPOINTS
 62
     0
100
AcDbPoint
 10
10.75766197946085
 20
19.51146360764054
 30
0.0
  0
ENDBLK
  5
5C40
330
5C35
100
AcDbEntity
  8
0
100
AcDbBlockEnd
  0
BLOCK
  5
5D74
330
5D65
100
AcDbEntity
  8
0
100
AcDbBlockBegin
  2
*D10
 70
     1
 10
0.0
 20
0.0
 30
0.0
  3
*D10
  1

  0
LINE
  5
615C
330
5D65
100
AcDbEntity
  8
AM_5
100
AcDbLine
 10
-5.616693949797382
 20
-12.25000001110806
 30
0.0
 11
-18.48189661672644
 21
-19.67772867408473
 31
0.0
  0
ARC
  5
615D
330
5D65
100
AcDbEntity
  8
AM_5
100
AcDbCircle
 10
-5.183681254318482
 20
-11.99999999999987
 30
0.0
 40
14.85545666588421
100
AcDbArc
 50
170.3549421082985
 51
175.1774710541492
  0
ARC
  5
615E
330
5D65
100
AcDbEntity
  8
AM_5
100
AcDbCircle
 10
-5.183681254318482
 20
-11.99999999999987
 30
0.0
 40
14.85545666588421
100
AcDbArc
 50
214.822530415675
 51
219.6450593615258
  0
ARC
  5
615F
330
5D65
100
AcDbEntity
  8
AM_5
100
AcDbCircle
 10
-5.183681254318482
 20
-11.99999999999987
 30
0.0
 40
14.85545666588421
100
AcDbArc
 50
180.0000000000001
 51
210.0000014698242
  0
INSERT
  5
6160
330
5D65
100
AcDbEntity
  8
AM_5
100
AcDbBlockReference
  2
_OPEN30
 10
-20.0391379202027
 20
-11.99999999999991
 30
0.0
 41
1.25
 42
1.25
 43
1.25
 50
267.5887355270747
  0
INSERT
  5
6161
330
5D65
100
AcDbEntity
  8
AM_5
100
AcDbBlockReference
  2
_OPEN30
 10
-18.04888392124754
 20
-19.42772866297653
 30
0.0
 41
1.25
 42
1.25
 43
1.25
 50
122.4112659427496
  0
MTEXT
  5
6162
330
5D65
100
AcDbEntity
  8
AM_5
 62
     2
100
AcDbMText
 10
-18.03576543429492
 20
-15.44370575376603
 30
0.0
 40
1.6
 41
0.0
 71
     5
 72
     1
  1
30°
  7
ASAMI
 11
0.2588190574921021
 21
-0.96592582296929
 31
0.0
  0
POINT
  5
6163
330
5D65
100
AcDbEntity
  8
DEFPOINTS
 62
     0
100
AcDbPoint
 10
-19.81345013135958
 20
-14.57962310354119
 30
0.0
  0
POINT
  5
6164
330
5D65
100
AcDbEntity
  8
DEFPOINTS
 62
     0
100
AcDbPoint
 10
-5.183681254318505
 20
-11.99999999999986
 30
0.0
  0
POINT
  5
6165
330
5D65
100
AcDbEntity
  8
DEFPOINTS
 62
     0
100
AcDbPoint
 10
-1.29876790270553
 20
-9.75704409778676
 30
0.0
  0
POINT
  5
6166
330
5D65
100
AcDbEntity
  8
DEFPOINTS
 62
     0
100
AcDbPoint
 10
-5.183681254318505
 20
-11.99999999999986
 30
0.0
  0
POINT
  5
6167
330
5D65
100
AcDbEntity
  8
DEFPOINTS
 62
     0
100
AcDbPoint
 10
-100.0000000000002
 20
-11.99999999999997
 30
0.0
  0
ENDBLK
  5
5D75
330
5D65
100
AcDbEntity
  8
0
100
AcDbBlockEnd
  0
BLOCK
  5
5EE5
330
5ED5
100
AcDbEntity
  8
0
100
AcDbBlockBegin
  2
*D11
 70
     1
 10
0.0
 20
0.0
 30
0.0
  3
*D11
  1

  0
LINE
  5
5F9C
330
5ED5
100
AcDbEntity
  8
AM_5
100
AcDbLine
 10
-0.0000000000002716
 20
0.5000000000001645
 30
0.0
 11
-0.0000000000003295
 21
10.76653765052708
 31
0.0
  0
LINE
  5
5F9D
330
5ED5
100
AcDbEntity
  8
AM_5
100
AcDbLine
 10
-9.137634537018543
 20
0.0000033124637362
 30
0.0
 11
-10.76653765052647
 21
0.0000039029537868
 31
0.0
  0
ARC
  5
5F9E
330
5ED5
100
AcDbEntity
  8
AM_5
100
AcDbCircle
 10
-0.0000000000002688
 20
0.0000000000001645
 30
0.0
 40
10.26653765052691
100
AcDbArc
 50
96.98035097715651
 51
173.0196282526781
  0
INSERT
  5
5F9F
330
5ED5
100
AcDbEntity
  8
AM_5
100
AcDbBlockReference
  2
_OPEN30
 10
-0.0000000000003268
 20
10.26653765052708
 30
0.0
 41
1.25
 42
1.25
 43
1.25
 50
3.49017548857843
  0
INSERT
  5
5FA0
330
5ED5
100
AcDbEntity
  8
AM_5
100
AcDbBlockReference
  2
_OPEN30
 10
-10.26653765052651
 20
0.0000037216998985
 30
0.0
 41
1.25
 42
1.25
 43
1.25
 50
266.5098037412562
  0
MTEXT
  5
5FA1
330
5ED5
100
AcDbEntity
  8
AM_5
 62
     2
100
AcDbMText
 10
-8.355552388357265
 20
8.355555417310373
 30
0.0
 40
1.6
 41
0.0
 71
     5
 72
     1
  1
90°
  7
ASAMI
 11
0.7071069093523855
 21
0.7071066530206864
 31
0.0
1001
ACAD
1000
MTEXTBEGIN
1070
    73
1070
     1
1070
    44
1040
1.0
1070
    74
1070
     0
1000
MTEXTEND
  0
POINT
  5
5FA2
330
5ED5
100
AcDbEntity
  8
DEFPOINTS
 62
     0
100
AcDbPoint
 10
-5.133267750901531
 20
8.891083034549097
 30
0.0
  0
POINT
  5
5FA3
330
5ED5
100
AcDbEntity
  8
DEFPOINTS
 62
     0
100
AcDbPoint
 10
-8.637634537018577
 20
0.0000031312098656
 30
0.0
  0
POINT
  5
5FA4
330
5ED5
100
AcDbEntity
  8
DEFPOINTS
 62
     0
100
AcDbPoint
 10
-0.0000000000002674
 20
-0.399999854996766
 30
0.0
  0
POINT
  5
5FA5
330
5ED5
100
AcDbEntity
  8
DEFPOINTS
 62
     0
100
AcDbPoint
 10
-0.0000000000002682
 20
0.000000000000161
 30
0.0
  0
POINT
  5
5FA6
330
5ED5
100
AcDbEntity
  8
DEFPOINTS
 62
     0
100
AcDbPoint
 10
-0.3999998549971568
 20
0.000000145003223
 30
0.0
  0
ENDBLK
  5
5EE6
330
5ED5
100
AcDbEntity
  8
0
100
AcDbBlockEnd
  0
BLOCK
  5
6093
330
6091
100
AcDbEntity
  8
0
100
AcDbBlockBegin
  2
*U12
 70
     1
 10
0.0
 20
0.0
 30
0.0
  3
*U12
  1

  0
LEADER
  5
6092
330
6091
100
AcDbEntity
  8
0
  6
CONTINUOUS
 48
0.5
100
AcDbLeader
  3
AM_JIS$7
 76
     2
 10
-35.56723785400299
 20
61.482246398925
 30
0.0
 10
-35.56723785400299
 20
51.482246398925
 30
0.0
1001
ACAD
1000
DSTYLE
1002
{
1070
     6
1000
OPEN30
1070
   173
1070
     1
1070
   176
1070
     0
1070
   341
1005
59
1002
}
  0
ENDBLK
  5
6094
330
6091
100
AcDbEntity
  8
0
100
AcDbBlockEnd
  0
BLOCK
  5
6097
330
6095
100
AcDbEntity
  8
0
100
AcDbBlockBegin
  2
*U13
 70
     1
 10
0.0
 20
0.0
 30
0.0
  3
*U13
  1

  0
LEADER
  5
6096
330
6095
100
AcDbEntity
  8
0
  6
CONTINUOUS
 48
0.5
100
AcDbLeader
  3
AM_JIS$7
 76
     2
 10
-25.567237854003
 20
51.482246398925
 30
0.0
 10
-35.56723785400299
 20
51.482246398925
 30
0.0
1001
ACAD
1000
DSTYLE
1002
{
1070
     6
1000
OPEN30
1070
   173
1070
     1
1070
   176
1070
     0
1070
   341
1005
59
1002
}
  0
ENDBLK
  5
6098
330
6095
100
AcDbEntity
  8
0
100
AcDbBlockEnd
  0
ENDSEC
  0
SECTION
  2
ENTITIES
  0
TEXT
  5
388D
330
1F
100
AcDbEntity
  8
AM_6
100
AcDbText
 10
-64.90763666745987
 20
-32.79762737376961
 30
0.0
 40
2.5
  1
STGCR1010-09
 50
359.9999999999998
 51
359.9999999999998
 72
     4
 11
-51.09811285793606
 21
-31.54762737376964
 31
0.0
100
AcDbText
  0
LINE
  5
5479
330
1F
100
AcDbEntity
  8
AM_0
100
AcDbLine
 10
-8.883937403660373
 20
-0.7733879204461395
 30
0.0
 11
-14.69852622955681
 21
-0.8748826385849433
 31
0.0
  0
LINE
  5
547B
330
1F
100
AcDbEntity
  8
AM_0
100
AcDbLine
 10
-5.183681254318507
 20
-11.99999999999986
 30
0.0
 11
-100.0000000000002
 21
-11.99999999999997
 31
0.0
  0
LINE
  5
547C
330
1F
100
AcDbEntity
  8
AM_0
100
AcDbLine
 10
-8.797493363354842
 20
19.6764416349858
 30
0.0
 11
-16.83502352237574
 21
19.67644163498579
 31
0.0
  0
LINE
  5
5482
330
1F
100
AcDbEntity
  8
AM_0
100
AcDbLine
 10
-8.575104973893033
 20
20.89146467575572
 30
0.0
 11
-8.575104973893033
 21
21.89146467575572
 31
0.0
  0
LINE
  5
5483
330
1F
100
AcDbEntity
  8
AM_0
100
AcDbLine
 10
-8.968407067776691
 20
19.51146336922192
 30
0.0
 11
-8.948150287608156
 21
19.67644163498579
 31
0.0
  0
LINE
  5
5484
330
1F
100
AcDbEntity
  8
AM_0
100
AcDbLine
 10
-0.4999967144577591
 20
21.89146467575575
 30
0.0
 11
-0.4999967144577706
 21
29.51146360764211
 31
0.0
  0
LINE
  5
5485
330
1F
100
AcDbEntity
  8
AM_0
100
AcDbLine
 10
-0.0000000000003224
 20
19.51146360764055
 30
0.0
 11
-0.2922325134283268
 21
21.89146986135996
 31
0.0
  0
LINE
  5
5486
330
1F
100
AcDbEntity
  8
AM_0
100
AcDbLine
 10
-8.575104973893033
 20
21.89146467575572
 30
0.0
 11
-0.2922318767064089
 21
21.89146467575575
 31
0.0
  0
LINE
  5
5488
330
1F
100
AcDbEntity
  8
AM_0
100
AcDbLine
 10
-8.968407038502576
 20
19.51146360764053
 30
0.0
 11
-0.0000000000003251
 21
19.51146360764055
 31
0.0
  0
LINE
  5
548B
330
1F
100
AcDbEntity
  8
AM_0
100
AcDbLine
 10
-8.797493363354845
 20
19.67644163498579
 30
0.0
 11
-8.575104616265136
 21
20.89146473536043
 31
0.0
  0
LINE
  5
5491
330
1F
100
AcDbEntity
  8
AM_0
100
AcDbLine
 10
-0.5769358874150427
 20
-1.506462779071261
 30
0.0
 11
-1.29876790270553
 21
-9.75704409778676
 31
0.0
  0
LINE
  5
5493
330
1F
100
AcDbEntity
  8
AM_0
100
AcDbLine
 10
-8.984044783388386
 20
-0.599996972967861
 30
0.0
 11
-4.865224337094779
 21
-7.73399829850573
 31
0.0
  0
LINE
  5
5496
330
1F
100
AcDbEntity
  8
AM_7
100
AcDbLine
 10
-4.518816394393325
 20
-9.218966743541635
 30
0.0
 11
-4.518816394393381
 21
0.6471564671794634
 31
0.0
  0
LINE
  5
5497
330
1F
100
AcDbEntity
  8
AM_7
100
AcDbLine
 10
-0.9765219166336082
 20
-2.7779978883026
 30
0.0
 11
-8.31673161747984
 21
-2.7779978883026
 31
0.0
  0
LINE
  5
5498
330
1F
100
AcDbEntity
  8
AM_0
100
AcDbLine
 10
-8.637634537018575
 20
0.0000031312098659
 30
0.0
 11
-0.399999854997156
 21
0.000000145003223
 31
0.0
  0
LINE
  5
549D
330
1F
100
AcDbEntity
  8
AM_0
100
AcDbLine
 10
-0.73879800066653
 20
-3.356561920052754
 30
0.0
 11
-1.645089972754457
 21
-3.356561920052785
 31
0.0
  0
LINE
  5
549E
330
1F
100
AcDbEntity
  8
AM_0
100
AcDbLine
 10
-4.771529560381689
 20
-8.771719971488581
 30
0.0
 11
-0.0535897451076898
 21
-0.5999996932598531
 31
0.0
  0
LINE
  5
54A0
330
1F
100
AcDbEntity
  8
AM_0
100
AcDbLine
 10
-1.29876790270553
 20
-9.75704409778676
 30
0.0
 11
-5.183681254318507
 21
-11.99999999999986
 31
0.0
  0
ARC
  5
54A1
330
1F
100
AcDbEntity
  8
AM_0
100
AcDbCircle
 10
-6.07056832395208
 20
-8.021718999522855
 30
0.0
 40
1.5
100
AcDbArc
 50
149.9999948521092
 51
329.9999804124587
  0
LINE
  5
54A4
330
1F
100
AcDbEntity
  8
AM_0
100
AcDbLine
 10
-7.369606498399281
 20
-7.271714800122547
 30
0.0
 11
-6.250865158381742
 21
-5.33399966183879
 31
0.0
  0
LINE
  5
54A5
330
1F
100
AcDbEntity
  8
AM_0
100
AcDbLine
 10
-14.69406210379222
 20
19.67644163498582
 30
0.0
 11
-14.69406210379224
 21
29.5114636076421
 31
0.0
  0
LINE
  5
54A6
330
1F
100
AcDbEntity
  8
AM_0
100
AcDbLine
 10
-15.00000071525607
 20
19.6764416349858
 30
0.0
 11
-15.0000007152561
 21
29.5114636076421
 31
0.0
  0
LINE
  5
54A7
330
1F
100
AcDbEntity
  8
AM_0
100
AcDbLine
 10
-100.0000000000002
 20
19.51146360764198
 30
0.0
 11
-100.0000000000003
 21
29.51146360764198
 31
0.0
  0
LINE
  5
54AB
330
1F
100
AcDbEntity
  8
AM_0
100
AcDbLine
 10
-15.00000000000026
 20
-1.999999999999858
 30
0.0
 11
-100.0000000000002
 21
-1.999999999999971
 31
0.0
  0
LINE
  5
54AC
330
1F
100
AcDbEntity
  8
AM_0
100
AcDbLine
 10
-17.00000381470739
 20
19.51146360764209
 30
0.0
 11
-100.0000000000002
 21
19.51146360764198
 31
0.0
  0
LINE
  5
54AF
330
1F
100
AcDbEntity
  8
AM_0
100
AcDbLine
 10
-17.00000381470739
 20
19.51146360764209
 30
0.0
 11
-16.83502352237574
 21
19.67644163498578
 31
0.0
  0
LINE
  5
54B0
330
1F
100
AcDbEntity
  8
AM_0
100
AcDbLine
 10
-16.83501505851774
 20
-11.9999999999999
 30
0.0
 11
-16.83501505851776
 21
-1.999999999999901
 31
0.0
  0
LINE
  5
54B1
330
1F
100
AcDbEntity
  8
AM_0
100
AcDbLine
 10
-17.00000071525605
 20
-11.9999999999999
 30
0.0
 11
-17.00000071525607
 21
-1.999999999999901
 31
0.0
  0
LINE
  5
54B2
330
1F
100
AcDbEntity
  8
AM_0
100
AcDbLine
 10
-15.00000000000026
 20
-1.999999999999859
 30
0.0
 11
-14.69852622955681
 21
-0.8748826385849433
 31
0.0
  0
LINE
  5
54B3
330
1F
100
AcDbEntity
  8
AM_0
100
AcDbLine
 10
-100.0000000000002
 20
-11.99999999999997
 30
0.0
 11
-100.0000000000002
 21
-1.999999999999971
 31
0.0
  0
ARC
  5
556E
330
1F
100
AcDbEntity
  8
AM_0
100
AcDbCircle
 10
-8.637634682021685
 20
-0.3999968687901096
 30
0.0
 40
0.4
100
AcDbArc
 50
89.99997922983416
 51
210.0000172308632
1001
GENIUS_GENODEF_13
1002
{
1000
HIER
1070
     0
1002
}
1002
{
1000
MANEDIT
1070
     0
1002
}
1002
{
1000
NOSEL
1070
     0
1002
}
1002
{
1000
BEHIND
1070
     0
1002
}
1002
{
1000
REACTOR
1002
}
1001
GENIUS_GENOBJ-N-FIL_13
1002
{
1000
OWNER
1000
GEN
1002
}
  0
ARC
  5
5571
330
1F
100
AcDbEntity
  8
AM_0
100
AcDbCircle
 10
-0.4000000000002676
 20
-0.3999998549967667
 30
0.0
 40
0.4
100
AcDbArc
 50
330.000026751067
 51
89.99997922983409
1001
GENIUS_GENODEF_13
1002
{
1000
HIER
1070
     0
1002
}
1002
{
1000
MANEDIT
1070
     0
1002
}
1002
{
1000
NOSEL
1070
     0
1002
}
1002
{
1000
BEHIND
1070
     0
1002
}
1002
{
1000
REACTOR
1002
}
1001
GENIUS_GENOBJ-N-FIL_13
1002
{
1000
OWNER
1000
GEN
1002
}
  0
ARC
  5
5574
330
1F
100
AcDbEntity
  8
AM_0
100
AcDbCircle
 10
-4.518814235728078
 20
-7.533998194327978
 30
0.0
 40
0.4
100
AcDbArc
 50
210.0000172308632
 51
329.9999992909372
1001
GENIUS_GENODEF_13
1002
{
1000
HIER
1070
     0
1002
}
1002
{
1000
MANEDIT
1070
     0
1002
}
1002
{
1000
NOSEL
1070
     0
1002
}
1002
{
1000
BEHIND
1070
     0
1002
}
1002
{
1000
REACTOR
1002
}
1001
GENIUS_GENOBJ-N-FIL_13
1002
{
1000
OWNER
1000
GEN
1002
}
  0
LINE
  5
5578
330
1F
100
AcDbEntity
  8
AM_11
100
AcDbLine
 10
-0.3999998549971533
 20
0.0000001450032229
 30
0.0
 11
-0.0000000000002682
 21
0.000000000000161
 31
0.0
  0
DIMENSION
  5
56DE
330
1F
100
AcDbEntity
  8
AM_5
100
AcDbDimension
  2
*D5
 10
-111.480097252443
 20
-11.99999999999997
 30
0.0
 11
-113.0300972524431
 21
-6.999999999999986
 31
0.0
 70
    32
  1
<>
 51
359.9999999999998
  3
AM_JIS$0
100
AcDbAlignedDimension
 13
-100.0000000000002
 23
-1.999999999999971
 33
0.0
 14
-100.0000000000002
 24
-11.99999999999997
 34
0.0
 50
270.0000000000001
100
AcDbRotatedDimension
1001
GENIUS_GENDTOL_13
1000

1000
h7
1000

1040
0.0
1001
ACAD
1000
DSTYLE
1002
{
1070
   287
1070
     3
1070
    40
1040
0.5
1070
    42
1040
1.0
1070
    43
1040
12.0
1070
    48
1040
0.1
1070
    78
1070
     8
1070
   140
1040
3.2
1070
   176
1070
   256
1070
   177
1070
   256
1070
   271
1070
     3
1070
   272
1070
     3
1070
   275
1070
     0
1070
   284
1070
     0
1070
   289
1070
     3
1070
   340
1005
6B
1070
   371
1070
    -1
1070
   372
1070
    -1
1002
}
  0
DIMENSION
  5
57B0
330
1F
100
AcDbEntity
  8
AM_5
100
AcDbDimension
  2
*D6
 10
-111.079396485981
 20
19.51146360764198
 30
0.0
 11
-112.629396485981
 21
24.51146360764197
 31
0.0
 70
    32
  1
<>
 51
359.9999999999998
  3
AM_JIS$0
100
AcDbAlignedDimension
 13
-100.0000000000003
 23
29.51146360764198
 33
0.0
 14
-100.0000000000002
 24
19.51146360764198
 34
0.0
 50
270.0000000000001
100
AcDbRotatedDimension
1001
GENIUS_GENDTOL_13
1000

1000
h7
1000

1040
0.0
1001
ACAD
1000
DSTYLE
1002
{
1070
   287
1070
     3
1070
    40
1040
0.5
1070
    42
1040
1.0
1070
    43
1040
12.0
1070
    48
1040
0.1
1070
    78
1070
     8
1070
   140
1040
3.2
1070
   176
1070
   256
1070
   177
1070
   256
1070
   271
1070
     3
1070
   272
1070
     3
1070
   275
1070
     0
1070
   284
1070
     0
1070
   289
1070
     3
1070
   340
1005
6B
1070
   371
1070
    -1
1070
   372
1070
    -1
1002
}
  0
LINE
  5
5849
330
1F
100
AcDbEntity
  8
AM_0
100
AcDbLine
 10
-0.4999967144577706
 20
29.51146360764211
 30
0.0
 11
-100.0000000000003
 21
29.51146360764198
 31
0.0
  0
DIMENSION
  5
585B
330
1F
100
AcDbEntity
  8
AM_5
100
AcDbDimension
  2
*D7
 10
-0.0000000000002437
 20
12.86680267460829
 30
0.0
 11
-50.00000000000023
 21
14.41680267460838
 31
0.0
 70
    32
  1
<>
 51
359.9999999999998
  3
AM_JIS$0
100
AcDbAlignedDimension
 13
-100.0000000000002
 23
-1.999999999999971
 33
0.0
 14
-0.0000000000002673
 24
0.0000000000001421
 34
0.0
 50
180.0
100
AcDbRotatedDimension
1001
GENIUS_GENDTOL_13
1000

1000
h7
1000

1040
0.0
1001
ACAD
1000
DSTYLE
1002
{
1070
   287
1070
     3
1070
    40
1040
0.5
1070
    42
1040
1.0
1070
    43
1040
12.0
1070
    48
1040
0.1
1070
    78
1070
     8
1070
   140
1040
3.2
1070
   176
1070
   256
1070
   177
1070
   256
1070
   271
1070
     3
1070
   272
1070
     3
1070
   275
1070
     0
1070
   284
1070
     0
1070
   289
1070
     3
1070
   340
1005
6B
1070
   371
1070
    -1
1070
   372
1070
    -1
1002
}
  0
DIMENSION
  5
5A17
330
1F
100
AcDbEntity
  8
AM_5
100
AcDbDimension
  2
*D8
 10
10.75766197946067
 20
-11.99999999999987
 30
0.0
 11
9.207661979460675
 21
-5.999999999999857
 31
0.0
 70
    32
  1
<>
 51
359.9999999999998
  3
AM_JIS$0
100
AcDbAlignedDimension
 13
-0.0000000000002682
 23
0.0000000000001563
 33
0.0
 14
-5.183681254318507
 24
-11.99999999999986
 34
0.0
 50
90.0000000000001
100
AcDbRotatedDimension
1001
GENIUS_GENDTOL_13
1000

1000
h7
1000

1040
0.0
1001
ACAD
1000
DSTYLE
1002
{
1070
   287
1070
     3
1070
    40
1040
0.5
1070
    42
1040
1.0
1070
    43
1040
12.0
1070
    48
1040
0.1
1070
    78
1070
     8
1070
   140
1040
3.2
1070
   176
1070
   256
1070
   177
1070
   256
1070
   271
1070
     3
1070
   272
1070
     3
1070
   275
1070
     0
1070
   284
1070
     0
1070
   289
1070
     3
1070
   340
1005
6B
1070
   371
1070
    -1
1070
   372
1070
    -1
1002
}
  0
DIMENSION
  5
5C34
330
1F
100
AcDbEntity
  8
AM_5
100
AcDbDimension
  2
*D9
 10
10.75766197946085
 20
19.51146360764054
 30
0.0
 11
9.20766197946085
 21
24.51146360764133
 31
0.0
 70
    32
  1
<>
 51
359.9999999999998
  3
AM_JIS$0
100
AcDbAlignedDimension
 13
-0.4999967144577706
 23
29.51146360764211
 33
0.0
 14
-0.0000000000003224
 24
19.51146360764055
 34
0.0
 50
90.0
100
AcDbRotatedDimension
1001
GENIUS_GENDTOL_13
1000

1000
h7
1000

1040
0.0
1001
ACAD
1000
DSTYLE
1002
{
1070
   287
1070
     3
1070
    40
1040
0.5
1070
    42
1040
1.0
1070
    43
1040
12.0
1070
    48
1040
0.1
1070
    78
1070
     8
1070
   140
1040
3.2
1070
   176
1070
   256
1070
   177
1070
   256
1070
   271
1070
     3
1070
   272
1070
     3
1070
   275
1070
     0
1070
   284
1070
     0
1070
   289
1070
     3
1070
   340
1005
6B
1070
   371
1070
    -1
1070
   372
1070
    -1
1002
}
  0
DIMENSION
  5
5D64
330
1F
100
AcDbEntity
  8
AM_5
100
AcDbDimension
  2
*D10
 10
-100.0000000000002
 20
-11.99999999999997
 30
0.0
 11
-18.03576543429495
 21
-15.44370575376599
 31
0.0
 70
    34
  1
<>
 51
359.9999999999998
  3
AM_JIS$2
100
AcDb2LineAngularDimension
 13
-1.29876790270553
 23
-9.75704409778676
 33
0.0
 14
-5.183681254318507
 24
-11.99999999999986
 34
0.0
 15
-5.183681254318507
 25
-11.99999999999986
 35
0.0
 16
-19.81345013135958
 26
-14.57962310354119
 36
0.0
1001
GENIUS_GENDTOL_13
1000

1000
h7
1000

1040
0.0
1001
ACAD
1000
DSTYLE
1002
{
1070
   271
1070
     0
1002
}
  0
CIRCLE
  5
5EA6
330
1F
100
AcDbEntity
  8
AM_0
100
AcDbCircle
 10
-4.518816394393361
 20
-2.777997888302601
 30
0.0
 40
1.5
  0
LINE
  5
5EC5
330
1F
100
AcDbEntity
  8
AM_11
100
AcDbLine
 10
-0.0000000000002674
 20
-0.399999854996766
 30
0.0
 11
-0.0000000000002682
 21
0.000000000000161
 31
0.0
  0
DIMENSION
  5
5ED4
330
1F
100
AcDbEntity
  8
AM_5
100
AcDbDimension
  2
*D11
 10
-0.3999998549971568
 20
0.000000145003223
 30
0.0
 11
-8.355552388357248
 21
8.355555417310391
 31
0.0
 70
    34
  1
<>
 51
359.9999999999998
  3
AM_JIS$2
100
AcDb2LineAngularDimension
 13
-0.0000000000002674
 23
-0.399999854996766
 33
0.0
 14
-0.0000000000002682
 24
0.000000000000161
 34
0.0
 15
-8.637634537018575
 25
0.0000031312098659
 35
0.0
 16
-5.133267750901531
 26
8.891083034549097
 36
0.0
1001
ACAD
1000
DSTYLE
1002
{
1070
   179
1070
     3
1002
}
1001
GENIUS_GENDTOL_13
1000

1000
h7
1000

1040
0.0
  0
MTEXT
  5
60A1
330
1F
100
AcDbEntity
  8
AM_6
100
AcDbMText
 10
23.97076283807363
 20
0.9166666540415285
 30
0.0
 40
2.5
 41
0.0
 71
     4
 72
     5
  1
\T1.40;\W0.59;０°
1001
ACAD
1000
MTEXTBEGIN
1070
    73
1070
     1
1070
    44
1040
1.0
1070
    74
1070
     0
1000
MTEXTEND
  0
INSERT
  5
60A2
330
1F
100
AcDbEntity
  8
AM_5
100
AcDbBlockReference
  2
*U13
 10
-11.05793883733897
 20
65.75223858734398
 30
0.0
 50
180.0000000000002
  0
INSERT
  5
60A3
330
1F
100
AcDbEntity
  8
AM_5
100
AcDbBlockReference
  2
*U12
 10
-11.05793883733897
 20
65.75223858734398
 30
0.0
 50
180.0000000000002
  0
MTEXT
  5
60A4
330
1F
100
AcDbEntity
  8
AM_6
100
AcDbMText
 10
10.46266182950666
 20
14.25087844127426
 30
0.0
 40
2.5
 41
0.0
 71
     4
 72
     5
  1
\T1.40;\W0.59;０°
1001
ACAD
1000
MTEXTBEGIN
1070
    73
1070
     1
1070
    44
1040
1.0
1070
    74
1070
     0
1000
MTEXTEND
  0
VIEWPORT
  5
110
330
101
100
AcDbEntity
 67
     1
  8
0
100
AcDbViewport
 10
420.5
 20
297.0
 30
0.0
 40
948.9782706766916
 41
628.452
 68
     1
 69
     1
1001
ACAD
1000
MVIEW
1002
{
1070
    16
1010
0.0
1020
0.0
1030
0.0
1010
0.0
1020
0.0
1030
1.0
1040
0.0
1040
628.452
1040
420.5
1040
297.0
1040
50.0
1040
0.0
1040
0.0
1070
     0
1070
   100
1070
     1
1070
     1
1070
     0
1070
     0
1070
     0
1070
     0
1040
0.0
1040
0.0
1040
0.0
1040
10.0
1040
10.0
1040
10.0
1040
10.0
1070
     0
1002
{
1002
}
1002
}
  0
ENDSEC
  0
SECTION
  2
OBJECTS
  0
DICTIONARY
  5
C
330
0
100
AcDbDictionary
  3
ACAD_GROUP
350
D
  3
ACAD_LAYOUT
350
1A
  3
ACAD_MLINESTYLE
350
17
  3
ACAD_PLOTSETTINGS
350
19
  3
ACAD_PLOTSTYLENAME
350
E
  3
ACDBVARIABLEDICTIONARY
350
34
  3
ACMDICTIONARY
350
43
  3
AMG
350
2B
  3
AMGSNAPSETTINGS
350
6E
  3
DWGPROPS
350
60F9
  3
ACDBHEADERROUNDTRIPXREC
350
6105
  0
DICTIONARY
  5
74
330
1F
100
AcDbDictionary
280
     1
  3
ACAD_INDEX
360
60FB
  3
ACAD_LAYOUTSELFREF
360
6128
  0
DICTIONARY
  5
612D
330
101
100
AcDbDictionary
280
     1
  3
ACAD_LAYOUTSELFREF
360
612E
  0
DICTIONARY
  5
D
102
{ACAD_REACTORS
330
C
102
}
330
C
100
AcDbDictionary
  0
DICTIONARY
  5
1A
102
{ACAD_REACTORS
330
C
102
}
330
C
100
AcDbDictionary
  0
DICTIONARY
  5
17
102
{ACAD_REACTORS
330
C
102
}
330
C
100
AcDbDictionary
  3
STANDARD
350
18
  0
DICTIONARY
  5
19
102
{ACAD_REACTORS
330
C
102
}
330
C
100
AcDbDictionary
  3
ASAMI
350
399D
  0
ACDBDICTIONARYWDFLT
  5
E
102
{ACAD_REACTORS
330
C
102
}
330
C
100
AcDbDictionary
281
     1
  3
Normal
350
F
100
AcDbDictionaryWithDefault
340
F
  0
DICTIONARY
  5
34
102
{ACAD_REACTORS
330
C
102
}
330
C
100
AcDbDictionary
  3
INDEXCTL
350
35
  3
SORTENTS
350
B5E
  0
DICTIONARY
  5
43
102
{ACAD_REACTORS
330
C
102
}
330
C
100
AcDbDictionary
  3
ACMSTDDICTIONARY
350
260
  0
DICTIONARY
  5
2B
102
{ACAD_REACTORS
330
C
102
}
330
C
100
AcDbDictionary
  3
ACMGSETTINGS
350
2C
  0
DICTIONARY
  5
6E
102
{ACAD_REACTORS
330
C
102
}
330
C
100
AcDbDictionary
  0
XRECORD
  5
60F9
102
{ACAD_REACTORS
330
C
102
}
330
C
100
AcDbXrecord
  1
DWGPROPS COOKIE
  2

  3

  4

  6

  7

  8

  9

300
AmdtFileType=82
301
=
302
=
303
=
304
=
305
=
306
=
307
=
308
=
309
=
 40
0.7444702546296297
 41
2452802.716478761
 42
2452845.569184027
  1

 90
        1
  0
DICTIONARY
  5
6105
102
{ACAD_REACTORS
330
C
102
}
330
C
100
AcDbDictionary
  3
TSTACKALIGN
350
6106
  3
TSTACKSIZE
350
6107
  3
HYPERLINKBASE
350
6108
  3
STYLESHEET
350
6109
  3
LAYOUTDICT
350
610A
  3
PLOTSETDICT
350
610B
  3
PLOTSTYLNAMDICT
350
610C
  3
LWETCUNION
350
610D
  3
INSUNITS
350
610E
  3
CEPSNTYPE
350
610F
  3
FINGERPRINTGUID
350
6110
  3
VERSIONGUID
350
6111
  3
PSVPSCALE
350
6112
  3
DIMSTYLEDATA
350
6113
  3
PUCSORTHOREF
350
6114
  3
PUCSORTHOVIEW
350
6115
  3
PUCSBASE
350
6116
  3
PUCSORGTOP
350
6117
  3
PUCSORGBOTTOM
350
6118
  3
PUCSORGLEFT
350
6119
  3
PUCSORGRIGHT
350
611A
  3
PUCSORGFRONT
350
611B
  3
PUCSORGBACK
350
611C
  3
UCSORTHOREF
350
611D
  3
UCSORTHOVIEW
350
611E
  3
UCSBASE
350
611F
  3
UCSORGTOP
350
6120
  3
UCSORGBOTTOM
350
6121
  3
UCSORGLEFT
350
6122
  3
UCSORGRIGHT
350
6123
  3
UCSORGFRONT
350
6124
  3
UCSORGBACK
350
6125
  0
DICTIONARY
  5
60FB
102
{ACAD_REACTORS
330
74
102
}
330
74
100
AcDbDictionary
  3
*A1
350
60FC
  0
XRECORD
  5
6128
102
{ACAD_REACTORS
330
74
102
}
330
74
100
AcDbXrecord
340
1F
  0
XRECORD
  5
612E
102
{ACAD_REACTORS
330
612D
102
}
330
612D
100
AcDbXrecord
340
101
  0
MLINESTYLE
  5
18
102
{ACAD_REACTORS
330
17
102
}
330
17
100
AcDbMlineStyle
  2
STANDARD
 70
     0
  3

 62
   256
 51
90.0
 52
90.0
 71
     2
 49
0.5
 62
   256
  6
BYLAYER
 49
-0.5
 62
   256
  6
BYLAYER
  0
PLOTSETTINGS
  5
399D
102
{ACAD_REACTORS
330
19
102
}
330
19
100
AcDbPlotSettings
  1
asami
  2
RICOH imagio MF1540
  4
A4
  6

 40
5.831416606903076
 41
7.651742935180664
 42
4.90008544921875
 43
5.789077758789062
 44
296.9683227539062
 45
209.9733276367187
 46
0.0
 47
0.0
 48
-156.6707931774246
 49
-74.57609991074048
140
58.59973180214831
141
60.61068161925596
142
1.0
143
1.095343097833084
 70
  1712
 72
     1
 73
     1
 74
     4
  7
asami.ctb
 75
     0
147
0.9129559514076438
148
156.6707931774246
149
74.57609991074048
  0
ACDBPLACEHOLDER
  5
F
102
{ACAD_REACTORS
330
E
102
}
330
E
100
AcDbPlaceHolder
280
     0
  0
DICTIONARYVAR
  5
35
102
{ACAD_REACTORS
330
34
102
}
330
34
100
DictionaryVariables
280
     0
  1
1
  0
DICTIONARYVAR
  5
B5E
102
{ACAD_REACTORS
330
34
102
}
330
34
100
DictionaryVariables
280
     0
  1
96
  0
DICTIONARY
  5
260
102
{ACAD_REACTORS
330
43
102
}
330
43
100
AcDbDictionary
  0
DICTIONARY
  5
2C
102
{ACAD_REACTORS
330
2B
102
}
330
2B
100
AcDbDictionary
  3
DWGSETTINGS
350
2D
  0
XRECORD
  5
6106
102
{ACAD_REACTORS
330
6105
102
}
330
6105
100
AcDbXrecord
 90
        1
  0
XRECORD
  5
6107
102
{ACAD_REACTORS
330
6105
102
}
330
6105
100
AcDbXrecord
 90
       70
  0
XRECORD
  5
6108
102
{ACAD_REACTORS
330
6105
102
}
330
6105
100
AcDbXrecord
  1

  0
XRECORD
  5
6109
102
{ACAD_REACTORS
330
6105
102
}
330
6105
100
AcDbXrecord
  1
ASAMI.ctb
  0
XRECORD
  5
610A
102
{ACAD_REACTORS
330
6105
102
}
330
6105
100
AcDbXrecord
340
1A
  0
XRECORD
  5
610B
102
{ACAD_REACTORS
330
6105
102
}
330
6105
100
AcDbXrecord
340
19
  0
XRECORD
  5
610C
102
{ACAD_REACTORS
330
6105
102
}
330
6105
100
AcDbXrecord
340
E
  0
XRECORD
  5
610D
102
{ACAD_REACTORS
330
6105
102
}
330
6105
100
AcDbXrecord
 90
    10781
  0
XRECORD
  5
610E
102
{ACAD_REACTORS
330
6105
102
}
330
6105
100
AcDbXrecord
 90
        4
  0
XRECORD
  5
610F
102
{ACAD_REACTORS
330
6105
102
}
330
6105
100
AcDbXrecord
 90
        0
  0
XRECORD
  5
6110
102
{ACAD_REACTORS
330
6105
102
}
330
6105
100
AcDbXrecord
  1
{AFB28963-8C59-40AE-9337-C84526B81ACE}
  0
XRECORD
  5
6111
102
{ACAD_REACTORS
330
6105
102
}
330
6105
100
AcDbXrecord
  1
{08D8A863-19FE-400E-A7E6-E12638F1CF78}
  0
XRECORD
  5
6112
102
{ACAD_REACTORS
330
6105
102
}
330
6105
100
AcDbXrecord
 40
0.0
  0
XRECORD
  5
6113
102
{ACAD_REACTORS
330
6105
102
}
330
6105
100
AcDbXrecord
1000
DSTYLE
1002
{
1070
    79
 70
     2
1070
   341
340
59
1070
   342
340
59
1070
   371
 70
    -1
1070
   372
 70
    -1
1002
}
  0
XRECORD
  5
6114
102
{ACAD_REACTORS
330
6105
102
}
330
6105
100
AcDbXrecord
340
0
  0
XRECORD
  5
6115
102
{ACAD_REACTORS
330
6105
102
}
330
6105
100
AcDbXrecord
 70
     0
  0
XRECORD
  5
6116
102
{ACAD_REACTORS
330
6105
102
}
330
6105
100
AcDbXrecord
340
0
  0
XRECORD
  5
6117
102
{ACAD_REACTORS
330
6105
102
}
330
6105
100
AcDbXrecord
 10
0.0
 20
0.0
 30
0.0
  0
XRECORD
  5
6118
102
{ACAD_REACTORS
330
6105
102
}
330
6105
100
AcDbXrecord
 10
0.0
 20
0.0
 30
0.0
  0
XRECORD
  5
6119
102
{ACAD_REACTORS
330
6105
102
}
330
6105
100
AcDbXrecord
 10
0.0
 20
0.0
 30
0.0
  0
XRECORD
  5
611A
102
{ACAD_REACTORS
330
6105
102
}
330
6105
100
AcDbXrecord
 10
0.0
 20
0.0
 30
0.0
  0
XRECORD
  5
611B
102
{ACAD_REACTORS
330
6105
102
}
330
6105
100
AcDbXrecord
 10
0.0
 20
0.0
 30
0.0
  0
XRECORD
  5
611C
102
{ACAD_REACTORS
330
6105
102
}
330
6105
100
AcDbXrecord
 10
0.0
 20
0.0
 30
0.0
  0
XRECORD
  5
611D
102
{ACAD_REACTORS
330
6105
102
}
330
6105
100
AcDbXrecord
340
0
  0
XRECORD
  5
611E
102
{ACAD_REACTORS
330
6105
102
}
330
6105
100
AcDbXrecord
 70
     0
  0
XRECORD
  5
611F
102
{ACAD_REACTORS
330
6105
102
}
330
6105
100
AcDbXrecord
340
0
  0
XRECORD
  5
6120
102
{ACAD_REACTORS
330
6105
102
}
330
6105
100
AcDbXrecord
 10
0.0
 20
0.0
 30
0.0
  0
XRECORD
  5
6121
102
{ACAD_REACTORS
330
6105
102
}
330
6105
100
AcDbXrecord
 10
0.0
 20
0.0
 30
0.0
  0
XRECORD
  5
6122
102
{ACAD_REACTORS
330
6105
102
}
330
6105
100
AcDbXrecord
 10
0.0
 20
0.0
 30
0.0
  0
XRECORD
  5
6123
102
{ACAD_REACTORS
330
6105
102
}
330
6105
100
AcDbXrecord
 10
0.0
 20
0.0
 30
0.0
  0
XRECORD
  5
6124
102
{ACAD_REACTORS
330
6105
102
}
330
6105
100
AcDbXrecord
 10
0.0
 20
0.0
 30
0.0
  0
XRECORD
  5
6125
102
{ACAD_REACTORS
330
6105
102
}
330
6105
100
AcDbXrecord
 10
0.0
 20
0.0
 30
0.0
  0
LAYER_INDEX
  5
60FC
102
{ACAD_REACTORS
330
60FB
102
}
330
60FB
100
AcDbIndex
 40
2452941.605044294
100
AcDbLayerIndex
  8
0
360
60FD
 90
        0
  8
AM_0
360
60FE
 90
       33
  8
AM_5
360
60FF
 90
        9
  8
AM_11
360
6100
 90
        2
  8
AM_7
360
6101
 90
        2
  8
AM_6
360
6102
 90
        3
  8
Defpoints
360
6103
 90
        0
  0
XRECORD
  5
2D
102
{ACAD_REACTORS
330
2C
102
}
330
2C
100
AcDbXrecord
  1
VERSION
140
15.0
  1
PRODUCT
  2
AutoCAD Mechanical 2000
  0
IDBUFFER
  5
60FD
330
0
100
AcDbIdBuffer
  0
IDBUFFER
  5
60FE
330
0
100
AcDbIdBuffer
330
54A1
330
54A4
330
54A5
330
54A6
330
54A7
330
54AB
330
54AC
330
54AF
330
54B0
330
54B1
330
54B2
330
54B3
330
556E
330
5571
330
5574
330
5849
330
5EA6
330
5479
330
547B
330
547C
330
5482
330
5483
330
5484
330
5485
330
5486
330
5488
330
548B
330
5491
330
5493
330
5498
330
549D
330
549E
330
54A0
  0
IDBUFFER
  5
60FF
330
0
100
AcDbIdBuffer
330
56DE
330
57B0
330
585B
330
5A17
330
5C34
330
5D64
330
5ED4
330
60A2
330
60A3
  0
IDBUFFER
  5
6100
330
0
100
AcDbIdBuffer
330
5578
330
5EC5
  0
IDBUFFER
  5
6101
330
0
100
AcDbIdBuffer
330
5496
330
5497
  0
IDBUFFER
  5
6102
330
0
100
AcDbIdBuffer
330
388D
330
60A1
330
60A4
  0
IDBUFFER
  5
6103
330
0
100
AcDbIdBuffer
  0
ENDSEC
  0
EOF
