  0
SECTION
  2
HEADER
  9
$ACADVER
  1
AC1015
  9
$ACADMAINTVER
 70
    20
  9
$DWGCODEPAGE
  3
ANSI_932
  9
$INSBASE
 10
0.0
 20
0.0
 30
0.0
  9
$EXTMIN
 10
-55.01363811883937
 20
-97.04747672698836
 30
-0.0000000349181948
  9
$EXTMAX
 10
185.01107209516
 20
32.00026450751756
 30
0.0000000814935747
  9
$LIMMIN
 10
-177.7827356538366
 20
-66.62197688124485
  9
$LIMMAX
 10
65.67346447620605
 20
89.59118265135797
  9
$ORTHOMODE
 70
     1
  9
$REGENMODE
 70
     1
  9
$FILLMODE
 70
     1
  9
$QTEXTMODE
 70
     0
  9
$MIRRTEXT
 70
     0
  9
$LTSCALE
 40
1.0
  9
$ATTMODE
 70
     1
  9
$TEXTSIZE
 40
2.5
  9
$TRACEWID
 40
1.0
  9
$TEXTSTYLE
  7
STANDARD
  9
$CLAYER
  8
AM_0
  9
$CELTYPE
  6
BYLAYER
  9
$CECOLOR
 62
   256
  9
$CELTSCALE
 40
1.0
  9
$DISPSILH
 70
     0
  9
$DIMSCALE
 40
1.0
  9
$DIMASZ
 40
2.5
  9
$DIMEXO
 40
1.0
  9
$DIMDLI
 40
12.0
  9
$DIMRND
 40
0.0
  9
$DIMDLE
 40
0.0
  9
$DIMEXE
 40
1.0
  9
$DIMTP
 40
0.1
  9
$DIMTM
 40
0.1
  9
$DIMTXT
 40
3.2
  9
$DIMCEN
 40
0.0
  9
$DIMTSZ
 40
0.0
  9
$DIMTOL
 70
     0
  9
$DIMLIM
 70
     0
  9
$DIMTIH
 70
     0
  9
$DIMTOH
 70
     0
  9
$DIMSE1
 70
     0
  9
$DIMSE2
 70
     0
  9
$DIMTAD
 70
     3
  9
$DIMZIN
 70
     8
  9
$DIMBLK
  1
OPEN30
  9
$DIMASO
 70
     1
  9
$DIMSHO
 70
     1
  9
$DIMPOST
  1

  9
$DIMAPOST
  1
"
  9
$DIMALT
 70
     0
  9
$DIMALTD
 70
     2
  9
$DIMALTF
 40
0.0393701
  9
$DIMLFAC
 40
1.0
  9
$DIMTOFL
 70
     1
  9
$DIMTVP
 40
0.0
  9
$DIMTIX
 70
     0
  9
$DIMSOXD
 70
     0
  9
$DIMSAH
 70
     0
  9
$DIMBLK1
  1

  9
$DIMBLK2
  1

  9
$DIMSTYLE
  2
AM_JIS
  9
$DIMCLRD
 70
   256
  9
$DIMCLRE
 70
   256
  9
$DIMCLRT
 70
     2
  9
$DIMTFAC
 40
0.71
  9
$DIMGAP
 40
1.5
  9
$DIMJUST
 70
     0
  9
$DIMSD1
 70
     0
  9
$DIMSD2
 70
     0
  9
$DIMTOLJ
 70
     0
  9
$DIMTZIN
 70
     0
  9
$DIMALTZ
 70
     0
  9
$DIMALTTZ
 70
     0
  9
$DIMUPT
 70
     0
  9
$DIMDEC
 70
     0
  9
$DIMTDEC
 70
     3
  9
$DIMALTU
 70
     2
  9
$DIMALTTD
 70
     2
  9
$DIMTXSTY
  7
ASAMI
  9
$DIMAUNIT
 70
     0
  9
$DIMADEC
 70
     0
  9
$DIMALTRND
 40
0.0
  9
$DIMAZIN
 70
     2
  9
$DIMDSEP
 70
    46
  9
$DIMATFIT
 70
     3
  9
$DIMFRAC
 70
     0
  9
$DIMLDRBLK
  1
OPEN30
  9
$DIMLUNIT
 70
     2
  9
$DIMLWD
 70
    -1
  9
$DIMLWE
 70
    -1
  9
$DIMTMOVE
 70
     0
  9
$LUNITS
 70
     2
  9
$LUPREC
 70
     2
  9
$SKETCHINC
 40
1.0
  9
$FILLETRAD
 40
0.8
  9
$AUNITS
 70
     0
  9
$AUPREC
 70
     0
  9
$MENU
  1
.
  9
$ELEVATION
 40
0.0
  9
$PELEVATION
 40
0.0
  9
$THICKNESS
 40
0.0
  9
$LIMCHECK
 70
     1
  9
$CHAMFERA
 40
1.0
  9
$CHAMFERB
 40
1.0
  9
$CHAMFERC
 40
20.0
  9
$CHAMFERD
 40
0.0
  9
$SKPOLY
 70
     0
  9
$TDCREATE
 40
2452802.716478762
  9
$TDUCREATE
 40
2452802.341478762
  9
$TDUPDATE
 40
2455601.697345914
  9
$TDUUPDATE
 40
2455601.322345914
  9
$TDINDWG
 40
0.8552679745
  9
$TDUSRTIMER
 40
0.8552676042
  9
$USRTIMER
 70
     1
  9
$ANGBASE
 50
0.0
  9
$ANGDIR
 70
     0
  9
$PDMODE
 70
     0
  9
$PDSIZE
 40
0.0
  9
$PLINEWID
 40
0.0
  9
$SPLFRAME
 70
     0
  9
$SPLINETYPE
 70
     6
  9
$SPLINESEGS
 70
     8
  9
$HANDSEED
  5
823D
  9
$SURFTAB1
 70
     6
  9
$SURFTAB2
 70
     6
  9
$SURFTYPE
 70
     6
  9
$SURFU
 70
     6
  9
$SURFV
 70
     6
  9
$UCSBASE
  2

  9
$UCSNAME
  2

  9
$UCSORG
 10
-0.0000000000002682
 20
0.000000000000161
 30
0.0
  9
$UCSXDIR
 10
1.0
 20
0.000000000000002
 30
0.0
  9
$UCSYDIR
 10
-0.000000000000002
 20
1.0
 30
0.0
  9
$UCSORTHOREF
  2

  9
$UCSORTHOVIEW
 70
     0
  9
$UCSORGTOP
 10
0.0
 20
0.0
 30
0.0
  9
$UCSORGBOTTOM
 10
0.0
 20
0.0
 30
0.0
  9
$UCSORGLEFT
 10
0.0
 20
0.0
 30
0.0
  9
$UCSORGRIGHT
 10
0.0
 20
0.0
 30
0.0
  9
$UCSORGFRONT
 10
0.0
 20
0.0
 30
0.0
  9
$UCSORGBACK
 10
0.0
 20
0.0
 30
0.0
  9
$PUCSBASE
  2

  9
$PUCSNAME
  2

  9
$PUCSORG
 10
0.0
 20
0.0
 30
0.0
  9
$PUCSXDIR
 10
1.0
 20
0.0
 30
0.0
  9
$PUCSYDIR
 10
0.0
 20
1.0
 30
0.0
  9
$PUCSORTHOREF
  2

  9
$PUCSORTHOVIEW
 70
     0
  9
$PUCSORGTOP
 10
0.0
 20
0.0
 30
0.0
  9
$PUCSORGBOTTOM
 10
0.0
 20
0.0
 30
0.0
  9
$PUCSORGLEFT
 10
0.0
 20
0.0
 30
0.0
  9
$PUCSORGRIGHT
 10
0.0
 20
0.0
 30
0.0
  9
$PUCSORGFRONT
 10
0.0
 20
0.0
 30
0.0
  9
$PUCSORGBACK
 10
0.0
 20
0.0
 30
0.0
  9
$USERI1
 70
     0
  9
$USERI2
 70
     0
  9
$USERI3
 70
     0
  9
$USERI4
 70
     0
  9
$USERI5
 70
     0
  9
$USERR1
 40
0.0
  9
$USERR2
 40
0.0
  9
$USERR3
 40
0.0
  9
$USERR4
 40
0.0
  9
$USERR5
 40
0.0
  9
$WORLDVIEW
 70
     1
  9
$SHADEDGE
 70
     3
  9
$SHADEDIF
 70
    70
  9
$TILEMODE
 70
     1
  9
$MAXACTVP
 70
    64
  9
$PINSBASE
 10
0.0
 20
0.0
 30
0.0
  9
$PLIMCHECK
 70
     0
  9
$PEXTMIN
 10
1.000000000000000E+20
 20
1.000000000000000E+20
 30
1.000000000000000E+20
  9
$PEXTMAX
 10
-1.000000000000000E+20
 20
-1.000000000000000E+20
 30
-1.000000000000000E+20
  9
$PLIMMIN
 10
0.0
 20
0.0
  9
$PLIMMAX
 10
841.0
 20
594.0
  9
$UNITMODE
 70
     0
  9
$VISRETAIN
 70
     1
  9
$PLINEGEN
 70
     0
  9
$PSLTSCALE
 70
     0
  9
$TREEDEPTH
 70
  3020
  9
$CMLSTYLE
  2
STANDARD
  9
$CMLJUST
 70
     0
  9
$CMLSCALE
 40
20.0
  9
$PROXYGRAPHICS
 70
     1
  9
$MEASUREMENT
 70
     1
  9
$CELWEIGHT
370
    -1
  9
$ENDCAPS
280
     0
  9
$JOINSTYLE
280
     0
  9
$LWDISPLAY
290
     0
  9
$INSUNITS
 70
     4
  9
$HYPERLINKBASE
  1

  9
$STYLESHEET
  1
ASAMI.CTB
  9
$XEDIT
290
     1
  9
$CEPSNTYPE
380
     0
  9
$PSTYLEMODE
290
     1
  9
$FINGERPRINTGUID
  2
{AFB28963-8C59-40AE-9337-C84526B81ACE}
  9
$VERSIONGUID
  2
{463F5AC8-320F-4689-A824-016AEB166CD7}
  9
$EXTNAMES
290
     1
  9
$PSVPSCALE
 40
0.0
  9
$OLESTARTUP
290
     0
  0
ENDSEC
  0
SECTION
  2
CLASSES
  0
CLASS
  1
ACDBDICTIONARYWDFLT
  2
AcDbDictionaryWithDefault
  3
ObjectDBX Classes
 90
        0
280
     0
281
     0
  0
CLASS
  1
ACDBPLACEHOLDER
  2
AcDbPlaceHolder
  3
ObjectDBX Classes
 90
        0
280
     0
281
     0
  0
CLASS
  1
LAYOUT
  2
AcDbLayout
  3
ObjectDBX Classes
 90
        0
280
     0
281
     0
  0
CLASS
  1
AMGSETTINGSOBJ
  2
AmgSettingsObj
  3
"AcadM|Product Description: AutoCAD Mechanical 2000|Company: Autodesk"
 90
        0
280
     0
281
     0
  0
CLASS
  1
ACME_DOCUMENT
  2
AcMeDbDoc
  3
AcMeServices
 90
        0
280
     0
281
     0
  0
CLASS
  1
ACMESCOPE
  2
AcMeScope
  3
AcMeServices
 90
        0
280
     0
281
     0
  0
CLASS
  1
ACMECOMMANDHISTORY
  2
AcMeCommandHistory
  3
AcMeServices
 90
        0
280
     0
281
     0
  0
CLASS
  1
DICTIONARYVAR
  2
AcDbDictionaryVar
  3
ObjectDBX Classes
 90
        0
280
     0
281
     0
  0
CLASS
  1
ACIMSYSVARMAN
  2
AcImSysVarManager
  3
AcMeServices
 90
        0
280
     0
281
     0
  0
CLASS
  1
ACIMREALSYSVAR
  2
AcImRealSysVar
  3
AcMeServices
 90
        0
280
     0
281
     0
  0
CLASS
  1
ACIMINTSYSVAR
  2
AcImIntSysVar
  3
AcMeServices
 90
        0
280
     0
281
     0
  0
CLASS
  1
ACMEDRAWINGMAN
  2
AcMeDrawingMan
  3
AcMeServices
 90
        0
280
     0
281
     0
  0
CLASS
  1
ACMEVIEW
  2
AcMeView
  3
AcMeServices
 90
        0
280
     0
281
     0
  0
CLASS
  1
ACDBENTITYCACHE
  2
AcMeEntityCache
  3
AcMeServices
 90
        0
280
     0
281
     0
  0
CLASS
  1
GSMANAGER
  2
AcMeGSManager
  3
AcMeServices
 90
        0
280
     0
281
     0
  0
CLASS
  1
AMDTINTERNALREACTOR
  2
AmdtInternalReactor
  3
AcMeServices
 90
        0
280
     0
281
     0
  0
CLASS
  1
ACMESTATEMGR
  2
AcMeStateMgr
  3
AcMeServices
 90
        0
280
     0
281
     0
  0
CLASS
  1
ACME_DATABASE
  2
AcMeDbDatabase
  3
AcMeServices
 90
        0
280
     0
281
     0
  0
CLASS
  1
ACRFINSADJUSTERMGR
  2
AcRfInsAdjusterMgr
  3
AcMeServices
 90
        0
280
     0
281
     0
  0
CLASS
  1
ACMDATADICTIONARY
  2
AcmDataDictionary
  3
"AcmSymBB|Product Description: AutoCAD Mechanical 2004 DX|Company: Autodesk"
 90
        0
280
     0
281
     0
  0
CLASS
  1
ACMDATAENTRYBLOCK
  2
AcmDataEntryBlock
  3
"AcmSymBB|Product Description: AutoCAD Mechanical 2004 DX|Company: Autodesk"
 90
    32768
280
     0
281
     0
  0
CLASS
  1
AMGOBJPROPCFG
  2
AmgObjPropCfg
  3
"AmgLay|Product Description: AutoCAD Mechanical 2000|Company: Autodesk"
 90
        1
280
     0
281
     0
  0
CLASS
  1
ACAMGFILTERDAT
  2
AcAmgFilterDat
  3
"AcadM|Product Description: AutoCAD Mechanical 2000|Company: Autodesk"
 90
    32768
280
     0
281
     0
  0
CLASS
  1
LAYER_INDEX
  2
AcDbLayerIndex
  3
ObjectDBX Classes
 90
        0
280
     0
281
     0
  0
CLASS
  1
IDBUFFER
  2
AcDbIdBuffer
  3
ObjectDBX Classes
 90
        0
280
     0
281
     0
  0
CLASS
  1
ACIMSTRSYSVAR
  2
AcImStrSysVar
  3
AcMeServices
 90
        0
280
     0
281
     0
  0
CLASS
  1
ACMSTANDARDJIS
  2
AcmStandardJIS
  3
"Amdt_StdImp|Product Description: AutoCAD Mechanical 2004 DX|Company: Autodesk"
 90
    32768
280
     0
281
     0
  0
CLASS
  1
ACMSURFSTANDARDJIS
  2
AcmSurfTextStdJIS
  3
"Amdt_StdImp|Product Description: AutoCAD Mechanical 2004 DX|Company: Autodesk"
 90
    32768
280
     0
281
     0
  0
CLASS
  1
ACMFCFSTANDARDJIS
  2
AcmFCFStdJIS
  3
"Amdt_StdImp|Product Description: AutoCAD Mechanical 2004 DX|Company: Autodesk"
 90
    32768
280
     0
281
     0
  0
CLASS
  1
ACMWELDSTANDARDJIS
  2
AcmWeldingStdJIS
  3
"Amdt_StdImp|Product Description: AutoCAD Mechanical 2004 DX|Company: Autodesk"
 90
    32768
280
     0
281
     0
  0
CLASS
  1
ACMIDSTANDARDJIS
  2
AcmIdStdJIS
  3
"Amdt_StdImp|Product Description: AutoCAD Mechanical 2004 DX|Company: Autodesk"
 90
    32768
280
     0
281
     0
  0
CLASS
  1
ACMDATUMSTANDARDJIS
  2
AcmDatumStdJIS
  3
"Amdt_StdImp|Product Description: AutoCAD Mechanical 2004 DX|Company: Autodesk"
 90
    32768
280
     0
281
     0
  0
CLASS
  1
ACMBOMSTANDARDJIS
  2
AcmBOMStdJIS
  3
"Amdt_StdImp|Product Description: AutoCAD Mechanical 2004 DX|Company: Autodesk"
 90
    32768
280
     0
281
     0
  0
CLASS
  1
ACMSTANDARDANSI
  2
AcmStandardANSI
  3
"Amdt_StdImp|Product Description: AutoCAD Mechanical 2004 DX|Company: Autodesk"
 90
    32768
280
     0
281
     0
  0
CLASS
  1
ACMSURFSTANDARDANSI
  2
AcmSurfTextStdANSI
  3
"Amdt_StdImp|Product Description: AutoCAD Mechanical 2004 DX|Company: Autodesk"
 90
    32768
280
     0
281
     0
  0
CLASS
  1
ACMFCFSTANDARDANSI
  2
AcmFCFStdANSI
  3
"Amdt_StdImp|Product Description: AutoCAD Mechanical 2004 DX|Company: Autodesk"
 90
    32768
280
     0
281
     0
  0
CLASS
  1
ACMWELDSTANDARDANSI
  2
AcmWeldingStdANSI
  3
"Amdt_StdImp|Product Description: AutoCAD Mechanical 2004 DX|Company: Autodesk"
 90
    32768
280
     0
281
     0
  0
CLASS
  1
ACMIDSTANDARDANSI
  2
AcmIdStdANSI
  3
"Amdt_StdImp|Product Description: AutoCAD Mechanical 2004 DX|Company: Autodesk"
 90
    32768
280
     0
281
     0
  0
CLASS
  1
ACMDATUMSTANDARDANSI
  2
AcmDatumStdANSI
  3
"Amdt_StdImp|Product Description: AutoCAD Mechanical 2004 DX|Company: Autodesk"
 90
    32768
280
     0
281
     0
  0
CLASS
  1
ACMBOMSTANDARDANSI
  2
AcmBOMStdANSI
  3
"Amdt_StdImp|Product Description: AutoCAD Mechanical 2004 DX|Company: Autodesk"
 90
    32768
280
     0
281
     0
  0
CLASS
  1
ACMSTANDARDBSI
  2
AcmStandardBSI
  3
"Amdt_StdImp|Product Description: AutoCAD Mechanical 2004 DX|Company: Autodesk"
 90
    32768
280
     0
281
     0
  0
CLASS
  1
ACMSURFSTANDARDBSI
  2
AcmSurfTextStdBSI
  3
"Amdt_StdImp|Product Description: AutoCAD Mechanical 2004 DX|Company: Autodesk"
 90
    32768
280
     0
281
     0
  0
CLASS
  1
ACMFCFSTANDARDBSI
  2
AcmFCFStdBSI
  3
"Amdt_StdImp|Product Description: AutoCAD Mechanical 2004 DX|Company: Autodesk"
 90
    32768
280
     0
281
     0
  0
CLASS
  1
ACMWELDSTANDARDBSI
  2
AcmWeldingStdBSI
  3
"Amdt_StdImp|Product Description: AutoCAD Mechanical 2004 DX|Company: Autodesk"
 90
    32768
280
     0
281
     0
  0
CLASS
  1
ACMIDSTANDARDBSI
  2
AcmIdStdBSI
  3
"Amdt_StdImp|Product Description: AutoCAD Mechanical 2004 DX|Company: Autodesk"
 90
    32768
280
     0
281
     0
  0
CLASS
  1
ACMDATUMSTANDARDBSI
  2
AcmDatumStdBSI
  3
"Amdt_StdImp|Product Description: AutoCAD Mechanical 2004 DX|Company: Autodesk"
 90
    32768
280
     0
281
     0
  0
CLASS
  1
ACMBOMSTANDARDBSI
  2
AcmBOMStdBSI
  3
"Amdt_StdImp|Product Description: AutoCAD Mechanical 2004 DX|Company: Autodesk"
 90
    32768
280
     0
281
     0
  0
CLASS
  1
STDPART2D
  2
AmgStdPart
  3
"AmgStdPart|Product Description: AutoCAD Mechanical 2000|Company: Autodesk"
 90
    33791
280
     0
281
     1
  0
CLASS
  1
PLOTSETTINGS
  2
AcDbPlotSettings
  3
ObjectDBX Classes
 90
        0
280
     0
281
     0
  0
CLASS
  1
TABLESTYLE
  2
AcDbTableStyle
  3
ObjectDBX Classes
 90
     2047
280
     0
281
     0
  0
CLASS
  1
ACGREFMASTER
  2
AcGrefMaster
  3
AcAttribServices
 90
        0
280
     0
281
     0
  0
CLASS
  1
AM_DRAWING_MGR
  2
AcDmDwgMgr
  3
AcMechDwgViewMgmt
 90
        0
280
     0
281
     0
  0
CLASS
  1
AM_DWG_DOCUMENT
  2
AcDmDwgDocument
  3
AcMechDwgViewMgmt
 90
        0
280
     0
281
     0
  0
CLASS
  1
AM_DWG_SHEET
  2
AcDmSheet
  3
AcMechDwgViewMgmt
 90
        0
280
     0
281
     0
  0
CLASS
  1
AM_VIEWDIMPARMAP
  2
AcDmViewDimParMap
  3
AcMechDwgViewMgmt
 90
        0
280
     0
281
     0
  0
CLASS
  1
AM_DWGMGR_NAME
  2
AcDmDwgMgrName
  3
AcMechDwgViewMgmt
 90
        0
280
     0
281
     0
  0
CLASS
  1
ACGREFACADMASTER
  2
AcGrefacadMaster
  3
AcGrefServices
 90
        0
280
     0
281
     0
  0
CLASS
  1
AMDTMENUSTATEMGR
  2
AmdtMenuStateMgr
  3
McadcomServices
 90
        0
280
     0
281
     0
  0
CLASS
  1
AMDTMCOMMENUSTATE
  2
AmdtMcomMenuState
  3
McadcomServices
 90
        0
280
     0
281
     0
  0
CLASS
  1
AMIMASTER
  2
AmiMaster
  3
AmiServices
 90
        0
280
     0
281
     0
  0
CLASS
  1
MAPIAMMOUDLE
  2
MApiAmModule
  3
MApiAmServices
 90
        0
280
     0
281
     0
  0
CLASS
  1
AMDTADMENUSTATE
  2
AmdtAdMenuState
  3
DesignerServices
 90
        0
280
     0
281
     0
  0
CLASS
  1
ADAPPL
  2
AcAdAppl
  3
DesignerServices
 90
        0
280
     0
281
     0
  0
CLASS
  1
DEPMGR
  2
AcAdDepMgr
  3
DesignerServices
 90
        0
280
     0
281
     0
  0
CLASS
  1
PARAMMGR
  2
AcAdParamMgr
  3
DesignerServices
 90
        0
280
     0
281
     0
  0
CLASS
  1
PARAMSCOPE
  2
AcAdParamScope
  3
DesignerServices
 90
        0
280
     0
281
     0
  0
CLASS
  1
NAMEDAPPL
  2
AcAdNamedAppl
  3
DesignerServices
 90
        0
280
     0
281
     0
  0
CLASS
  1
AMDTDMMENUSTATE
  2
AmdtDmMenuState
  3
AcMechDwgViewMgmt
 90
        0
280
     0
281
     0
  0
CLASS
  1
AMDTAMMENUSTATE
  2
AmdtAmMenuState
  3
DesignerAssemblies
 90
        0
280
     0
281
     0
  0
CLASS
  1
ACAMPROJECT
  2
AcAmProject
  3
DesignerAssemblies
 90
        0
280
     0
281
     0
  0
CLASS
  1
ACAMGRCOMPDEF
  2
AcAmGrCompDef
  3
DesignerAssemblies
 90
        0
280
     0
281
     0
  0
CLASS
  1
ACCMCONTEXT
  2
AcCmContext
  3
DesignerAssemblies
 90
        0
280
     0
281
     0
  0
CLASS
  1
ACAMCOMPDEF
  2
AcAmCompDef
  3
DesignerAssemblies
 90
        0
280
     0
281
     0
  0
CLASS
  1
ACAMCOMPDEFMGR
  2
AcAmCompDefMgr
  3
DesignerAssemblies
 90
        0
280
     0
281
     0
  0
CLASS
  1
AMCONTEXTMGR
  2
AcAmContextMgr
  3
DesignerAssemblies
 90
        0
280
     0
281
     0
  0
CLASS
  1
ACAMCONTEXTMODELER
  2
AcAmContextModeler
  3
DesignerAssemblies
 90
        0
280
     0
281
     0
  0
CLASS
  1
CATALOGSTATE
  2
AcAmCatalogState
  3
DesignerAssemblies
 90
        0
280
     0
281
     0
  0
CLASS
  1
ACAMGRCOMPDEFSET
  2
AcAmGrCompDefSet
  3
DesignerAssemblies
 90
        0
280
     0
281
     0
  0
CLASS
  1
AMDTBROWSERDBTAB
  2
AmdtBrowserDbTab
  3
McadcomServices
 90
        0
280
     0
281
     0
  0
CLASS
  1
CBROWSERAPPOBJECT
  2
CBrowserAppObject
  3
McadcomServices
 90
        0
280
     0
281
     0
  0
CLASS
  1
DM_PLACEHOLDER
  2
AcDmSelsetPlaceholder
  3
AcMechDwgViewMgmt
 90
        0
280
     0
281
     0
  0
CLASS
  1
ACMSTANDARDISO
  2
AcmStandardISO
  3
"Amdt_StdImp|Product Description: AutoCAD Mechanical 2004 DX|Company: Autodesk"
 90
        0
280
     0
281
     0
  0
CLASS
  1
AMDTEDGESTANDARDISO13715
  2
AmdtEdgeStdISO13715
  3
"Amdt_StdImp|Product Description: AutoCAD Mechanical 2004 DX|Company: Autodesk"
 90
        0
280
     0
281
     0
  0
CLASS
  1
ACMSURFSTANDARDISO
  2
AcmSurfTextStdISO
  3
"Amdt_StdImp|Product Description: AutoCAD Mechanical 2004 DX|Company: Autodesk"
 90
        0
280
     0
281
     0
  0
CLASS
  1
ACMFCFSTANDARDISO
  2
AcmFCFStdISO
  3
"Amdt_StdImp|Product Description: AutoCAD Mechanical 2004 DX|Company: Autodesk"
 90
        0
280
     0
281
     0
  0
CLASS
  1
ACMWELDSTANDARDISO
  2
AcmWeldingStdISO
  3
"Amdt_StdImp|Product Description: AutoCAD Mechanical 2004 DX|Company: Autodesk"
 90
        0
280
     0
281
     0
  0
CLASS
  1
ACMIDSTANDARDISO
  2
AcmIdStdISO
  3
"Amdt_StdImp|Product Description: AutoCAD Mechanical 2004 DX|Company: Autodesk"
 90
        0
280
     0
281
     0
  0
CLASS
  1
ACMDATUMSTANDARDISO
  2
AcmDatumStdISO
  3
"Amdt_StdImp|Product Description: AutoCAD Mechanical 2004 DX|Company: Autodesk"
 90
        0
280
     0
281
     0
  0
CLASS
  1
ACMBOMSTANDARDISO
  2
AcmBOMStdISO
  3
"Amdt_StdImp|Product Description: AutoCAD Mechanical 2004 DX|Company: Autodesk"
 90
        0
280
     0
281
     0
  0
CLASS
  1
ACMDETAILSTANDARDISO
  2
AmdtDetailSymStdISO
  3
"Amdt_StdImp|Product Description: AutoCAD Mechanical 2004 DX|Company: Autodesk"
 90
        0
280
     0
281
     0
  0
CLASS
  1
ACMSECTIONSTANDARDISO
  2
AmdtSectionSymStdISO
  3
"Amdt_StdImp|Product Description: AutoCAD Mechanical 2004 DX|Company: Autodesk"
 90
        0
280
     0
281
     0
  0
CLASS
  1
ACMCENTERLINESTANDARDISO
  2
AmdtCenterLineStdISO
  3
"Amdt_StdImp|Product Description: AutoCAD Mechanical 2004 DX|Company: Autodesk"
 90
        0
280
     0
281
     0
  0
CLASS
  1
ACMTHREADLINESTANDARDISO
  2
AmdtThreadLineStdISO
  3
"Amdt_StdImp|Product Description: AutoCAD Mechanical 2004 DX|Company: Autodesk"
 90
        0
280
     0
281
     0
  0
CLASS
  1
ACMNOTESTANDARDISO
  2
AmdtNoteStdISO
  3
"Amdt_StdImp|Product Description: AutoCAD Mechanical 2004 DX|Company: Autodesk"
 90
        0
280
     0
281
     0
  0
CLASS
  1
AMDTNOTETEMPLATEDB
  2
AmdtNoteTemplateDB
  3
AMDT_STDIMP_MODULE_NAME
 90
        0
280
     0
281
     0
  0
CLASS
  1
ACAMGLAYSTD
  2
AcAmgLayStd
  3
"AcAmgLayStd|Product Description: AutoCAD Mechanical 2000|Company: Autodesk"
 90
        0
280
     0
281
     0
  0
CLASS
  1
ACAMGDIMSTD
  2
AcAmgDimStd
  3
"AcAmgDimStd|Product Description: AutoCAD Mechanical 2000|Company: Autodesk"
 90
        0
280
     0
281
     0
  0
CLASS
  1
ACAMGHOLECHARTSTDISO
  2
AcAmgHoleChartStdISO
  3
ACMSYMBB_MODULE_NAME
 90
        0
280
     0
281
     0
  0
CLASS
  1
ACAMGTITLESTD
  2
AcAmgTitleStd
  3
"TITLEAPP"
 90
        0
280
     0
281
     0
  0
ENDSEC
  0
SECTION
  2
TABLES
  0
TABLE
  2
VPORT
  5
8
330
0
100
AcDbSymbolTable
 70
    21
  0
VPORT
  5
8232
330
8
100
AcDbSymbolTableRecord
100
AcDbViewportTableRecord
  2
*Active
 70
     0
 10
0.0
 20
0.0
 11
1.0
 21
1.0
 12
64.99871698816031
 22
-32.5236061097354
 13
0.0
 23
0.0
 14
2.5
 24
2.5
 15
10.0
 25
10.0
 16
0.0
 26
0.0
 36
1.0
 17
0.0
 27
0.0
 37
0.0
 40
129.9651422385426
 41
2.166073546856464
 42
50.0
 43
0.0
 44
0.0
 50
0.0
 51
0.0
 71
     0
 72
   100
 73
     1
 74
     3
 75
     0
 76
     0
 77
     0
 78
     0
281
     0
 65
     0
110
-0.0000000000002682
120
0.000000000000161
130
0.0
111
1.0
121
0.000000000000002
131
0.0
112
-0.000000000000002
122
1.0
132
0.0
 79
     0
146
0.0
  0
ENDTAB
  0
TABLE
  2
LTYPE
  5
5
330
0
100
AcDbSymbolTable
 70
    16
  0
LTYPE
  5
14
330
5
100
AcDbSymbolTableRecord
100
AcDbLinetypeTableRecord
  2
BYBLOCK
 70
     0
  3

 72
    65
 73
     0
 40
0.0
  0
LTYPE
  5
15
330
5
100
AcDbSymbolTableRecord
100
AcDbLinetypeTableRecord
  2
BYLAYER
 70
     0
  3

 72
    65
 73
     0
 40
0.0
  0
LTYPE
  5
16
330
5
100
AcDbSymbolTableRecord
100
AcDbLinetypeTableRecord
  2
CONTINUOUS
 70
     0
  3
Solid line
 72
    65
 73
     0
 40
0.0
  0
LTYPE
  5
4B
330
5
100
AcDbSymbolTableRecord
100
AcDbLinetypeTableRecord
  2
AM_ISO02W050
 70
     0
  3
__ __ __ __ __ __ __ __ __ __ __ __ __ __ __
 72
    65
 73
     2
 40
7.5
 49
6.0
 74
     0
 49
-1.5
 74
     0
  0
LTYPE
  5
4C
330
5
100
AcDbSymbolTableRecord
100
AcDbLinetypeTableRecord
  2
AM_ISO08W050
 70
     0
  3
____ . ____ . ____ . ____ . ____ . ____ . ____
 72
    65
 73
     4
 40
18.0
 49
12.0
 74
     0
 49
-1.5
 74
     0
 49
3.0
 74
     0
 49
-1.5
 74
     0
  0
LTYPE
  5
4D
330
5
100
AcDbSymbolTableRecord
100
AcDbLinetypeTableRecord
  2
AM_ISO09W050
 70
     0
  3
_____ . . _____ . . _____ . . ____ .. ____
 72
    65
 73
     6
 40
22.5
 49
12.0
 74
     0
 49
-1.5
 74
     0
 49
3.0
 74
     0
 49
-1.5
 74
     0
 49
3.0
 74
     0
 49
-1.5
 74
     0
  0
LTYPE
  5
4E
330
5
100
AcDbSymbolTableRecord
100
AcDbLinetypeTableRecord
  2
AMCONSTR
 70
     0
  3
_______________________
 72
    65
 73
     2
 40
9999.0
 49
9999.0
 74
     0
 49
0.0
 74
     0
  0
LTYPE
  5
4F
330
5
100
AcDbSymbolTableRecord
100
AcDbLinetypeTableRecord
  2
AM_ISO02W050X2
 70
     0
  3
 _ _ _ _ _ _ _ _ _ _ _ _
 72
    65
 73
     2
 40
3.75
 49
3.0
 74
     0
 49
-0.75
 74
     0
  0
LTYPE
  5
50
330
5
100
AcDbSymbolTableRecord
100
AcDbLinetypeTableRecord
  2
AM_ISO08W050X2
 70
     0
  3
__ . __ . __ . __ . __ . __
 72
    65
 73
     4
 40
9.0
 49
6.0
 74
     0
 49
-0.75
 74
     0
 49
1.5
 74
     0
 49
-0.75
 74
     0
  0
LTYPE
  5
53
330
5
100
AcDbSymbolTableRecord
100
AcDbLinetypeTableRecord
  2
AMZIGZAG
 70
     0
  3
/\/-/\/-/\/-/\/-/\/-/\/
 72
    65
 73
     2
 40
11.00009999999999
 49
0.0001
 74
     4
 75
   135
340
52
 46
0.04
 50
0.0
 44
0.0
 45
0.0
 49
-11.0
 74
     0
  0
LTYPE
  5
809D
330
5
100
AcDbSymbolTableRecord
100
AcDbLinetypeTableRecord
  2
HIDDEN
 70
     0
  3
Hidden __ __ __ __ __ __ __ __ __ __ __ __ __ _
 72
    65
 73
     2
 40
9.524999999999996
 49
6.349999999999998
 74
     0
 49
-3.174999999999998
 74
     0
  0
LTYPE
  5
809E
330
5
100
AcDbSymbolTableRecord
100
AcDbLinetypeTableRecord
  2
PHANTOM2
 70
     0
  3
Phantom (.5x) ___ _ _ ___ _ _ ___ _ _ ___ _ _
 72
    65
 73
     6
 40
31.75
 49
15.875
 74
     0
 49
-3.174999999999998
 74
     0
 49
3.174999999999998
 74
     0
 49
-3.174999999999998
 74
     0
 49
3.174999999999998
 74
     0
 49
-3.174999999999998
 74
     0
  0
LTYPE
  5
809F
330
5
100
AcDbSymbolTableRecord
100
AcDbLinetypeTableRecord
  2
CENTER
 70
     0
  3
Center ____ _ ____ _ ____ _ ____ _ ____ _ ____
 72
    65
 73
     4
 40
50.8
 49
31.75
 74
     0
 49
-6.349999999999998
 74
     0
 49
6.349999999999998
 74
     0
 49
-6.349999999999998
 74
     0
  0
LTYPE
  5
81DA
330
5
100
AcDbSymbolTableRecord
100
AcDbLinetypeTableRecord
  2
ACISOWELD
 70
     0
  3
_ _ _ _ _
 72
    65
 73
     2
 40
2.0
 49
2.0
 74
     0
 49
-1.0
 74
     0
  0
LTYPE
  5
81DB
330
5
100
AcDbSymbolTableRecord
100
AcDbLinetypeTableRecord
  2
ACISOTGB
 70
     0
  3
__ . . __ . .
 72
    65
 73
     6
 40
9.0
 49
4.0
 74
     0
 49
-1.0
 74
     0
 49
1.0
 74
     0
 49
-1.0
 74
     0
 49
1.0
 74
     0
 49
-1.0
 74
     0
  0
LTYPE
  5
81DC
330
5
100
AcDbSymbolTableRecord
100
AcDbLinetypeTableRecord
  2
ACISOTGL
 70
     0
  3
_ _ _ _ _
 72
    65
 73
     2
 40
3.0
 49
2.0
 74
     0
 49
-1.0
 74
     0
  0
ENDTAB
  0
TABLE
  2
LAYER
  5
2
330
0
100
AcDbSymbolTable
 70
     7
  0
LAYER
  5
10
330
2
100
AcDbSymbolTableRecord
100
AcDbLayerTableRecord
  2
0
 70
     0
 62
     7
  6
CONTINUOUS
370
    -3
390
F
  0
LAYER
  5
3F9
330
2
100
AcDbSymbolTableRecord
100
AcDbLayerTableRecord
  2
AM_0
 70
     0
 62
     7
  6
CONTINUOUS
370
    -3
390
F
  0
LAYER
  5
BA4
330
2
100
AcDbSymbolTableRecord
100
AcDbLayerTableRecord
  2
AM_5
 70
     0
 62
     3
  6
CONTINUOUS
370
    -3
390
F
  0
LAYER
  5
BA6
330
2
100
AcDbSymbolTableRecord
100
AcDbLayerTableRecord
  2
AM_7
 70
     0
 62
     4
  6
AM_ISO08W050
370
    -3
390
F
  0
LAYER
  5
E64
330
2
100
AcDbSymbolTableRecord
100
AcDbLayerTableRecord
  2
AM_6
 70
     0
 62
     2
  6
CONTINUOUS
370
    -3
390
F
  0
LAYER
  5
F4D
330
2
100
AcDbSymbolTableRecord
100
AcDbLayerTableRecord
  2
DEFPOINTS
 70
     0
 62
     7
  6
CONTINUOUS
290
     0
370
    -3
390
F
  0
LAYER
  5
4E80
330
2
100
AcDbSymbolTableRecord
100
AcDbLayerTableRecord
  2
AM_11
 70
     0
 62
     3
  6
AM_ISO09W050
370
    -3
390
F
  0
ENDTAB
  0
TABLE
  2
STYLE
  5
3
330
0
100
AcDbSymbolTable
 70
     7
  0
STYLE
  5
11
330
3
100
AcDbSymbolTableRecord
100
AcDbTextStyleTableRecord
  2
STANDARD
 70
     0
 40
0.0
 41
1.0
 50
0.0
 71
     0
 42
2.5
  3
simplex.shx
  4
EXTFONT.SHX
  0
STYLE
  5
52
330
3
100
AcDbSymbolTableRecord
100
AcDbTextStyleTableRecord
  2

 70
     1
 40
0.0
 41
1.0
 50
0.0
 71
     0
 42
2.5
  3
ltypeshp.shx
  4

  0
STYLE
  5
6B
330
3
100
AcDbSymbolTableRecord
100
AcDbTextStyleTableRecord
  2
ASAMI
 70
     0
 40
0.0
 41
1.0
 50
0.0
 71
     0
 42
2.5
  3
simplex.shx
  4
EXTFONT.SHX
  0
STYLE
  5
81CC
330
3
100
AcDbSymbolTableRecord
100
AcDbTextStyleTableRecord
  2
ACISOTS
 70
     0
 40
1.0
 41
1.0
 50
0.0
 71
     0
 42
2.5
  3
isocp.shx
  4
extfont.shx
  0
STYLE
  5
81D9
330
3
100
AcDbSymbolTableRecord
100
AcDbTextStyleTableRecord
  2
ACISOGDT
 70
     0
 40
0.0
 41
1.0
 50
0.0
 71
     0
 42
2.5
  3
amgdt.shx
  4

  0
ENDTAB
  0
TABLE
  2
VIEW
  5
6
330
0
100
AcDbSymbolTable
 70
     0
  0
ENDTAB
  0
TABLE
  2
UCS
  5
7
330
0
100
AcDbSymbolTable
 70
     0
  0
ENDTAB
  0
TABLE
  2
APPID
  5
9
330
0
100
AcDbSymbolTable
 70
    31
  0
APPID
  5
12
330
9
100
AcDbSymbolTableRecord
100
AcDbRegAppTableRecord
  2
ACAD
 70
     0
  0
APPID
  5
30
330
9
100
AcDbSymbolTableRecord
100
AcDbRegAppTableRecord
  2
MCAD_NO_VIS
 70
     0
  0
APPID
  5
31
330
9
100
AcDbSymbolTableRecord
100
AcDbRegAppTableRecord
  2
ACAD_TEMP_GRAPHIC
 70
     0
  0
APPID
  5
2C2
330
9
100
AcDbSymbolTableRecord
100
AcDbRegAppTableRecord
  2
GENIUS_GENDTOL_13
 70
     0
  0
APPID
  5
339
330
9
100
AcDbSymbolTableRecord
100
AcDbRegAppTableRecord
  2
GENIUS_GENODEF_13
 70
     0
  0
APPID
  5
33A
330
9
100
AcDbSymbolTableRecord
100
AcDbRegAppTableRecord
  2
GENIUS_GENOBJ-N-RSBK_13
 70
     0
  0
APPID
  5
33B
330
9
100
AcDbSymbolTableRecord
100
AcDbRegAppTableRecord
  2
GENIUS_GENOBJ-N-LIB_13
 70
     0
  0
APPID
  5
33C
330
9
100
AcDbSymbolTableRecord
100
AcDbRegAppTableRecord
  2
GENIUS_GENSCALE_13
 70
     0
  0
APPID
  5
378
330
9
100
AcDbSymbolTableRecord
100
AcDbRegAppTableRecord
  2
GENIUS_GENDIMSH_14
 70
     0
  0
APPID
  5
BB0
330
9
100
AcDbSymbolTableRecord
100
AcDbRegAppTableRecord
  2
GENIUS_GENOBJ-N-CEN_13
 70
     0
  0
APPID
  5
BB1
330
9
100
AcDbSymbolTableRecord
100
AcDbRegAppTableRecord
  2
GENIUS_GENFIL_13
 70
     0
  0
APPID
  5
BB2
330
9
100
AcDbSymbolTableRecord
100
AcDbRegAppTableRecord
  2
GENIUS_GENOBJ-N-CHA_13
 70
     0
  0
APPID
  5
1FAF
330
9
100
AcDbSymbolTableRecord
100
AcDbRegAppTableRecord
  2
GENIUS_GENOBJ-N-CRS_13
 70
     0
  0
APPID
  5
1FB0
330
9
100
AcDbSymbolTableRecord
100
AcDbRegAppTableRecord
  2
GENIUS_GENOENT_13
 70
     0
  0
APPID
  5
1FB1
330
9
100
AcDbSymbolTableRecord
100
AcDbRegAppTableRecord
  2
GENIUS_GENOREF_13
 70
     0
  0
APPID
  5
1FB2
330
9
100
AcDbSymbolTableRecord
100
AcDbRegAppTableRecord
  2
GENIUS_GENOLIS_13
 70
     0
  0
APPID
  5
1FB7
330
9
100
AcDbSymbolTableRecord
100
AcDbRegAppTableRecord
  2
GENIUS_GENOBJ-N-FIL_13
 70
     0
  0
APPID
  5
22A8
330
9
100
AcDbSymbolTableRecord
100
AcDbRegAppTableRecord
  2
GEVID1056506048
 70
     0
  0
APPID
  5
22A9
330
9
100
AcDbSymbolTableRecord
100
AcDbRegAppTableRecord
  2
GEVDC
 70
     0
  0
APPID
  5
22AC
330
9
100
AcDbSymbolTableRecord
100
AcDbRegAppTableRecord
  2
GENIUS_GENBH_13
 70
     0
  0
APPID
  5
22B8
330
9
100
AcDbSymbolTableRecord
100
AcDbRegAppTableRecord
  2
GENIUS_GENOBJ-NBEHI-BHF_13
 70
     0
  0
APPID
  5
22BA
330
9
100
AcDbSymbolTableRecord
100
AcDbRegAppTableRecord
  2
GENIUS_GENOBJ-NBEHI-BHB_13
 70
     0
  0
APPID
  5
35C9
330
9
100
AcDbSymbolTableRecord
100
AcDbRegAppTableRecord
  2
GENIUS_GENREC_14
 70
     0
  0
APPID
  5
35CA
330
9
100
AcDbSymbolTableRecord
100
AcDbRegAppTableRecord
  2
GENIUS_GENOBJ-N-REC_13
 70
     0
  0
APPID
  5
80A1
330
9
100
AcDbSymbolTableRecord
100
AcDbRegAppTableRecord
  2
AD_DRAW
 70
     0
  0
APPID
  5
80A4
330
9
100
AcDbSymbolTableRecord
100
AcDbRegAppTableRecord
  2
ACATTRIBSERVICES
 70
     0
  0
APPID
  5
80C2
330
9
100
AcDbSymbolTableRecord
100
AcDbRegAppTableRecord
  2
DESIGNERASSEMBLIES
 70
     0
  0
APPID
  5
80C7
330
9
100
AcDbSymbolTableRecord
100
AcDbRegAppTableRecord
  2
ACADM_DIM_EDIT
 70
     0
  0
APPID
  5
80C8
330
9
100
AcDbSymbolTableRecord
100
AcDbRegAppTableRecord
  2
AMDT_DM_ADJ
 70
     0
  0
APPID
  5
80CD
330
9
100
AcDbSymbolTableRecord
100
AcDbRegAppTableRecord
  2
GENIUS_GENSCREG_15
 70
     0
  0
APPID
  5
80CE
330
9
100
AcDbSymbolTableRecord
100
AcDbRegAppTableRecord
  2
GENIUS_GENOBJ-N-SDF_13
 70
     0
  0
ENDTAB
  0
TABLE
  2
DIMSTYLE
  5
A
330
0
100
AcDbSymbolTable
 70
    16
100
AcDbDimStyleTable
 71
     1
340
58
  0
DIMSTYLE
105
58
330
A
100
AcDbSymbolTableRecord
100
AcDbDimStyleTableRecord
  2
AM_JIS
 70
     0
  4
"
 41
2.5
 42
1.0
 43
12.0
 44
1.0
 47
0.1
 48
0.1
 73
     0
 74
     0
 77
     3
 78
     8
140
3.2
141
0.0
143
0.0393701
146
0.71
147
1.5
172
     1
176
   256
177
   256
178
     2
271
     3
272
     3
283
     0
340
6B
341
59
342
59
  0
DIMSTYLE
105
B34
102
{ACAD_REACTORS
330
73C5
330
74AA
102
}
330
A
100
AcDbSymbolTableRecord
100
AcDbDimStyleTableRecord
  2
AM_JIS$2
 70
     0
  4
"
 41
2.5
 42
1.0
 43
12.0
 44
1.0
 47
0.1
 48
0.1
 73
     0
 74
     0
 77
     3
 78
     8
140
3.2
141
0.0
143
0.0393701
146
0.71
147
1.5
172
     1
176
   256
177
   256
178
     2
271
     3
272
     3
283
     0
340
6B
341
59
342
59
  0
DIMSTYLE
105
3B48
102
{ACAD_REACTORS
330
758E
330
7947
330
79D3
330
7BBD
330
7C8C
330
7E2C
330
7F95
330
7F97
330
7F99
330
81FF
102
}
330
A
100
AcDbSymbolTableRecord
100
AcDbDimStyleTableRecord
  2
AM_JIS$0
 70
     0
  4
"
 41
2.5
 42
0.0
 43
10.0
 44
1.0
 47
0.1
 48
0.1000000001
 73
     0
 74
     0
 77
     3
 78
     1
140
3.799999999999998
141
0.0
143
0.0393701
146
0.71
147
1.5
172
     1
176
     3
177
     3
178
     2
271
     2
272
     2
275
     1
283
     0
284
     8
340
11
341
59
342
59
  0
DIMSTYLE
105
81E6
330
A
100
AcDbSymbolTableRecord
100
AcDbDimStyleTableRecord
  2
AM_ISO
 70
     0
  4
"
 41
2.5
 42
1.0
 43
10.0
 44
1.0
 47
0.1
 48
0.1
 73
     0
 74
     0
 77
     1
 78
     8
 79
     2
140
3.5
141
0.0
143
0.0393701
146
0.71
147
1.5
172
     1
176
   256
177
   256
178
     2
271
     2
272
     3
274
     4
283
     0
284
     8
340
11
371
    -1
372
    -1
  0
DIMSTYLE
105
81E7
330
A
100
AcDbSymbolTableRecord
100
AcDbDimStyleTableRecord
  2
AM_ISO$3
 70
     0
  4
"
 41
2.5
 42
1.0
 43
10.0
 44
1.0
 47
0.1
 48
0.1
 73
     0
 77
     1
 78
     8
 79
     2
140
3.5
141
0.0
143
0.0393701
146
0.71
147
1.5
176
   256
177
   256
178
     2
271
     2
272
     3
274
     4
283
     0
284
     8
288
     1
289
     0
340
11
371
    -1
372
    -1
  0
DIMSTYLE
105
81E8
330
A
100
AcDbSymbolTableRecord
100
AcDbDimStyleTableRecord
  2
AM_ISO$4
 70
     0
  4
"
 41
2.5
 42
1.0
 43
10.0
 44
1.0
 47
0.1
 48
0.1
 73
     0
 77
     1
 78
     8
 79
     2
140
3.5
141
0.0
143
0.0393701
146
0.71
147
1.5
176
   256
177
   256
178
     2
271
     2
272
     3
274
     4
283
     0
284
     8
288
     1
289
     0
340
11
371
    -1
372
    -1
  0
DIMSTYLE
105
81E9
330
A
100
AcDbSymbolTableRecord
100
AcDbDimStyleTableRecord
  2
AM_ISO$6
 70
     0
  4
"
 41
2.5
 42
1.0
 43
10.0
 44
1.0
 47
0.1
 48
0.1
 73
     0
 74
     0
 78
     8
 79
     2
140
3.5
141
0.0
143
0.0393701
146
0.71
147
1.5
172
     1
176
   256
177
   256
178
     2
271
     2
272
     3
274
     4
283
     0
284
     8
340
11
371
    -1
372
    -1
  0
DIMSTYLE
105
81EA
330
A
100
AcDbSymbolTableRecord
100
AcDbDimStyleTableRecord
  2
AM_ISO$7
 70
     0
  4
"
 41
2.5
 42
1.0
 43
10.0
 44
1.0
 47
0.1
 48
0.1
 73
     0
 74
     0
 77
     1
 78
     8
 79
     2
140
5.0
141
0.0
143
0.0393701
146
0.71
147
1.5
172
     1
176
   256
177
   256
178
     2
271
     2
272
     3
274
     4
283
     0
284
     8
340
11
371
    -1
372
    -1
  0
DIMSTYLE
105
81EB
330
A
100
AcDbSymbolTableRecord
100
AcDbDimStyleTableRecord
  2
AM_ISO$SF
 70
     0
  4
"
 41
2.5
 42
1.0
 43
10.0
 44
1.0
 47
0.1
 48
0.1
 73
     0
 74
     0
 75
     1
 76
     1
 77
     1
 78
     8
 79
     2
140
3.5
141
0.0
143
0.0393701
146
0.71
147
1.5
172
     1
176
   256
177
   256
178
     2
271
     2
272
     3
274
     4
283
     0
284
     8
340
11
371
    -1
372
    -1
  0
DIMSTYLE
105
81EC
330
A
100
AcDbSymbolTableRecord
100
AcDbDimStyleTableRecord
  2
AM_ISO$SH
 70
     0
  4
"
 41
2.5
 42
1.0
 43
10.0
 44
1.0
 47
0.1
 48
0.1
 73
     0
 74
     0
 75
     1
 76
     1
 77
     1
 78
     8
 79
     2
140
3.5
141
0.0
143
0.0393701
144
2.0
146
0.71
147
1.5
172
     1
173
     1
176
   256
177
   256
178
     2
271
     2
272
     3
274
     4
283
     0
284
     8
340
11
343
64
371
    -1
372
    -1
  0
ENDTAB
  0
TABLE
  2
BLOCK_RECORD
  5
1
330
0
100
AcDbSymbolTable
 70
    16
  0
BLOCK_RECORD
  5
1F
102
{ACAD_XDICTIONARY
360
74
102
}
330
1
100
AcDbSymbolTableRecord
100
AcDbBlockTableRecord
  2
*MODEL_SPACE
340
8068
  0
BLOCK_RECORD
  5
101
102
{ACAD_XDICTIONARY
360
801A
102
}
330
1
100
AcDbSymbolTableRecord
100
AcDbBlockTableRecord
  2
*PAPER_SPACE
340
8069
  0
BLOCK_RECORD
  5
59
330
1
100
AcDbSymbolTableRecord
100
AcDbBlockTableRecord
  2
_OPEN30
340
0
102
{BLKREFS
331
7F73
331
7F74
331
7F7F
331
7F80
331
7F8B
331
7F8C
331
80DE
331
80DF
331
80E9
331
80EA
331
8104
331
8105
331
812C
331
812D
331
8137
331
8138
331
8140
331
8141
331
8149
331
814A
331
8152
331
8153
331
8227
331
8228
102
}
  0
BLOCK_RECORD
  5
64
330
1
100
AcDbSymbolTableRecord
100
AcDbBlockTableRecord
  2
GENAXEH
340
0
  0
BLOCK_RECORD
  5
73C6
330
1
100
AcDbSymbolTableRecord
100
AcDbBlockTableRecord
  2
*D2
340
0
  0
BLOCK_RECORD
  5
74AB
330
1
100
AcDbSymbolTableRecord
100
AcDbBlockTableRecord
  2
*D3
340
0
  0
BLOCK_RECORD
  5
758F
330
1
100
AcDbSymbolTableRecord
100
AcDbBlockTableRecord
  2
*D4
340
0
  0
BLOCK_RECORD
  5
7948
330
1
100
AcDbSymbolTableRecord
100
AcDbBlockTableRecord
  2
*D5
340
0
  0
BLOCK_RECORD
  5
79D4
330
1
100
AcDbSymbolTableRecord
100
AcDbBlockTableRecord
  2
*D6
340
0
  0
BLOCK_RECORD
  5
7BBE
330
1
100
AcDbSymbolTableRecord
100
AcDbBlockTableRecord
  2
*D7
340
0
  0
BLOCK_RECORD
  5
7C8D
330
1
100
AcDbSymbolTableRecord
100
AcDbBlockTableRecord
  2
*D8
340
0
  0
BLOCK_RECORD
  5
7E2D
330
1
100
AcDbSymbolTableRecord
100
AcDbBlockTableRecord
  2
*D9
340
0
  0
BLOCK_RECORD
  5
8200
330
1
100
AcDbSymbolTableRecord
100
AcDbBlockTableRecord
  2
*D15
340
0
  0
ENDTAB
  0
ENDSEC
  0
SECTION
  2
BLOCKS
  0
BLOCK
  5
20
330
1F
100
AcDbEntity
  8
0
100
AcDbBlockBegin
  2
*MODEL_SPACE
 70
     0
 10
0.0
 20
0.0
 30
0.0
  3
*MODEL_SPACE
  1

  0
ENDBLK
  5
21
330
1F
100
AcDbEntity
  8
0
100
AcDbBlockEnd
  0
BLOCK
  5
103
330
101
100
AcDbEntity
 67
     1
  8
0
100
AcDbBlockBegin
  2
*PAPER_SPACE
 70
     0
 10
0.0
 20
0.0
 30
0.0
  3
*PAPER_SPACE
  1

  0
ENDBLK
  5
104
330
101
100
AcDbEntity
 67
     1
  8
0
100
AcDbBlockEnd
  0
BLOCK
  5
5D
330
59
100
AcDbEntity
  8
0
100
AcDbBlockBegin
  2
_OPEN30
 70
     0
 10
0.0
 20
0.0
 30
0.0
  3
_OPEN30
  1

  0
LINE
  5
5A
330
59
100
AcDbEntity
  8
0
 62
     0
100
AcDbLine
 10
-1.0
 20
0.26794919
 30
0.0
 11
0.0
 21
0.0
 31
0.0
  0
LINE
  5
5B
330
59
100
AcDbEntity
  8
0
 62
     0
100
AcDbLine
 10
0.0
 20
0.0
 30
0.0
 11
-1.0
 21
-0.26794919
 31
0.0
  0
LINE
  5
5C
330
59
100
AcDbEntity
  8
0
 62
     0
100
AcDbLine
 10
0.0
 20
0.0
 30
0.0
 11
-1.0
 21
0.0
 31
0.0
  0
ENDBLK
  5
5E
330
59
100
AcDbEntity
  8
0
100
AcDbBlockEnd
  0
BLOCK
  5
66
330
64
100
AcDbEntity
  8
0
100
AcDbBlockBegin
  2
GENAXEH
 70
     0
 10
0.0
 20
0.0
 30
0.0
  3
GENAXEH
  1

  0
LINE
  5
65
330
64
100
AcDbEntity
  8
0
100
AcDbLine
 10
-1.0
 20
0.0
 30
0.0
 11
1.0
 21
0.0
 31
0.0
  0
ENDBLK
  5
67
330
64
100
AcDbEntity
  8
0
100
AcDbBlockEnd
  0
BLOCK
  5
73D6
330
73C6
100
AcDbEntity
  8
0
100
AcDbBlockBegin
  2
*D2
 70
     1
 10
0.0
 20
0.0
 30
0.0
  3
*D2
  1

  0
LINE
  5
8129
330
73C6
100
AcDbEntity
  8
AM_5
370
    -2
100
AcDbLine
 10
-2.690559363291665
 20
-0.1851267136802718
 30
0.0
 11
-21.86313399333716
 21
-1.189918773179357
 31
0.0
  0
LINE
  5
812A
330
73C6
100
AcDbEntity
  8
AM_5
370
    -2
100
AcDbLine
 10
-2.479940582143807
 20
-0.7484522327629909
 30
0.0
 11
-17.60886923586745
 21
-12.56846673436308
 31
0.0
  0
ARC
  5
812B
330
73C6
100
AcDbEntity
  8
AM_5
370
    -2
100
AcDbCircle
 10
-1.69192982853709
 20
-0.1327907574373266
 30
0.0
 40
19.19888603610888
100
AcDbArc
 50
190.4661020320429
 51
210.5338979679576
  0
INSERT
  5
812C
330
73C6
100
AcDbEntity
  8
AM_5
370
    -2
100
AcDbBlockReference
  2
_OPEN30
 10
-20.86450445858259
 20
-1.137582816936412
 30
0.0
 41
2.5
 42
2.5
 43
2.5
 50
96.73305101602146
  0
INSERT
  5
812D
330
73C6
100
AcDbEntity
  8
AM_5
370
    -2
100
AcDbBlockReference
  2
_OPEN30
 10
-16.82085848226073
 20
-11.95280525903742
 30
0.0
 41
2.5
 42
2.5
 43
2.5
 50
304.2669489839791
  0
MTEXT
  5
812E
330
73C6
100
AcDbEntity
  8
AM_5
 62
     2
100
AcDbMText
 10
-16.12021047839157
 20
-7.274138605893969
 30
0.0
 40
3.2
 41
0.0
 71
     5
 72
     1
  1
35°
  7
ASAMI
 11
0.4435926704766411
 21
-0.8962285103138608
 31
0.0
 73
     1
 44
1.0
1001
ACAD
1000
MTEXTBEGIN
1070
    73
1070
     1
1070
    44
1040
1.0
1070
    74
1070
     0
1000
MTEXTEND
  0
POINT
  5
812F
330
73C6
100
AcDbEntity
  8
DEFPOINTS
 62
     0
100
AcDbPoint
 10
-20.26522437660188
 20
-4.993855934774853
 30
0.0
  0
POINT
  5
8130
330
73C6
100
AcDbEntity
  8
DEFPOINTS
 62
     0
100
AcDbPoint
 10
11.39403736330578
 20
10.09108731848809
 30
0.0
  0
POINT
  5
8131
330
73C6
100
AcDbEntity
  8
DEFPOINTS
 62
     0
100
AcDbPoint
 10
14.89164250063655
 20
0.7363174409143456
 30
0.0
  0
POINT
  5
8132
330
73C6
100
AcDbEntity
  8
DEFPOINTS
 62
     0
100
AcDbPoint
 10
0.8418687649941315
 20
0.0000000000001419
 30
0.0
  0
POINT
  5
8133
330
73C6
100
AcDbEntity
  8
DEFPOINTS
 62
     0
100
AcDbPoint
 10
0.3074708197392226
 20
1.42931223068919
 30
0.0
  0
ENDBLK
  5
73D7
330
73C6
100
AcDbEntity
  8
0
100
AcDbBlockEnd
  0
BLOCK
  5
74BB
330
74AB
100
AcDbEntity
  8
0
100
AcDbBlockBegin
  2
*D3
 70
     1
 10
0.0
 20
0.0
 30
0.0
  3
*D3
  1

  0
LINE
  5
80DC
330
74AB
100
AcDbEntity
  8
AM_5
370
    -2
100
AcDbLine
 10
-0.0000000000002587
 20
-1.044120472420969
 30
0.0
 11
-0.0000000000002638
 21
-15.04412047242097
 31
0.0
  0
ARC
  5
80DD
330
74AB
100
AcDbEntity
  8
AM_5
370
    -2
100
AcDbCircle
 10
-0.0000000000002583
 20
-0.0441204724209706
 30
0.0
 40
14.0
100
AcDbArc
 50
280.2450321995618
 51
352.7549678004383
  0
INSERT
  5
80DE
330
74AB
100
AcDbEntity
  8
AM_5
370
    -2
100
AcDbBlockReference
  2
_OPEN30
 10
-0.0000000000002638
 20
-14.04412047242097
 30
0.0
 41
2.5
 42
2.5
 43
2.5
 50
185.1225160997808
  0
INSERT
  5
80DF
330
74AB
100
AcDbEntity
  8
AM_5
370
    -2
100
AcDbBlockReference
  2
_OPEN30
 10
13.98081348656377
 20
0.6885829149802724
 30
0.0
 41
2.5
 42
2.5
 43
2.5
 50
87.87748390021922
  0
MTEXT
  5
80E0
330
74AB
100
AcDbEntity
  8
AM_5
 62
     2
100
AcDbMText
 10
7.906580644033682
 20
-7.547185347482884
 30
0.0
 40
3.2
 41
0.0
 71
     5
 72
     1
  1
93°
  7
ASAMI
 11
0.6883545756937525
 21
0.7253743710122891
 31
0.0
 73
     1
 44
1.0
1001
ACAD
1000
MTEXTBEGIN
1070
    73
1070
     1
1070
    44
1040
1.0
1070
    74
1070
     0
1000
MTEXTEND
  0
POINT
  5
80E1
330
74AB
100
AcDbEntity
  8
DEFPOINTS
 62
     0
100
AcDbPoint
 10
7.210533048740468
 20
-12.04446268225056
 30
0.0
  0
POINT
  5
80E2
330
74AB
100
AcDbEntity
  8
DEFPOINTS
 62
     0
100
AcDbPoint
 10
14.89164250063655
 20
0.7363174409143465
 30
0.0
  0
POINT
  5
80E3
330
74AB
100
AcDbEntity
  8
DEFPOINTS
 62
     0
100
AcDbPoint
 10
-0.0000000000002557
 20
0.7989036278038099
 30
0.0
  0
POINT
  5
80E4
330
74AB
100
AcDbEntity
  8
DEFPOINTS
 62
     0
100
AcDbPoint
 10
-0.0000000000002558
 20
0.0000000000001705
 30
0.0
  0
POINT
  5
80E5
330
74AB
100
AcDbEntity
  8
DEFPOINTS
 62
     0
100
AcDbPoint
 10
0.8418687649941317
 20
0.0000000000001418
 30
0.0
  0
ENDBLK
  5
74BC
330
74AB
100
AcDbEntity
  8
0
100
AcDbBlockEnd
  0
BLOCK
  5
7599
330
758F
100
AcDbEntity
  8
0
100
AcDbBlockBegin
  2
*D4
 70
     1
 10
0.0
 20
0.0
 30
0.0
  3
*D4
  1

  0
LINE
  5
80E6
330
758F
100
AcDbEntity
  8
AM_5
100
AcDbLine
 10
-0.000000000000253
 20
-0.9999999999998292
 30
0.0
 11
-0.0000000000001902
 21
-23.04412047242216
 31
0.0
  0
LINE
  5
80E7
330
758F
100
AcDbEntity
  8
AM_5
100
AcDbLine
 10
40.99999999999974
 20
6.000000000001434
 30
0.0
 11
40.99999999999981
 21
-23.04412047242204
 31
0.0
  0
LINE
  5
80E8
330
758F
100
AcDbEntity
  8
AM_5
100
AcDbLine
 10
2.499999999999806
 20
-22.04412047242215
 30
0.0
 11
38.49999999999982
 21
-22.04412047242204
 31
0.0
  0
INSERT
  5
80E9
330
758F
100
AcDbEntity
  8
AM_5
100
AcDbBlockReference
  2
_OPEN30
 10
-0.000000000000193
 20
-22.04412047242215
 30
0.0
 41
2.5
 42
2.5
 43
2.5
 50
180.0000000000001
  0
INSERT
  5
80EA
330
758F
100
AcDbEntity
  8
AM_5
100
AcDbBlockReference
  2
_OPEN30
 10
40.99999999999981
 20
-22.04412047242203
 30
0.0
 41
2.5
 42
2.5
 43
2.5
 50
0.0000000000001527
  0
MTEXT
  5
80EB
330
758F
100
AcDbEntity
  8
AM_5
 62
     2
100
AcDbMText
 10
20.49999999999981
 20
-18.94412047242209
 30
0.0
 40
3.2
 41
0.0
 71
     5
 72
     1
  1
41
  7
ASAMI
 73
     1
 44
1.0
1001
ACAD
1000
MTEXTBEGIN
1070
    73
1070
     1
1070
    44
1040
1.0
1070
    74
1070
     0
1000
MTEXTEND
  0
POINT
  5
80EC
330
758F
100
AcDbEntity
  8
DEFPOINTS
 62
     0
100
AcDbPoint
 10
-0.0000000000002558
 20
0.0000000000001705
 30
0.0
  0
POINT
  5
80ED
330
758F
100
AcDbEntity
  8
DEFPOINTS
 62
     0
100
AcDbPoint
 10
40.99999999999975
 20
7.000000000001314
 30
0.0
  0
POINT
  5
80EE
330
758F
100
AcDbEntity
  8
DEFPOINTS
 62
     0
100
AcDbPoint
 10
40.99999999999975
 20
-22.04412047242215
 30
0.0
  0
ENDBLK
  5
759A
330
758F
100
AcDbEntity
  8
0
100
AcDbBlockEnd
  0
BLOCK
  5
7952
330
7948
100
AcDbEntity
  8
0
100
AcDbBlockBegin
  2
*D5
 70
     1
 10
0.0
 20
0.0
 30
0.0
  3
*D5
  1

  0
LINE
  5
813D
330
7948
100
AcDbEntity
  8
AM_5
100
AcDbLine
 10
170.9999999999999
 20
-82.4746247432464
 30
0.0
 11
184.9999999999999
 21
-82.47462474324635
 31
0.0
  0
LINE
  5
813E
330
7948
100
AcDbEntity
  8
AM_5
100
AcDbLine
 10
170.9999999999998
 20
-50.47462474324628
 30
0.0
 11
184.9999999999998
 21
-50.47462474324625
 31
0.0
  0
LINE
  5
813F
330
7948
100
AcDbEntity
  8
AM_5
100
AcDbLine
 10
183.9999999999999
 20
-79.97462474324635
 30
0.0
 11
183.9999999999998
 21
-52.97462474324625
 31
0.0
  0
INSERT
  5
8140
330
7948
100
AcDbEntity
  8
AM_5
100
AcDbBlockReference
  2
_OPEN30
 10
183.9999999999999
 20
-82.47462474324635
 30
0.0
 41
2.5
 42
2.5
 43
2.5
 50
270.0000000000002
  0
INSERT
  5
8141
330
7948
100
AcDbEntity
  8
AM_5
100
AcDbBlockReference
  2
_OPEN30
 10
183.9999999999998
 20
-50.47462474324625
 30
0.0
 41
2.5
 42
2.5
 43
2.5
 50
90.00000000000015
  0
MTEXT
  5
8142
330
7948
100
AcDbEntity
  8
AM_5
 62
     2
100
AcDbMText
 10
180.8999999999999
 20
-66.47462474324632
 30
0.0
 40
3.2
 41
0.0
 71
     5
 72
     1
  1
32
  7
ASAMI
 11
-0.0000000000000028
 21
1.0
 31
0.0
 73
     1
 44
1.0
1001
ACAD
1000
MTEXTBEGIN
1070
    73
1070
     1
1070
    44
1040
1.0
1070
    74
1070
     0
1000
MTEXTEND
  0
POINT
  5
8143
330
7948
100
AcDbEntity
  8
DEFPOINTS
 62
     0
100
AcDbPoint
 10
169.9999999999997
 20
-82.47462474324693
 30
0.0
  0
POINT
  5
8144
330
7948
100
AcDbEntity
  8
DEFPOINTS
 62
     0
100
AcDbPoint
 10
169.9999999999997
 20
-50.47462474324682
 30
0.0
  0
POINT
  5
8145
330
7948
100
AcDbEntity
  8
DEFPOINTS
 62
     0
100
AcDbPoint
 10
183.9999999999997
 20
-50.47462474324682
 30
0.0
  0
ENDBLK
  5
7953
330
7948
100
AcDbEntity
  8
0
100
AcDbBlockEnd
  0
BLOCK
  5
79DE
330
79D4
100
AcDbEntity
  8
0
100
AcDbBlockBegin
  2
*D6
 70
     1
 10
0.0
 20
0.0
 30
0.0
  3
*D6
  1

  0
LINE
  5
8146
330
79D4
100
AcDbEntity
  8
AM_5
100
AcDbLine
 10
170.9999999999996
 20
7.000000000002209
 30
0.0
 11
184.9999999999994
 21
7.000000000002249
 31
0.0
  0
LINE
  5
8147
330
79D4
100
AcDbEntity
  8
AM_5
100
AcDbLine
 10
170.9999999999996
 20
32.0000000000022
 30
0.0
 11
184.9999999999993
 21
32.00000000000223
 31
0.0
  0
LINE
  5
8148
330
79D4
100
AcDbEntity
  8
AM_5
100
AcDbLine
 10
183.9999999999994
 20
9.500000000002248
 30
0.0
 11
183.9999999999993
 21
29.50000000000223
 31
0.0
  0
INSERT
  5
8149
330
79D4
100
AcDbEntity
  8
AM_5
100
AcDbBlockReference
  2
_OPEN30
 10
183.9999999999994
 20
7.000000000002247
 30
0.0
 41
2.5
 42
2.5
 43
2.5
 50
270.0000000000002
  0
INSERT
  5
814A
330
79D4
100
AcDbEntity
  8
AM_5
100
AcDbBlockReference
  2
_OPEN30
 10
183.9999999999993
 20
32.00000000000223
 30
0.0
 41
2.5
 42
2.5
 43
2.5
 50
90.00000000000015
  0
MTEXT
  5
814B
330
79D4
100
AcDbEntity
  8
AM_5
 62
     2
100
AcDbMText
 10
180.8999999999993
 20
19.50000000000222
 30
0.0
 40
3.2
 41
0.0
 71
     5
 72
     1
  1
25
  7
ASAMI
 11
-0.0000000000000028
 21
1.0
 31
0.0
 73
     1
 44
1.0
1001
ACAD
1000
MTEXTBEGIN
1070
    73
1070
     1
1070
    44
1040
1.0
1070
    74
1070
     0
1000
MTEXTEND
  0
POINT
  5
814C
330
79D4
100
AcDbEntity
  8
DEFPOINTS
 62
     0
100
AcDbPoint
 10
169.9999999999997
 20
7.000000000001678
 30
0.0
  0
POINT
  5
814D
330
79D4
100
AcDbEntity
  8
DEFPOINTS
 62
     0
100
AcDbPoint
 10
169.9999999999997
 20
32.00000000000166
 30
0.0
  0
POINT
  5
814E
330
79D4
100
AcDbEntity
  8
DEFPOINTS
 62
     0
100
AcDbPoint
 10
183.9999999999994
 20
32.00000000000166
 30
0.0
  0
ENDBLK
  5
79DF
330
79D4
100
AcDbEntity
  8
0
100
AcDbBlockEnd
  0
BLOCK
  5
7BC8
330
7BBE
100
AcDbEntity
  8
0
100
AcDbBlockBegin
  2
*D7
 70
     1
 10
0.0
 20
0.0
 30
0.0
  3
*D7
  1

  0
LINE
  5
8101
330
7BBE
100
AcDbEntity
  8
AM_5
100
AcDbLine
 10
-0.9999999999999912
 20
-50.47462474324722
 30
0.0
 11
-14.99999999999985
 21
-50.47462474324727
 31
0.0
  0
LINE
  5
8102
330
7BBE
100
AcDbEntity
  8
AM_5
100
AcDbLine
 10
0.7774156550456289
 20
-82.47462474324725
 30
0.0
 11
-14.99999999999975
 21
-82.47462474324731
 31
0.0
  0
LINE
  5
8103
330
7BBE
100
AcDbEntity
  8
AM_5
100
AcDbLine
 10
-13.99999999999984
 20
-52.97462474324727
 30
0.0
 11
-13.99999999999976
 21
-79.97462474324731
 31
0.0
  0
INSERT
  5
8104
330
7BBE
100
AcDbEntity
  8
AM_5
100
AcDbBlockReference
  2
_OPEN30
 10
-13.99999999999985
 20
-50.47462474324727
 30
0.0
 41
2.5
 42
2.5
 43
2.5
 50
90.00000000000019
  0
INSERT
  5
8105
330
7BBE
100
AcDbEntity
  8
AM_5
100
AcDbBlockReference
  2
_OPEN30
 10
-13.99999999999975
 20
-82.47462474324731
 30
0.0
 41
2.5
 42
2.5
 43
2.5
 50
270.0000000000002
  0
MTEXT
  5
8106
330
7BBE
100
AcDbEntity
  8
AM_5
 62
     2
100
AcDbMText
 10
-17.0999999999998
 20
-66.4746247432473
 30
0.0
 40
3.2
 41
0.0
 71
     5
 72
     1
  1
32
  7
ASAMI
 11
-0.0000000000000028
 21
1.0
 31
0.0
 73
     1
 44
1.0
1001
ACAD
1000
MTEXTBEGIN
1070
    73
1070
     1
1070
    44
1040
1.0
1070
    74
1070
     0
1000
MTEXTEND
  0
POINT
  5
8107
330
7BBE
100
AcDbEntity
  8
DEFPOINTS
 62
     0
100
AcDbPoint
 10
-0.0000000000001483
 20
-50.47462474324722
 30
0.0
  0
POINT
  5
8108
330
7BBE
100
AcDbEntity
  8
DEFPOINTS
 62
     0
100
AcDbPoint
 10
1.777415655045371
 20
-82.47462474324725
 30
0.0
  0
POINT
  5
8109
330
7BBE
100
AcDbEntity
  8
DEFPOINTS
 62
     0
100
AcDbPoint
 10
-14.00000000000001
 20
-82.47462474324725
 30
0.0
  0
ENDBLK
  5
7BC9
330
7BBE
100
AcDbEntity
  8
0
100
AcDbBlockEnd
  0
BLOCK
  5
7C97
330
7C8D
100
AcDbEntity
  8
0
100
AcDbBlockBegin
  2
*D8
 70
     1
 10
0.0
 20
0.0
 30
0.0
  3
*D8
  1

  0
LINE
  5
8134
330
7C8D
100
AcDbEntity
  8
AM_5
100
AcDbLine
 10
-1.000000000000254
 20
0.0000000000001677
 30
0.0
 11
-21.94471094266055
 21
0.0000000000001085
 31
0.0
  0
LINE
  5
8135
330
7C8D
100
AcDbEntity
  8
AM_5
100
AcDbLine
 10
39.90363563816466
 20
32.00000000000144
 30
0.0
 11
-21.94471094266064
 21
32.00000000000127
 31
0.0
  0
LINE
  5
8136
330
7C8D
100
AcDbEntity
  8
AM_5
100
AcDbLine
 10
-20.94471094266056
 20
2.500000000000111
 30
0.0
 11
-20.94471094266063
 21
29.50000000000127
 31
0.0
  0
INSERT
  5
8137
330
7C8D
100
AcDbEntity
  8
AM_5
100
AcDbBlockReference
  2
_OPEN30
 10
-20.94471094266055
 20
0.0000000000001113
 30
0.0
 41
2.5
 42
2.5
 43
2.5
 50
270.0000000000002
  0
INSERT
  5
8138
330
7C8D
100
AcDbEntity
  8
AM_5
100
AcDbBlockReference
  2
_OPEN30
 10
-20.94471094266064
 20
32.00000000000127
 30
0.0
 41
2.5
 42
2.5
 43
2.5
 50
90.00000000000015
  0
MTEXT
  5
8139
330
7C8D
100
AcDbEntity
  8
AM_5
 62
     2
100
AcDbMText
 10
-24.04471094266061
 20
16.00000000000067
 30
0.0
 40
3.2
 41
0.0
 71
     5
 72
     1
  1
32
  7
ASAMI
 11
-0.0000000000000028
 21
1.0
 31
0.0
 73
     1
 44
1.0
1001
ACAD
1000
MTEXTBEGIN
1070
    73
1070
     1
1070
    44
1040
1.0
1070
    74
1070
     0
1000
MTEXTEND
  0
POINT
  5
813A
330
7C8D
100
AcDbEntity
  8
DEFPOINTS
 62
     0
100
AcDbPoint
 10
-0.0000000000002558
 20
0.0000000000001705
 30
0.0
  0
POINT
  5
813B
330
7C8D
100
AcDbEntity
  8
DEFPOINTS
 62
     0
100
AcDbPoint
 10
40.90363563816476
 20
32.00000000000132
 30
0.0
  0
POINT
  5
813C
330
7C8D
100
AcDbEntity
  8
DEFPOINTS
 62
     0
100
AcDbPoint
 10
-20.94471094266054
 20
32.00000000000134
 30
0.0
  0
ENDBLK
  5
7C98
330
7C8D
100
AcDbEntity
  8
0
100
AcDbBlockEnd
  0
BLOCK
  5
7E37
330
7E2D
100
AcDbEntity
  8
0
100
AcDbBlockBegin
  2
*D9
 70
     1
 10
0.0
 20
0.0
 30
0.0
  3
*D9
  1

  0
LINE
  5
814F
330
7E2D
100
AcDbEntity
  8
AM_5
 62
     3
370
    -2
100
AcDbLine
 10
169.9999999999998
 20
-50.47462474324632
 30
0.0
 11
169.9999999999997
 21
-35.47462374324632
 31
0.0
  0
LINE
  5
8150
330
7E2D
100
AcDbEntity
  8
AM_5
 62
     3
370
    -2
100
AcDbLine
 10
-0.0000000000000136
 20
-50.47462474324712
 30
0.0
 11
-0.0000000000000564
 21
-35.47462374324683
 31
0.0
  0
LINE
  5
8151
330
7E2D
100
AcDbEntity
  8
AM_5
 62
     3
370
    -2
100
AcDbLine
 10
167.4999999999998
 20
-36.47462374324633
 30
0.0
 11
2.499999999999945
 21
-36.47462374324682
 31
0.0
  0
INSERT
  5
8152
330
7E2D
100
AcDbEntity
  8
AM_5
 62
     3
370
    -2
100
AcDbBlockReference
  2
_OPEN30
 10
169.9999999999997
 20
-36.47462374324632
 30
0.0
 41
2.5
 42
2.5
 43
2.5
 50
0.0000000000001527
  0
INSERT
  5
8153
330
7E2D
100
AcDbEntity
  8
AM_5
 62
     3
370
    -2
100
AcDbBlockReference
  2
_OPEN30
 10
-0.0000000000000535
 20
-36.47462374324682
 30
0.0
 41
2.5
 42
2.5
 43
2.5
 50
180.0000000000001
  0
MTEXT
  5
8154
330
7E2D
100
AcDbEntity
  8
AM_5
 62
     2
100
AcDbMText
 10
84.99999999999984
 20
-33.07462374324657
 30
0.0
 40
3.799999999999998
 41
0.0
 71
     5
 72
     1
  1
170
 73
     1
 44
1.0
1001
ACAD
1000
MTEXTBEGIN
1070
    73
1070
     1
1070
    44
1040
1.0
1070
    74
1070
     0
1000
MTEXTEND
  0
POINT
  5
8155
330
7E2D
100
AcDbEntity
  8
DEFPOINTS
 62
     0
100
AcDbPoint
 10
169.9999999999996
 20
-50.47462474324682
 30
0.0
  0
POINT
  5
8156
330
7E2D
100
AcDbEntity
  8
DEFPOINTS
 62
     0
100
AcDbPoint
 10
-0.0000000000001605
 20
-50.47462474324712
 30
0.0
  0
POINT
  5
8157
330
7E2D
100
AcDbEntity
  8
DEFPOINTS
 62
     0
100
AcDbPoint
 10
-0.0000000000001596
 20
-36.47462374324682
 30
0.0
  0
ENDBLK
  5
7E38
330
7E2D
100
AcDbEntity
  8
0
100
AcDbBlockEnd
  0
BLOCK
  5
8230
330
8200
100
AcDbEntity
  8
0
100
AcDbBlockBegin
  2
*D15
 70
     1
 10
0.0
 20
0.0
 30
0.0
  3
*D15
  1

  0
LINE
  5
8222
330
8200
100
AcDbEntity
  8
AM_5
 62
     3
100
AcDbLine
 10
0.0
 20
0.0
 30
0.0
 11
65.31750875148782
 21
0.0000000000001265
 31
0.0
  0
LINE
  5
8223
330
8200
100
AcDbEntity
  8
AM_5
 62
     3
100
AcDbLine
 10
40.99999999999973
 20
7.000000000001405
 30
0.0
 11
65.3175087514878
 21
7.000000000001453
 31
0.0
  0
LINE
  5
8224
330
8200
100
AcDbEntity
  8
AM_5
 62
     3
100
AcDbLine
 10
64.31750875148782
 20
-2.499999999999875
 30
0.0
 11
64.31750875148783
 21
-4.999999999999874
 31
0.0
  0
LINE
  5
8225
330
8200
100
AcDbEntity
  8
AM_5
 62
     3
100
AcDbLine
 10
64.31750875148781
 20
9.500000000001449
 30
0.0
 11
64.31750875148779
 21
12.00000000000145
 31
0.0
  0
LINE
  5
8226
330
8200
100
AcDbEntity
  8
AM_5
 62
     3
100
AcDbLine
 10
64.31750875148782
 20
0.0000000000001246
 30
0.0
 11
64.31750875148781
 21
7.000000000001451
 31
0.0
  0
INSERT
  5
8227
330
8200
100
AcDbEntity
  8
AM_5
 62
     3
100
AcDbBlockReference
  2
_OPEN30
 10
64.31750875148782
 20
0.0000000000001246
 30
0.0
 41
2.5
 42
2.5
 43
2.5
 50
90.0000000000001
  0
INSERT
  5
8228
330
8200
100
AcDbEntity
  8
AM_5
 62
     3
100
AcDbBlockReference
  2
_OPEN30
 10
64.31750875148781
 20
7.000000000001451
 30
0.0
 41
2.5
 42
2.5
 43
2.5
 50
270.0000000000001
  0
MTEXT
  5
8229
330
8200
100
AcDbEntity
  8
AM_5
 62
     2
100
AcDbMText
 10
60.91750875148782
 20
3.500000000000778
 30
0.0
 40
3.799999999999998
 41
0.0
 71
     5
 72
     1
  1
7
 11
-0.000000000000002
 21
1.0
 31
0.0
 73
     1
 44
1.0
1001
ACAD
1000
MTEXTBEGIN
1070
    73
1070
     1
1070
    44
1040
1.0
1070
    74
1070
     0
1000
MTEXTEND
  0
POINT
  5
822A
330
8200
100
AcDbEntity
  8
DEFPOINTS
 62
     0
100
AcDbPoint
 10
0.0
 20
0.0
 30
0.0
  0
POINT
  5
822B
330
8200
100
AcDbEntity
  8
DEFPOINTS
 62
     0
100
AcDbPoint
 10
40.99999999999975
 20
7.000000000001315
 30
0.0
  0
POINT
  5
822C
330
8200
100
AcDbEntity
  8
DEFPOINTS
 62
     0
100
AcDbPoint
 10
64.31750875148782
 20
7.000000000001308
 30
0.0
  0
ENDBLK
  5
8231
330
8200
100
AcDbEntity
  8
0
100
AcDbBlockEnd
  0
ENDSEC
  0
SECTION
  2
ENTITIES
  0
TEXT
  5
388D
330
1F
100
AcDbEntity
  8
AM_6
100
AcDbText
 10
42.38204397943528
 20
-97.03998037454244
 30
0.0
 40
5.0
  1
SVJCR3225-33
 50
359.9999999999997
 51
359.9999999999998
 72
     4
 11
70.71537731276862
 21
-94.53998037454256
 31
0.0
100
AcDbText
  0
LINE
  5
6E84
330
1F
100
AcDbEntity
  8
AM_0
100
AcDbLine
 10
40.99999999999972
 20
7.000000000001314
 30
0.0
 11
169.9999999999997
 21
7.000000000001692
 31
0.0
  0
LINE
  5
6E8C
330
1F
100
AcDbEntity
  8
AM_0
100
AcDbLine
 10
33.42228133862541
 20
-50.47462474324714
 30
0.0
 11
169.9999999999997
 21
-50.47462474324682
 31
0.0
  0
LINE
  5
6F3A
330
1F
100
AcDbEntity
  8
AM_0
100
AcDbLine
 10
40.90363563816152
 20
31.99999999999878
 30
0.0
 11
12.96702013262555
 21
10.1735238522786
 31
0.0
  0
LINE
  5
6F3B
330
1F
100
AcDbEntity
  8
AM_0
100
AcDbLine
 10
16.13287089847947
 20
1.706071347360986
 30
0.0
 11
39.91546609043078
 21
2.952464346958773
 31
0.0
  0
LINE
  5
6F44
330
1F
100
AcDbEntity
  8
AM_0
100
AcDbLine
 10
40.99999999999975
 20
7.000000000001314
 30
0.0
 11
39.91546609043078
 21
2.952464346958773
 31
0.0
  0
LINE
  5
6F45
330
1F
100
AcDbEntity
  8
AM_0
100
AcDbLine
 10
40.99999999999939
 20
-50.47462474324689
 30
0.0
 11
40.99999999999953
 21
-82.47462474324718
 31
0.0
  0
LINE
  5
6F50
330
1F
100
AcDbEntity
  8
AM_0
100
AcDbLine
 10
33.42228133862519
 20
26.15492541896675
 30
0.0
 11
33.4222813386253
 21
2.612170953642074
 31
0.0
  0
LINE
  5
6F51
330
1F
100
AcDbEntity
  8
AM_0
100
AcDbLine
 10
33.42228133862541
 20
-50.47462474324714
 30
0.0
 11
33.42228133862547
 21
-50.77462474324714
 31
0.0
  0
LINE
  5
6F59
330
1F
100
AcDbEntity
  8
AM_0
100
AcDbLine
 10
16.43492091830065
 20
-50.77462474324717
 30
0.0
 11
33.42228133862541
 21
-50.77462474324706
 31
0.0
  0
LINE
  5
6F6A
330
1F
100
AcDbEntity
  8
AM_7
100
AcDbLine
 10
29.1411017986205
 20
11.39520739002741
 30
0.0
 11
-1.508508363732145
 21
-0.0642122818581469
 31
0.0
  0
LINE
  5
6F83
330
1F
100
AcDbEntity
  8
AM_7
100
AcDbLine
 10
10.74211324555918
 20
11.83473757622269
 30
0.0
 11
15.63525008810776
 21
-1.252551395582971
 31
0.0
  0
ARC
  5
6F8C
330
1F
100
AcDbEntity
  8
AM_0
100
AcDbCircle
 10
25.88158170574943
 20
10.17652276483001
 30
0.0
 40
1.75
100
AcDbArc
 50
240.6136298015451
 51
160.3863701984505
  0
LINE
  5
70B5
330
1F
100
AcDbEntity
  8
AM_0
100
AcDbLine
 10
11.39403736330578
 20
10.09108731848809
 30
0.0
 11
0.3074708197392228
 21
1.42931223068919
 31
0.0
  0
LINE
  5
70B6
330
1F
100
AcDbEntity
  8
AM_0
100
AcDbLine
 10
14.89164250063655
 20
0.7363174409143464
 30
0.0
 11
0.8418687649941317
 21
0.0000000000001419
 31
0.0
  0
LINE
  5
70B8
330
1F
100
AcDbEntity
  8
AM_0
100
AcDbLine
 10
11.39403736330578
 20
10.09108731848809
 30
0.0
 11
25.44381109894837
 21
10.82740475940241
 31
0.0
  0
LINE
  5
70B9
330
1F
100
AcDbEntity
  8
AM_0
100
AcDbLine
 10
14.89164250063655
 20
0.7363174409143464
 30
0.0
 11
25.97820904420322
 21
9.398092528713355
 31
0.0
  0
ARC
  5
70BC
330
1F
100
AcDbEntity
  8
AM_0
100
AcDbCircle
 10
25.48567986394269
 20
10.02850113159873
 30
0.0
 40
0.8
100
AcDbArc
 50
308.0000000000002
 51
93.0000000000003
1001
GENIUS_GENOREF_13
1005
70BE
  0
POINT
  5
70BE
330
1F
100
AcDbEntity
  8
0
 60
     1
100
AcDbPoint
 10
0.0
 20
0.0
 30
0.0
1001
GENIUS_GENODEF_13
1002
{
1000
HIER
1070
     1
1002
}
1002
{
1000
MANEDIT
1070
     0
1002
}
1002
{
1000
NOSEL
1070
     0
1002
}
1002
{
1000
BEHIND
1070
     0
1002
}
1002
{
1000
REACTOR
1002
}
1001
GENIUS_GENOBJ-N-FIL_13
1002
{
1000
OWNER
1000
GEN
1002
}
1001
GENIUS_GENOENT_13
1002
{
1000
MYREF
1005
70BE
1002
}
1002
{
1000
GRP
1005
0
1002
}
1001
GENIUS_GENOLIS_13
1002
{
1000
ENT
1005
70BC
1002
}
  0
ARC
  5
70C1
330
1F
100
AcDbEntity
  8
AM_0
100
AcDbCircle
 10
0.7999999999997556
 20
0.7989036278038098
 30
0.0
 40
0.8
100
AcDbArc
 50
128.0000000000002
 51
273.0
1001
GENIUS_GENOREF_13
1005
70C3
  0
POINT
  5
70C3
330
1F
100
AcDbEntity
  8
0
 60
     1
100
AcDbPoint
 10
0.0
 20
0.0
 30
0.0
1001
GENIUS_GENODEF_13
1002
{
1000
HIER
1070
     1
1002
}
1002
{
1000
MANEDIT
1070
     0
1002
}
1002
{
1000
NOSEL
1070
     0
1002
}
1002
{
1000
BEHIND
1070
     0
1002
}
1002
{
1000
REACTOR
1002
}
1001
GENIUS_GENOBJ-N-FIL_13
1002
{
1000
OWNER
1000
GEN
1002
}
1001
GENIUS_GENOENT_13
1002
{
1000
MYREF
1005
70C3
1002
}
1002
{
1000
GRP
1005
0
1002
}
1001
GENIUS_GENOLIS_13
1002
{
1000
ENT
1005
70C1
1002
}
  0
CIRCLE
  5
70C6
330
1F
100
AcDbEntity
  8
AM_0
100
AcDbCircle
 10
13.14283993197127
 20
5.413702379701216
 30
0.0
 40
2.549999999999998
  0
LINE
  5
70CF
330
1F
100
AcDbEntity
  8
AM_0
100
AcDbLine
 10
1.583313242046094
 20
-58.41462474324722
 30
0.0
 11
16.13287089847957
 21
-58.41462474324715
 31
0.0
  0
LINE
  5
70D0
330
1F
100
AcDbEntity
  8
AM_0
100
AcDbLine
 10
16.13287089847957
 20
-53.2346247432471
 30
0.0
 11
16.13287089847957
 21
-58.41462474324715
 31
0.0
  0
LINE
  5
70D9
330
1F
100
AcDbEntity
  8
AM_0
100
AcDbLine
 10
16.43492091830065
 20
-50.77462474324717
 30
0.0
 11
16.13287089847957
 21
-53.2346247432471
 31
0.0
  0
LINE
  5
70E7
330
1F
100
AcDbEntity
  8
AM_0
100
AcDbLine
 10
-0.0000000000001483
 20
-50.47462474324728
 30
0.0
 11
26.28567986394293
 21
-50.47462474324722
 31
0.0
  0
LINE
  5
70E8
330
1F
100
AcDbEntity
  8
AM_0
100
AcDbLine
 10
-0.0000000000001483
 20
-50.47462474324722
 30
0.0
 11
0.5844545098977041
 21
-55.23462474324727
 31
0.0
  0
LINE
  5
70E9
330
1F
100
AcDbEntity
  8
AM_0
100
AcDbLine
 10
26.28567986394293
 20
-50.47462474324722
 30
0.0
 11
26.24884449567209
 21
-50.77462474324714
 31
0.0
  0
LINE
  5
70EE
330
1F
100
AcDbEntity
  8
AM_11
100
AcDbLine
 10
0.8418687649941317
 20
0.0000000000001419
 30
0.0
 11
-0.0000000000002558
 21
0.0000000000001705
 31
0.0
  0
LINE
  5
70EF
330
1F
100
AcDbEntity
  8
AM_11
100
AcDbLine
 10
-0.0000000000002557
 20
0.7989036278038099
 30
0.0
 11
-0.0000000000002558
 21
0.0000000000001705
 31
0.0
  0
LINE
  5
70F8
330
1F
100
AcDbEntity
  8
AM_0
100
AcDbLine
 10
0.5844545098977041
 20
-55.23462474324733
 30
0.0
 11
16.13287089847951
 21
-55.2346247432472
 31
0.0
  0
LINE
  5
7101
330
1F
100
AcDbEntity
  8
AM_0
100
AcDbLine
 10
1.583313242046038
 20
-55.23462474324733
 30
0.0
 11
1.583313242046094
 21
-58.41462474324722
 31
0.0
  0
LINE
  5
7111
330
1F
100
AcDbEntity
  8
AM_0
100
AcDbLine
 10
1.777415655045295
 20
-58.41462474324722
 30
0.0
 11
1.777415655045377
 21
-82.47462474324725
 31
0.0
  0
LINE
  5
711D
330
1F
100
AcDbEntity
  8
AM_0
100
AcDbLine
 10
-30.00000000000025
 20
0.0000000000000889
 30
0.0
 11
-30.00000000000033
 21
32.0000000000012
 31
0.0
  0
LINE
  5
7127
330
1F
100
AcDbEntity
  8
AM_0
100
AcDbLine
 10
-30.00000000000031
 20
10.09108731848795
 30
0.0
 11
-34.76000000000075
 21
9.506632808590042
 31
0.0
  0
LINE
  5
7128
330
1F
100
AcDbEntity
  8
AM_0
100
AcDbLine
 10
-30.00000000000025
 20
0.0000000000000889
 30
0.0
 11
-34.7600000000007
 21
0.5844545098979422
 31
0.0
  0
LINE
  5
712A
330
1F
100
AcDbEntity
  8
AM_0
100
AcDbLine
 10
-37.94000000000048
 20
9.506632808590048
 30
0.0
 11
-37.94000000000042
 21
0.9629106130255468
 31
0.0
  0
LINE
  5
712B
330
1F
100
AcDbEntity
  8
AM_0
100
AcDbLine
 10
-34.76000000000075
 20
9.506632808590072
 30
0.0
 11
-34.7600000000007
 21
0.5844545098979422
 31
0.0
  0
LINE
  5
7146
330
1F
100
AcDbEntity
  8
AM_0
100
AcDbLine
 10
-34.7600000000007
 20
0.9629106130255747
 30
0.0
 11
-55.00000000000025
 21
0.9629106130254266
 31
0.0
  0
LINE
  5
7147
330
1F
100
AcDbEntity
  8
AM_0
100
AcDbLine
 10
-34.76000000000075
 20
9.506632808590042
 30
0.0
 11
-37.94000000000048
 21
9.506632808590048
 31
0.0
  0
LINE
  5
7148
330
1F
100
AcDbEntity
  8
AM_0
100
AcDbLine
 10
-34.7600000000007
 20
1.431246707649737
 30
0.0
 11
-37.94000000000042
 21
1.431246707649709
 31
0.0
  0
DIMENSION
  5
73C5
330
1F
100
AcDbEntity
  8
AM_5
100
AcDbDimension
  2
*D2
 10
0.3074708197392228
 20
1.42931223068919
 30
0.0
 11
-18.89851886036456
 21
-8.649275884371505
 31
0.0
 70
   162
  1
<>
 71
     5
 42
0.6108652381980219
 51
359.9999999999998
  3
AM_JIS$2
100
AcDb2LineAngularDimension
 13
14.89164250063655
 23
0.7363174409143464
 33
0.0
 14
0.8418687649941317
 24
0.0000000000001419
 34
0.0
 15
11.39403736330578
 25
10.09108731848809
 35
0.0
 16
-20.26522437660188
 26
-4.993855934774853
 36
0.0
1001
GENIUS_GENDTOL_13
1000

1000
h7
1000

1040
0.0
1001
ACAD
1000
DSTYLE
1002
{
1070
   271
1070
     0
1002
}
  0
DIMENSION
  5
74AA
330
1F
100
AcDbEntity
  8
AM_5
100
AcDbDimension
  2
*D3
 10
0.8418687649941317
 20
0.0000000000001419
 30
0.0
 11
7.90658064403366
 21
-7.547185347482908
 31
0.0
 70
    34
  1
<>
 71
     5
 42
1.623156204354728
 51
359.9999999999998
  3
AM_JIS$2
100
AcDb2LineAngularDimension
 13
-0.0000000000002557
 23
0.7989036278038099
 33
0.0
 14
-0.0000000000002558
 24
0.0000000000001705
 34
0.0
 15
14.89164250063655
 25
0.7363174409143464
 35
0.0
 16
7.210533048740468
 26
-12.04446268225056
 36
0.0
1001
GENIUS_GENDTOL_13
1000

1000
h7
1000

1040
0.0
1001
ACAD
1000
DSTYLE
1002
{
1070
   271
1070
     0
1002
}
  0
DIMENSION
  5
758E
330
1F
100
AcDbEntity
  8
AM_5
100
AcDbDimension
  2
*D4
 10
40.99999999999975
 20
-22.04412047242215
 30
0.0
 11
20.49999999999975
 21
-18.94412047242215
 31
0.0
 70
    32
  1
<>
 71
     5
 42
41.0
 51
359.9999999999998
  3
AM_JIS$0
100
AcDbAlignedDimension
 13
-0.0000000000002558
 23
0.0000000000001705
 33
0.0
 14
40.99999999999975
 24
7.000000000001314
 34
0.0
 50
359.9999999999983
100
AcDbRotatedDimension
1001
GENIUS_GENDTOL_13
1000

1000
h7
1000

1040
0.0
1001
ACAD
1000
DSTYLE
1002
{
1070
   287
1070
     3
1070
    40
1040
1.0
1070
    42
1040
1.0
1070
    43
1040
12.0
1070
    48
1040
0.1
1070
    78
1070
     8
1070
   140
1040
3.2
1070
   176
1070
   256
1070
   177
1070
   256
1070
   271
1070
     0
1070
   272
1070
     3
1070
   275
1070
     0
1070
   284
1070
     0
1070
   289
1070
     3
1070
   340
1005
6B
1070
   371
1070
    -1
1070
   372
1070
    -1
1002
}
  0
LINE
  5
792D
330
1F
100
AcDbEntity
  8
AM_0
100
AcDbLine
 10
1.777415655045377
 20
-82.47462474324725
 30
0.0
 11
169.9999999999997
 21
-82.47462474324693
 31
0.0
  0
LINE
  5
7935
330
1F
100
AcDbEntity
  8
AM_0
100
AcDbLine
 10
40.90363563816477
 20
32.00000000000132
 30
0.0
 11
169.9999999999997
 21
32.00000000000168
 31
0.0
  0
LINE
  5
793E
330
1F
100
AcDbEntity
  8
AM_0
100
AcDbLine
 10
169.9999999999997
 20
32.00000000000166
 30
0.0
 11
169.9999999999997
 21
7.000000000001675
 31
0.0
  0
LINE
  5
793F
330
1F
100
AcDbEntity
  8
AM_0
100
AcDbLine
 10
169.9999999999997
 20
-50.47462474324682
 30
0.0
 11
169.9999999999997
 21
-82.47462474324693
 31
0.0
  0
DIMENSION
  5
7947
330
1F
100
AcDbEntity
  8
AM_5
100
AcDbDimension
  2
*D5
 10
183.9999999999997
 20
-50.47462474324682
 30
0.0
 11
180.8999999999997
 21
-66.47462474324685
 31
0.0
 70
    32
  1
<>
 71
     5
 42
32.00000000000012
 51
359.9999999999998
  3
AM_JIS$0
100
AcDbAlignedDimension
 13
169.9999999999997
 23
-82.47462474324693
 33
0.0
 14
169.9999999999997
 24
-50.47462474324682
 34
0.0
 50
90.00000000000019
100
AcDbRotatedDimension
1001
GENIUS_GENDTOL_13
1000

1000
h7
1000

1040
0.0
1001
ACAD
1000
DSTYLE
1002
{
1070
   287
1070
     3
1070
    40
1040
1.0
1070
    42
1040
1.0
1070
    43
1040
12.0
1070
    48
1040
0.1
1070
    78
1070
     8
1070
   140
1040
3.2
1070
   176
1070
   256
1070
   177
1070
   256
1070
   271
1070
     0
1070
   272
1070
     3
1070
   275
1070
     0
1070
   284
1070
     0
1070
   289
1070
     3
1070
   340
1005
6B
1070
   371
1070
    -1
1070
   372
1070
    -1
1002
}
  0
DIMENSION
  5
79D3
330
1F
100
AcDbEntity
  8
AM_5
100
AcDbDimension
  2
*D6
 10
183.9999999999994
 20
32.00000000000166
 30
0.0
 11
180.8999999999994
 21
19.50000000000169
 31
0.0
 70
    32
  1
<>
 71
     5
 42
24.99999999999998
 51
359.9999999999998
  3
AM_JIS$0
100
AcDbAlignedDimension
 13
169.9999999999997
 23
7.000000000001678
 33
0.0
 14
169.9999999999997
 24
32.00000000000166
 34
0.0
 50
90.00000000000019
100
AcDbRotatedDimension
1001
GENIUS_GENDTOL_13
1000

1000
h7
1000

1040
0.0
1001
ACAD
1000
DSTYLE
1002
{
1070
   287
1070
     3
1070
    40
1040
1.0
1070
    42
1040
1.0
1070
    43
1040
12.0
1070
    48
1040
0.1
1070
    78
1070
     8
1070
   140
1040
3.2
1070
   176
1070
   256
1070
   177
1070
   256
1070
   271
1070
     0
1070
   272
1070
     3
1070
   275
1070
     0
1070
   284
1070
     0
1070
   289
1070
     3
1070
   340
1005
6B
1070
   371
1070
    -1
1070
   372
1070
    -1
1002
}
  0
DIMENSION
  5
7BBD
330
1F
100
AcDbEntity
  8
AM_5
100
AcDbDimension
  2
*D7
 10
-14.00000000000001
 20
-82.47462474324725
 30
0.0
 11
-17.1
 21
-66.47462474324725
 31
0.0
 70
    32
  1
<>
 71
     5
 42
32.00000000000005
 51
359.9999999999998
  3
AM_JIS$0
100
AcDbAlignedDimension
 13
-0.0000000000001483
 23
-50.47462474324722
 33
0.0
 14
1.777415655045371
 24
-82.47462474324725
 34
0.0
 50
270.0000000000001
100
AcDbRotatedDimension
1001
GENIUS_GENDTOL_13
1000

1000
h7
1000

1040
0.0
1001
ACAD
1000
DSTYLE
1002
{
1070
   287
1070
     3
1070
    40
1040
1.0
1070
    42
1040
1.0
1070
    43
1040
12.0
1070
    48
1040
0.1
1070
    78
1070
     8
1070
   140
1040
3.2
1070
   176
1070
   256
1070
   177
1070
   256
1070
   271
1070
     0
1070
   272
1070
     3
1070
   275
1070
     0
1070
   284
1070
     0
1070
   289
1070
     3
1070
   340
1005
6B
1070
   371
1070
    -1
1070
   372
1070
    -1
1002
}
  0
LINE
  5
7C5C
330
1F
100
AcDbEntity
  8
AM_0
100
AcDbLine
 10
-55.00000000000024
 20
0.9629106130254266
 30
0.0
 11
-55.00000000000031
 21
32.00000000000204
 31
0.0
  0
LINE
  5
7C5D
330
1F
100
AcDbEntity
  8
AM_0
100
AcDbLine
 10
-30.00000000000032
 20
32.0000000000012
 30
0.0
 11
-55.00000000000031
 21
32.00000000000114
 31
0.0
  0
LINE
  5
7C83
330
1F
100
AcDbEntity
  8
AM_0
100
AcDbLine
 10
39.91546609043088
 20
-50.4746247432471
 30
0.0
 11
39.91546609043094
 21
-82.47462474324718
 31
0.0
  0
DIMENSION
  5
7C8C
330
1F
100
AcDbEntity
  8
AM_5
100
AcDbDimension
  2
*D8
 10
-20.94471094266054
 20
32.00000000000134
 30
0.0
 11
-20.94471094266055
 21
16.00000000000074
 31
0.0
 70
   160
  1
<>
 71
     5
 42
32.00000000000115
 51
359.9999999999998
  3
AM_JIS$0
100
AcDbAlignedDimension
 13
-0.0000000000002558
 23
0.0000000000001705
 33
0.0
 14
40.90363563816476
 24
32.00000000000132
 34
0.0
 50
269.9999999999981
100
AcDbRotatedDimension
1001
GENIUS_GENDTOL_13
1000

1000
h7
1000

1040
0.0
1001
ACAD
1000
DSTYLE
1002
{
1070
   287
1070
     3
1070
    40
1040
1.0
1070
    42
1040
1.0
1070
    43
1040
12.0
1070
    48
1040
0.1
1070
    78
1070
     8
1070
   140
1040
3.2
1070
   176
1070
   256
1070
   177
1070
   256
1070
   271
1070
     0
1070
   272
1070
     3
1070
   275
1070
     0
1070
   284
1070
     0
1070
   289
1070
     3
1070
   340
1005
6B
1070
   371
1070
    -1
1070
   372
1070
    -1
1002
}
  0
DIMENSION
  5
7E2C
330
1F
100
AcDbEntity
  8
AM_5
100
AcDbDimension
  2
*D9
 10
-0.0000000000001596
 20
-36.47462374324682
 30
0.0
 11
84.99999999999976
 21
-33.07462374324682
 31
0.0
 70
    32
  1
<>
 71
     5
 42
169.9999999999998
 51
359.9999999999998
  3
AM_JIS$0
100
AcDbAlignedDimension
 13
169.9999999999996
 23
-50.47462474324682
 33
0.0
 14
-0.0000000000001605
 24
-50.47462474324712
 34
0.0
 50
180.0000000000002
100
AcDbRotatedDimension
1001
ACAD
1000
DSTYLE
1002
{
1070
   271
1070
     0
1002
}
1001
GENIUS_GENDTOL_13
1000

1000
h7
1000

1040
0.0
  0
DIMENSION
  5
81FF
330
1F
100
AcDbEntity
  8
AM_5
100
AcDbDimension
  2
*D15
 10
64.31750875148782
 20
7.000000000001308
 30
0.0
 11
60.91750875148782
 21
3.500000000000655
 31
0.0
 70
    32
 71
     5
 42
7.000000000001324
 51
359.9999999999999
  3
AM_JIS$0
100
AcDbAlignedDimension
 13
0.0
 23
0.0
 33
0.0
 14
40.99999999999975
 24
7.000000000001315
 34
0.0
 50
89.99999999999802
100
AcDbRotatedDimension
1001
ACAD
1000
DSTYLE
1002
{
1070
    79
1070
     2
1070
   271
1070
     0
1070
   371
1070
    -1
1070
   372
1070
    -1
1002
}
  0
VIEWPORT
  5
110
102
{ACAD_XDICTIONARY
360
8235
102
}
330
101
100
AcDbEntity
 67
     1
  8
0
100
AcDbViewport
 10
420.5
 20
297.0
 30
0.0
 40
948.9782706766916
 41
628.452
 68
     1
 69
     1
 12
420.5
 22
297.0
 13
0.0
 23
0.0
 14
10.0
 24
10.0
 15
10.0
 25
10.0
 16
0.0
 26
0.0
 36
1.0
 17
0.0
 27
0.0
 37
0.0
 42
50.0
 43
0.0
 44
0.0
 45
628.452
 50
0.0
 51
0.0
 72
   100
 90
    32800
  1

281
     0
 71
     1
 74
     0
110
-0.0000000000002682
120
0.000000000000161
130
0.0
111
1.0
121
0.000000000000002
131
0.0
112
-0.000000000000002
122
1.0
132
0.0
 79
     0
146
0.0
1001
GENIUS_GENOBJ-N-SDF_13
1002
{
1000
OWNER
1000
GEN
1002
}
1001
GENIUS_GENODEF_13
1002
{
1000
HIER
1070
     0
1002
}
1002
{
1000
MANEDIT
1070
     0
1002
}
1002
{
1000
NOSEL
1070
     0
1002
}
1002
{
1000
BEHIND
1070
     0
1002
}
1002
{
1000
OTHER
1070
     0
1002
}
1002
{
1000
REACTOR
1002
}
1001
GENIUS_GENSCREG_15
1000
PF
1040
1.0
1000
DF
1040
1.0
1000
MIN
1011
-53.98913533834582
1021
-17.226
1031
0.0
1000
MAX
1011
894.9891353383458
1021
611.226
1031
0.0
1000
FLAGS
1070
     2
  0
ENDSEC
  0
SECTION
  2
OBJECTS
  0
DICTIONARY
  5
C
330
0
100
AcDbDictionary
281
     1
  3
ACAD_COLOR
350
8065
  3
ACAD_GROUP
350
D
  3
ACAD_LAYOUT
350
1A
  3
ACAD_MATERIAL
350
8064
  3
ACAD_MLINESTYLE
350
17
  3
ACAD_PLOTSETTINGS
350
19
  3
ACAD_PLOTSTYLENAME
350
E
  3
ACAD_TABLESTYLE
350
8066
  3
ACDBHEADERROUNDTRIPXREC
350
8234
  3
ACDBVARIABLEDICTIONARY
350
34
  3
ACMDICTIONARY
350
43
  3
AMG
350
2B
  3
AMGSNAPSETTINGS
350
6E
  3
DWGPROPS
350
8233
  0
DICTIONARY
  5
74
330
1F
100
AcDbDictionary
280
     1
281
     1
  3
ACAD_INDEX
360
7FE8
  3
ACAD_LAYOUTSELFREF
360
8015
  0
DICTIONARY
  5
801A
330
101
100
AcDbDictionary
280
     1
281
     1
  3
ACAD_LAYOUTSELFREF
360
801B
  0
DICTIONARY
  5
8235
330
110
100
AcDbDictionary
280
     1
281
     1
  3
ACAD_XREC_ROUNDTRIP
360
8236
  0
DICTIONARY
  5
8065
102
{ACAD_REACTORS
330
C
102
}
330
C
100
AcDbDictionary
281
     1
  0
DICTIONARY
  5
D
102
{ACAD_REACTORS
330
C
102
}
330
C
100
AcDbDictionary
281
     1
  0
DICTIONARY
  5
1A
102
{ACAD_REACTORS
330
C
102
}
330
C
100
AcDbDictionary
281
     1
  3
Model
350
8068
  3
レイアウト1
350
8069
  0
DICTIONARY
  5
8064
102
{ACAD_REACTORS
330
C
102
}
330
C
100
AcDbDictionary
281
     1
  0
DICTIONARY
  5
17
102
{ACAD_REACTORS
330
C
102
}
330
C
100
AcDbDictionary
281
     1
  3
STANDARD
350
18
  0
DICTIONARY
  5
19
102
{ACAD_REACTORS
330
C
102
}
330
C
100
AcDbDictionary
281
     1
  3
ASAMI
350
399D
  0
ACDBDICTIONARYWDFLT
  5
E
102
{ACAD_REACTORS
330
C
102
}
330
C
100
AcDbDictionary
281
     1
  3
Normal
350
F
100
AcDbDictionaryWithDefault
340
F
  0
DICTIONARY
  5
8066
102
{ACAD_REACTORS
330
C
102
}
330
C
100
AcDbDictionary
281
     1
  3
Standard
350
8067
  0
DICTIONARY
  5
8234
102
{ACAD_REACTORS
330
C
102
}
330
C
100
AcDbDictionary
281
     1
  0
DICTIONARY
  5
34
102
{ACAD_REACTORS
330
C
102
}
330
C
100
AcDbDictionary
281
     1
  3
CTABLESTYLE
350
815A
  3
DIMASSOC
350
815B
  3
INDEXCTL
350
35
  3
PROJECTNAME
350
815C
  3
SORTENTS
350
B5E
  0
DICTIONARY
  5
43
102
{ACAD_REACTORS
330
C
102
}
330
C
100
AcDbDictionary
281
     1
  3
ACMSTDDICTIONARY
350
260
  3
AMDTSECTSYM_ARROWCOLOR
350
81DE
  0
DICTIONARY
  5
2B
102
{ACAD_REACTORS
330
C
102
}
330
C
100
AcDbDictionary
281
     1
  0
DICTIONARY
  5
6E
102
{ACAD_REACTORS
330
C
102
}
330
C
100
AcDbDictionary
281
     1
  0
XRECORD
  5
8233
102
{ACAD_REACTORS
330
C
102
}
330
C
100
AcDbXrecord
280
     1
  1
DWGPROPS COOKIE
  2

  3

  4

  6

  7

  8

  9

300
AmdtFileType=82
301
=
302
=
303
=
304
=
305
=
306
=
307
=
308
=
309
=
 40
0.8552676157407407
 41
2452802.716478762
 42
2455601.697345914
  1

 90
        1
  0
DICTIONARY
  5
7FE8
102
{ACAD_REACTORS
330
74
102
}
330
74
100
AcDbDictionary
281
     1
  3
*A1
350
7FE9
  0
XRECORD
  5
8015
102
{ACAD_REACTORS
330
74
102
}
330
74
100
AcDbXrecord
280
     1
340
1F
  0
XRECORD
  5
801B
102
{ACAD_REACTORS
330
801A
102
}
330
801A
100
AcDbXrecord
280
     1
340
101
  0
XRECORD
  5
8236
102
{ACAD_REACTORS
330
8235
102
}
330
8235
100
AcDbXrecord
280
     1
102
SHADEPLOT
 70
     0
  0
LAYOUT
  5
8068
102
{ACAD_XDICTIONARY
360
8239
102
}
102
{ACAD_REACTORS
330
1A
102
}
330
1A
100
AcDbPlotSettings
  1

  2
SII LP-1010 (C2 VR)2R
  4

  6

 40
0.0
 41
0.0
 42
0.0
 43
0.0
 44
0.0
 45
0.0
 46
0.0
 47
0.0
 48
0.0
 49
0.0
140
0.0
141
0.0
142
1.0
143
1.0
 70
  1712
 72
     0
 73
     0
 74
     0
  7
sei_cad.ctb
 75
     0
147
1.0
148
0.0
149
0.0
100
AcDbLayout
  1
Model
 70
     1
 71
     0
 10
0.0
 20
0.0
 11
12.0
 21
9.0
 12
0.0
 22
0.0
 32
0.0
 14
0.0
 24
0.0
 34
0.0
 15
0.0
 25
0.0
 35
0.0
146
0.0
 13
0.0
 23
0.0
 33
0.0
 16
1.0
 26
0.0
 36
0.0
 17
0.0
 27
1.0
 37
0.0
 76
     0
330
1F
  0
LAYOUT
  5
8069
102
{ACAD_XDICTIONARY
360
823B
102
}
102
{ACAD_REACTORS
330
1A
102
}
330
1A
100
AcDbPlotSettings
  1

  2
SII LP-1010 (C2 VR)2R
  4

  6

 40
0.0
 41
0.0
 42
0.0
 43
0.0
 44
0.0
 45
0.0
 46
0.0
 47
0.0
 48
0.0
 49
0.0
140
0.0
141
0.0
142
1.0
143
1.0
 70
   688
 72
     0
 73
     0
 74
     5
  7
sei_cad.ctb
 75
    16
147
1.0
148
0.0
149
0.0
100
AcDbLayout
  1
レイアウト1
 70
     0
 71
     1
 10
0.0
 20
0.0
 11
841.0
 21
594.0
 12
0.0
 22
0.0
 32
0.0
 14
1.000000000000000E+20
 24
1.000000000000000E+20
 34
1.000000000000000E+20
 15
-1.000000000000000E+20
 25
-1.000000000000000E+20
 35
-1.000000000000000E+20
146
0.0
 13
0.0
 23
0.0
 33
0.0
 16
1.0
 26
0.0
 36
0.0
 17
0.0
 27
1.0
 37
0.0
 76
     0
330
101
331
110
  0
MLINESTYLE
  5
18
102
{ACAD_REACTORS
330
17
102
}
330
17
100
AcDbMlineStyle
  2
STANDARD
 70
     0
  3

 62
   256
 51
90.0
 52
90.0
 71
     2
 49
0.5
 62
   256
  6
BYLAYER
 49
-0.5
 62
   256
  6
BYLAYER
  0
PLOTSETTINGS
  5
399D
102
{ACAD_XDICTIONARY
360
8237
102
}
102
{ACAD_REACTORS
330
19
102
}
330
19
100
AcDbPlotSettings
  1
asami
  2
RICOH imagio MF1540
  4
A4
  6

 40
5.831416606903076
 41
7.651742935180664
 42
4.90008544921875
 43
5.789077758789062
 44
296.9683227539062
 45
209.9733276367186
 46
0.0
 47
0.0
 48
-156.6707931774246
 49
-74.57609991074048
140
58.59973180214831
141
60.61068161925597
142
1.0
143
1.095343097833084
 70
  1712
 72
     1
 73
     1
 74
     4
  7
asami.ctb
 75
     0
147
0.9129559514076438
148
156.6707931774246
149
74.57609991074048
  0
ACDBPLACEHOLDER
  5
F
102
{ACAD_REACTORS
330
E
102
}
330
E
  0
TABLESTYLE
  5
8067
102
{ACAD_REACTORS
330
8066
102
}
330
8066
100
AcDbTableStyle
  3
Standard
 70
     0
 71
     0
 40
1.5
 41
1.5
280
     0
281
     0
  7
STANDARD
140
4.5
170
     2
 62
     0
 63
     7
283
     0
274
    -2
284
     1
 64
     0
275
    -2
285
     1
 65
     0
276
    -2
286
     1
 66
     0
277
    -2
287
     1
 67
     0
278
    -2
288
     1
 68
     0
279
    -2
289
     1
 69
     0
  7
STANDARD
140
6.0
170
     5
 62
     0
 63
     7
283
     0
274
    -2
284
     1
 64
     0
275
    -2
285
     1
 65
     0
276
    -2
286
     1
 66
     0
277
    -2
287
     1
 67
     0
278
    -2
288
     1
 68
     0
279
    -2
289
     1
 69
     0
  7
STANDARD
140
4.5
170
     5
 62
     0
 63
     7
283
     0
274
    -2
284
     1
 64
     0
275
    -2
285
     1
 65
     0
276
    -2
286
     1
 66
     0
277
    -2
287
     1
 67
     0
278
    -2
288
     1
 68
     0
279
    -2
289
     1
 69
     0
  0
DICTIONARYVAR
  5
815A
102
{ACAD_REACTORS
330
34
102
}
330
34
100
DictionaryVariables
280
     0
  1
STANDARD
  0
DICTIONARYVAR
  5
815B
102
{ACAD_REACTORS
330
34
102
}
330
34
100
DictionaryVariables
280
     0
  1
1
  0
DICTIONARYVAR
  5
35
102
{ACAD_REACTORS
330
34
102
}
330
34
100
DictionaryVariables
280
     0
  1
1
  0
DICTIONARYVAR
  5
815C
102
{ACAD_REACTORS
330
34
102
}
330
34
100
DictionaryVariables
280
     0
  1

  0
DICTIONARYVAR
  5
B5E
102
{ACAD_REACTORS
330
34
102
}
330
34
100
DictionaryVariables
280
     0
  1
96
  0
DICTIONARY
  5
260
102
{ACAD_REACTORS
330
43
102
}
330
43
100
AcDbDictionary
281
     1
  0
XRECORD
  5
81DE
102
{ACAD_REACTORS
330
43
102
}
330
43
100
AcDbXrecord
280
     1
 90
-1023410169
  0
LAYER_INDEX
  5
7FE9
102
{ACAD_REACTORS
330
7FE8
102
}
330
7FE8
100
AcDbIndex
 40
2455601.697345914
100
AcDbLayerIndex
  8
0
360
7FEA
 90
        2
  8
AM_0
360
7FEB
 90
       41
  8
AM_5
360
7FEC
 90
        9
  8
AM_7
360
7FED
 90
        2
  8
AM_6
360
7FEE
 90
        1
  8
DEFPOINTS
360
7FEF
 90
        0
  8
AM_11
360
7FF0
 90
        2
  0
DICTIONARY
  5
8239
330
8068
100
AcDbDictionary
280
     1
281
     1
  3
ACAD_XREC_ROUNDTRIP
360
823A
  0
DICTIONARY
  5
823B
330
8069
100
AcDbDictionary
280
     1
281
     1
  3
ACAD_XREC_ROUNDTRIP
360
823C
  0
DICTIONARY
  5
8237
330
399D
100
AcDbDictionary
280
     1
281
     1
  3
ACAD_XREC_ROUNDTRIP
360
8238
  0
IDBUFFER
  5
7FEA
330
0
100
AcDbIdBuffer
330
70BE
330
70C3
  0
IDBUFFER
  5
7FEB
330
0
100
AcDbIdBuffer
330
6E84
330
6E8C
330
6F3A
330
6F3B
330
6F44
330
6F45
330
6F50
330
6F51
330
6F59
330
6F8C
330
70B5
330
70B6
330
70B8
330
70B9
330
70BC
330
70C1
330
70C6
330
70CF
330
70D0
330
70D9
330
70E7
330
70E8
330
70E9
330
70F8
330
7101
330
7111
330
711D
330
7127
330
7128
330
712A
330
712B
330
7146
330
7147
330
7148
330
792D
330
7935
330
793E
330
793F
330
7C5C
330
7C5D
330
7C83
  0
IDBUFFER
  5
7FEC
330
0
100
AcDbIdBuffer
330
81FF
330
73C5
330
74AA
330
758E
330
7947
330
79D3
330
7BBD
330
7C8C
330
7E2C
  0
IDBUFFER
  5
7FED
330
0
100
AcDbIdBuffer
330
6F6A
330
6F83
  0
IDBUFFER
  5
7FEE
330
0
100
AcDbIdBuffer
330
388D
  0
IDBUFFER
  5
7FEF
330
0
100
AcDbIdBuffer
  0
IDBUFFER
  5
7FF0
330
0
100
AcDbIdBuffer
330
70EE
330
70EF
  0
XRECORD
  5
823A
102
{ACAD_REACTORS
330
8239
102
}
330
8239
100
AcDbXrecord
280
     1
102
SHADEPLOT
 70
     0
102
SHADEPLOTRESLEVEL
 70
     2
102
SHADEPLOTCUSTOMDPI
 70
   300
  0
XRECORD
  5
823C
102
{ACAD_REACTORS
330
823B
102
}
330
823B
100
AcDbXrecord
280
     1
102
SHADEPLOT
 70
     0
102
SHADEPLOTRESLEVEL
 70
     2
102
SHADEPLOTCUSTOMDPI
 70
   300
  0
XRECORD
  5
8238
102
{ACAD_REACTORS
330
8237
102
}
330
8237
100
AcDbXrecord
280
     1
102
SHADEPLOT
 70
     0
102
SHADEPLOTRESLEVEL
 70
     2
102
SHADEPLOTCUSTOMDPI
 70
   300
  0
ENDSEC
  0
EOF
