  0
SECTION
  2
HEADER
  9
$ACADVER
  1
AC1014
  9
$ACADMAINTVER
 70
     9
  9
$DWGCODEPAGE
  3
ANSI_932
  9
$INSBASE
 10
0.0
 20
0.0
 30
0.0
  9
$EXTMIN
 10
-118.4103124912286
 20
-45.41795786118608
 30
0.0
  9
$EXTMAX
 10
28.1658864973985
 20
51.79694092809053
 30
0.0
  9
$LIMMIN
 10
-143.5257304037053
 20
-73.02303761281752
  9
$LIMMAX
 10
50.45432542243839
 20
80.42798690462246
  9
$ORTHOMODE
 70
     0
  9
$REGENMODE
 70
     1
  9
$FILLMODE
 70
     1
  9
$QTEXTMODE
 70
     0
  9
$MIRRTEXT
 70
     0
  9
$DRAGMODE
 70
     2
  9
$LTSCALE
 40
1.0
  9
$OSMODE
 70
  2103
  9
$ATTMODE
 70
     1
  9
$TEXTSIZE
 40
2.5
  9
$TRACEWID
 40
1.0
  9
$TEXTSTYLE
  7
STANDARD
  9
$CLAYER
  8
AM_0
  9
$CELTYPE
  6
BYLAYER
  9
$CECOLOR
 62
   256
  9
$CELTSCALE
 40
1.0
  9
$DELOBJ
 70
     1
  9
$DISPSILH
 70
     0
  9
$DIMSCALE
 40
0.5
  9
$DIMASZ
 40
2.5
  9
$DIMEXO
 40
1.0
  9
$DIMDLI
 40
12.0
  9
$DIMRND
 40
0.0
  9
$DIMDLE
 40
0.0
  9
$DIMEXE
 40
1.0
  9
$DIMTP
 40
0.1
  9
$DIMTM
 40
0.1
  9
$DIMTXT
 40
3.2
  9
$DIMCEN
 40
0.0
  9
$DIMTSZ
 40
0.0
  9
$DIMTOL
 70
     0
  9
$DIMLIM
 70
     0
  9
$DIMTIH
 70
     0
  9
$DIMTOH
 70
     0
  9
$DIMSE1
 70
     0
  9
$DIMSE2
 70
     0
  9
$DIMTAD
 70
     3
  9
$DIMZIN
 70
     8
  9
$DIMBLK
  1
OPEN30
  9
$DIMASO
 70
     1
  9
$DIMSHO
 70
     1
  9
$DIMPOST
  1

  9
$DIMAPOST
  1
"
  9
$DIMALT
 70
     0
  9
$DIMALTD
 70
     2
  9
$DIMALTF
 40
0.0393701
  9
$DIMLFAC
 40
1.0
  9
$DIMTOFL
 70
     1
  9
$DIMTVP
 40
0.0
  9
$DIMTIX
 70
     0
  9
$DIMSOXD
 70
     0
  9
$DIMSAH
 70
     0
  9
$DIMBLK1
  1

  9
$DIMBLK2
  1

  9
$DIMSTYLE
  2
AM_JIS
  9
$DIMCLRD
 70
   256
  9
$DIMCLRE
 70
   256
  9
$DIMCLRT
 70
     2
  9
$DIMTFAC
 40
0.71
  9
$DIMGAP
 40
1.5
  9
$DIMJUST
 70
     0
  9
$DIMSD1
 70
     0
  9
$DIMSD2
 70
     0
  9
$DIMTOLJ
 70
     0
  9
$DIMTZIN
 70
     0
  9
$DIMALTZ
 70
     0
  9
$DIMALTTZ
 70
     0
  9
$DIMFIT
 70
     3
  9
$DIMUPT
 70
     0
  9
$DIMUNIT
 70
     2
  9
$DIMDEC
 70
     3
  9
$DIMTDEC
 70
     3
  9
$DIMALTU
 70
     2
  9
$DIMALTTD
 70
     2
  9
$DIMTXSTY
  7
ASAMI
  9
$DIMAUNIT
 70
     0
  9
$LUNITS
 70
     2
  9
$LUPREC
 70
     2
  9
$SKETCHINC
 40
1.0
  9
$FILLETRAD
 40
0.4
  9
$AUNITS
 70
     0
  9
$AUPREC
 70
     0
  9
$MENU
  1
.
  9
$ELEVATION
 40
0.0
  9
$PELEVATION
 40
0.0
  9
$THICKNESS
 40
0.0
  9
$LIMCHECK
 70
     1
  9
$BLIPMODE
 70
     0
  9
$CHAMFERA
 40
1.0
  9
$CHAMFERB
 40
1.0
  9
$CHAMFERC
 40
20.0
  9
$CHAMFERD
 40
0.0
  9
$SKPOLY
 70
     0
  9
$TDCREATE
 40
2452802.716478761
  9
$TDUPDATE
 40
2452941.606445844
  9
$TDINDWG
 40
0.8032126968
  9
$TDUSRTIMER
 40
0.8032126968
  9
$USRTIMER
 70
     1
  9
$ANGBASE
 50
0.0
  9
$ANGDIR
 70
     0
  9
$PDMODE
 70
     0
  9
$PDSIZE
 40
0.0
  9
$PLINEWID
 40
0.0
  9
$COORDS
 70
     0
  9
$SPLFRAME
 70
     0
  9
$SPLINETYPE
 70
     6
  9
$SPLINESEGS
 70
     8
  9
$ATTDIA
 70
     1
  9
$ATTREQ
 70
     1
  9
$HANDLING
 70
 12289
  9
$HANDSEED
  5
99E3
  9
$SURFTAB1
 70
     6
  9
$SURFTAB2
 70
     6
  9
$SURFTYPE
 70
     6
  9
$SURFU
 70
     6
  9
$SURFV
 70
     6
  9
$UCSNAME
  2

  9
$UCSORG
 10
-0.0000000000002682
 20
0.000000000000161
 30
0.0
  9
$UCSXDIR
 10
1.0
 20
0.000000000000002
 30
0.0
  9
$UCSYDIR
 10
-0.000000000000002
 20
1.0
 30
0.0
  9
$PUCSNAME
  2

  9
$PUCSORG
 10
0.0
 20
0.0
 30
0.0
  9
$PUCSXDIR
 10
1.0
 20
0.0
 30
0.0
  9
$PUCSYDIR
 10
0.0
 20
1.0
 30
0.0
  9
$USERI1
 70
     0
  9
$USERI2
 70
     0
  9
$USERI3
 70
     0
  9
$USERI4
 70
     0
  9
$USERI5
 70
     0
  9
$USERR1
 40
0.0
  9
$USERR2
 40
0.0
  9
$USERR3
 40
0.0
  9
$USERR4
 40
0.0
  9
$USERR5
 40
0.0
  9
$WORLDVIEW
 70
     1
  9
$SHADEDGE
 70
     3
  9
$SHADEDIF
 70
    70
  9
$TILEMODE
 70
     1
  9
$MAXACTVP
 70
    64
  9
$PINSBASE
 10
0.0
 20
0.0
 30
0.0
  9
$PLIMCHECK
 70
     0
  9
$PEXTMIN
 10
1.000000000000000E+20
 20
1.000000000000000E+20
 30
1.000000000000000E+20
  9
$PEXTMAX
 10
-1.000000000000000E+20
 20
-1.000000000000000E+20
 30
-1.000000000000000E+20
  9
$PLIMMIN
 10
0.0
 20
0.0
  9
$PLIMMAX
 10
841.0
 20
594.0
  9
$UNITMODE
 70
     0
  9
$VISRETAIN
 70
     1
  9
$PLINEGEN
 70
     0
  9
$PSLTSCALE
 70
     0
  9
$TREEDEPTH
 70
  3020
  9
$PICKSTYLE
 70
     0
  9
$CMLSTYLE
  2
STANDARD
  9
$CMLJUST
 70
     0
  9
$CMLSCALE
 40
20.0
  9
$PROXYGRAPHICS
 70
     1
  9
$MEASUREMENT
 70
     1
  0
ENDSEC
  0
SECTION
  2
CLASSES
  0
CLASS
  1
ACDBDICTIONARYWDFLT
  2
AcDbDictionaryWithDefault
  3
AutoCAD 2000
 90
        0
280
     0
281
     0
  0
CLASS
  1
ACDBPLACEHOLDER
  2
AcDbPlaceHolder
  3
AutoCAD 2000
 90
        0
280
     0
281
     0
  0
CLASS
  1
LAYOUT
  2
AcDbLayout
  3
AutoCAD 2000
 90
        0
280
     0
281
     0
  0
CLASS
  1
AMGSETTINGSOBJ
  2
AmgSettingsObj
  3
"AcadM|Product Description: AutoCAD Mechanical 2000|Company: Autodesk"
 90
        0
280
     0
281
     0
  0
CLASS
  1
ACME_DOCUMENT
  2
AcMeDbDoc
  3
AcMeServices
 90
        0
280
     0
281
     0
  0
CLASS
  1
ACMESCOPE
  2
AcMeScope
  3
AcMeServices
 90
        0
280
     0
281
     0
  0
CLASS
  1
ACMECOMMANDHISTORY
  2
AcMeCommandHistory
  3
AcMeServices
 90
        0
280
     0
281
     0
  0
CLASS
  1
DICTIONARYVAR
  2
AcDbDictionaryVar
  3
AutoCAD 2000
 90
        0
280
     0
281
     0
  0
CLASS
  1
ACIMSYSVARMAN
  2
AcImSysVarManager
  3
AcMeServices
 90
        0
280
     0
281
     0
  0
CLASS
  1
ACIMREALSYSVAR
  2
AcImRealSysVar
  3
AcMeServices
 90
        0
280
     0
281
     0
  0
CLASS
  1
ACIMINTSYSVAR
  2
AcImIntSysVar
  3
AcMeServices
 90
        0
280
     0
281
     0
  0
CLASS
  1
ACMEDRAWINGMAN
  2
AcMeDrawingMan
  3
AcMeServices
 90
        0
280
     0
281
     0
  0
CLASS
  1
ACMEVIEW
  2
AcMeView
  3
AcMeServices
 90
        0
280
     0
281
     0
  0
CLASS
  1
ACDBENTITYCACHE
  2
AcMeEntityCache
  3
AcMeServices
 90
        0
280
     0
281
     0
  0
CLASS
  1
GSMANAGER
  2
AcMeGSManager
  3
AcMeServices
 90
        0
280
     0
281
     0
  0
CLASS
  1
AmdtInternalReactor
  2
AmdtInternalReactor
  3
AcMeServices
 90
        0
280
     0
281
     0
  0
CLASS
  1
ACMESTATEMGR
  2
AcMeStateMgr
  3
AcMeServices
 90
        0
280
     0
281
     0
  0
CLASS
  1
ACME_DATABASE
  2
AcMeDbDatabase
  3
AcMeServices
 90
        0
280
     0
281
     0
  0
CLASS
  1
ACRFINSADJUSTERMGR
  2
AcRfInsAdjusterMgr
  3
AcMeServices
 90
        0
280
     0
281
     0
  0
CLASS
  1
ACMDATADICTIONARY
  2
AcmDataDictionary
  3
"AcmSymBB|Product Description: AutoCAD Mechanical 2000|Company: Autodesk"
 90
        0
280
     0
281
     0
  0
CLASS
  1
ACMDATAENTRYBLOCK
  2
AcmDataEntryBlock
  3
"AcmSymBB|Product Description: AutoCAD Mechanical 2000|Company: Autodesk"
 90
        0
280
     0
281
     0
  0
CLASS
  1
AMGOBJPROPCFG
  2
AmgObjPropCfg
  3
"AmgLay|Product Description: AutoCAD Mechanical 2000|Company: Autodesk"
 90
        1
280
     0
281
     0
  0
CLASS
  1
ACAMGFILTERDAT
  2
AcAmgFilterDat
  3
"AcadM|Product Description: AutoCAD Mechanical 2000|Company: Autodesk"
 90
        0
280
     0
281
     0
  0
CLASS
  1
LAYER_INDEX
  2
AcDbLayerIndex
  3
AutoCAD 2000
 90
        0
280
     0
281
     0
  0
CLASS
  1
IDBUFFER
  2
AcDbIdBuffer
  3
AutoCAD 2000
 90
        0
280
     0
281
     0
  0
CLASS
  1
ACIMSTRSYSVAR
  2
AcImStrSysVar
  3
AcMeServices
 90
        0
280
     0
281
     0
  0
CLASS
  1
ACMSTANDARDJIS
  2
AcmStandardJIS
  3
"AcmSymBB|Product Description: AutoCAD Mechanical 2000|Company: Autodesk"
 90
        0
280
     0
281
     0
  0
CLASS
  1
ACMSURFSTANDARDJIS
  2
AcmSurfTextStdJIS
  3
"AcmSymBB|Product Description: AutoCAD Mechanical 2000|Company: Autodesk"
 90
        0
280
     0
281
     0
  0
CLASS
  1
ACMFCFSTANDARDJIS
  2
AcmFCFStdJIS
  3
"AcmSymBB|Product Description: AutoCAD Mechanical 2000|Company: Autodesk"
 90
        0
280
     0
281
     0
  0
CLASS
  1
ACMWELDSTANDARDJIS
  2
AcmWeldingStdJIS
  3
"AcmSymBB|Product Description: AutoCAD Mechanical 2000|Company: Autodesk"
 90
        0
280
     0
281
     0
  0
CLASS
  1
ACMIDSTANDARDJIS
  2
AcmIdStdJIS
  3
"AcmSymBB|Product Description: AutoCAD Mechanical 2000|Company: Autodesk"
 90
        0
280
     0
281
     0
  0
CLASS
  1
ACMDATUMSTANDARDJIS
  2
AcmDatumStdJIS
  3
"AcmSymBB|Product Description: AutoCAD Mechanical 2000|Company: Autodesk"
 90
        0
280
     0
281
     0
  0
CLASS
  1
ACMBOMSTANDARDJIS
  2
AcmBOMStdJIS
  3
"AcmSymBB|Product Description: AutoCAD Mechanical 2000|Company: Autodesk"
 90
        0
280
     0
281
     0
  0
CLASS
  1
ACMSTANDARDANSI
  2
AcmStandardANSI
  3
"AcmSymBB|Product Description: AutoCAD Mechanical 2000|Company: Autodesk"
 90
        0
280
     0
281
     0
  0
CLASS
  1
ACMSURFSTANDARDANSI
  2
AcmSurfTextStdANSI
  3
"AcmSymBB|Product Description: AutoCAD Mechanical 2000|Company: Autodesk"
 90
        0
280
     0
281
     0
  0
CLASS
  1
ACMFCFSTANDARDANSI
  2
AcmFCFStdANSI
  3
"AcmSymBB|Product Description: AutoCAD Mechanical 2000|Company: Autodesk"
 90
        0
280
     0
281
     0
  0
CLASS
  1
ACMWELDSTANDARDANSI
  2
AcmWeldingStdANSI
  3
"AcmSymBB|Product Description: AutoCAD Mechanical 2000|Company: Autodesk"
 90
        0
280
     0
281
     0
  0
CLASS
  1
ACMIDSTANDARDANSI
  2
AcmIdStdANSI
  3
"AcmSymBB|Product Description: AutoCAD Mechanical 2000|Company: Autodesk"
 90
        0
280
     0
281
     0
  0
CLASS
  1
ACMDATUMSTANDARDANSI
  2
AcmDatumStdANSI
  3
"AcmSymBB|Product Description: AutoCAD Mechanical 2000|Company: Autodesk"
 90
        0
280
     0
281
     0
  0
CLASS
  1
ACMBOMSTANDARDANSI
  2
AcmBOMStdANSI
  3
"AcmSymBB|Product Description: AutoCAD Mechanical 2000|Company: Autodesk"
 90
        0
280
     0
281
     0
  0
CLASS
  1
ACMSTANDARDBSI
  2
AcmStandardBSI
  3
"AcmSymBB|Product Description: AutoCAD Mechanical 2000|Company: Autodesk"
 90
        0
280
     0
281
     0
  0
CLASS
  1
ACMSURFSTANDARDBSI
  2
AcmSurfTextStdBSI
  3
"AcmSymBB|Product Description: AutoCAD Mechanical 2000|Company: Autodesk"
 90
        0
280
     0
281
     0
  0
CLASS
  1
ACMFCFSTANDARDBSI
  2
AcmFCFStdBSI
  3
"AcmSymBB|Product Description: AutoCAD Mechanical 2000|Company: Autodesk"
 90
        0
280
     0
281
     0
  0
CLASS
  1
ACMWELDSTANDARDBSI
  2
AcmWeldingStdBSI
  3
"AcmSymBB|Product Description: AutoCAD Mechanical 2000|Company: Autodesk"
 90
        0
280
     0
281
     0
  0
CLASS
  1
ACMIDSTANDARDBSI
  2
AcmIdStdBSI
  3
"AcmSymBB|Product Description: AutoCAD Mechanical 2000|Company: Autodesk"
 90
        0
280
     0
281
     0
  0
CLASS
  1
ACMDATUMSTANDARDBSI
  2
AcmDatumStdBSI
  3
"AcmSymBB|Product Description: AutoCAD Mechanical 2000|Company: Autodesk"
 90
        0
280
     0
281
     0
  0
CLASS
  1
ACMBOMSTANDARDBSI
  2
AcmBOMStdBSI
  3
"AcmSymBB|Product Description: AutoCAD Mechanical 2000|Company: Autodesk"
 90
        0
280
     0
281
     0
  0
CLASS
  1
STDPART2D
  2
AmgStdPart
  3
"AmgStdPart|Product Description: AutoCAD Mechanical 2000|Company: Autodesk"
 90
     1023
280
     0
281
     1
  0
CLASS
  1
PLOTSETTINGS
  2
AcDbPlotSettings
  3
AutoCAD 2000
 90
        0
280
     0
281
     0
  0
CLASS
  1
LONG_TRANSACTION
  2
AcDbLongTransaction
  3
AutoCAD 2000
 90
        0
280
     0
281
     0
  0
CLASS
  1
LWPOLYLINE
  2
AcDbPolyline
  3
AutoCAD 2000
 90
        0
280
     0
281
     1
  0
CLASS
  1
HATCH
  2
AcDbHatch
  3
AutoCAD 2000
 90
        0
280
     0
281
     1
  0
CLASS
  1
XRECORD
  2
AcDbXrecord
  3
AutoCAD 2000
 90
        0
280
     0
281
     0
  0
ENDSEC
  0
SECTION
  2
TABLES
  0
TABLE
  2
VPORT
  5
8
330
0
100
AcDbSymbolTable
 70
     3
  0
VPORT
  5
9980
330
8
100
AcDbSymbolTableRecord
100
AcDbViewportTableRecord
  2
*ACTIVE
 70
     0
 10
0.0
 20
0.0
 11
1.0
 21
1.0
 12
-28.75273300941967
 22
7.716875814786909
 13
0.0
 23
0.0
 14
2.5
 24
2.5
 15
10.0
 25
10.0
 16
0.0
 26
0.0
 36
1.0
 17
0.0
 27
0.0
 37
0.0
 40
126.8863955309576
 41
1.609042553191489
 42
50.0
 43
0.0
 44
0.0
 50
0.0
 51
0.0
 71
     0
 72
   100
 73
     1
 74
     3
 75
     0
 76
     0
 77
     0
 78
     0
  0
ENDTAB
  0
TABLE
  2
LTYPE
  5
5
330
0
100
AcDbSymbolTable
 70
    10
  0
LTYPE
  5
14
330
5
100
AcDbSymbolTableRecord
100
AcDbLinetypeTableRecord
  2
BYBLOCK
 70
     0
  3

 72
    65
 73
     0
 40
0.0
  0
LTYPE
  5
15
330
5
100
AcDbSymbolTableRecord
100
AcDbLinetypeTableRecord
  2
BYLAYER
 70
     0
  3

 72
    65
 73
     0
 40
0.0
  0
LTYPE
  5
16
330
5
100
AcDbSymbolTableRecord
100
AcDbLinetypeTableRecord
  2
CONTINUOUS
 70
     0
  3
Solid line
 72
    65
 73
     0
 40
0.0
  0
LTYPE
  5
4B
330
5
100
AcDbSymbolTableRecord
100
AcDbLinetypeTableRecord
  2
AM_ISO02W050
 70
     0
  3
__ __ __ __ __ __ __ __ __ __ __ __ __ __ __
 72
    65
 73
     2
 40
7.5
 49
6.0
 74
     0
 49
-1.5
 74
     0
  0
LTYPE
  5
4C
330
5
100
AcDbSymbolTableRecord
100
AcDbLinetypeTableRecord
  2
AM_ISO08W050
 70
     0
  3
____ . ____ . ____ . ____ . ____ . ____ . ____
 72
    65
 73
     4
 40
18.0
 49
12.0
 74
     0
 49
-1.5
 74
     0
 49
3.0
 74
     0
 49
-1.5
 74
     0
  0
LTYPE
  5
4D
330
5
100
AcDbSymbolTableRecord
100
AcDbLinetypeTableRecord
  2
AM_ISO09W050
 70
     0
  3
_____ . . _____ . . _____ . . ____ .. ____
 72
    65
 73
     6
 40
22.5
 49
12.0
 74
     0
 49
-1.5
 74
     0
 49
3.0
 74
     0
 49
-1.5
 74
     0
 49
3.0
 74
     0
 49
-1.5
 74
     0
  0
LTYPE
  5
4E
330
5
100
AcDbSymbolTableRecord
100
AcDbLinetypeTableRecord
  2
AMCONSTR
 70
     0
  3
_______________________
 72
    65
 73
     2
 40
9999.0
 49
9999.0
 74
     0
 49
0.0
 74
     0
  0
LTYPE
  5
4F
330
5
100
AcDbSymbolTableRecord
100
AcDbLinetypeTableRecord
  2
AM_ISO02W050X2
 70
     0
  3
 _ _ _ _ _ _ _ _ _ _ _ _
 72
    65
 73
     2
 40
3.75
 49
3.0
 74
     0
 49
-0.75
 74
     0
  0
LTYPE
  5
50
330
5
100
AcDbSymbolTableRecord
100
AcDbLinetypeTableRecord
  2
AM_ISO08W050X2
 70
     0
  3
__ . __ . __ . __ . __ . __
 72
    65
 73
     4
 40
9.0
 49
6.0
 74
     0
 49
-0.75
 74
     0
 49
1.5
 74
     0
 49
-0.75
 74
     0
  0
LTYPE
  5
53
330
5
100
AcDbSymbolTableRecord
100
AcDbLinetypeTableRecord
  2
AMZIGZAG
 70
     0
  3
/\/-/\/-/\/-/\/-/\/-/\/
 72
    65
 73
     2
 40
11.00009999999999
 49
0.0001
 74
     4
 75
   135
340
52
 46
0.04
 50
0.0
 44
0.0
 45
0.0
 49
-11.0
 74
     0
  0
LTYPE
  5
166
330
5
100
AcDbSymbolTableRecord
100
AcDbLinetypeTableRecord
  2
ACJISTGL
 70
     0
  3
_ _ _ _ _
 72
    65
 73
     2
 40
3.0
 49
2.0
 74
     0
 49
-1.0
 74
     0
  0
LTYPE
  5
26A
330
5
100
AcDbSymbolTableRecord
100
AcDbLinetypeTableRecord
  2
ACJISTGB
 70
     0
  3
__ . . __ . .
 72
    65
 73
     6
 40
9.0
 49
4.0
 74
     0
 49
-1.0
 74
     0
 49
1.0
 74
     0
 49
-1.0
 74
     0
 49
1.0
 74
     0
 49
-1.0
 74
     0
  0
ENDTAB
  0
TABLE
  2
LAYER
  5
2
330
0
100
AcDbSymbolTable
 70
     9
  0
LAYER
  5
10
330
2
100
AcDbSymbolTableRecord
100
AcDbLayerTableRecord
  2
0
 70
     0
 62
     7
  6
CONTINUOUS
  0
LAYER
  5
3F9
330
2
100
AcDbSymbolTableRecord
100
AcDbLayerTableRecord
  2
AM_0
 70
     0
 62
     7
  6
CONTINUOUS
  0
LAYER
  5
BA4
330
2
100
AcDbSymbolTableRecord
100
AcDbLayerTableRecord
  2
AM_5
 70
     0
 62
     3
  6
CONTINUOUS
  0
LAYER
  5
BA6
330
2
100
AcDbSymbolTableRecord
100
AcDbLayerTableRecord
  2
AM_7
 70
     0
 62
     4
  6
AM_ISO08W050
  0
LAYER
  5
E64
330
2
100
AcDbSymbolTableRecord
100
AcDbLayerTableRecord
  2
AM_6
 70
     0
 62
     2
  6
CONTINUOUS
  0
LAYER
  5
F4D
330
2
100
AcDbSymbolTableRecord
100
AcDbLayerTableRecord
  2
DEFPOINTS
 70
     0
 62
     7
  6
CONTINUOUS
  0
LAYER
  5
2382
330
2
100
AcDbSymbolTableRecord
100
AcDbLayerTableRecord
  2
AM_3
 70
     0
 62
     6
  6
ACJISTGL
  0
LAYER
  5
4E80
330
2
100
AcDbSymbolTableRecord
100
AcDbLayerTableRecord
  2
AM_11
 70
     0
 62
     3
  6
AM_ISO09W050
  0
LAYER
  5
502A
330
2
100
AcDbSymbolTableRecord
100
AcDbLayerTableRecord
  2
PV0001_1
 70
     0
 62
     7
  6
CONTINUOUS
  0
ENDTAB
  0
TABLE
  2
STYLE
  5
3
330
0
100
AcDbSymbolTable
 70
     5
  0
STYLE
  5
11
330
3
100
AcDbSymbolTableRecord
100
AcDbTextStyleTableRecord
  2
STANDARD
 70
     0
 40
0.0
 41
1.0
 50
0.0
 71
     0
 42
2.5
  3
simplex.shx
  4
EXTFONT.SHX
  0
STYLE
  5
52
330
3
100
AcDbSymbolTableRecord
100
AcDbTextStyleTableRecord
  2

 70
     1
 40
0.0
 41
1.0
 50
0.0
 71
     0
 42
2.5
  3
ltypeshp.shx
  4

  0
STYLE
  5
6B
330
3
100
AcDbSymbolTableRecord
100
AcDbTextStyleTableRecord
  2
ASAMI
 70
     0
 40
0.0
 41
1.0
 50
0.0
 71
     0
 42
2.5
  3
simplex.shx
  4
EXTFONT.SHX
  0
STYLE
  5
262
330
3
100
AcDbSymbolTableRecord
100
AcDbTextStyleTableRecord
  2
ACJISTS
 70
     0
 40
1.0
 41
1.0
 50
0.0
 71
     0
 42
2.5
  3
simplex.shx
  4
bigfont.shx
  0
STYLE
  5
269
330
3
100
AcDbSymbolTableRecord
100
AcDbTextStyleTableRecord
  2
ACJISGDT
 70
     0
 40
0.0
 41
1.0
 50
0.0
 71
     0
 42
2.5
  3
amgdtans.shx
  4

  0
ENDTAB
  0
TABLE
  2
VIEW
  5
6
330
0
100
AcDbSymbolTable
 70
     0
  0
ENDTAB
  0
TABLE
  2
UCS
  5
7
330
0
100
AcDbSymbolTable
 70
     0
  0
ENDTAB
  0
TABLE
  2
APPID
  5
9
330
0
100
AcDbSymbolTable
 70
    24
  0
APPID
  5
12
330
9
100
AcDbSymbolTableRecord
100
AcDbRegAppTableRecord
  2
ACAD
 70
     0
  0
APPID
  5
30
330
9
100
AcDbSymbolTableRecord
100
AcDbRegAppTableRecord
  2
MCAD_NO_VIS
 70
     0
  0
APPID
  5
31
330
9
100
AcDbSymbolTableRecord
100
AcDbRegAppTableRecord
  2
ACAD_TEMP_GRAPHIC
 70
     0
  0
APPID
  5
2C2
330
9
100
AcDbSymbolTableRecord
100
AcDbRegAppTableRecord
  2
GENIUS_GENDTOL_13
 70
     0
  0
APPID
  5
339
330
9
100
AcDbSymbolTableRecord
100
AcDbRegAppTableRecord
  2
GENIUS_GENODEF_13
 70
     0
  0
APPID
  5
33A
330
9
100
AcDbSymbolTableRecord
100
AcDbRegAppTableRecord
  2
GENIUS_GENOBJ-N-RSBK_13
 70
     0
  0
APPID
  5
33B
330
9
100
AcDbSymbolTableRecord
100
AcDbRegAppTableRecord
  2
GENIUS_GENOBJ-N-LIB_13
 70
     0
  0
APPID
  5
33C
330
9
100
AcDbSymbolTableRecord
100
AcDbRegAppTableRecord
  2
GENIUS_GENSCALE_13
 70
     0
  0
APPID
  5
378
330
9
100
AcDbSymbolTableRecord
100
AcDbRegAppTableRecord
  2
GENIUS_GENDIMSH_14
 70
     0
  0
APPID
  5
BB0
330
9
100
AcDbSymbolTableRecord
100
AcDbRegAppTableRecord
  2
GENIUS_GENOBJ-N-CEN_13
 70
     0
  0
APPID
  5
BB1
330
9
100
AcDbSymbolTableRecord
100
AcDbRegAppTableRecord
  2
GENIUS_GENFIL_13
 70
     0
  0
APPID
  5
BB2
330
9
100
AcDbSymbolTableRecord
100
AcDbRegAppTableRecord
  2
GENIUS_GENOBJ-N-CHA_13
 70
     0
  0
APPID
  5
1FAF
330
9
100
AcDbSymbolTableRecord
100
AcDbRegAppTableRecord
  2
GENIUS_GENOBJ-N-CRS_13
 70
     0
  0
APPID
  5
1FB0
330
9
100
AcDbSymbolTableRecord
100
AcDbRegAppTableRecord
  2
GENIUS_GENOENT_13
 70
     0
  0
APPID
  5
1FB1
330
9
100
AcDbSymbolTableRecord
100
AcDbRegAppTableRecord
  2
GENIUS_GENOREF_13
 70
     0
  0
APPID
  5
1FB2
330
9
100
AcDbSymbolTableRecord
100
AcDbRegAppTableRecord
  2
GENIUS_GENOLIS_13
 70
     0
  0
APPID
  5
1FB7
330
9
100
AcDbSymbolTableRecord
100
AcDbRegAppTableRecord
  2
GENIUS_GENOBJ-N-FIL_13
 70
     0
  0
APPID
  5
22A8
330
9
100
AcDbSymbolTableRecord
100
AcDbRegAppTableRecord
  2
GEVID1056506048
 70
     0
  0
APPID
  5
22A9
330
9
100
AcDbSymbolTableRecord
100
AcDbRegAppTableRecord
  2
GEVDC
 70
     0
  0
APPID
  5
22AC
330
9
100
AcDbSymbolTableRecord
100
AcDbRegAppTableRecord
  2
GENIUS_GENBH_13
 70
     0
  0
APPID
  5
22B8
330
9
100
AcDbSymbolTableRecord
100
AcDbRegAppTableRecord
  2
GENIUS_GENOBJ-NBEHI-BHF_13
 70
     0
  0
APPID
  5
22BA
330
9
100
AcDbSymbolTableRecord
100
AcDbRegAppTableRecord
  2
GENIUS_GENOBJ-NBEHI-BHB_13
 70
     0
  0
APPID
  5
35C9
330
9
100
AcDbSymbolTableRecord
100
AcDbRegAppTableRecord
  2
GENIUS_GENREC_14
 70
     0
  0
APPID
  5
35CA
330
9
100
AcDbSymbolTableRecord
100
AcDbRegAppTableRecord
  2
GENIUS_GENOBJ-N-REC_13
 70
     0
  0
ENDTAB
  0
TABLE
  2
DIMSTYLE
  5
A
330
0
100
AcDbSymbolTable
 70
    12
  0
DIMSTYLE
105
58
330
A
100
AcDbSymbolTableRecord
100
AcDbDimStyleTableRecord
  2
AM_JIS
 70
     0
  3

  4
"
  5
OPEN30
  6

  7

 40
0.5
 41
2.5
 42
1.0
 43
12.0
 44
1.0
 45
0.0
 46
0.0
 47
0.1
 48
0.1
140
3.2
141
0.0
142
0.0
143
0.0393701
144
1.0
145
0.0
146
0.71
147
1.5
 71
     0
 72
     0
 73
     0
 74
     0
 75
     0
 76
     0
 77
     3
 78
     8
170
     0
171
     2
172
     1
173
     0
174
     0
175
     0
176
   256
177
   256
178
     2
270
     2
271
     3
272
     3
273
     2
274
     2
340
6B
275
     0
280
     0
281
     0
282
     0
283
     0
284
     0
285
     0
286
     0
287
     3
288
     0
  0
DIMSTYLE
105
5F
330
A
100
AcDbSymbolTableRecord
100
AcDbDimStyleTableRecord
  2
AM_JIS$3
 70
     0
  3

  4
"
  5
OPEN30
  6

  7

 40
0.5
 41
2.5
 42
1.0
 43
10.0
 44
1.0
 45
0.0
 46
0.0
 47
0.1
 48
0.1
140
3.2
141
0.0
142
0.0
143
0.0393701
144
1.0
145
0.0
146
0.71
147
1.5
 71
     0
 72
     0
 73
     0
 74
     1
 75
     0
 76
     0
 77
     3
 78
     8
170
     0
171
     2
172
     0
173
     0
174
     0
175
     0
176
   256
177
   256
178
     2
270
     2
271
     2
272
     3
273
     2
274
     2
340
6B
275
     0
280
     0
281
     0
282
     0
283
     0
284
     0
285
     0
286
     0
287
     0
288
     1
  0
DIMSTYLE
105
60
330
A
100
AcDbSymbolTableRecord
100
AcDbDimStyleTableRecord
  2
AM_JIS$4
 70
     0
  3

  4
"
  5
OPEN30
  6

  7

 40
0.5
 41
2.5
 42
1.0
 43
10.0
 44
1.0
 45
0.0
 46
0.0
 47
0.1
 48
0.1
140
3.2
141
0.0
142
0.0
143
0.0393701
144
1.0
145
0.0
146
0.71
147
1.5
 71
     0
 72
     0
 73
     0
 74
     1
 75
     0
 76
     0
 77
     3
 78
     8
170
     0
171
     2
172
     0
173
     0
174
     0
175
     0
176
   256
177
   256
178
     2
270
     2
271
     2
272
     3
273
     2
274
     2
340
6B
275
     0
280
     0
281
     0
282
     0
283
     0
284
     0
285
     0
286
     0
287
     0
288
     1
  0
DIMSTYLE
105
61
330
A
100
AcDbSymbolTableRecord
100
AcDbDimStyleTableRecord
  2
AM_JIS$6
 70
     0
  3

  4
"
  5
OPEN30
  6

  7

 40
0.5
 41
2.5
 42
1.0
 43
10.0
 44
1.0
 45
0.0
 46
0.0
 47
0.1
 48
0.1
140
3.2
141
0.0
142
0.0
143
0.0393701
144
1.0
145
0.0
146
0.71
147
1.5
 71
     0
 72
     0
 73
     0
 74
     0
 75
     0
 76
     0
 77
     0
 78
     8
170
     0
171
     2
172
     1
173
     0
174
     0
175
     0
176
   256
177
   256
178
     2
270
     2
271
     2
272
     2
273
     2
274
     2
340
6B
275
     0
280
     0
281
     0
282
     0
283
     0
284
     0
285
     0
286
     0
287
     3
288
     0
  0
DIMSTYLE
105
62
330
A
100
AcDbSymbolTableRecord
100
AcDbDimStyleTableRecord
  2
AM_JIS$7
 70
     0
  3

  4
"
  5
OPEN30
  6

  7

 40
0.5
 41
2.5
 42
1.0
 43
10.0
 44
1.0
 45
0.0
 46
0.0
 47
0.1
 48
0.1
140
3.2
141
0.0
142
0.0
143
0.0393701
144
1.0
145
0.0
146
0.71
147
1.5
 71
     0
 72
     0
 73
     0
 74
     0
 75
     0
 76
     0
 77
     3
 78
     8
170
     0
171
     2
172
     1
173
     0
174
     0
175
     0
176
   256
177
   256
178
     2
270
     2
271
     2
272
     3
273
     2
274
     2
340
6B
275
     0
280
     0
281
     0
282
     0
283
     0
284
     0
285
     0
286
     0
287
     3
288
     0
  0
DIMSTYLE
105
63
330
A
100
AcDbSymbolTableRecord
100
AcDbDimStyleTableRecord
  2
AM_JIS$SF
 70
     0
  3

  4
"
  5
OPEN30
  6

  7

 40
0.5
 41
2.5
 42
1.0
 43
10.0
 44
1.0
 45
0.0
 46
0.0
 47
0.1
 48
0.1
140
3.2
141
0.0
142
0.0
143
0.0393701
144
1.0
145
0.0
146
0.71
147
1.5
 71
     0
 72
     0
 73
     0
 74
     0
 75
     1
 76
     1
 77
     3
 78
     8
170
     0
171
     2
172
     1
173
     0
174
     0
175
     0
176
   256
177
   256
178
     2
270
     2
271
     2
272
     2
273
     2
274
     2
340
6B
275
     0
280
     0
281
     0
282
     0
283
     0
284
     0
285
     0
286
     0
287
     3
288
     0
  0
DIMSTYLE
105
68
330
A
100
AcDbSymbolTableRecord
100
AcDbDimStyleTableRecord
  2
AM_JIS$SH
 70
     0
  3

  4
"
  5

  6
GENAXEH
  7
OPEN30
 40
0.5
 41
2.5
 42
1.0
 43
10.0
 44
1.0
 45
0.0
 46
0.0
 47
0.1
 48
0.1
140
3.2
141
0.0
142
0.0
143
0.0393701
144
2.0
145
0.0
146
0.71
147
1.5
 71
     0
 72
     0
 73
     0
 74
     0
 75
     1
 76
     1
 77
     3
 78
     8
170
     0
171
     2
172
     1
173
     1
174
     0
175
     0
176
   256
177
   256
178
     2
270
     2
271
     2
272
     2
273
     2
274
     2
340
6B
275
     0
280
     0
281
     0
282
     0
283
     0
284
     0
285
     0
286
     0
287
     3
288
     0
  0
DIMSTYLE
105
B34
102
{ACAD_REACTORS
330
97A9
102
}
330
A
100
AcDbSymbolTableRecord
100
AcDbDimStyleTableRecord
  2
AM_JIS$2
 70
     0
  3

  4
"
  5
OPEN30
  6

  7

 40
0.5
 41
2.5
 42
1.0
 43
12.0
 44
1.0
 45
0.0
 46
0.0
 47
0.1
 48
0.1
140
3.2
141
0.0
142
0.0
143
0.0393701
144
1.0
145
0.0
146
0.71
147
1.5
 71
     0
 72
     0
 73
     0
 74
     0
 75
     0
 76
     0
 77
     3
 78
     8
170
     0
171
     2
172
     1
173
     0
174
     0
175
     0
176
   256
177
   256
178
     2
270
     2
271
     3
272
     3
273
     2
274
     2
340
6B
275
     0
280
     0
281
     0
282
     0
283
     0
284
     0
285
     0
286
     0
287
     3
288
     0
  0
DIMSTYLE
105
3B48
102
{ACAD_REACTORS
330
94C8
330
940F
330
9574
330
96EB
330
965F
102
}
330
A
100
AcDbSymbolTableRecord
100
AcDbDimStyleTableRecord
  2
AM_JIS$0
 70
     0
  3

  4
"
  5
OPEN30
  6

  7

 40
1.0
 41
2.5
 42
0.0
 43
10.0
 44
1.0
 45
0.0
 46
0.0
 47
0.1
 48
0.1000000001
140
3.799999999999999
141
0.0
142
0.0
143
0.0393701
144
1.0
145
0.0
146
0.71
147
1.5
 71
     0
 72
     0
 73
     0
 74
     0
 75
     0
 76
     0
 77
     3
 78
     1
170
     0
171
     2
172
     1
173
     0
174
     0
175
     0
176
     3
177
     3
178
     2
270
     2
271
     2
272
     2
273
     2
274
     2
340
11
275
     1
280
     0
281
     0
282
     0
283
     0
284
     8
285
     0
286
     0
287
     0
288
     0
  0
DIMSTYLE
105
502B
330
A
100
AcDbSymbolTableRecord
100
AcDbDimStyleTableRecord
  2
AM_JISORG-1P0$2
 70
     0
  3

  4
"
  5
OPEN30
  6

  7

 40
1.0
 41
2.5
 42
0.0
 43
10.0
 44
1.0
 45
0.0
 46
0.0
 47
0.1
 48
0.1000000001
140
3.799999999999999
141
0.0
142
0.0
143
0.0393701
144
-1.000000047579403
145
0.0
146
0.71
147
1.5
 71
     0
 72
     0
 73
     0
 74
     0
 75
     0
 76
     0
 77
     3
 78
     1
170
     0
171
     2
172
     1
173
     0
174
     0
175
     0
176
     3
177
     3
178
     2
270
     2
271
     2
272
     2
273
     2
274
     2
340
11
275
     1
280
     0
281
     0
282
     0
283
     0
284
     8
285
     0
286
     0
287
     0
288
     0
  0
DIMSTYLE
105
502C
330
A
100
AcDbSymbolTableRecord
100
AcDbDimStyleTableRecord
  2
AM_JISORG0P5$0
 70
     0
  3

  4
"
  5
OPEN30
  6

  7

 40
1.0
 41
2.5
 42
0.0
 43
10.0
 44
1.0
 45
0.0
 46
0.0
 47
0.1
 48
0.1000000001
140
3.799999999999999
141
0.0
142
0.0
143
0.0393701
144
0.5000003785514306
145
0.0
146
0.71
147
1.5
 71
     0
 72
     0
 73
     0
 74
     0
 75
     0
 76
     0
 77
     3
 78
     1
170
     0
171
     2
172
     1
173
     0
174
     0
175
     0
176
     3
177
     3
178
     2
270
     2
271
     2
272
     2
273
     2
274
     2
340
11
275
     1
280
     0
281
     0
282
     0
283
     0
284
     8
285
     0
286
     0
287
     0
288
     0
  0
DIMSTYLE
105
502D
330
A
100
AcDbSymbolTableRecord
100
AcDbDimStyleTableRecord
  2
AM_JISORG0P2$4
 70
     0
  3

  4
"
  5
OPEN30
  6

  7

 40
1.0
 41
2.5
 42
0.0
 43
10.0
 44
1.0
 45
0.0
 46
0.0
 47
0.1
 48
0.1000000001
140
3.799999999999999
141
0.0
142
0.0
143
0.0393701
144
0.2
145
0.0
146
0.71
147
1.5
 71
     0
 72
     0
 73
     0
 74
     0
 75
     0
 76
     0
 77
     3
 78
     1
170
     0
171
     2
172
     1
173
     0
174
     0
175
     0
176
     3
177
     3
178
     2
270
     2
271
     2
272
     2
273
     2
274
     2
340
11
275
     1
280
     0
281
     0
282
     0
283
     0
284
     8
285
     0
286
     0
287
     0
288
     1
  0
ENDTAB
  0
TABLE
  2
BLOCK_RECORD
  5
1
330
0
100
AcDbSymbolTable
 70
    13
  0
BLOCK_RECORD
  5
1F
102
{ACAD_XDICTIONARY
360
74
102
}
330
1
100
AcDbSymbolTableRecord
100
AcDbBlockTableRecord
  2
*MODEL_SPACE
  0
BLOCK_RECORD
  5
101
102
{ACAD_XDICTIONARY
360
99A9
102
}
330
1
100
AcDbSymbolTableRecord
100
AcDbBlockTableRecord
  2
*PAPER_SPACE
  0
BLOCK_RECORD
  5
59
330
1
100
AcDbSymbolTableRecord
100
AcDbBlockTableRecord
  2
_OPEN30
  0
BLOCK_RECORD
  5
64
330
1
100
AcDbSymbolTableRecord
100
AcDbBlockTableRecord
  2
GENAXEH
  0
BLOCK_RECORD
  5
5EAB
330
1
100
AcDbSymbolTableRecord
100
AcDbBlockTableRecord
  2
*U5
  0
BLOCK_RECORD
  5
5EAF
330
1
100
AcDbSymbolTableRecord
100
AcDbBlockTableRecord
  2
*U6
  0
BLOCK_RECORD
  5
9410
330
1
100
AcDbSymbolTableRecord
100
AcDbBlockTableRecord
  2
*D7
  0
BLOCK_RECORD
  5
94C9
330
1
100
AcDbSymbolTableRecord
100
AcDbBlockTableRecord
  2
*D8
  0
BLOCK_RECORD
  5
9575
330
1
100
AcDbSymbolTableRecord
100
AcDbBlockTableRecord
  2
*D9
  0
BLOCK_RECORD
  5
9660
330
1
100
AcDbSymbolTableRecord
100
AcDbBlockTableRecord
  2
*D10
  0
BLOCK_RECORD
  5
96EC
330
1
100
AcDbSymbolTableRecord
100
AcDbBlockTableRecord
  2
*D11
  0
BLOCK_RECORD
  5
97AA
330
1
100
AcDbSymbolTableRecord
100
AcDbBlockTableRecord
  2
*D12
  0
ENDTAB
  0
ENDSEC
  0
SECTION
  2
BLOCKS
  0
BLOCK
  5
20
330
1F
100
AcDbEntity
  8
0
100
AcDbBlockBegin
  2
*MODEL_SPACE
 70
     0
 10
0.0
 20
0.0
 30
0.0
  3
*MODEL_SPACE
  1

  0
ENDBLK
  5
21
330
1F
100
AcDbEntity
  8
0
100
AcDbBlockEnd
  0
BLOCK
  5
103
330
101
100
AcDbEntity
 67
     1
  8
0
100
AcDbBlockBegin
  2
*PAPER_SPACE
 70
     0
 10
0.0
 20
0.0
 30
0.0
  3
*PAPER_SPACE
  1

  0
ENDBLK
  5
104
330
101
100
AcDbEntity
 67
     1
  8
0
100
AcDbBlockEnd
  0
BLOCK
  5
5D
330
59
100
AcDbEntity
  8
0
100
AcDbBlockBegin
  2
_OPEN30
 70
     0
 10
0.0
 20
0.0
 30
0.0
  3
_OPEN30
  1

  0
LINE
  5
5A
330
59
100
AcDbEntity
  8
0
 62
     0
100
AcDbLine
 10
-1.0
 20
0.26794919
 30
0.0
 11
0.0
 21
0.0
 31
0.0
  0
LINE
  5
5B
330
59
100
AcDbEntity
  8
0
 62
     0
100
AcDbLine
 10
0.0
 20
0.0
 30
0.0
 11
-1.0
 21
-0.26794919
 31
0.0
  0
LINE
  5
5C
330
59
100
AcDbEntity
  8
0
 62
     0
100
AcDbLine
 10
0.0
 20
0.0
 30
0.0
 11
-1.0
 21
0.0
 31
0.0
  0
ENDBLK
  5
5E
330
59
100
AcDbEntity
  8
0
100
AcDbBlockEnd
  0
BLOCK
  5
66
330
64
100
AcDbEntity
  8
0
100
AcDbBlockBegin
  2
GENAXEH
 70
     0
 10
0.0
 20
0.0
 30
0.0
  3
GENAXEH
  1

  0
LINE
  5
65
330
64
100
AcDbEntity
  8
0
100
AcDbLine
 10
-1.0
 20
0.0
 30
0.0
 11
1.0
 21
0.0
 31
0.0
  0
ENDBLK
  5
67
330
64
100
AcDbEntity
  8
0
100
AcDbBlockEnd
  0
BLOCK
  5
5EAD
330
5EAB
100
AcDbEntity
  8
0
100
AcDbBlockBegin
  2
*U5
 70
     1
 10
0.0
 20
0.0
 30
0.0
  3
*U5
  1

  0
LEADER
  5
5EAC
330
5EAB
100
AcDbEntity
  8
0
  6
CONTINUOUS
 48
0.5
100
AcDbLeader
  3
AM_JIS$7
 76
     2
 10
-35.56723785400299
 20
61.482246398925
 30
0.0
 10
-35.56723785400299
 20
51.482246398925
 30
0.0
1001
ACAD
1000
DSTYLE
1002
{
1070
     6
1000
OPEN30
1070
   173
1070
     1
1070
   176
1070
     0
1070
   341
1005
59
1002
}
  0
ENDBLK
  5
5EAE
330
5EAB
100
AcDbEntity
  8
0
100
AcDbBlockEnd
  0
BLOCK
  5
5EB1
330
5EAF
100
AcDbEntity
  8
0
100
AcDbBlockBegin
  2
*U6
 70
     1
 10
0.0
 20
0.0
 30
0.0
  3
*U6
  1

  0
LEADER
  5
5EB0
330
5EAF
100
AcDbEntity
  8
0
  6
CONTINUOUS
 48
0.5
100
AcDbLeader
  3
AM_JIS$7
 76
     2
 10
-25.567237854003
 20
51.482246398925
 30
0.0
 10
-35.56723785400299
 20
51.482246398925
 30
0.0
1001
ACAD
1000
DSTYLE
1002
{
1070
     6
1000
OPEN30
1070
   173
1070
     1
1070
   176
1070
     0
1070
   341
1005
59
1002
}
  0
ENDBLK
  5
5EB2
330
5EAF
100
AcDbEntity
  8
0
100
AcDbBlockEnd
  0
BLOCK
  5
941A
330
9410
100
AcDbEntity
  8
0
100
AcDbBlockBegin
  2
*D7
 70
     1
 10
0.0
 20
0.0
 30
0.0
  3
*D7
  1

  0
LINE
  5
99AB
330
9410
100
AcDbEntity
  8
AM_5
100
AcDbLine
 10
-100.5000000000005
 20
51.79694092809008
 30
0.0
 11
-116.5603124912287
 21
51.79694092809004
 31
0.0
  0
LINE
  5
99AC
330
9410
100
AcDbEntity
  8
AM_5
100
AcDbLine
 10
-100.5000000000003
 20
31.93195069371506
 30
0.0
 11
-116.5603124912286
 21
31.93195069371503
 31
0.0
  0
LINE
  5
99AD
330
9410
100
AcDbEntity
  8
AM_5
100
AcDbLine
 10
-116.0603124912287
 20
50.54694092809004
 30
0.0
 11
-116.0603124912286
 21
33.18195069371503
 31
0.0
  0
INSERT
  5
99AE
330
9410
100
AcDbEntity
  8
AM_5
100
AcDbBlockReference
  2
_OPEN30
 10
-116.0603124912287
 20
51.79694092809004
 30
0.0
 41
1.25
 42
1.25
 43
1.25
 50
90.0000000000001
  0
INSERT
  5
99AF
330
9410
100
AcDbEntity
  8
AM_5
100
AcDbBlockReference
  2
_OPEN30
 10
-116.0603124912286
 20
31.93195069371504
 30
0.0
 41
1.25
 42
1.25
 43
1.25
 50
270.0000000000001
  0
MTEXT
  5
99B0
330
9410
100
AcDbEntity
  8
AM_5
 62
     2
100
AcDbMText
 10
-117.6103124912286
 20
41.86444581090254
 30
0.0
 40
1.6
 41
0.0
 71
     5
 72
     1
  1
20
  7
ASAMI
 11
-0.000000000000002
 21
1.0
 31
0.0
  0
POINT
  5
99B1
330
9410
100
AcDbEntity
  8
DEFPOINTS
 62
     0
100
AcDbPoint
 10
-100.0000000000003
 20
51.79694092809029
 30
0.0
  0
POINT
  5
99B2
330
9410
100
AcDbEntity
  8
DEFPOINTS
 62
     0
100
AcDbPoint
 10
-100.0000000000003
 20
31.93195069371529
 30
0.0
  0
POINT
  5
99B3
330
9410
100
AcDbEntity
  8
DEFPOINTS
 62
     0
100
AcDbPoint
 10
-116.0603124912286
 20
31.9319506937153
 30
0.0
  0
ENDBLK
  5
941B
330
9410
100
AcDbEntity
  8
0
100
AcDbBlockEnd
  0
BLOCK
  5
94D3
330
94C9
100
AcDbEntity
  8
0
100
AcDbBlockBegin
  2
*D8
 70
     1
 10
0.0
 20
0.0
 30
0.0
  3
*D8
  1

  0
LINE
  5
99B4
330
94C9
100
AcDbEntity
  8
AM_5
100
AcDbLine
 10
-100.5000000000002
 20
-4.635010153055797
 30
0.0
 11
-116.5603124912283
 21
-4.635010153055828
 31
0.0
  0
LINE
  5
99B5
330
94C9
100
AcDbEntity
  8
AM_5
100
AcDbLine
 10
-100.5000000000002
 20
-24.5000003874308
 30
0.0
 11
-116.5603124912283
 21
-24.50000038743083
 31
0.0
  0
LINE
  5
99B6
330
94C9
100
AcDbEntity
  8
AM_5
100
AcDbLine
 10
-116.0603124912283
 20
-5.885010153055827
 30
0.0
 11
-116.0603124912283
 21
-23.25000038743082
 31
0.0
  0
INSERT
  5
99B7
330
94C9
100
AcDbEntity
  8
AM_5
100
AcDbBlockReference
  2
_OPEN30
 10
-116.0603124912283
 20
-4.635010153055827
 30
0.0
 41
1.25
 42
1.25
 43
1.25
 50
90.0000000000001
  0
INSERT
  5
99B8
330
94C9
100
AcDbEntity
  8
AM_5
100
AcDbBlockReference
  2
_OPEN30
 10
-116.0603124912283
 20
-24.50000038743082
 30
0.0
 41
1.25
 42
1.25
 43
1.25
 50
270.0000000000001
  0
MTEXT
  5
99B9
330
94C9
100
AcDbEntity
  8
AM_5
 62
     2
100
AcDbMText
 10
-117.6103124912283
 20
-14.56750527024332
 30
0.0
 40
1.6
 41
0.0
 71
     5
 72
     1
  1
20
  7
ASAMI
 11
-0.000000000000002
 21
1.0
 31
0.0
  0
POINT
  5
99BA
330
94C9
100
AcDbEntity
  8
DEFPOINTS
 62
     0
100
AcDbPoint
 10
-100.0000000000002
 20
-4.635010153055574
 30
0.0
  0
POINT
  5
99BB
330
94C9
100
AcDbEntity
  8
DEFPOINTS
 62
     0
100
AcDbPoint
 10
-100.0000000000002
 20
-24.50000038743057
 30
0.0
  0
POINT
  5
99BC
330
94C9
100
AcDbEntity
  8
DEFPOINTS
 62
     0
100
AcDbPoint
 10
-116.0603124912283
 20
-24.50000038743057
 30
0.0
  0
ENDBLK
  5
94D4
330
94C9
100
AcDbEntity
  8
0
100
AcDbBlockEnd
  0
BLOCK
  5
957F
330
9575
100
AcDbEntity
  8
0
100
AcDbBlockBegin
  2
*D9
 70
     1
 10
0.0
 20
0.0
 30
0.0
  3
*D9
  1

  0
LINE
  5
99BD
330
9575
100
AcDbEntity
  8
AM_5
100
AcDbLine
 10
-0.0000000000002701
 20
0.5000000000001564
 30
0.0
 11
-0.0000000000002735
 21
19.22949652578994
 31
0.0
  0
LINE
  5
99BE
330
9575
100
AcDbEntity
  8
AM_5
100
AcDbLine
 10
-100.0000000000002
 20
-4.135010153055791
 30
0.0
 11
-100.0000000000002
 21
19.22949652578992
 31
0.0
  0
LINE
  5
99BF
330
9575
100
AcDbEntity
  8
AM_5
100
AcDbLine
 10
-1.250000000000273
 20
18.72949652578994
 30
0.0
 11
-98.75000000000026
 21
18.72949652578992
 31
0.0
  0
INSERT
  5
99C0
330
9575
100
AcDbEntity
  8
AM_5
100
AcDbBlockReference
  2
_OPEN30
 10
-0.0000000000002734
 20
18.72949652578994
 30
0.0
 41
1.25
 42
1.25
 43
1.25
  0
INSERT
  5
99C1
330
9575
100
AcDbEntity
  8
AM_5
100
AcDbBlockReference
  2
_OPEN30
 10
-100.0000000000002
 20
18.72949652578992
 30
0.0
 41
1.25
 42
1.25
 43
1.25
 50
180.0
  0
MTEXT
  5
99C2
330
9575
100
AcDbEntity
  8
AM_5
 62
     2
100
AcDbMText
 10
-50.00000000000027
 20
20.27949652578993
 30
0.0
 40
1.6
 41
0.0
 71
     5
 72
     1
  1
100
  7
ASAMI
  0
POINT
  5
99C3
330
9575
100
AcDbEntity
  8
DEFPOINTS
 62
     0
100
AcDbPoint
 10
-0.00000000000027
 20
0.0000000000001563
 30
0.0
  0
POINT
  5
99C4
330
9575
100
AcDbEntity
  8
DEFPOINTS
 62
     0
100
AcDbPoint
 10
-100.0000000000002
 20
-4.635010153055588
 30
0.0
  0
POINT
  5
99C5
330
9575
100
AcDbEntity
  8
DEFPOINTS
 62
     0
100
AcDbPoint
 10
-100.0000000000002
 20
18.72949652579012
 30
0.0
  0
ENDBLK
  5
9580
330
9575
100
AcDbEntity
  8
0
100
AcDbBlockEnd
  0
BLOCK
  5
966A
330
9660
100
AcDbEntity
  8
0
100
AcDbBlockBegin
  2
*D10
 70
     1
 10
0.0
 20
0.0
 30
0.0
  3
*D10
  1

  0
LINE
  5
99C6
330
9660
100
AcDbEntity
  8
AM_5
100
AcDbLine
 10
0.49999999999973
 20
0.0000000000001573
 30
0.0
 11
19.54144583459605
 21
0.0000000000001942
 31
0.0
  0
LINE
  5
99C7
330
9660
100
AcDbEntity
  8
AM_5
100
AcDbLine
 10
-12.54764404892962
 20
-24.50000038743043
 30
0.0
 11
19.5414458345961
 21
-24.50000038743037
 31
0.0
  0
LINE
  5
99C8
330
9660
100
AcDbEntity
  8
AM_5
100
AcDbLine
 10
19.04144583459605
 20
-1.249999999999806
 30
0.0
 11
19.0414458345961
 21
-23.25000038743037
 31
0.0
  0
INSERT
  5
99C9
330
9660
100
AcDbEntity
  8
AM_5
100
AcDbBlockReference
  2
_OPEN30
 10
19.04144583459605
 20
0.0000000000001932
 30
0.0
 41
1.25
 42
1.25
 43
1.25
 50
90.0000000000001
  0
INSERT
  5
99CA
330
9660
100
AcDbEntity
  8
AM_5
100
AcDbBlockReference
  2
_OPEN30
 10
19.0414458345961
 20
-24.50000038743037
 30
0.0
 41
1.25
 42
1.25
 43
1.25
 50
270.0000000000001
  0
MTEXT
  5
99CB
330
9660
100
AcDbEntity
  8
AM_5
 62
     2
100
AcDbMText
 10
17.49144583459607
 20
-12.25000019371509
 30
0.0
 40
1.6
 41
0.0
 71
     5
 72
     1
  1
24.5
  7
ASAMI
 11
-0.000000000000002
 21
1.0
 31
0.0
  0
POINT
  5
99CC
330
9660
100
AcDbEntity
  8
DEFPOINTS
 62
     0
100
AcDbPoint
 10
-0.00000000000027
 20
0.0000000000001563
 30
0.0
  0
POINT
  5
99CD
330
9660
100
AcDbEntity
  8
DEFPOINTS
 62
     0
100
AcDbPoint
 10
-13.04764404892968
 20
-24.5000003874304
 30
0.0
  0
POINT
  5
99CE
330
9660
100
AcDbEntity
  8
DEFPOINTS
 62
     0
100
AcDbPoint
 10
19.04144583459604
 20
-24.50000038743041
 30
0.0
  0
ENDBLK
  5
966B
330
9660
100
AcDbEntity
  8
0
100
AcDbBlockEnd
  0
BLOCK
  5
96F6
330
96EC
100
AcDbEntity
  8
0
100
AcDbBlockBegin
  2
*D11
 70
     1
 10
0.0
 20
0.0
 30
0.0
  3
*D11
  1

  0
LINE
  5
99CF
330
96EC
100
AcDbEntity
  8
AM_5
100
AcDbLine
 10
-0.5923904478559919
 20
51.79694092809049
 30
0.0
 11
19.5414458345962
 21
51.79694092809053
 31
0.0
  0
LINE
  5
99D0
330
96EC
100
AcDbEntity
  8
AM_5
100
AcDbLine
 10
0.5000167787070997
 20
31.7969332986965
 30
0.0
 11
19.54144583459624
 21
31.79693329869654
 31
0.0
  0
LINE
  5
99D1
330
96EC
100
AcDbEntity
  8
AM_5
100
AcDbLine
 10
19.04144583459621
 20
50.54694092809053
 30
0.0
 11
19.04144583459624
 21
33.04693329869653
 31
0.0
  0
INSERT
  5
99D2
330
96EC
100
AcDbEntity
  8
AM_5
100
AcDbBlockReference
  2
_OPEN30
 10
19.0414458345962
 20
51.79694092809053
 30
0.0
 41
1.25
 42
1.25
 43
1.25
 50
90.0000000000001
  0
INSERT
  5
99D3
330
96EC
100
AcDbEntity
  8
AM_5
100
AcDbBlockReference
  2
_OPEN30
 10
19.04144583459624
 20
31.79693329869654
 30
0.0
 41
1.25
 42
1.25
 43
1.25
 50
270.0000000000001
  0
MTEXT
  5
99D4
330
96EC
100
AcDbEntity
  8
AM_5
 62
     2
100
AcDbMText
 10
17.49144583459622
 20
41.79693711339353
 30
0.0
 40
1.6
 41
0.0
 71
     5
 72
     1
  1
20
  7
ASAMI
 11
-0.000000000000002
 21
1.0
 31
0.0
  0
POINT
  5
99D5
330
96EC
100
AcDbEntity
  8
DEFPOINTS
 62
     0
100
AcDbPoint
 10
-1.092390447855876
 20
51.79694092809049
 30
0.0
  0
POINT
  5
99D6
330
96EC
100
AcDbEntity
  8
DEFPOINTS
 62
     0
100
AcDbPoint
 10
0.0000167787071703
 20
31.7969332986965
 30
0.0
  0
POINT
  5
99D7
330
96EC
100
AcDbEntity
  8
DEFPOINTS
 62
     0
100
AcDbPoint
 10
19.04144583459631
 20
31.7969332986965
 30
0.0
  0
ENDBLK
  5
96F7
330
96EC
100
AcDbEntity
  8
0
100
AcDbBlockEnd
  0
BLOCK
  5
97B9
330
97AA
100
AcDbEntity
  8
0
100
AcDbBlockBegin
  2
*D12
 70
     1
 10
0.0
 20
0.0
 30
0.0
  3
*D12
  1

  0
LINE
  5
99D8
330
97AA
100
AcDbEntity
  8
AM_5
100
AcDbLine
 10
-0.0000000000002852
 20
0.7591806073127795
 30
0.0
 11
-0.000000000000572
 21
15.0455851725906
 31
0.0
  0
LINE
  5
99D9
330
97AA
100
AcDbEntity
  8
AM_5
100
AcDbLine
 10
-9.722915194979361
 20
-4.802249621063383
 30
0.0
 11
-13.11570051239587
 21
-6.568422195810348
 31
0.0
  0
ARC
  5
99DA
330
97AA
100
AcDbEntity
  8
AM_5
100
AcDbCircle
 10
-0.0000000000002752
 20
0.2591806073127794
 30
0.0
 40
14.28640456527782
100
AcDbArc
 50
95.01473894233658
 51
202.4852654277859
  0
INSERT
  5
99DB
330
97AA
100
AcDbEntity
  8
AM_5
100
AcDbBlockReference
  2
_OPEN30
 10
-0.0000000000005622
 20
14.5455851725906
 30
0.0
 41
1.25
 42
1.25
 43
1.25
 50
2.507369471168846
  0
INSERT
  5
99DC
330
97AA
100
AcDbEntity
  8
AM_5
100
AcDbBlockReference
  2
_OPEN30
 10
-12.67219511341623
 20
-6.337547855365341
 30
0.0
 41
1.25
 42
1.25
 43
1.25
 50
294.9926348989535
  0
MTEXT
  5
99DD
330
97AA
100
AcDbEntity
  8
AM_5
 62
     2
100
AcDbMText
 10
-13.53873056494616
 20
8.474683284870145
 30
0.0
 40
1.6
 41
0.0
 71
     5
 72
     1
  1
117.5°
  7
ASAMI
 11
0.5187732255571627
 21
0.8549118904571495
 31
0.0
  0
POINT
  5
99DE
330
97AA
100
AcDbEntity
  8
DEFPOINTS
 62
     0
100
AcDbPoint
 10
-9.022984122989694
 20
11.33560209257018
 30
0.0
  0
POINT
  5
99DF
330
97AA
100
AcDbEntity
  8
DEFPOINTS
 62
     0
100
AcDbPoint
 10
-0.5847000181677516
 20
-0.0451950132843422
 30
0.0
  0
POINT
  5
99E0
330
97AA
100
AcDbEntity
  8
DEFPOINTS
 62
     0
100
AcDbPoint
 10
-0.0000000000002629
 20
-0.4000000059603509
 30
0.0
  0
POINT
  5
99E1
330
97AA
100
AcDbEntity
  8
DEFPOINTS
 62
     0
100
AcDbPoint
 10
-0.00000000000027
 20
0.0000000000001563
 30
0.0
  0
POINT
  5
99E2
330
97AA
100
AcDbEntity
  8
DEFPOINTS
 62
     0
100
AcDbPoint
 10
-9.27940979599974
 20
-4.571375280618355
 30
0.0
  0
ENDBLK
  5
97BA
330
97AA
100
AcDbEntity
  8
0
100
AcDbBlockEnd
  0
ENDSEC
  0
SECTION
  2
ENTITIES
  0
TEXT
  5
388D
330
1F
100
AcDbEntity
  8
AM_6
100
AcDbText
 10
-70.87702250075884
 20
-45.417957861186
 30
0.0
 40
2.5
  1
SVPCR2020-H11
 50
359.9999999999998
 51
359.9999999999998
 72
     4
 11
-55.87702250075883
 21
-44.16795786118604
 31
0.0
100
AcDbText
  0
MTEXT
  5
5EBB
330
1F
100
AcDbEntity
  8
AM_6
100
AcDbMText
 10
25.3156245926366
 20
0.3379515437065228
 30
0.0
 40
2.5
 41
0.0
 71
     4
 72
     5
  1
\T1.40;\W0.59;０°
1001
ACAD
1000
MTEXTBEGIN
1070
    73
1070
     1
1070
    44
1040
1.0
1070
    74
1070
     0
1000
MTEXTEND
  0
INSERT
  5
5EBC
330
1F
100
AcDbEntity
  8
AM_5
100
AcDbBlockReference
  2
*U6
 10
-9.713077082776017
 20
65.17352347700898
 30
0.0
 50
180.0000000000002
  0
INSERT
  5
5EBD
330
1F
100
AcDbEntity
  8
AM_5
100
AcDbBlockReference
  2
*U5
 10
-9.713077082776017
 20
65.17352347700898
 30
0.0
 50
180.0000000000002
  0
MTEXT
  5
5EBE
330
1F
100
AcDbEntity
  8
AM_6
100
AcDbMText
 10
11.80752358406963
 20
13.67216333093926
 30
0.0
 40
2.5
 41
0.0
 71
     4
 72
     5
  1
\T1.40;\W0.59;０°
1001
ACAD
1000
MTEXTBEGIN
1070
    73
1070
     1
1070
    44
1040
1.0
1070
    74
1070
     0
1000
MTEXTEND
  0
LINE
  5
9339
330
1F
100
AcDbEntity
  8
AM_0
  6
CONTINUOUS
100
AcDbLine
 10
-9.31253662705474
 20
-4.635010153055389
 30
0.0
 11
-100.0000000000002
 21
-4.635010153055588
 31
0.0
  0
LINE
  5
933A
330
1F
100
AcDbEntity
  8
AM_0
  6
CONTINUOUS
100
AcDbLine
 10
-100.0000000000003
 20
51.79694092809029
 30
0.0
 11
-1.092390447855876
 21
51.79694092809049
 31
0.0
  0
LINE
  5
933B
330
1F
100
AcDbEntity
  8
AM_0
  6
CONTINUOUS
100
AcDbLine
 10
-19.99999085068782
 20
31.93195069371543
 30
0.0
 11
-100.0000000000003
 21
31.93195069371526
 31
0.0
  0
LINE
  5
933C
330
1F
100
AcDbEntity
  8
AM_0
  6
CONTINUOUS
100
AcDbLine
 10
-100.0000000000002
 20
-24.50000038743057
 30
0.0
 11
-13.04764404892968
 21
-24.50000038743039
 31
0.0
  0
LINE
  5
9340
330
1F
100
AcDbEntity
  8
AM_0
  6
CONTINUOUS
100
AcDbLine
 10
-8.989904791116842
 20
34.9769412332665
 30
0.0
 11
-0.4208969175818425
 21
34.97694123326647
 31
0.0
  0
LINE
  5
9341
330
1F
100
AcDbEntity
  8
AM_0
  6
CONTINUOUS
100
AcDbLine
 10
-11.26550140976981
 20
31.79694092809046
 30
0.0
 11
-0.4208969175818283
 21
31.79694092809049
 31
0.0
  0
LINE
  5
9342
330
1F
100
AcDbEntity
  8
AM_0
  6
CONTINUOUS
100
AcDbLine
 10
-8.339476019144839
 20
34.97694123326647
 30
0.0
 11
-8.339476019144882
 21
51.79694092809049
 31
0.0
  0
LINE
  5
9343
330
1F
100
AcDbEntity
  8
AM_0
  6
CONTINUOUS
100
AcDbLine
 10
-1.092390447855848
 20
34.97694123326647
 30
0.0
 11
-1.092390447855876
 21
51.79694092809049
 31
0.0
  0
LINE
  5
9344
330
1F
100
AcDbEntity
  8
AM_0
  6
CONTINUOUS
100
AcDbLine
 10
-0.4208969175818283
 20
31.79694092809049
 30
0.0
 11
0.0000015199181718
 21
31.79694092809049
 31
0.0
  0
LINE
  5
9345
330
1F
100
AcDbEntity
  8
AM_0
  6
CONTINUOUS
100
AcDbLine
 10
0.0000167787071774
 20
31.7969332986965
 30
0.0
 11
-0.3904403746138456
 21
34.97693741856949
 31
0.0
  0
LINE
  5
9346
330
1F
100
AcDbEntity
  8
AM_0
  6
CONTINUOUS
100
AcDbLine
 10
-9.312536627054825
 20
32.09692872105947
 30
0.0
 11
-9.312536627054868
 21
51.79694092809049
 31
0.0
  0
LINE
  5
9347
330
1F
100
AcDbEntity
  8
AM_0
  6
CONTINUOUS
100
AcDbLine
 10
-9.252096563577836
 20
32.09692872105947
 30
0.0
 11
-19.83501282334383
 21
32.09692872105944
 31
0.0
  0
LINE
  5
9348
330
1F
100
AcDbEntity
  8
AM_0
  6
CONTINUOUS
100
AcDbLine
 10
-11.26550140976981
 20
31.79694092809046
 30
0.0
 11
-14.39137116074583
 21
31.79694092809046
 31
0.0
  0
LINE
  5
9349
330
1F
100
AcDbEntity
  8
AM_0
  6
CONTINUOUS
100
AcDbLine
 10
-9.281622320413831
 20
31.77253449498548
 30
0.0
 11
-8.989904791116842
 21
34.9769412332665
 31
0.0
  0
LINE
  5
934A
330
1F
100
AcDbEntity
  8
AM_0
  6
CONTINUOUS
100
AcDbLine
 10
-14.39137497544382
 20
31.79694092809046
 30
0.0
 11
-14.35454025864682
 21
32.09693253575648
 31
0.0
  0
LINE
  5
934B
330
1F
100
AcDbEntity
  8
AM_0
  6
CONTINUOUS
100
AcDbLine
 10
-20.00000610947681
 20
31.93193543492645
 30
0.0
 11
-19.83500900864682
 21
32.09692872105944
 31
0.0
  0
LINE
  5
934E
330
1F
100
AcDbEntity
  8
AM_0
  6
CONTINUOUS
100
AcDbLine
 10
-5.329832464456728
 20
-9.674234777688383
 30
0.0
 11
-13.04764404892968
 21
-24.50000038743039
 31
0.0
  0
LINE
  5
934F
330
1F
100
AcDbEntity
  8
AM_0
  6
CONTINUOUS
100
AcDbLine
 10
-19.83499756455468
 20
-24.50000038743039
 30
0.0
 11
-19.83499756455475
 21
-4.635010153055389
 31
0.0
  0
LINE
  5
9350
330
1F
100
AcDbEntity
  8
AM_0
  6
CONTINUOUS
100
AcDbLine
 10
-19.99999848008174
 20
-4.635010153055389
 30
0.0
 11
-19.99999848008168
 21
-24.50000038743039
 31
0.0
  0
CIRCLE
  5
9352
330
1F
100
AcDbEntity
  8
AM_0
  6
CONTINUOUS
100
AcDbCircle
 10
-6.925398260355734
 20
-6.925390630960379
 30
0.0
 40
2.1500000953674
  0
LINE
  5
9353
330
1F
100
AcDbEntity
  8
AM_0
  6
CONTINUOUS
100
AcDbLine
 10
-0.5847000181677516
 20
-0.0451950132843422
 30
0.0
 11
-9.27940979599974
 21
-4.571375280618354
 31
0.0
  0
LINE
  5
9354
330
1F
100
AcDbEntity
  8
AM_0
  6
CONTINUOUS
100
AcDbLine
 10
-4.571386724710734
 20
-9.279405981302403
 30
0.0
 11
-13.26608124375371
 21
-13.8055786192414
 31
0.0
  0
LINE
  5
9355
330
1F
100
AcDbEntity
  8
AM_7
  6
CONTINUOUS
100
AcDbLine
 10
-2.925390630960734
 20
-6.925383001565364
 30
0.0
 11
-10.92539826035573
 21
-6.925383001565421
 31
0.0
  0
LINE
  5
9356
330
1F
100
AcDbEntity
  8
AM_0
  6
CONTINUOUS
100
AcDbLine
 10
-0.0451950132847543
 20
-0.5847009718413574
 30
0.0
 11
-4.571371465921728
 21
-9.279409795999384
 31
0.0
  0
LINE
  5
9357
330
1F
100
AcDbEntity
  8
AM_7
  6
CONTINUOUS
100
AcDbLine
 10
-6.925390630960734
 20
-10.92538300156536
 30
0.0
 11
-6.925390630960748
 21
-3.566488653421373
 31
0.0
  0
ARC
  5
9358
330
1F
100
AcDbEntity
  8
AM_0
  6
CONTINUOUS
100
AcDbCircle
 10
-0.4000000059607629
 20
-0.4000000059603508
 30
0.0
 40
0.4000000059605
100
AcDbArc
 50
332.499996844329
 51
117.5000088478763
  0
ARC
  5
9366
330
1F
100
AcDbEntity
  8
AM_0
  6
CONTINUOUS
100
AcDbCircle
 10
-13.38007202744572
 20
-13.38005867600438
 30
0.0
 40
1.5
100
AcDbArc
 50
134.999998747763
 51
315.000000341624
  0
LINE
  5
9367
330
1F
100
AcDbEntity
  8
AM_0
  6
CONTINUOUS
100
AcDbLine
 10
-9.96672669053072
 20
-12.08804550766936
 30
0.0
 11
-12.31941071152773
 21
-14.44072380661941
 31
0.0
  0
LINE
  5
9368
330
1F
100
AcDbEntity
  8
AM_0
  6
CONTINUOUS
100
AcDbLine
 10
-12.08806458115572
 20
-9.966745764017389
 30
0.0
 11
-14.44072571396873
 21
-12.31940880417838
 31
0.0
  0
LINE
  5
9369
330
1F
100
AcDbEntity
  8
AM_0
  6
CONTINUOUS
100
AcDbLine
 10
-9.27940979599974
 20
-4.571377187967385
 30
0.0
 11
-13.80557861924171
 21
-13.26607552170739
 31
0.0
  0
ARC
  5
936B
330
1F
100
AcDbEntity
  8
AM_0
  6
CONTINUOUS
100
AcDbCircle
 10
-13.45078125596072
 20
-13.45077362656539
 30
0.0
 40
0.4000000059605
100
AcDbArc
 50
152.4999986655608
 51
297.500003838918
  0
LINE
  5
936C
330
1F
100
AcDbEntity
  8
AM_0
  6
CONTINUOUS
100
AcDbLine
 10
-100.0000000000003
 20
51.79694092809029
 30
0.0
 11
-100.0000000000003
 21
31.93195069371529
 31
0.0
  0
LINE
  5
936E
330
1F
100
AcDbEntity
  8
AM_0
  6
CONTINUOUS
100
AcDbLine
 10
-100.0000000000002
 20
-4.635010153055574
 30
0.0
 11
-100.0000000000002
 21
-24.50000038743057
 31
0.0
  0
DIMENSION
  5
940F
330
1F
100
AcDbEntity
  8
AM_5
100
AcDbDimension
  2
*D7
 10
-116.0603124912286
 20
31.9319506937153
 30
0.0
 11
-117.6103124912285
 21
41.86444581090277
 31
0.0
 70
    32
  1
<>
 51
359.9999999999998
  3
AM_JIS$0
100
AcDbAlignedDimension
 13
-100.0000000000003
 23
51.79694092809029
 33
0.0
 14
-100.0000000000003
 24
31.93195069371529
 34
0.0
 50
270.0000000000002
100
AcDbRotatedDimension
1001
GENIUS_GENDTOL_13
1000

1000
h7
1000

1040
0.0
1001
ACAD
1000
DSTYLE
1002
{
1070
   287
1070
     3
1070
    40
1040
0.5
1070
    42
1040
1.0
1070
    43
1040
12.0
1070
    48
1040
0.1
1070
    78
1070
     8
1070
   140
1040
3.2
1070
   176
1070
   256
1070
   177
1070
   256
1070
   271
1070
     0
1070
   272
1070
     3
1070
   275
1070
     0
1070
   284
1070
     0
1070
   289
1070
     3
1070
   340
1005
6B
1070
   371
1070
    -1
1070
   372
1070
    -1
1002
}
  0
DIMENSION
  5
94C8
330
1F
100
AcDbEntity
  8
AM_5
100
AcDbDimension
  2
*D8
 10
-116.0603124912283
 20
-24.50000038743057
 30
0.0
 11
-117.6103124912283
 21
-14.56750527024309
 31
0.0
 70
    32
  1
<>
 51
359.9999999999998
  3
AM_JIS$0
100
AcDbAlignedDimension
 13
-100.0000000000002
 23
-4.635010153055574
 33
0.0
 14
-100.0000000000002
 24
-24.50000038743057
 34
0.0
 50
270.0000000000002
100
AcDbRotatedDimension
1001
GENIUS_GENDTOL_13
1000

1000
h7
1000

1040
0.0
1001
ACAD
1000
DSTYLE
1002
{
1070
   287
1070
     3
1070
    40
1040
0.5
1070
    42
1040
1.0
1070
    43
1040
12.0
1070
    48
1040
0.1
1070
    78
1070
     8
1070
   140
1040
3.2
1070
   176
1070
   256
1070
   177
1070
   256
1070
   271
1070
     0
1070
   272
1070
     3
1070
   275
1070
     0
1070
   284
1070
     0
1070
   289
1070
     3
1070
   340
1005
6B
1070
   371
1070
    -1
1070
   372
1070
    -1
1002
}
  0
LINE
  5
956A
330
1F
100
AcDbEntity
  8
AM_11
100
AcDbLine
 10
-0.40000000596077
 20
0.0000000000001421
 30
0.0
 11
-0.00000000000027
 21
0.0000000000001563
 31
0.0
  0
LINE
  5
956B
330
1F
100
AcDbEntity
  8
AM_11
100
AcDbLine
 10
-0.0000000000002629
 20
-0.4000000059603508
 30
0.0
 11
-0.00000000000027
 21
0.0000000000001563
 31
0.0
  0
DIMENSION
  5
9574
330
1F
100
AcDbEntity
  8
AM_5
100
AcDbDimension
  2
*D9
 10
-100.0000000000002
 20
18.72949652579012
 30
0.0
 11
-50.00000000000023
 21
20.27949652579003
 31
0.0
 70
    32
  1
<>
 51
359.9999999999998
  3
AM_JIS$0
100
AcDbAlignedDimension
 13
-0.00000000000027
 23
0.0000000000001563
 33
0.0
 14
-100.0000000000002
 24
-4.635010153055588
 34
0.0
 50
180.0
100
AcDbRotatedDimension
1001
GENIUS_GENDTOL_13
1000

1000
h7
1000

1040
0.0
1001
ACAD
1000
DSTYLE
1002
{
1070
   287
1070
     3
1070
    40
1040
0.5
1070
    42
1040
1.0
1070
    43
1040
12.0
1070
    48
1040
0.1
1070
    78
1070
     8
1070
   140
1040
3.2
1070
   176
1070
   256
1070
   177
1070
   256
1070
   271
1070
     0
1070
   272
1070
     3
1070
   275
1070
     0
1070
   284
1070
     0
1070
   289
1070
     3
1070
   340
1005
6B
1070
   371
1070
    -1
1070
   372
1070
    -1
1002
}
  0
DIMENSION
  5
965F
330
1F
100
AcDbEntity
  8
AM_5
100
AcDbDimension
  2
*D10
 10
19.04144583459604
 20
-24.50000038743041
 30
0.0
 11
17.49144583459605
 21
-12.25000019371512
 31
0.0
 70
    32
  1
<>
 51
359.9999999999998
  3
AM_JIS$0
100
AcDbAlignedDimension
 13
-0.00000000000027
 23
0.0000000000001563
 33
0.0
 14
-13.04764404892968
 24
-24.5000003874304
 34
0.0
 50
90.0
100
AcDbRotatedDimension
1001
GENIUS_GENDTOL_13
1000

1000
h7
1000

1040
0.0
1001
ACAD
1000
DSTYLE
1002
{
1070
   287
1070
     3
1070
    40
1040
0.5
1070
    42
1040
1.0
1070
    43
1040
12.0
1070
    48
1040
0.1
1070
    78
1070
     8
1070
   140
1040
3.2
1070
   176
1070
   256
1070
   177
1070
   256
1070
   271
1070
     1
1070
   272
1070
     3
1070
   275
1070
     0
1070
   284
1070
     0
1070
   289
1070
     3
1070
   340
1005
6B
1070
   371
1070
    -1
1070
   372
1070
    -1
1002
}
  0
DIMENSION
  5
96EB
330
1F
100
AcDbEntity
  8
AM_5
100
AcDbDimension
  2
*D11
 10
19.04144583459631
 20
31.7969332986965
 30
0.0
 11
17.49144583459631
 21
41.79693711339349
 31
0.0
 70
    32
  1
<>
 51
359.9999999999998
  3
AM_JIS$0
100
AcDbAlignedDimension
 13
-1.092390447855876
 23
51.79694092809049
 33
0.0
 14
0.0000167787071703
 24
31.7969332986965
 34
0.0
 50
90.00000000000019
100
AcDbRotatedDimension
1001
GENIUS_GENDTOL_13
1000

1000
h7
1000

1040
0.0
1001
ACAD
1000
DSTYLE
1002
{
1070
   287
1070
     3
1070
    40
1040
0.5
1070
    42
1040
1.0
1070
    43
1040
12.0
1070
    48
1040
0.1
1070
    78
1070
     8
1070
   140
1040
3.2
1070
   176
1070
   256
1070
   177
1070
   256
1070
   271
1070
     0
1070
   272
1070
     3
1070
   275
1070
     0
1070
   284
1070
     0
1070
   289
1070
     3
1070
   340
1005
6B
1070
   371
1070
    -1
1070
   372
1070
    -1
1002
}
  0
DIMENSION
  5
97A9
330
1F
100
AcDbEntity
  8
AM_5
100
AcDbDimension
  2
*D12
 10
-9.27940979599974
 20
-4.571375280618354
 30
0.0
 11
-13.53873056494614
 21
8.474683284870174
 31
0.0
 70
    34
  1
<>
 51
359.9999999999998
  3
AM_JIS$2
100
AcDb2LineAngularDimension
 13
-0.0000000000002629
 23
-0.4000000059603508
 33
0.0
 14
-0.00000000000027
 24
0.0000000000001563
 34
0.0
 15
-0.5847000181677516
 25
-0.0451950132843422
 35
0.0
 16
-9.022984122989694
 26
11.33560209257018
 36
0.0
1001
GENIUS_GENDTOL_13
1000

1000
h7
1000

1040
0.0
1001
ACAD
1000
DSTYLE
1002
{
1070
   271
1070
     1
1070
   179
1070
     1
1002
}
  0
VIEWPORT
  5
110
330
101
100
AcDbEntity
 67
     1
  8
0
100
AcDbViewport
 10
420.5
 20
297.0
 30
0.0
 40
948.9782706766916
 41
628.452
 68
     1
 69
     1
1001
ACAD
1000
MVIEW
1002
{
1070
    16
1010
0.0
1020
0.0
1030
0.0
1010
0.0
1020
0.0
1030
1.0
1040
0.0
1040
628.452
1040
420.5
1040
297.0
1040
50.0
1040
0.0
1040
0.0
1070
     0
1070
   100
1070
     1
1070
     1
1070
     0
1070
     0
1070
     0
1070
     0
1040
0.0
1040
0.0
1040
0.0
1040
10.0
1040
10.0
1040
10.0
1040
10.0
1070
     0
1002
{
1002
}
1002
}
  0
ENDSEC
  0
SECTION
  2
OBJECTS
  0
DICTIONARY
  5
C
330
0
100
AcDbDictionary
  3
ACAD_GROUP
350
D
  3
ACAD_LAYOUT
350
1A
  3
ACAD_MLINESTYLE
350
17
  3
ACAD_PLOTSETTINGS
350
19
  3
ACAD_PLOTSTYLENAME
350
E
  3
ACDBVARIABLEDICTIONARY
350
34
  3
ACMDICTIONARY
350
43
  3
AMG
350
2B
  3
AMGSNAPSETTINGS
350
6E
  3
DWGPROPS
350
9973
  3
ACDBHEADERROUNDTRIPXREC
350
9981
  0
DICTIONARY
  5
74
330
1F
100
AcDbDictionary
280
     1
  3
ACAD_INDEX
360
9975
  3
ACAD_LAYOUTSELFREF
360
99A4
  0
DICTIONARY
  5
99A9
330
101
100
AcDbDictionary
280
     1
  3
ACAD_LAYOUTSELFREF
360
99AA
  0
DICTIONARY
  5
D
102
{ACAD_REACTORS
330
C
102
}
330
C
100
AcDbDictionary
  0
DICTIONARY
  5
1A
102
{ACAD_REACTORS
330
C
102
}
330
C
100
AcDbDictionary
  0
DICTIONARY
  5
17
102
{ACAD_REACTORS
330
C
102
}
330
C
100
AcDbDictionary
  3
STANDARD
350
18
  0
DICTIONARY
  5
19
102
{ACAD_REACTORS
330
C
102
}
330
C
100
AcDbDictionary
  3
ASAMI
350
399D
  0
ACDBDICTIONARYWDFLT
  5
E
102
{ACAD_REACTORS
330
C
102
}
330
C
100
AcDbDictionary
281
     1
  3
Normal
350
F
100
AcDbDictionaryWithDefault
340
F
  0
DICTIONARY
  5
34
102
{ACAD_REACTORS
330
C
102
}
330
C
100
AcDbDictionary
  3
INDEXCTL
350
35
  3
SORTENTS
350
B5E
  0
DICTIONARY
  5
43
102
{ACAD_REACTORS
330
C
102
}
330
C
100
AcDbDictionary
  3
ACMSTDDICTIONARY
350
260
  0
DICTIONARY
  5
2B
102
{ACAD_REACTORS
330
C
102
}
330
C
100
AcDbDictionary
  3
ACMGSETTINGS
350
2C
  0
DICTIONARY
  5
6E
102
{ACAD_REACTORS
330
C
102
}
330
C
100
AcDbDictionary
  0
XRECORD
  5
9973
102
{ACAD_REACTORS
330
C
102
}
330
C
100
AcDbXrecord
  1
DWGPROPS COOKIE
  2

  3

  4

  6

  7

  8

  9

300
AmdtFileType=82
301
=
302
=
303
=
304
=
305
=
306
=
307
=
308
=
309
=
 40
0.8031506597222222
 41
2452802.716478761
 42
2452938.50403655
  1

 90
        1
  0
DICTIONARY
  5
9981
102
{ACAD_REACTORS
330
C
102
}
330
C
100
AcDbDictionary
  3
TSTACKALIGN
350
9982
  3
TSTACKSIZE
350
9983
  3
HYPERLINKBASE
350
9984
  3
STYLESHEET
350
9985
  3
LAYOUTDICT
350
9986
  3
PLOTSETDICT
350
9987
  3
PLOTSTYLNAMDICT
350
9988
  3
LWETCUNION
350
9989
  3
INSUNITS
350
998A
  3
CEPSNTYPE
350
998B
  3
FINGERPRINTGUID
350
998C
  3
VERSIONGUID
350
998D
  3
PSVPSCALE
350
998E
  3
DIMSTYLEDATA
350
998F
  3
PUCSORTHOREF
350
9990
  3
PUCSORTHOVIEW
350
9991
  3
PUCSBASE
350
9992
  3
PUCSORGTOP
350
9993
  3
PUCSORGBOTTOM
350
9994
  3
PUCSORGLEFT
350
9995
  3
PUCSORGRIGHT
350
9996
  3
PUCSORGFRONT
350
9997
  3
PUCSORGBACK
350
9998
  3
UCSORTHOREF
350
9999
  3
UCSORTHOVIEW
350
999A
  3
UCSBASE
350
999B
  3
UCSORGTOP
350
999C
  3
UCSORGBOTTOM
350
999D
  3
UCSORGLEFT
350
999E
  3
UCSORGRIGHT
350
999F
  3
UCSORGFRONT
350
99A0
  3
UCSORGBACK
350
99A1
  0
DICTIONARY
  5
9975
102
{ACAD_REACTORS
330
74
102
}
330
74
100
AcDbDictionary
  3
*A1
350
9976
  0
XRECORD
  5
99A4
102
{ACAD_REACTORS
330
74
102
}
330
74
100
AcDbXrecord
340
1F
  0
XRECORD
  5
99AA
102
{ACAD_REACTORS
330
99A9
102
}
330
99A9
100
AcDbXrecord
340
101
  0
MLINESTYLE
  5
18
102
{ACAD_REACTORS
330
17
102
}
330
17
100
AcDbMlineStyle
  2
STANDARD
 70
     0
  3

 62
   256
 51
90.0
 52
90.0
 71
     2
 49
0.5
 62
   256
  6
BYLAYER
 49
-0.5
 62
   256
  6
BYLAYER
  0
PLOTSETTINGS
  5
399D
102
{ACAD_REACTORS
330
19
102
}
330
19
100
AcDbPlotSettings
  1
asami
  2
RICOH imagio MF1540
  4
A4
  6

 40
5.831416606903076
 41
7.651742935180664
 42
4.90008544921875
 43
5.789077758789062
 44
296.9683227539062
 45
209.9733276367187
 46
0.0
 47
0.0
 48
-156.6707931774246
 49
-74.57609991074048
140
58.59973180214831
141
60.61068161925596
142
1.0
143
1.095343097833084
 70
  1712
 72
     1
 73
     1
 74
     4
  7
asami.ctb
 75
     0
147
0.9129559514076438
148
156.6707931774246
149
74.57609991074048
  0
ACDBPLACEHOLDER
  5
F
102
{ACAD_REACTORS
330
E
102
}
330
E
100
AcDbPlaceHolder
280
     0
  0
DICTIONARYVAR
  5
35
102
{ACAD_REACTORS
330
34
102
}
330
34
100
DictionaryVariables
280
     0
  1
1
  0
DICTIONARYVAR
  5
B5E
102
{ACAD_REACTORS
330
34
102
}
330
34
100
DictionaryVariables
280
     0
  1
96
  0
DICTIONARY
  5
260
102
{ACAD_REACTORS
330
43
102
}
330
43
100
AcDbDictionary
  0
DICTIONARY
  5
2C
102
{ACAD_REACTORS
330
2B
102
}
330
2B
100
AcDbDictionary
  3
DWGSETTINGS
350
2D
  0
XRECORD
  5
9982
102
{ACAD_REACTORS
330
9981
102
}
330
9981
100
AcDbXrecord
 90
        1
  0
XRECORD
  5
9983
102
{ACAD_REACTORS
330
9981
102
}
330
9981
100
AcDbXrecord
 90
       70
  0
XRECORD
  5
9984
102
{ACAD_REACTORS
330
9981
102
}
330
9981
100
AcDbXrecord
  1

  0
XRECORD
  5
9985
102
{ACAD_REACTORS
330
9981
102
}
330
9981
100
AcDbXrecord
  1
asami.ctb
  0
XRECORD
  5
9986
102
{ACAD_REACTORS
330
9981
102
}
330
9981
100
AcDbXrecord
340
1A
  0
XRECORD
  5
9987
102
{ACAD_REACTORS
330
9981
102
}
330
9981
100
AcDbXrecord
340
19
  0
XRECORD
  5
9988
102
{ACAD_REACTORS
330
9981
102
}
330
9981
100
AcDbXrecord
340
E
  0
XRECORD
  5
9989
102
{ACAD_REACTORS
330
9981
102
}
330
9981
100
AcDbXrecord
 90
    10781
  0
XRECORD
  5
998A
102
{ACAD_REACTORS
330
9981
102
}
330
9981
100
AcDbXrecord
 90
        4
  0
XRECORD
  5
998B
102
{ACAD_REACTORS
330
9981
102
}
330
9981
100
AcDbXrecord
 90
        0
  0
XRECORD
  5
998C
102
{ACAD_REACTORS
330
9981
102
}
330
9981
100
AcDbXrecord
  1
{AFB28963-8C59-40AE-9337-C84526B81ACE}
  0
XRECORD
  5
998D
102
{ACAD_REACTORS
330
9981
102
}
330
9981
100
AcDbXrecord
  1
{1FA7F149-C94A-4FEE-87B5-F8F006ABDC94}
  0
XRECORD
  5
998E
102
{ACAD_REACTORS
330
9981
102
}
330
9981
100
AcDbXrecord
 40
0.0
  0
XRECORD
  5
998F
102
{ACAD_REACTORS
330
9981
102
}
330
9981
100
AcDbXrecord
1000
DSTYLE
1002
{
1070
    79
 70
     2
1070
   341
340
59
1070
   342
340
59
1070
   371
 70
    -1
1070
   372
 70
    -1
1002
}
  0
XRECORD
  5
9990
102
{ACAD_REACTORS
330
9981
102
}
330
9981
100
AcDbXrecord
340
0
  0
XRECORD
  5
9991
102
{ACAD_REACTORS
330
9981
102
}
330
9981
100
AcDbXrecord
 70
     0
  0
XRECORD
  5
9992
102
{ACAD_REACTORS
330
9981
102
}
330
9981
100
AcDbXrecord
340
0
  0
XRECORD
  5
9993
102
{ACAD_REACTORS
330
9981
102
}
330
9981
100
AcDbXrecord
 10
0.0
 20
0.0
 30
0.0
  0
XRECORD
  5
9994
102
{ACAD_REACTORS
330
9981
102
}
330
9981
100
AcDbXrecord
 10
0.0
 20
0.0
 30
0.0
  0
XRECORD
  5
9995
102
{ACAD_REACTORS
330
9981
102
}
330
9981
100
AcDbXrecord
 10
0.0
 20
0.0
 30
0.0
  0
XRECORD
  5
9996
102
{ACAD_REACTORS
330
9981
102
}
330
9981
100
AcDbXrecord
 10
0.0
 20
0.0
 30
0.0
  0
XRECORD
  5
9997
102
{ACAD_REACTORS
330
9981
102
}
330
9981
100
AcDbXrecord
 10
0.0
 20
0.0
 30
0.0
  0
XRECORD
  5
9998
102
{ACAD_REACTORS
330
9981
102
}
330
9981
100
AcDbXrecord
 10
0.0
 20
0.0
 30
0.0
  0
XRECORD
  5
9999
102
{ACAD_REACTORS
330
9981
102
}
330
9981
100
AcDbXrecord
340
0
  0
XRECORD
  5
999A
102
{ACAD_REACTORS
330
9981
102
}
330
9981
100
AcDbXrecord
 70
     0
  0
XRECORD
  5
999B
102
{ACAD_REACTORS
330
9981
102
}
330
9981
100
AcDbXrecord
340
0
  0
XRECORD
  5
999C
102
{ACAD_REACTORS
330
9981
102
}
330
9981
100
AcDbXrecord
 10
0.0
 20
0.0
 30
0.0
  0
XRECORD
  5
999D
102
{ACAD_REACTORS
330
9981
102
}
330
9981
100
AcDbXrecord
 10
0.0
 20
0.0
 30
0.0
  0
XRECORD
  5
999E
102
{ACAD_REACTORS
330
9981
102
}
330
9981
100
AcDbXrecord
 10
0.0
 20
0.0
 30
0.0
  0
XRECORD
  5
999F
102
{ACAD_REACTORS
330
9981
102
}
330
9981
100
AcDbXrecord
 10
0.0
 20
0.0
 30
0.0
  0
XRECORD
  5
99A0
102
{ACAD_REACTORS
330
9981
102
}
330
9981
100
AcDbXrecord
 10
0.0
 20
0.0
 30
0.0
  0
XRECORD
  5
99A1
102
{ACAD_REACTORS
330
9981
102
}
330
9981
100
AcDbXrecord
 10
0.0
 20
0.0
 30
0.0
  0
LAYER_INDEX
  5
9976
102
{ACAD_REACTORS
330
9975
102
}
330
9975
100
AcDbIndex
 40
2452941.606445844
100
AcDbLayerIndex
  8
0
360
9977
 90
        0
  8
AM_0
360
9978
 90
       31
  8
AM_5
360
9979
 90
        8
  8
AM_7
360
997A
 90
        2
  8
AM_6
360
997B
 90
        3
  8
Defpoints
360
997C
 90
        0
  8
AM_3
360
997D
 90
        0
  8
AM_11
360
997E
 90
        2
  8
PV0001_1
360
997F
 90
        0
  0
XRECORD
  5
2D
102
{ACAD_REACTORS
330
2C
102
}
330
2C
100
AcDbXrecord
  1
VERSION
140
15.0
  1
PRODUCT
  2
AutoCAD Mechanical 2000
  0
IDBUFFER
  5
9977
330
0
100
AcDbIdBuffer
  0
IDBUFFER
  5
9978
330
0
100
AcDbIdBuffer
330
934E
330
934F
330
9350
330
9352
330
9353
330
9354
330
9356
330
9358
330
9366
330
9367
330
9368
330
9369
330
936B
330
936C
330
936E
330
9339
330
933A
330
933B
330
933C
330
9340
330
9341
330
9342
330
9343
330
9344
330
9345
330
9346
330
9347
330
9348
330
9349
330
934A
330
934B
  0
IDBUFFER
  5
9979
330
0
100
AcDbIdBuffer
330
5EBC
330
5EBD
330
940F
330
94C8
330
9574
330
965F
330
96EB
330
97A9
  0
IDBUFFER
  5
997A
330
0
100
AcDbIdBuffer
330
9355
330
9357
  0
IDBUFFER
  5
997B
330
0
100
AcDbIdBuffer
330
388D
330
5EBB
330
5EBE
  0
IDBUFFER
  5
997C
330
0
100
AcDbIdBuffer
  0
IDBUFFER
  5
997D
330
0
100
AcDbIdBuffer
  0
IDBUFFER
  5
997E
330
0
100
AcDbIdBuffer
330
956A
330
956B
  0
IDBUFFER
  5
997F
330
0
100
AcDbIdBuffer
  0
ENDSEC
  0
EOF
